  0
SECTION
  2
HEADER
  9
$ACADVER
  1
AC1015
  9
$ACADMAINTVER
 70
     6
  9
$DWGCODEPAGE
  3
ANSI_1252
  9
$INSBASE
 10
0.0
 20
0.0
 30
0.0
  9
$EXTMIN
 10
-215.919784
 20
-150.592599
 30
0.0
  9
$EXTMAX
 10
624.080216
 20
443.407401
 30
0.0
  9
$LIMMIN
 10
-215.919784
 20
-150.592599
  9
$LIMMAX
 10
624.080216
 20
443.407401
  9
$ORTHOMODE
 70
     0
  9
$REGENMODE
 70
     1
  9
$FILLMODE
 70
     1
  9
$QTEXTMODE
 70
     0
  9
$MIRRTEXT
 70
     1
  9
$LTSCALE
 40
2.0
  9
$ATTMODE
 70
     1
  9
$TEXTSIZE
 40
2.5
  9
$TRACEWID
 40
1.0
  9
$TEXTSTYLE
  7
Standard
  9
$CLAYER
  8
0
  9
$CELTYPE
  6
ByLayer
  9
$CECOLOR
 62
     7
  9
$CELTSCALE
 40
1.0
  9
$DISPSILH
 70
     0
  9
$DIMSCALE
 40
2.0
  9
$DIMASZ
 40
3.5
  9
$DIMEXO
 40
0.625
  9
$DIMDLI
 40
3.75
  9
$DIMRND
 40
0.0
  9
$DIMDLE
 40
0.0
  9
$DIMEXE
 40
1.25
  9
$DIMTP
 40
0.0
  9
$DIMTM
 40
0.0
  9
$DIMTXT
 40
3.5
  9
$DIMCEN
 40
2.5
  9
$DIMTSZ
 40
0.0
  9
$DIMTOL
 70
     0
  9
$DIMLIM
 70
     0
  9
$DIMTIH
 70
     0
  9
$DIMTOH
 70
     0
  9
$DIMSE1
 70
     0
  9
$DIMSE2
 70
     0
  9
$DIMTAD
 70
     1
  9
$DIMZIN
 70
     8
  9
$DIMBLK
  1

  9
$DIMASO
 70
     1
  9
$DIMSHO
 70
     1
  9
$DIMPOST
  1

  9
$DIMAPOST
  1

  9
$DIMALT
 70
     0
  9
$DIMALTD
 70
     3
  9
$DIMALTF
 40
0.03937
  9
$DIMLFAC
 40
1.0
  9
$DIMTOFL
 70
     1
  9
$DIMTVP
 40
0.0
  9
$DIMTIX
 70
     0
  9
$DIMSOXD
 70
     0
  9
$DIMSAH
 70
     0
  9
$DIMBLK1
  1

  9
$DIMBLK2
  1

  9
$DIMSTYLE
  2
ISO-25
  9
$DIMCLRD
 70
     0
  9
$DIMCLRE
 70
     0
  9
$DIMCLRT
 70
     0
  9
$DIMTFAC
 40
1.0
  9
$DIMGAP
 40
0.625
  9
$DIMJUST
 70
     0
  9
$DIMSD1
 70
     0
  9
$DIMSD2
 70
     0
  9
$DIMTOLJ
 70
     0
  9
$DIMTZIN
 70
     8
  9
$DIMALTZ
 70
     0
  9
$DIMALTTZ
 70
     0
  9
$DIMUPT
 70
     0
  9
$DIMDEC
 70
     2
  9
$DIMTDEC
 70
     2
  9
$DIMALTU
 70
     2
  9
$DIMALTTD
 70
     3
  9
$DIMTXSTY
  7
Standard
  9
$DIMAUNIT
 70
     0
  9
$DIMADEC
 70
     0
  9
$DIMALTRND
 40
0.0
  9
$DIMAZIN
 70
     0
  9
$DIMDSEP
 70
    44
  9
$DIMATFIT
 70
     3
  9
$DIMFRAC
 70
     0
  9
$DIMLDRBLK
  1

  9
$DIMLUNIT
 70
     2
  9
$DIMLWD
 70
    -2
  9
$DIMLWE
 70
    -2
  9
$DIMTMOVE
 70
     0
  9
$LUNITS
 70
     2
  9
$LUPREC
 70
     4
  9
$SKETCHINC
 40
1.0
  9
$FILLETRAD
 40
10.0
  9
$AUNITS
 70
     0
  9
$AUPREC
 70
     0
  9
$MENU
  1
.
  9
$ELEVATION
 40
0.0
  9
$PELEVATION
 40
0.0
  9
$THICKNESS
 40
0.0
  9
$LIMCHECK
 70
     0
  9
$CHAMFERA
 40
10.0
  9
$CHAMFERB
 40
10.0
  9
$CHAMFERC
 40
20.0
  9
$CHAMFERD
 40
0.0
  9
$SKPOLY
 70
     0
  9
$TDCREATE
 40
2456002.267372199
  9
$TDUCREATE
 40
2456002.225705532
  9
$TDUPDATE
 40
2456002.267372211
  9
$TDUUPDATE
 40
2456002.225705544
  9
$TDINDWG
 40
0.0000000116
  9
$TDUSRTIMER
 40
0.0000000116
  9
$USRTIMER
 70
     1
  9
$ANGBASE
 50
0.0
  9
$ANGDIR
 70
     0
  9
$PDMODE
 70
     0
  9
$PDSIZE
 40
0.0
  9
$PLINEWID
 40
0.0
  9
$SPLFRAME
 70
     0
  9
$SPLINETYPE
 70
     6
  9
$SPLINESEGS
 70
     8
  9
$HANDSEED
  5
3CB
  9
$SURFTAB1
 70
     6
  9
$SURFTAB2
 70
     6
  9
$SURFTYPE
 70
     6
  9
$SURFU
 70
     6
  9
$SURFV
 70
     6
  9
$UCSBASE
  2

  9
$UCSNAME
  2

  9
$UCSORG
 10
0.0
 20
0.0
 30
0.0
  9
$UCSXDIR
 10
1.0
 20
0.0
 30
0.0
  9
$UCSYDIR
 10
0.0
 20
1.0
 30
0.0
  9
$UCSORTHOREF
  2

  9
$UCSORTHOVIEW
 70
     0
  9
$UCSORGTOP
 10
0.0
 20
0.0
 30
0.0
  9
$UCSORGBOTTOM
 10
0.0
 20
0.0
 30
0.0
  9
$UCSORGLEFT
 10
0.0
 20
0.0
 30
0.0
  9
$UCSORGRIGHT
 10
0.0
 20
0.0
 30
0.0
  9
$UCSORGFRONT
 10
0.0
 20
0.0
 30
0.0
  9
$UCSORGBACK
 10
0.0
 20
0.0
 30
0.0
  9
$PUCSBASE
  2

  9
$PUCSNAME
  2

  9
$PUCSORG
 10
0.0
 20
0.0
 30
0.0
  9
$PUCSXDIR
 10
1.0
 20
0.0
 30
0.0
  9
$PUCSYDIR
 10
0.0
 20
1.0
 30
0.0
  9
$PUCSORTHOREF
  2

  9
$PUCSORTHOVIEW
 70
     0
  9
$PUCSORGTOP
 10
0.0
 20
0.0
 30
0.0
  9
$PUCSORGBOTTOM
 10
0.0
 20
0.0
 30
0.0
  9
$PUCSORGLEFT
 10
0.0
 20
0.0
 30
0.0
  9
$PUCSORGRIGHT
 10
0.0
 20
0.0
 30
0.0
  9
$PUCSORGFRONT
 10
0.0
 20
0.0
 30
0.0
  9
$PUCSORGBACK
 10
0.0
 20
0.0
 30
0.0
  9
$USERI1
 70
     0
  9
$USERI2
 70
     0
  9
$USERI3
 70
     0
  9
$USERI4
 70
     0
  9
$USERI5
 70
     0
  9
$USERR1
 40
0.0
  9
$USERR2
 40
0.0
  9
$USERR3
 40
0.0
  9
$USERR4
 40
0.0
  9
$USERR5
 40
0.0
  9
$WORLDVIEW
 70
     1
  9
$SHADEDGE
 70
     3
  9
$SHADEDIF
 70
    70
  9
$TILEMODE
 70
     1
  9
$MAXACTVP
 70
    64
  9
$PINSBASE
 10
0.0
 20
0.0
 30
0.0
  9
$PLIMCHECK
 70
     0
  9
$PEXTMIN
 10
-215.919784
 20
-150.592599
 30
0.0
  9
$PEXTMAX
 10
624.080216
 20
443.407401
 30
0.0
  9
$PLIMMIN
 10
-215.919784
 20
-150.592599
  9
$PLIMMAX
 10
624.080216
 20
443.407401
  9
$UNITMODE
 70
     0
  9
$VISRETAIN
 70
     1
  9
$PLINEGEN
 70
     0
  9
$PSLTSCALE
 70
     1
  9
$TREEDEPTH
 70
  3020
  9
$CMLSTYLE
  2
Standard
  9
$CMLJUST
 70
     0
  9
$CMLSCALE
 40
20.0
  9
$PROXYGRAPHICS
 70
     1
  9
$MEASUREMENT
 70
     1
  9
$CELWEIGHT
370
    -1
  9
$ENDCAPS
280
     0
  9
$JOINSTYLE
280
     0
  9
$LWDISPLAY
290
     0
  9
$INSUNITS
 70
     4
  9
$HYPERLINKBASE
  1

  9
$STYLESHEET
  1

  9
$XEDIT
290
     1
  9
$CEPSNTYPE
380
     0
  9
$PSTYLEMODE
290
     1
  9
$FINGERPRINTGUID
  2
{FAEB1C30-E019-11D5-929B-00C0DF256EC4}
  9
$VERSIONGUID
  2
{FAEB1C32-E019-11D5-929B-00C0DF256EC4}
  9
$EXTNAMES
290
     1
  9
$PSVPSCALE
 40
0.0
  9
$OLESTARTUP
290
     0
  0
ENDSEC
  0
SECTION
  2
CLASSES
  0
CLASS
  1
ACDBDICTIONARYWDFLT
  2
AcDbDictionaryWithDefault
  3
ObjectDBX Classes
 90
        0
280
     0
281
     0
  0
CLASS
  1
ACDBPLACEHOLDER
  2
AcDbPlaceHolder
  3
ObjectDBX Classes
 90
        0
280
     0
281
     0
  0
CLASS
  1
LAYOUT
  2
AcDbLayout
  3
ObjectDBX Classes
 90
        0
280
     0
281
     0
  0
ENDSEC
  0
SECTION
  2
TABLES
  0
TABLE
  2
VPORT
  5
8
330
0
100
AcDbSymbolTable
 70
     2
  0
VPORT
  5
29
330
8
100
AcDbSymbolTableRecord
100
AcDbViewportTableRecord
  2
*ACTIVE
 70
     0
 10
0.0
 20
0.0
 11
1.0
 21
1.0
 12
204.080216
 22
146.407401
 13
0.0
 23
0.0
 14
1.0
 24
1.0
 15
0.0
 25
0.0
 16
0.0
 26
0.0
 36
1.0
 17
0.0
 27
0.0
 37
0.0
 40
594.0
 41
1.414141
 42
50.0
 43
0.0
 44
0.0
 50
0.0
 51
0.0
 71
    16
 72
   100
 73
     1
 74
     0
 75
     0
 76
     0
 77
     0
 78
     0
281
     0
 65
     0
110
0.0
120
0.0
130
0.0
111
1.0
121
0.0
131
0.0
112
0.0
122
1.0
132
0.0
 79
     0
146
0.0
  0
ENDTAB
  0
TABLE
  2
LTYPE
  5
5
330
0
100
AcDbSymbolTable
 70
     3
  0
LTYPE
  5
14
330
5
100
AcDbSymbolTableRecord
100
AcDbLinetypeTableRecord
  2
ByBlock
 70
     0
  3

 72
    65
 73
     0
 40
0.0
  0
LTYPE
  5
15
330
5
100
AcDbSymbolTableRecord
100
AcDbLinetypeTableRecord
  2
ByLayer
 70
     0
  3

 72
    65
 73
     0
 40
0.0
  0
LTYPE
  5
16
330
5
100
AcDbSymbolTableRecord
100
AcDbLinetypeTableRecord
  2
Continuous
 70
     0
  3
Solid line
 72
    65
 73
     0
 40
0.0
  0
LTYPE
  5
2A
330
5
100
AcDbSymbolTableRecord
100
AcDbLinetypeTableRecord
  2
DASHED
 70
     0
  3
__ __ __ __ __
 72
    65
 73
     2
 40
6.25
 49
5.0
 74
     4
 75
     0
340
0
 46
1.0
 50
0.0
 44
0.0
 45
0.0
 49
-1.25
 74
     4
 75
     0
340
0
 46
1.0
 50
0.0
 44
0.0
 45
0.0
  0
LTYPE
  5
374
330
5
100
AcDbSymbolTableRecord
100
AcDbLinetypeTableRecord
  2
DASHDOT
 70
     0
  3
__ . __ . __ . __ . __
 72
    65
 73
     4
 40
7.5
 49
5.0
 74
     4
 75
     0
340
0
 46
1.0
 50
0.0
 44
0.0
 45
0.0
 49
-1.25
 74
     4
 75
     0
340
0
 46
1.0
 50
0.0
 44
0.0
 45
0.0
 49
0.0
 74
     4
 75
     0
340
0
 46
1.0
 50
0.0
 44
0.0
 45
0.0
 49
-1.25
 74
     4
 75
     0
340
0
 46
1.0
 50
0.0
 44
0.0
 45
0.0
  0
ENDTAB
  0
TABLE
  2
LAYER
  5
2
330
0
100
AcDbSymbolTable
 70
     8
  0
LAYER
  5
10
330
2
100
AcDbSymbolTableRecord
100
AcDbLayerTableRecord
  2
0
 70
     0
 62
     7
  6
Continuous
370
    -3
390
F
  0
LAYER
  5
2B
330
2
100
AcDbSymbolTableRecord
100
AcDbLayerTableRecord
  2
LC-INFO-1-2-mm-A3-0
 70
     1
 62
     7
  6
ByBlock
370
    -3
390
F
  0
LAYER
  5
2C
330
2
100
AcDbSymbolTableRecord
100
AcDbLayerTableRecord
  2
LC-CUT-HIDDEN
 70
     0
 62
     7
  6
DASHED
370
    -3
390
F
  0
LAYER
  5
2D
330
2
100
AcDbSymbolTableRecord
100
AcDbLayerTableRecord
  2
LC-VIEWPORT
 70
     0
 62
     7
  6
ByBlock
370
    -3
390
F
  0
LAYER
  5
2E
330
2
100
AcDbSymbolTableRecord
100
AcDbLayerTableRecord
  2
LC-3D-HIDDEN
 70
     0
 62
     9
  6
DASHED
370
    -3
390
F
  0
LAYER
  5
30
330
2
100
AcDbSymbolTableRecord
100
AcDbLayerTableRecord
  2
LC-001-100-D00-0
 70
     0
 62
     1
  6
ByBlock
370
    -3
390
F
  0
LAYER
  5
378
330
2
100
AcDbSymbolTableRecord
100
AcDbLayerTableRecord
  2
LC-002-003-----0
 70
     0
 62
     2
  6
ByBlock
370
    -3
390
F
  0
LAYER
  5
37A
330
2
100
AcDbSymbolTableRecord
100
AcDbLayerTableRecord
  2
Defpoints
 70
     0
 62
     7
  6
Continuous
290
     0
370
    -3
390
F
  0
ENDTAB
  0
TABLE
  2
STYLE
  5
3
330
0
100
AcDbSymbolTable
 70
     3
  0
STYLE
  5
11
330
3
100
AcDbSymbolTableRecord
100
AcDbTextStyleTableRecord
  2
Standard
 70
     0
 40
0.0
 41
1.0
 50
0.0
 71
     0
 42
2.5
  3
txt
  4

  0
STYLE
  5
2F
330
3
100
AcDbSymbolTableRecord
100
AcDbTextStyleTableRecord
  2
LCTX15-400-0-0-Arial
 70
     0
 40
0.0
 41
0.8
 50
0.0
 71
     0
 42
3.5
  3

  4

1001
ACAD
1000
Arial
1071
 16777218
  0
STYLE
  5
376
330
3
100
AcDbSymbolTableRecord
100
AcDbTextStyleTableRecord
  2
LCTX15-400-0-0pDIN-Schrift
 70
     0
 40
2.5
 41
0.8
 50
15.0
 71
     0
 42
3.5
  3
STANDARD
  4

  0
ENDTAB
  0
TABLE
  2
VIEW
  5
6
330
0
100
AcDbSymbolTable
 70
     0
  0
ENDTAB
  0
TABLE
  2
UCS
  5
7
330
0
100
AcDbSymbolTable
 70
     0
  0
ENDTAB
  0
TABLE
  2
APPID
  5
9
330
0
100
AcDbSymbolTable
 70
     1
  0
APPID
  5
12
330
9
100
AcDbSymbolTableRecord
100
AcDbRegAppTableRecord
  2
ACAD
 70
     0
  0
ENDTAB
  0
TABLE
  2
DIMSTYLE
  5
A
330
0
100
AcDbSymbolTable
 70
     2
100
AcDbDimStyleTable
  0
DIMSTYLE
105
27
330
A
100
AcDbSymbolTableRecord
100
AcDbDimStyleTableRecord
  2
ISO-25
 70
     0
 41
2.5
 42
0.625
 43
3.75
 44
1.25
 73
     0
 74
     0
 77
     1
 78
     8
140
2.5
141
2.5
143
0.03937
147
0.625
171
     3
172
     1
271
     2
272
     2
274
     3
278
    44
283
     0
284
     8
340
11
  0
DIMSTYLE
105
377
102
{ACAD_REACTORS
330
379
330
387
330
394
330
3A1
330
3AF
330
3BC
102
}
330
A
100
AcDbSymbolTableRecord
100
AcDbDimStyleTableRecord
  2
LC-DIM-L-0140-02-02
 70
     0
 40
2.0
 41
14.0
 42
0.0
 43
7.5
 44
1.8
 73
     0
 74
     0
 77
     1
 78
     8
 79
     2
140
14.0
141
0.0
146
0.71
147
1.5
176
     2
177
     2
178
     2
179
     2
271
     2
278
    44
289
     1
340
376
  0
ENDTAB
  0
TABLE
  2
BLOCK_RECORD
  5
1
330
0
100
AcDbSymbolTable
 70
    57
  0
BLOCK_RECORD
  5
1F
330
1
100
AcDbSymbolTableRecord
100
AcDbBlockTableRecord
  2
*Model_Space
340
22
  0
BLOCK_RECORD
  5
1B
330
1
100
AcDbSymbolTableRecord
100
AcDbBlockTableRecord
  2
*Paper_Space
340
1E
  0
BLOCK_RECORD
  5
23
330
1
100
AcDbSymbolTableRecord
100
AcDbBlockTableRecord
  2
*Paper_Space0
340
26
  0
BLOCK_RECORD
  5
39
330
1
100
AcDbSymbolTableRecord
100
AcDbBlockTableRecord
  2
POLY1
340
0
102
{BLKREFS
331
44
102
}
  0
BLOCK_RECORD
  5
46
330
1
100
AcDbSymbolTableRecord
100
AcDbBlockTableRecord
  2
POLY2
340
0
102
{BLKREFS
331
51
102
}
  0
BLOCK_RECORD
  5
67
330
1
100
AcDbSymbolTableRecord
100
AcDbBlockTableRecord
  2
POLY3
340
0
102
{BLKREFS
331
84
102
}
  0
BLOCK_RECORD
  5
101
330
1
100
AcDbSymbolTableRecord
100
AcDbBlockTableRecord
  2
KLON1
340
0
102
{BLKREFS
331
107
102
}
  0
BLOCK_RECORD
  5
108
330
1
100
AcDbSymbolTableRecord
100
AcDbBlockTableRecord
  2
KLON2
340
0
102
{BLKREFS
331
10E
102
}
  0
BLOCK_RECORD
  5
110
330
1
100
AcDbSymbolTableRecord
100
AcDbBlockTableRecord
  2
KLON3
340
0
102
{BLKREFS
331
116
102
}
  0
BLOCK_RECORD
  5
117
330
1
100
AcDbSymbolTableRecord
100
AcDbBlockTableRecord
  2
KLON4
340
0
102
{BLKREFS
331
11D
102
}
  0
BLOCK_RECORD
  5
11F
330
1
100
AcDbSymbolTableRecord
100
AcDbBlockTableRecord
  2
KLON5
340
0
102
{BLKREFS
331
125
102
}
  0
BLOCK_RECORD
  5
126
330
1
100
AcDbSymbolTableRecord
100
AcDbBlockTableRecord
  2
KLON6
340
0
102
{BLKREFS
331
12C
102
}
  0
BLOCK_RECORD
  5
12E
330
1
100
AcDbSymbolTableRecord
100
AcDbBlockTableRecord
  2
KLON7
340
0
102
{BLKREFS
331
134
102
}
  0
BLOCK_RECORD
  5
135
330
1
100
AcDbSymbolTableRecord
100
AcDbBlockTableRecord
  2
KLON8
340
0
102
{BLKREFS
331
13B
102
}
  0
BLOCK_RECORD
  5
13D
330
1
100
AcDbSymbolTableRecord
100
AcDbBlockTableRecord
  2
KLON9
340
0
102
{BLKREFS
331
143
102
}
  0
BLOCK_RECORD
  5
144
330
1
100
AcDbSymbolTableRecord
100
AcDbBlockTableRecord
  2
KLON10
340
0
102
{BLKREFS
331
14A
102
}
  0
BLOCK_RECORD
  5
14F
330
1
100
AcDbSymbolTableRecord
100
AcDbBlockTableRecord
  2
KLON11
340
0
102
{BLKREFS
331
155
102
}
  0
BLOCK_RECORD
  5
156
330
1
100
AcDbSymbolTableRecord
100
AcDbBlockTableRecord
  2
KLON12
340
0
102
{BLKREFS
331
15C
102
}
  0
BLOCK_RECORD
  5
15E
330
1
100
AcDbSymbolTableRecord
100
AcDbBlockTableRecord
  2
KLON13
340
0
102
{BLKREFS
331
164
102
}
  0
BLOCK_RECORD
  5
165
330
1
100
AcDbSymbolTableRecord
100
AcDbBlockTableRecord
  2
KLON14
340
0
102
{BLKREFS
331
16B
102
}
  0
BLOCK_RECORD
  5
16D
330
1
100
AcDbSymbolTableRecord
100
AcDbBlockTableRecord
  2
KLON15
340
0
102
{BLKREFS
331
173
102
}
  0
BLOCK_RECORD
  5
174
330
1
100
AcDbSymbolTableRecord
100
AcDbBlockTableRecord
  2
KLON16
340
0
102
{BLKREFS
331
17A
102
}
  0
BLOCK_RECORD
  5
17C
330
1
100
AcDbSymbolTableRecord
100
AcDbBlockTableRecord
  2
KLON17
340
0
102
{BLKREFS
331
182
102
}
  0
BLOCK_RECORD
  5
183
330
1
100
AcDbSymbolTableRecord
100
AcDbBlockTableRecord
  2
KLON18
340
0
102
{BLKREFS
331
189
102
}
  0
BLOCK_RECORD
  5
18B
330
1
100
AcDbSymbolTableRecord
100
AcDbBlockTableRecord
  2
KLON19
340
0
102
{BLKREFS
331
191
102
}
  0
BLOCK_RECORD
  5
192
330
1
100
AcDbSymbolTableRecord
100
AcDbBlockTableRecord
  2
KLON20
340
0
102
{BLKREFS
331
198
102
}
  0
BLOCK_RECORD
  5
1A3
330
1
100
AcDbSymbolTableRecord
100
AcDbBlockTableRecord
  2
POLY4
340
0
102
{BLKREFS
331
1AE
102
}
  0
BLOCK_RECORD
  5
1B2
330
1
100
AcDbSymbolTableRecord
100
AcDbBlockTableRecord
  2
POLY5
340
0
102
{BLKREFS
331
1BD
102
}
  0
BLOCK_RECORD
  5
1BE
330
1
100
AcDbSymbolTableRecord
100
AcDbBlockTableRecord
  2
POLY6
340
0
102
{BLKREFS
331
1C9
102
}
  0
BLOCK_RECORD
  5
1D3
330
1
100
AcDbSymbolTableRecord
100
AcDbBlockTableRecord
  2
POLY7
340
0
102
{BLKREFS
331
1DE
102
}
  0
BLOCK_RECORD
  5
1E1
330
1
100
AcDbSymbolTableRecord
100
AcDbBlockTableRecord
  2
POLY8
340
0
102
{BLKREFS
331
1F0
102
}
  0
BLOCK_RECORD
  5
244
330
1
100
AcDbSymbolTableRecord
100
AcDbBlockTableRecord
  2
POLY9
340
0
102
{BLKREFS
331
24F
102
}
  0
BLOCK_RECORD
  5
276
330
1
100
AcDbSymbolTableRecord
100
AcDbBlockTableRecord
  2
POLY10
340
0
102
{BLKREFS
331
289
102
}
  0
BLOCK_RECORD
  5
28F
330
1
100
AcDbSymbolTableRecord
100
AcDbBlockTableRecord
  2
POLY11
340
0
102
{BLKREFS
331
298
102
}
  0
BLOCK_RECORD
  5
299
330
1
100
AcDbSymbolTableRecord
100
AcDbBlockTableRecord
  2
POLY12
340
0
102
{BLKREFS
331
2A2
102
}
  0
BLOCK_RECORD
  5
2A3
330
1
100
AcDbSymbolTableRecord
100
AcDbBlockTableRecord
  2
POLY13
340
0
102
{BLKREFS
331
2AC
102
}
  0
BLOCK_RECORD
  5
2AD
330
1
100
AcDbSymbolTableRecord
100
AcDbBlockTableRecord
  2
POLY14
340
0
102
{BLKREFS
331
2B6
102
}
  0
BLOCK_RECORD
  5
2B7
330
1
100
AcDbSymbolTableRecord
100
AcDbBlockTableRecord
  2
POLY15
340
0
102
{BLKREFS
331
2C0
102
}
  0
BLOCK_RECORD
  5
2C1
330
1
100
AcDbSymbolTableRecord
100
AcDbBlockTableRecord
  2
POLY16
340
0
102
{BLKREFS
331
2CA
102
}
  0
BLOCK_RECORD
  5
2CB
330
1
100
AcDbSymbolTableRecord
100
AcDbBlockTableRecord
  2
POLY17
340
0
102
{BLKREFS
331
2D4
102
}
  0
BLOCK_RECORD
  5
2D5
330
1
100
AcDbSymbolTableRecord
100
AcDbBlockTableRecord
  2
POLY18
340
0
102
{BLKREFS
331
2DE
102
}
  0
BLOCK_RECORD
  5
2DF
330
1
100
AcDbSymbolTableRecord
100
AcDbBlockTableRecord
  2
POLY19
340
0
102
{BLKREFS
331
2E8
102
}
  0
BLOCK_RECORD
  5
2E9
330
1
100
AcDbSymbolTableRecord
100
AcDbBlockTableRecord
  2
POLY20
340
0
102
{BLKREFS
331
2F2
102
}
  0
BLOCK_RECORD
  5
2F3
330
1
100
AcDbSymbolTableRecord
100
AcDbBlockTableRecord
  2
POLY21
340
0
102
{BLKREFS
331
2FC
102
}
  0
BLOCK_RECORD
  5
2FD
330
1
100
AcDbSymbolTableRecord
100
AcDbBlockTableRecord
  2
POLY22
340
0
102
{BLKREFS
331
306
102
}
  0
BLOCK_RECORD
  5
307
330
1
100
AcDbSymbolTableRecord
100
AcDbBlockTableRecord
  2
KLON21
340
0
102
{BLKREFS
331
326
102
}
  0
BLOCK_RECORD
  5
327
330
1
100
AcDbSymbolTableRecord
100
AcDbBlockTableRecord
  2
KLON22
340
0
102
{BLKREFS
331
344
102
}
  0
BLOCK_RECORD
  5
345
330
1
100
AcDbSymbolTableRecord
100
AcDbBlockTableRecord
  2
KLON23
340
0
102
{BLKREFS
331
34B
102
}
  0
BLOCK_RECORD
  5
34C
330
1
100
AcDbSymbolTableRecord
100
AcDbBlockTableRecord
  2
KLON24
340
0
102
{BLKREFS
331
353
102
}
  0
BLOCK_RECORD
  5
354
330
1
100
AcDbSymbolTableRecord
100
AcDbBlockTableRecord
  2
KLON25
340
0
102
{BLKREFS
331
35B
102
}
  0
BLOCK_RECORD
  5
35C
330
1
100
AcDbSymbolTableRecord
100
AcDbBlockTableRecord
  2
KLON26
340
0
102
{BLKREFS
331
363
102
}
  0
BLOCK_RECORD
  5
364
330
1
100
AcDbSymbolTableRecord
100
AcDbBlockTableRecord
  2
KLON27
340
0
102
{BLKREFS
331
36C
102
}
  0
BLOCK_RECORD
  5
36D
330
1
100
AcDbSymbolTableRecord
100
AcDbBlockTableRecord
  2
KLON28
340
0
102
{BLKREFS
331
372
102
}
  0
BLOCK_RECORD
  5
37B
330
1
100
AcDbSymbolTableRecord
100
AcDbBlockTableRecord
  2
*D51
340
0
  0
BLOCK_RECORD
  5
388
330
1
100
AcDbSymbolTableRecord
100
AcDbBlockTableRecord
  2
*D52
340
0
  0
BLOCK_RECORD
  5
395
330
1
100
AcDbSymbolTableRecord
100
AcDbBlockTableRecord
  2
*D53
340
0
  0
BLOCK_RECORD
  5
3A2
330
1
100
AcDbSymbolTableRecord
100
AcDbBlockTableRecord
  2
*D54
340
0
  0
BLOCK_RECORD
  5
3B0
330
1
100
AcDbSymbolTableRecord
100
AcDbBlockTableRecord
  2
*D55
340
0
  0
BLOCK_RECORD
  5
3BD
330
1
100
AcDbSymbolTableRecord
100
AcDbBlockTableRecord
  2
*D56
340
0
  0
ENDTAB
  0
ENDSEC
  0
SECTION
  2
BLOCKS
  0
BLOCK
  5
20
330
1F
100
AcDbEntity
  8
0
100
AcDbBlockBegin
  2
*Model_Space
 70
     0
 71
     0
 10
0.0
 20
0.0
 30
0.0
  3
*Model_Space
  1

  0
ENDBLK
  5
21
330
1F
100
AcDbEntity
  8
0
100
AcDbBlockEnd
  0
BLOCK
  5
1C
330
1B
100
AcDbEntity
 67
     1
  8
0
100
AcDbBlockBegin
  2
*Paper_Space
 70
     0
 71
     0
 10
0.0
 20
0.0
 30
0.0
  3
*Paper_Space
  1

  0
ENDBLK
  5
1D
330
1B
100
AcDbEntity
 67
     1
  8
0
100
AcDbBlockEnd
  0
BLOCK
  5
24
330
23
100
AcDbEntity
  8
0
100
AcDbBlockBegin
  2
*Paper_Space0
 70
     0
 71
     0
 10
0.0
 20
0.0
 30
0.0
  3
*Paper_Space0
  1

  0
ENDBLK
  5
25
330
23
100
AcDbEntity
  8
0
100
AcDbBlockEnd
  0
BLOCK
  5
3A
330
39
100
AcDbEntity
  8
0
100
AcDbBlockBegin
  2
POLY1
 70
     0
 71
     0
 10
0.0
 20
0.0
 30
0.0
  3
POLY1
  1

  4
POLY1
  0
LINE
  5
3C
330
39
100
AcDbEntity
  8
LC-001-100-D00-0
 62
     7
370
    50
100
AcDbLine
 10
88.696319
 20
213.871462
 30
0.0
 11
88.696319
 21
213.871462
 31
0.0
  0
LINE
  5
3D
330
39
100
AcDbEntity
  8
LC-001-100-D00-0
 62
     7
370
    50
100
AcDbLine
 10
88.696319
 20
213.871462
 30
0.0
 11
88.936218
 21
213.745331
 31
0.0
  0
LINE
  5
3E
330
39
100
AcDbEntity
  8
LC-001-100-D00-0
 62
     7
370
    50
100
AcDbLine
 10
88.936218
 20
213.745331
 30
0.0
 11
88.936218
 21
213.745331
 31
0.0
  0
LINE
  5
3F
330
39
100
AcDbEntity
  8
LC-001-100-D00-0
 62
     7
370
    50
100
AcDbLine
 10
88.936218
 20
213.745331
 30
0.0
 11
89.300066
 21
213.554033
 31
0.0
  0
LINE
  5
40
330
39
100
AcDbEntity
  8
LC-001-100-D00-0
 62
     7
370
    50
100
AcDbLine
 10
89.300066
 20
213.554033
 30
0.0
 11
89.300066
 21
213.554033
 31
0.0
  0
LINE
  5
41
330
39
100
AcDbEntity
  8
LC-001-100-D00-0
 62
     7
370
    50
100
AcDbLine
 10
89.300066
 20
213.554033
 30
0.0
 11
89.663083
 21
213.348768
 31
0.0
  0
LINE
  5
42
330
39
100
AcDbEntity
  8
LC-001-100-D00-0
 62
     7
370
    50
100
AcDbLine
 10
89.663083
 20
213.348768
 30
0.0
 11
89.663083
 21
213.348768
 31
0.0
  0
LINE
  5
43
330
39
100
AcDbEntity
  8
LC-001-100-D00-0
 62
     7
370
    50
100
AcDbLine
 10
89.663083
 20
213.348768
 30
0.0
 11
89.786748
 21
213.278843
 31
0.0
  0
ENDBLK
  5
3B
330
39
100
AcDbEntity
  8
0
100
AcDbBlockEnd
  0
BLOCK
  5
47
330
46
100
AcDbEntity
  8
0
100
AcDbBlockBegin
  2
POLY2
 70
     0
 71
     0
 10
0.0
 20
0.0
 30
0.0
  3
POLY2
  1

  4
POLY2
  0
LINE
  5
49
330
46
100
AcDbEntity
  8
LC-001-100-D00-0
 62
     7
370
    50
100
AcDbLine
 10
94.861689
 20
212.678625
 30
0.0
 11
94.861689
 21
212.678625
 31
0.0
  0
LINE
  5
4A
330
46
100
AcDbEntity
  8
LC-001-100-D00-0
 62
     7
370
    50
100
AcDbLine
 10
94.861689
 20
212.678625
 30
0.0
 11
94.647892
 21
212.795259
 31
0.0
  0
LINE
  5
4B
330
46
100
AcDbEntity
  8
LC-001-100-D00-0
 62
     7
370
    50
100
AcDbLine
 10
94.647892
 20
212.795259
 30
0.0
 11
94.647892
 21
212.795259
 31
0.0
  0
LINE
  5
4C
330
46
100
AcDbEntity
  8
LC-001-100-D00-0
 62
     7
370
    50
100
AcDbLine
 10
94.647892
 20
212.795259
 30
0.0
 11
94.284656
 21
212.993417
 31
0.0
  0
LINE
  5
4D
330
46
100
AcDbEntity
  8
LC-001-100-D00-0
 62
     7
370
    50
100
AcDbLine
 10
94.284656
 20
212.993417
 30
0.0
 11
94.284656
 21
212.993417
 31
0.0
  0
LINE
  5
4E
330
46
100
AcDbEntity
  8
LC-001-100-D00-0
 62
     7
370
    50
100
AcDbLine
 10
94.284656
 20
212.993417
 30
0.0
 11
93.931878
 21
213.193829
 31
0.0
  0
LINE
  5
4F
330
46
100
AcDbEntity
  8
LC-001-100-D00-0
 62
     7
370
    50
100
AcDbLine
 10
93.931878
 20
213.193829
 30
0.0
 11
93.931878
 21
213.193829
 31
0.0
  0
LINE
  5
50
330
46
100
AcDbEntity
  8
LC-001-100-D00-0
 62
     7
370
    50
100
AcDbLine
 10
93.931878
 20
213.193829
 30
0.0
 11
93.786742
 21
213.27628
 31
0.0
  0
ENDBLK
  5
48
330
46
100
AcDbEntity
  8
0
100
AcDbBlockEnd
  0
BLOCK
  5
68
330
67
100
AcDbEntity
  8
0
100
AcDbBlockBegin
  2
POLY3
 70
     0
 71
     0
 10
0.0
 20
0.0
 30
0.0
  3
POLY3
  1

  4
POLY3
  0
LINE
  5
6A
330
67
100
AcDbEntity
  8
LC-001-100-D00-0
 62
     7
370
    50
100
AcDbLine
 10
161.786745
 20
198.405398
 30
0.0
 11
161.786745
 21
198.405398
 31
0.0
  0
LINE
  5
6B
330
67
100
AcDbEntity
  8
LC-001-100-D00-0
 62
     7
370
    50
100
AcDbLine
 10
161.786745
 20
198.405398
 30
0.0
 11
161.786745
 21
198.405314
 31
0.0
  0
LINE
  5
6C
330
67
100
AcDbEntity
  8
LC-001-100-D00-0
 62
     7
370
    50
100
AcDbLine
 10
161.786745
 20
198.405314
 30
0.0
 11
161.786745
 21
198.405314
 31
0.0
  0
LINE
  5
6D
330
67
100
AcDbEntity
  8
LC-001-100-D00-0
 62
     7
370
    50
100
AcDbLine
 10
161.786745
 20
198.405314
 30
0.0
 11
161.786745
 21
198.477403
 31
0.0
  0
LINE
  5
6E
330
67
100
AcDbEntity
  8
LC-001-100-D00-0
 62
     7
370
    50
100
AcDbLine
 10
161.786745
 20
198.477403
 30
0.0
 11
161.786745
 21
198.477403
 31
0.0
  0
LINE
  5
6F
330
67
100
AcDbEntity
  8
LC-001-100-D00-0
 62
     7
370
    50
100
AcDbLine
 10
161.786745
 20
198.477403
 30
0.0
 11
161.786745
 21
198.914301
 31
0.0
  0
LINE
  5
70
330
67
100
AcDbEntity
  8
LC-001-100-D00-0
 62
     7
370
    50
100
AcDbLine
 10
161.786745
 20
198.914301
 30
0.0
 11
161.786745
 21
198.914301
 31
0.0
  0
LINE
  5
71
330
67
100
AcDbEntity
  8
LC-001-100-D00-0
 62
     7
370
    50
100
AcDbLine
 10
161.786745
 20
198.914301
 30
0.0
 11
161.786745
 21
199.303812
 31
0.0
  0
LINE
  5
72
330
67
100
AcDbEntity
  8
LC-001-100-D00-0
 62
     7
370
    50
100
AcDbLine
 10
161.786745
 20
199.303812
 30
0.0
 11
161.786745
 21
199.303812
 31
0.0
  0
LINE
  5
73
330
67
100
AcDbEntity
  8
LC-001-100-D00-0
 62
     7
370
    50
100
AcDbLine
 10
161.786745
 20
199.303812
 30
0.0
 11
161.786745
 21
199.760534
 31
0.0
  0
LINE
  5
74
330
67
100
AcDbEntity
  8
LC-001-100-D00-0
 62
     7
370
    50
100
AcDbLine
 10
161.786745
 20
199.760534
 30
0.0
 11
161.786745
 21
199.760534
 31
0.0
  0
LINE
  5
75
330
67
100
AcDbEntity
  8
LC-001-100-D00-0
 62
     7
370
    50
100
AcDbLine
 10
161.786745
 20
199.760534
 30
0.0
 11
161.786745
 21
200.19118
 31
0.0
  0
LINE
  5
76
330
67
100
AcDbEntity
  8
LC-001-100-D00-0
 62
     7
370
    50
100
AcDbLine
 10
161.786745
 20
200.19118
 30
0.0
 11
161.786745
 21
200.19118
 31
0.0
  0
LINE
  5
77
330
67
100
AcDbEntity
  8
LC-001-100-D00-0
 62
     7
370
    50
100
AcDbLine
 10
161.786745
 20
200.19118
 30
0.0
 11
161.786745
 21
200.61667
 31
0.0
  0
LINE
  5
78
330
67
100
AcDbEntity
  8
LC-001-100-D00-0
 62
     7
370
    50
100
AcDbLine
 10
161.786745
 20
200.61667
 30
0.0
 11
161.786745
 21
200.61667
 31
0.0
  0
LINE
  5
79
330
67
100
AcDbEntity
  8
LC-001-100-D00-0
 62
     7
370
    50
100
AcDbLine
 10
161.786745
 20
200.61667
 30
0.0
 11
161.786745
 21
201.050752
 31
0.0
  0
LINE
  5
7A
330
67
100
AcDbEntity
  8
LC-001-100-D00-0
 62
     7
370
    50
100
AcDbLine
 10
161.786745
 20
201.050752
 30
0.0
 11
161.786745
 21
201.050752
 31
0.0
  0
LINE
  5
7B
330
67
100
AcDbEntity
  8
LC-001-100-D00-0
 62
     7
370
    50
100
AcDbLine
 10
161.786745
 20
201.050752
 30
0.0
 11
161.786745
 21
201.518589
 31
0.0
  0
LINE
  5
7C
330
67
100
AcDbEntity
  8
LC-001-100-D00-0
 62
     7
370
    50
100
AcDbLine
 10
161.786745
 20
201.518589
 30
0.0
 11
161.786745
 21
201.518589
 31
0.0
  0
LINE
  5
7D
330
67
100
AcDbEntity
  8
LC-001-100-D00-0
 62
     7
370
    50
100
AcDbLine
 10
161.786745
 20
201.518589
 30
0.0
 11
161.786745
 21
202.076757
 31
0.0
  0
LINE
  5
7E
330
67
100
AcDbEntity
  8
LC-001-100-D00-0
 62
     7
370
    50
100
AcDbLine
 10
161.786745
 20
202.076757
 30
0.0
 11
161.786745
 21
202.076757
 31
0.0
  0
LINE
  5
7F
330
67
100
AcDbEntity
  8
LC-001-100-D00-0
 62
     7
370
    50
100
AcDbLine
 10
161.786745
 20
202.076757
 30
0.0
 11
161.786745
 21
202.360018
 31
0.0
  0
LINE
  5
80
330
67
100
AcDbEntity
  8
LC-001-100-D00-0
 62
     7
370
    50
100
AcDbLine
 10
161.786745
 20
202.360018
 30
0.0
 11
161.786745
 21
202.360018
 31
0.0
  0
LINE
  5
81
330
67
100
AcDbEntity
  8
LC-001-100-D00-0
 62
     7
370
    50
100
AcDbLine
 10
161.786745
 20
202.360018
 30
0.0
 11
161.786745
 21
202.40485
 31
0.0
  0
LINE
  5
82
330
67
100
AcDbEntity
  8
LC-001-100-D00-0
 62
     7
370
    50
100
AcDbLine
 10
161.786745
 20
202.40485
 30
0.0
 11
161.786745
 21
202.40485
 31
0.0
  0
LINE
  5
83
330
67
100
AcDbEntity
  8
LC-001-100-D00-0
 62
     7
370
    50
100
AcDbLine
 10
161.786745
 20
202.40485
 30
0.0
 11
161.786745
 21
202.405402
 31
0.0
  0
ENDBLK
  5
69
330
67
100
AcDbEntity
  8
0
100
AcDbBlockEnd
  0
BLOCK
  5
102
330
101
100
AcDbEntity
  8
0
100
AcDbBlockBegin
  2
KLON1
 70
     0
 71
     0
 10
0.0
 20
0.0
 30
0.0
  3
KLON1
  1

  4
KLON1
  0
LINE
  5
104
330
101
100
AcDbEntity
  8
LC-001-100-D00-0
 62
     7
370
    15
100
AcDbLine
 10
93.786742
 20
213.165997
 30
0.0
 11
94.137843
 21
212.983234
 31
0.0
  0
LINE
  5
105
330
101
100
AcDbEntity
  8
LC-001-100-D00-0
 62
     7
370
    15
100
AcDbLine
 10
94.137843
 20
212.983234
 30
0.0
 11
94.488936
 21
212.800456
 31
0.0
  0
LINE
  5
106
330
101
100
AcDbEntity
  8
LC-001-100-D00-0
 62
     7
370
    15
100
AcDbLine
 10
94.488936
 20
212.800456
 30
0.0
 11
95.036748
 21
212.515293
 31
0.0
  0
ENDBLK
  5
103
330
101
100
AcDbEntity
  8
0
100
AcDbBlockEnd
  0
BLOCK
  5
109
330
108
100
AcDbEntity
  8
0
100
AcDbBlockBegin
  2
KLON2
 70
     0
 71
     0
 10
0.0
 20
0.0
 30
0.0
  3
KLON2
  1

  4
KLON2
  0
LINE
  5
10B
330
108
100
AcDbEntity
  8
LC-001-100-D00-0
 62
     7
370
    15
100
AcDbLine
 10
95.036748
 20
212.515293
 30
0.0
 11
94.685647
 21
212.332515
 31
0.0
  0
LINE
  5
10C
330
108
100
AcDbEntity
  8
LC-001-100-D00-0
 62
     7
370
    15
100
AcDbLine
 10
94.685647
 20
212.332515
 30
0.0
 11
94.334553
 21
212.149753
 31
0.0
  0
LINE
  5
10D
330
108
100
AcDbEntity
  8
LC-001-100-D00-0
 62
     7
370
    15
100
AcDbLine
 10
94.334553
 20
212.149753
 30
0.0
 11
93.786742
 21
211.864574
 31
0.0
  0
ENDBLK
  5
10A
330
108
100
AcDbEntity
  8
0
100
AcDbBlockEnd
  0
BLOCK
  5
111
330
110
100
AcDbEntity
  8
0
100
AcDbBlockBegin
  2
KLON3
 70
     0
 71
     0
 10
0.0
 20
0.0
 30
0.0
  3
KLON3
  1

  4
KLON3
  0
LINE
  5
113
330
110
100
AcDbEntity
  8
LC-001-100-D00-0
 62
     7
370
    15
100
AcDbLine
 10
93.786742
 20
210.165991
 30
0.0
 11
94.137843
 21
209.983228
 31
0.0
  0
LINE
  5
114
330
110
100
AcDbEntity
  8
LC-001-100-D00-0
 62
     7
370
    15
100
AcDbLine
 10
94.137843
 20
209.983228
 30
0.0
 11
94.488936
 21
209.800465
 31
0.0
  0
LINE
  5
115
330
110
100
AcDbEntity
  8
LC-001-100-D00-0
 62
     7
370
    15
100
AcDbLine
 10
94.488936
 20
209.800465
 30
0.0
 11
95.036748
 21
209.515287
 31
0.0
  0
ENDBLK
  5
112
330
110
100
AcDbEntity
  8
0
100
AcDbBlockEnd
  0
BLOCK
  5
118
330
117
100
AcDbEntity
  8
0
100
AcDbBlockBegin
  2
KLON4
 70
     0
 71
     0
 10
0.0
 20
0.0
 30
0.0
  3
KLON4
  1

  4
KLON4
  0
LINE
  5
11A
330
117
100
AcDbEntity
  8
LC-001-100-D00-0
 62
     7
370
    15
100
AcDbLine
 10
95.036748
 20
209.515287
 30
0.0
 11
94.685647
 21
209.332524
 31
0.0
  0
LINE
  5
11B
330
117
100
AcDbEntity
  8
LC-001-100-D00-0
 62
     7
370
    15
100
AcDbLine
 10
94.685647
 20
209.332524
 30
0.0
 11
94.334553
 21
209.149746
 31
0.0
  0
LINE
  5
11C
330
117
100
AcDbEntity
  8
LC-001-100-D00-0
 62
     7
370
    15
100
AcDbLine
 10
94.334553
 20
209.149746
 30
0.0
 11
93.786742
 21
208.864583
 31
0.0
  0
ENDBLK
  5
119
330
117
100
AcDbEntity
  8
0
100
AcDbBlockEnd
  0
BLOCK
  5
120
330
11F
100
AcDbEntity
  8
0
100
AcDbBlockBegin
  2
KLON5
 70
     0
 71
     0
 10
0.0
 20
0.0
 30
0.0
  3
KLON5
  1

  4
KLON5
  0
LINE
  5
122
330
11F
100
AcDbEntity
  8
LC-001-100-D00-0
 62
     7
370
    15
100
AcDbLine
 10
93.786742
 20
207.166
 30
0.0
 11
94.137843
 21
206.983222
 31
0.0
  0
LINE
  5
123
330
11F
100
AcDbEntity
  8
LC-001-100-D00-0
 62
     7
370
    15
100
AcDbLine
 10
94.137843
 20
206.983222
 30
0.0
 11
94.488936
 21
206.800459
 31
0.0
  0
LINE
  5
124
330
11F
100
AcDbEntity
  8
LC-001-100-D00-0
 62
     7
370
    15
100
AcDbLine
 10
94.488936
 20
206.800459
 30
0.0
 11
95.036748
 21
206.515281
 31
0.0
  0
ENDBLK
  5
121
330
11F
100
AcDbEntity
  8
0
100
AcDbBlockEnd
  0
BLOCK
  5
127
330
126
100
AcDbEntity
  8
0
100
AcDbBlockBegin
  2
KLON6
 70
     0
 71
     0
 10
0.0
 20
0.0
 30
0.0
  3
KLON6
  1

  4
KLON6
  0
LINE
  5
129
330
126
100
AcDbEntity
  8
LC-001-100-D00-0
 62
     7
370
    15
100
AcDbLine
 10
95.036748
 20
206.515281
 30
0.0
 11
94.685647
 21
206.332518
 31
0.0
  0
LINE
  5
12A
330
126
100
AcDbEntity
  8
LC-001-100-D00-0
 62
     7
370
    15
100
AcDbLine
 10
94.685647
 20
206.332518
 30
0.0
 11
94.334553
 21
206.149755
 31
0.0
  0
LINE
  5
12B
330
126
100
AcDbEntity
  8
LC-001-100-D00-0
 62
     7
370
    15
100
AcDbLine
 10
94.334553
 20
206.149755
 30
0.0
 11
93.786742
 21
205.864577
 31
0.0
  0
ENDBLK
  5
128
330
126
100
AcDbEntity
  8
0
100
AcDbBlockEnd
  0
BLOCK
  5
12F
330
12E
100
AcDbEntity
  8
0
100
AcDbBlockBegin
  2
KLON7
 70
     0
 71
     0
 10
0.0
 20
0.0
 30
0.0
  3
KLON7
  1

  4
KLON7
  0
LINE
  5
131
330
12E
100
AcDbEntity
  8
LC-001-100-D00-0
 62
     7
370
    15
100
AcDbLine
 10
93.786742
 20
204.165993
 30
0.0
 11
94.137843
 21
203.983231
 31
0.0
  0
LINE
  5
132
330
12E
100
AcDbEntity
  8
LC-001-100-D00-0
 62
     7
370
    15
100
AcDbLine
 10
94.137843
 20
203.983231
 30
0.0
 11
94.488936
 21
203.800453
 31
0.0
  0
LINE
  5
133
330
12E
100
AcDbEntity
  8
LC-001-100-D00-0
 62
     7
370
    15
100
AcDbLine
 10
94.488936
 20
203.800453
 30
0.0
 11
95.036748
 21
203.51529
 31
0.0
  0
ENDBLK
  5
130
330
12E
100
AcDbEntity
  8
0
100
AcDbBlockEnd
  0
BLOCK
  5
136
330
135
100
AcDbEntity
  8
0
100
AcDbBlockBegin
  2
KLON8
 70
     0
 71
     0
 10
0.0
 20
0.0
 30
0.0
  3
KLON8
  1

  4
KLON8
  0
LINE
  5
138
330
135
100
AcDbEntity
  8
LC-001-100-D00-0
 62
     7
370
    15
100
AcDbLine
 10
95.036748
 20
203.51529
 30
0.0
 11
94.685647
 21
203.332512
 31
0.0
  0
LINE
  5
139
330
135
100
AcDbEntity
  8
LC-001-100-D00-0
 62
     7
370
    15
100
AcDbLine
 10
94.685647
 20
203.332512
 30
0.0
 11
94.334553
 21
203.149749
 31
0.0
  0
LINE
  5
13A
330
135
100
AcDbEntity
  8
LC-001-100-D00-0
 62
     7
370
    15
100
AcDbLine
 10
94.334553
 20
203.149749
 30
0.0
 11
93.786742
 21
202.864586
 31
0.0
  0
ENDBLK
  5
137
330
135
100
AcDbEntity
  8
0
100
AcDbBlockEnd
  0
BLOCK
  5
13E
330
13D
100
AcDbEntity
  8
0
100
AcDbBlockBegin
  2
KLON9
 70
     0
 71
     0
 10
0.0
 20
0.0
 30
0.0
  3
KLON9
  1

  4
KLON9
  0
LINE
  5
140
330
13D
100
AcDbEntity
  8
LC-001-100-D00-0
 62
     7
370
    15
100
AcDbLine
 10
93.786742
 20
201.166002
 30
0.0
 11
94.137843
 21
200.983225
 31
0.0
  0
LINE
  5
141
330
13D
100
AcDbEntity
  8
LC-001-100-D00-0
 62
     7
370
    15
100
AcDbLine
 10
94.137843
 20
200.983225
 30
0.0
 11
94.488936
 21
200.800462
 31
0.0
  0
LINE
  5
142
330
13D
100
AcDbEntity
  8
LC-001-100-D00-0
 62
     7
370
    15
100
AcDbLine
 10
94.488936
 20
200.800462
 30
0.0
 11
95.036748
 21
200.515283
 31
0.0
  0
ENDBLK
  5
13F
330
13D
100
AcDbEntity
  8
0
100
AcDbBlockEnd
  0
BLOCK
  5
145
330
144
100
AcDbEntity
  8
0
100
AcDbBlockBegin
  2
KLON10
 70
     0
 71
     0
 10
0.0
 20
0.0
 30
0.0
  3
KLON10
  1

  4
KLON10
  0
LINE
  5
147
330
144
100
AcDbEntity
  8
LC-001-100-D00-0
 62
     7
370
    15
100
AcDbLine
 10
95.036748
 20
200.515283
 30
0.0
 11
94.685647
 21
200.332521
 31
0.0
  0
LINE
  5
148
330
144
100
AcDbEntity
  8
LC-001-100-D00-0
 62
     7
370
    15
100
AcDbLine
 10
94.685647
 20
200.332521
 30
0.0
 11
94.334553
 21
200.149743
 31
0.0
  0
LINE
  5
149
330
144
100
AcDbEntity
  8
LC-001-100-D00-0
 62
     7
370
    15
100
AcDbLine
 10
94.334553
 20
200.149743
 30
0.0
 11
93.786742
 21
199.86458
 31
0.0
  0
ENDBLK
  5
146
330
144
100
AcDbEntity
  8
0
100
AcDbBlockEnd
  0
BLOCK
  5
150
330
14F
100
AcDbEntity
  8
0
100
AcDbBlockBegin
  2
KLON11
 70
     0
 71
     0
 10
0.0
 20
0.0
 30
0.0
  3
KLON11
  1

  4
KLON11
  0
LINE
  5
152
330
14F
100
AcDbEntity
  8
LC-001-100-D00-0
 62
     7
370
    15
100
AcDbLine
 10
89.786748
 20
201.364575
 30
0.0
 11
89.435647
 21
201.547353
 31
0.0
  0
LINE
  5
153
330
14F
100
AcDbEntity
  8
LC-001-100-D00-0
 62
     7
370
    15
100
AcDbLine
 10
89.435647
 20
201.547353
 30
0.0
 11
89.084554
 21
201.730116
 31
0.0
  0
LINE
  5
154
330
14F
100
AcDbEntity
  8
LC-001-100-D00-0
 62
     7
370
    15
100
AcDbLine
 10
89.084554
 20
201.730116
 30
0.0
 11
88.536742
 21
202.015294
 31
0.0
  0
ENDBLK
  5
151
330
14F
100
AcDbEntity
  8
0
100
AcDbBlockEnd
  0
BLOCK
  5
157
330
156
100
AcDbEntity
  8
0
100
AcDbBlockBegin
  2
KLON12
 70
     0
 71
     0
 10
0.0
 20
0.0
 30
0.0
  3
KLON12
  1

  4
KLON12
  0
LINE
  5
159
330
156
100
AcDbEntity
  8
LC-001-100-D00-0
 62
     7
370
    15
100
AcDbLine
 10
88.536742
 20
202.015294
 30
0.0
 11
88.887843
 21
202.198057
 31
0.0
  0
LINE
  5
15A
330
156
100
AcDbEntity
  8
LC-001-100-D00-0
 62
     7
370
    15
100
AcDbLine
 10
88.887843
 20
202.198057
 30
0.0
 11
89.238937
 21
202.380819
 31
0.0
  0
LINE
  5
15B
330
156
100
AcDbEntity
  8
LC-001-100-D00-0
 62
     7
370
    15
100
AcDbLine
 10
89.238937
 20
202.380819
 30
0.0
 11
89.786748
 21
202.665998
 31
0.0
  0
ENDBLK
  5
158
330
156
100
AcDbEntity
  8
0
100
AcDbBlockEnd
  0
BLOCK
  5
15F
330
15E
100
AcDbEntity
  8
0
100
AcDbBlockBegin
  2
KLON13
 70
     0
 71
     0
 10
0.0
 20
0.0
 30
0.0
  3
KLON13
  1

  4
KLON13
  0
LINE
  5
161
330
15E
100
AcDbEntity
  8
LC-001-100-D00-0
 62
     7
370
    15
100
AcDbLine
 10
89.786748
 20
204.364581
 30
0.0
 11
89.435647
 21
204.547344
 31
0.0
  0
LINE
  5
162
330
15E
100
AcDbEntity
  8
LC-001-100-D00-0
 62
     7
370
    15
100
AcDbLine
 10
89.435647
 20
204.547344
 30
0.0
 11
89.084554
 21
204.730122
 31
0.0
  0
LINE
  5
163
330
15E
100
AcDbEntity
  8
LC-001-100-D00-0
 62
     7
370
    15
100
AcDbLine
 10
89.084554
 20
204.730122
 30
0.0
 11
88.536742
 21
205.015285
 31
0.0
  0
ENDBLK
  5
160
330
15E
100
AcDbEntity
  8
0
100
AcDbBlockEnd
  0
BLOCK
  5
166
330
165
100
AcDbEntity
  8
0
100
AcDbBlockBegin
  2
KLON14
 70
     0
 71
     0
 10
0.0
 20
0.0
 30
0.0
  3
KLON14
  1

  4
KLON14
  0
LINE
  5
168
330
165
100
AcDbEntity
  8
LC-001-100-D00-0
 62
     7
370
    15
100
AcDbLine
 10
88.536742
 20
205.015285
 30
0.0
 11
88.887843
 21
205.198063
 31
0.0
  0
LINE
  5
169
330
165
100
AcDbEntity
  8
LC-001-100-D00-0
 62
     7
370
    15
100
AcDbLine
 10
88.887843
 20
205.198063
 30
0.0
 11
89.238937
 21
205.380826
 31
0.0
  0
LINE
  5
16A
330
165
100
AcDbEntity
  8
LC-001-100-D00-0
 62
     7
370
    15
100
AcDbLine
 10
89.238937
 20
205.380826
 30
0.0
 11
89.786748
 21
205.665989
 31
0.0
  0
ENDBLK
  5
167
330
165
100
AcDbEntity
  8
0
100
AcDbBlockEnd
  0
BLOCK
  5
16E
330
16D
100
AcDbEntity
  8
0
100
AcDbBlockBegin
  2
KLON15
 70
     0
 71
     0
 10
0.0
 20
0.0
 30
0.0
  3
KLON15
  1

  4
KLON15
  0
LINE
  5
170
330
16D
100
AcDbEntity
  8
LC-001-100-D00-0
 62
     7
370
    15
100
AcDbLine
 10
89.786748
 20
207.364572
 30
0.0
 11
89.435647
 21
207.54735
 31
0.0
  0
LINE
  5
171
330
16D
100
AcDbEntity
  8
LC-001-100-D00-0
 62
     7
370
    15
100
AcDbLine
 10
89.435647
 20
207.54735
 30
0.0
 11
89.084554
 21
207.730113
 31
0.0
  0
LINE
  5
172
330
16D
100
AcDbEntity
  8
LC-001-100-D00-0
 62
     7
370
    15
100
AcDbLine
 10
89.084554
 20
207.730113
 30
0.0
 11
88.536742
 21
208.015291
 31
0.0
  0
ENDBLK
  5
16F
330
16D
100
AcDbEntity
  8
0
100
AcDbBlockEnd
  0
BLOCK
  5
175
330
174
100
AcDbEntity
  8
0
100
AcDbBlockBegin
  2
KLON16
 70
     0
 71
     0
 10
0.0
 20
0.0
 30
0.0
  3
KLON16
  1

  4
KLON16
  0
LINE
  5
177
330
174
100
AcDbEntity
  8
LC-001-100-D00-0
 62
     7
370
    15
100
AcDbLine
 10
88.536742
 20
208.015291
 30
0.0
 11
88.887843
 21
208.198054
 31
0.0
  0
LINE
  5
178
330
174
100
AcDbEntity
  8
LC-001-100-D00-0
 62
     7
370
    15
100
AcDbLine
 10
88.887843
 20
208.198054
 30
0.0
 11
89.238937
 21
208.380832
 31
0.0
  0
LINE
  5
179
330
174
100
AcDbEntity
  8
LC-001-100-D00-0
 62
     7
370
    15
100
AcDbLine
 10
89.238937
 20
208.380832
 30
0.0
 11
89.786748
 21
208.665995
 31
0.0
  0
ENDBLK
  5
176
330
174
100
AcDbEntity
  8
0
100
AcDbBlockEnd
  0
BLOCK
  5
17D
330
17C
100
AcDbEntity
  8
0
100
AcDbBlockBegin
  2
KLON17
 70
     0
 71
     0
 10
0.0
 20
0.0
 30
0.0
  3
KLON17
  1

  4
KLON17
  0
LINE
  5
17F
330
17C
100
AcDbEntity
  8
LC-001-100-D00-0
 62
     7
370
    15
100
AcDbLine
 10
89.786748
 20
210.364579
 30
0.0
 11
89.435647
 21
210.547341
 31
0.0
  0
LINE
  5
180
330
17C
100
AcDbEntity
  8
LC-001-100-D00-0
 62
     7
370
    15
100
AcDbLine
 10
89.435647
 20
210.547341
 30
0.0
 11
89.084554
 21
210.730119
 31
0.0
  0
LINE
  5
181
330
17C
100
AcDbEntity
  8
LC-001-100-D00-0
 62
     7
370
    15
100
AcDbLine
 10
89.084554
 20
210.730119
 30
0.0
 11
88.536742
 21
211.015282
 31
0.0
  0
ENDBLK
  5
17E
330
17C
100
AcDbEntity
  8
0
100
AcDbBlockEnd
  0
BLOCK
  5
184
330
183
100
AcDbEntity
  8
0
100
AcDbBlockBegin
  2
KLON18
 70
     0
 71
     0
 10
0.0
 20
0.0
 30
0.0
  3
KLON18
  1

  4
KLON18
  0
LINE
  5
186
330
183
100
AcDbEntity
  8
LC-001-100-D00-0
 62
     7
370
    15
100
AcDbLine
 10
88.536742
 20
211.015282
 30
0.0
 11
88.887843
 21
211.19806
 31
0.0
  0
LINE
  5
187
330
183
100
AcDbEntity
  8
LC-001-100-D00-0
 62
     7
370
    15
100
AcDbLine
 10
88.887843
 20
211.19806
 30
0.0
 11
89.238937
 21
211.380823
 31
0.0
  0
LINE
  5
188
330
183
100
AcDbEntity
  8
LC-001-100-D00-0
 62
     7
370
    15
100
AcDbLine
 10
89.238937
 20
211.380823
 30
0.0
 11
89.786748
 21
211.666001
 31
0.0
  0
ENDBLK
  5
185
330
183
100
AcDbEntity
  8
0
100
AcDbBlockEnd
  0
BLOCK
  5
18C
330
18B
100
AcDbEntity
  8
0
100
AcDbBlockBegin
  2
KLON19
 70
     0
 71
     0
 10
0.0
 20
0.0
 30
0.0
  3
KLON19
  1

  4
KLON19
  0
LINE
  5
18E
330
18B
100
AcDbEntity
  8
LC-001-100-D00-0
 62
     7
370
    15
100
AcDbLine
 10
89.786748
 20
213.364585
 30
0.0
 11
89.435647
 21
213.547347
 31
0.0
  0
LINE
  5
18F
330
18B
100
AcDbEntity
  8
LC-001-100-D00-0
 62
     7
370
    15
100
AcDbLine
 10
89.435647
 20
213.547347
 30
0.0
 11
89.084554
 21
213.73011
 31
0.0
  0
LINE
  5
190
330
18B
100
AcDbEntity
  8
LC-001-100-D00-0
 62
     7
370
    15
100
AcDbLine
 10
89.084554
 20
213.73011
 30
0.0
 11
88.536742
 21
214.015288
 31
0.0
  0
ENDBLK
  5
18D
330
18B
100
AcDbEntity
  8
0
100
AcDbBlockEnd
  0
BLOCK
  5
193
330
192
100
AcDbEntity
  8
0
100
AcDbBlockBegin
  2
KLON20
 70
     0
 71
     0
 10
0.0
 20
0.0
 30
0.0
  3
KLON20
  1

  4
KLON20
  0
LINE
  5
195
330
192
100
AcDbEntity
  8
LC-001-100-D00-0
 62
     7
370
    15
100
AcDbLine
 10
88.536742
 20
214.015288
 30
0.0
 11
88.887843
 21
214.198051
 31
0.0
  0
LINE
  5
196
330
192
100
AcDbEntity
  8
LC-001-100-D00-0
 62
     7
370
    15
100
AcDbLine
 10
88.887843
 20
214.198051
 30
0.0
 11
89.238937
 21
214.380829
 31
0.0
  0
LINE
  5
197
330
192
100
AcDbEntity
  8
LC-001-100-D00-0
 62
     7
370
    15
100
AcDbLine
 10
89.238937
 20
214.380829
 30
0.0
 11
89.786748
 21
214.665992
 31
0.0
  0
ENDBLK
  5
194
330
192
100
AcDbEntity
  8
0
100
AcDbBlockEnd
  0
BLOCK
  5
1A4
330
1A3
100
AcDbEntity
  8
0
100
AcDbBlockBegin
  2
POLY4
 70
     0
 71
     0
 10
0.0
 20
0.0
 30
0.0
  3
POLY4
  1

  4
POLY4
  0
LINE
  5
1A6
330
1A3
100
AcDbEntity
  8
LC-001-100-D00-0
 62
     7
370
    50
100
AcDbLine
 10
88.536742
 20
214.015288
 30
0.0
 11
88.536742
 21
214.015288
 31
0.0
  0
LINE
  5
1A7
330
1A3
100
AcDbEntity
  8
LC-001-100-D00-0
 62
     7
370
    50
100
AcDbLine
 10
88.536742
 20
214.015288
 30
0.0
 11
88.536748
 21
214.014553
 31
0.0
  0
LINE
  5
1A8
330
1A3
100
AcDbEntity
  8
LC-001-100-D00-0
 62
     7
370
    50
100
AcDbLine
 10
88.536748
 20
214.014553
 30
0.0
 11
88.536748
 21
214.014553
 31
0.0
  0
LINE
  5
1A9
330
1A3
100
AcDbEntity
  8
LC-001-100-D00-0
 62
     7
370
    50
100
AcDbLine
 10
88.536748
 20
214.014553
 30
0.0
 11
88.537133
 21
213.963476
 31
0.0
  0
LINE
  5
1AA
330
1A3
100
AcDbEntity
  8
LC-001-100-D00-0
 62
     7
370
    50
100
AcDbLine
 10
88.537133
 20
213.963476
 30
0.0
 11
88.537133
 21
213.963476
 31
0.0
  0
LINE
  5
1AB
330
1A3
100
AcDbEntity
  8
LC-001-100-D00-0
 62
     7
370
    50
100
AcDbLine
 10
88.537133
 20
213.963476
 30
0.0
 11
88.636976
 21
213.916175
 31
0.0
  0
LINE
  5
1AC
330
1A3
100
AcDbEntity
  8
LC-001-100-D00-0
 62
     7
370
    50
100
AcDbLine
 10
88.636976
 20
213.916175
 30
0.0
 11
88.636976
 21
213.916175
 31
0.0
  0
LINE
  5
1AD
330
1A3
100
AcDbEntity
  8
LC-001-100-D00-0
 62
     7
370
    50
100
AcDbLine
 10
88.636976
 20
213.916175
 30
0.0
 11
88.735382
 21
213.869555
 31
0.0
  0
ENDBLK
  5
1A5
330
1A3
100
AcDbEntity
  8
0
100
AcDbBlockEnd
  0
BLOCK
  5
1B3
330
1B2
100
AcDbEntity
  8
0
100
AcDbBlockBegin
  2
POLY5
 70
     0
 71
     0
 10
0.0
 20
0.0
 30
0.0
  3
POLY5
  1

  4
POLY5
  0
LINE
  5
1B5
330
1B2
100
AcDbEntity
  8
LC-001-100-D00-0
 62
     7
370
    50
100
AcDbLine
 10
88.876094
 20
218.670411
 30
0.0
 11
88.876094
 21
218.670411
 31
0.0
  0
LINE
  5
1B6
330
1B2
100
AcDbEntity
  8
LC-001-100-D00-0
 62
     7
370
    50
100
AcDbLine
 10
88.876094
 20
218.670411
 30
0.0
 11
88.852925
 21
218.668423
 31
0.0
  0
LINE
  5
1B7
330
1B2
100
AcDbEntity
  8
LC-001-100-D00-0
 62
     7
370
    50
100
AcDbLine
 10
88.852925
 20
218.668423
 30
0.0
 11
88.852925
 21
218.668423
 31
0.0
  0
LINE
  5
1B8
330
1B2
100
AcDbEntity
  8
LC-001-100-D00-0
 62
     7
370
    50
100
AcDbLine
 10
88.852925
 20
218.668423
 30
0.0
 11
88.821511
 21
218.665727
 31
0.0
  0
LINE
  5
1B9
330
1B2
100
AcDbEntity
  8
LC-001-100-D00-0
 62
     7
370
    50
100
AcDbLine
 10
88.821511
 20
218.665727
 30
0.0
 11
88.821511
 21
218.665727
 31
0.0
  0
LINE
  5
1BA
330
1B2
100
AcDbEntity
  8
LC-001-100-D00-0
 62
     7
370
    50
100
AcDbLine
 10
88.821511
 20
218.665727
 30
0.0
 11
88.793071
 21
218.652795
 31
0.0
  0
LINE
  5
1BB
330
1B2
100
AcDbEntity
  8
LC-001-100-D00-0
 62
     7
370
    50
100
AcDbLine
 10
88.793071
 20
218.652795
 30
0.0
 11
88.793071
 21
218.652795
 31
0.0
  0
LINE
  5
1BC
330
1B2
100
AcDbEntity
  8
LC-001-100-D00-0
 62
     7
370
    50
100
AcDbLine
 10
88.793071
 20
218.652795
 30
0.0
 11
88.785606
 21
218.649401
 31
0.0
  0
ENDBLK
  5
1B4
330
1B2
100
AcDbEntity
  8
0
100
AcDbBlockEnd
  0
BLOCK
  5
1BF
330
1BE
100
AcDbEntity
  8
0
100
AcDbBlockBegin
  2
POLY6
 70
     0
 71
     0
 10
0.0
 20
0.0
 30
0.0
  3
POLY6
  1

  4
POLY6
  0
LINE
  5
1C1
330
1BE
100
AcDbEntity
  8
LC-001-100-D00-0
 62
     7
370
    50
100
AcDbLine
 10
94.787884
 20
218.649401
 30
0.0
 11
94.787884
 21
218.649401
 31
0.0
  0
LINE
  5
1C2
330
1BE
100
AcDbEntity
  8
LC-001-100-D00-0
 62
     7
370
    50
100
AcDbLine
 10
94.787884
 20
218.649401
 30
0.0
 11
94.76621
 21
218.657816
 31
0.0
  0
LINE
  5
1C3
330
1BE
100
AcDbEntity
  8
LC-001-100-D00-0
 62
     7
370
    50
100
AcDbLine
 10
94.76621
 20
218.657816
 30
0.0
 11
94.76621
 21
218.657816
 31
0.0
  0
LINE
  5
1C4
330
1BE
100
AcDbEntity
  8
LC-001-100-D00-0
 62
     7
370
    50
100
AcDbLine
 10
94.76621
 20
218.657816
 30
0.0
 11
94.736822
 21
218.669228
 31
0.0
  0
LINE
  5
1C5
330
1BE
100
AcDbEntity
  8
LC-001-100-D00-0
 62
     7
370
    50
100
AcDbLine
 10
94.736822
 20
218.669228
 30
0.0
 11
94.736822
 21
218.669228
 31
0.0
  0
LINE
  5
1C6
330
1BE
100
AcDbEntity
  8
LC-001-100-D00-0
 62
     7
370
    50
100
AcDbLine
 10
94.736822
 20
218.669228
 30
0.0
 11
94.705594
 21
218.670165
 31
0.0
  0
LINE
  5
1C7
330
1BE
100
AcDbEntity
  8
LC-001-100-D00-0
 62
     7
370
    50
100
AcDbLine
 10
94.705594
 20
218.670165
 30
0.0
 11
94.705594
 21
218.670165
 31
0.0
  0
LINE
  5
1C8
330
1BE
100
AcDbEntity
  8
LC-001-100-D00-0
 62
     7
370
    50
100
AcDbLine
 10
94.705594
 20
218.670165
 30
0.0
 11
94.697396
 21
218.670411
 31
0.0
  0
ENDBLK
  5
1C0
330
1BE
100
AcDbEntity
  8
0
100
AcDbBlockEnd
  0
BLOCK
  5
1D4
330
1D3
100
AcDbEntity
  8
0
100
AcDbBlockBegin
  2
POLY7
 70
     0
 71
     0
 10
0.0
 20
0.0
 30
0.0
  3
POLY7
  1

  4
POLY7
  0
LINE
  5
1D6
330
1D3
100
AcDbEntity
  8
LC-001-100-D00-0
 62
     7
370
    50
100
AcDbLine
 10
227.055295
 20
211.670406
 30
0.0
 11
227.055295
 21
211.670406
 31
0.0
  0
LINE
  5
1D7
330
1D3
100
AcDbEntity
  8
LC-001-100-D00-0
 62
     7
370
    50
100
AcDbLine
 10
227.055295
 20
211.670406
 30
0.0
 11
226.974174
 21
211.821051
 31
0.0
  0
LINE
  5
1D8
330
1D3
100
AcDbEntity
  8
LC-001-100-D00-0
 62
     7
370
    50
100
AcDbLine
 10
226.974174
 20
211.821051
 30
0.0
 11
226.974174
 21
211.821051
 31
0.0
  0
LINE
  5
1D9
330
1D3
100
AcDbEntity
  8
LC-001-100-D00-0
 62
     7
370
    50
100
AcDbLine
 10
226.974174
 20
211.821051
 30
0.0
 11
226.907231
 21
211.945667
 31
0.0
  0
LINE
  5
1DA
330
1D3
100
AcDbEntity
  8
LC-001-100-D00-0
 62
     7
370
    50
100
AcDbLine
 10
226.907231
 20
211.945667
 30
0.0
 11
226.907231
 21
211.945667
 31
0.0
  0
LINE
  5
1DB
330
1D3
100
AcDbEntity
  8
LC-001-100-D00-0
 62
     7
370
    50
100
AcDbLine
 10
226.907231
 20
211.945667
 30
0.0
 11
226.81228
 21
212.122564
 31
0.0
  0
LINE
  5
1DC
330
1D3
100
AcDbEntity
  8
LC-001-100-D00-0
 62
     7
370
    50
100
AcDbLine
 10
226.81228
 20
212.122564
 30
0.0
 11
226.81228
 21
212.122564
 31
0.0
  0
LINE
  5
1DD
330
1D3
100
AcDbEntity
  8
LC-001-100-D00-0
 62
     7
370
    50
100
AcDbLine
 10
226.81228
 20
212.122564
 30
0.0
 11
226.786745
 21
212.170218
 31
0.0
  0
ENDBLK
  5
1D5
330
1D3
100
AcDbEntity
  8
0
100
AcDbBlockEnd
  0
BLOCK
  5
1E2
330
1E1
100
AcDbEntity
  8
0
100
AcDbBlockBegin
  2
POLY8
 70
     0
 71
     0
 10
0.0
 20
0.0
 30
0.0
  3
POLY8
  1

  4
POLY8
  0
LINE
  5
1E4
330
1E1
100
AcDbEntity
  8
LC-001-100-D00-0
 62
     7
370
    50
100
AcDbLine
 10
96.786745
 20
212.170218
 30
0.0
 11
96.786745
 21
212.170218
 31
0.0
  0
LINE
  5
1E5
330
1E1
100
AcDbEntity
  8
LC-001-100-D00-0
 62
     7
370
    50
100
AcDbLine
 10
96.786745
 20
212.170218
 30
0.0
 11
96.780275
 21
212.158149
 31
0.0
  0
LINE
  5
1E6
330
1E1
100
AcDbEntity
  8
LC-001-100-D00-0
 62
     7
370
    50
100
AcDbLine
 10
96.780275
 20
212.158149
 30
0.0
 11
96.780275
 21
212.158149
 31
0.0
  0
LINE
  5
1E7
330
1E1
100
AcDbEntity
  8
LC-001-100-D00-0
 62
     7
370
    50
100
AcDbLine
 10
96.780275
 20
212.158149
 30
0.0
 11
96.755554
 21
212.112051
 31
0.0
  0
LINE
  5
1E8
330
1E1
100
AcDbEntity
  8
LC-001-100-D00-0
 62
     7
370
    50
100
AcDbLine
 10
96.755554
 20
212.112051
 30
0.0
 11
96.755554
 21
212.112051
 31
0.0
  0
LINE
  5
1E9
330
1E1
100
AcDbEntity
  8
LC-001-100-D00-0
 62
     7
370
    50
100
AcDbLine
 10
96.755554
 20
212.112051
 30
0.0
 11
96.737332
 21
212.078078
 31
0.0
  0
LINE
  5
1EA
330
1E1
100
AcDbEntity
  8
LC-001-100-D00-0
 62
     7
370
    50
100
AcDbLine
 10
96.737332
 20
212.078078
 30
0.0
 11
96.737332
 21
212.078078
 31
0.0
  0
LINE
  5
1EB
330
1E1
100
AcDbEntity
  8
LC-001-100-D00-0
 62
     7
370
    50
100
AcDbLine
 10
96.737332
 20
212.078078
 30
0.0
 11
96.666463
 21
211.946047
 31
0.0
  0
LINE
  5
1EC
330
1E1
100
AcDbEntity
  8
LC-001-100-D00-0
 62
     7
370
    50
100
AcDbLine
 10
96.666463
 20
211.946047
 30
0.0
 11
96.666463
 21
211.946047
 31
0.0
  0
LINE
  5
1ED
330
1E1
100
AcDbEntity
  8
LC-001-100-D00-0
 62
     7
370
    50
100
AcDbLine
 10
96.666463
 20
211.946047
 30
0.0
 11
96.599097
 21
211.820643
 31
0.0
  0
LINE
  5
1EE
330
1E1
100
AcDbEntity
  8
LC-001-100-D00-0
 62
     7
370
    50
100
AcDbLine
 10
96.599097
 20
211.820643
 30
0.0
 11
96.599097
 21
211.820643
 31
0.0
  0
LINE
  5
1EF
330
1E1
100
AcDbEntity
  8
LC-001-100-D00-0
 62
     7
370
    50
100
AcDbLine
 10
96.599097
 20
211.820643
 30
0.0
 11
96.518196
 21
211.670406
 31
0.0
  0
ENDBLK
  5
1E3
330
1E1
100
AcDbEntity
  8
0
100
AcDbBlockEnd
  0
BLOCK
  5
245
330
244
100
AcDbEntity
  8
0
100
AcDbBlockBegin
  2
POLY9
 70
     0
 71
     0
 10
0.0
 20
0.0
 30
0.0
  3
POLY9
  1

  4
POLY9
  0
LINE
  5
247
330
244
100
AcDbEntity
  8
LC-001-100-D00-0
 62
     7
370
    50
100
AcDbLine
 10
87.095445
 20
211.670406
 30
0.0
 11
87.095445
 21
211.670406
 31
0.0
  0
LINE
  5
248
330
244
100
AcDbEntity
  8
LC-001-100-D00-0
 62
     7
370
    50
100
AcDbLine
 10
87.095445
 20
211.670406
 30
0.0
 11
87.001387
 21
211.823045
 31
0.0
  0
LINE
  5
249
330
244
100
AcDbEntity
  8
LC-001-100-D00-0
 62
     7
370
    50
100
AcDbLine
 10
87.001387
 20
211.823045
 30
0.0
 11
87.001387
 21
211.823045
 31
0.0
  0
LINE
  5
24A
330
244
100
AcDbEntity
  8
LC-001-100-D00-0
 62
     7
370
    50
100
AcDbLine
 10
87.001387
 20
211.823045
 30
0.0
 11
86.924365
 21
211.947771
 31
0.0
  0
LINE
  5
24B
330
244
100
AcDbEntity
  8
LC-001-100-D00-0
 62
     7
370
    50
100
AcDbLine
 10
86.924365
 20
211.947771
 30
0.0
 11
86.924365
 21
211.947771
 31
0.0
  0
LINE
  5
24C
330
244
100
AcDbEntity
  8
LC-001-100-D00-0
 62
     7
370
    50
100
AcDbLine
 10
86.924365
 20
211.947771
 30
0.0
 11
86.815715
 21
212.123594
 31
0.0
  0
LINE
  5
24D
330
244
100
AcDbEntity
  8
LC-001-100-D00-0
 62
     7
370
    50
100
AcDbLine
 10
86.815715
 20
212.123594
 30
0.0
 11
86.815715
 21
212.123594
 31
0.0
  0
LINE
  5
24E
330
244
100
AcDbEntity
  8
LC-001-100-D00-0
 62
     7
370
    50
100
AcDbLine
 10
86.815715
 20
212.123594
 30
0.0
 11
86.786745
 21
212.170406
 31
0.0
  0
ENDBLK
  5
246
330
244
100
AcDbEntity
  8
0
100
AcDbBlockEnd
  0
BLOCK
  5
277
330
276
100
AcDbEntity
  8
0
100
AcDbBlockBegin
  2
POLY10
 70
     0
 71
     0
 10
0.0
 20
0.0
 30
0.0
  3
POLY10
  1

  4
POLY10
  0
LINE
  5
279
330
276
100
AcDbEntity
  8
LC-001-100-D00-0
 62
     7
370
    50
100
AcDbLine
 10
236.786745
 20
212.170406
 30
0.0
 11
236.786745
 21
212.170406
 31
0.0
  0
LINE
  5
27A
330
276
100
AcDbEntity
  8
LC-001-100-D00-0
 62
     7
370
    50
100
AcDbLine
 10
236.786745
 20
212.170406
 30
0.0
 11
236.779408
 21
212.158546
 31
0.0
  0
LINE
  5
27B
330
276
100
AcDbEntity
  8
LC-001-100-D00-0
 62
     7
370
    50
100
AcDbLine
 10
236.779408
 20
212.158546
 30
0.0
 11
236.779408
 21
212.158546
 31
0.0
  0
LINE
  5
27C
330
276
100
AcDbEntity
  8
LC-001-100-D00-0
 62
     7
370
    50
100
AcDbLine
 10
236.779408
 20
212.158546
 30
0.0
 11
236.751276
 21
212.113055
 31
0.0
  0
LINE
  5
27D
330
276
100
AcDbEntity
  8
LC-001-100-D00-0
 62
     7
370
    50
100
AcDbLine
 10
236.751276
 20
212.113055
 30
0.0
 11
236.751276
 21
212.113055
 31
0.0
  0
LINE
  5
27E
330
276
100
AcDbEntity
  8
LC-001-100-D00-0
 62
     7
370
    50
100
AcDbLine
 10
236.751276
 20
212.113055
 30
0.0
 11
236.730515
 21
212.079481
 31
0.0
  0
LINE
  5
27F
330
276
100
AcDbEntity
  8
LC-001-100-D00-0
 62
     7
370
    50
100
AcDbLine
 10
236.730515
 20
212.079481
 30
0.0
 11
236.730515
 21
212.079481
 31
0.0
  0
LINE
  5
280
330
276
100
AcDbEntity
  8
LC-001-100-D00-0
 62
     7
370
    50
100
AcDbLine
 10
236.730515
 20
212.079481
 30
0.0
 11
236.676558
 21
211.992164
 31
0.0
  0
LINE
  5
281
330
276
100
AcDbEntity
  8
LC-001-100-D00-0
 62
     7
370
    50
100
AcDbLine
 10
236.676558
 20
211.992164
 30
0.0
 11
236.676558
 21
211.992164
 31
0.0
  0
LINE
  5
282
330
276
100
AcDbEntity
  8
LC-001-100-D00-0
 62
     7
370
    50
100
AcDbLine
 10
236.676558
 20
211.992164
 30
0.0
 11
236.643359
 21
211.938417
 31
0.0
  0
LINE
  5
283
330
276
100
AcDbEntity
  8
LC-001-100-D00-0
 62
     7
370
    50
100
AcDbLine
 10
236.643359
 20
211.938417
 30
0.0
 11
236.643359
 21
211.938417
 31
0.0
  0
LINE
  5
284
330
276
100
AcDbEntity
  8
LC-001-100-D00-0
 62
     7
370
    50
100
AcDbLine
 10
236.643359
 20
211.938417
 30
0.0
 11
236.56765
 21
211.81575
 31
0.0
  0
LINE
  5
285
330
276
100
AcDbEntity
  8
LC-001-100-D00-0
 62
     7
370
    50
100
AcDbLine
 10
236.56765
 20
211.81575
 30
0.0
 11
236.56765
 21
211.81575
 31
0.0
  0
LINE
  5
286
330
276
100
AcDbEntity
  8
LC-001-100-D00-0
 62
     7
370
    50
100
AcDbLine
 10
236.56765
 20
211.81575
 30
0.0
 11
236.524957
 21
211.746535
 31
0.0
  0
LINE
  5
287
330
276
100
AcDbEntity
  8
LC-001-100-D00-0
 62
     7
370
    50
100
AcDbLine
 10
236.524957
 20
211.746535
 30
0.0
 11
236.524957
 21
211.746535
 31
0.0
  0
LINE
  5
288
330
276
100
AcDbEntity
  8
LC-001-100-D00-0
 62
     7
370
    50
100
AcDbLine
 10
236.524957
 20
211.746535
 30
0.0
 11
236.478046
 21
211.670406
 31
0.0
  0
ENDBLK
  5
278
330
276
100
AcDbEntity
  8
0
100
AcDbBlockEnd
  0
BLOCK
  5
290
330
28F
100
AcDbEntity
  8
0
100
AcDbBlockBegin
  2
POLY11
 70
     0
 71
     0
 10
0.0
 20
0.0
 30
0.0
  3
POLY11
  1

  4
POLY11
  0
LINE
  5
292
330
28F
100
AcDbEntity
  8
LC-001-100-D00-0
 62
     7
370
    50
100
AcDbLine
 10
94.901134
 20
212.170406
 30
0.0
 11
94.901134
 21
212.170406
 31
0.0
  0
LINE
  5
293
330
28F
100
AcDbEntity
  8
LC-001-100-D00-0
 62
     7
370
    50
100
AcDbLine
 10
94.901134
 20
212.170406
 30
0.0
 11
94.809741
 21
212.005019
 31
0.0
  0
LINE
  5
294
330
28F
100
AcDbEntity
  8
LC-001-100-D00-0
 62
     7
370
    50
100
AcDbLine
 10
94.809741
 20
212.005019
 30
0.0
 11
94.809741
 21
212.005019
 31
0.0
  0
LINE
  5
295
330
28F
100
AcDbEntity
  8
LC-001-100-D00-0
 62
     7
370
    50
100
AcDbLine
 10
94.809741
 20
212.005019
 30
0.0
 11
94.71742
 21
211.838307
 31
0.0
  0
LINE
  5
296
330
28F
100
AcDbEntity
  8
LC-001-100-D00-0
 62
     7
370
    50
100
AcDbLine
 10
94.71742
 20
211.838307
 30
0.0
 11
94.71742
 21
211.838307
 31
0.0
  0
LINE
  5
297
330
28F
100
AcDbEntity
  8
LC-001-100-D00-0
 62
     7
370
    50
100
AcDbLine
 10
94.71742
 20
211.838307
 30
0.0
 11
94.624236
 21
211.670406
 31
0.0
  0
ENDBLK
  5
291
330
28F
100
AcDbEntity
  8
0
100
AcDbBlockEnd
  0
BLOCK
  5
29A
330
299
100
AcDbEntity
  8
0
100
AcDbBlockBegin
  2
POLY12
 70
     0
 71
     0
 10
0.0
 20
0.0
 30
0.0
  3
POLY12
  1

  4
POLY12
  0
LINE
  5
29C
330
299
100
AcDbEntity
  8
LC-001-100-D00-0
 62
     7
370
    50
100
AcDbLine
 10
95.176842
 20
211.670406
 30
0.0
 11
95.176842
 21
211.670406
 31
0.0
  0
LINE
  5
29D
330
299
100
AcDbEntity
  8
LC-001-100-D00-0
 62
     7
370
    50
100
AcDbLine
 10
95.176842
 20
211.670406
 30
0.0
 11
95.086076
 21
211.835367
 31
0.0
  0
LINE
  5
29E
330
299
100
AcDbEntity
  8
LC-001-100-D00-0
 62
     7
370
    50
100
AcDbLine
 10
95.086076
 20
211.835367
 30
0.0
 11
95.086076
 21
211.835367
 31
0.0
  0
LINE
  5
29F
330
299
100
AcDbEntity
  8
LC-001-100-D00-0
 62
     7
370
    50
100
AcDbLine
 10
95.086076
 20
211.835367
 30
0.0
 11
94.994139
 21
212.002104
 31
0.0
  0
LINE
  5
2A0
330
299
100
AcDbEntity
  8
LC-001-100-D00-0
 62
     7
370
    50
100
AcDbLine
 10
94.994139
 20
212.002104
 30
0.0
 11
94.994139
 21
212.002104
 31
0.0
  0
LINE
  5
2A1
330
299
100
AcDbEntity
  8
LC-001-100-D00-0
 62
     7
370
    50
100
AcDbLine
 10
94.994139
 20
212.002104
 30
0.0
 11
94.901134
 21
212.170406
 31
0.0
  0
ENDBLK
  5
29B
330
299
100
AcDbEntity
  8
0
100
AcDbBlockEnd
  0
BLOCK
  5
2A4
330
2A3
100
AcDbEntity
  8
0
100
AcDbBlockBegin
  2
POLY13
 70
     0
 71
     0
 10
0.0
 20
0.0
 30
0.0
  3
POLY13
  1

  4
POLY13
  0
LINE
  5
2A6
330
2A3
100
AcDbEntity
  8
LC-001-100-D00-0
 62
     7
370
    50
100
AcDbLine
 10
228.949254
 20
211.670406
 30
0.0
 11
228.949254
 21
211.670406
 31
0.0
  0
LINE
  5
2A7
330
2A3
100
AcDbEntity
  8
LC-001-100-D00-0
 62
     7
370
    50
100
AcDbLine
 10
228.949254
 20
211.670406
 30
0.0
 11
228.856071
 21
211.838307
 31
0.0
  0
LINE
  5
2A8
330
2A3
100
AcDbEntity
  8
LC-001-100-D00-0
 62
     7
370
    50
100
AcDbLine
 10
228.856071
 20
211.838307
 30
0.0
 11
228.856071
 21
211.838307
 31
0.0
  0
LINE
  5
2A9
330
2A3
100
AcDbEntity
  8
LC-001-100-D00-0
 62
     7
370
    50
100
AcDbLine
 10
228.856071
 20
211.838307
 30
0.0
 11
228.763749
 21
212.005019
 31
0.0
  0
LINE
  5
2AA
330
2A3
100
AcDbEntity
  8
LC-001-100-D00-0
 62
     7
370
    50
100
AcDbLine
 10
228.763749
 20
212.005019
 30
0.0
 11
228.763749
 21
212.005019
 31
0.0
  0
LINE
  5
2AB
330
2A3
100
AcDbEntity
  8
LC-001-100-D00-0
 62
     7
370
    50
100
AcDbLine
 10
228.763749
 20
212.005019
 30
0.0
 11
228.672356
 21
212.170406
 31
0.0
  0
ENDBLK
  5
2A5
330
2A3
100
AcDbEntity
  8
0
100
AcDbBlockEnd
  0
BLOCK
  5
2AE
330
2AD
100
AcDbEntity
  8
0
100
AcDbBlockBegin
  2
POLY14
 70
     0
 71
     0
 10
0.0
 20
0.0
 30
0.0
  3
POLY14
  1

  4
POLY14
  0
LINE
  5
2B0
330
2AD
100
AcDbEntity
  8
LC-001-100-D00-0
 62
     7
370
    50
100
AcDbLine
 10
228.672356
 20
212.170406
 30
0.0
 11
228.672356
 21
212.170406
 31
0.0
  0
LINE
  5
2B1
330
2AD
100
AcDbEntity
  8
LC-001-100-D00-0
 62
     7
370
    50
100
AcDbLine
 10
228.672356
 20
212.170406
 30
0.0
 11
228.579352
 21
212.002104
 31
0.0
  0
LINE
  5
2B2
330
2AD
100
AcDbEntity
  8
LC-001-100-D00-0
 62
     7
370
    50
100
AcDbLine
 10
228.579352
 20
212.002104
 30
0.0
 11
228.579352
 21
212.002104
 31
0.0
  0
LINE
  5
2B3
330
2AD
100
AcDbEntity
  8
LC-001-100-D00-0
 62
     7
370
    50
100
AcDbLine
 10
228.579352
 20
212.002104
 30
0.0
 11
228.487414
 21
211.835367
 31
0.0
  0
LINE
  5
2B4
330
2AD
100
AcDbEntity
  8
LC-001-100-D00-0
 62
     7
370
    50
100
AcDbLine
 10
228.487414
 20
211.835367
 30
0.0
 11
228.487414
 21
211.835367
 31
0.0
  0
LINE
  5
2B5
330
2AD
100
AcDbEntity
  8
LC-001-100-D00-0
 62
     7
370
    50
100
AcDbLine
 10
228.487414
 20
211.835367
 30
0.0
 11
228.396649
 21
211.670406
 31
0.0
  0
ENDBLK
  5
2AF
330
2AD
100
AcDbEntity
  8
0
100
AcDbBlockEnd
  0
BLOCK
  5
2B8
330
2B7
100
AcDbEntity
  8
0
100
AcDbBlockBegin
  2
POLY15
 70
     0
 71
     0
 10
0.0
 20
0.0
 30
0.0
  3
POLY15
  1

  4
POLY15
  0
LINE
  5
2BA
330
2B7
100
AcDbEntity
  8
LC-001-100-D00-0
 62
     7
370
    50
100
AcDbLine
 10
89.201483
 20
211.670406
 30
0.0
 11
89.201483
 21
211.670406
 31
0.0
  0
LINE
  5
2BB
330
2B7
100
AcDbEntity
  8
LC-001-100-D00-0
 62
     7
370
    50
100
AcDbLine
 10
89.201483
 20
211.670406
 30
0.0
 11
89.100677
 21
211.838496
 31
0.0
  0
LINE
  5
2BC
330
2B7
100
AcDbEntity
  8
LC-001-100-D00-0
 62
     7
370
    50
100
AcDbLine
 10
89.100677
 20
211.838496
 30
0.0
 11
89.100677
 21
211.838496
 31
0.0
  0
LINE
  5
2BD
330
2B7
100
AcDbEntity
  8
LC-001-100-D00-0
 62
     7
370
    50
100
AcDbLine
 10
89.100677
 20
211.838496
 30
0.0
 11
89.000497
 21
212.005206
 31
0.0
  0
LINE
  5
2BE
330
2B7
100
AcDbEntity
  8
LC-001-100-D00-0
 62
     7
370
    50
100
AcDbLine
 10
89.000497
 20
212.005206
 30
0.0
 11
89.000497
 21
212.005206
 31
0.0
  0
LINE
  5
2BF
330
2B7
100
AcDbEntity
  8
LC-001-100-D00-0
 62
     7
370
    50
100
AcDbLine
 10
89.000497
 20
212.005206
 30
0.0
 11
88.901031
 21
212.170406
 31
0.0
  0
ENDBLK
  5
2B9
330
2B7
100
AcDbEntity
  8
0
100
AcDbBlockEnd
  0
BLOCK
  5
2C2
330
2C1
100
AcDbEntity
  8
0
100
AcDbBlockBegin
  2
POLY16
 70
     0
 71
     0
 10
0.0
 20
0.0
 30
0.0
  3
POLY16
  1

  4
POLY16
  0
LINE
  5
2C4
330
2C1
100
AcDbEntity
  8
LC-001-100-D00-0
 62
     7
370
    50
100
AcDbLine
 10
88.901031
 20
212.170406
 30
0.0
 11
88.901031
 21
212.170406
 31
0.0
  0
LINE
  5
2C5
330
2C1
100
AcDbEntity
  8
LC-001-100-D00-0
 62
     7
370
    50
100
AcDbLine
 10
88.901031
 20
212.170406
 30
0.0
 11
88.799561
 21
212.001877
 31
0.0
  0
LINE
  5
2C6
330
2C1
100
AcDbEntity
  8
LC-001-100-D00-0
 62
     7
370
    50
100
AcDbLine
 10
88.799561
 20
212.001877
 30
0.0
 11
88.799561
 21
212.001877
 31
0.0
  0
LINE
  5
2C7
330
2C1
100
AcDbEntity
  8
LC-001-100-D00-0
 62
     7
370
    50
100
AcDbLine
 10
88.799561
 20
212.001877
 30
0.0
 11
88.698969
 21
211.835144
 31
0.0
  0
LINE
  5
2C8
330
2C1
100
AcDbEntity
  8
LC-001-100-D00-0
 62
     7
370
    50
100
AcDbLine
 10
88.698969
 20
211.835144
 30
0.0
 11
88.698969
 21
211.835144
 31
0.0
  0
LINE
  5
2C9
330
2C1
100
AcDbEntity
  8
LC-001-100-D00-0
 62
     7
370
    50
100
AcDbLine
 10
88.698969
 20
211.835144
 30
0.0
 11
88.599389
 21
211.670406
 31
0.0
  0
ENDBLK
  5
2C3
330
2C1
100
AcDbEntity
  8
0
100
AcDbBlockEnd
  0
BLOCK
  5
2CC
330
2CB
100
AcDbEntity
  8
0
100
AcDbBlockBegin
  2
POLY17
 70
     0
 71
     0
 10
0.0
 20
0.0
 30
0.0
  3
POLY17
  1

  4
POLY17
  0
LINE
  5
2CE
330
2CB
100
AcDbEntity
  8
LC-001-100-D00-0
 62
     7
370
    50
100
AcDbLine
 10
234.974102
 20
211.670406
 30
0.0
 11
234.974102
 21
211.670406
 31
0.0
  0
LINE
  5
2CF
330
2CB
100
AcDbEntity
  8
LC-001-100-D00-0
 62
     7
370
    50
100
AcDbLine
 10
234.974102
 20
211.670406
 30
0.0
 11
234.874522
 21
211.835144
 31
0.0
  0
LINE
  5
2D0
330
2CB
100
AcDbEntity
  8
LC-001-100-D00-0
 62
     7
370
    50
100
AcDbLine
 10
234.874522
 20
211.835144
 30
0.0
 11
234.874522
 21
211.835144
 31
0.0
  0
LINE
  5
2D1
330
2CB
100
AcDbEntity
  8
LC-001-100-D00-0
 62
     7
370
    50
100
AcDbLine
 10
234.874522
 20
211.835144
 30
0.0
 11
234.773929
 21
212.001877
 31
0.0
  0
LINE
  5
2D2
330
2CB
100
AcDbEntity
  8
LC-001-100-D00-0
 62
     7
370
    50
100
AcDbLine
 10
234.773929
 20
212.001877
 30
0.0
 11
234.773929
 21
212.001877
 31
0.0
  0
LINE
  5
2D3
330
2CB
100
AcDbEntity
  8
LC-001-100-D00-0
 62
     7
370
    50
100
AcDbLine
 10
234.773929
 20
212.001877
 30
0.0
 11
234.67246
 21
212.170406
 31
0.0
  0
ENDBLK
  5
2CD
330
2CB
100
AcDbEntity
  8
0
100
AcDbBlockEnd
  0
BLOCK
  5
2D6
330
2D5
100
AcDbEntity
  8
0
100
AcDbBlockBegin
  2
POLY18
 70
     0
 71
     0
 10
0.0
 20
0.0
 30
0.0
  3
POLY18
  1

  4
POLY18
  0
LINE
  5
2D8
330
2D5
100
AcDbEntity
  8
LC-001-100-D00-0
 62
     7
370
    50
100
AcDbLine
 10
234.67246
 20
212.170406
 30
0.0
 11
234.67246
 21
212.170406
 31
0.0
  0
LINE
  5
2D9
330
2D5
100
AcDbEntity
  8
LC-001-100-D00-0
 62
     7
370
    50
100
AcDbLine
 10
234.67246
 20
212.170406
 30
0.0
 11
234.572994
 21
212.005206
 31
0.0
  0
LINE
  5
2DA
330
2D5
100
AcDbEntity
  8
LC-001-100-D00-0
 62
     7
370
    50
100
AcDbLine
 10
234.572994
 20
212.005206
 30
0.0
 11
234.572994
 21
212.005206
 31
0.0
  0
LINE
  5
2DB
330
2D5
100
AcDbEntity
  8
LC-001-100-D00-0
 62
     7
370
    50
100
AcDbLine
 10
234.572994
 20
212.005206
 30
0.0
 11
234.472814
 21
211.838496
 31
0.0
  0
LINE
  5
2DC
330
2D5
100
AcDbEntity
  8
LC-001-100-D00-0
 62
     7
370
    50
100
AcDbLine
 10
234.472814
 20
211.838496
 30
0.0
 11
234.472814
 21
211.838496
 31
0.0
  0
LINE
  5
2DD
330
2D5
100
AcDbEntity
  8
LC-001-100-D00-0
 62
     7
370
    50
100
AcDbLine
 10
234.472814
 20
211.838496
 30
0.0
 11
234.372008
 21
211.670406
 31
0.0
  0
ENDBLK
  5
2D7
330
2D5
100
AcDbEntity
  8
0
100
AcDbBlockEnd
  0
BLOCK
  5
2E0
330
2DF
100
AcDbEntity
  8
0
100
AcDbBlockBegin
  2
POLY19
 70
     0
 71
     0
 10
0.0
 20
0.0
 30
0.0
  3
POLY19
  1

  4
POLY19
  0
LINE
  5
2E2
330
2DF
100
AcDbEntity
  8
LC-001-100-D00-0
 62
     7
370
    50
100
AcDbLine
 10
230.900463
 20
211.670406
 30
0.0
 11
230.900463
 21
211.670406
 31
0.0
  0
LINE
  5
2E3
330
2DF
100
AcDbEntity
  8
LC-001-100-D00-0
 62
     7
370
    50
100
AcDbLine
 10
230.900463
 20
211.670406
 30
0.0
 11
230.80513
 21
211.837224
 31
0.0
  0
LINE
  5
2E4
330
2DF
100
AcDbEntity
  8
LC-001-100-D00-0
 62
     7
370
    50
100
AcDbLine
 10
230.80513
 20
211.837224
 30
0.0
 11
230.80513
 21
211.837224
 31
0.0
  0
LINE
  5
2E5
330
2DF
100
AcDbEntity
  8
LC-001-100-D00-0
 62
     7
370
    50
100
AcDbLine
 10
230.80513
 20
211.837224
 30
0.0
 11
230.710061
 21
212.003929
 31
0.0
  0
LINE
  5
2E6
330
2DF
100
AcDbEntity
  8
LC-001-100-D00-0
 62
     7
370
    50
100
AcDbLine
 10
230.710061
 20
212.003929
 30
0.0
 11
230.710061
 21
212.003929
 31
0.0
  0
LINE
  5
2E7
330
2DF
100
AcDbEntity
  8
LC-001-100-D00-0
 62
     7
370
    50
100
AcDbLine
 10
230.710061
 20
212.003929
 30
0.0
 11
230.615321
 21
212.170406
 31
0.0
  0
ENDBLK
  5
2E1
330
2DF
100
AcDbEntity
  8
0
100
AcDbBlockEnd
  0
BLOCK
  5
2EA
330
2E9
100
AcDbEntity
  8
0
100
AcDbBlockBegin
  2
POLY20
 70
     0
 71
     0
 10
0.0
 20
0.0
 30
0.0
  3
POLY20
  1

  4
POLY20
  0
LINE
  5
2EC
330
2E9
100
AcDbEntity
  8
LC-001-100-D00-0
 62
     7
370
    50
100
AcDbLine
 10
230.615321
 20
212.170406
 30
0.0
 11
230.615321
 21
212.170406
 31
0.0
  0
LINE
  5
2ED
330
2E9
100
AcDbEntity
  8
LC-001-100-D00-0
 62
     7
370
    50
100
AcDbLine
 10
230.615321
 20
212.170406
 30
0.0
 11
230.520336
 21
212.003506
 31
0.0
  0
LINE
  5
2EE
330
2E9
100
AcDbEntity
  8
LC-001-100-D00-0
 62
     7
370
    50
100
AcDbLine
 10
230.520336
 20
212.003506
 30
0.0
 11
230.520336
 21
212.003506
 31
0.0
  0
LINE
  5
2EF
330
2E9
100
AcDbEntity
  8
LC-001-100-D00-0
 62
     7
370
    50
100
AcDbLine
 10
230.520336
 20
212.003506
 30
0.0
 11
230.42566
 21
211.836797
 31
0.0
  0
LINE
  5
2F0
330
2E9
100
AcDbEntity
  8
LC-001-100-D00-0
 62
     7
370
    50
100
AcDbLine
 10
230.42566
 20
211.836797
 30
0.0
 11
230.42566
 21
211.836797
 31
0.0
  0
LINE
  5
2F1
330
2E9
100
AcDbEntity
  8
LC-001-100-D00-0
 62
     7
370
    50
100
AcDbLine
 10
230.42566
 20
211.836797
 30
0.0
 11
230.331361
 21
211.670406
 31
0.0
  0
ENDBLK
  5
2EB
330
2E9
100
AcDbEntity
  8
0
100
AcDbBlockEnd
  0
BLOCK
  5
2F4
330
2F3
100
AcDbEntity
  8
0
100
AcDbBlockBegin
  2
POLY21
 70
     0
 71
     0
 10
0.0
 20
0.0
 30
0.0
  3
POLY21
  1

  4
POLY21
  0
LINE
  5
2F6
330
2F3
100
AcDbEntity
  8
LC-001-100-D00-0
 62
     7
370
    50
100
AcDbLine
 10
232.615317
 20
212.170406
 30
0.0
 11
232.615317
 21
212.170406
 31
0.0
  0
LINE
  5
2F7
330
2F3
100
AcDbEntity
  8
LC-001-100-D00-0
 62
     7
370
    50
100
AcDbLine
 10
232.615317
 20
212.170406
 30
0.0
 11
232.517883
 21
212.004022
 31
0.0
  0
LINE
  5
2F8
330
2F3
100
AcDbEntity
  8
LC-001-100-D00-0
 62
     7
370
    50
100
AcDbLine
 10
232.517883
 20
212.004022
 30
0.0
 11
232.517883
 21
212.004022
 31
0.0
  0
LINE
  5
2F9
330
2F3
100
AcDbEntity
  8
LC-001-100-D00-0
 62
     7
370
    50
100
AcDbLine
 10
232.517883
 20
212.004022
 30
0.0
 11
232.420457
 21
211.837315
 31
0.0
  0
LINE
  5
2FA
330
2F3
100
AcDbEntity
  8
LC-001-100-D00-0
 62
     7
370
    50
100
AcDbLine
 10
232.420457
 20
211.837315
 30
0.0
 11
232.420457
 21
211.837315
 31
0.0
  0
LINE
  5
2FB
330
2F3
100
AcDbEntity
  8
LC-001-100-D00-0
 62
     7
370
    50
100
AcDbLine
 10
232.420457
 20
211.837315
 30
0.0
 11
232.323113
 21
211.670406
 31
0.0
  0
ENDBLK
  5
2F5
330
2F3
100
AcDbEntity
  8
0
100
AcDbBlockEnd
  0
BLOCK
  5
2FE
330
2FD
100
AcDbEntity
  8
0
100
AcDbBlockBegin
  2
POLY22
 70
     0
 71
     0
 10
0.0
 20
0.0
 30
0.0
  3
POLY22
  1

  4
POLY22
  0
LINE
  5
300
330
2FD
100
AcDbEntity
  8
LC-001-100-D00-0
 62
     7
370
    50
100
AcDbLine
 10
232.908711
 20
211.670406
 30
0.0
 11
232.908711
 21
211.670406
 31
0.0
  0
LINE
  5
301
330
2FD
100
AcDbEntity
  8
LC-001-100-D00-0
 62
     7
370
    50
100
AcDbLine
 10
232.908711
 20
211.670406
 30
0.0
 11
232.810934
 21
211.836699
 31
0.0
  0
LINE
  5
302
330
2FD
100
AcDbEntity
  8
LC-001-100-D00-0
 62
     7
370
    50
100
AcDbLine
 10
232.810934
 20
211.836699
 30
0.0
 11
232.810934
 21
211.836699
 31
0.0
  0
LINE
  5
303
330
2FD
100
AcDbEntity
  8
LC-001-100-D00-0
 62
     7
370
    50
100
AcDbLine
 10
232.810934
 20
211.836699
 30
0.0
 11
232.713109
 21
212.00341
 31
0.0
  0
LINE
  5
304
330
2FD
100
AcDbEntity
  8
LC-001-100-D00-0
 62
     7
370
    50
100
AcDbLine
 10
232.713109
 20
212.00341
 30
0.0
 11
232.713109
 21
212.00341
 31
0.0
  0
LINE
  5
305
330
2FD
100
AcDbEntity
  8
LC-001-100-D00-0
 62
     7
370
    50
100
AcDbLine
 10
232.713109
 20
212.00341
 30
0.0
 11
232.615317
 21
212.170406
 31
0.0
  0
ENDBLK
  5
2FF
330
2FD
100
AcDbEntity
  8
0
100
AcDbBlockEnd
  0
BLOCK
  5
308
330
307
100
AcDbEntity
  8
0
100
AcDbBlockBegin
  2
KLON21
 70
     0
 71
     0
 10
0.0
 20
0.0
 30
0.0
  3
KLON21
  1

  4
KLON21
  0
LINE
  5
30A
330
307
100
AcDbEntity
  8
LC-001-100-D00-0
 62
     7
370
    25
100
AcDbLine
 10
137.026932
 20
70.009011
 30
0.0
 11
139.786745
 21
72.768825
 31
0.0
  0
LINE
  5
30B
330
307
100
AcDbEntity
  8
LC-001-100-D00-0
 62
     7
370
    25
100
AcDbLine
 10
136.786745
 20
78.749081
 30
0.0
 11
139.786745
 21
81.749081
 31
0.0
  0
LINE
  5
30C
330
307
100
AcDbEntity
  8
LC-001-100-D00-0
 62
     7
370
    25
100
AcDbLine
 10
136.786745
 20
87.729337
 30
0.0
 11
139.786745
 21
90.729337
 31
0.0
  0
LINE
  5
30D
330
307
100
AcDbEntity
  8
LC-001-100-D00-0
 62
     7
370
    25
100
AcDbLine
 10
136.786745
 20
96.709593
 30
0.0
 11
139.786745
 21
99.709593
 31
0.0
  0
LINE
  5
30E
330
307
100
AcDbEntity
  8
LC-001-100-D00-0
 62
     7
370
    25
100
AcDbLine
 10
136.786745
 20
105.689849
 30
0.0
 11
139.786745
 21
108.689849
 31
0.0
  0
LINE
  5
30F
330
307
100
AcDbEntity
  8
LC-001-100-D00-0
 62
     7
370
    25
100
AcDbLine
 10
136.786745
 20
114.670105
 30
0.0
 11
139.786745
 21
117.670105
 31
0.0
  0
LINE
  5
310
330
307
100
AcDbEntity
  8
LC-001-100-D00-0
 62
     7
370
    25
100
AcDbLine
 10
136.786745
 20
123.650361
 30
0.0
 11
139.786745
 21
126.650361
 31
0.0
  0
LINE
  5
311
330
307
100
AcDbEntity
  8
LC-001-100-D00-0
 62
     7
370
    25
100
AcDbLine
 10
129.561529
 20
125.405401
 30
0.0
 11
132.061529
 21
127.905401
 31
0.0
  0
LINE
  5
312
330
307
100
AcDbEntity
  8
LC-001-100-D00-0
 62
     7
370
    25
100
AcDbLine
 10
120.581273
 20
125.405401
 30
0.0
 11
123.081273
 21
127.905401
 31
0.0
  0
LINE
  5
313
330
307
100
AcDbEntity
  8
LC-001-100-D00-0
 62
     7
370
    25
100
AcDbLine
 10
111.843961
 20
125.648346
 30
0.0
 11
114.295138
 21
128.099523
 31
0.0
  0
LINE
  5
314
330
307
100
AcDbEntity
  8
LC-001-100-D00-0
 62
     7
370
    25
100
AcDbLine
 10
109.012069
 20
131.79671
 30
0.0
 11
111.378108
 21
134.162749
 31
0.0
  0
LINE
  5
315
330
307
100
AcDbEntity
  8
LC-001-100-D00-0
 62
     7
370
    25
100
AcDbLine
 10
107.114306
 20
138.879203
 30
0.0
 11
109.786745
 21
141.551642
 31
0.0
  0
LINE
  5
316
330
307
100
AcDbEntity
  8
LC-001-100-D00-0
 62
     7
370
    25
100
AcDbLine
 10
106.786745
 20
147.531898
 30
0.0
 11
109.786745
 21
150.531898
 31
0.0
  0
LINE
  5
317
330
307
100
AcDbEntity
  8
LC-001-100-D00-0
 62
     7
370
    25
100
AcDbLine
 10
106.786745
 20
156.512154
 30
0.0
 11
109.786745
 21
159.512154
 31
0.0
  0
LINE
  5
318
330
307
100
AcDbEntity
  8
LC-001-100-D00-0
 62
     7
370
    25
100
AcDbLine
 10
106.786745
 20
165.49241
 30
0.0
 11
109.786745
 21
168.49241
 31
0.0
  0
LINE
  5
319
330
307
100
AcDbEntity
  8
LC-001-100-D00-0
 62
     7
370
    25
100
AcDbLine
 10
106.786745
 20
174.472666
 30
0.0
 11
109.786745
 21
177.472666
 31
0.0
  0
LINE
  5
31A
330
307
100
AcDbEntity
  8
LC-001-100-D00-0
 62
     7
370
    25
100
AcDbLine
 10
105.739224
 20
182.405401
 30
0.0
 11
108.739224
 21
185.405401
 31
0.0
  0
LINE
  5
31B
330
307
100
AcDbEntity
  8
LC-001-100-D00-0
 62
     7
370
    25
100
AcDbLine
 10
98.909518
 20
184.555952
 30
0.0
 11
101.786745
 21
187.433179
 31
0.0
  0
LINE
  5
31C
330
307
100
AcDbEntity
  8
LC-001-100-D00-0
 62
     7
370
    25
100
AcDbLine
 10
98.786745
 20
193.413435
 30
0.0
 11
101.786745
 21
196.413435
 31
0.0
  0
LINE
  5
31D
330
307
100
AcDbEntity
  8
LC-001-100-D00-0
 62
     7
370
    25
100
AcDbLine
 10
91.798469
 20
195.405415
 30
0.0
 11
101.786745
 21
205.393691
 31
0.0
  0
LINE
  5
31E
330
307
100
AcDbEntity
  8
LC-001-100-D00-0
 62
     7
370
    25
100
AcDbLine
 10
85.786745
 20
198.373947
 30
0.0
 11
89.286745
 21
201.873947
 31
0.0
  0
LINE
  5
31F
330
307
100
AcDbEntity
  8
LC-001-100-D00-0
 62
     7
370
    25
100
AcDbLine
 10
94.286745
 20
206.873947
 30
0.0
 11
100.786745
 21
213.373947
 31
0.0
  0
LINE
  5
320
330
307
100
AcDbEntity
  8
LC-001-100-D00-0
 62
     7
370
    25
100
AcDbLine
 10
84.2634
 20
205.830858
 30
0.0
 11
89.286745
 21
210.854203
 31
0.0
  0
LINE
  5
321
330
307
100
AcDbEntity
  8
LC-001-100-D00-0
 62
     7
370
    25
100
AcDbLine
 10
76.943903
 20
207.491617
 30
0.0
 11
78.786745
 21
209.334459
 31
0.0
  0
LINE
  5
322
330
307
100
AcDbEntity
  8
LC-001-100-D00-0
 62
     7
370
    25
100
AcDbLine
 10
70.426911
 20
209.954881
 30
0.0
 11
73.229879
 21
212.757849
 31
0.0
  0
LINE
  5
323
330
307
100
AcDbEntity
  8
LC-001-100-D00-0
 62
     7
370
    25
100
AcDbLine
 10
63.549339
 20
212.057566
 30
0.0
 11
66.352307
 21
214.860534
 31
0.0
  0
LINE
  5
324
330
307
100
AcDbEntity
  8
LC-001-100-D00-0
 62
     7
370
    25
100
AcDbLine
 10
56.671768
 20
214.16025
 30
0.0
 11
59.474736
 21
216.963218
 31
0.0
  0
LINE
  5
325
330
307
100
AcDbEntity
  8
LC-001-100-D00-0
 62
     7
370
    25
100
AcDbLine
 10
48.096307
 20
214.565046
 30
0.0
 11
51.533797
 21
218.002536
 31
0.0
  0
ENDBLK
  5
309
330
307
100
AcDbEntity
  8
0
100
AcDbBlockEnd
  0
BLOCK
  5
328
330
327
100
AcDbEntity
  8
0
100
AcDbBlockBegin
  2
KLON22
 70
     0
 71
     0
 10
0.0
 20
0.0
 30
0.0
  3
KLON22
  1

  4
KLON22
  0
LINE
  5
32A
330
327
100
AcDbEntity
  8
LC-001-100-D00-0
 62
     7
370
    25
100
AcDbLine
 10
183.786745
 20
71.867544
 30
0.0
 11
186.786745
 21
74.867544
 31
0.0
  0
LINE
  5
32B
330
327
100
AcDbEntity
  8
LC-001-100-D00-0
 62
     7
370
    25
100
AcDbLine
 10
183.786745
 20
80.8478
 30
0.0
 11
186.786745
 21
83.8478
 31
0.0
  0
LINE
  5
32C
330
327
100
AcDbEntity
  8
LC-001-100-D00-0
 62
     7
370
    25
100
AcDbLine
 10
183.786745
 20
89.828056
 30
0.0
 11
186.786745
 21
92.828056
 31
0.0
  0
LINE
  5
32D
330
327
100
AcDbEntity
  8
LC-001-100-D00-0
 62
     7
370
    25
100
AcDbLine
 10
183.786745
 20
98.808312
 30
0.0
 11
186.786745
 21
101.808312
 31
0.0
  0
LINE
  5
32E
330
327
100
AcDbEntity
  8
LC-001-100-D00-0
 62
     7
370
    25
100
AcDbLine
 10
210.383834
 20
125.405401
 30
0.0
 11
213.751135
 21
128.772702
 31
0.0
  0
LINE
  5
32F
330
327
100
AcDbEntity
  8
LC-001-100-D00-0
 62
     7
370
    25
100
AcDbLine
 10
183.786745
 20
107.788569
 30
0.0
 11
186.786745
 21
110.788569
 31
0.0
  0
LINE
  5
330
330
327
100
AcDbEntity
  8
LC-001-100-D00-0
 62
     7
370
    25
100
AcDbLine
 10
201.403578
 20
125.405401
 30
0.0
 11
203.903578
 21
127.905401
 31
0.0
  0
LINE
  5
331
330
327
100
AcDbEntity
  8
LC-001-100-D00-0
 62
     7
370
    25
100
AcDbLine
 10
212.940067
 20
136.941891
 30
0.0
 11
216.786745
 21
140.788569
 31
0.0
  0
LINE
  5
332
330
327
100
AcDbEntity
  8
LC-001-100-D00-0
 62
     7
370
    25
100
AcDbLine
 10
183.786745
 20
116.768825
 30
0.0
 11
186.786745
 21
119.768825
 31
0.0
  0
LINE
  5
333
330
327
100
AcDbEntity
  8
LC-001-100-D00-0
 62
     7
370
    25
100
AcDbLine
 10
192.423322
 20
125.405401
 30
0.0
 11
194.923322
 21
127.905401
 31
0.0
  0
LINE
  5
334
330
327
100
AcDbEntity
  8
LC-001-100-D00-0
 62
     7
370
    25
100
AcDbLine
 10
213.786745
 20
146.768825
 30
0.0
 11
216.786745
 21
149.768825
 31
0.0
  0
LINE
  5
335
330
327
100
AcDbEntity
  8
LC-001-100-D00-0
 62
     7
370
    25
100
AcDbLine
 10
183.786745
 20
125.749081
 30
0.0
 11
185.943066
 21
127.905401
 31
0.0
  0
LINE
  5
336
330
327
100
AcDbEntity
  8
LC-001-100-D00-0
 62
     7
370
    25
100
AcDbLine
 10
213.786745
 20
155.749081
 30
0.0
 11
216.786745
 21
158.749081
 31
0.0
  0
LINE
  5
337
330
327
100
AcDbEntity
  8
LC-001-100-D00-0
 62
     7
370
    25
100
AcDbLine
 10
272.500133
 20
214.462469
 30
0.0
 11
275.611723
 21
217.574059
 31
0.0
  0
LINE
  5
338
330
327
100
AcDbEntity
  8
LC-001-100-D00-0
 62
     7
370
    25
100
AcDbLine
 10
213.786745
 20
164.729337
 30
0.0
 11
216.786745
 21
167.729337
 31
0.0
  0
LINE
  5
339
330
327
100
AcDbEntity
  8
LC-001-100-D00-0
 62
     7
370
    25
100
AcDbLine
 10
261.595332
 20
212.537924
 30
0.0
 11
266.866948
 21
217.80954
 31
0.0
  0
LINE
  5
33A
330
327
100
AcDbEntity
  8
LC-001-100-D00-0
 62
     7
370
    25
100
AcDbLine
 10
213.786745
 20
173.709593
 30
0.0
 11
216.786745
 21
176.709593
 31
0.0
  0
LINE
  5
33B
330
327
100
AcDbEntity
  8
LC-001-100-D00-0
 62
     7
370
    25
100
AcDbLine
 10
222.592896
 20
182.515743
 30
0.0
 11
224.676403
 21
184.599251
 31
0.0
  0
LINE
  5
33C
330
327
100
AcDbEntity
  8
LC-001-100-D00-0
 62
     7
370
    25
100
AcDbLine
 10
236.40801
 20
196.330858
 30
0.0
 11
237.786745
 21
197.709593
 31
0.0
  0
LINE
  5
33D
330
327
100
AcDbEntity
  8
LC-001-100-D00-0
 62
     7
370
    25
100
AcDbLine
 10
248.660502
 20
208.583349
 30
0.0
 11
253.932117
 21
213.854965
 31
0.0
  0
LINE
  5
33E
330
327
100
AcDbEntity
  8
LC-001-100-D00-0
 62
     7
370
    25
100
AcDbLine
 10
213.786745
 20
182.689849
 30
0.0
 11
216.502297
 21
185.405401
 31
0.0
  0
LINE
  5
33F
330
327
100
AcDbEntity
  8
LC-001-100-D00-0
 62
     7
370
    25
100
AcDbLine
 10
221.786745
 20
190.689849
 30
0.0
 11
224.786745
 21
193.689849
 31
0.0
  0
LINE
  5
340
330
327
100
AcDbEntity
  8
LC-001-100-D00-0
 62
     7
370
    25
100
AcDbLine
 10
227.427754
 20
196.330858
 30
0.0
 11
229.777024
 21
198.680127
 31
0.0
  0
LINE
  5
341
330
327
100
AcDbEntity
  8
LC-001-100-D00-0
 62
     7
370
    25
100
AcDbLine
 10
234.286745
 20
203.189849
 30
0.0
 11
239.267302
 21
208.170406
 31
0.0
  0
LINE
  5
342
330
327
100
AcDbEntity
  8
LC-001-100-D00-0
 62
     7
370
    25
100
AcDbLine
 10
221.786745
 20
199.670105
 30
0.0
 11
229.286745
 21
207.170105
 31
0.0
  0
LINE
  5
343
330
327
100
AcDbEntity
  8
LC-001-100-D00-0
 62
     7
370
    25
100
AcDbLine
 10
221.786745
 20
208.650361
 30
0.0
 11
225.786745
 21
212.650361
 31
0.0
  0
ENDBLK
  5
329
330
327
100
AcDbEntity
  8
0
100
AcDbBlockEnd
  0
BLOCK
  5
346
330
345
100
AcDbEntity
  8
0
100
AcDbBlockBegin
  2
KLON23
 70
     0
 71
     0
 10
0.0
 20
0.0
 30
0.0
  3
KLON23
  1

  4
KLON23
  0
LINE
  5
348
330
345
100
AcDbEntity
  8
LC-001-100-D00-0
 62
     7
370
    50
100
AcDbLine
 10
89.122935
 20
201.710136
 30
0.0
 11
94.307636
 21
206.894838
 31
0.0
  0
LINE
  5
349
330
345
100
AcDbEntity
  8
LC-001-100-D00-0
 62
     7
370
    50
100
AcDbLine
 10
89.135919
 20
210.703377
 30
0.0
 11
96.187997
 21
217.755455
 31
0.0
  0
LINE
  5
34A
330
345
100
AcDbEntity
  8
LC-001-100-D00-0
 62
     7
370
    50
100
AcDbLine
 10
86.536745
 20
217.084459
 30
0.0
 11
87.122692
 21
217.670406
 31
0.0
  0
ENDBLK
  5
347
330
345
100
AcDbEntity
  8
0
100
AcDbBlockEnd
  0
BLOCK
  5
34D
330
34C
100
AcDbEntity
  8
0
100
AcDbBlockBegin
  2
KLON24
 70
     0
 71
     0
 10
0.0
 20
0.0
 30
0.0
  3
KLON24
  1

  4
KLON24
  0
LINE
  5
34F
330
34C
100
AcDbEntity
  8
LC-001-100-D00-0
 62
     7
370
    25
100
AcDbLine
 10
81.622692
 20
212.170406
 30
0.0
 11
85.536745
 21
216.084459
 31
0.0
  0
LINE
  5
350
330
34C
100
AcDbEntity
  8
LC-001-100-D00-0
 62
     7
370
    25
100
AcDbLine
 10
73.844861
 20
213.372831
 30
0.0
 11
78.142436
 21
217.670406
 31
0.0
  0
LINE
  5
351
330
34C
100
AcDbEntity
  8
LC-001-100-D00-0
 62
     7
370
    25
100
AcDbLine
 10
66.191914
 20
214.70014
 30
0.0
 11
69.162179
 21
217.670406
 31
0.0
  0
LINE
  5
352
330
34C
100
AcDbEntity
  8
LC-001-100-D00-0
 62
     7
370
    25
100
AcDbLine
 10
59.314343
 20
216.802825
 30
0.0
 11
60.181923
 21
217.670406
 31
0.0
  0
ENDBLK
  5
34E
330
34C
100
AcDbEntity
  8
0
100
AcDbBlockEnd
  0
BLOCK
  5
355
330
354
100
AcDbEntity
  8
0
100
AcDbBlockBegin
  2
KLON25
 70
     0
 71
     0
 10
0.0
 20
0.0
 30
0.0
  3
KLON25
  1

  4
KLON25
  0
LINE
  5
357
330
354
100
AcDbEntity
  8
LC-001-100-D00-0
 62
     7
370
    25
100
AcDbLine
 10
254.197879
 20
214.120727
 30
0.0
 11
257.747558
 21
217.670406
 31
0.0
  0
LINE
  5
358
330
354
100
AcDbEntity
  8
LC-001-100-D00-0
 62
     7
370
    25
100
AcDbLine
 10
243.412824
 20
212.315928
 30
0.0
 11
248.767302
 21
217.670406
 31
0.0
  0
LINE
  5
359
330
354
100
AcDbEntity
  8
LC-001-100-D00-0
 62
     7
370
    25
100
AcDbLine
 10
234.287046
 20
212.170406
 30
0.0
 11
239.787046
 21
217.670406
 31
0.0
  0
LINE
  5
35A
330
354
100
AcDbEntity
  8
LC-001-100-D00-0
 62
     7
370
    25
100
AcDbLine
 10
225.30679
 20
212.170406
 30
0.0
 11
230.80679
 21
217.670406
 31
0.0
  0
ENDBLK
  5
356
330
354
100
AcDbEntity
  8
0
100
AcDbBlockEnd
  0
BLOCK
  5
35D
330
35C
100
AcDbEntity
  8
0
100
AcDbBlockBegin
  2
KLON26
 70
     0
 71
     0
 10
0.0
 20
0.0
 30
0.0
  3
KLON26
  1

  4
KLON26
  0
LINE
  5
35F
330
35C
100
AcDbEntity
  8
LC-001-100-D00-0
 62
     7
370
    25
100
AcDbLine
 10
219.30679
 20
206.170406
 30
0.0
 11
222.549082
 21
209.412698
 31
0.0
  0
LINE
  5
360
330
35C
100
AcDbEntity
  8
LC-001-100-D00-0
 62
     7
370
    25
100
AcDbLine
 10
217.786745
 20
213.630617
 30
0.0
 11
219.826665
 21
215.670537
 31
0.0
  0
LINE
  5
361
330
35C
100
AcDbEntity
  8
LC-001-100-D00-0
 62
     7
370
    25
100
AcDbLine
 10
221.826533
 20
217.670406
 30
0.0
 11
222.786745
 21
218.630617
 31
0.0
  0
LINE
  5
362
330
35C
100
AcDbEntity
  8
LC-001-100-D00-0
 62
     7
370
    25
100
AcDbLine
 10
217.731787
 20
222.555915
 30
0.0
 11
221.061885
 21
225.886014
 31
0.0
  0
ENDBLK
  5
35E
330
35C
100
AcDbEntity
  8
0
100
AcDbBlockEnd
  0
BLOCK
  5
365
330
364
100
AcDbEntity
  8
0
100
AcDbBlockBegin
  2
KLON27
 70
     0
 71
     0
 10
0.0
 20
0.0
 30
0.0
  3
KLON27
  1

  4
KLON27
  0
LINE
  5
367
330
364
100
AcDbEntity
  8
LC-001-100-D00-0
 62
     7
370
    25
100
AcDbLine
 10
102.56346
 20
206.170406
 30
0.0
 11
106.772585
 21
210.37953
 31
0.0
  0
LINE
  5
368
330
364
100
AcDbEntity
  8
LC-001-100-D00-0
 62
     7
370
    25
100
AcDbLine
 10
101.786745
 20
214.373947
 30
0.0
 11
102.083204
 21
214.670406
 31
0.0
  0
LINE
  5
369
330
364
100
AcDbEntity
  8
LC-001-100-D00-0
 62
     7
370
    25
100
AcDbLine
 10
104.626422
 20
217.213624
 30
0.0
 11
105.786745
 21
218.373947
 31
0.0
  0
LINE
  5
36A
330
364
100
AcDbEntity
  8
LC-001-100-D00-0
 62
     7
370
    25
100
AcDbLine
 10
108.840718
 20
221.42792
 30
0.0
 11
109.029232
 21
221.616433
 31
0.0
  0
LINE
  5
36B
330
364
100
AcDbEntity
  8
LC-001-100-D00-0
 62
     7
370
    25
100
AcDbLine
 10
100.786745
 20
222.354203
 30
0.0
 11
104.602948
 21
226.170406
 31
0.0
  0
ENDBLK
  5
366
330
364
100
AcDbEntity
  8
0
100
AcDbBlockEnd
  0
BLOCK
  5
36E
330
36D
100
AcDbEntity
  8
0
100
AcDbBlockBegin
  2
KLON28
 70
     0
 71
     0
 10
0.0
 20
0.0
 30
0.0
  3
KLON28
  1

  4
KLON28
  0
LINE
  5
370
330
36D
100
AcDbEntity
  8
LC-001-100-D00-0
 62
     7
370
    50
100
AcDbLine
 10
108.739224
 20
185.405401
 30
0.0
 11
109.736745
 21
186.402923
 31
0.0
  0
LINE
  5
371
330
36D
100
AcDbEntity
  8
LC-001-100-D00-0
 62
     7
370
    50
100
AcDbLine
 10
102.536745
 20
188.183179
 30
0.0
 11
104.758968
 21
190.405401
 31
0.0
  0
ENDBLK
  5
36F
330
36D
100
AcDbEntity
  8
0
100
AcDbBlockEnd
  0
BLOCK
  5
385
330
37B
100
AcDbEntity
  8
0
100
AcDbBlockBegin
  2
*D51
 70
     1
 71
     0
 10
0.0
 20
0.0
 30
0.0
  3
*D51
  1

  0
LINE
  5
37C
330
37B
100
AcDbEntity
  8
LC-002-003-----0
 62
     2
370
    -2
100
AcDbLine
 10
47.286744
 20
214.592947
 30
0.0
 11
47.286744
 21
261.085401
 31
0.0
  0
LINE
  5
37D
330
37B
100
AcDbEntity
  8
LC-002-003-----0
 62
     2
370
    -2
100
AcDbLine
 10
276.286746
 20
214.592947
 30
0.0
 11
276.286746
 21
261.085401
 31
0.0
  0
LINE
  5
37E
330
37B
100
AcDbEntity
  8
LC-002-003-----0
 62
     2
370
    -2
100
AcDbLine
 10
75.286744
 20
257.485401
 30
0.0
 11
248.286746
 21
257.485401
 31
0.0
  0
SOLID
  5
37F
330
37B
100
AcDbEntity
  8
LC-002-003-----0
 62
     2
100
AcDbTrace
 10
75.286744
 20
262.152068
 30
0.0
 11
75.286744
 21
252.818734
 31
0.0
 12
47.286744
 22
257.485401
 32
0.0
 13
47.286744
 23
257.485401
 33
0.0
  0
SOLID
  5
380
330
37B
100
AcDbEntity
  8
LC-002-003-----0
 62
     2
100
AcDbTrace
 10
248.286746
 20
252.818734
 30
0.0
 11
248.286746
 21
262.152068
 31
0.0
 12
276.286746
 22
257.485401
 32
0.0
 13
276.286746
 23
257.485401
 33
0.0
  0
MTEXT
  5
381
330
37B
100
AcDbEntity
  8
LC-002-003-----0
 62
     2
100
AcDbMText
 10
161.757262
 20
288.285401
 30
0.0
 40
28.0
 41
0.0
 71
     5
 72
     1
  1
\A1;%%c230
  7
LCTX15-400-0-0pDIN-Schrift
 73
     1
 44
1.0
  0
POINT
  5
382
330
37B
100
AcDbEntity
  8
Defpoints
 62
     0
100
AcDbPoint
 10
47.286744
 20
214.592947
 30
0.0
  0
POINT
  5
383
330
37B
100
AcDbEntity
  8
Defpoints
 62
     0
100
AcDbPoint
 10
276.286746
 20
214.592947
 30
0.0
  0
POINT
  5
384
330
37B
100
AcDbEntity
  8
Defpoints
 62
     0
100
AcDbPoint
 10
276.286746
 20
257.485401
 30
0.0
  0
ENDBLK
  5
386
330
37B
100
AcDbEntity
  8
0
100
AcDbBlockEnd
  0
BLOCK
  5
392
330
388
100
AcDbEntity
  8
0
100
AcDbBlockBegin
  2
*D52
 70
     1
 71
     0
 10
0.0
 20
0.0
 30
0.0
  3
*D52
  1

  0
LINE
  5
389
330
388
100
AcDbEntity
  8
LC-002-003-----0
 62
     2
370
    -2
100
AcDbLine
 10
98.786744
 20
185.405402
 30
0.0
 11
98.786744
 21
-54.873363
 31
0.0
  0
LINE
  5
38A
330
388
100
AcDbEntity
  8
LC-002-003-----0
 62
     2
370
    -2
100
AcDbLine
 10
224.786746
 20
185.405402
 30
0.0
 11
224.786746
 21
-54.873363
 31
0.0
  0
LINE
  5
38B
330
388
100
AcDbEntity
  8
LC-002-003-----0
 62
     2
370
    -2
100
AcDbLine
 10
126.786744
 20
-51.273363
 30
0.0
 11
196.786746
 21
-51.273363
 31
0.0
  0
SOLID
  5
38C
330
388
100
AcDbEntity
  8
LC-002-003-----0
 62
     2
100
AcDbTrace
 10
126.786744
 20
-46.606697
 30
0.0
 11
126.786744
 21
-55.94003
 31
0.0
 12
98.786744
 22
-51.273363
 32
0.0
 13
98.786744
 23
-51.273363
 33
0.0
  0
SOLID
  5
38D
330
388
100
AcDbEntity
  8
LC-002-003-----0
 62
     2
100
AcDbTrace
 10
196.786746
 20
-55.94003
 30
0.0
 11
196.786746
 21
-46.606697
 31
0.0
 12
224.786746
 22
-51.273363
 32
0.0
 13
224.786746
 23
-51.273363
 33
0.0
  0
MTEXT
  5
38E
330
388
100
AcDbEntity
  8
LC-002-003-----0
 62
     2
100
AcDbMText
 10
156.912329
 20
-20.473363
 30
0.0
 40
28.0
 41
0.0
 71
     5
 72
     1
  1
%%c\A1;126
  7
LCTX15-400-0-0pDIN-Schrift
 73
     1
 44
1.0
  0
POINT
  5
38F
330
388
100
AcDbEntity
  8
Defpoints
 62
     0
100
AcDbPoint
 10
98.786744
 20
185.405402
 30
0.0
  0
POINT
  5
390
330
388
100
AcDbEntity
  8
Defpoints
 62
     0
100
AcDbPoint
 10
224.786746
 20
185.405402
 30
0.0
  0
POINT
  5
391
330
388
100
AcDbEntity
  8
Defpoints
 62
     0
100
AcDbPoint
 10
224.786746
 20
-51.273363
 30
0.0
  0
ENDBLK
  5
393
330
388
100
AcDbEntity
  8
0
100
AcDbBlockEnd
  0
BLOCK
  5
39F
330
395
100
AcDbEntity
  8
0
100
AcDbBlockBegin
  2
*D53
 70
     1
 71
     0
 10
0.0
 20
0.0
 30
0.0
  3
*D53
  1

  0
LINE
  5
396
330
395
100
AcDbEntity
  8
LC-002-003-----0
 62
     2
370
    -2
100
AcDbLine
 10
106.786746
 20
140.10167
 30
0.0
 11
106.786746
 21
-4.977363
 31
0.0
  0
LINE
  5
397
330
395
100
AcDbEntity
  8
LC-002-003-----0
 62
     2
370
    -2
100
AcDbLine
 10
216.786745
 20
140.788569
 30
0.0
 11
216.786745
 21
-4.977363
 31
0.0
  0
LINE
  5
398
330
395
100
AcDbEntity
  8
LC-002-003-----0
 62
     2
370
    -2
100
AcDbLine
 10
134.786746
 20
-1.377363
 30
0.0
 11
188.786745
 21
-1.377363
 31
0.0
  0
SOLID
  5
399
330
395
100
AcDbEntity
  8
LC-002-003-----0
 62
     2
100
AcDbTrace
 10
134.786746
 20
3.289303
 30
0.0
 11
134.786746
 21
-6.04403
 31
0.0
 12
106.786746
 22
-1.377363
 32
0.0
 13
106.786746
 23
-1.377363
 33
0.0
  0
SOLID
  5
39A
330
395
100
AcDbEntity
  8
LC-002-003-----0
 62
     2
100
AcDbTrace
 10
188.786745
 20
-6.04403
 30
0.0
 11
188.786745
 21
3.289303
 31
0.0
 12
216.786745
 22
-1.377363
 32
0.0
 13
216.786745
 23
-1.377363
 33
0.0
  0
MTEXT
  5
39B
330
395
100
AcDbEntity
  8
LC-002-003-----0
 62
     2
100
AcDbMText
 10
157.837328
 20
29.422637
 30
0.0
 40
28.0
 41
0.0
 71
     5
 72
     1
  1
%%c\A1;110
  7
LCTX15-400-0-0pDIN-Schrift
 73
     1
 44
1.0
  0
POINT
  5
39C
330
395
100
AcDbEntity
  8
Defpoints
 62
     0
100
AcDbPoint
 10
106.786746
 20
140.10167
 30
0.0
  0
POINT
  5
39D
330
395
100
AcDbEntity
  8
Defpoints
 62
     0
100
AcDbPoint
 10
216.786745
 20
140.788569
 30
0.0
  0
POINT
  5
39E
330
395
100
AcDbEntity
  8
Defpoints
 62
     0
100
AcDbPoint
 10
216.786745
 20
-1.377363
 30
0.0
  0
ENDBLK
  5
3A0
330
395
100
AcDbEntity
  8
0
100
AcDbBlockEnd
  0
BLOCK
  5
3AD
330
3A2
100
AcDbEntity
  8
0
100
AcDbBlockBegin
  2
*D54
 70
     1
 71
     0
 10
0.0
 20
0.0
 30
0.0
  3
*D54
  1

  0
LINE
  5
3A3
330
3A2
100
AcDbEntity
  8
LC-002-003-----0
 62
     2
370
    -2
100
AcDbLine
 10
136.786745
 20
70.905401
 30
0.0
 11
136.786745
 21
53.234637
 31
0.0
  0
LINE
  5
3A4
330
3A2
100
AcDbEntity
  8
LC-002-003-----0
 62
     2
370
    -2
100
AcDbLine
 10
186.786745
 20
74.867544
 30
0.0
 11
186.786745
 21
53.234637
 31
0.0
  0
LINE
  5
3A5
330
3A2
100
AcDbEntity
  8
LC-002-003-----0
 62
     2
370
    -2
100
AcDbLine
 10
108.786745
 20
56.834637
 30
0.0
 11
80.786745
 21
56.834637
 31
0.0
  0
LINE
  5
3A6
330
3A2
100
AcDbEntity
  8
LC-002-003-----0
 62
     2
370
    -2
100
AcDbLine
 10
214.786745
 20
56.834637
 30
0.0
 11
313.023948
 21
56.834637
 31
0.0
  0
SOLID
  5
3A7
330
3A2
100
AcDbEntity
  8
LC-002-003-----0
 62
     2
100
AcDbTrace
 10
108.786745
 20
52.16797
 30
0.0
 11
108.786745
 21
61.501303
 31
0.0
 12
136.786745
 22
56.834637
 32
0.0
 13
136.786745
 23
56.834637
 33
0.0
  0
SOLID
  5
3A8
330
3A2
100
AcDbEntity
  8
LC-002-003-----0
 62
     2
100
AcDbTrace
 10
214.786745
 20
61.501303
 30
0.0
 11
214.786745
 21
52.16797
 31
0.0
 12
186.786745
 22
56.834637
 32
0.0
 13
186.786745
 23
56.834637
 33
0.0
  0
MTEXT
  5
3A9
330
3A2
100
AcDbEntity
  8
LC-002-003-----0
 62
     2
100
AcDbMText
 10
266.987191
 20
87.634637
 30
0.0
 40
28.0
 41
0.0
 71
     5
 72
     1
  1
\A1;DN50
  7
LCTX15-400-0-0pDIN-Schrift
 73
     1
 44
1.0
  0
POINT
  5
3AA
330
3A2
100
AcDbEntity
  8
Defpoints
 62
     0
100
AcDbPoint
 10
136.786745
 20
70.905401
 30
0.0
  0
POINT
  5
3AB
330
3A2
100
AcDbEntity
  8
Defpoints
 62
     0
100
AcDbPoint
 10
186.786745
 20
74.867544
 30
0.0
  0
POINT
  5
3AC
330
3A2
100
AcDbEntity
  8
Defpoints
 62
     0
100
AcDbPoint
 10
186.786745
 20
56.834637
 30
0.0
  0
ENDBLK
  5
3AE
330
3A2
100
AcDbEntity
  8
0
100
AcDbBlockEnd
  0
BLOCK
  5
3BA
330
3B0
100
AcDbEntity
  8
0
100
AcDbBlockBegin
  2
*D55
 70
     1
 71
     0
 10
0.0
 20
0.0
 30
0.0
  3
*D55
  1

  0
LINE
  5
3B1
330
3B0
100
AcDbEntity
  8
LC-002-003-----0
 62
     2
370
    -2
100
AcDbLine
 10
47.286744
 20
214.592947
 30
0.0
 11
32.108464
 21
214.592947
 31
0.0
  0
LINE
  5
3B2
330
3B0
100
AcDbEntity
  8
LC-002-003-----0
 62
     2
370
    -2
100
AcDbLine
 10
113.026603
 20
125.405399
 30
0.0
 11
32.108464
 21
125.405399
 31
0.0
  0
LINE
  5
3B3
330
3B0
100
AcDbEntity
  8
LC-002-003-----0
 62
     2
370
    -2
100
AcDbLine
 10
35.708464
 20
186.592947
 30
0.0
 11
35.708464
 21
153.405399
 31
0.0
  0
SOLID
  5
3B4
330
3B0
100
AcDbEntity
  8
LC-002-003-----0
 62
     2
100
AcDbTrace
 10
40.375131
 20
186.592947
 30
0.0
 11
31.041797
 21
186.592947
 31
0.0
 12
35.708464
 22
214.592947
 32
0.0
 13
35.708464
 23
214.592947
 33
0.0
  0
SOLID
  5
3B5
330
3B0
100
AcDbEntity
  8
LC-002-003-----0
 62
     2
100
AcDbTrace
 10
31.041797
 20
153.405399
 30
0.0
 11
40.375131
 21
153.405399
 31
0.0
 12
35.708464
 22
125.405399
 32
0.0
 13
35.708464
 23
125.405399
 33
0.0
  0
MTEXT
  5
3B6
330
3B0
100
AcDbEntity
  8
LC-002-003-----0
 62
     2
100
AcDbMText
 10
4.908464
 20
170.761401
 30
0.0
 40
28.0
 41
0.0
 71
     5
 72
     1
  1
\A1;90
  7
LCTX15-400-0-0pDIN-Schrift
 11
6.123031769111886E-17
 21
1.0
 31
0.0
 73
     1
 44
1.0
  0
POINT
  5
3B7
330
3B0
100
AcDbEntity
  8
Defpoints
 62
     0
100
AcDbPoint
 10
47.286744
 20
214.592947
 30
0.0
  0
POINT
  5
3B8
330
3B0
100
AcDbEntity
  8
Defpoints
 62
     0
100
AcDbPoint
 10
113.026603
 20
125.405399
 30
0.0
  0
POINT
  5
3B9
330
3B0
100
AcDbEntity
  8
Defpoints
 62
     0
100
AcDbPoint
 10
35.708464
 20
125.405399
 30
0.0
  0
ENDBLK
  5
3BB
330
3B0
100
AcDbEntity
  8
0
100
AcDbBlockEnd
  0
BLOCK
  5
3C9
330
3BD
100
AcDbEntity
  8
0
100
AcDbBlockBegin
  2
*D56
 70
     1
 71
     0
 10
0.0
 20
0.0
 30
0.0
  3
*D56
  1

  0
LINE
  5
3BE
330
3BD
100
AcDbEntity
  8
LC-002-003-----0
 62
     2
370
    -2
100
AcDbLine
 10
113.026603
 20
125.405399
 30
0.0
 11
64.310712
 21
125.405399
 31
0.0
  0
LINE
  5
3BF
330
3BD
100
AcDbEntity
  8
LC-002-003-----0
 62
     2
370
    -2
100
AcDbLine
 10
139.786745
 20
67.405401
 30
0.0
 11
64.310712
 21
67.405401
 31
0.0
  0
LINE
  5
3C0
330
3BD
100
AcDbEntity
  8
LC-002-003-----0
 62
     2
370
    -2
100
AcDbLine
 10
67.910712
 20
153.405399
 30
0.0
 11
67.910712
 21
181.405399
 31
0.0
  0
LINE
  5
3C1
330
3BD
100
AcDbEntity
  8
LC-002-003-----0
 62
     2
370
    -2
100
AcDbLine
 10
67.910712
 20
39.405401
 30
0.0
 11
67.910712
 21
11.405401
 31
0.0
  0
LINE
  5
3C2
330
3BD
100
AcDbEntity
  8
LC-002-003-----0
 62
     2
370
    -2
100
AcDbLine
 10
67.910712
 20
125.405399
 30
0.0
 11
67.910712
 21
67.405401
 31
0.0
  0
SOLID
  5
3C3
330
3BD
100
AcDbEntity
  8
LC-002-003-----0
 62
     2
100
AcDbTrace
 10
63.244045
 20
153.405399
 30
0.0
 11
72.577378
 21
153.405399
 31
0.0
 12
67.910712
 22
125.405399
 32
0.0
 13
67.910712
 23
125.405399
 33
0.0
  0
SOLID
  5
3C4
330
3BD
100
AcDbEntity
  8
LC-002-003-----0
 62
     2
100
AcDbTrace
 10
72.577378
 20
39.405401
 30
0.0
 11
63.244045
 21
39.405401
 31
0.0
 12
67.910712
 22
67.405401
 32
0.0
 13
67.910712
 23
67.405401
 33
0.0
  0
MTEXT
  5
3C5
330
3BD
100
AcDbEntity
  8
LC-002-003-----0
 62
     2
100
AcDbMText
 10
37.110712
 20
98.293401
 30
0.0
 40
28.0
 41
0.0
 71
     5
 72
     1
  1
\A1;58
  7
LCTX15-400-0-0pDIN-Schrift
 11
6.123031769111886E-17
 21
1.0
 31
0.0
 73
     1
 44
1.0
  0
POINT
  5
3C6
330
3BD
100
AcDbEntity
  8
Defpoints
 62
     0
100
AcDbPoint
 10
113.026603
 20
125.405399
 30
0.0
  0
POINT
  5
3C7
330
3BD
100
AcDbEntity
  8
Defpoints
 62
     0
100
AcDbPoint
 10
139.786745
 20
67.405401
 30
0.0
  0
POINT
  5
3C8
330
3BD
100
AcDbEntity
  8
Defpoints
 62
     0
100
AcDbPoint
 10
67.910712
 20
67.405401
 30
0.0
  0
ENDBLK
  5
3CA
330
3BD
100
AcDbEntity
  8
0
100
AcDbBlockEnd
  0
ENDSEC
  0
SECTION
  2
ENTITIES
  0
ARC
  5
31
330
1F
100
AcDbEntity
  8
LC-001-100-D00-0
 62
     7
370
    50
100
AcDbCircle
 10
133.786745
 20
200.405401
 30
0.0
 40
2.0
100
AcDbArc
 50
90.0
 51
270.0
  0
LINE
  5
32
330
1F
100
AcDbEntity
  8
LC-001-100-D00-0
 62
     7
370
    50
100
AcDbLine
 10
133.786744
 20
198.405398
 30
0.0
 11
161.77518
 21
198.405398
 31
0.0
  0
LINE
  5
33
330
1F
100
AcDbEntity
  8
LC-001-100-D00-0
 62
     7
370
    50
100
AcDbLine
 10
161.764953
 20
202.405406
 30
0.0
 11
133.786744
 21
202.405406
 31
0.0
  0
ARC
  5
34
330
1F
100
AcDbEntity
  8
LC-001-100-D00-0
 62
     7
370
    50
100
AcDbCircle
 10
189.786745
 20
200.405401
 30
0.0
 40
2.0
100
AcDbArc
 50
270.0
 51
90.0
  0
LINE
  5
35
330
1F
100
AcDbEntity
  8
LC-001-100-D00-0
 62
     7
370
    50
100
AcDbLine
 10
161.808537
 20
198.405398
 30
0.0
 11
189.786746
 21
198.405398
 31
0.0
  0
LINE
  5
36
330
1F
100
AcDbEntity
  8
LC-001-100-D00-0
 62
     7
370
    50
100
AcDbLine
 10
189.786746
 20
202.405406
 30
0.0
 11
161.797787
 21
202.405406
 31
0.0
  0
LINE
  5
37
330
1F
100
AcDbEntity
  8
LC-001-100-D00-0
 62
     7
370
    50
100
AcDbLine
 10
89.554238
 20
204.40927
 30
0.0
 11
89.786748
 21
204.27884
 31
0.0
  0
LINE
  5
38
330
1F
100
AcDbEntity
  8
LC-001-100-D00-0
 62
     7
370
    50
100
AcDbLine
 10
89.554238
 20
210.409267
 30
0.0
 11
89.786748
 21
210.278837
 31
0.0
  0
INSERT
  5
44
330
1F
100
AcDbEntity
  8
LC-001-100-D00-0
 62
     7
370
    50
100
AcDbBlockReference
  2
POLY1
 10
0.0
 20
0.0
 30
0.0
  0
LINE
  5
45
330
1F
100
AcDbEntity
  8
LC-001-100-D00-0
 62
     7
370
    50
100
AcDbLine
 10
94.099852
 20
204.0994
 30
0.0
 11
93.786742
 21
204.276277
 31
0.0
  0
INSERT
  5
51
330
1F
100
AcDbEntity
  8
LC-001-100-D00-0
 62
     7
370
    50
100
AcDbBlockReference
  2
POLY2
 10
0.0
 20
0.0
 30
0.0
  0
LINE
  5
52
330
1F
100
AcDbEntity
  8
LC-001-100-D00-0
 62
     7
370
    50
100
AcDbLine
 10
94.099852
 20
210.099397
 30
0.0
 11
93.786742
 21
210.276274
 31
0.0
  0
LINE
  5
53
330
1F
100
AcDbEntity
  8
LC-001-100-D00-0
 62
     7
370
    50
100
AcDbLine
 10
89.554238
 20
207.409261
 30
0.0
 11
89.786748
 21
207.278846
 31
0.0
  0
LINE
  5
54
330
1F
100
AcDbEntity
  8
LC-001-100-D00-0
 62
     7
370
    50
100
AcDbLine
 10
89.554238
 20
201.409264
 30
0.0
 11
89.786748
 21
201.278834
 31
0.0
  0
LINE
  5
55
330
1F
100
AcDbEntity
  8
LC-001-100-D00-0
 62
     7
370
    50
100
AcDbLine
 10
94.099852
 20
201.099394
 30
0.0
 11
93.786742
 21
201.276286
 31
0.0
  0
LINE
  5
56
330
1F
100
AcDbEntity
  8
LC-001-100-D00-0
 62
     7
370
    50
100
AcDbLine
 10
94.099852
 20
207.099391
 30
0.0
 11
93.786742
 21
207.276283
 31
0.0
  0
LINE
  5
57
330
1F
100
AcDbEntity
  8
LC-001-100-D00-0
 62
     7
370
    50
100
AcDbLine
 10
102.536744
 20
190.405404
 30
0.0
 11
102.536744
 21
185.405402
 31
0.0
  0
LINE
  5
58
330
1F
100
AcDbEntity
  8
LC-001-100-D00-0
 62
     7
370
    50
100
AcDbLine
 10
221.036746
 20
185.405402
 30
0.0
 11
221.036746
 21
190.405404
 31
0.0
  0
LINE
  5
59
330
1F
100
AcDbEntity
  8
LC-001-100-D00-0
 62
     7
370
    50
100
AcDbLine
 10
213.836743
 20
185.405402
 30
0.0
 11
221.036746
 21
185.405402
 31
0.0
  0
LINE
  5
5A
330
1F
100
AcDbEntity
  8
LC-001-100-D00-0
 62
     7
370
    50
100
AcDbLine
 10
213.836743
 20
190.405404
 30
0.0
 11
213.836743
 21
185.405402
 31
0.0
  0
LINE
  5
5B
330
1F
100
AcDbEntity
  8
LC-001-100-D00-0
 62
     7
370
    50
100
AcDbLine
 10
221.036746
 20
190.405404
 30
0.0
 11
213.836743
 21
190.405404
 31
0.0
  0
LINE
  5
5C
330
1F
100
AcDbEntity
  8
LC-001-100-D00-0
 62
     7
370
    50
100
AcDbLine
 10
109.736747
 20
185.405402
 30
0.0
 11
109.736747
 21
190.405404
 31
0.0
  0
LINE
  5
5D
330
1F
100
AcDbEntity
  8
LC-001-100-D00-0
 62
     7
370
    50
100
AcDbLine
 10
102.536744
 20
185.405402
 30
0.0
 11
109.736747
 21
185.405402
 31
0.0
  0
LINE
  5
5E
330
1F
100
AcDbEntity
  8
LC-001-100-D00-0
 62
     7
370
    50
100
AcDbLine
 10
109.736747
 20
190.405404
 30
0.0
 11
102.536744
 21
190.405404
 31
0.0
  0
LINE
  5
5F
330
1F
100
AcDbEntity
  8
LC-001-100-D00-0
 62
     7
370
    50
100
AcDbLine
 10
213.821734
 20
185.405402
 30
0.0
 11
213.821734
 21
190.405404
 31
0.0
  0
LINE
  5
60
330
1F
100
AcDbEntity
  8
LC-001-100-D00-0
 62
     7
370
    50
100
AcDbLine
 10
213.821734
 20
190.405404
 30
0.0
 11
213.836743
 21
190.405404
 31
0.0
  0
LINE
  5
61
330
1F
100
AcDbEntity
  8
LC-001-100-D00-0
 62
     7
370
    50
100
AcDbLine
 10
109.751756
 20
185.405402
 30
0.0
 11
109.751756
 21
190.405404
 31
0.0
  0
LINE
  5
62
330
1F
100
AcDbEntity
  8
LC-001-100-D00-0
 62
     7
370
    50
100
AcDbLine
 10
109.736747
 20
190.405404
 30
0.0
 11
109.751756
 21
190.405404
 31
0.0
  0
LINE
  5
63
330
1F
100
AcDbEntity
  8
LC-001-100-D00-0
 62
     7
370
    50
100
AcDbLine
 10
212.412997
 20
185.405402
 30
0.0
 11
212.412997
 21
190.405404
 31
0.0
  0
LINE
  5
64
330
1F
100
AcDbEntity
  8
LC-001-100-D00-0
 62
     7
370
    50
100
AcDbLine
 10
212.412997
 20
190.405404
 30
0.0
 11
213.821734
 21
190.405404
 31
0.0
  0
LINE
  5
65
330
1F
100
AcDbEntity
  8
LC-001-100-D00-0
 62
     7
370
    50
100
AcDbLine
 10
111.160493
 20
185.405402
 30
0.0
 11
111.160493
 21
190.405404
 31
0.0
  0
LINE
  5
66
330
1F
100
AcDbEntity
  8
LC-001-100-D00-0
 62
     7
370
    50
100
AcDbLine
 10
109.751756
 20
190.405404
 30
0.0
 11
111.160493
 21
190.405404
 31
0.0
  0
INSERT
  5
84
330
1F
100
AcDbEntity
  8
LC-001-100-D00-0
 62
     7
370
    50
100
AcDbBlockReference
  2
POLY3
 10
0.0
 20
0.0
 30
0.0
  0
LINE
  5
85
330
1F
100
AcDbEntity
  8
LC-001-100-D00-0
 62
     7
370
    50
100
AcDbLine
 10
207.475367
 20
185.405402
 30
0.0
 11
207.475367
 21
190.405404
 31
0.0
  0
LINE
  5
86
330
1F
100
AcDbEntity
  8
LC-001-100-D00-0
 62
     7
370
    50
100
AcDbLine
 10
207.475367
 20
190.405404
 30
0.0
 11
212.412997
 21
190.405404
 31
0.0
  0
LINE
  5
87
330
1F
100
AcDbEntity
  8
LC-001-100-D00-0
 62
     7
370
    50
100
AcDbLine
 10
206.225368
 20
185.405402
 30
0.0
 11
206.225368
 21
190.405404
 31
0.0
  0
LINE
  5
88
330
1F
100
AcDbEntity
  8
LC-001-100-D00-0
 62
     7
370
    50
100
AcDbLine
 10
206.225368
 20
190.405404
 30
0.0
 11
207.475367
 21
190.405404
 31
0.0
  0
LINE
  5
89
330
1F
100
AcDbEntity
  8
LC-001-100-D00-0
 62
     7
370
    50
100
AcDbLine
 10
117.348122
 20
185.405402
 30
0.0
 11
117.348122
 21
190.405404
 31
0.0
  0
LINE
  5
8A
330
1F
100
AcDbEntity
  8
LC-001-100-D00-0
 62
     7
370
    50
100
AcDbLine
 10
116.098124
 20
185.405402
 30
0.0
 11
116.098124
 21
190.405404
 31
0.0
  0
LINE
  5
8B
330
1F
100
AcDbEntity
  8
LC-001-100-D00-0
 62
     7
370
    50
100
AcDbLine
 10
116.098124
 20
190.405404
 30
0.0
 11
117.348122
 21
190.405404
 31
0.0
  0
LINE
  5
8C
330
1F
100
AcDbEntity
  8
LC-001-100-D00-0
 62
     7
370
    50
100
AcDbLine
 10
111.160493
 20
190.405404
 30
0.0
 11
116.098124
 21
190.405404
 31
0.0
  0
LINE
  5
8D
330
1F
100
AcDbEntity
  8
LC-001-100-D00-0
 62
     7
370
    50
100
AcDbLine
 10
191.737513
 20
185.405402
 30
0.0
 11
191.737513
 21
190.405404
 31
0.0
  0
LINE
  5
8E
330
1F
100
AcDbEntity
  8
LC-001-100-D00-0
 62
     7
370
    50
100
AcDbLine
 10
191.737513
 20
190.405404
 30
0.0
 11
206.225368
 21
190.405404
 31
0.0
  0
LINE
  5
8F
330
1F
100
AcDbEntity
  8
LC-001-100-D00-0
 62
     7
370
    50
100
AcDbLine
 10
131.835978
 20
185.405402
 30
0.0
 11
131.835978
 21
190.405404
 31
0.0
  0
LINE
  5
90
330
1F
100
AcDbEntity
  8
LC-001-100-D00-0
 62
     7
370
    50
100
AcDbLine
 10
117.348122
 20
190.405404
 30
0.0
 11
131.835978
 21
190.405404
 31
0.0
  0
LINE
  5
91
330
1F
100
AcDbEntity
  8
LC-001-100-D00-0
 62
     7
370
    50
100
AcDbLine
 10
166.786745
 20
188.4054
 30
0.0
 11
156.786745
 21
188.4054
 31
0.0
  0
LINE
  5
92
330
1F
100
AcDbEntity
  8
LC-001-100-D00-0
 62
     7
370
    50
100
AcDbLine
 10
156.786745
 20
198.405398
 30
0.0
 11
156.786745
 21
188.4054
 31
0.0
  0
LINE
  5
93
330
1F
100
AcDbEntity
  8
LC-001-100-D00-0
 62
     7
370
    50
100
AcDbLine
 10
166.786745
 20
198.405398
 30
0.0
 11
166.786745
 21
188.4054
 31
0.0
  0
LINE
  5
94
330
1F
100
AcDbEntity
  8
LC-001-100-D00-0
 62
     7
370
    50
100
AcDbLine
 10
188.886772
 20
185.405402
 30
0.0
 11
188.886772
 21
190.405404
 31
0.0
  0
LINE
  5
95
330
1F
100
AcDbEntity
  8
LC-001-100-D00-0
 62
     7
370
    50
100
AcDbLine
 10
188.886772
 20
190.405404
 30
0.0
 11
191.737513
 21
190.405404
 31
0.0
  0
LINE
  5
96
330
1F
100
AcDbEntity
  8
LC-001-100-D00-0
 62
     7
370
    50
100
AcDbLine
 10
186.721708
 20
185.405402
 30
0.0
 11
186.721708
 21
190.405404
 31
0.0
  0
LINE
  5
97
330
1F
100
AcDbEntity
  8
LC-001-100-D00-0
 62
     7
370
    50
100
AcDbLine
 10
186.721708
 20
190.405404
 30
0.0
 11
188.886772
 21
190.405404
 31
0.0
  0
LINE
  5
98
330
1F
100
AcDbEntity
  8
LC-001-100-D00-0
 62
     7
370
    50
100
AcDbLine
 10
134.686719
 20
185.405402
 30
0.0
 11
134.686719
 21
190.405404
 31
0.0
  0
LINE
  5
99
330
1F
100
AcDbEntity
  8
LC-001-100-D00-0
 62
     7
370
    50
100
AcDbLine
 10
131.835978
 20
190.405404
 30
0.0
 11
134.686719
 21
190.405404
 31
0.0
  0
LINE
  5
9A
330
1F
100
AcDbEntity
  8
LC-001-100-D00-0
 62
     7
370
    50
100
AcDbLine
 10
136.851783
 20
185.405402
 30
0.0
 11
136.851783
 21
190.405404
 31
0.0
  0
LINE
  5
9B
330
1F
100
AcDbEntity
  8
LC-001-100-D00-0
 62
     7
370
    50
100
AcDbLine
 10
134.686719
 20
190.405404
 30
0.0
 11
136.851783
 21
190.405404
 31
0.0
  0
LINE
  5
9C
330
1F
100
AcDbEntity
  8
LC-001-100-D00-0
 62
     7
370
    50
100
AcDbLine
 10
170.225102
 20
190.405404
 30
0.0
 11
186.721708
 21
190.405404
 31
0.0
  0
LINE
  5
9D
330
1F
100
AcDbEntity
  8
LC-001-100-D00-0
 62
     7
370
    50
100
AcDbLine
 10
136.851783
 20
190.405404
 30
0.0
 11
153.348389
 21
190.405404
 31
0.0
  0
LINE
  5
9E
330
1F
100
AcDbEntity
  8
LC-001-100-D00-0
 62
     7
370
    50
100
AcDbLine
 10
170.225102
 20
188.4054
 30
0.0
 11
166.786745
 21
188.4054
 31
0.0
  0
LINE
  5
9F
330
1F
100
AcDbEntity
  8
LC-001-100-D00-0
 62
     7
370
    50
100
AcDbLine
 10
166.786745
 20
190.405404
 30
0.0
 11
170.225102
 21
190.405404
 31
0.0
  0
LINE
  5
A0
330
1F
100
AcDbEntity
  8
LC-001-100-D00-0
 62
     7
370
    50
100
AcDbLine
 10
156.786745
 20
188.4054
 30
0.0
 11
153.348389
 21
188.4054
 31
0.0
  0
LINE
  5
A1
330
1F
100
AcDbEntity
  8
LC-001-100-D00-0
 62
     7
370
    50
100
AcDbLine
 10
153.348389
 20
190.405404
 30
0.0
 11
156.786745
 21
190.405404
 31
0.0
  0
LINE
  5
A2
330
1F
100
AcDbEntity
  8
LC-001-100-D00-0
 62
     7
370
    50
100
AcDbLine
 10
100.786745
 20
217.670409
 30
0.0
 11
100.786745
 21
223.205028
 31
0.0
  0
LINE
  5
A3
330
1F
100
AcDbEntity
  8
LC-001-100-D00-0
 62
     7
370
    50
100
AcDbLine
 10
222.786746
 20
223.205028
 30
0.0
 11
222.786746
 21
217.670409
 31
0.0
  0
ARC
  5
A4
330
1F
100
AcDbEntity
  8
LC-001-100-D00-0
 62
     7
370
    50
100
AcDbCircle
 10
103.786545
 20
223.170406
 30
0.0
 40
3.000000000000085
100
AcDbArc
 50
89.996183
 51
179.338624
  0
ARC
  5
A5
330
1F
100
AcDbEntity
  8
LC-001-100-D00-0
 62
     7
370
    50
100
AcDbCircle
 10
219.786945
 20
223.170406
 30
0.0
 40
3.000000000000022
100
AcDbArc
 50
0.661376
 51
90.003817
  0
LINE
  5
A6
330
1F
100
AcDbEntity
  8
LC-001-100-D00-0
 62
     7
370
    50
100
AcDbLine
 10
100.786745
 20
207.17041
 30
0.0
 11
100.786745
 21
209.175034
 31
0.0
  0
LINE
  5
A7
330
1F
100
AcDbEntity
  8
LC-001-100-D00-0
 62
     7
370
    50
100
AcDbLine
 10
222.786746
 20
209.175034
 30
0.0
 11
222.786746
 21
207.17041
 31
0.0
  0
LINE
  5
A8
330
1F
100
AcDbEntity
  8
LC-001-100-D00-0
 62
     7
370
    50
100
AcDbLine
 10
100.786745
 20
209.175034
 30
0.0
 11
101.786747
 21
210.175036
 31
0.0
  0
LINE
  5
A9
330
1F
100
AcDbEntity
  8
LC-001-100-D00-0
 62
     7
370
    50
100
AcDbLine
 10
221.786744
 20
210.175036
 30
0.0
 11
222.786746
 21
209.175034
 31
0.0
  0
LINE
  5
AA
330
1F
100
AcDbEntity
  8
LC-001-100-D00-0
 62
     7
370
    50
100
AcDbLine
 10
222.786746
 20
207.17041
 30
0.0
 11
221.786744
 21
206.170408
 31
0.0
  0
LINE
  5
AB
330
1F
100
AcDbEntity
  8
LC-001-100-D00-0
 62
     7
370
    50
100
AcDbLine
 10
101.786747
 20
206.170408
 30
0.0
 11
100.786745
 21
207.17041
 31
0.0
  0
LINE
  5
AC
330
1F
100
AcDbEntity
  8
LC-001-100-D00-0
 62
     7
370
    50
100
AcDbLine
 10
101.786747
 20
210.175036
 30
0.0
 11
101.786747
 21
214.670403
 31
0.0
  0
LINE
  5
AD
330
1F
100
AcDbEntity
  8
LC-001-100-D00-0
 62
     7
370
    50
100
AcDbLine
 10
221.786744
 20
214.670403
 30
0.0
 11
221.786744
 21
210.175036
 31
0.0
  0
LINE
  5
AE
330
1F
100
AcDbEntity
  8
LC-001-100-D00-0
 62
     7
370
    50
100
AcDbLine
 10
220.786746
 20
213.670401
 30
0.0
 11
221.286747
 21
214.670403
 31
0.0
  0
LINE
  5
AF
330
1F
100
AcDbEntity
  8
LC-001-100-D00-0
 62
     7
370
    50
100
AcDbLine
 10
102.286744
 20
214.670403
 30
0.0
 11
102.786745
 21
213.670401
 31
0.0
  0
LINE
  5
B0
330
1F
100
AcDbEntity
  8
LC-001-100-D00-0
 62
     7
370
    50
100
AcDbLine
 10
102.286744
 20
214.670403
 30
0.0
 11
102.389774
 21
214.670403
 31
0.0
  0
LINE
  5
B1
330
1F
100
AcDbEntity
  8
LC-001-100-D00-0
 62
     7
370
    50
100
AcDbLine
 10
221.183716
 20
214.670403
 30
0.0
 11
221.286747
 21
214.670403
 31
0.0
  0
LINE
  5
B2
330
1F
100
AcDbEntity
  8
LC-001-100-D00-0
 62
     7
370
    50
100
AcDbLine
 10
103.286746
 20
213.670401
 30
0.0
 11
103.286746
 21
215.670539
 31
0.0
  0
LINE
  5
B3
330
1F
100
AcDbEntity
  8
LC-001-100-D00-0
 62
     7
370
    50
100
AcDbLine
 10
220.286745
 20
215.670539
 30
0.0
 11
220.286745
 21
213.670401
 31
0.0
  0
ARC
  5
B4
330
1F
100
AcDbEntity
  8
LC-001-100-D00-0
 62
     7
370
    50
100
AcDbCircle
 10
103.786745
 20
216.670537
 30
0.0
 40
1.0
100
AcDbArc
 50
270.0
 51
89.070278
  0
ARC
  5
B5
330
1F
100
AcDbEntity
  8
LC-001-100-D00-0
 62
     7
370
    50
100
AcDbCircle
 10
219.786745
 20
216.670537
 30
0.0
 40
0.9999999999999748
100
AcDbArc
 50
90.929722
 51
270.0
  0
ARC
  5
B6
330
1F
100
AcDbEntity
  8
LC-001-100-D00-0
 62
     7
370
    50
100
AcDbCircle
 10
104.289836
 20
210.67272
 30
0.0
 40
2.500000000000107
100
AcDbArc
 50
306.781403
 51
53.218597
  0
LINE
  5
B7
330
1F
100
AcDbEntity
  8
LC-001-100-D00-0
 62
     7
370
    50
100
AcDbLine
 10
105.786744
 20
212.675033
 30
0.0
 11
217.786747
 21
212.675033
 31
0.0
  0
ARC
  5
B8
330
1F
100
AcDbEntity
  8
LC-001-100-D00-0
 62
     7
370
    50
100
AcDbCircle
 10
219.283654
 20
210.67272
 30
0.0
 40
2.499999999999981
100
AcDbArc
 50
126.781403
 51
233.218597
  0
LINE
  5
B9
330
1F
100
AcDbEntity
  8
LC-001-100-D00-0
 62
     7
370
    50
100
AcDbLine
 10
105.786744
 20
208.670406
 30
0.0
 11
217.786747
 21
208.670406
 31
0.0
  0
LINE
  5
BA
330
1F
100
AcDbEntity
  8
LC-001-100-D00-0
 62
     7
370
    50
100
AcDbLine
 10
105.786744
 20
208.670406
 30
0.0
 11
105.786744
 21
206.170408
 31
0.0
  0
LINE
  5
BB
330
1F
100
AcDbEntity
  8
LC-001-100-D00-0
 62
     7
370
    50
100
AcDbLine
 10
217.786747
 20
206.170408
 30
0.0
 11
217.786747
 21
208.670406
 31
0.0
  0
LINE
  5
BC
330
1F
100
AcDbEntity
  8
LC-001-100-D00-0
 62
     7
370
    50
100
AcDbLine
 10
105.786744
 20
206.170408
 30
0.0
 11
217.786747
 21
206.170408
 31
0.0
  0
LINE
  5
BD
330
1F
100
AcDbEntity
  8
LC-001-100-D00-0
 62
     7
370
    50
100
AcDbLine
 10
105.786744
 20
222.35973
 30
0.0
 11
105.786744
 21
212.675033
 31
0.0
  0
LINE
  5
BE
330
1F
100
AcDbEntity
  8
LC-001-100-D00-0
 62
     7
370
    50
100
AcDbLine
 10
105.786744
 20
222.35973
 30
0.0
 11
107.226766
 21
222.35973
 31
0.0
  0
LINE
  5
BF
330
1F
100
AcDbEntity
  8
LC-001-100-D00-0
 62
     7
370
    50
100
AcDbLine
 10
216.346725
 20
222.35973
 30
0.0
 11
217.786747
 21
222.35973
 31
0.0
  0
LINE
  5
C0
330
1F
100
AcDbEntity
  8
LC-001-100-D00-0
 62
     7
370
    50
100
AcDbLine
 10
217.786747
 20
212.675033
 30
0.0
 11
217.786747
 21
222.35973
 31
0.0
  0
ARC
  5
C1
330
1F
100
AcDbEntity
  8
LC-001-100-D00-0
 62
     7
370
    50
100
AcDbCircle
 10
106.285591
 20
222.325776
 30
0.0
 40
0.4999999999999908
100
AcDbArc
 50
59.847133
 51
176.1055
  0
ARC
  5
C2
330
1F
100
AcDbEntity
  8
LC-001-100-D00-0
 62
     7
370
    50
100
AcDbCircle
 10
217.2879
 20
222.325776
 30
0.0
 40
0.5000000000000342
100
AcDbArc
 50
3.8945
 51
120.152867
  0
ARC
  5
C3
330
1F
100
AcDbEntity
  8
LC-001-100-D00-0
 62
     7
370
    50
100
AcDbCircle
 10
106.111319
 20
225.670406
 30
0.0
 40
0.5000000000000072
100
AcDbArc
 50
29.999972
 51
90.0
  0
ARC
  5
C4
330
1F
100
AcDbEntity
  8
LC-001-100-D00-0
 62
     7
370
    50
100
AcDbCircle
 10
217.462171
 20
225.670406
 30
0.0
 40
0.5
100
AcDbArc
 50
90.0
 51
150.000028
  0
LINE
  5
C5
330
1F
100
AcDbEntity
  8
LC-001-100-D00-0
 62
     7
370
    50
100
AcDbLine
 10
106.111321
 20
226.170404
 30
0.0
 11
217.46217
 21
226.170404
 31
0.0
  0
LINE
  5
C6
330
1F
100
AcDbEntity
  8
LC-001-100-D00-0
 62
     7
370
    50
100
AcDbLine
 10
217.036746
 20
222.758113
 30
0.0
 11
214.286744
 21
221.170409
 31
0.0
  0
LINE
  5
C7
330
1F
100
AcDbEntity
  8
LC-001-100-D00-0
 62
     7
370
    50
100
AcDbLine
 10
109.286747
 20
221.170409
 30
0.0
 11
106.536745
 21
222.758113
 31
0.0
  0
LINE
  5
C8
330
1F
100
AcDbEntity
  8
LC-001-100-D00-0
 62
     7
370
    50
100
AcDbLine
 10
109.286747
 20
221.170409
 30
0.0
 11
214.286744
 21
221.170409
 31
0.0
  0
LINE
  5
C9
330
1F
100
AcDbEntity
  8
LC-001-100-D00-0
 62
     7
370
    50
100
AcDbLine
 10
214.286744
 20
221.170409
 30
0.0
 11
217.029157
 21
225.920407
 31
0.0
  0
LINE
  5
CA
330
1F
100
AcDbEntity
  8
LC-001-100-D00-0
 62
     7
370
    50
100
AcDbLine
 10
106.544334
 20
225.920407
 30
0.0
 11
109.286747
 21
221.170409
 31
0.0
  0
LINE
  5
CB
330
1F
100
AcDbEntity
  8
LC-001-100-D00-0
 62
     7
370
    50
100
AcDbLine
 10
217.46217
 20
226.170404
 30
0.0
 11
219.786744
 21
226.170404
 31
0.0
  0
LINE
  5
CC
330
1F
100
AcDbEntity
  8
LC-001-100-D00-0
 62
     7
370
    50
100
AcDbLine
 10
219.786744
 20
215.670539
 30
0.0
 11
220.286745
 21
215.670539
 31
0.0
  0
LINE
  5
CD
330
1F
100
AcDbEntity
  8
LC-001-100-D00-0
 62
     7
370
    50
100
AcDbLine
 10
220.286745
 20
213.670401
 30
0.0
 11
220.786746
 21
213.670401
 31
0.0
  0
LINE
  5
CE
330
1F
100
AcDbEntity
  8
LC-001-100-D00-0
 62
     7
370
    50
100
AcDbLine
 10
221.786744
 20
206.170408
 30
0.0
 11
217.786747
 21
206.170408
 31
0.0
  0
LINE
  5
CF
330
1F
100
AcDbEntity
  8
LC-001-100-D00-0
 62
     7
370
    50
100
AcDbLine
 10
221.286747
 20
214.670403
 30
0.0
 11
221.786744
 21
214.670403
 31
0.0
  0
LINE
  5
D0
330
1F
100
AcDbEntity
  8
LC-001-100-D00-0
 62
     7
370
    50
100
AcDbLine
 10
222.786746
 20
217.670409
 30
0.0
 11
219.77052
 21
217.670409
 31
0.0
  0
LINE
  5
D1
330
1F
100
AcDbEntity
  8
LC-001-100-D00-0
 62
     7
370
    50
100
AcDbLine
 10
103.786747
 20
226.170404
 30
0.0
 11
106.111321
 21
226.170404
 31
0.0
  0
LINE
  5
D2
330
1F
100
AcDbEntity
  8
LC-001-100-D00-0
 62
     7
370
    50
100
AcDbLine
 10
103.286746
 20
215.670539
 30
0.0
 11
103.786747
 21
215.670539
 31
0.0
  0
LINE
  5
D3
330
1F
100
AcDbEntity
  8
LC-001-100-D00-0
 62
     7
370
    50
100
AcDbLine
 10
102.786745
 20
213.670401
 30
0.0
 11
103.286746
 21
213.670401
 31
0.0
  0
LINE
  5
D4
330
1F
100
AcDbEntity
  8
LC-001-100-D00-0
 62
     7
370
    50
100
AcDbLine
 10
105.786744
 20
206.170408
 30
0.0
 11
101.786747
 21
206.170408
 31
0.0
  0
LINE
  5
D5
330
1F
100
AcDbEntity
  8
LC-001-100-D00-0
 62
     7
370
    50
100
AcDbLine
 10
101.786747
 20
214.670403
 30
0.0
 11
102.286744
 21
214.670403
 31
0.0
  0
LINE
  5
D6
330
1F
100
AcDbEntity
  8
LC-001-100-D00-0
 62
     7
370
    50
100
AcDbLine
 10
103.802971
 20
217.670409
 30
0.0
 11
100.786745
 21
217.670409
 31
0.0
  0
LINE
  5
D7
330
1F
100
AcDbEntity
  8
LC-001-100-D00-0
 62
     7
370
    50
100
AcDbLine
 10
57.786743
 20
217.670409
 30
0.0
 11
57.786743
 21
217.412142
 31
0.0
  0
LINE
  5
D8
330
1F
100
AcDbEntity
  8
LC-001-100-D00-0
 62
     7
370
    50
100
AcDbLine
 10
265.786747
 20
217.412142
 30
0.0
 11
265.786747
 21
217.670409
 31
0.0
  0
ARC
  5
D9
330
1F
100
AcDbEntity
  8
LC-001-100-D00-0
 62
     7
370
    50
100
AcDbCircle
 10
57.986688
 20
217.416916
 30
0.0
 40
0.2000000000000594
100
AcDbArc
 50
181.366653
 51
258.470429
  0
ARC
  5
DA
330
1F
100
AcDbEntity
  8
LC-001-100-D00-0
 62
     7
370
    50
100
AcDbCircle
 10
265.586802
 20
217.416916
 30
0.0
 40
0.2000000000000644
100
AcDbArc
 50
281.529571
 51
358.633347
  0
LINE
  5
DB
330
1F
100
AcDbEntity
  8
LC-001-100-D00-0
 62
     7
370
    50
100
AcDbLine
 10
257.044519
 20
214.597089
 30
0.0
 11
265.626776
 21
217.220946
 31
0.0
  0
LINE
  5
DC
330
1F
100
AcDbEntity
  8
LC-001-100-D00-0
 62
     7
370
    50
100
AcDbLine
 10
57.946715
 20
217.220946
 30
0.0
 11
66.528971
 21
214.597089
 31
0.0
  0
LINE
  5
DD
330
1F
100
AcDbEntity
  8
LC-001-100-D00-0
 62
     7
370
    50
100
AcDbLine
 10
242.543216
 20
212.170406
 30
0.0
 11
257.044519
 21
214.597089
 31
0.0
  0
LINE
  5
DE
330
1F
100
AcDbEntity
  8
LC-001-100-D00-0
 62
     7
370
    50
100
AcDbLine
 10
66.528971
 20
214.597089
 30
0.0
 11
81.030275
 21
212.170406
 31
0.0
  0
LINE
  5
DF
330
1F
100
AcDbEntity
  8
LC-001-100-D00-0
 62
     7
370
    50
100
AcDbLine
 10
225.286747
 20
212.170406
 30
0.0
 11
225.286747
 21
217.670409
 31
0.0
  0
LINE
  5
E0
330
1F
100
AcDbEntity
  8
LC-001-100-D00-0
 62
     7
370
    50
100
AcDbLine
 10
225.286747
 20
212.170406
 30
0.0
 11
242.543216
 21
212.170406
 31
0.0
  0
LINE
  5
E1
330
1F
100
AcDbEntity
  8
LC-001-100-D00-0
 62
     7
370
    50
100
AcDbLine
 10
265.786747
 20
217.670409
 30
0.0
 11
225.286747
 21
217.670409
 31
0.0
  0
LINE
  5
E2
330
1F
100
AcDbEntity
  8
LC-001-100-D00-0
 62
     7
370
    50
100
AcDbLine
 10
85.536744
 20
217.670409
 30
0.0
 11
85.536744
 21
214.670403
 31
0.0
  0
LINE
  5
E3
330
1F
100
AcDbEntity
  8
LC-001-100-D00-0
 62
     7
370
    50
100
AcDbLine
 10
88.286745
 20
214.670403
 30
0.0
 11
85.536744
 21
214.670403
 31
0.0
  0
LINE
  5
E4
330
1F
100
AcDbEntity
  8
LC-001-100-D00-0
 62
     7
370
    50
100
AcDbLine
 10
88.286745
 20
214.670403
 30
0.0
 11
88.286745
 21
212.170406
 31
0.0
  0
LINE
  5
E5
330
1F
100
AcDbEntity
  8
LC-001-100-D00-0
 62
     7
370
    50
100
AcDbLine
 10
81.030275
 20
212.170406
 30
0.0
 11
88.286745
 21
212.170406
 31
0.0
  0
LINE
  5
E6
330
1F
100
AcDbEntity
  8
LC-001-100-D00-0
 62
     7
370
    50
100
AcDbLine
 10
85.536744
 20
217.670409
 30
0.0
 11
57.786743
 21
217.670409
 31
0.0
  0
LINE
  5
E7
330
1F
100
AcDbEntity
  8
LC-001-100-D00-0
 62
     7
370
    50
100
AcDbLine
 10
98.036746
 20
214.670403
 30
0.0
 11
98.036746
 21
217.670409
 31
0.0
  0
LINE
  5
E8
330
1F
100
AcDbEntity
  8
LC-001-100-D00-0
 62
     7
370
    50
100
AcDbLine
 10
98.036746
 20
217.670409
 30
0.0
 11
96.836749
 21
217.670409
 31
0.0
  0
LINE
  5
E9
330
1F
100
AcDbEntity
  8
LC-001-100-D00-0
 62
     7
370
    50
100
AcDbLine
 10
86.736749
 20
217.670409
 30
0.0
 11
85.536744
 21
217.670409
 31
0.0
  0
LINE
  5
EA
330
1F
100
AcDbEntity
  8
LC-001-100-D00-0
 62
     7
370
    50
100
AcDbLine
 10
95.286745
 20
212.170406
 30
0.0
 11
95.286745
 21
214.670403
 31
0.0
  0
LINE
  5
EB
330
1F
100
AcDbEntity
  8
LC-001-100-D00-0
 62
     7
370
    50
100
AcDbLine
 10
95.286745
 20
212.170406
 30
0.0
 11
94.409208
 21
212.170406
 31
0.0
  0
LINE
  5
EC
330
1F
100
AcDbEntity
  8
LC-001-100-D00-0
 62
     7
370
    50
100
AcDbLine
 10
89.786748
 20
212.170406
 30
0.0
 11
88.286745
 21
212.170406
 31
0.0
  0
LINE
  5
ED
330
1F
100
AcDbEntity
  8
LC-001-100-D00-0
 62
     7
370
    50
100
AcDbLine
 10
98.286743
 20
217.670409
 30
0.0
 11
98.286743
 21
212.170406
 31
0.0
  0
LINE
  5
EE
330
1F
100
AcDbEntity
  8
LC-001-100-D00-0
 62
     7
370
    50
100
AcDbLine
 10
98.036746
 20
214.670403
 30
0.0
 11
95.286745
 21
214.670403
 31
0.0
  0
LINE
  5
EF
330
1F
100
AcDbEntity
  8
LC-001-100-D00-0
 62
     7
370
    50
100
AcDbLine
 10
95.286745
 20
212.170406
 30
0.0
 11
98.286743
 21
212.170406
 31
0.0
  0
LINE
  5
F0
330
1F
100
AcDbEntity
  8
LC-001-100-D00-0
 62
     7
370
    50
100
AcDbLine
 10
98.286743
 20
217.670409
 30
0.0
 11
98.036746
 21
217.670409
 31
0.0
  0
LINE
  5
F1
330
1F
100
AcDbEntity
  8
LC-001-100-D00-0
 62
     7
370
    50
100
AcDbLine
 10
223.203412
 20
214.670403
 30
0.0
 11
223.203412
 21
213.170482
 31
0.0
  0
LINE
  5
F2
330
1F
100
AcDbEntity
  8
LC-001-100-D00-0
 62
     7
370
    50
100
AcDbLine
 10
221.786744
 20
214.670403
 30
0.0
 11
223.203412
 21
214.670403
 31
0.0
  0
LINE
  5
F3
330
1F
100
AcDbEntity
  8
LC-001-100-D00-0
 62
     7
370
    50
100
AcDbLine
 10
225.286747
 20
217.670409
 30
0.0
 11
222.786746
 21
217.670409
 31
0.0
  0
LINE
  5
F4
330
1F
100
AcDbEntity
  8
LC-001-100-D00-0
 62
     7
370
    50
100
AcDbLine
 10
100.853412
 20
214.670403
 30
0.0
 11
101.786747
 21
214.670403
 31
0.0
  0
LINE
  5
F5
330
1F
100
AcDbEntity
  8
LC-001-100-D00-0
 62
     7
370
    50
100
AcDbLine
 10
100.786745
 20
217.670409
 30
0.0
 11
98.286743
 21
217.670409
 31
0.0
  0
LINE
  5
F6
330
1F
100
AcDbEntity
  8
LC-001-100-D00-0
 62
     7
370
    50
100
AcDbLine
 10
102.389774
 20
214.670403
 30
0.0
 11
102.890651
 21
213.670401
 31
0.0
  0
LINE
  5
F7
330
1F
100
AcDbEntity
  8
LC-001-100-D00-0
 62
     7
370
    50
100
AcDbLine
 10
220.68284
 20
213.670401
 30
0.0
 11
221.183716
 21
214.670403
 31
0.0
  0
ARC
  5
F8
330
1F
100
AcDbEntity
  8
LC-001-100-D00-0
 62
     7
370
    50
100
AcDbCircle
 10
96.836745
 20
217.470406
 30
0.0
 40
0.2000000000001592
100
AcDbArc
 50
0.0
 51
90.0
  0
ARC
  5
F9
330
1F
100
AcDbEntity
  8
LC-001-100-D00-0
 62
     7
370
    50
100
AcDbCircle
 10
86.736745
 20
217.470406
 30
0.0
 40
0.2000000000001592
100
AcDbArc
 50
90.0
 51
180.0
  0
LINE
  5
FA
330
1F
100
AcDbEntity
  8
LC-001-100-D00-0
 62
     7
370
    50
100
AcDbLine
 10
93.560177
 20
216.670407
 30
0.0
 11
93.560177
 21
217.170401
 31
0.0
  0
LINE
  5
FB
330
1F
100
AcDbEntity
  8
LC-001-100-D00-0
 62
     7
370
    50
100
AcDbLine
 10
95.536749
 20
217.170401
 30
0.0
 11
93.560177
 21
217.170401
 31
0.0
  0
LINE
  5
FC
330
1F
100
AcDbEntity
  8
LC-001-100-D00-0
 62
     7
370
    50
100
AcDbLine
 10
95.536749
 20
217.170401
 30
0.0
 11
95.536749
 21
218.242167
 31
0.0
  0
ARC
  5
FD
330
1F
100
AcDbEntity
  8
LC-001-100-D00-0
 62
     7
370
    50
100
AcDbCircle
 10
91.786745
 20
212.545406
 30
0.0
 40
6.820236432851973
100
AcDbArc
 50
48.715289
 51
56.644353
  0
LINE
  5
FE
330
1F
100
AcDbEntity
  8
LC-001-100-D00-0
 62
     7
370
    50
100
AcDbLine
 10
97.036744
 20
214.670403
 30
0.0
 11
97.036744
 21
217.470406
 31
0.0
  0
LINE
  5
FF
330
1F
100
AcDbEntity
  8
LC-001-100-D00-0
 62
     7
370
    50
100
AcDbLine
 10
93.786742
 20
214.670403
 30
0.0
 11
97.036744
 21
214.670403
 31
0.0
  0
LINE
  5
100
330
1F
100
AcDbEntity
  8
LC-001-100-D00-0
 62
     7
370
    50
100
AcDbLine
 10
93.786742
 20
213.165997
 30
0.0
 11
93.786742
 21
214.670403
 31
0.0
  0
INSERT
  5
107
330
1F
100
AcDbEntity
  8
LC-001-100-D00-0
 62
     7
370
    50
100
AcDbBlockReference
  2
KLON1
 10
0.0
 20
0.0
 30
0.0
  0
INSERT
  5
10E
330
1F
100
AcDbEntity
  8
LC-001-100-D00-0
 62
     7
370
    50
100
AcDbBlockReference
  2
KLON2
 10
0.0
 20
0.0
 30
0.0
  0
LINE
  5
10F
330
1F
100
AcDbEntity
  8
LC-001-100-D00-0
 62
     7
370
    50
100
AcDbLine
 10
93.786742
 20
210.165991
 30
0.0
 11
93.786742
 21
211.864574
 31
0.0
  0
INSERT
  5
116
330
1F
100
AcDbEntity
  8
LC-001-100-D00-0
 62
     7
370
    50
100
AcDbBlockReference
  2
KLON3
 10
0.0
 20
0.0
 30
0.0
  0
INSERT
  5
11D
330
1F
100
AcDbEntity
  8
LC-001-100-D00-0
 62
     7
370
    50
100
AcDbBlockReference
  2
KLON4
 10
0.0
 20
0.0
 30
0.0
  0
LINE
  5
11E
330
1F
100
AcDbEntity
  8
LC-001-100-D00-0
 62
     7
370
    50
100
AcDbLine
 10
93.786742
 20
207.166
 30
0.0
 11
93.786742
 21
208.864583
 31
0.0
  0
INSERT
  5
125
330
1F
100
AcDbEntity
  8
LC-001-100-D00-0
 62
     7
370
    50
100
AcDbBlockReference
  2
KLON5
 10
0.0
 20
0.0
 30
0.0
  0
INSERT
  5
12C
330
1F
100
AcDbEntity
  8
LC-001-100-D00-0
 62
     7
370
    50
100
AcDbBlockReference
  2
KLON6
 10
0.0
 20
0.0
 30
0.0
  0
LINE
  5
12D
330
1F
100
AcDbEntity
  8
LC-001-100-D00-0
 62
     7
370
    50
100
AcDbLine
 10
93.786742
 20
204.165993
 30
0.0
 11
93.786742
 21
205.864577
 31
0.0
  0
INSERT
  5
134
330
1F
100
AcDbEntity
  8
LC-001-100-D00-0
 62
     7
370
    50
100
AcDbBlockReference
  2
KLON7
 10
0.0
 20
0.0
 30
0.0
  0
INSERT
  5
13B
330
1F
100
AcDbEntity
  8
LC-001-100-D00-0
 62
     7
370
    50
100
AcDbBlockReference
  2
KLON8
 10
0.0
 20
0.0
 30
0.0
  0
LINE
  5
13C
330
1F
100
AcDbEntity
  8
LC-001-100-D00-0
 62
     7
370
    50
100
AcDbLine
 10
93.786742
 20
201.166002
 30
0.0
 11
93.786742
 21
202.864586
 31
0.0
  0
INSERT
  5
143
330
1F
100
AcDbEntity
  8
LC-001-100-D00-0
 62
     7
370
    50
100
AcDbBlockReference
  2
KLON9
 10
0.0
 20
0.0
 30
0.0
  0
INSERT
  5
14A
330
1F
100
AcDbEntity
  8
LC-001-100-D00-0
 62
     7
370
    50
100
AcDbBlockReference
  2
KLON10
 10
0.0
 20
0.0
 30
0.0
  0
LINE
  5
14B
330
1F
100
AcDbEntity
  8
LC-001-100-D00-0
 62
     7
370
    50
100
AcDbLine
 10
93.786742
 20
199.070825
 30
0.0
 11
93.786742
 21
199.86458
 31
0.0
  0
LINE
  5
14C
330
1F
100
AcDbEntity
  8
LC-001-100-D00-0
 62
     7
370
    50
100
AcDbLine
 10
91.786745
 20
197.670398
 30
0.0
 11
93.786742
 21
199.070825
 31
0.0
  0
LINE
  5
14D
330
1F
100
AcDbEntity
  8
LC-001-100-D00-0
 62
     7
370
    50
100
AcDbLine
 10
89.786748
 20
199.070825
 30
0.0
 11
91.786745
 21
197.670398
 31
0.0
  0
LINE
  5
14E
330
1F
100
AcDbEntity
  8
LC-001-100-D00-0
 62
     7
370
    50
100
AcDbLine
 10
89.786748
 20
201.364575
 30
0.0
 11
89.786748
 21
199.070825
 31
0.0
  0
INSERT
  5
155
330
1F
100
AcDbEntity
  8
LC-001-100-D00-0
 62
     7
370
    50
100
AcDbBlockReference
  2
KLON11
 10
0.0
 20
0.0
 30
0.0
  0
INSERT
  5
15C
330
1F
100
AcDbEntity
  8
LC-001-100-D00-0
 62
     7
370
    50
100
AcDbBlockReference
  2
KLON12
 10
0.0
 20
0.0
 30
0.0
  0
LINE
  5
15D
330
1F
100
AcDbEntity
  8
LC-001-100-D00-0
 62
     7
370
    50
100
AcDbLine
 10
89.786748
 20
204.364581
 30
0.0
 11
89.786748
 21
202.665998
 31
0.0
  0
INSERT
  5
164
330
1F
100
AcDbEntity
  8
LC-001-100-D00-0
 62
     7
370
    50
100
AcDbBlockReference
  2
KLON13
 10
0.0
 20
0.0
 30
0.0
  0
INSERT
  5
16B
330
1F
100
AcDbEntity
  8
LC-001-100-D00-0
 62
     7
370
    50
100
AcDbBlockReference
  2
KLON14
 10
0.0
 20
0.0
 30
0.0
  0
LINE
  5
16C
330
1F
100
AcDbEntity
  8
LC-001-100-D00-0
 62
     7
370
    50
100
AcDbLine
 10
89.786748
 20
207.364572
 30
0.0
 11
89.786748
 21
205.665989
 31
0.0
  0
INSERT
  5
173
330
1F
100
AcDbEntity
  8
LC-001-100-D00-0
 62
     7
370
    50
100
AcDbBlockReference
  2
KLON15
 10
0.0
 20
0.0
 30
0.0
  0
INSERT
  5
17A
330
1F
100
AcDbEntity
  8
LC-001-100-D00-0
 62
     7
370
    50
100
AcDbBlockReference
  2
KLON16
 10
0.0
 20
0.0
 30
0.0
  0
LINE
  5
17B
330
1F
100
AcDbEntity
  8
LC-001-100-D00-0
 62
     7
370
    50
100
AcDbLine
 10
89.786748
 20
210.364579
 30
0.0
 11
89.786748
 21
208.665995
 31
0.0
  0
INSERT
  5
182
330
1F
100
AcDbEntity
  8
LC-001-100-D00-0
 62
     7
370
    50
100
AcDbBlockReference
  2
KLON17
 10
0.0
 20
0.0
 30
0.0
  0
INSERT
  5
189
330
1F
100
AcDbEntity
  8
LC-001-100-D00-0
 62
     7
370
    50
100
AcDbBlockReference
  2
KLON18
 10
0.0
 20
0.0
 30
0.0
  0
LINE
  5
18A
330
1F
100
AcDbEntity
  8
LC-001-100-D00-0
 62
     7
370
    50
100
AcDbLine
 10
89.786748
 20
213.364585
 30
0.0
 11
89.786748
 21
211.666001
 31
0.0
  0
INSERT
  5
191
330
1F
100
AcDbEntity
  8
LC-001-100-D00-0
 62
     7
370
    50
100
AcDbBlockReference
  2
KLON19
 10
0.0
 20
0.0
 30
0.0
  0
INSERT
  5
198
330
1F
100
AcDbEntity
  8
LC-001-100-D00-0
 62
     7
370
    50
100
AcDbBlockReference
  2
KLON20
 10
0.0
 20
0.0
 30
0.0
  0
LINE
  5
199
330
1F
100
AcDbEntity
  8
LC-001-100-D00-0
 62
     7
370
    50
100
AcDbLine
 10
89.786748
 20
214.670403
 30
0.0
 11
89.786748
 21
214.665992
 31
0.0
  0
LINE
  5
19A
330
1F
100
AcDbEntity
  8
LC-001-100-D00-0
 62
     7
370
    50
100
AcDbLine
 10
86.536746
 20
214.670403
 30
0.0
 11
89.786748
 21
214.670403
 31
0.0
  0
LINE
  5
19B
330
1F
100
AcDbEntity
  8
LC-001-100-D00-0
 62
     7
370
    50
100
AcDbLine
 10
86.536746
 20
217.470406
 30
0.0
 11
86.536746
 21
214.670403
 31
0.0
  0
ARC
  5
19C
330
1F
100
AcDbEntity
  8
LC-001-100-D00-0
 62
     7
370
    50
100
AcDbCircle
 10
91.786745
 20
212.545406
 30
0.0
 40
6.820236432852042
100
AcDbArc
 50
123.355647
 51
131.284711
  0
LINE
  5
19D
330
1F
100
AcDbEntity
  8
LC-001-100-D00-0
 62
     7
370
    50
100
AcDbLine
 10
88.036749
 20
218.242167
 30
0.0
 11
88.036749
 21
217.170401
 31
0.0
  0
LINE
  5
19E
330
1F
100
AcDbEntity
  8
LC-001-100-D00-0
 62
     7
370
    50
100
AcDbLine
 10
90.013313
 20
217.170401
 30
0.0
 11
88.036749
 21
217.170401
 31
0.0
  0
LINE
  5
19F
330
1F
100
AcDbEntity
  8
LC-001-100-D00-0
 62
     7
370
    50
100
AcDbLine
 10
90.013313
 20
216.670407
 30
0.0
 11
90.013313
 21
217.170401
 31
0.0
  0
LINE
  5
1A0
330
1F
100
AcDbEntity
  8
LC-001-100-D00-0
 62
     7
370
    50
100
AcDbLine
 10
93.560177
 20
216.670407
 30
0.0
 11
90.013313
 21
216.670407
 31
0.0
  0
LINE
  5
1A1
330
1F
100
AcDbEntity
  8
LC-001-100-D00-0
 62
     7
370
    50
100
AcDbLine
 10
87.286743
 20
217.670409
 30
0.0
 11
86.736749
 21
217.670409
 31
0.0
  0
LINE
  5
1A2
330
1F
100
AcDbEntity
  8
LC-001-100-D00-0
 62
     7
370
    50
100
AcDbLine
 10
96.836749
 20
217.670409
 30
0.0
 11
96.286747
 21
217.670409
 31
0.0
  0
INSERT
  5
1AE
330
1F
100
AcDbEntity
  8
LC-001-100-D00-0
 62
     7
370
    50
100
AcDbBlockReference
  2
POLY4
 10
0.0
 20
0.0
 30
0.0
  0
LINE
  5
1AF
330
1F
100
AcDbEntity
  8
LC-001-100-D00-0
 62
     7
370
    50
100
AcDbLine
 10
94.825166
 20
212.679668
 30
0.0
 11
95.036748
 21
212.515293
 31
0.0
  0
ARC
  5
1B0
330
1F
100
AcDbEntity
  8
LC-001-100-D00-0
 62
     7
370
    50
100
AcDbCircle
 10
91.786745
 20
212.545406
 30
0.0
 40
6.80188393020657
100
AcDbArc
 50
56.54253
 51
63.818118
  0
ARC
  5
1B1
330
1F
100
AcDbEntity
  8
LC-001-100-D00-0
 62
     7
370
    50
100
AcDbCircle
 10
91.786745
 20
212.545406
 30
0.0
 40
6.801883930206587
100
AcDbArc
 50
116.181882
 51
123.45747
  0
INSERT
  5
1BD
330
1F
100
AcDbEntity
  8
LC-001-100-D00-0
 62
     7
370
    50
100
AcDbBlockReference
  2
POLY5
 10
0.0
 20
0.0
 30
0.0
  0
INSERT
  5
1C9
330
1F
100
AcDbEntity
  8
LC-001-100-D00-0
 62
     7
370
    50
100
AcDbBlockReference
  2
POLY6
 10
0.0
 20
0.0
 30
0.0
  0
LINE
  5
1CA
330
1F
100
AcDbEntity
  8
LC-001-100-D00-0
 62
     7
370
    50
100
AcDbLine
 10
90.013313
 20
218.670411
 30
0.0
 11
88.876094
 21
218.670411
 31
0.0
  0
LINE
  5
1CB
330
1F
100
AcDbEntity
  8
LC-001-100-D00-0
 62
     7
370
    50
100
AcDbLine
 10
90.013313
 20
218.670411
 30
0.0
 11
90.013313
 21
217.170401
 31
0.0
  0
LINE
  5
1CC
330
1F
100
AcDbEntity
  8
LC-001-100-D00-0
 62
     7
370
    50
100
AcDbLine
 10
94.697396
 20
218.670411
 30
0.0
 11
93.560177
 21
218.670411
 31
0.0
  0
LINE
  5
1CD
330
1F
100
AcDbEntity
  8
LC-001-100-D00-0
 62
     7
370
    50
100
AcDbLine
 10
93.560177
 20
218.670411
 30
0.0
 11
93.560177
 21
217.170401
 31
0.0
  0
LINE
  5
1CE
330
1F
100
AcDbEntity
  8
LC-001-100-D00-0
 62
     7
370
    50
100
AcDbLine
 10
91.117199
 20
218.670411
 30
0.0
 11
92.456291
 21
218.670411
 31
0.0
  0
LINE
  5
1CF
330
1F
100
AcDbEntity
  8
LC-001-100-D00-0
 62
     7
370
    50
100
AcDbLine
 10
92.759411
 20
218.670411
 30
0.0
 11
92.456291
 21
218.670411
 31
0.0
  0
LINE
  5
1D0
330
1F
100
AcDbEntity
  8
LC-001-100-D00-0
 62
     7
370
    50
100
AcDbLine
 10
90.814087
 20
218.670411
 30
0.0
 11
91.117199
 21
218.670411
 31
0.0
  0
LINE
  5
1D1
330
1F
100
AcDbEntity
  8
LC-001-100-D00-0
 62
     7
370
    50
100
AcDbLine
 10
92.759411
 20
218.670411
 30
0.0
 11
93.560177
 21
218.670411
 31
0.0
  0
LINE
  5
1D2
330
1F
100
AcDbEntity
  8
LC-001-100-D00-0
 62
     7
370
    50
100
AcDbLine
 10
90.814087
 20
218.670411
 30
0.0
 11
90.013313
 21
218.670411
 31
0.0
  0
INSERT
  5
1DE
330
1F
100
AcDbEntity
  8
LC-001-100-D00-0
 62
     7
370
    50
100
AcDbBlockReference
  2
POLY7
 10
0.0
 20
0.0
 30
0.0
  0
LINE
  5
1DF
330
1F
100
AcDbEntity
  8
LC-001-100-D00-0
 62
     7
370
    50
100
AcDbLine
 10
226.786743
 20
211.670412
 30
0.0
 11
226.786743
 21
212.170212
 31
0.0
  0
LINE
  5
1E0
330
1F
100
AcDbEntity
  8
LC-001-100-D00-0
 62
     7
370
    50
100
AcDbLine
 10
96.786748
 20
212.170212
 30
0.0
 11
96.786852
 21
212.170406
 31
0.0
  0
INSERT
  5
1F0
330
1F
100
AcDbEntity
  8
LC-001-100-D00-0
 62
     7
370
    50
100
AcDbBlockReference
  2
POLY8
 10
0.0
 20
0.0
 30
0.0
  0
LINE
  5
1F1
330
1F
100
AcDbEntity
  8
LC-001-100-D00-0
 62
     7
370
    50
100
AcDbLine
 10
226.786639
 20
212.170406
 30
0.0
 11
226.786743
 21
212.170212
 31
0.0
  0
LINE
  5
1F2
330
1F
100
AcDbEntity
  8
LC-001-100-D00-0
 62
     7
370
    50
100
AcDbLine
 10
221.786744
 20
185.405402
 30
0.0
 11
221.786744
 21
212.170406
 31
0.0
  0
LINE
  5
1F3
330
1F
100
AcDbEntity
  8
LC-001-100-D00-0
 62
     7
370
    50
100
AcDbLine
 10
221.786744
 20
212.170406
 30
0.0
 11
222.78685
 21
213.170482
 31
0.0
  0
LINE
  5
1F4
330
1F
100
AcDbEntity
  8
LC-001-100-D00-0
 62
     7
370
    50
100
AcDbLine
 10
225.786748
 20
213.170482
 30
0.0
 11
222.78685
 21
213.170482
 31
0.0
  0
LINE
  5
1F5
330
1F
100
AcDbEntity
  8
LC-001-100-D00-0
 62
     7
370
    50
100
AcDbLine
 10
225.786748
 20
213.170482
 30
0.0
 11
225.786748
 21
211.670412
 31
0.0
  0
LINE
  5
1F6
330
1F
100
AcDbEntity
  8
LC-001-100-D00-0
 62
     7
370
    50
100
AcDbLine
 10
225.786748
 20
211.670412
 30
0.0
 11
226.497966
 21
211.670412
 31
0.0
  0
LINE
  5
1F7
330
1F
100
AcDbEntity
  8
LC-001-100-D00-0
 62
     7
370
    50
100
AcDbLine
 10
226.497966
 20
211.670412
 30
0.0
 11
226.786639
 21
212.170406
 31
0.0
  0
LINE
  5
1F8
330
1F
100
AcDbEntity
  8
LC-001-100-D00-0
 62
     7
370
    50
100
AcDbLine
 10
226.786743
 20
211.670412
 30
0.0
 11
229.286748
 21
211.670412
 31
0.0
  0
LINE
  5
1F9
330
1F
100
AcDbEntity
  8
LC-001-100-D00-0
 62
     7
370
    50
100
AcDbLine
 10
229.286748
 20
211.670412
 30
0.0
 11
229.286748
 21
199.170409
 31
0.0
  0
LINE
  5
1FA
330
1F
100
AcDbEntity
  8
LC-001-100-D00-0
 62
     7
370
    50
100
AcDbLine
 10
229.286748
 20
199.170409
 30
0.0
 11
229.786749
 21
198.670401
 31
0.0
  0
LINE
  5
1FB
330
1F
100
AcDbEntity
  8
LC-001-100-D00-0
 62
     7
370
    50
100
AcDbLine
 10
233.786742
 20
198.670401
 30
0.0
 11
229.786749
 21
198.670401
 31
0.0
  0
LINE
  5
1FC
330
1F
100
AcDbEntity
  8
LC-001-100-D00-0
 62
     7
370
    50
100
AcDbLine
 10
233.786742
 20
198.670401
 30
0.0
 11
234.286743
 21
199.170409
 31
0.0
  0
LINE
  5
1FD
330
1F
100
AcDbEntity
  8
LC-001-100-D00-0
 62
     7
370
    50
100
AcDbLine
 10
234.286743
 20
199.170409
 30
0.0
 11
234.286743
 21
211.670412
 31
0.0
  0
LINE
  5
1FE
330
1F
100
AcDbEntity
  8
LC-001-100-D00-0
 62
     7
370
    50
100
AcDbLine
 10
234.286743
 20
211.670412
 30
0.0
 11
236.786748
 21
211.670412
 31
0.0
  0
LINE
  5
1FF
330
1F
100
AcDbEntity
  8
LC-001-100-D00-0
 62
     7
370
    50
100
AcDbLine
 10
236.786748
 20
212.170406
 30
0.0
 11
236.786748
 21
211.670412
 31
0.0
  0
LINE
  5
200
330
1F
100
AcDbEntity
  8
LC-001-100-D00-0
 62
     7
370
    50
100
AcDbLine
 10
236.786748
 20
212.170406
 30
0.0
 11
237.075421
 21
211.670412
 31
0.0
  0
LINE
  5
201
330
1F
100
AcDbEntity
  8
LC-001-100-D00-0
 62
     7
370
    50
100
AcDbLine
 10
237.075421
 20
211.670412
 30
0.0
 11
237.786743
 21
211.670412
 31
0.0
  0
LINE
  5
202
330
1F
100
AcDbEntity
  8
LC-001-100-D00-0
 62
     7
370
    50
100
AcDbLine
 10
237.786743
 20
211.670412
 30
0.0
 11
237.786743
 21
208.170412
 31
0.0
  0
LINE
  5
203
330
1F
100
AcDbEntity
  8
LC-001-100-D00-0
 62
     7
370
    50
100
AcDbLine
 10
237.786743
 20
208.170412
 30
0.0
 11
244.786742
 21
208.170412
 31
0.0
  0
LINE
  5
204
330
1F
100
AcDbEntity
  8
LC-001-100-D00-0
 62
     7
370
    50
100
AcDbLine
 10
244.786742
 20
208.170412
 30
0.0
 11
244.786742
 21
211.670412
 31
0.0
  0
LINE
  5
205
330
1F
100
AcDbEntity
  8
LC-001-100-D00-0
 62
     7
370
    50
100
AcDbLine
 10
244.786742
 20
211.670412
 30
0.0
 11
246.786746
 21
211.670412
 31
0.0
  0
LINE
  5
206
330
1F
100
AcDbEntity
  8
LC-001-100-D00-0
 62
     7
370
    50
100
AcDbLine
 10
246.786746
 20
211.670412
 30
0.0
 11
266.945991
 21
217.833711
 31
0.0
  0
LINE
  5
207
330
1F
100
AcDbEntity
  8
LC-001-100-D00-0
 62
     7
370
    50
100
AcDbLine
 10
266.945991
 20
217.833711
 30
0.0
 11
274.220492
 21
218.074812
 31
0.0
  0
ARC
  5
208
330
1F
100
AcDbEntity
  8
LC-001-100-D00-0
 62
     7
370
    50
100
AcDbCircle
 10
274.286745
 20
216.075915
 30
0.0
 40
2.0
100
AcDbArc
 50
0.0
 51
91.898363
  0
LINE
  5
209
330
1F
100
AcDbEntity
  8
LC-001-100-D00-0
 62
     7
370
    50
100
AcDbLine
 10
276.286746
 20
216.07591
 30
0.0
 11
276.286746
 21
214.592947
 31
0.0
  0
LINE
  5
20A
330
1F
100
AcDbEntity
  8
LC-001-100-D00-0
 62
     7
370
    50
100
AcDbLine
 10
267.304714
 20
214.28345
 30
0.0
 11
276.286746
 21
214.592947
 31
0.0
  0
LINE
  5
20B
330
1F
100
AcDbEntity
  8
LC-001-100-D00-0
 62
     7
370
    50
100
AcDbLine
 10
247.438016
 20
208.209602
 30
0.0
 11
267.304714
 21
214.28345
 31
0.0
  0
LINE
  5
20C
330
1F
100
AcDbEntity
  8
LC-001-100-D00-0
 62
     7
370
    50
100
AcDbLine
 10
244.759615
 20
205.830856
 30
0.0
 11
247.438016
 21
208.209602
 31
0.0
  0
LINE
  5
20D
330
1F
100
AcDbEntity
  8
LC-001-100-D00-0
 62
     7
370
    50
100
AcDbLine
 10
237.786743
 20
205.830856
 30
0.0
 11
244.759615
 21
205.830856
 31
0.0
  0
LINE
  5
20E
330
1F
100
AcDbEntity
  8
LC-001-100-D00-0
 62
     7
370
    50
100
AcDbLine
 10
237.786743
 20
205.830856
 30
0.0
 11
237.786743
 21
196.330859
 31
0.0
  0
LINE
  5
20F
330
1F
100
AcDbEntity
  8
LC-001-100-D00-0
 62
     7
370
    50
100
AcDbLine
 10
234.684694
 20
196.330859
 30
0.0
 11
237.786743
 21
196.330859
 31
0.0
  0
ARC
  5
210
330
1F
100
AcDbEntity
  8
LC-001-100-D00-0
 62
     7
370
    50
100
AcDbCircle
 10
231.786745
 20
200.405401
 30
0.0
 40
5.000000000000004
100
AcDbArc
 50
234.578322
 51
305.421678
  0
LINE
  5
211
330
1F
100
AcDbEntity
  8
LC-001-100-D00-0
 62
     7
370
    50
100
AcDbLine
 10
224.786746
 20
196.330859
 30
0.0
 11
228.888798
 21
196.330859
 31
0.0
  0
LINE
  5
212
330
1F
100
AcDbEntity
  8
LC-001-100-D00-0
 62
     7
370
    50
100
AcDbLine
 10
224.786746
 20
185.405402
 30
0.0
 11
224.786746
 21
196.330859
 31
0.0
  0
ARC
  5
213
330
1F
100
AcDbEntity
  8
LC-001-100-D00-0
 62
     7
370
    50
100
AcDbCircle
 10
221.786745
 20
185.405401
 30
0.0
 40
3.000000000000057
100
AcDbArc
 50
270.0
 51
0.0
  0
LINE
  5
214
330
1F
100
AcDbEntity
  8
LC-001-100-D00-0
 62
     7
370
    50
100
AcDbLine
 10
221.786744
 20
182.405403
 30
0.0
 11
216.786745
 21
182.405403
 31
0.0
  0
LINE
  5
215
330
1F
100
AcDbEntity
  8
LC-001-100-D00-0
 62
     7
370
    50
100
AcDbLine
 10
216.786745
 20
182.405403
 30
0.0
 11
216.786745
 21
140.10167
 31
0.0
  0
LINE
  5
216
330
1F
100
AcDbEntity
  8
LC-001-100-D00-0
 62
     7
370
    50
100
AcDbLine
 10
216.786745
 20
140.10167
 30
0.0
 11
213.44466
 21
127.628939
 31
0.0
  0
ARC
  5
217
330
1F
100
AcDbEntity
  8
LC-001-100-D00-0
 62
     7
370
    50
100
AcDbCircle
 10
210.546886
 20
128.405401
 30
0.0
 40
3.0
100
AcDbArc
 50
270.0
 51
344.999892
  0
LINE
  5
218
330
1F
100
AcDbEntity
  8
LC-001-100-D00-0
 62
     7
370
    50
100
AcDbLine
 10
210.546887
 20
125.405399
 30
0.0
 11
186.786746
 21
125.405399
 31
0.0
  0
LINE
  5
219
330
1F
100
AcDbEntity
  8
LC-001-100-D00-0
 62
     7
370
    50
100
AcDbLine
 10
186.786746
 20
125.405399
 30
0.0
 11
186.786746
 21
70.905401
 31
0.0
  0
LINE
  5
21A
330
1F
100
AcDbEntity
  8
LC-001-100-D00-0
 62
     7
370
    50
100
AcDbLine
 10
185.848922
 20
67.405401
 30
0.0
 11
186.786746
 21
70.905401
 31
0.0
  0
LINE
  5
21B
330
1F
100
AcDbEntity
  8
LC-001-100-D00-0
 62
     7
370
    50
100
AcDbLine
 10
183.786745
 20
67.405401
 30
0.0
 11
185.848922
 21
67.405401
 31
0.0
  0
LINE
  5
21C
330
1F
100
AcDbEntity
  8
LC-001-100-D00-0
 62
     7
370
    50
100
AcDbLine
 10
183.786745
 20
67.405401
 30
0.0
 11
183.786745
 21
127.905401
 31
0.0
  0
LINE
  5
21D
330
1F
100
AcDbEntity
  8
LC-001-100-D00-0
 62
     7
370
    50
100
AcDbLine
 10
208.216726
 20
127.905401
 30
0.0
 11
183.786745
 21
127.905401
 31
0.0
  0
ARC
  5
21E
330
1F
100
AcDbEntity
  8
LC-001-100-D00-0
 62
     7
370
    50
100
AcDbCircle
 10
208.216727
 20
130.905401
 30
0.0
 40
3.0
100
AcDbArc
 50
270.0
 51
344.999691
  0
LINE
  5
21F
330
1F
100
AcDbEntity
  8
LC-001-100-D00-0
 62
     7
370
    50
100
AcDbLine
 10
213.735632
 20
139.910912
 30
0.0
 11
211.114499
 21
130.128926
 31
0.0
  0
ARC
  5
220
330
1F
100
AcDbEntity
  8
LC-001-100-D00-0
 62
     7
370
    50
100
AcDbCircle
 10
212.286745
 20
140.299151
 30
0.0
 40
1.50000000000004
100
AcDbArc
 50
344.999691
 51
0.0
  0
LINE
  5
221
330
1F
100
AcDbEntity
  8
LC-001-100-D00-0
 62
     7
370
    50
100
AcDbLine
 10
213.786746
 20
185.405402
 30
0.0
 11
213.786746
 21
140.299147
 31
0.0
  0
LINE
  5
222
330
1F
100
AcDbEntity
  8
LC-001-100-D00-0
 62
     7
370
    50
100
AcDbLine
 10
213.786746
 20
185.405402
 30
0.0
 11
221.786744
 21
185.405402
 31
0.0
  0
LINE
  5
223
330
1F
100
AcDbEntity
  8
LC-001-100-D00-0
 62
     7
370
    50
100
AcDbLine
 10
100.853412
 20
216.170473
 30
0.0
 11
100.853412
 21
213.170482
 31
0.0
  0
LINE
  5
224
330
1F
100
AcDbEntity
  8
LC-001-100-D00-0
 62
     7
370
    50
100
AcDbLine
 10
98.786744
 20
213.170482
 30
0.0
 11
98.786744
 21
216.170473
 31
0.0
  0
LINE
  5
225
330
1F
100
AcDbEntity
  8
LC-001-100-D00-0
 62
     7
370
    50
100
AcDbLine
 10
100.853304
 20
213.170482
 30
0.0
 11
101.786747
 21
213.170482
 31
0.0
  0
LINE
  5
226
330
1F
100
AcDbEntity
  8
LC-001-100-D00-0
 62
     7
370
    50
100
AcDbLine
 10
221.786744
 20
213.170482
 30
0.0
 11
222.78685
 21
213.170482
 31
0.0
  0
LINE
  5
227
330
1F
100
AcDbEntity
  8
LC-001-100-D00-0
 62
     7
370
    50
100
AcDbLine
 10
100.78664
 20
213.170482
 30
0.0
 11
101.786747
 21
212.170406
 31
0.0
  0
ARC
  5
228
330
1F
100
AcDbEntity
  8
LC-001-100-D00-0
 62
     7
370
    50
100
AcDbCircle
 10
111.286745
 20
140.299151
 30
0.0
 40
1.500000000000057
100
AcDbArc
 50
180.0
 51
195.000309
  0
ARC
  5
229
330
1F
100
AcDbEntity
  8
LC-001-100-D00-0
 62
     7
370
    50
100
AcDbCircle
 10
115.356764
 20
130.905401
 30
0.0
 40
3.00000000000001
100
AcDbArc
 50
195.000309
 51
270.0
  0
LINE
  5
22A
330
1F
100
AcDbEntity
  8
LC-001-100-D00-0
 62
     7
370
    50
100
AcDbLine
 10
98.786744
 20
196.330859
 30
0.0
 11
98.786744
 21
185.405402
 31
0.0
  0
LINE
  5
22B
330
1F
100
AcDbEntity
  8
LC-001-100-D00-0
 62
     7
370
    50
100
AcDbLine
 10
112.458992
 20
130.128926
 30
0.0
 11
109.837859
 21
139.910912
 31
0.0
  0
LINE
  5
22C
330
1F
100
AcDbEntity
  8
LC-001-100-D00-0
 62
     7
370
    50
100
AcDbLine
 10
101.786747
 20
212.170406
 30
0.0
 11
101.786747
 21
185.405402
 31
0.0
  0
LINE
  5
22D
330
1F
100
AcDbEntity
  8
LC-001-100-D00-0
 62
     7
370
    50
100
AcDbLine
 10
229.286748
 20
199.170409
 30
0.0
 11
234.286743
 21
199.170409
 31
0.0
  0
LINE
  5
22E
330
1F
100
AcDbEntity
  8
LC-001-100-D00-0
 62
     7
370
    50
100
AcDbLine
 10
234.286743
 20
211.670412
 30
0.0
 11
229.286748
 21
211.670412
 31
0.0
  0
LINE
  5
22F
330
1F
100
AcDbEntity
  8
LC-001-100-D00-0
 62
     7
370
    50
100
AcDbLine
 10
109.786744
 20
140.299147
 30
0.0
 11
109.786744
 21
185.405402
 31
0.0
  0
LINE
  5
230
330
1F
100
AcDbEntity
  8
LC-001-100-D00-0
 62
     7
370
    50
100
AcDbLine
 10
109.786744
 20
185.405402
 30
0.0
 11
213.786746
 21
185.405402
 31
0.0
  0
LINE
  5
231
330
1F
100
AcDbEntity
  8
LC-001-100-D00-0
 62
     7
370
    50
100
AcDbLine
 10
93.786742
 20
198.670401
 30
0.0
 11
94.286743
 21
199.170409
 31
0.0
  0
LINE
  5
232
330
1F
100
AcDbEntity
  8
LC-001-100-D00-0
 62
     7
370
    50
100
AcDbLine
 10
89.286747
 20
199.170409
 30
0.0
 11
89.786748
 21
198.670401
 31
0.0
  0
LINE
  5
233
330
1F
100
AcDbEntity
  8
LC-001-100-D00-0
 62
     7
370
    50
100
AcDbLine
 10
89.286747
 20
199.170409
 30
0.0
 11
89.786748
 21
199.170409
 31
0.0
  0
LINE
  5
234
330
1F
100
AcDbEntity
  8
LC-001-100-D00-0
 62
     7
370
    50
100
AcDbLine
 10
93.786742
 20
199.170409
 30
0.0
 11
94.286743
 21
199.170409
 31
0.0
  0
LINE
  5
235
330
1F
100
AcDbEntity
  8
LC-001-100-D00-0
 62
     7
370
    50
100
AcDbLine
 10
94.286743
 20
199.170409
 30
0.0
 11
94.286743
 21
211.670412
 31
0.0
  0
LINE
  5
236
330
1F
100
AcDbEntity
  8
LC-001-100-D00-0
 62
     7
370
    50
100
AcDbLine
 10
89.286747
 20
211.670412
 30
0.0
 11
89.286747
 21
199.170409
 31
0.0
  0
LINE
  5
237
330
1F
100
AcDbEntity
  8
LC-001-100-D00-0
 62
     7
370
    50
100
AcDbLine
 10
94.286743
 20
211.670412
 30
0.0
 11
93.786742
 21
211.670412
 31
0.0
  0
LINE
  5
238
330
1F
100
AcDbEntity
  8
LC-001-100-D00-0
 62
     7
370
    50
100
AcDbLine
 10
89.786748
 20
211.670412
 30
0.0
 11
89.286747
 21
211.670412
 31
0.0
  0
ARC
  5
239
330
1F
100
AcDbEntity
  8
LC-001-100-D00-0
 62
     7
370
    50
100
AcDbCircle
 10
113.026604
 20
128.405401
 30
0.0
 40
3.000000000000007
100
AcDbArc
 50
195.000108
 51
270.0
  0
ARC
  5
23A
330
1F
100
AcDbEntity
  8
LC-001-100-D00-0
 62
     7
370
    50
100
AcDbCircle
 10
101.786745
 20
185.405401
 30
0.0
 40
3.000000000000057
100
AcDbArc
 50
180.0
 51
270.0
  0
LINE
  5
23B
330
1F
100
AcDbEntity
  8
LC-001-100-D00-0
 62
     7
370
    50
100
AcDbLine
 10
100.786745
 20
216.170473
 30
0.0
 11
100.786745
 21
213.170482
 31
0.0
  0
LINE
  5
23C
330
1F
100
AcDbEntity
  8
LC-001-100-D00-0
 62
     7
370
    50
100
AcDbLine
 10
100.786745
 20
216.170473
 30
0.0
 11
100.853412
 21
216.170473
 31
0.0
  0
LINE
  5
23D
330
1F
100
AcDbEntity
  8
LC-001-100-D00-0
 62
     7
370
    50
100
AcDbLine
 10
100.786745
 20
213.170482
 30
0.0
 11
100.853412
 21
213.170482
 31
0.0
  0
LINE
  5
23E
330
1F
100
AcDbEntity
  8
LC-001-100-D00-0
 62
     7
370
    50
100
AcDbLine
 10
86.49807
 20
211.670412
 30
0.0
 11
86.786742
 21
212.170406
 31
0.0
  0
LINE
  5
23F
330
1F
100
AcDbEntity
  8
LC-001-100-D00-0
 62
     7
370
    50
100
AcDbLine
 10
96.786748
 20
212.170212
 30
0.0
 11
96.786748
 21
211.670412
 31
0.0
  0
LINE
  5
240
330
1F
100
AcDbEntity
  8
LC-001-100-D00-0
 62
     7
370
    50
100
AcDbLine
 10
85.786748
 20
196.330859
 30
0.0
 11
85.786748
 21
205.830856
 31
0.0
  0
LINE
  5
241
330
1F
100
AcDbEntity
  8
LC-001-100-D00-0
 62
     7
370
    50
100
AcDbLine
 10
139.786745
 20
127.905401
 30
0.0
 11
139.786745
 21
67.405401
 31
0.0
  0
LINE
  5
242
330
1F
100
AcDbEntity
  8
LC-001-100-D00-0
 62
     7
370
    50
100
AcDbLine
 10
139.786745
 20
67.405401
 30
0.0
 11
183.786745
 21
67.405401
 31
0.0
  0
LINE
  5
243
330
1F
100
AcDbEntity
  8
LC-001-100-D00-0
 62
     7
370
    50
100
AcDbLine
 10
139.786745
 20
127.905401
 30
0.0
 11
183.786745
 21
127.905401
 31
0.0
  0
INSERT
  5
24F
330
1F
100
AcDbEntity
  8
LC-001-100-D00-0
 62
     7
370
    50
100
AcDbBlockReference
  2
POLY9
 10
0.0
 20
0.0
 30
0.0
  0
LINE
  5
250
330
1F
100
AcDbEntity
  8
LC-001-100-D00-0
 62
     7
370
    50
100
AcDbLine
 10
86.786742
 20
211.670412
 30
0.0
 11
86.786742
 21
212.170406
 31
0.0
  0
LINE
  5
251
330
1F
100
AcDbEntity
  8
LC-001-100-D00-0
 62
     7
370
    50
100
AcDbLine
 10
96.786852
 20
212.170406
 30
0.0
 11
97.075525
 21
211.670412
 31
0.0
  0
LINE
  5
252
330
1F
100
AcDbEntity
  8
LC-001-100-D00-0
 62
     7
370
    50
100
AcDbLine
 10
97.786742
 20
211.670412
 30
0.0
 11
97.786742
 21
213.170482
 31
0.0
  0
LINE
  5
253
330
1F
100
AcDbEntity
  8
LC-001-100-D00-0
 62
     7
370
    50
100
AcDbLine
 10
106.786746
 20
140.10167
 30
0.0
 11
106.786746
 21
182.405403
 31
0.0
  0
LINE
  5
254
330
1F
100
AcDbEntity
  8
LC-001-100-D00-0
 62
     7
370
    50
100
AcDbLine
 10
47.286744
 20
214.592947
 30
0.0
 11
47.286744
 21
216.07591
 31
0.0
  0
LINE
  5
255
330
1F
100
AcDbEntity
  8
LC-001-100-D00-0
 62
     7
370
    50
100
AcDbLine
 10
56.6275
 20
217.833711
 30
0.0
 11
76.786744
 21
211.670412
 31
0.0
  0
LINE
  5
256
330
1F
100
AcDbEntity
  8
LC-001-100-D00-0
 62
     7
370
    50
100
AcDbLine
 10
56.6275
 20
217.833711
 30
0.0
 11
87.479833
 21
217.833711
 31
0.0
  0
LINE
  5
257
330
1F
100
AcDbEntity
  8
LC-001-100-D00-0
 62
     7
370
    50
100
AcDbLine
 10
96.093657
 20
217.833711
 30
0.0
 11
100.786745
 21
217.833711
 31
0.0
  0
LINE
  5
258
330
1F
100
AcDbEntity
  8
LC-001-100-D00-0
 62
     7
370
    50
100
AcDbLine
 10
222.786746
 20
217.833711
 30
0.0
 11
266.945991
 21
217.833711
 31
0.0
  0
LINE
  5
259
330
1F
100
AcDbEntity
  8
LC-001-100-D00-0
 62
     7
370
    50
100
AcDbLine
 10
85.786748
 20
208.170412
 30
0.0
 11
85.786748
 21
211.670412
 31
0.0
  0
LINE
  5
25A
330
1F
100
AcDbEntity
  8
LC-001-100-D00-0
 62
     7
370
    50
100
AcDbLine
 10
136.786745
 20
70.905401
 30
0.0
 11
136.786745
 21
125.405399
 31
0.0
  0
LINE
  5
25B
330
1F
100
AcDbEntity
  8
LC-001-100-D00-0
 62
     7
370
    15
100
AcDbLine
 10
56.268777
 20
214.28345
 30
0.0
 11
76.135474
 21
208.209602
 31
0.0
  0
ARC
  5
25C
330
1F
100
AcDbEntity
  8
LC-001-100-D00-0
 62
     7
370
    50
100
AcDbCircle
 10
91.786745
 20
200.405401
 30
0.0
 40
5.000000000000004
100
AcDbArc
 50
234.578322
 51
305.421678
  0
LINE
  5
25D
330
1F
100
AcDbEntity
  8
LC-001-100-D00-0
 62
     7
370
    50
100
AcDbLine
 10
137.724568
 20
67.405401
 30
0.0
 11
139.786745
 21
67.405401
 31
0.0
  0
LINE
  5
25E
330
1F
100
AcDbEntity
  8
LC-001-100-D00-0
 62
     7
370
    50
100
AcDbLine
 10
136.786745
 20
70.905401
 30
0.0
 11
137.724568
 21
67.405401
 31
0.0
  0
LINE
  5
25F
330
1F
100
AcDbEntity
  8
LC-001-100-D00-0
 62
     7
370
    50
100
AcDbLine
 10
110.12883
 20
127.628939
 30
0.0
 11
106.786746
 21
140.10167
 31
0.0
  0
LINE
  5
260
330
1F
100
AcDbEntity
  8
LC-001-100-D00-0
 62
     7
370
    50
100
AcDbLine
 10
78.813876
 20
205.830856
 30
0.0
 11
85.786748
 21
205.830856
 31
0.0
  0
LINE
  5
261
330
1F
100
AcDbEntity
  8
LC-001-100-D00-0
 62
     7
370
    50
100
AcDbLine
 10
76.135474
 20
208.209602
 30
0.0
 11
78.813876
 21
205.830856
 31
0.0
  0
LINE
  5
262
330
1F
100
AcDbEntity
  8
LC-001-100-D00-0
 62
     7
370
    50
100
AcDbLine
 10
47.286744
 20
214.592947
 30
0.0
 11
56.268777
 21
214.28345
 31
0.0
  0
ARC
  5
263
330
1F
100
AcDbEntity
  8
LC-001-100-D00-0
 62
     7
370
    50
100
AcDbCircle
 10
49.286745
 20
216.075915
 30
0.0
 40
2.000000000000045
100
AcDbArc
 50
88.101637
 51
180.0
  0
LINE
  5
264
330
1F
100
AcDbEntity
  8
LC-001-100-D00-0
 62
     7
370
    50
100
AcDbLine
 10
49.352999
 20
218.074812
 30
0.0
 11
56.6275
 21
217.833711
 31
0.0
  0
LINE
  5
265
330
1F
100
AcDbEntity
  8
LC-001-100-D00-0
 62
     7
370
    50
100
AcDbLine
 10
76.786744
 20
211.670412
 30
0.0
 11
78.786748
 21
211.670412
 31
0.0
  0
LINE
  5
266
330
1F
100
AcDbEntity
  8
LC-001-100-D00-0
 62
     7
370
    50
100
AcDbLine
 10
78.786748
 20
211.670412
 30
0.0
 11
78.786748
 21
208.170412
 31
0.0
  0
LINE
  5
267
330
1F
100
AcDbEntity
  8
LC-001-100-D00-0
 62
     7
370
    50
100
AcDbLine
 10
78.786748
 20
208.170412
 30
0.0
 11
85.786748
 21
208.170412
 31
0.0
  0
LINE
  5
268
330
1F
100
AcDbEntity
  8
LC-001-100-D00-0
 62
     7
370
    50
100
AcDbLine
 10
98.786744
 20
213.170482
 30
0.0
 11
97.786742
 21
213.170482
 31
0.0
  0
LINE
  5
269
330
1F
100
AcDbEntity
  8
LC-001-100-D00-0
 62
     7
370
    50
100
AcDbLine
 10
97.075525
 20
211.670412
 30
0.0
 11
97.786742
 21
211.670412
 31
0.0
  0
LINE
  5
26A
330
1F
100
AcDbEntity
  8
LC-001-100-D00-0
 62
     7
370
    50
100
AcDbLine
 10
94.286743
 20
211.670412
 30
0.0
 11
96.786748
 21
211.670412
 31
0.0
  0
LINE
  5
26B
330
1F
100
AcDbEntity
  8
LC-001-100-D00-0
 62
     7
370
    50
100
AcDbLine
 10
86.786742
 20
211.670412
 30
0.0
 11
89.286747
 21
211.670412
 31
0.0
  0
LINE
  5
26C
330
1F
100
AcDbEntity
  8
LC-001-100-D00-0
 62
     7
370
    50
100
AcDbLine
 10
139.786745
 20
127.905401
 30
0.0
 11
115.356765
 21
127.905401
 31
0.0
  0
LINE
  5
26D
330
1F
100
AcDbEntity
  8
LC-001-100-D00-0
 62
     7
370
    50
100
AcDbLine
 10
85.786748
 20
211.670412
 30
0.0
 11
86.49807
 21
211.670412
 31
0.0
  0
LINE
  5
26E
330
1F
100
AcDbEntity
  8
LC-001-100-D00-0
 62
     7
370
    50
100
AcDbLine
 10
100.786745
 20
216.170473
 30
0.0
 11
98.786744
 21
216.170473
 31
0.0
  0
LINE
  5
26F
330
1F
100
AcDbEntity
  8
LC-001-100-D00-0
 62
     7
370
    50
100
AcDbLine
 10
106.786746
 20
182.405403
 30
0.0
 11
101.786747
 21
182.405403
 31
0.0
  0
LINE
  5
270
330
1F
100
AcDbEntity
  8
LC-001-100-D00-0
 62
     7
370
    50
100
AcDbLine
 10
94.684693
 20
196.330859
 30
0.0
 11
98.786744
 21
196.330859
 31
0.0
  0
LINE
  5
271
330
1F
100
AcDbEntity
  8
LC-001-100-D00-0
 62
     7
370
    50
100
AcDbLine
 10
85.786748
 20
196.330859
 30
0.0
 11
88.888797
 21
196.330859
 31
0.0
  0
LINE
  5
272
330
1F
100
AcDbEntity
  8
LC-001-100-D00-0
 62
     7
370
    50
100
AcDbLine
 10
101.786747
 20
185.405402
 30
0.0
 11
109.786744
 21
185.405402
 31
0.0
  0
LINE
  5
273
330
1F
100
AcDbEntity
  8
LC-001-100-D00-0
 62
     7
370
    50
100
AcDbLine
 10
93.786742
 20
198.670401
 30
0.0
 11
89.786748
 21
198.670401
 31
0.0
  0
LINE
  5
274
330
1F
100
AcDbEntity
  8
LC-001-100-D00-0
 62
     7
370
    50
100
AcDbLine
 10
136.786745
 20
125.405399
 30
0.0
 11
113.026603
 21
125.405399
 31
0.0
  0
LINE
  5
275
330
1F
100
AcDbEntity
  8
LC-001-100-D00-0
 62
     7
370
    50
100
AcDbLine
 10
100.786745
 20
213.170482
 30
0.0
 11
100.78664
 21
213.170482
 31
0.0
  0
INSERT
  5
289
330
1F
100
AcDbEntity
  8
LC-001-100-D00-0
 62
     7
370
    50
100
AcDbBlockReference
  2
POLY10
 10
0.0
 20
0.0
 30
0.0
  0
LINE
  5
28A
330
1F
100
AcDbEntity
  8
LC-001-100-D00-0
 62
     7
370
    50
100
AcDbLine
 10
49.352999
 20
218.074812
 30
0.0
 11
87.794098
 21
218.074812
 31
0.0
  0
LINE
  5
28B
330
1F
100
AcDbEntity
  8
LC-001-100-D00-0
 62
     7
370
    50
100
AcDbLine
 10
95.779392
 20
218.074812
 30
0.0
 11
100.786745
 21
218.074812
 31
0.0
  0
LINE
  5
28C
330
1F
100
AcDbEntity
  8
LC-001-100-D00-0
 62
     7
370
    50
100
AcDbLine
 10
222.786746
 20
218.074812
 30
0.0
 11
274.220492
 21
218.074812
 31
0.0
  0
LINE
  5
28D
330
1F
100
AcDbEntity
  8
LC-001-100-D00-0
 62
     7
370
    50
100
AcDbLine
 10
78.786748
 20
211.670412
 30
0.0
 11
85.786748
 21
211.670412
 31
0.0
  0
LINE
  5
28E
330
1F
100
AcDbEntity
  8
LC-001-100-D00-0
 62
     7
370
    50
100
AcDbLine
 10
237.786743
 20
211.670412
 30
0.0
 11
244.786742
 21
211.670412
 31
0.0
  0
INSERT
  5
298
330
1F
100
AcDbEntity
  8
LC-001-100-D00-0
 62
     7
370
    50
100
AcDbBlockReference
  2
POLY11
 10
0.0
 20
0.0
 30
0.0
  0
INSERT
  5
2A2
330
1F
100
AcDbEntity
  8
LC-001-100-D00-0
 62
     7
370
    50
100
AcDbBlockReference
  2
POLY12
 10
0.0
 20
0.0
 30
0.0
  0
INSERT
  5
2AC
330
1F
100
AcDbEntity
  8
LC-001-100-D00-0
 62
     7
370
    50
100
AcDbBlockReference
  2
POLY13
 10
0.0
 20
0.0
 30
0.0
  0
INSERT
  5
2B6
330
1F
100
AcDbEntity
  8
LC-001-100-D00-0
 62
     7
370
    50
100
AcDbBlockReference
  2
POLY14
 10
0.0
 20
0.0
 30
0.0
  0
INSERT
  5
2C0
330
1F
100
AcDbEntity
  8
LC-001-100-D00-0
 62
     7
370
    50
100
AcDbBlockReference
  2
POLY15
 10
0.0
 20
0.0
 30
0.0
  0
INSERT
  5
2CA
330
1F
100
AcDbEntity
  8
LC-001-100-D00-0
 62
     7
370
    50
100
AcDbBlockReference
  2
POLY16
 10
0.0
 20
0.0
 30
0.0
  0
INSERT
  5
2D4
330
1F
100
AcDbEntity
  8
LC-001-100-D00-0
 62
     7
370
    50
100
AcDbBlockReference
  2
POLY17
 10
0.0
 20
0.0
 30
0.0
  0
INSERT
  5
2DE
330
1F
100
AcDbEntity
  8
LC-001-100-D00-0
 62
     7
370
    50
100
AcDbBlockReference
  2
POLY18
 10
0.0
 20
0.0
 30
0.0
  0
INSERT
  5
2E8
330
1F
100
AcDbEntity
  8
LC-001-100-D00-0
 62
     7
370
    50
100
AcDbBlockReference
  2
POLY19
 10
0.0
 20
0.0
 30
0.0
  0
INSERT
  5
2F2
330
1F
100
AcDbEntity
  8
LC-001-100-D00-0
 62
     7
370
    50
100
AcDbBlockReference
  2
POLY20
 10
0.0
 20
0.0
 30
0.0
  0
INSERT
  5
2FC
330
1F
100
AcDbEntity
  8
LC-001-100-D00-0
 62
     7
370
    50
100
AcDbBlockReference
  2
POLY21
 10
0.0
 20
0.0
 30
0.0
  0
INSERT
  5
306
330
1F
100
AcDbEntity
  8
LC-001-100-D00-0
 62
     7
370
    50
100
AcDbBlockReference
  2
POLY22
 10
0.0
 20
0.0
 30
0.0
  0
INSERT
  5
326
330
1F
100
AcDbEntity
  8
LC-001-100-D00-0
 62
     7
370
    25
100
AcDbBlockReference
  2
KLON21
 10
0.0
 20
0.0
 30
0.0
  0
INSERT
  5
344
330
1F
100
AcDbEntity
  8
LC-001-100-D00-0
 62
     7
370
    25
100
AcDbBlockReference
  2
KLON22
 10
0.0
 20
0.0
 30
0.0
  0
INSERT
  5
34B
330
1F
100
AcDbEntity
  8
LC-001-100-D00-0
 62
     7
370
    50
100
AcDbBlockReference
  2
KLON23
 10
0.0
 20
0.0
 30
0.0
  0
INSERT
  5
353
330
1F
100
AcDbEntity
  8
LC-001-100-D00-0
 62
     7
370
    25
100
AcDbBlockReference
  2
KLON24
 10
0.0
 20
0.0
 30
0.0
  0
INSERT
  5
35B
330
1F
100
AcDbEntity
  8
LC-001-100-D00-0
 62
     7
370
    25
100
AcDbBlockReference
  2
KLON25
 10
0.0
 20
0.0
 30
0.0
  0
INSERT
  5
363
330
1F
100
AcDbEntity
  8
LC-001-100-D00-0
 62
     7
370
    25
100
AcDbBlockReference
  2
KLON26
 10
0.0
 20
0.0
 30
0.0
  0
INSERT
  5
36C
330
1F
100
AcDbEntity
  8
LC-001-100-D00-0
 62
     7
370
    25
100
AcDbBlockReference
  2
KLON27
 10
0.0
 20
0.0
 30
0.0
  0
INSERT
  5
372
330
1F
100
AcDbEntity
  8
LC-001-100-D00-0
 62
     7
370
    50
100
AcDbBlockReference
  2
KLON28
 10
0.0
 20
0.0
 30
0.0
  0
LINE
  5
373
330
1F
100
AcDbEntity
  8
LC-001-100-D00-0
 62
     7
370
    50
100
AcDbLine
 10
216.502297
 20
185.405401
 30
0.0
 11
221.036745
 21
189.939849
 31
0.0
  0
LINE
  5
375
330
1F
100
AcDbEntity
  8
LC-001-100-D00-0
  6
DASHDOT
 62
     7
370
    25
100
AcDbLine
 10
161.786745
 20
67.405401
 30
0.0
 11
161.786745
 21
226.170404
 31
0.0
  0
DIMENSION
  5
379
330
1F
100
AcDbEntity
  8
LC-002-003-----0
 62
     7
370
    25
100
AcDbDimension
  2
*D51
 10
276.286746
 20
257.485401
 30
0.0
 11
161.757262
 21
288.285401
 31
0.0
 70
   160
  1
%%c230
 71
     5
 42
229.000002
  3
LC-DIM-L-0140-02-02
100
AcDbAlignedDimension
 13
47.286744
 23
214.592947
 33
0.0
 14
276.286746
 24
214.592947
 34
0.0
100
AcDbRotatedDimension
  0
DIMENSION
  5
387
330
1F
100
AcDbEntity
  8
LC-002-003-----0
 62
     7
370
    25
100
AcDbDimension
  2
*D52
 10
224.786746
 20
-51.273363
 30
0.0
 11
156.912329
 21
-20.473363
 31
0.0
 70
   160
  1
%%c<>
 71
     5
 42
126.000002
  3
LC-DIM-L-0140-02-02
100
AcDbAlignedDimension
 13
98.786744
 23
185.405402
 33
0.0
 14
224.786746
 24
185.405402
 34
0.0
100
AcDbRotatedDimension
  0
DIMENSION
  5
394
330
1F
100
AcDbEntity
  8
LC-002-003-----0
 62
     7
370
    25
100
AcDbDimension
  2
*D53
 10
216.786745
 20
-1.377363
 30
0.0
 11
157.837328
 21
29.422637
 31
0.0
 70
   160
  1
%%c<>
 71
     5
 42
110.0
  3
LC-DIM-L-0140-02-02
100
AcDbAlignedDimension
 13
106.786746
 23
140.10167
 33
0.0
 14
216.786745
 24
140.788569
 34
0.0
100
AcDbRotatedDimension
  0
DIMENSION
  5
3A1
330
1F
100
AcDbEntity
  8
LC-002-003-----0
 62
     7
370
    25
100
AcDbDimension
  2
*D54
 10
186.786745
 20
56.834637
 30
0.0
 11
266.987191
 21
87.634637
 31
0.0
 70
   160
  1
DN50
 71
     5
 42
50.0
  3
LC-DIM-L-0140-02-02
100
AcDbAlignedDimension
 13
136.786745
 23
70.905401
 33
0.0
 14
186.786745
 24
74.867544
 34
0.0
100
AcDbRotatedDimension
  0
DIMENSION
  5
3AF
330
1F
100
AcDbEntity
  8
LC-002-003-----0
 62
     7
370
    25
100
AcDbDimension
  2
*D55
 10
35.708464
 20
125.405399
 30
0.0
 11
4.908464
 21
170.761401
 31
0.0
 70
   160
  1
90
 71
     5
 42
89.187548
 53
90.0
  3
LC-DIM-L-0140-02-02
100
AcDbAlignedDimension
 13
47.286744
 23
214.592947
 33
0.0
 14
113.026603
 24
125.405399
 34
0.0
 50
90.0
100
AcDbRotatedDimension
  0
DIMENSION
  5
3BC
330
1F
100
AcDbEntity
  8
LC-002-003-----0
 62
     7
370
    25
100
AcDbDimension
  2
*D56
 10
67.910712
 20
67.405401
 30
0.0
 11
37.110712
 21
98.293401
 31
0.0
 70
   160
 71
     5
 42
57.999998
 53
90.0
  3
LC-DIM-L-0140-02-02
100
AcDbAlignedDimension
 13
113.026603
 23
125.405399
 33
0.0
 14
139.786745
 24
67.405401
 34
0.0
 50
90.0
100
AcDbRotatedDimension
  0
ENDSEC
  0
SECTION
  2
OBJECTS
  0
DICTIONARY
  5
C
330
0
100
AcDbDictionary
281
     1
  3
ACAD_GROUP
350
D
  3
ACAD_LAYOUT
350
1A
  3
ACAD_MLINESTYLE
350
17
  3
ACAD_PLOTSETTINGS
350
19
  3
ACAD_PLOTSTYLENAME
350
E
  0
DICTIONARY
  5
D
102
{ACAD_REACTORS
330
C
102
}
330
C
100
AcDbDictionary
281
     1
  0
DICTIONARY
  5
1A
102
{ACAD_REACTORS
330
C
102
}
330
C
100
AcDbDictionary
281
     1
  3
Layout1
350
1E
  3
Layout2
350
26
  3
Model
350
22
  0
DICTIONARY
  5
17
102
{ACAD_REACTORS
330
C
102
}
330
C
100
AcDbDictionary
281
     1
  3
Standard
350
18
  0
DICTIONARY
  5
19
102
{ACAD_REACTORS
330
C
102
}
330
C
100
AcDbDictionary
281
     1
  0
ACDBDICTIONARYWDFLT
  5
E
102
{ACAD_REACTORS
330
C
102
}
330
C
100
AcDbDictionary
281
     1
  3
Normal
350
F
100
AcDbDictionaryWithDefault
340
F
  0
LAYOUT
  5
1E
102
{ACAD_REACTORS
330
1A
102
}
330
1A
100
AcDbPlotSettings
  1

  2

  4

  6

 40
0.0
 41
0.0
 42
0.0
 43
0.0
 44
0.0
 45
0.0
 46
0.0
 47
0.0
 48
0.0
 49
0.0
140
0.0
141
0.0
142
1.0
143
1.0
 70
   688
 72
     0
 73
     0
 74
     5
  7

 75
    16
147
1.0
148
0.0
149
0.0
100
AcDbLayout
  1
Layout1
 70
     1
 71
     1
 10
-215.919784
 20
-150.592599
 11
624.080216
 21
443.407401
 12
0.0
 22
0.0
 32
0.0
 14
-215.919784
 24
-150.592599
 34
0.0
 15
624.080216
 25
443.407401
 35
0.0
146
0.0
 13
0.0
 23
0.0
 33
0.0
 16
1.0
 26
0.0
 36
0.0
 17
0.0
 27
1.0
 37
0.0
 76
     0
330
1B
  0
LAYOUT
  5
26
102
{ACAD_REACTORS
330
1A
102
}
330
1A
100
AcDbPlotSettings
  1

  2

  4

  6

 40
0.0
 41
0.0
 42
0.0
 43
0.0
 44
0.0
 45
0.0
 46
0.0
 47
0.0
 48
0.0
 49
0.0
140
0.0
141
0.0
142
1.0
143
1.0
 70
   688
 72
     0
 73
     0
 74
     5
  7

 75
    16
147
1.0
148
0.0
149
0.0
100
AcDbLayout
  1
Layout2
 70
     1
 71
     2
 10
0.0
 20
0.0
 11
0.0
 21
0.0
 12
0.0
 22
0.0
 32
0.0
 14
0.0
 24
0.0
 34
0.0
 15
0.0
 25
0.0
 35
0.0
146
0.0
 13
0.0
 23
0.0
 33
0.0
 16
1.0
 26
0.0
 36
0.0
 17
0.0
 27
1.0
 37
0.0
 76
     0
330
23
  0
LAYOUT
  5
22
102
{ACAD_REACTORS
330
1A
102
}
330
1A
100
AcDbPlotSettings
  1

  2

  4

  6

 40
0.0
 41
0.0
 42
0.0
 43
0.0
 44
0.0
 45
0.0
 46
0.0
 47
0.0
 48
0.0
 49
0.0
140
0.0
141
0.0
142
1.0
143
1.0
 70
  1776
 72
     0
 73
     0
 74
     0
  7

 75
     0
147
1.0
148
0.0
149
0.0
100
AcDbLayout
  1
Model
 70
     1
 71
     0
 10
-215.919784
 20
-150.592599
 11
624.080216
 21
443.407401
 12
0.0
 22
0.0
 32
0.0
 14
-215.919784
 24
-150.592599
 34
0.0
 15
624.080216
 25
443.407401
 35
0.0
146
0.0
 13
0.0
 23
0.0
 33
0.0
 16
1.0
 26
0.0
 36
0.0
 17
0.0
 27
1.0
 37
0.0
 76
     0
330
1F
  0
MLINESTYLE
  5
18
102
{ACAD_REACTORS
330
17
102
}
330
17
100
AcDbMlineStyle
  2
Standard
 70
     0
  3

 62
   256
 51
90.0
 52
90.0
 71
     2
 49
0.5
 62
   256
  6
BYLAYER
 49
-0.5
 62
   256
  6
BYLAYER
  0
ACDBPLACEHOLDER
  5
F
102
{ACAD_REACTORS
330
E
102
}
330
E
  0
ENDSEC
  0
EOF
