  0
SECTION
  2
HEADER
  9
$ACADVER
  1
AC1009
  9
$INSBASE
 10
-62.851842
 20
256.220338
 30
0.0
  9
$EXTMIN
 10
-62.851842
 20
256.220338
 30
0.0
  9
$EXTMAX
 10
777.148158
 20
850.220338
 30
0.0
  9
$LIMMIN
 10
-62.851842
 20
256.220338
  9
$LIMMAX
 10
777.148158
 20
850.220338
  9
$ORTHOMODE
 70
     0
  9
$REGENMODE
 70
     1
  9
$FILLMODE
 70
     1
  9
$QTEXTMODE
 70
     0
  9
$MIRRTEXT
 70
     1
  9
$DRAGMODE
 70
     2
  9
$LTSCALE
 40
2.0
  9
$OSMODE
 70
     0
  9
$ATTMODE
 70
     1
  9
$TEXTSIZE
 40
0.2
  9
$TRACEWID
 40
0.05
  9
$TEXTSTYLE
  7
STANDARD
  9
$CLAYER
  8
0
  9
$CELTYPE
  6
BYLAYER
  9
$CECOLOR
 62
     7
  9
$DIMSCALE
 40
2.0
  9
$DIMASZ
 40
3.5
  9
$DIMEXO
 40
0.0625
  9
$DIMDLI
 40
0.38
  9
$DIMRND
 40
0.0
  9
$DIMDLE
 40
0.0
  9
$DIMEXE
 40
0.18
  9
$DIMTP
 40
0.0
  9
$DIMTM
 40
0.0
  9
$DIMTXT
 40
3.5
  9
$DIMCEN
 40
0.09
  9
$DIMTSZ
 40
0.0
  9
$DIMTOL
 70
     0
  9
$DIMLIM
 70
     0
  9
$DIMTIH
 70
     1
  9
$DIMTOH
 70
     1
  9
$DIMSE1
 70
     0
  9
$DIMSE2
 70
     0
  9
$DIMTAD
 70
     1
  9
$DIMZIN
 70
     0
  9
$DIMBLK
  1

  9
$DIMASO
 70
     1
  9
$DIMSHO
 70
     1
  9
$DIMPOST
  1

  9
$DIMAPOST
  1

  9
$DIMALT
 70
     0
  9
$DIMALTD
 70
     2
  9
$DIMALTF
 40
25.4
  9
$DIMLFAC
 40
1.0
  9
$DIMTOFL
 70
     0
  9
$DIMTVP
 40
0.0
  9
$DIMTIX
 70
     0
  9
$DIMSOXD
 70
     0
  9
$DIMSAH
 70
     0
  9
$DIMBLK1
  1

  9
$DIMBLK2
  1

  9
$DIMSTYLE
  2
STANDARD
  9
$DIMCLRD
 70
     0
  9
$DIMCLRE
 70
     0
  9
$DIMCLRT
 70
     0
  9
$DIMTFAC
 40
1.0
  9
$DIMGAP
 40
0.09
  9
$LUNITS
 70
     2
  9
$LUPREC
 70
     2
  9
$AXISMODE
 70
     0
  9
$AXISUNIT
 10
0.0
 20
0.0
  9
$SKETCHINC
 40
0.1
  9
$FILLETRAD
 40
0.0
  9
$AUNITS
 70
     0
  9
$AUPREC
 70
     0
  9
$MENU
  1
acad
  9
$ELEVATION
 40
0.0
  9
$PELEVATION
 40
0.0
  9
$THICKNESS
 40
0.0
  9
$LIMCHECK
 70
     0
  9
$BLIPMODE
 70
     1
  9
$CHAMFERA
 40
0.0
  9
$CHAMFERB
 40
0.0
  9
$SKPOLY
 70
     0
  9
$TDCREATE
 40
0.000000000
  9
$TDUPDATE
 40
0.000000000
  9
$TDINDWG
 40
0.0000000000
  9
$TDUSRTIMER
 40
0.0000000000
  9
$USRTIMER
 70
     1
  9
$ANGBASE
 50
0.0
  9
$ANGDIR
 70
     0
  9
$PDMODE
 70
     0
  9
$PDSIZE
 40
0.0
  9
$PLINEWID
 40
0.0
  9
$COORDS
 70
     0
  9
$SPLFRAME
 70
     0
  9
$SPLINETYPE
 70
     6
  9
$SPLINESEGS
 70
     8
  9
$ATTDIA
 70
     0
  9
$ATTREQ
 70
     1
  9
$HANDLING
 70
     1
  9
$HANDSEED
  5
1CD
  9
$SURFTAB1
 70
     6
  9
$SURFTAB2
 70
     6
  9
$SURFTYPE
 70
     6
  9
$SURFU
 70
     6
  9
$SURFV
 70
     6
  9
$UCSNAME
  2

  9
$UCSORG
 10
0.0
 20
0.0
 30
0.0
  9
$UCSXDIR
 10
1.0
 20
0.0
 30
0.0
  9
$UCSYDIR
 10
0.0
 20
1.0
 30
0.0
  9
$PUCSNAME
  2

  9
$PUCSORG
 10
0.0
 20
0.0
 30
0.0
  9
$PUCSXDIR
 10
1.0
 20
0.0
 30
0.0
  9
$PUCSYDIR
 10
0.0
 20
1.0
 30
0.0
  9
$USERI1
 70
     0
  9
$USERI2
 70
     0
  9
$USERI3
 70
     0
  9
$USERI4
 70
     0
  9
$USERI5
 70
     0
  9
$USERR1
 40
0.0
  9
$USERR2
 40
0.0
  9
$USERR3
 40
0.0
  9
$USERR4
 40
0.0
  9
$USERR5
 40
0.0
  9
$WORLDVIEW
 70
     1
  9
$SHADEDGE
 70
     3
  9
$SHADEDIF
 70
    70
  9
$TILEMODE
 70
     1
  9
$MAXACTVP
 70
    16
  9
$PINSBASE
 10
0.0
 20
0.0
 30
0.0
  9
$PLIMCHECK
 70
     0
  9
$PEXTMIN
 10
1.000000E+20
 20
1.000000E+20
 30
1.000000E+20
  9
$PEXTMAX
 10
-1.000000E+20
 20
-1.000000E+20
 30
-1.000000E+20
  9
$PLIMMIN
 10
-62.851842
 20
256.220338
  9
$PLIMMAX
 10
777.148158
 20
850.220338
  9
$UNITMODE
 70
     0
  9
$VISRETAIN
 70
     0
  9
$PLINEGEN
 70
     1
  9
$PSLTSCALE
 70
     0
  9
$TREEDEPTH
 70
  3020
  9
$DWGCODEPAGE
  3
dos850
  0
ENDSEC
  0
SECTION
  2
TABLES
  0
TABLE
  2
VPORT
 70
     1
  0
VPORT
  2
*ACTIVE
 70
     0
 10
0.0
 20
0.0
 11
1.0
 21
1.0
 12
420.0
 22
297.0
 13
0.0
 23
0.0
 14
1.0
 24
1.0
 15
0.0
 25
0.0
 16
0.0
 26
0.0
 36
1.0
 17
-62.851842
 27
256.220338
 37
0.0
 40
594.0
 41
1.604229
 42
50.0
 43
0.0
 44
0.0
 50
0.0
 51
0.0
 71
     0
 72
   100
 73
     1
 74
     1
 75
     0
 76
     0
 77
     0
 78
     0
  0
ENDTAB
  0
TABLE
  2
LTYPE
 70
     2
  0
LTYPE
  2
CONTINUOUS
 70
    64
  3
Solid line
 72
    65
 73
     0
 40
0.0
  0
LTYPE
  2
DASHDOT
 70
    64
  3
__ . __ . __ . __ . __
 72
    65
 73
     4
 40
7.5
 49
5.0
 49
-1.25
 49
0.0
 49
-1.25
  0
ENDTAB
  0
TABLE
  2
LAYER
 70
    11
  0
LAYER
  2
0
 70
     0
 62
     7
  6
CONTINUOUS
  0
LAYER
  2
LC-INFO-1-2-MM-A3-0
 70
     1
 62
    -1
  6
CONTINUOUS
  0
LAYER
  2
LC-004-003-MTH-0
 70
     0
 62
     2
  6
CONTINUOUS
  0
LAYER
  2
LC-005-003-MTG-0
 70
     0
 62
     2
  6
CONTINUOUS
  0
LAYER
  2
LC-003-003-----0
 70
     0
 62
     2
  6
CONTINUOUS
  0
LAYER
  2
LC-006-000-----0
 70
     0
 62
     7
  6
CONTINUOUS
  0
LAYER
  2
LC-008-000-----0
 70
     0
 62
     7
  6
CONTINUOUS
  0
LAYER
  2
LC-001-002-----0
 70
     0
 62
     1
  6
CONTINUOUS
  0
LAYER
  2
LC-002-002-RND-0
 70
     0
 62
     1
  6
CONTINUOUS
  0
LAYER
  2
LC-007-005-----0
 70
     0
 62
     2
  6
CONTINUOUS
  0
LAYER
  2
LC-000
 70
     0
 62
     7
  6
CONTINUOUS
  0
ENDTAB
  0
TABLE
  2
STYLE
 70
     4
  0
STYLE
  2
STANDARD
 70
     0
 40
0.0
 41
1.0
 50
0.0
 71
     0
 42
0.0
  3
txt
  4

  0
STYLE
  2
LC-STANDARD
 70
    64
 40
0.0
 41
1.0
 50
0.0
 71
     0
 42
3.5
  3
MONOTXT
  4

  0
STYLE
  2
LC-TXTSTYLE-150-400-0-0-D2
 70
    64
 40
0.0
 41
1.0
 50
15.0
 71
     0
 42
3.5
  3
MONOTXT
  4

  0
STYLE
  2
LC-TXTSTYLE-150-400-0-0-D3
 70
    64
 40
0.0
 41
1.0
 50
15.0
 71
     0
 42
3.5
  3
LC-STANDARD
  4

  0
ENDTAB
  0
TABLE
  2
VIEW
 70
     0
  0
ENDTAB
  0
TABLE
  2
UCS
 70
     0
  0
ENDTAB
  0
TABLE
  2
APPID
 70
     1
  0
APPID
  2
ACAD
 70
     0
  0
ENDTAB
  0
TABLE
  2
DIMSTYLE
 70
     3
  0
DIMSTYLE
  2
STANDARD
 70
     0
  3

  4

  5

  6

  7

 40
1.0
 41
0.18
 42
0.0625
 43
0.38
 44
0.18
 45
0.0
 46
0.0
 47
0.0
 48
0.0
 71
     0
 72
     0
 73
     1
 74
     1
 75
     0
 76
     0
 77
     0
 78
     0
140
0.18
141
0.09
142
0.0
143
25.4
144
1.0
145
0.0
146
1.0
147
0.09
170
     0
171
     2
172
     0
173
     0
174
     0
175
     0
176
     0
177
     0
178
     0
  0
DIMSTYLE
  2
LC-STANDARD
 70
     0
  3

  4

  5

  6

  7

 40
1.0
 41
3.5
 42
0.0
 43
7.5
 44
1.8
 45
0.0
 46
0.0
 47
0.0
 48
0.0
 71
     0
 72
     0
 73
     0
 74
     0
 75
     0
 76
     0
 77
     1
 78
     8
140
3.5
141
0.0
142
0.0
143
25.4
144
1.0
145
0.0
146
0.71
147
1.5
170
     0
171
     2
172
     1
173
     0
174
     0
175
     0
176
     0
177
     0
178
     3
  0
DIMSTYLE
  2
LC-DIM-L-0090-02-02
 70
     0
  3

  4

  5

  6

  7

 40
2.0
 41
3.5
 42
0.0
 43
7.5
 44
1.8
 45
0.0
 46
0.0
 47
0.0
 48
0.0
 71
     0
 72
     0
 73
     0
 74
     0
 75
     0
 76
     0
 77
     1
 78
     8
140
9.0
141
0.0
142
0.0
143
25.4
144
1.0
145
0.0
146
0.71
147
1.5
170
     0
171
     2
172
     0
173
     0
174
     0
175
     0
176
     2
177
     2
178
     6
  0
ENDTAB
  0
ENDSEC
  0
SECTION
  2
BLOCKS
  0
BLOCK
  8
0
  5
23
  2
*D0
 70
    65
 10
0.0
 20
0.0
 30
0.0
  3
*D0
  0
LINE
  8
LC-004-003-MTH-0
  6
CONTINUOUS
  5
25
 10
231.81646
 20
674.252737
 30
0.0
 11
231.81646
 21
730.8
 31
0.0
  0
LINE
  8
LC-004-003-MTH-0
  6
CONTINUOUS
  5
26
 10
415.329154
 20
674.252737
 30
0.0
 11
415.329154
 21
730.8
 31
0.0
  0
LINE
  8
LC-005-003-MTG-0
  6
CONTINUOUS
  5
28
 10
231.81646
 20
720.0
 30
0.0
 11
415.329154
 21
720.0
 31
0.0
  0
LINE
  8
LC-003-003-----0
  6
CONTINUOUS
  5
2A
 10
249.662468
 20
722.349471
 30
0.0
 11
231.81646
 21
720.0
 31
0.0
  0
LINE
  8
LC-003-003-----0
  6
CONTINUOUS
  5
2B
 10
231.81646
 20
720.0
 30
0.0
 11
249.662468
 21
717.650529
 31
0.0
  0
LINE
  8
LC-003-003-----0
  6
CONTINUOUS
  5
2C
 10
249.662468
 20
717.650529
 30
0.0
 11
249.662468
 21
722.349471
 31
0.0
  0
LINE
  8
LC-003-003-----0
  6
CONTINUOUS
  5
2D
 10
249.702506
 20
721.738609
 30
0.0
 11
236.49646
 21
720.0
 31
0.0
  0
LINE
  8
LC-003-003-----0
  6
CONTINUOUS
  5
2E
 10
236.49646
 20
720.0
 30
0.0
 11
249.702506
 21
718.261391
 31
0.0
  0
LINE
  8
LC-003-003-----0
  6
CONTINUOUS
  5
2F
 10
249.742544
 20
721.127746
 30
0.0
 11
241.17646
 21
720.0
 31
0.0
  0
LINE
  8
LC-003-003-----0
  6
CONTINUOUS
  5
30
 10
241.17646
 20
720.0
 30
0.0
 11
249.742544
 21
718.872254
 31
0.0
  0
LINE
  8
LC-003-003-----0
  6
CONTINUOUS
  5
31
 10
249.782582
 20
720.516884
 30
0.0
 11
245.85646
 21
720.0
 31
0.0
  0
LINE
  8
LC-003-003-----0
  6
CONTINUOUS
  5
32
 10
245.85646
 20
720.0
 30
0.0
 11
249.782582
 21
719.483116
 31
0.0
  0
LINE
  8
LC-003-003-----0
  6
CONTINUOUS
  5
33
 10
397.483147
 20
717.650529
 30
0.0
 11
415.329154
 21
720.0
 31
0.0
  0
LINE
  8
LC-003-003-----0
  6
CONTINUOUS
  5
34
 10
415.329154
 20
720.0
 30
0.0
 11
397.483147
 21
722.349471
 31
0.0
  0
LINE
  8
LC-003-003-----0
  6
CONTINUOUS
  5
35
 10
397.483147
 20
722.349471
 30
0.0
 11
397.483147
 21
717.650529
 31
0.0
  0
LINE
  8
LC-003-003-----0
  6
CONTINUOUS
  5
36
 10
397.443108
 20
718.261391
 30
0.0
 11
410.649154
 21
720.0
 31
0.0
  0
LINE
  8
LC-003-003-----0
  6
CONTINUOUS
  5
37
 10
410.649154
 20
720.0
 30
0.0
 11
397.443108
 21
721.738609
 31
0.0
  0
LINE
  8
LC-003-003-----0
  6
CONTINUOUS
  5
38
 10
397.40307
 20
718.872254
 30
0.0
 11
405.969154
 21
720.0
 31
0.0
  0
LINE
  8
LC-003-003-----0
  6
CONTINUOUS
  5
39
 10
405.969154
 20
720.0
 30
0.0
 11
397.40307
 21
721.127746
 31
0.0
  0
LINE
  8
LC-003-003-----0
  6
CONTINUOUS
  5
3A
 10
397.363032
 20
719.483116
 30
0.0
 11
401.289154
 21
720.0
 31
0.0
  0
LINE
  8
LC-003-003-----0
  6
CONTINUOUS
  5
3B
 10
401.289154
 20
720.0
 30
0.0
 11
397.363032
 21
720.516884
 31
0.0
  0
TEXT
  8
LC-003-003-----0
  6
CONTINUOUS
 62
     6
  5
3D
 10
295.126386
 20
730.431999
 30
0.0
 40
18.0
  1
Ø184
 41
0.9
 51
15.0
  7
LC-TXTSTYLE-150-400-0-0-D0
 72
     1
 11
319.617725
 21
730.431999
 31
0.0
  0
ENDBLK
  8
0
  5
3E
  0
BLOCK
  8
0
  5
40
  2
BLK1
 70
    64
 10
0.0
 20
0.0
 30
0.0
  3
BLK1
  0
ENDBLK
  8
0
  5
41
  0
BLOCK
  8
0
  5
43
  2
BLK2
 70
    64
 10
0.0
 20
0.0
 30
0.0
  3
BLK2
  0
ENDBLK
  8
0
  5
44
  0
BLOCK
  8
0
  5
46
  2
BLK3
 70
    64
 10
0.0
 20
0.0
 30
0.0
  3
BLK3
  0
ENDBLK
  8
0
  5
47
  0
BLOCK
  8
0
  5
49
  2
BLK4
 70
    64
 10
0.0
 20
0.0
 30
0.0
  3
BLK4
  0
ENDBLK
  8
0
  5
4A
  0
BLOCK
  8
0
  5
4C
  2
BLK5
 70
    64
 10
0.0
 20
0.0
 30
0.0
  3
BLK5
  0
ENDBLK
  8
0
  5
4D
  0
BLOCK
  8
0
  5
4F
  2
BLK6
 70
    64
 10
0.0
 20
0.0
 30
0.0
  3
BLK6
  0
ENDBLK
  8
0
  5
50
  0
BLOCK
  8
0
  5
52
  2
BLK7
 70
    64
 10
0.0
 20
0.0
 30
0.0
  3
BLK7
  0
ENDBLK
  8
0
  5
53
  0
BLOCK
  8
0
  5
55
  2
*D8
 70
    65
 10
0.0
 20
0.0
 30
0.0
  3
*D8
  0
LINE
  8
LC-004-003-MTH-0
  6
CONTINUOUS
  5
56
 10
250.804627
 20
671.477927
 30
0.0
 11
250.804627
 21
694.8
 31
0.0
  0
LINE
  8
LC-004-003-MTH-0
  6
CONTINUOUS
  5
57
 10
396.325511
 20
671.477038
 30
0.0
 11
396.325511
 21
694.8
 31
0.0
  0
LINE
  8
LC-005-003-MTG-0
  6
CONTINUOUS
  5
58
 10
250.804627
 20
684.0
 30
0.0
 11
396.325511
 21
684.0
 31
0.0
  0
LINE
  8
LC-003-003-----0
  6
CONTINUOUS
  5
59
 10
268.650635
 20
686.349471
 30
0.0
 11
250.804627
 21
684.0
 31
0.0
  0
LINE
  8
LC-003-003-----0
  6
CONTINUOUS
  5
5A
 10
250.804627
 20
684.0
 30
0.0
 11
268.650635
 21
681.650529
 31
0.0
  0
LINE
  8
LC-003-003-----0
  6
CONTINUOUS
  5
5B
 10
268.650635
 20
681.650529
 30
0.0
 11
268.650635
 21
686.349471
 31
0.0
  0
LINE
  8
LC-003-003-----0
  6
CONTINUOUS
  5
5C
 10
268.690673
 20
685.738609
 30
0.0
 11
255.484627
 21
684.0
 31
0.0
  0
LINE
  8
LC-003-003-----0
  6
CONTINUOUS
  5
5D
 10
255.484627
 20
684.0
 30
0.0
 11
268.690673
 21
682.261391
 31
0.0
  0
LINE
  8
LC-003-003-----0
  6
CONTINUOUS
  5
5E
 10
268.730711
 20
685.127746
 30
0.0
 11
260.164627
 21
684.0
 31
0.0
  0
LINE
  8
LC-003-003-----0
  6
CONTINUOUS
  5
5F
 10
260.164627
 20
684.0
 30
0.0
 11
268.730711
 21
682.872254
 31
0.0
  0
LINE
  8
LC-003-003-----0
  6
CONTINUOUS
  5
60
 10
268.770749
 20
684.516884
 30
0.0
 11
264.844627
 21
684.0
 31
0.0
  0
LINE
  8
LC-003-003-----0
  6
CONTINUOUS
  5
61
 10
264.844627
 20
684.0
 30
0.0
 11
268.770749
 21
683.483116
 31
0.0
  0
LINE
  8
LC-003-003-----0
  6
CONTINUOUS
  5
62
 10
378.479503
 20
681.650529
 30
0.0
 11
396.325511
 21
684.0
 31
0.0
  0
LINE
  8
LC-003-003-----0
  6
CONTINUOUS
  5
63
 10
396.325511
 20
684.0
 30
0.0
 11
378.479503
 21
686.349471
 31
0.0
  0
LINE
  8
LC-003-003-----0
  6
CONTINUOUS
  5
64
 10
378.479503
 20
686.349471
 30
0.0
 11
378.479503
 21
681.650529
 31
0.0
  0
LINE
  8
LC-003-003-----0
  6
CONTINUOUS
  5
65
 10
378.439465
 20
682.261391
 30
0.0
 11
391.645511
 21
684.0
 31
0.0
  0
LINE
  8
LC-003-003-----0
  6
CONTINUOUS
  5
66
 10
391.645511
 20
684.0
 30
0.0
 11
378.439465
 21
685.738609
 31
0.0
  0
LINE
  8
LC-003-003-----0
  6
CONTINUOUS
  5
67
 10
378.399427
 20
682.872254
 30
0.0
 11
386.965511
 21
684.0
 31
0.0
  0
LINE
  8
LC-003-003-----0
  6
CONTINUOUS
  5
68
 10
386.965511
 20
684.0
 30
0.0
 11
378.399427
 21
685.127746
 31
0.0
  0
LINE
  8
LC-003-003-----0
  6
CONTINUOUS
  5
69
 10
378.359389
 20
683.483116
 30
0.0
 11
382.285511
 21
684.0
 31
0.0
  0
LINE
  8
LC-003-003-----0
  6
CONTINUOUS
  5
6A
 10
382.285511
 20
684.0
 30
0.0
 11
378.359389
 21
684.516884
 31
0.0
  0
TEXT
  8
LC-003-003-----0
  6
CONTINUOUS
 62
     6
  5
6B
 10
294.065184
 20
694.431999
 30
0.0
 40
18.0
  1
Ø145
 51
15.0
  7
LC-TXTSTYLE-150-400-0-0-D0
 72
     1
 11
318.556523
 21
694.431999
 31
0.0
  0
ENDBLK
  8
0
  5
6C
  0
BLOCK
  8
0
  5
6E
  2
BLK8
 70
    64
 10
0.0
 20
0.0
 30
0.0
  3
BLK8
  0
ENDBLK
  8
0
  5
6F
  0
BLOCK
  8
0
  5
71
  2
BLK9
 70
    64
 10
0.0
 20
0.0
 30
0.0
  3
BLK9
  0
ENDBLK
  8
0
  5
72
  0
BLOCK
  8
0
  5
74
  2
BLK10
 70
    64
 10
0.0
 20
0.0
 30
0.0
  3
BLK10
  0
ENDBLK
  8
0
  5
75
  0
BLOCK
  8
0
  5
77
  2
*D12
 70
    65
 10
0.0
 20
0.0
 30
0.0
  3
*D12
  0
LINE
  8
LC-004-003-MTH-0
  6
CONTINUOUS
  5
78
 10
401.075311
 20
653.60539
 30
0.0
 11
458.8
 21
653.60539
 31
0.0
  0
LINE
  8
LC-004-003-MTH-0
  6
CONTINUOUS
  5
79
 10
415.313803
 20
674.252737
 30
0.0
 11
458.8
 21
674.252737
 31
0.0
  0
LINE
  8
LC-003-003-----0
  6
CONTINUOUS
  5
7A
 10
450.349471
 20
635.759383
 30
0.0
 11
448.0
 21
653.60539
 31
0.0
  0
LINE
  8
LC-003-003-----0
  6
CONTINUOUS
  5
7B
 10
448.0
 20
653.60539
 30
0.0
 11
445.650529
 21
635.759383
 31
0.0
  0
LINE
  8
LC-003-003-----0
  6
CONTINUOUS
  5
7C
 10
445.650529
 20
635.759383
 30
0.0
 11
450.349471
 21
635.759383
 31
0.0
  0
LINE
  8
LC-003-003-----0
  6
CONTINUOUS
  5
7D
 10
449.738609
 20
635.719345
 30
0.0
 11
448.0
 21
648.92539
 31
0.0
  0
LINE
  8
LC-003-003-----0
  6
CONTINUOUS
  5
7E
 10
448.0
 20
648.92539
 30
0.0
 11
446.261391
 21
635.719345
 31
0.0
  0
LINE
  8
LC-003-003-----0
  6
CONTINUOUS
  5
7F
 10
449.127746
 20
635.679307
 30
0.0
 11
448.0
 21
644.24539
 31
0.0
  0
LINE
  8
LC-003-003-----0
  6
CONTINUOUS
  5
80
 10
448.0
 20
644.24539
 30
0.0
 11
446.872254
 21
635.679307
 31
0.0
  0
LINE
  8
LC-003-003-----0
  6
CONTINUOUS
  5
81
 10
448.516884
 20
635.639269
 30
0.0
 11
448.0
 21
639.56539
 31
0.0
  0
LINE
  8
LC-003-003-----0
  6
CONTINUOUS
  5
82
 10
448.0
 20
639.56539
 30
0.0
 11
447.483116
 21
635.639269
 31
0.0
  0
LINE
  8
LC-003-003-----0
  6
CONTINUOUS
  5
83
 10
445.650529
 20
692.098744
 30
0.0
 11
448.0
 21
674.252737
 31
0.0
  0
LINE
  8
LC-003-003-----0
  6
CONTINUOUS
  5
84
 10
448.0
 20
674.252737
 30
0.0
 11
450.349471
 21
692.098744
 31
0.0
  0
LINE
  8
LC-003-003-----0
  6
CONTINUOUS
  5
85
 10
450.349471
 20
692.098744
 30
0.0
 11
445.650529
 21
692.098744
 31
0.0
  0
LINE
  8
LC-003-003-----0
  6
CONTINUOUS
  5
86
 10
446.261391
 20
692.138782
 30
0.0
 11
448.0
 21
678.932737
 31
0.0
  0
LINE
  8
LC-003-003-----0
  6
CONTINUOUS
  5
87
 10
448.0
 20
678.932737
 30
0.0
 11
449.738609
 21
692.138782
 31
0.0
  0
LINE
  8
LC-003-003-----0
  6
CONTINUOUS
  5
88
 10
446.872254
 20
692.17882
 30
0.0
 11
448.0
 21
683.612737
 31
0.0
  0
LINE
  8
LC-003-003-----0
  6
CONTINUOUS
  5
89
 10
448.0
 20
683.612737
 30
0.0
 11
449.127746
 21
692.17882
 31
0.0
  0
LINE
  8
LC-003-003-----0
  6
CONTINUOUS
  5
8A
 10
447.483116
 20
692.218858
 30
0.0
 11
448.0
 21
688.292737
 31
0.0
  0
LINE
  8
LC-003-003-----0
  6
CONTINUOUS
  5
8B
 10
448.0
 20
688.292737
 30
0.0
 11
448.516884
 21
692.218858
 31
0.0
  0
LINE
  8
LC-005-003-MTG-0
  6
CONTINUOUS
  5
8C
 10
448.0
 20
628.40539
 30
0.0
 11
448.0
 21
732.255256
 31
0.0
  0
TEXT
  8
LC-003-003-----0
  6
CONTINUOUS
 62
     6
  5
8D
 10
442.968001
 20
701.527982
 30
0.0
 40
18.0
  1
20
 50
90.0
 51
15.0
  7
LC-TXTSTYLE-150-400-0-0-D0
  0
ENDBLK
  8
0
  5
8E
  0
BLOCK
  8
0
  5
90
  2
BLK11
 70
    64
 10
0.0
 20
0.0
 30
0.0
  3
BLK11
  0
ENDBLK
  8
0
  5
91
  0
BLOCK
  8
0
  5
93
  2
BLK12
 70
    64
 10
0.0
 20
0.0
 30
0.0
  3
BLK12
  0
ENDBLK
  8
0
  5
94
  0
BLOCK
  8
0
  5
96
  2
BLK13
 70
    64
 10
0.0
 20
0.0
 30
0.0
  3
BLK13
  0
ENDBLK
  8
0
  5
97
  0
BLOCK
  8
0
  5
99
  2
BLK14
 70
    64
 10
0.0
 20
0.0
 30
0.0
  3
BLK14
  0
ENDBLK
  8
0
  5
9A
  0
ENDSEC
  0
SECTION
  2
ENTITIES
  0
VIEWPORT
  8
LC-000
  5
1BB
 67
     1
 68
     1
 10
420.0
 20
297.0
 30
0.0
 40
840.0
 41
594.0
 69
     1
1001
ACAD
1000
MVIEW
1002
{
1070
    16
1010
0.0
1020
0.0
1030
0.0
1010
0.0
1020
0.0
1030
1.0
1040
0.0
1040
594.0
1040
420.0
1040
297.0
1040
50.0
1040
0.0
1040
0.0
1070
     0
1070
   100
1070
     1
1070
     1
1070
     0
1070
     0
1070
     0
1070
     0
1040
0.0
1040
0.0
1040
0.0
1040
1.0
1040
1.0
1040
0.0
1040
0.0
1070
     0
1002
{
1002
}
1002
}
  0
VIEWPORT
  8
0
  5
1BC
 67
     1
 68
     1
 10
0.0
 20
0.0
 30
0.0
 40
0.0
 41
0.0
 69
     1
1001
ACAD
1000
MVIEW
1002
{
1070
    16
1010
0.0
1020
0.0
1030
0.0
1010
0.0
1020
0.0
1030
1.0
1040
0.0
1040
594.0
1040
0.0
1040
0.0
1040
50.0
1040
0.0
1040
0.0
1070
     0
1070
   100
1070
     0
1070
     1
1070
     0
1070
     0
1070
     0
1070
     0
1040
0.0
1040
0.0
1040
0.0
1040
0.5
1040
0.5
1040
0.5
1040
0.5
1070
     0
1002
{
1002
}
1002
}
  0
DIMENSION
  8
0
  5
9B
  2
*D0
 10
316.822479
 20
720.0
 30
0.0
 11
316.822479
 21
720.0
 31
0.0
  1
%%c184
 13
231.81646
 23
674.252737
 33
0.0
 14
415.329154
 24
674.252737
 34
0.0
  3
LC-DIM-L-0090-02-02
  0
INSERT
  8
0
  5
9D
  2
BLK1
 10
0.0
 20
0.0
 30
0.0
  0
INSERT
  8
0
  5
9E
  2
BLK2
 10
0.0
 20
0.0
 30
0.0
  0
INSERT
  8
0
  5
9F
  2
BLK3
 10
0.0
 20
0.0
 30
0.0
  0
INSERT
  8
0
  5
A0
  2
BLK4
 10
0.0
 20
0.0
 30
0.0
  0
INSERT
  8
0
  5
A1
  2
BLK5
 10
0.0
 20
0.0
 30
0.0
  0
INSERT
  8
0
  5
A2
  2
BLK6
 10
0.0
 20
0.0
 30
0.0
  0
INSERT
  8
0
  5
A3
  2
BLK7
 10
0.0
 20
0.0
 30
0.0
  0
DIMENSION
  8
0
  5
A4
  2
*D8
 10
315.761277
 20
684.0
 30
0.0
 11
315.761277
 21
684.0
 31
0.0
  1
%%c145
 13
250.804627
 23
671.477927
 33
0.0
 14
396.325511
 24
671.477038
 34
0.0
  3
LC-DIM-L-0090-02-02
  0
INSERT
  8
0
  5
A5
  2
BLK8
 10
0.0
 20
0.0
 30
0.0
  0
INSERT
  8
0
  5
A6
  2
BLK9
 10
0.0
 20
0.0
 30
0.0
  0
INSERT
  8
0
  5
A7
  2
BLK10
 10
0.0
 20
0.0
 30
0.0
  0
DIMENSION
  8
0
  5
A8
  2
*D12
 10
448.0
 20
663.929063
 30
0.0
 11
448.0
 21
663.929063
 31
0.0
  1
20
 13
415.313803
 23
674.252737
 33
0.0
 14
401.075311
 24
653.60539
 34
0.0
 50
90.0
  3
LC-DIM-L-0090-02-02
  0
INSERT
  8
0
  5
A9
  2
BLK11
 10
0.0
 20
0.0
 30
0.0
  0
INSERT
  8
0
  5
AA
  2
BLK12
 10
0.0
 20
0.0
 30
0.0
  0
INSERT
  8
0
  5
AC
  2
BLK13
 10
0.0
 20
0.0
 30
0.0
  0
INSERT
  8
0
  5
AD
  2
BLK14
 10
0.0
 20
0.0
 30
0.0
  0
ARC
  8
LC-001-002-----0
  6
CONTINUOUS
  5
AF
 10
247.554627
 20
536.857667
 30
0.0
 40
2.26
 50
270.851811
 51
89.148189
  0
LINE
  8
LC-001-002-----0
  6
DASHDOT
 62
     2
  5
B1
 10
323.565132
 20
445.108995
 30
0.0
 11
323.565132
 21
628.606338
 31
0.0
  0
CIRCLE
  8
LC-001-002-----0
  6
CONTINUOUS
  5
B2
 10
323.565132
 20
536.857667
 30
0.0
 40
91.748671
  0
ARC
  8
LC-001-002-----0
  6
CONTINUOUS
  5
B3
 10
323.565132
 20
536.857667
 30
0.0
 40
70.286408
 50
175.205552
 51
184.794448
  0
ARC
  8
LC-001-002-----0
  6
CONTINUOUS
  5
B4
 10
247.554627
 20
536.857667
 30
0.0
 40
3.260504
 50
271.228958
 51
88.771042
  0
ARC
  8
LC-002-002-RND-0
  6
CONTINUOUS
  5
B6
 10
252.029907
 20
542.857667
 30
0.0
 40
1.5
 50
355.205552
 51
90.0
  0
ARC
  8
LC-001-002-----0
  6
CONTINUOUS
  5
B7
 10
323.565132
 20
536.857667
 30
0.0
 40
76.010504
 50
181.703623
 51
208.296377
  0
ARC
  8
LC-002-002-RND-0
  6
CONTINUOUS
  5
B8
 10
249.600172
 20
545.857667
 30
0.0
 40
1.5
 50
173.062398
 51
270.0
  0
ARC
  8
LC-002-002-RND-0
  6
CONTINUOUS
  5
B9
 10
249.600172
 20
527.857667
 30
0.0
 40
1.5
 50
90.0
 51
186.937602
  0
ARC
  8
LC-002-002-RND-0
  6
CONTINUOUS
  5
BA
 10
252.029907
 20
530.857667
 30
0.0
 40
1.5
 50
270.0
 51
4.794448
  0
ARC
  8
LC-001-002-----0
  6
CONTINUOUS
  5
BB
 10
257.738104
 20
498.852415
 30
0.0
 40
2.26
 50
300.851811
 51
119.148189
  0
ARC
  8
LC-001-002-----0
  6
CONTINUOUS
  5
BC
 10
323.565132
 20
536.857667
 30
0.0
 40
70.286408
 50
205.205552
 51
214.794448
  0
ARC
  8
LC-001-002-----0
  6
CONTINUOUS
  5
BD
 10
257.738104
 20
498.852415
 30
0.0
 40
3.260504
 50
301.228958
 51
118.771042
  0
ARC
  8
LC-002-002-RND-0
  6
CONTINUOUS
  5
BE
 10
258.61381
 20
506.286207
 30
0.0
 40
1.5
 50
25.205552
 51
120.0
  0
ARC
  8
LC-002-002-RND-0
  6
CONTINUOUS
  5
BF
 10
255.009598
 20
507.669416
 30
0.0
 40
1.5
 50
203.062398
 51
300.0
  0
LINE
  8
LC-001-002-----0
  6
DASHDOT
 62
     2
  5
C0
 10
231.81646
 20
536.857667
 30
0.0
 11
415.313803
 21
536.857667
 31
0.0
  0
ARC
  8
LC-002-002-RND-0
  6
CONTINUOUS
  5
C1
 10
264.009598
 20
492.080958
 30
0.0
 40
1.5
 50
120.0
 51
216.937602
  0
ARC
  8
LC-002-002-RND-0
  6
CONTINUOUS
  5
C2
 10
264.61381
 20
495.893902
 30
0.0
 40
1.5
 50
300.0
 51
34.794448
  0
LINE
  8
LC-001-002-----0
  6
CONTINUOUS
  5
C3
 10
255.759598
 20
506.370377
 30
0.0
 11
257.86381
 21
507.585245
 31
0.0
  0
LINE
  8
LC-001-002-----0
  6
CONTINUOUS
  5
C4
 10
263.259598
 20
493.379996
 30
0.0
 11
265.36381
 21
494.594864
 31
0.0
  0
ARC
  8
LC-001-002-----0
  6
CONTINUOUS
  5
C5
 10
285.55988
 20
471.030639
 30
0.0
 40
2.26
 50
330.851811
 51
149.148189
  0
ARC
  8
LC-001-002-----0
  6
CONTINUOUS
  5
C6
 10
323.565132
 20
536.857667
 30
0.0
 40
70.286408
 50
235.205552
 51
244.794448
  0
ARC
  8
LC-001-002-----0
  6
CONTINUOUS
  5
C7
 10
285.55988
 20
471.030639
 30
0.0
 40
3.260504
 50
331.228958
 51
148.771042
  0
ARC
  8
LC-002-002-RND-0
  6
CONTINUOUS
  5
C8
 10
282.601367
 20
477.906345
 30
0.0
 40
1.5
 50
55.205552
 51
150.0
  0
ARC
  8
LC-002-002-RND-0
  6
CONTINUOUS
  5
C9
 10
278.788423
 20
477.302133
 30
0.0
 40
1.5
 50
233.062398
 51
330.0
  0
ARC
  8
LC-002-002-RND-0
  6
CONTINUOUS
  5
CA
 10
294.37688
 20
468.302133
 30
0.0
 40
1.5
 50
150.0
 51
246.937602
  0
ARC
  8
LC-002-002-RND-0
  6
CONTINUOUS
  5
CB
 10
292.993672
 20
471.906345
 30
0.0
 40
1.5
 50
330.0
 51
64.794448
  0
LINE
  8
LC-001-002-----0
  6
CONTINUOUS
  5
CC
 10
280.087461
 20
476.552133
 30
0.0
 11
281.302329
 21
478.656345
 31
0.0
  0
LINE
  8
LC-001-002-----0
  6
CONTINUOUS
  5
CD
 10
293.077842
 20
469.052133
 30
0.0
 11
294.29271
 21
471.156345
 31
0.0
  0
ARC
  8
LC-001-002-----0
  6
CONTINUOUS
  5
CE
 10
323.565132
 20
460.847163
 30
0.0
 40
2.26
 50
0.851811
 51
179.148189
  0
ARC
  8
LC-001-002-----0
  6
CONTINUOUS
  5
CF
 10
323.565132
 20
536.857667
 30
0.0
 40
70.286408
 50
265.205552
 51
274.794448
  0
ARC
  8
LC-001-002-----0
  6
CONTINUOUS
  5
D0
 10
323.565132
 20
460.847163
 30
0.0
 40
3.260504
 50
1.228958
 51
178.771042
  0
ARC
  8
LC-002-002-RND-0
  6
CONTINUOUS
  5
D1
 10
317.565132
 20
465.322442
 30
0.0
 40
1.5
 50
85.205552
 51
180.0
  0
ARC
  8
LC-002-002-RND-0
  6
CONTINUOUS
  5
D2
 10
314.565132
 20
462.892707
 30
0.0
 40
1.5
 50
263.062398
 51
0.0
  0
ARC
  8
LC-002-002-RND-0
  6
CONTINUOUS
  5
D3
 10
332.565132
 20
462.892707
 30
0.0
 40
1.5
 50
180.0
 51
276.937602
  0
ARC
  8
LC-002-002-RND-0
  6
CONTINUOUS
  5
D4
 10
329.565132
 20
465.322442
 30
0.0
 40
1.5
 50
0.0
 51
94.794448
  0
LINE
  8
LC-001-002-----0
  6
CONTINUOUS
  5
D5
 10
316.065132
 20
462.892707
 30
0.0
 11
316.065132
 21
465.322442
 31
0.0
  0
LINE
  8
LC-001-002-----0
  6
CONTINUOUS
  5
D6
 10
331.065132
 20
462.892707
 30
0.0
 11
331.065132
 21
465.322442
 31
0.0
  0
ARC
  8
LC-001-002-----0
  6
CONTINUOUS
  5
D7
 10
361.570384
 20
471.030639
 30
0.0
 40
2.26
 50
30.851811
 51
209.148189
  0
ARC
  8
LC-001-002-----0
  6
CONTINUOUS
  5
D8
 10
323.565132
 20
536.857667
 30
0.0
 40
70.286408
 50
295.205552
 51
304.794448
  0
ARC
  8
LC-001-002-----0
  6
CONTINUOUS
  5
D9
 10
361.570384
 20
471.030639
 30
0.0
 40
3.260504
 50
31.228958
 51
208.771042
  0
ARC
  8
LC-002-002-RND-0
  6
CONTINUOUS
  5
DA
 10
354.136592
 20
471.906345
 30
0.0
 40
1.5
 50
115.205552
 51
210.0
  0
ARC
  8
LC-002-002-RND-0
  6
CONTINUOUS
  5
DB
 10
352.753383
 20
468.302133
 30
0.0
 40
1.5
 50
293.062398
 51
30.0
  0
ARC
  8
LC-002-002-RND-0
  6
CONTINUOUS
  5
DC
 10
368.34184
 20
477.302133
 30
0.0
 40
1.5
 50
210.0
 51
306.937602
  0
LINE
  8
LC-001-002-----0
  6
CONTINUOUS
  5
DD
 10
249.600172
 20
544.357667
 30
0.0
 11
252.029907
 21
544.357667
 31
0.0
  0
LINE
  8
LC-001-002-----0
  6
CONTINUOUS
  5
DE
 10
249.600172
 20
529.357667
 30
0.0
 11
252.029907
 21
529.357667
 31
0.0
  0
ARC
  8
LC-002-002-RND-0
  6
CONTINUOUS
  5
DF
 10
364.528896
 20
477.906345
 30
0.0
 40
1.5
 50
30.0
 51
124.794448
  0
LINE
  8
LC-001-002-----0
  6
CONTINUOUS
  5
E0
 10
354.052421
 20
469.052133
 30
0.0
 11
352.837554
 21
471.156345
 31
0.0
  0
LINE
  8
LC-001-002-----0
  6
CONTINUOUS
  5
E1
 10
367.042802
 20
476.552133
 30
0.0
 11
365.827935
 21
478.656345
 31
0.0
  0
ARC
  8
LC-001-002-----0
  6
CONTINUOUS
  5
E2
 10
389.392159
 20
498.852415
 30
0.0
 40
2.26
 50
60.851811
 51
239.148189
  0
ARC
  8
LC-001-002-----0
  6
CONTINUOUS
  5
E3
 10
323.565132
 20
536.857667
 30
0.0
 40
70.286408
 50
325.205552
 51
334.794448
  0
ARC
  8
LC-001-002-----0
  6
CONTINUOUS
  5
E4
 10
389.392159
 20
498.852415
 30
0.0
 40
3.260504
 50
61.228958
 51
238.771042
  0
ARC
  8
LC-002-002-RND-0
  6
CONTINUOUS
  5
E5
 10
382.516454
 20
495.893902
 30
0.0
 40
1.5
 50
145.205552
 51
240.0
  0
ARC
  8
LC-002-002-RND-0
  6
CONTINUOUS
  5
E6
 10
383.120665
 20
492.080958
 30
0.0
 40
1.5
 50
323.062398
 51
60.0
  0
ARC
  8
LC-002-002-RND-0
  6
CONTINUOUS
  5
E7
 10
392.120665
 20
507.669416
 30
0.0
 40
1.5
 50
240.0
 51
336.937602
  0
ARC
  8
LC-002-002-RND-0
  6
CONTINUOUS
  5
E8
 10
388.516454
 20
506.286207
 30
0.0
 40
1.5
 50
60.0
 51
154.794448
  0
LINE
  8
LC-001-002-----0
  6
CONTINUOUS
  5
E9
 10
383.870665
 20
493.379996
 30
0.0
 11
381.766454
 21
494.594864
 31
0.0
  0
LINE
  8
LC-001-002-----0
  6
CONTINUOUS
  5
EA
 10
391.370665
 20
506.370377
 30
0.0
 11
389.266454
 21
507.585245
 31
0.0
  0
ARC
  8
LC-001-002-----0
  6
CONTINUOUS
  5
EB
 10
399.575636
 20
536.857667
 30
0.0
 40
2.26
 50
90.851811
 51
269.148189
  0
ARC
  8
LC-001-002-----0
  6
CONTINUOUS
  5
EC
 10
323.565132
 20
536.857667
 30
0.0
 40
70.286408
 50
355.205552
 51
4.794448
  0
ARC
  8
LC-001-002-----0
  6
CONTINUOUS
  5
ED
 10
399.575636
 20
536.857667
 30
0.0
 40
3.260504
 50
91.228958
 51
268.771042
  0
ARC
  8
LC-002-002-RND-0
  6
CONTINUOUS
  5
EE
 10
395.100356
 20
530.857667
 30
0.0
 40
1.5
 50
175.205552
 51
270.0
  0
ARC
  8
LC-002-002-RND-0
  6
CONTINUOUS
  5
EF
 10
397.530091
 20
527.857667
 30
0.0
 40
1.5
 50
353.062398
 51
90.0
  0
ARC
  8
LC-002-002-RND-0
  6
CONTINUOUS
  5
F0
 10
397.530091
 20
545.857667
 30
0.0
 40
1.5
 50
270.0
 51
6.937602
  0
ARC
  8
LC-002-002-RND-0
  6
CONTINUOUS
  5
F1
 10
395.100356
 20
542.857667
 30
0.0
 40
1.5
 50
90.0
 51
184.794448
  0
LINE
  8
LC-001-002-----0
  6
CONTINUOUS
  5
F2
 10
397.530091
 20
529.357667
 30
0.0
 11
395.100356
 21
529.357667
 31
0.0
  0
LINE
  8
LC-001-002-----0
  6
CONTINUOUS
  5
F3
 10
397.530091
 20
544.357667
 30
0.0
 11
395.100356
 21
544.357667
 31
0.0
  0
ARC
  8
LC-001-002-----0
  6
CONTINUOUS
  5
F4
 10
389.392159
 20
574.862919
 30
0.0
 40
2.26
 50
120.851811
 51
299.148189
  0
ARC
  8
LC-001-002-----0
  6
CONTINUOUS
  5
F5
 10
323.565132
 20
536.857667
 30
0.0
 40
70.286408
 50
25.205552
 51
34.794448
  0
ARC
  8
LC-001-002-----0
  6
CONTINUOUS
  5
F6
 10
389.392159
 20
574.862919
 30
0.0
 40
3.260504
 50
121.228958
 51
298.771042
  0
ARC
  8
LC-002-002-RND-0
  6
CONTINUOUS
  5
F7
 10
388.516454
 20
567.429127
 30
0.0
 40
1.5
 50
205.205552
 51
300.0
  0
ARC
  8
LC-002-002-RND-0
  6
CONTINUOUS
  5
F8
 10
392.120665
 20
566.045918
 30
0.0
 40
1.5
 50
23.062398
 51
120.0
  0
ARC
  8
LC-002-002-RND-0
  6
CONTINUOUS
  5
F9
 10
383.120665
 20
581.634375
 30
0.0
 40
1.5
 50
300.0
 51
36.937602
  0
ARC
  8
LC-002-002-RND-0
  6
CONTINUOUS
  5
FA
 10
382.516454
 20
577.821432
 30
0.0
 40
1.5
 50
120.0
 51
214.794448
  0
LINE
  8
LC-001-002-----0
  6
CONTINUOUS
  5
FB
 10
391.370665
 20
567.344956
 30
0.0
 11
389.266454
 21
566.130089
 31
0.0
  0
LINE
  8
LC-001-002-----0
  6
CONTINUOUS
  5
FC
 10
259.726687
 20
656.607119
 30
0.0
 11
259.726651
 21
653.606338
 31
0.0
  0
LINE
  8
LC-001-002-----0
  6
CONTINUOUS
  5
FD
 10
383.870665
 20
580.335337
 30
0.0
 11
381.766454
 21
579.12047
 31
0.0
  0
ARC
  8
LC-001-002-----0
  6
CONTINUOUS
  5
FE
 10
361.570384
 20
602.684694
 30
0.0
 40
2.26
 50
150.851811
 51
329.148189
  0
ARC
  8
LC-001-002-----0
  6
CONTINUOUS
  5
FF
 10
323.565132
 20
536.857667
 30
0.0
 40
70.286408
 50
55.205552
 51
64.794448
  0
ARC
  8
LC-001-002-----0
  6
CONTINUOUS
  5
100
 10
361.570384
 20
602.684694
 30
0.0
 40
3.260504
 50
151.228958
 51
328.771042
  0
ARC
  8
LC-002-002-RND-0
  6
CONTINUOUS
  5
101
 10
364.528896
 20
595.808989
 30
0.0
 40
1.5
 50
235.205552
 51
330.0
  0
ARC
  8
LC-002-002-RND-0
  6
CONTINUOUS
  5
102
 10
368.34184
 20
596.413201
 30
0.0
 40
1.5
 50
53.062398
 51
150.0
  0
ARC
  8
LC-002-002-RND-0
  6
CONTINUOUS
  5
103
 10
352.753383
 20
605.413201
 30
0.0
 40
1.5
 50
330.0
 51
66.937602
  0
ARC
  8
LC-002-002-RND-0
  6
CONTINUOUS
  5
104
 10
354.136592
 20
601.808989
 30
0.0
 40
1.5
 50
150.0
 51
244.794448
  0
LINE
  8
LC-001-002-----0
  6
CONTINUOUS
  5
105
 10
367.042802
 20
597.163201
 30
0.0
 11
365.827935
 21
595.058989
 31
0.0
  0
LINE
  8
LC-001-002-----0
  6
CONTINUOUS
  5
106
 10
354.052421
 20
604.663201
 30
0.0
 11
352.837554
 21
602.558989
 31
0.0
  0
ARC
  8
LC-001-002-----0
  6
CONTINUOUS
  5
107
 10
323.565132
 20
612.868171
 30
0.0
 40
2.26
 50
180.851811
 51
359.148189
  0
ARC
  8
LC-001-002-----0
  6
CONTINUOUS
  5
108
 10
323.565132
 20
536.857667
 30
0.0
 40
70.286408
 50
85.205552
 51
94.794448
  0
ARC
  8
LC-001-002-----0
  6
CONTINUOUS
  5
109
 10
323.565132
 20
612.868171
 30
0.0
 40
3.260504
 50
181.228958
 51
358.771042
  0
ARC
  8
LC-002-002-RND-0
  6
CONTINUOUS
  5
10A
 10
329.565132
 20
608.392892
 30
0.0
 40
1.5
 50
265.205552
 51
0.0
  0
ARC
  8
LC-002-002-RND-0
  6
CONTINUOUS
  5
10B
 10
332.565132
 20
610.822626
 30
0.0
 40
1.5
 50
83.062398
 51
180.0
  0
ARC
  8
LC-002-002-RND-0
  6
CONTINUOUS
  5
10C
 10
314.565132
 20
610.822626
 30
0.0
 40
1.5
 50
0.0
 51
96.937602
  0
ARC
  8
LC-002-002-RND-0
  6
CONTINUOUS
  5
10D
 10
317.565132
 20
608.392892
 30
0.0
 40
1.5
 50
180.0
 51
274.794448
  0
LINE
  8
LC-001-002-----0
  6
CONTINUOUS
  5
10E
 10
331.065132
 20
610.822626
 30
0.0
 11
331.065132
 21
608.392892
 31
0.0
  0
LINE
  8
LC-001-002-----0
  6
CONTINUOUS
  5
10F
 10
316.065132
 20
610.822626
 30
0.0
 11
316.065132
 21
608.392892
 31
0.0
  0
ARC
  8
LC-001-002-----0
  6
CONTINUOUS
  5
110
 10
285.55988
 20
602.684694
 30
0.0
 40
2.26
 50
210.851811
 51
29.148189
  0
ARC
  8
LC-001-002-----0
  6
CONTINUOUS
  5
111
 10
323.565132
 20
536.857667
 30
0.0
 40
70.286408
 50
115.205552
 51
124.794448
  0
ARC
  8
LC-001-002-----0
  6
CONTINUOUS
  5
112
 10
285.55988
 20
602.684694
 30
0.0
 40
3.260504
 50
211.228958
 51
28.771042
  0
ARC
  8
LC-002-002-RND-0
  6
CONTINUOUS
  5
113
 10
292.993672
 20
601.808989
 30
0.0
 40
1.5
 50
295.205552
 51
30.0
  0
ARC
  8
LC-002-002-RND-0
  6
CONTINUOUS
  5
114
 10
294.37688
 20
605.413201
 30
0.0
 40
1.5
 50
113.062398
 51
210.0
  0
ARC
  8
LC-002-002-RND-0
  6
CONTINUOUS
  5
115
 10
278.788423
 20
596.413201
 30
0.0
 40
1.5
 50
30.0
 51
126.937602
  0
ARC
  8
LC-002-002-RND-0
  6
CONTINUOUS
  5
116
 10
282.601367
 20
595.808989
 30
0.0
 40
1.5
 50
210.0
 51
304.794448
  0
LINE
  8
LC-001-002-----0
  6
CONTINUOUS
  5
117
 10
293.077842
 20
604.663201
 30
0.0
 11
294.29271
 21
602.558989
 31
0.0
  0
LINE
  8
LC-001-002-----0
  6
CONTINUOUS
  5
118
 10
280.087461
 20
597.163201
 30
0.0
 11
281.302329
 21
595.058989
 31
0.0
  0
LINE
  8
LC-001-002-----0
  6
CONTINUOUS
  5
119
 10
231.81646
 20
674.252737
 30
0.0
 11
415.313803
 21
674.252737
 31
0.0
  0
LINE
  8
LC-001-002-----0
  6
CONTINUOUS
  5
11A
 10
333.882034
 20
672.973982
 30
0.0
 11
397.716812
 21
672.973982
 31
0.0
  0
LINE
  8
LC-001-002-----0
  6
CONTINUOUS
  5
11B
 10
234.957842
 20
665.415954
 30
0.0
 11
244.554627
 21
665.415954
 31
0.0
  0
LINE
  8
LC-001-002-----0
  6
CONTINUOUS
  5
11C
 10
412.172421
 20
665.415954
 30
0.0
 11
402.575437
 21
665.416071
 31
0.0
  0
LINE
  8
LC-001-002-----0
  6
CONTINUOUS
  5
11D
 10
316.06205
 20
656.60643
 30
0.0
 11
316.062014
 21
653.606338
 31
0.0
  0
LINE
  8
LC-001-002-----0
  6
CONTINUOUS
  5
11E
 10
331.06205
 20
656.606246
 30
0.0
 11
331.062014
 21
653.606338
 31
0.0
  0
LINE
  8
LC-001-002-----0
  6
CONTINUOUS
  5
11F
 10
280.885817
 20
656.60686
 30
0.0
 11
280.88578
 21
653.606338
 31
0.0
  0
LINE
  8
LC-001-002-----0
  6
CONTINUOUS
  5
120
 10
295.057324
 20
656.606687
 30
0.0
 11
295.057288
 21
653.606338
 31
0.0
  0
LINE
  8
LC-001-002-----0
  6
CONTINUOUS
  5
121
 10
267.226546
 20
656.607027
 30
0.0
 11
267.22651
 21
653.606338
 31
0.0
  0
LINE
  8
LC-001-002-----0
  6
CONTINUOUS
  5
122
 10
257.1449
 20
656.60715
 30
0.0
 11
257.144863
 21
653.606338
 31
0.0
  0
LINE
  8
LC-001-002-----0
  6
CONTINUOUS
  5
123
 10
284.662753
 20
656.606814
 30
0.0
 11
284.662717
 21
653.606338
 31
0.0
  0
LINE
  8
LC-001-002-----0
  6
CONTINUOUS
  5
124
 10
352.072939
 20
656.606687
 30
0.0
 11
352.072976
 21
653.606338
 31
0.0
  0
LINE
  8
LC-001-002-----0
  6
CONTINUOUS
  5
125
 10
362.46751
 20
656.606814
 30
0.0
 11
362.467547
 21
653.606338
 31
0.0
  0
LINE
  8
LC-001-002-----0
  6
CONTINUOUS
  5
126
 10
366.244446
 20
656.60686
 30
0.0
 11
366.244483
 21
653.606338
 31
0.0
  0
LINE
  8
LC-001-002-----0
  6
CONTINUOUS
  5
127
 10
379.903717
 20
656.607027
 30
0.0
 11
379.903754
 21
653.606338
 31
0.0
  0
LINE
  8
LC-001-002-----0
  6
CONTINUOUS
  5
128
 10
387.403576
 20
656.607119
 30
0.0
 11
387.403613
 21
653.606338
 31
0.0
  0
LINE
  8
LC-001-002-----0
  6
CONTINUOUS
  5
129
 10
389.985364
 20
656.60715
 30
0.0
 11
389.9854
 21
653.606338
 31
0.0
  0
ARC
  8
LC-001-002-----0
  6
CONTINUOUS
  5
12A
 10
257.738104
 20
574.862919
 30
0.0
 40
2.26
 50
240.851811
 51
59.148189
  0
ARC
  8
LC-001-002-----0
  6
CONTINUOUS
  5
12B
 10
323.565132
 20
536.857667
 30
0.0
 40
70.286408
 50
145.205552
 51
154.794448
  0
LINE
  8
LC-001-002-----0
  6
CONTINUOUS
  5
12C
 10
231.81646
 20
674.252737
 30
0.0
 11
231.81646
 21
666.629764
 31
0.0
  0
ARC
  8
LC-002-002-RND-0
  6
CONTINUOUS
  5
12D
 10
232.89631
 20
666.642597
 30
0.0
 40
1.07985
 50
180.0
 51
266.000003
  0
LINE
  8
LC-001-002-----0
  6
CONTINUOUS
  5
12E
 10
232.820984
 20
665.565377
 30
0.0
 11
234.957842
 21
665.415954
 31
0.0
  0
LINE
  8
LC-001-002-----0
  6
CONTINUOUS
  5
12F
 10
234.957842
 20
665.415954
 30
0.0
 11
234.957842
 21
671.395512
 31
0.0
  0
LINE
  8
LC-001-002-----0
  6
CONTINUOUS
  5
130
 10
236.675785
 20
671.395512
 30
0.0
 11
234.957842
 21
671.395512
 31
0.0
  0
LINE
  8
LC-001-002-----0
  6
CONTINUOUS
  5
131
 10
290.812333
 20
671.97434
 30
0.0
 11
290.812145
 21
656.606739
 31
0.0
  0
LINE
  8
LC-001-002-----0
  6
DASHDOT
 62
     2
  5
132
 10
323.565132
 20
653.606338
 30
0.0
 11
323.565132
 21
672.973982
 31
0.0
  0
LINE
  8
LC-001-002-----0
  6
CONTINUOUS
  5
133
 10
284.201699
 20
671.974421
 30
0.0
 11
284.201511
 21
656.606819
 31
0.0
  0
LINE
  8
LC-001-002-----0
  6
CONTINUOUS
  5
134
 10
258.882765
 20
671.974731
 30
0.0
 11
258.882577
 21
656.607129
 31
0.0
  0
LINE
  8
LC-001-002-----0
  6
CONTINUOUS
  5
135
 10
264.061783
 20
671.974667
 30
0.0
 11
264.061783
 21
656.607066
 31
0.0
  0
LINE
  8
LC-001-002-----0
  6
CONTINUOUS
  5
136
 10
327.065132
 20
656.606338
 30
0.0
 11
327.065132
 21
671.973982
 31
0.0
  0
LINE
  8
LC-001-002-----0
  6
CONTINUOUS
  5
137
 10
320.065132
 20
656.606338
 30
0.0
 11
320.065132
 21
671.973982
 31
0.0
  0
LINE
  8
LC-001-002-----0
  6
CONTINUOUS
  5
138
 10
320.065132
 20
671.973982
 30
0.0
 11
327.065132
 21
671.973982
 31
0.0
  0
LINE
  8
LC-001-002-----0
  6
CONTINUOUS
  5
139
 10
320.065132
 20
671.973982
 30
0.0
 11
321.065132
 21
672.973982
 31
0.0
  0
LINE
  8
LC-001-002-----0
  6
CONTINUOUS
  5
13A
 10
327.065132
 20
671.973982
 30
0.0
 11
326.065132
 21
672.973982
 31
0.0
  0
LINE
  8
LC-001-002-----0
  6
CONTINUOUS
  5
13B
 10
290.812333
 20
671.97434
 30
0.0
 11
284.201699
 21
671.974421
 31
0.0
  0
LINE
  8
LC-001-002-----0
  6
CONTINUOUS
  5
13C
 10
410.454478
 20
671.395512
 30
0.0
 11
412.172421
 21
671.395512
 31
0.0
  0
LINE
  8
LC-001-002-----0
  6
CONTINUOUS
  5
13D
 10
415.313803
 20
674.252737
 30
0.0
 11
415.313803
 21
666.629764
 31
0.0
  0
LINE
  8
LC-001-002-----0
  6
CONTINUOUS
  5
13E
 10
264.061783
 20
671.974667
 30
0.0
 11
258.882765
 21
671.974731
 31
0.0
  0
LINE
  8
LC-001-002-----0
  6
CONTINUOUS
  5
13F
 10
258.882765
 20
671.974731
 30
0.0
 11
259.882016
 21
672.973982
 31
0.0
  0
ARC
  8
LC-002-002-RND-0
  6
CONTINUOUS
  5
140
 10
414.233953
 20
666.642597
 30
0.0
 40
1.07985
 50
273.999997
 51
0.0
  0
LINE
  8
LC-001-002-----0
  6
CONTINUOUS
  5
141
 10
264.061783
 20
671.974667
 30
0.0
 11
263.062468
 21
672.973982
 31
0.0
  0
LINE
  8
LC-001-002-----0
  6
CONTINUOUS
  5
142
 10
284.201699
 20
671.974421
 30
0.0
 11
285.20126
 21
672.973982
 31
0.0
  0
LINE
  8
LC-001-002-----0
  6
CONTINUOUS
  5
143
 10
290.812333
 20
671.97434
 30
0.0
 11
289.812691
 21
672.973982
 31
0.0
  0
LINE
  8
LC-001-002-----0
  6
CONTINUOUS
  5
144
 10
356.31793
 20
671.97434
 30
0.0
 11
356.318118
 21
656.606739
 31
0.0
  0
LINE
  8
LC-001-002-----0
  6
CONTINUOUS
  5
145
 10
414.309279
 20
665.565377
 30
0.0
 11
412.172421
 21
665.415954
 31
0.0
  0
LINE
  8
LC-001-002-----0
  6
CONTINUOUS
  5
146
 10
412.172421
 20
665.415954
 30
0.0
 11
412.172421
 21
671.395512
 31
0.0
  0
LINE
  8
LC-001-002-----0
  6
CONTINUOUS
  5
147
 10
362.928565
 20
671.974421
 30
0.0
 11
362.928753
 21
656.606819
 31
0.0
  0
LINE
  8
LC-001-002-----0
  6
CONTINUOUS
  5
148
 10
243.163345
 20
670.924065
 30
0.0
 11
236.675785
 21
671.395512
 31
0.0
  0
LINE
  8
LC-001-002-----0
  6
CONTINUOUS
  5
149
 10
249.413345
 20
672.973982
 30
0.0
 11
231.81646
 21
674.252737
 31
0.0
  0
ARC
  8
LC-002-002-RND-0
  6
CONTINUOUS
  5
14A
 10
246.054627
 20
671.714103
 30
0.0
 40
1.5
 50
0.0
 51
85.843659
  0
ARC
  8
LC-002-002-RND-0
  6
CONTINUOUS
  5
14B
 10
243.054627
 20
669.42801
 30
0.0
 40
1.5
 50
0.0
 51
85.843659
  0
LINE
  8
LC-001-002-----0
  6
CONTINUOUS
  5
14C
 10
253.278723
 20
656.606338
 30
0.0
 11
247.554627
 21
656.606338
 31
0.0
  0
ARC
  8
LC-002-002-RND-0
  6
CONTINUOUS
  5
14D
 10
249.304627
 20
671.477927
 30
0.0
 40
1.5
 50
0.0
 51
85.843659
  0
LINE
  8
LC-001-002-----0
  6
CONTINUOUS
  5
14E
 10
250.804627
 20
671.477927
 30
0.0
 11
250.804627
 21
656.606338
 31
0.0
  0
ARC
  8
LC-002-002-RND-0
  6
CONTINUOUS
  5
14F
 10
246.054627
 20
655.106338
 30
0.0
 40
1.5
 50
180.0
 51
270.0
  0
LINE
  8
LC-001-002-----0
  6
CONTINUOUS
  5
150
 10
244.554627
 20
669.42801
 30
0.0
 11
244.554627
 21
655.106338
 31
0.0
  0
LINE
  8
LC-001-002-----0
  6
CONTINUOUS
  5
151
 10
247.554627
 20
671.714103
 30
0.0
 11
247.554627
 21
656.606338
 31
0.0
  0
LINE
  8
LC-001-002-----0
  6
CONTINUOUS
  5
152
 10
253.278723
 20
656.606338
 30
0.0
 11
253.278723
 21
653.606338
 31
0.0
  0
LINE
  8
LC-007-005-----0
  6
CONTINUOUS
  5
154
 10
247.554627
 20
670.853254
 30
0.0
 11
245.122053
 21
673.285828
 31
0.0
  0
LINE
  8
LC-007-005-----0
  6
CONTINUOUS
  5
155
 10
247.554627
 20
669.43904
 30
0.0
 11
243.597016
 21
673.396651
 31
0.0
  0
LINE
  8
LC-007-005-----0
  6
CONTINUOUS
  5
156
 10
247.554627
 20
668.024826
 30
0.0
 11
242.071979
 21
673.507475
 31
0.0
  0
LINE
  8
LC-007-005-----0
  6
CONTINUOUS
  5
157
 10
247.554627
 20
666.610613
 30
0.0
 11
244.541848
 21
669.623392
 31
0.0
  0
LINE
  8
LC-007-005-----0
  6
CONTINUOUS
  5
158
 10
243.250009
 20
670.915231
 30
0.0
 11
240.546942
 21
673.618298
 31
0.0
  0
LINE
  8
LC-007-005-----0
  6
CONTINUOUS
  5
159
 10
247.554627
 20
665.196399
 30
0.0
 11
244.554627
 21
668.196399
 31
0.0
  0
LINE
  8
LC-007-005-----0
  6
CONTINUOUS
  5
15A
 10
241.722237
 20
671.02879
 30
0.0
 11
239.021905
 21
673.729122
 31
0.0
  0
LINE
  8
LC-007-005-----0
  6
CONTINUOUS
  5
15B
 10
247.554627
 20
663.782186
 30
0.0
 11
244.554627
 21
666.782186
 31
0.0
  0
LINE
  8
LC-007-005-----0
  6
CONTINUOUS
  5
15C
 10
240.1972
 20
671.139613
 30
0.0
 11
237.496868
 21
673.839945
 31
0.0
  0
LINE
  8
LC-007-005-----0
  6
CONTINUOUS
  5
15D
 10
247.554627
 20
662.367972
 30
0.0
 11
244.554627
 21
665.367972
 31
0.0
  0
LINE
  8
LC-007-005-----0
  6
CONTINUOUS
  5
15E
 10
238.672163
 20
671.250437
 30
0.0
 11
235.971831
 21
673.950769
 31
0.0
  0
LINE
  8
LC-007-005-----0
  6
CONTINUOUS
  5
15F
 10
253.278723
 20
655.229663
 30
0.0
 11
251.902048
 21
656.606338
 31
0.0
  0
LINE
  8
LC-007-005-----0
  6
CONTINUOUS
  5
160
 10
247.554627
 20
660.953759
 30
0.0
 11
244.554627
 21
663.953759
 31
0.0
  0
LINE
  8
LC-007-005-----0
  6
CONTINUOUS
  5
161
 10
237.147126
 20
671.36126
 30
0.0
 11
234.446794
 21
674.061592
 31
0.0
  0
LINE
  8
LC-007-005-----0
  6
CONTINUOUS
  5
162
 10
253.278723
 20
653.815449
 30
0.0
 11
250.487834
 21
656.606338
 31
0.0
  0
LINE
  8
LC-007-005-----0
  6
CONTINUOUS
  5
163
 10
247.554627
 20
659.539545
 30
0.0
 11
244.554627
 21
662.539545
 31
0.0
  0
LINE
  8
LC-007-005-----0
  6
CONTINUOUS
  5
164
 10
235.622089
 20
671.472083
 30
0.0
 11
232.921757
 21
674.172416
 31
0.0
  0
LINE
  8
LC-007-005-----0
  6
CONTINUOUS
  5
165
 10
252.073621
 20
653.606338
 30
0.0
 11
249.073621
 21
656.606338
 31
0.0
  0
LINE
  8
LC-007-005-----0
  6
CONTINUOUS
  5
166
 10
247.554627
 20
658.125332
 30
0.0
 11
244.554627
 21
661.125332
 31
0.0
  0
LINE
  8
LC-007-005-----0
  6
CONTINUOUS
  5
167
 10
234.957842
 20
670.722117
 30
0.0
 11
231.81646
 21
673.863499
 31
0.0
  0
LINE
  8
LC-007-005-----0
  6
CONTINUOUS
  5
168
 10
250.659407
 20
653.606338
 30
0.0
 11
247.659407
 21
656.606338
 31
0.0
  0
LINE
  8
LC-007-005-----0
  6
CONTINUOUS
  5
169
 10
247.554627
 20
656.711118
 30
0.0
 11
244.554627
 21
659.711118
 31
0.0
  0
LINE
  8
LC-007-005-----0
  6
CONTINUOUS
  5
16A
 10
234.957842
 20
669.307903
 30
0.0
 11
231.81646
 21
672.449285
 31
0.0
  0
LINE
  8
LC-007-005-----0
  6
CONTINUOUS
  5
16B
 10
249.245194
 20
653.606338
 30
0.0
 11
244.554627
 21
658.296904
 31
0.0
  0
LINE
  8
LC-007-005-----0
  6
CONTINUOUS
  5
16C
 10
234.957175
 20
667.894357
 30
0.0
 11
231.81646
 21
671.035072
 31
0.0
  0
LINE
  8
LC-007-005-----0
  6
CONTINUOUS
  5
16D
 10
247.83098
 20
653.606338
 30
0.0
 11
244.554627
 21
656.882691
 31
0.0
  0
LINE
  8
LC-007-005-----0
  6
CONTINUOUS
  5
16E
 10
234.957842
 20
666.479476
 30
0.0
 11
231.81646
 21
669.620858
 31
0.0
  0
LINE
  8
LC-007-005-----0
  6
CONTINUOUS
  5
16F
 10
246.416767
 20
653.606338
 30
0.0
 11
244.554627
 21
655.468477
 31
0.0
  0
LINE
  8
LC-007-005-----0
  6
CONTINUOUS
  5
170
 10
234.580784
 20
665.44232
 30
0.0
 11
231.81646
 21
668.206645
 31
0.0
  0
LINE
  8
LC-001-002-----0
  6
CONTINUOUS
 62
     2
  5
171
 10
233.060244
 20
665.548647
 30
0.0
 11
231.81646
 21
666.792431
 31
0.0
  0
ARC
  8
LC-002-002-RND-0
  6
CONTINUOUS
  5
172
 10
397.825511
 20
671.477019
 30
0.0
 40
1.5
 50
94.155641
 51
179.999299
  0
LINE
  8
LC-001-002-----0
  6
CONTINUOUS
  5
173
 10
396.325511
 20
671.477038
 30
0.0
 11
396.325329
 21
656.605448
 31
0.0
  0
LINE
  8
LC-001-002-----0
  6
CONTINUOUS
  5
174
 10
397.716812
 20
672.973076
 30
0.0
 11
415.313712
 21
674.251615
 31
0.0
  0
ARC
  8
LC-002-002-RND-0
  6
CONTINUOUS
  5
175
 10
401.075514
 20
671.713155
 30
0.0
 40
1.5
 50
94.155641
 51
179.999299
  0
LINE
  8
LC-001-002-----0
  6
CONTINUOUS
  5
176
 10
399.575514
 20
671.713173
 30
0.0
 11
399.575329
 21
656.605409
 31
0.0
  0
LINE
  8
LC-001-002-----0
  6
CONTINUOUS
  5
177
 10
393.851233
 20
656.605479
 30
0.0
 11
393.851196
 21
653.605479
 31
0.0
  0
LINE
  8
LC-001-002-----0
  6
CONTINUOUS
  5
178
 10
400.562164
 20
653.605396
 30
0.0
 11
393.851196
 21
653.605479
 31
0.0
  0
ARC
  8
LC-002-002-RND-0
  6
CONTINUOUS
  5
179
 10
401.075311
 20
655.10539
 30
0.0
 40
1.5
 50
269.999299
 51
359.999299
  0
LINE
  8
LC-001-002-----0
  6
CONTINUOUS
  5
17A
 10
402.575486
 20
669.427044
 30
0.0
 11
402.575311
 21
655.105372
 31
0.0
  0
ARC
  8
LC-002-002-RND-0
  6
CONTINUOUS
  5
17B
 10
404.075486
 20
669.427026
 30
0.0
 40
1.5
 50
94.155641
 51
179.999299
  0
LINE
  8
LC-001-002-----0
  6
CONTINUOUS
  5
17C
 10
403.966787
 20
670.923082
 30
0.0
 11
410.454352
 21
671.394449
 31
0.0
  0
LINE
  8
LC-007-005-----0
  6
CONTINUOUS
  5
17D
 10
393.851216
 20
655.228803
 30
0.0
 11
395.227908
 21
656.605462
 31
0.0
  0
LINE
  8
LC-007-005-----0
  6
CONTINUOUS
  5
17E
 10
393.851199
 20
653.81459
 30
0.0
 11
396.642122
 21
656.605444
 31
0.0
  0
LINE
  8
LC-007-005-----0
  6
CONTINUOUS
  5
17F
 10
395.056299
 20
653.605464
 30
0.0
 11
398.056336
 21
656.605427
 31
0.0
  0
LINE
  8
LC-007-005-----0
  6
CONTINUOUS
  5
180
 10
396.470512
 20
653.605447
 30
0.0
 11
399.470549
 21
656.60541
 31
0.0
  0
LINE
  8
LC-007-005-----0
  6
CONTINUOUS
  5
181
 10
397.884726
 20
653.605429
 30
0.0
 11
402.57535
 21
658.295938
 31
0.0
  0
LINE
  8
LC-007-005-----0
  6
CONTINUOUS
  5
182
 10
399.29894
 20
653.605412
 30
0.0
 11
402.575332
 21
656.881725
 31
0.0
  0
LINE
  8
LC-007-005-----0
  6
CONTINUOUS
  5
183
 10
400.713153
 20
653.605395
 30
0.0
 11
402.575315
 21
655.467511
 31
0.0
  0
LINE
  8
LC-007-005-----0
  6
CONTINUOUS
  5
184
 10
399.57533
 20
656.710188
 30
0.0
 11
402.575367
 21
659.710152
 31
0.0
  0
LINE
  8
LC-007-005-----0
  6
CONTINUOUS
  5
185
 10
399.575348
 20
658.124402
 30
0.0
 11
402.575384
 21
661.124365
 31
0.0
  0
LINE
  8
LC-007-005-----0
  6
CONTINUOUS
  5
186
 10
399.575365
 20
659.538616
 30
0.0
 11
402.575402
 21
662.538579
 31
0.0
  0
LINE
  8
LC-007-005-----0
  6
CONTINUOUS
  5
187
 10
399.575382
 20
660.952829
 30
0.0
 11
402.575419
 21
663.952792
 31
0.0
  0
LINE
  8
LC-007-005-----0
  6
CONTINUOUS
  5
188
 10
399.575399
 20
662.367043
 30
0.0
 11
402.575436
 21
665.367006
 31
0.0
  0
LINE
  8
LC-007-005-----0
  6
CONTINUOUS
  5
189
 10
399.575417
 20
663.781256
 30
0.0
 11
402.575453
 21
666.78122
 31
0.0
  0
LINE
  8
LC-007-005-----0
  6
CONTINUOUS
  5
18A
 10
399.575434
 20
665.19547
 30
0.0
 11
402.575471
 21
668.195433
 31
0.0
  0
LINE
  8
LC-007-005-----0
  6
CONTINUOUS
  5
18B
 10
399.575451
 20
666.609683
 30
0.0
 11
402.588267
 21
669.622426
 31
0.0
  0
LINE
  8
LC-007-005-----0
  6
CONTINUOUS
  5
18C
 10
399.575469
 20
668.023897
 30
0.0
 11
405.058184
 21
673.506478
 31
0.0
  0
LINE
  8
LC-007-005-----0
  6
CONTINUOUS
  5
18D
 10
399.575486
 20
669.438111
 30
0.0
 11
403.533146
 21
673.395673
 31
0.0
  0
LINE
  8
LC-007-005-----0
  6
CONTINUOUS
  5
18E
 10
399.575503
 20
670.852324
 30
0.0
 11
402.008107
 21
673.284869
 31
0.0
  0
LINE
  8
LC-007-005-----0
  6
CONTINUOUS
  5
18F
 10
403.880122
 20
670.914249
 30
0.0
 11
406.583222
 21
673.617283
 31
0.0
  0
LINE
  8
LC-007-005-----0
  6
CONTINUOUS
  5
190
 10
405.407896
 20
671.027789
 30
0.0
 11
408.108261
 21
673.728088
 31
0.0
  0
LINE
  8
LC-007-005-----0
  6
CONTINUOUS
  5
191
 10
406.932934
 20
671.138594
 30
0.0
 11
409.633299
 21
673.838893
 31
0.0
  0
LINE
  8
LC-007-005-----0
  6
CONTINUOUS
  5
192
 10
408.457972
 20
671.249398
 30
0.0
 11
411.158338
 21
673.949697
 31
0.0
  0
LINE
  8
LC-007-005-----0
  6
CONTINUOUS
  5
193
 10
409.983011
 20
671.360203
 30
0.0
 11
412.683376
 21
674.060502
 31
0.0
  0
LINE
  8
LC-007-005-----0
  6
CONTINUOUS
  5
194
 10
411.508049
 20
671.471008
 30
0.0
 11
414.208414
 21
674.171307
 31
0.0
  0
LINE
  8
LC-007-005-----0
  6
CONTINUOUS
  5
195
 10
412.172287
 20
670.721033
 30
0.0
 11
415.313707
 21
673.862377
 31
0.0
  0
LINE
  8
LC-007-005-----0
  6
CONTINUOUS
  5
196
 10
412.17227
 20
669.30682
 30
0.0
 11
415.31369
 21
672.448163
 31
0.0
  0
LINE
  8
LC-007-005-----0
  6
CONTINUOUS
  5
197
 10
412.172919
 20
667.893273
 30
0.0
 11
415.313673
 21
671.03395
 31
0.0
  0
LINE
  8
LC-007-005-----0
  6
CONTINUOUS
  5
198
 10
412.172235
 20
666.478393
 30
0.0
 11
415.313655
 21
669.619736
 31
0.0
  0
LINE
  8
LC-007-005-----0
  6
CONTINUOUS
  5
199
 10
412.54928
 20
665.441232
 30
0.0
 11
415.313638
 21
668.205523
 31
0.0
  0
LINE
  8
LC-001-002-----0
  6
CONTINUOUS
 62
     2
  5
19A
 10
414.069821
 20
665.54754
 30
0.0
 11
415.313621
 21
666.791309
 31
0.0
  0
LINE
  8
LC-001-002-----0
  6
CONTINUOUS
  5
19B
 10
253.278723
 20
656.607198
 30
0.0
 11
364.479441
 21
656.605838
 31
0.0
  0
LINE
  8
LC-001-002-----0
  6
CONTINUOUS
  5
19C
 10
356.31793
 20
671.97434
 30
0.0
 11
362.928565
 21
671.974421
 31
0.0
  0
LINE
  8
LC-001-002-----0
  6
CONTINUOUS
  5
19D
 10
364.479441
 20
656.605838
 30
0.0
 11
399.575329
 21
656.605409
 31
0.0
  0
LINE
  8
LC-001-002-----0
  6
CONTINUOUS
  5
19E
 10
246.054627
 20
653.606338
 30
0.0
 11
393.851196
 21
653.606338
 31
0.0
  0
LINE
  8
LC-001-002-----0
  6
CONTINUOUS
  5
19F
 10
294.647944
 20
672.973982
 30
0.0
 11
333.882034
 21
672.973982
 31
0.0
  0
LINE
  8
LC-001-002-----0
  6
CONTINUOUS
  5
1A0
 10
249.413345
 20
672.973982
 30
0.0
 11
294.586711
 21
672.973982
 31
0.0
  0
LINE
  8
LC-001-002-----0
  6
CONTINUOUS
  5
1A1
 10
362.928565
 20
671.974421
 30
0.0
 11
361.929003
 21
672.973982
 31
0.0
  0
LINE
  8
LC-001-002-----0
  6
CONTINUOUS
  5
1A2
 10
356.31793
 20
671.97434
 30
0.0
 11
357.317572
 21
672.973982
 31
0.0
  0
LINE
  8
LC-001-002-----0
  6
CONTINUOUS
  5
1A3
 10
383.06848
 20
671.974667
 30
0.0
 11
383.06848
 21
656.607066
 31
0.0
  0
LINE
  8
LC-001-002-----0
  6
CONTINUOUS
  5
1A4
 10
388.247499
 20
671.974731
 30
0.0
 11
388.247687
 21
656.607129
 31
0.0
  0
LINE
  8
LC-001-002-----0
  6
CONTINUOUS
  5
1A5
 10
383.06848
 20
671.974667
 30
0.0
 11
388.247499
 21
671.974731
 31
0.0
  0
LINE
  8
LC-001-002-----0
  6
CONTINUOUS
  5
1A6
 10
388.247499
 20
671.974731
 30
0.0
 11
387.248247
 21
672.973982
 31
0.0
  0
LINE
  8
LC-001-002-----0
  6
CONTINUOUS
  5
1A7
 10
383.06848
 20
671.974667
 30
0.0
 11
384.067795
 21
672.973982
 31
0.0
  0
ARC
  8
LC-001-002-----0
  6
CONTINUOUS
  5
1A8
 10
257.738104
 20
574.862919
 30
0.0
 40
3.260504
 50
241.228958
 51
58.771042
  0
ARC
  8
LC-002-002-RND-0
  6
CONTINUOUS
  5
1A9
 10
264.61381
 20
577.821432
 30
0.0
 40
1.5
 50
325.205552
 51
60.0
  0
ARC
  8
LC-002-002-RND-0
  6
CONTINUOUS
  5
1AA
 10
264.009598
 20
581.634375
 30
0.0
 40
1.5
 50
143.062398
 51
240.0
  0
ARC
  8
LC-002-002-RND-0
  6
CONTINUOUS
  5
1AB
 10
255.009598
 20
566.045918
 30
0.0
 40
1.5
 50
60.0
 51
156.937602
  0
ARC
  8
LC-002-002-RND-0
  6
CONTINUOUS
  5
1AC
 10
258.61381
 20
567.429127
 30
0.0
 40
1.5
 50
240.0
 51
334.794448
  0
LINE
  8
LC-001-002-----0
  6
CONTINUOUS
  5
1AD
 10
263.259598
 20
580.335337
 30
0.0
 11
265.36381
 21
579.12047
 31
0.0
  0
LINE
  8
LC-001-002-----0
  6
CONTINUOUS
  5
1AE
 10
255.759598
 20
567.344956
 30
0.0
 11
257.86381
 21
566.130089
 31
0.0
  0
ARC
  8
LC-001-002-----0
  6
CONTINUOUS
  5
1AF
 10
323.565132
 20
536.857667
 30
0.0
 40
76.010504
 50
211.703623
 51
238.296377
  0
ARC
  8
LC-001-002-----0
  6
CONTINUOUS
  5
1B0
 10
323.565132
 20
536.857667
 30
0.0
 40
76.010504
 50
241.703623
 51
268.296377
  0
ARC
  8
LC-001-002-----0
  6
CONTINUOUS
  5
1B1
 10
323.565132
 20
536.857667
 30
0.0
 40
76.010504
 50
271.703623
 51
298.296377
  0
ARC
  8
LC-001-002-----0
  6
CONTINUOUS
  5
1B2
 10
323.565132
 20
536.857667
 30
0.0
 40
76.010504
 50
301.703623
 51
328.296377
  0
ARC
  8
LC-001-002-----0
  6
CONTINUOUS
  5
1B3
 10
323.565132
 20
536.857667
 30
0.0
 40
76.010504
 50
331.703623
 51
358.296377
  0
ARC
  8
LC-001-002-----0
  6
CONTINUOUS
  5
1B4
 10
323.565132
 20
536.857667
 30
0.0
 40
76.010504
 50
1.703623
 51
28.296377
  0
ARC
  8
LC-001-002-----0
  6
CONTINUOUS
  5
1B5
 10
323.565132
 20
536.857667
 30
0.0
 40
76.010504
 50
31.703623
 51
58.296377
  0
ARC
  8
LC-001-002-----0
  6
CONTINUOUS
  5
1B6
 10
323.565132
 20
536.857667
 30
0.0
 40
76.010504
 50
61.703623
 51
88.296377
  0
ARC
  8
LC-001-002-----0
  6
CONTINUOUS
  5
1B7
 10
323.565132
 20
536.857667
 30
0.0
 40
76.010504
 50
91.703623
 51
118.296377
  0
ARC
  8
LC-001-002-----0
  6
CONTINUOUS
  5
1B8
 10
323.565132
 20
536.857667
 30
0.0
 40
76.010504
 50
121.703623
 51
148.296377
  0
ARC
  8
LC-001-002-----0
  6
CONTINUOUS
  5
1B9
 10
323.565132
 20
536.857667
 30
0.0
 40
76.010504
 50
151.703623
 51
178.296377
  0
ENDSEC
  0
EOF
