  0
SECTION
  2
HEADER
  9
$ACADVER
  1
AC1009
  9
$INSBASE
 10
0.0
 20
0.0
 30
0.0
  9
$EXTMIN
 10
-315.0
 20
-148.5
 30
0.0
  9
$EXTMAX
 10
525.0
 20
445.5
 30
0.0
  9
$LIMMIN
 10
-315.0
 20
-148.5
  9
$LIMMAX
 10
525.0
 20
445.5
  9
$ORTHOMODE
 70
     0
  9
$REGENMODE
 70
     1
  9
$FILLMODE
 70
     1
  9
$QTEXTMODE
 70
     0
  9
$MIRRTEXT
 70
     1
  9
$DRAGMODE
 70
     2
  9
$LTSCALE
 40
2.0
  9
$OSMODE
 70
     0
  9
$ATTMODE
 70
     1
  9
$TEXTSIZE
 40
0.2
  9
$TRACEWID
 40
0.05
  9
$TEXTSTYLE
  7
STANDARD
  9
$CLAYER
  8
0
  9
$CELTYPE
  6
BYLAYER
  9
$CECOLOR
 62
     7
  9
$DIMSCALE
 40
2.0
  9
$DIMASZ
 40
3.5
  9
$DIMEXO
 40
0.0625
  9
$DIMDLI
 40
0.38
  9
$DIMRND
 40
0.0
  9
$DIMDLE
 40
0.0
  9
$DIMEXE
 40
0.18
  9
$DIMTP
 40
0.0
  9
$DIMTM
 40
0.0
  9
$DIMTXT
 40
3.5
  9
$DIMCEN
 40
0.09
  9
$DIMTSZ
 40
0.0
  9
$DIMTOL
 70
     0
  9
$DIMLIM
 70
     0
  9
$DIMTIH
 70
     1
  9
$DIMTOH
 70
     1
  9
$DIMSE1
 70
     0
  9
$DIMSE2
 70
     0
  9
$DIMTAD
 70
     1
  9
$DIMZIN
 70
     0
  9
$DIMBLK
  1

  9
$DIMASO
 70
     1
  9
$DIMSHO
 70
     1
  9
$DIMPOST
  1

  9
$DIMAPOST
  1

  9
$DIMALT
 70
     0
  9
$DIMALTD
 70
     2
  9
$DIMALTF
 40
25.4
  9
$DIMLFAC
 40
1.0
  9
$DIMTOFL
 70
     0
  9
$DIMTVP
 40
0.0
  9
$DIMTIX
 70
     0
  9
$DIMSOXD
 70
     0
  9
$DIMSAH
 70
     0
  9
$DIMBLK1
  1

  9
$DIMBLK2
  1

  9
$DIMSTYLE
  2
STANDARD
  9
$DIMCLRD
 70
     0
  9
$DIMCLRE
 70
     0
  9
$DIMCLRT
 70
     0
  9
$DIMTFAC
 40
1.0
  9
$DIMGAP
 40
0.09
  9
$LUNITS
 70
     2
  9
$LUPREC
 70
     2
  9
$AXISMODE
 70
     0
  9
$AXISUNIT
 10
0.0
 20
0.0
  9
$SKETCHINC
 40
0.1
  9
$FILLETRAD
 40
0.0
  9
$AUNITS
 70
     0
  9
$AUPREC
 70
     0
  9
$MENU
  1
acad
  9
$ELEVATION
 40
0.0
  9
$PELEVATION
 40
0.0
  9
$THICKNESS
 40
0.0
  9
$LIMCHECK
 70
     0
  9
$BLIPMODE
 70
     1
  9
$CHAMFERA
 40
0.0
  9
$CHAMFERB
 40
0.0
  9
$SKPOLY
 70
     0
  9
$TDCREATE
 40
0.000000000
  9
$TDUPDATE
 40
0.000000000
  9
$TDINDWG
 40
0.0000000000
  9
$TDUSRTIMER
 40
0.0000000000
  9
$USRTIMER
 70
     1
  9
$ANGBASE
 50
0.0
  9
$ANGDIR
 70
     0
  9
$PDMODE
 70
     0
  9
$PDSIZE
 40
0.0
  9
$PLINEWID
 40
0.0
  9
$COORDS
 70
     0
  9
$SPLFRAME
 70
     0
  9
$SPLINETYPE
 70
     6
  9
$SPLINESEGS
 70
     8
  9
$ATTDIA
 70
     0
  9
$ATTREQ
 70
     1
  9
$HANDLING
 70
     1
  9
$HANDSEED
  5
89
  9
$SURFTAB1
 70
     6
  9
$SURFTAB2
 70
     6
  9
$SURFTYPE
 70
     6
  9
$SURFU
 70
     6
  9
$SURFV
 70
     6
  9
$UCSNAME
  2

  9
$UCSORG
 10
0.0
 20
0.0
 30
0.0
  9
$UCSXDIR
 10
1.0
 20
0.0
 30
0.0
  9
$UCSYDIR
 10
0.0
 20
1.0
 30
0.0
  9
$PUCSNAME
  2

  9
$PUCSORG
 10
0.0
 20
0.0
 30
0.0
  9
$PUCSXDIR
 10
1.0
 20
0.0
 30
0.0
  9
$PUCSYDIR
 10
0.0
 20
1.0
 30
0.0
  9
$USERI1
 70
     0
  9
$USERI2
 70
     0
  9
$USERI3
 70
     0
  9
$USERI4
 70
     0
  9
$USERI5
 70
     0
  9
$USERR1
 40
0.0
  9
$USERR2
 40
0.0
  9
$USERR3
 40
0.0
  9
$USERR4
 40
0.0
  9
$USERR5
 40
0.0
  9
$WORLDVIEW
 70
     1
  9
$SHADEDGE
 70
     3
  9
$SHADEDIF
 70
    70
  9
$TILEMODE
 70
     1
  9
$MAXACTVP
 70
    16
  9
$PINSBASE
 10
0.0
 20
0.0
 30
0.0
  9
$PLIMCHECK
 70
     0
  9
$PEXTMIN
 10
1.000000E+20
 20
1.000000E+20
 30
1.000000E+20
  9
$PEXTMAX
 10
-1.000000E+20
 20
-1.000000E+20
 30
-1.000000E+20
  9
$PLIMMIN
 10
-315.0
 20
-148.5
  9
$PLIMMAX
 10
525.0
 20
445.5
  9
$UNITMODE
 70
     0
  9
$VISRETAIN
 70
     0
  9
$PLINEGEN
 70
     1
  9
$PSLTSCALE
 70
     0
  9
$TREEDEPTH
 70
  3020
  9
$DWGCODEPAGE
  3
dos850
  0
ENDSEC
  0
SECTION
  2
TABLES
  0
TABLE
  2
VPORT
 70
     1
  0
VPORT
  2
*ACTIVE
 70
     0
 10
0.0
 20
0.0
 11
1.0
 21
1.0
 12
420.0
 22
297.0
 13
0.0
 23
0.0
 14
1.0
 24
1.0
 15
0.0
 25
0.0
 16
0.0
 26
0.0
 36
1.0
 17
-315.0
 27
-148.5
 37
0.0
 40
594.0
 41
1.604229
 42
50.0
 43
0.0
 44
0.0
 50
0.0
 51
0.0
 71
     0
 72
   100
 73
     1
 74
     1
 75
     0
 76
     0
 77
     0
 78
     0
  0
ENDTAB
  0
TABLE
  2
LTYPE
 70
     1
  0
LTYPE
  2
CONTINUOUS
 70
    64
  3
Solid line
 72
    65
 73
     0
 40
0.0
  0
ENDTAB
  0
TABLE
  2
LAYER
 70
     9
  0
LAYER
  2
0
 70
     0
 62
     7
  6
CONTINUOUS
  0
LAYER
  2
LC-INFO-1-2-MM-A3-0
 70
     1
 62
    -1
  6
CONTINUOUS
  0
LAYER
  2
LC-005-003-MTH-0
 70
     0
 62
     2
  6
CONTINUOUS
  0
LAYER
  2
LC-006-003-MTG-0
 70
     0
 62
     2
  6
CONTINUOUS
  0
LAYER
  2
LC-004-003-----0
 70
     0
 62
     2
  6
CONTINUOUS
  0
LAYER
  2
LC-002-000-----0
 70
     0
 62
     7
  6
CONTINUOUS
  0
LAYER
  2
LC-001-002-----0
 70
     0
 62
     1
  6
CONTINUOUS
  0
LAYER
  2
LC-003-002-RND-0
 70
     0
 62
     1
  6
CONTINUOUS
  0
LAYER
  2
LC-000
 70
     0
 62
     7
  6
CONTINUOUS
  0
ENDTAB
  0
TABLE
  2
STYLE
 70
     4
  0
STYLE
  2
STANDARD
 70
     0
 40
0.0
 41
1.0
 50
0.0
 71
     0
 42
0.0
  3
txt
  4

  0
STYLE
  2
LC-STANDARD
 70
    64
 40
0.0
 41
1.0
 50
0.0
 71
     0
 42
3.5
  3
MONOTXT
  4

  0
STYLE
  2
LC-TXTSTYLE-150-400-0-0-A2
 70
    64
 40
0.0
 41
1.0
 50
15.0
 71
     0
 42
3.5
  3
MONOTXT
  4

  0
STYLE
  2
LC-TXTSTYLE-150-400-0-0-D3
 70
    64
 40
0.0
 41
1.0
 50
15.0
 71
     0
 42
3.5
  3
LC-STANDARD
  4

  0
ENDTAB
  0
TABLE
  2
VIEW
 70
     0
  0
ENDTAB
  0
TABLE
  2
UCS
 70
     0
  0
ENDTAB
  0
TABLE
  2
APPID
 70
     1
  0
APPID
  2
ACAD
 70
     0
  0
ENDTAB
  0
TABLE
  2
DIMSTYLE
 70
     3
  0
DIMSTYLE
  2
STANDARD
 70
     0
  3

  4

  5

  6

  7

 40
1.0
 41
0.18
 42
0.0625
 43
0.38
 44
0.18
 45
0.0
 46
0.0
 47
0.0
 48
0.0
 71
     0
 72
     0
 73
     1
 74
     1
 75
     0
 76
     0
 77
     0
 78
     0
140
0.18
141
0.09
142
0.0
143
25.4
144
1.0
145
0.0
146
1.0
147
0.09
170
     0
171
     2
172
     0
173
     0
174
     0
175
     0
176
     0
177
     0
178
     0
  0
DIMSTYLE
  2
LC-STANDARD
 70
     0
  3

  4

  5

  6

  7

 40
1.0
 41
3.5
 42
0.0
 43
7.5
 44
1.8
 45
0.0
 46
0.0
 47
0.0
 48
0.0
 71
     0
 72
     0
 73
     0
 74
     0
 75
     0
 76
     0
 77
     1
 78
     8
140
3.5
141
0.0
142
0.0
143
25.4
144
1.0
145
0.0
146
0.71
147
1.5
170
     0
171
     2
172
     1
173
     0
174
     0
175
     0
176
     0
177
     0
178
     3
  0
DIMSTYLE
  2
LC-DIM-L-0140-02-02
 70
     0
  3

  4

  5

  6

  7

 40
2.0
 41
3.5
 42
0.0
 43
7.5
 44
1.8
 45
0.0
 46
0.0
 47
0.0
 48
0.0
 71
     0
 72
     0
 73
     0
 74
     0
 75
     0
 76
     0
 77
     1
 78
     8
140
14.0
141
0.0
142
0.0
143
25.4
144
1.0
145
0.0
146
0.71
147
1.5
170
     0
171
     2
172
     0
173
     0
174
     0
175
     0
176
     2
177
     2
178
     8
  0
ENDTAB
  0
ENDSEC
  0
SECTION
  2
BLOCKS
  0
BLOCK
  8
0
  5
23
  2
BLK1
 70
    64
 10
0.0
 20
0.0
 30
0.0
  3
BLK1
  0
ENDBLK
  8
0
  5
24
  0
BLOCK
  8
0
  5
26
  2
*D1
 70
    65
 10
0.0
 20
0.0
 30
0.0
  3
*D1
  0
LINE
  8
LC-005-003-MTH-0
  6
CONTINUOUS
  5
28
 10
49.897469
 20
268.491894
 30
0.0
 11
49.897469
 21
310.8
 31
0.0
  0
LINE
  8
LC-005-003-MTH-0
  6
CONTINUOUS
  5
29
 10
164.897469
 20
268.491894
 30
0.0
 11
164.897469
 21
310.8
 31
0.0
  0
LINE
  8
LC-006-003-MTG-0
  6
CONTINUOUS
  5
2B
 10
49.897469
 20
294.0
 30
0.0
 11
164.897469
 21
294.0
 31
0.0
  0
LINE
  8
LC-004-003-----0
  6
CONTINUOUS
  5
2D
 10
77.657925
 20
297.654733
 30
0.0
 11
49.897469
 21
294.0
 31
0.0
  0
LINE
  8
LC-004-003-----0
  6
CONTINUOUS
  5
2E
 10
49.897469
 20
294.0
 30
0.0
 11
77.657925
 21
290.345267
 31
0.0
  0
LINE
  8
LC-004-003-----0
  6
CONTINUOUS
  5
2F
 10
77.657925
 20
290.345267
 30
0.0
 11
77.657925
 21
297.654733
 31
0.0
  0
LINE
  8
LC-004-003-----0
  6
CONTINUOUS
  5
30
 10
77.720207
 20
296.704503
 30
0.0
 11
57.177469
 21
294.0
 31
0.0
  0
LINE
  8
LC-004-003-----0
  6
CONTINUOUS
  5
31
 10
57.177469
 20
294.0
 30
0.0
 11
77.720207
 21
291.295497
 31
0.0
  0
LINE
  8
LC-004-003-----0
  6
CONTINUOUS
  5
32
 10
77.782488
 20
295.754272
 30
0.0
 11
64.457469
 21
294.0
 31
0.0
  0
LINE
  8
LC-004-003-----0
  6
CONTINUOUS
  5
33
 10
64.457469
 20
294.0
 30
0.0
 11
77.782488
 21
292.245728
 31
0.0
  0
LINE
  8
LC-004-003-----0
  6
CONTINUOUS
  5
34
 10
77.844769
 20
294.804041
 30
0.0
 11
71.737469
 21
294.0
 31
0.0
  0
LINE
  8
LC-004-003-----0
  6
CONTINUOUS
  5
35
 10
71.737469
 20
294.0
 30
0.0
 11
77.844769
 21
293.195959
 31
0.0
  0
LINE
  8
LC-004-003-----0
  6
CONTINUOUS
  5
36
 10
137.137013
 20
290.345267
 30
0.0
 11
164.897469
 21
294.0
 31
0.0
  0
LINE
  8
LC-004-003-----0
  6
CONTINUOUS
  5
37
 10
164.897469
 20
294.0
 30
0.0
 11
137.137013
 21
297.654733
 31
0.0
  0
LINE
  8
LC-004-003-----0
  6
CONTINUOUS
  5
38
 10
137.137013
 20
297.654733
 30
0.0
 11
137.137013
 21
290.345267
 31
0.0
  0
LINE
  8
LC-004-003-----0
  6
CONTINUOUS
  5
39
 10
137.074732
 20
291.295497
 30
0.0
 11
157.617469
 21
294.0
 31
0.0
  0
LINE
  8
LC-004-003-----0
  6
CONTINUOUS
  5
3A
 10
157.617469
 20
294.0
 30
0.0
 11
137.074732
 21
296.704503
 31
0.0
  0
LINE
  8
LC-004-003-----0
  6
CONTINUOUS
  5
3B
 10
137.01245
 20
292.245728
 30
0.0
 11
150.337469
 21
294.0
 31
0.0
  0
LINE
  8
LC-004-003-----0
  6
CONTINUOUS
  5
3C
 10
150.337469
 20
294.0
 30
0.0
 11
137.01245
 21
295.754272
 31
0.0
  0
LINE
  8
LC-004-003-----0
  6
CONTINUOUS
  5
3D
 10
136.950169
 20
293.195959
 30
0.0
 11
143.057469
 21
294.0
 31
0.0
  0
LINE
  8
LC-004-003-----0
  6
CONTINUOUS
  5
3E
 10
143.057469
 20
294.0
 30
0.0
 11
136.950169
 21
294.804041
 31
0.0
  0
TEXT
  8
LC-004-003-----0
  6
CONTINUOUS
 62
     8
  5
40
 10
77.723547
 20
301.827554
 30
0.0
 40
28.0
  1
115
 41
0.9
 51
15.0
  7
LC-TXTSTYLE-150-400-0-0-D0
 72
     1
 11
107.487326
 21
301.827554
 31
0.0
  0
ENDBLK
  8
0
  5
41
  0
ENDSEC
  0
SECTION
  2
ENTITIES
  0
VIEWPORT
  8
LC-000
  5
84
 67
     1
 68
     1
 10
420.0
 20
297.0
 30
0.0
 40
840.0
 41
594.0
 69
     1
1001
ACAD
1000
MVIEW
1002
{
1070
    16
1010
0.0
1020
0.0
1030
0.0
1010
0.0
1020
0.0
1030
1.0
1040
0.0
1040
594.0
1040
420.0
1040
297.0
1040
50.0
1040
0.0
1040
0.0
1070
     0
1070
   100
1070
     1
1070
     1
1070
     0
1070
     0
1070
     0
1070
     0
1040
0.0
1040
0.0
1040
0.0
1040
1.0
1040
1.0
1040
0.0
1040
0.0
1070
     0
1002
{
1002
}
1002
}
  0
VIEWPORT
  8
0
  5
85
 67
     1
 68
     1
 10
0.0
 20
0.0
 30
0.0
 40
0.0
 41
0.0
 69
     1
1001
ACAD
1000
MVIEW
1002
{
1070
    16
1010
0.0
1020
0.0
1030
0.0
1010
0.0
1020
0.0
1030
1.0
1040
0.0
1040
594.0
1040
0.0
1040
0.0
1040
50.0
1040
0.0
1040
0.0
1070
     0
1070
   100
1070
     0
1070
     1
1070
     0
1070
     0
1070
     0
1070
     0
1040
0.0
1040
0.0
1040
0.0
1040
0.5
1040
0.5
1040
0.5
1040
0.5
1070
     0
1002
{
1002
}
1002
}
  0
INSERT
  8
0
  5
43
  2
BLK1
 10
0.0
 20
0.0
 30
0.0
  0
DIMENSION
  8
0
  5
44
  2
*D1
 10
103.139166
 20
294.0
 30
0.0
 11
103.139166
 21
294.0
 31
0.0
 13
164.897469
 23
268.491894
 33
0.0
 14
49.897469
 24
268.491894
 34
0.0
  3
LC-DIM-L-0140-02-02
  0
LINE
  8
LC-001-002-----0
  6
CONTINUOUS
  5
46
 10
52.897469
 20
156.491894
 30
0.0
 11
161.897469
 21
156.491894
 31
0.0
  0
LINE
  8
LC-001-002-----0
  6
CONTINUOUS
  5
47
 10
164.897469
 20
159.491894
 30
0.0
 11
164.897469
 21
268.491894
 31
0.0
  0
LINE
  8
LC-001-002-----0
  6
CONTINUOUS
  5
48
 10
49.897469
 20
268.491894
 30
0.0
 11
49.897469
 21
159.491894
 31
0.0
  0
ARC
  8
LC-003-002-RND-0
  6
CONTINUOUS
  5
4A
 10
52.897469
 20
268.491894
 30
0.0
 40
3.0
 50
90.0
 51
180.0
  0
ARC
  8
LC-003-002-RND-0
  6
CONTINUOUS
  5
4B
 10
161.897469
 20
268.491894
 30
0.0
 40
3.0
 50
0.0
 51
90.0
  0
ARC
  8
LC-003-002-RND-0
  6
CONTINUOUS
  5
4C
 10
161.897469
 20
159.491894
 30
0.0
 40
3.0
 50
270.0
 51
0.0
  0
ARC
  8
LC-003-002-RND-0
  6
CONTINUOUS
  5
4D
 10
52.897469
 20
159.491894
 30
0.0
 40
3.0
 50
180.0
 51
270.0
  0
LINE
  8
LC-001-002-----0
  6
CONTINUOUS
  5
4E
 10
95.897469
 20
219.491894
 30
0.0
 11
101.897469
 21
219.491894
 31
0.0
  0
LINE
  8
LC-001-002-----0
  6
CONTINUOUS
  5
4F
 10
101.897469
 20
251.491894
 30
0.0
 11
101.897469
 21
219.491894
 31
0.0
  0
LINE
  8
LC-001-002-----0
  6
CONTINUOUS
  5
50
 10
95.897469
 20
251.491894
 30
0.0
 11
95.897469
 21
219.491894
 31
0.0
  0
LINE
  8
LC-001-002-----0
  6
CONTINUOUS
  5
51
 10
88.897469
 20
251.491894
 30
0.0
 11
88.897469
 21
219.491894
 31
0.0
  0
LINE
  8
LC-001-002-----0
  6
CONTINUOUS
  5
52
 10
82.897469
 20
251.491894
 30
0.0
 11
82.897469
 21
219.491894
 31
0.0
  0
LINE
  8
LC-001-002-----0
  6
CONTINUOUS
  5
53
 10
82.897469
 20
219.491894
 30
0.0
 11
88.897469
 21
219.491894
 31
0.0
  0
LINE
  8
LC-001-002-----0
  6
CONTINUOUS
  5
54
 10
75.897469
 20
251.491894
 30
0.0
 11
75.897469
 21
219.491894
 31
0.0
  0
LINE
  8
LC-001-002-----0
  6
CONTINUOUS
  5
55
 10
69.897469
 20
251.491894
 30
0.0
 11
69.897469
 21
219.491894
 31
0.0
  0
LINE
  8
LC-001-002-----0
  6
CONTINUOUS
  5
56
 10
69.897469
 20
219.491894
 30
0.0
 11
75.897469
 21
219.491894
 31
0.0
  0
LINE
  8
LC-001-002-----0
  6
CONTINUOUS
  5
57
 10
95.897469
 20
251.491894
 30
0.0
 11
101.897469
 21
251.491894
 31
0.0
  0
LINE
  8
LC-001-002-----0
  6
CONTINUOUS
  5
58
 10
82.897469
 20
251.491894
 30
0.0
 11
88.897469
 21
251.491894
 31
0.0
  0
LINE
  8
LC-001-002-----0
  6
CONTINUOUS
  5
59
 10
69.897469
 20
251.491894
 30
0.0
 11
75.897469
 21
251.491894
 31
0.0
  0
LINE
  8
LC-001-002-----0
  6
CONTINUOUS
  5
5A
 10
101.897469
 20
202.491894
 30
0.0
 11
101.897469
 21
208.491894
 31
0.0
  0
LINE
  8
LC-001-002-----0
  6
CONTINUOUS
  5
5B
 10
69.897469
 20
208.491894
 30
0.0
 11
101.897469
 21
208.491894
 31
0.0
  0
LINE
  8
LC-001-002-----0
  6
CONTINUOUS
  5
5C
 10
69.897469
 20
202.491894
 30
0.0
 11
101.897469
 21
202.491894
 31
0.0
  0
LINE
  8
LC-001-002-----0
  6
CONTINUOUS
  5
5D
 10
69.897469
 20
195.491894
 30
0.0
 11
101.897469
 21
195.491894
 31
0.0
  0
LINE
  8
LC-001-002-----0
  6
CONTINUOUS
  5
5E
 10
69.897469
 20
189.491894
 30
0.0
 11
101.897469
 21
189.491894
 31
0.0
  0
LINE
  8
LC-001-002-----0
  6
CONTINUOUS
  5
5F
 10
101.897469
 20
189.491894
 30
0.0
 11
101.897469
 21
195.491894
 31
0.0
  0
LINE
  8
LC-001-002-----0
  6
CONTINUOUS
  5
60
 10
69.897469
 20
182.491894
 30
0.0
 11
101.897469
 21
182.491894
 31
0.0
  0
LINE
  8
LC-001-002-----0
  6
CONTINUOUS
  5
61
 10
69.897469
 20
176.491894
 30
0.0
 11
101.897469
 21
176.491894
 31
0.0
  0
LINE
  8
LC-001-002-----0
  6
CONTINUOUS
  5
62
 10
101.897469
 20
176.491894
 30
0.0
 11
101.897469
 21
182.491894
 31
0.0
  0
LINE
  8
LC-001-002-----0
  6
CONTINUOUS
  5
63
 10
69.897469
 20
202.491894
 30
0.0
 11
69.897469
 21
208.491894
 31
0.0
  0
LINE
  8
LC-001-002-----0
  6
CONTINUOUS
  5
64
 10
69.897469
 20
189.491894
 30
0.0
 11
69.897469
 21
195.491894
 31
0.0
  0
LINE
  8
LC-001-002-----0
  6
CONTINUOUS
  5
65
 10
69.897469
 20
176.491894
 30
0.0
 11
69.897469
 21
182.491894
 31
0.0
  0
LINE
  8
LC-001-002-----0
  6
CONTINUOUS
  5
66
 10
118.897469
 20
208.491894
 30
0.0
 11
112.897469
 21
208.491894
 31
0.0
  0
LINE
  8
LC-001-002-----0
  6
CONTINUOUS
  5
67
 10
112.897469
 20
176.491894
 30
0.0
 11
112.897469
 21
208.491894
 31
0.0
  0
LINE
  8
LC-001-002-----0
  6
CONTINUOUS
  5
68
 10
118.897469
 20
176.491894
 30
0.0
 11
118.897469
 21
208.491894
 31
0.0
  0
LINE
  8
LC-001-002-----0
  6
CONTINUOUS
  5
69
 10
125.897469
 20
176.491894
 30
0.0
 11
125.897469
 21
208.491894
 31
0.0
  0
LINE
  8
LC-001-002-----0
  6
CONTINUOUS
  5
6A
 10
131.897469
 20
176.491894
 30
0.0
 11
131.897469
 21
208.491894
 31
0.0
  0
LINE
  8
LC-001-002-----0
  6
CONTINUOUS
  5
6B
 10
131.897469
 20
208.491894
 30
0.0
 11
125.897469
 21
208.491894
 31
0.0
  0
LINE
  8
LC-001-002-----0
  6
CONTINUOUS
  5
6C
 10
138.897469
 20
176.491894
 30
0.0
 11
138.897469
 21
208.491894
 31
0.0
  0
LINE
  8
LC-001-002-----0
  6
CONTINUOUS
  5
6D
 10
144.897469
 20
176.491894
 30
0.0
 11
144.897469
 21
208.491894
 31
0.0
  0
LINE
  8
LC-001-002-----0
  6
CONTINUOUS
  5
6E
 10
144.897469
 20
208.491894
 30
0.0
 11
138.897469
 21
208.491894
 31
0.0
  0
LINE
  8
LC-001-002-----0
  6
CONTINUOUS
  5
6F
 10
118.897469
 20
176.491894
 30
0.0
 11
112.897469
 21
176.491894
 31
0.0
  0
LINE
  8
LC-001-002-----0
  6
CONTINUOUS
  5
70
 10
131.897469
 20
176.491894
 30
0.0
 11
125.897469
 21
176.491894
 31
0.0
  0
LINE
  8
LC-001-002-----0
  6
CONTINUOUS
  5
71
 10
144.897469
 20
176.491894
 30
0.0
 11
138.897469
 21
176.491894
 31
0.0
  0
LINE
  8
LC-001-002-----0
  6
CONTINUOUS
  5
72
 10
112.897469
 20
225.491894
 30
0.0
 11
112.897469
 21
219.491894
 31
0.0
  0
LINE
  8
LC-001-002-----0
  6
CONTINUOUS
  5
73
 10
144.897469
 20
219.491894
 30
0.0
 11
112.897469
 21
219.491894
 31
0.0
  0
LINE
  8
LC-001-002-----0
  6
CONTINUOUS
  5
74
 10
144.897469
 20
225.491894
 30
0.0
 11
112.897469
 21
225.491894
 31
0.0
  0
LINE
  8
LC-001-002-----0
  6
CONTINUOUS
  5
75
 10
144.897469
 20
232.491894
 30
0.0
 11
112.897469
 21
232.491894
 31
0.0
  0
LINE
  8
LC-001-002-----0
  6
CONTINUOUS
  5
76
 10
144.897469
 20
238.491894
 30
0.0
 11
112.897469
 21
238.491894
 31
0.0
  0
LINE
  8
LC-001-002-----0
  6
CONTINUOUS
  5
77
 10
112.897469
 20
238.491894
 30
0.0
 11
112.897469
 21
232.491894
 31
0.0
  0
LINE
  8
LC-001-002-----0
  6
CONTINUOUS
  5
78
 10
144.897469
 20
245.491894
 30
0.0
 11
112.897469
 21
245.491894
 31
0.0
  0
LINE
  8
LC-001-002-----0
  6
CONTINUOUS
  5
79
 10
144.897469
 20
251.491894
 30
0.0
 11
112.897469
 21
251.491894
 31
0.0
  0
LINE
  8
LC-001-002-----0
  6
CONTINUOUS
  5
7A
 10
112.897469
 20
251.491894
 30
0.0
 11
112.897469
 21
245.491894
 31
0.0
  0
LINE
  8
LC-001-002-----0
  6
CONTINUOUS
  5
7B
 10
144.897469
 20
225.491894
 30
0.0
 11
144.897469
 21
219.491894
 31
0.0
  0
LINE
  8
LC-001-002-----0
  6
CONTINUOUS
  5
7C
 10
144.897469
 20
238.491894
 30
0.0
 11
144.897469
 21
232.491894
 31
0.0
  0
LINE
  8
LC-001-002-----0
  6
CONTINUOUS
  5
7D
 10
144.897469
 20
251.491894
 30
0.0
 11
144.897469
 21
245.491894
 31
0.0
  0
LINE
  8
LC-001-002-----0
  6
CONTINUOUS
 62
     2
  5
7E
 10
64.83977
 20
305.91
 30
0.0
 11
79.83977
 21
305.91
 31
0.0
  0
LINE
  8
LC-001-002-----0
  6
CONTINUOUS
 62
     2
  5
7F
 10
79.83977
 20
305.91
 30
0.0
 11
79.83977
 21
320.91
 31
0.0
  0
LINE
  8
LC-001-002-----0
  6
CONTINUOUS
 62
     2
  5
80
 10
64.83977
 20
320.91
 30
0.0
 11
79.83977
 21
320.91
 31
0.0
  0
LINE
  8
LC-001-002-----0
  6
CONTINUOUS
 62
     2
  5
81
 10
64.83977
 20
305.91
 30
0.0
 11
64.83977
 21
320.91
 31
0.0
  0
LINE
  8
LC-001-002-----0
  6
CONTINUOUS
  5
82
 10
161.897469
 20
271.491894
 30
0.0
 11
52.897469
 21
271.491894
 31
0.0
  0
ENDSEC
  0
EOF
