  0
SECTION
  2
HEADER
  9
$ACADVER
  1
AC1027
  9
$ACADMAINTVER
 70
   105
  9
$DWGCODEPAGE
  3
ANSI_1252
  9
$REQUIREDVERSIONS
160
                 0
  9
$INSBASE
 10
0.0
 20
0.0
 30
0.0
  9
$EXTMIN
 10
0.0
 20
0.0
 30
0.0
  9
$EXTMAX
 10
840.0
 20
594.0
 30
0.0
  9
$LIMMIN
 10
0.0
 20
0.0
  9
$LIMMAX
 10
840.0
 20
594.0
  9
$ORTHOMODE
 70
     0
  9
$REGENMODE
 70
     1
  9
$FILLMODE
 70
     1
  9
$QTEXTMODE
 70
     0
  9
$MIRRTEXT
 70
     1
  9
$LTSCALE
 40
2.0
  9
$ATTMODE
 70
     1
  9
$TEXTSIZE
 40
7.0
  9
$TRACEWID
 40
1.0
  9
$TEXTSTYLE
  7
Standard
  9
$CLAYER
  8
0
  9
$CELTYPE
  6
ByLayer
  9
$CECOLOR
 62
   256
  9
$CELTSCALE
 40
1.0
  9
$DISPSILH
 70
     0
  9
$DIMSCALE
 40
1.0
  9
$DIMASZ
 40
6.604
  9
$DIMEXO
 40
2.0
  9
$DIMDLI
 40
3.75
  9
$DIMRND
 40
0.0
  9
$DIMDLE
 40
0.0
  9
$DIMEXE
 40
2.0
  9
$DIMTP
 40
0.0
  9
$DIMTM
 40
0.0
  9
$DIMTXT
 40
7.0
  9
$DIMCEN
 40
2.5
  9
$DIMTSZ
 40
0.0
  9
$DIMTOL
 70
     0
  9
$DIMLIM
 70
     0
  9
$DIMTIH
 70
     1
  9
$DIMTOH
 70
     1
  9
$DIMSE1
 70
     0
  9
$DIMSE2
 70
     0
  9
$DIMTAD
 70
     1
  9
$DIMZIN
 70
     1
  9
$DIMBLK
  1

  9
$DIMASO
 70
     1
  9
$DIMSHO
 70
     1
  9
$DIMPOST
  1

  9
$DIMAPOST
  1

  9
$DIMALT
 70
     0
  9
$DIMALTD
 70
     3
  9
$DIMALTF
 40
0.0393700787
  9
$DIMLFAC
 40
1.0
  9
$DIMTOFL
 70
     1
  9
$DIMTVP
 40
0.0
  9
$DIMTIX
 70
     0
  9
$DIMSOXD
 70
     0
  9
$DIMSAH
 70
     0
  9
$DIMBLK1
  1

  9
$DIMBLK2
  1

  9
$DIMSTYLE
  2
ISO-25
  9
$DIMCLRD
 70
     0
  9
$DIMCLRE
 70
     0
  9
$DIMCLRT
 70
     0
  9
$DIMTFAC
 40
1.0
  9
$DIMGAP
 40
3.048
  9
$DIMJUST
 70
     0
  9
$DIMSD1
 70
     0
  9
$DIMSD2
 70
     0
  9
$DIMTOLJ
 70
     0
  9
$DIMTZIN
 70
     1
  9
$DIMALTZ
 70
     0
  9
$DIMALTTZ
 70
     0
  9
$DIMUPT
 70
     0
  9
$DIMDEC
 70
     2
  9
$DIMTDEC
 70
     2
  9
$DIMALTU
 70
     2
  9
$DIMALTTD
 70
     3
  9
$DIMTXSTY
  7
Standard
  9
$DIMAUNIT
 70
     0
  9
$DIMADEC
 70
     2
  9
$DIMALTRND
 40
0.0
  9
$DIMAZIN
 70
     0
  9
$DIMDSEP
 70
    44
  9
$DIMATFIT
 70
     3
  9
$DIMFRAC
 70
     0
  9
$DIMLDRBLK
  1

  9
$DIMLUNIT
 70
     2
  9
$DIMLWD
 70
    -2
  9
$DIMLWE
 70
    -2
  9
$DIMTMOVE
 70
     0
  9
$DIMFXL
 40
1.0
  9
$DIMFXLON
 70
     0
  9
$DIMJOGANG
 40
0.7853981634
  9
$DIMTFILL
 70
     0
  9
$DIMTFILLCLR
 70
     0
  9
$DIMARCSYM
 70
     0
  9
$DIMLTYPE
  6

  9
$DIMLTEX1
  6

  9
$DIMLTEX2
  6

  9
$DIMTXTDIRECTION
 70
     0
  9
$LUNITS
 70
     2
  9
$LUPREC
 70
     2
  9
$SKETCHINC
 40
1.0
  9
$FILLETRAD
 40
10.0
  9
$AUNITS
 70
     0
  9
$AUPREC
 70
     2
  9
$MENU
  1
.
  9
$ELEVATION
 40
0.0
  9
$PELEVATION
 40
0.0
  9
$THICKNESS
 40
0.0
  9
$LIMCHECK
 70
     0
  9
$CHAMFERA
 40
0.0
  9
$CHAMFERB
 40
0.0
  9
$CHAMFERC
 40
0.0
  9
$CHAMFERD
 40
0.0
  9
$SKPOLY
 70
     0
  9
$TDCREATE
 40
2459040.562845729
  9
$TDUCREATE
 40
2459040.479512396
  9
$TDUPDATE
 40
2459040.562848981
  9
$TDUUPDATE
 40
2459040.479515648
  9
$TDINDWG
 40
0.0000000116
  9
$TDUSRTIMER
 40
0.0000000116
  9
$USRTIMER
 70
     1
  9
$ANGBASE
 50
0.0
  9
$ANGDIR
 70
     0
  9
$PDMODE
 70
     0
  9
$PDSIZE
 40
-1.0
  9
$PLINEWID
 40
0.0
  9
$SPLFRAME
 70
     0
  9
$SPLINETYPE
 70
     6
  9
$SPLINESEGS
 70
     8
  9
$HANDSEED
  5
2EF
  9
$SURFTAB1
 70
     6
  9
$SURFTAB2
 70
     6
  9
$SURFTYPE
 70
     6
  9
$SURFU
 70
     6
  9
$SURFV
 70
     6
  9
$UCSBASE
  2

  9
$UCSNAME
  2

  9
$UCSORG
 10
0.0
 20
0.0
 30
0.0
  9
$UCSXDIR
 10
1.0
 20
0.0
 30
0.0
  9
$UCSYDIR
 10
0.0
 20
1.0
 30
0.0
  9
$UCSORTHOREF
  2

  9
$UCSORTHOVIEW
 70
     0
  9
$UCSORGTOP
 10
0.0
 20
0.0
 30
0.0
  9
$UCSORGBOTTOM
 10
0.0
 20
0.0
 30
0.0
  9
$UCSORGLEFT
 10
0.0
 20
0.0
 30
0.0
  9
$UCSORGRIGHT
 10
0.0
 20
0.0
 30
0.0
  9
$UCSORGFRONT
 10
0.0
 20
0.0
 30
0.0
  9
$UCSORGBACK
 10
0.0
 20
0.0
 30
0.0
  9
$PUCSBASE
  2

  9
$PUCSNAME
  2

  9
$PUCSORG
 10
0.0
 20
0.0
 30
0.0
  9
$PUCSXDIR
 10
1.0
 20
0.0
 30
0.0
  9
$PUCSYDIR
 10
0.0
 20
1.0
 30
0.0
  9
$PUCSORTHOREF
  2

  9
$PUCSORTHOVIEW
 70
     0
  9
$PUCSORGTOP
 10
0.0
 20
0.0
 30
0.0
  9
$PUCSORGBOTTOM
 10
0.0
 20
0.0
 30
0.0
  9
$PUCSORGLEFT
 10
0.0
 20
0.0
 30
0.0
  9
$PUCSORGRIGHT
 10
0.0
 20
0.0
 30
0.0
  9
$PUCSORGFRONT
 10
0.0
 20
0.0
 30
0.0
  9
$PUCSORGBACK
 10
0.0
 20
0.0
 30
0.0
  9
$USERI1
 70
     0
  9
$USERI2
 70
     0
  9
$USERI3
 70
     0
  9
$USERI4
 70
     0
  9
$USERI5
 70
     0
  9
$USERR1
 40
0.0
  9
$USERR2
 40
0.0
  9
$USERR3
 40
0.0
  9
$USERR4
 40
0.0
  9
$USERR5
 40
0.0
  9
$WORLDVIEW
 70
     1
  9
$SHADEDGE
 70
     3
  9
$SHADEDIF
 70
    70
  9
$TILEMODE
 70
     1
  9
$MAXACTVP
 70
    64
  9
$PINSBASE
 10
0.0
 20
0.0
 30
0.0
  9
$PLIMCHECK
 70
     0
  9
$PEXTMIN
 10
1.0000000000E+20
 20
1.0000000000E+20
 30
1.0000000000E+20
  9
$PEXTMAX
 10
-1.0000000000E+20
 20
-1.0000000000E+20
 30
-1.0000000000E+20
  9
$PLIMMIN
 10
0.0
 20
0.0
  9
$PLIMMAX
 10
420.0
 20
297.0
  9
$UNITMODE
 70
     0
  9
$VISRETAIN
 70
     1
  9
$PLINEGEN
 70
     0
  9
$PSLTSCALE
 70
     1
  9
$TREEDEPTH
 70
  3020
  9
$CMLSTYLE
  2
Standard
  9
$CMLJUST
 70
     0
  9
$CMLSCALE
 40
20.0
  9
$PROXYGRAPHICS
 70
     1
  9
$MEASUREMENT
 70
     1
  9
$CELWEIGHT
370
    -1
  9
$ENDCAPS
280
     0
  9
$JOINSTYLE
280
     0
  9
$LWDISPLAY
290
     1
  9
$INSUNITS
 70
     4
  9
$HYPERLINKBASE
  1

  9
$STYLESHEET
  1

  9
$XEDIT
290
     1
  9
$CEPSNTYPE
380
     0
  9
$PSTYLEMODE
290
     1
  9
$FINGERPRINTGUID
  2
{A8849075-B576-4006-8948-3E07E1A2CEC5}
  9
$VERSIONGUID
  2
{FAEB1C32-E019-11D5-929B-00C0DF256EC4}
  9
$EXTNAMES
290
     1
  9
$PSVPSCALE
 40
0.0
  9
$OLESTARTUP
290
     0
  9
$SORTENTS
280
   127
  9
$INDEXCTL
280
     0
  9
$HIDETEXT
280
     1
  9
$XCLIPFRAME
280
     2
  9
$HALOGAP
280
     0
  9
$OBSCOLOR
 70
   257
  9
$OBSLTYPE
280
     0
  9
$INTERSECTIONDISPLAY
280
     0
  9
$INTERSECTIONCOLOR
 70
   257
  9
$DIMASSOC
280
     2
  9
$PROJECTNAME
  1

  9
$CAMERADISPLAY
290
     0
  9
$LENSLENGTH
 40
50.0
  9
$CAMERAHEIGHT
 40
0.0
  9
$STEPSPERSEC
 40
2.0
  9
$STEPSIZE
 40
6.0
  9
$3DDWFPREC
 40
2.0
  9
$PSOLWIDTH
 40
5.0
  9
$PSOLHEIGHT
 40
80.0
  9
$LOFTANG1
 40
1.5707963268
  9
$LOFTANG2
 40
1.5707963268
  9
$LOFTMAG1
 40
0.0
  9
$LOFTMAG2
 40
0.0
  9
$LOFTPARAM
 70
     7
  9
$LOFTNORMALS
280
     1
  9
$LATITUDE
 40
37.795
  9
$LONGITUDE
 40
-122.394
  9
$NORTHDIRECTION
 40
0.0
  9
$TIMEZONE
 70
 -8000
  9
$LIGHTGLYPHDISPLAY
280
     1
  9
$TILEMODELIGHTSYNCH
280
     1
  9
$CMATERIAL
347
44
  9
$SOLIDHIST
280
     0
  9
$SHOWHIST
280
     1
  9
$DWFFRAME
280
     2
  9
$DGNFRAME
280
     2
  9
$REALWORLDSCALE
290
     1
  9
$INTERFERECOLOR
 62
   256
  9
$CSHADOW
280
     0
  9
$SHADOWPLANELOCATION
 40
0.0
  0
ENDSEC
  0
SECTION
  2
CLASSES
  0
CLASS
  1
ACDBDICTIONARYWDFLT
  2
AcDbDictionaryWithDefault
  3
ObjectDBX Classes
 90
        0
 91
        4
280
     0
281
     0
  0
CLASS
  1
VISUALSTYLE
  2
AcDbVisualStyle
  3
ObjectDBX Classes
 90
     4095
 91
        4
280
     0
281
     0
  0
CLASS
  1
MATERIAL
  2
AcDbMaterial
  3
ObjectDBX Classes
 90
     1153
 91
        4
280
     0
281
     0
  0
CLASS
  1
SCALE
  2
AcDbScale
  3
ObjectDBX Classes
 90
     1153
 91
        4
280
     0
281
     0
  0
CLASS
  1
TABLESTYLE
  2
AcDbTableStyle
  3
ObjectDBX Classes
 90
     4095
 91
        4
280
     0
281
     0
  0
CLASS
  1
MLEADERSTYLE
  2
AcDbMLeaderStyle
  3
ACDB_MLEADERSTYLE_CLASS
 90
     4095
 91
        4
280
     0
281
     0
  0
CLASS
  1
SUN
  2
AcDbSun
  3
SCENEOE
 90
     1153
 91
        4
280
     0
281
     0
  0
CLASS
  1
DICTIONARYVAR
  2
AcDbDictionaryVar
  3
ObjectDBX Classes
 90
        0
 91
        4
280
     0
281
     0
  0
CLASS
  1
CELLSTYLEMAP
  2
AcDbCellStyleMap
  3
ObjectDBX Classes
 90
     1152
 91
        4
280
     0
281
     0
  0
ENDSEC
  0
SECTION
  2
TABLES
  0
TABLE
  2
VPORT
  5
8
330
0
100
AcDbSymbolTable
 70
     1
  0
VPORT
  5
29
330
8
100
AcDbSymbolTableRecord
100
AcDbViewportTableRecord
  2
*Active
 70
     0
 10
0.0
 20
0.0
 11
1.0
 21
1.0
 12
420.0
 22
297.0
 13
0.0
 23
0.0
 14
10.0
 24
10.0
 15
10.0
 25
10.0
 16
0.0
 26
0.0
 36
1.0
 17
0.0
 27
0.0
 37
0.0
 40
594.0
 41
1.4141414141
 42
50.0
 43
0.0
 44
0.0
 50
0.0
 51
0.0
 71
     0
 72
  2000
 73
     1
 74
     3
 75
     0
 76
     0
 77
     0
 78
     0
281
     0
 65
     1
110
0.0
120
0.0
130
0.0
111
1.0
121
0.0
131
0.0
112
0.0
122
1.0
132
0.0
 79
     0
146
0.0
348
2F
 60
     3
 61
     5
292
     1
282
     1
141
0.0
142
0.0
 63
   250
361
6D
  0
ENDTAB
  0
TABLE
  2
LTYPE
  5
5
330
0
100
AcDbSymbolTable
 70
     8
  0
LTYPE
  5
14
330
5
100
AcDbSymbolTableRecord
100
AcDbLinetypeTableRecord
  2
ByBlock
 70
     0
  3

 72
    65
 73
     0
 40
0.0
  0
LTYPE
  5
15
330
5
100
AcDbSymbolTableRecord
100
AcDbLinetypeTableRecord
  2
ByLayer
 70
     0
  3

 72
    65
 73
     0
 40
0.0
  0
LTYPE
  5
16
330
5
100
AcDbSymbolTableRecord
100
AcDbLinetypeTableRecord
  2
Continuous
 70
     0
  3
Solid line
 72
    65
 73
     0
 40
0.0
  0
LTYPE
  5
6E
330
5
100
AcDbSymbolTableRecord
100
AcDbLinetypeTableRecord
  2
SLD-Durchgehend
 70
     0
  3
SolidWorks Line Style
 72
    65
 73
     0
 40
0.0
  0
LTYPE
  5
6F
330
5
100
AcDbSymbolTableRecord
100
AcDbLinetypeTableRecord
  2
SLD-Gestrichelt
 70
     0
  3
SolidWorks Line Style
 72
    65
 73
     2
 40
1.905
 49
1.27
 74
     0
 49
-0.635
 74
     0
  0
LTYPE
  5
70
330
5
100
AcDbSymbolTableRecord
100
AcDbLinetypeTableRecord
  2
SLD-Phantom
 70
     0
  3
SolidWorks Line Style
 72
    65
 73
     6
 40
12.7
 49
6.35
 74
     0
 49
-1.27
 74
     0
 49
1.27
 74
     0
 49
-1.27
 74
     0
 49
1.27
 74
     0
 49
-1.27
 74
     0
  0
LTYPE
  5
71
330
5
100
AcDbSymbolTableRecord
100
AcDbLinetypeTableRecord
  2
SLD-Kette
 70
     0
  3
SolidWorks Line Style
 72
    65
 73
     4
 40
10.16
 49
6.35
 74
     0
 49
-1.27
 74
     0
 49
1.27
 74
     0
 49
-1.27
 74
     0
  0
LTYPE
  5
72
330
5
100
AcDbSymbolTableRecord
100
AcDbLinetypeTableRecord
  2
SLD-Punktstrich
 70
     0
  3
SolidWorks Line Style
 72
    65
 73
     4
 40
19.05
 49
15.24
 74
     0
 49
-1.27
 74
     0
 49
1.27
 74
     0
 49
-1.27
 74
     0
  0
LTYPE
  5
73
330
5
100
AcDbSymbolTableRecord
100
AcDbLinetypeTableRecord
  2
SLD-Naht
 70
     0
  3
SolidWorks Line Style
 72
    65
 73
     2
 40
0.635
 49
0.0
 74
     0
 49
-0.635
 74
     0
  0
LTYPE
  5
74
330
5
100
AcDbSymbolTableRecord
100
AcDbLinetypeTableRecord
  2
SLD-Dicke-Dünne-Kette
 70
     0
  3
SolidWorks Line Style
 72
    65
 73
     4
 40
10.16
 49
6.35
 74
     0
 49
-1.27
 74
     0
 49
1.27
 74
     0
 49
-1.27
 74
     0
  0
ENDTAB
  0
TABLE
  2
LAYER
  5
2
330
0
100
AcDbSymbolTable
 70
     1
  0
LAYER
  5
10
330
2
100
AcDbSymbolTableRecord
100
AcDbLayerTableRecord
  2
0
 70
     0
 62
     7
  6
Continuous
370
    -3
390
F
347
46
348
0
  0
ENDTAB
  0
TABLE
  2
STYLE
  5
3
330
0
100
AcDbSymbolTable
 70
     2
  0
STYLE
  5
11
330
3
100
AcDbSymbolTableRecord
100
AcDbTextStyleTableRecord
  2
Standard
 70
     0
 40
0.0
 41
1.0
 50
0.0
 71
     0
 42
7.0
  3
txt
  4

  0
STYLE
  5
255
330
3
100
AcDbSymbolTableRecord
100
AcDbTextStyleTableRecord
  2
SLDTEXTSTYLE0
 70
     0
 40
0.0
 41
0.75
 50
0.0
 71
     0
 42
7.0
  3
TXT
  4

  0
ENDTAB
  0
TABLE
  2
VIEW
  5
6
330
0
100
AcDbSymbolTable
 70
     0
  0
ENDTAB
  0
TABLE
  2
UCS
  5
7
330
0
100
AcDbSymbolTable
 70
     0
  0
ENDTAB
  0
TABLE
  2
APPID
  5
9
330
0
100
AcDbSymbolTable
 70
     1
  0
APPID
  5
12
330
9
100
AcDbSymbolTableRecord
100
AcDbRegAppTableRecord
  2
ACAD
 70
     0
  0
ENDTAB
  0
TABLE
  2
DIMSTYLE
  5
A
330
0
100
AcDbSymbolTable
 70
     5
100
AcDbDimStyleTable
  0
DIMSTYLE
105
27
330
A
100
AcDbSymbolTableRecord
100
AcDbDimStyleTableRecord
  2
ISO-25
 70
     0
 41
2.5
 42
0.625
 43
3.75
 44
1.25
 73
     0
 74
     0
 77
     1
 78
     8
140
2.5
141
2.5
143
0.0393700787
147
0.625
171
     3
172
     1
178
     0
271
     2
272
     2
274
     3
278
    44
283
     0
284
     8
340
11
  0
DIMSTYLE
105
256
102
{ACAD_REACTORS
330
254
330
261
330
2B4
102
}
330
A
100
AcDbSymbolTableRecord
100
AcDbDimStyleTableRecord
  2
SLDDIMSTYLE0
 70
     0
 41
6.604
 44
0.0
 45
0.000000001
 73
     0
 74
     0
 77
     1
 78
    12
 79
     3
140
7.0
147
1.75
173
     1
178
     0
271
     1
272
     2
276
     2
284
    12
340
255
  0
DIMSTYLE
105
26D
102
{ACAD_REACTORS
330
26C
330
286
330
291
330
2DA
102
}
330
A
100
AcDbSymbolTableRecord
100
AcDbDimStyleTableRecord
  2
SLDDIMSTYLE1
 70
     0
 41
6.604
 44
0.0
 45
0.000000001
 73
     0
 74
     0
 77
     1
 78
    12
 79
     3
140
7.0
147
1.75
173
     1
178
     0
271
     0
272
     2
276
     2
284
    12
340
255
  0
DIMSTYLE
105
279
102
{ACAD_REACTORS
330
278
330
29C
330
2A9
330
2CD
102
}
330
A
100
AcDbSymbolTableRecord
100
AcDbDimStyleTableRecord
  2
SLDDIMSTYLE2
 70
     0
 41
6.604
 44
0.0
 45
0.000000001
 73
     0
 74
     0
 77
     1
 78
    12
 79
     3
140
7.0
147
1.75
172
     1
173
     1
178
     0
271
     1
272
     2
276
     2
284
    12
289
     0
340
255
  0
DIMSTYLE
105
2C0
102
{ACAD_REACTORS
330
2BF
102
}
330
A
100
AcDbSymbolTableRecord
100
AcDbDimStyleTableRecord
  2
SLDDIMSTYLE3
 70
     0
 41
6.604
 44
0.0
 45
0.000000001
 73
     0
 74
     0
 77
     1
 78
    12
 79
     3
140
7.0
147
1.75
172
     1
173
     1
178
     0
271
     0
272
     2
276
     2
284
    12
289
     0
340
255
  0
ENDTAB
  0
TABLE
  2
BLOCK_RECORD
  5
1
330
0
100
AcDbSymbolTable
 70
    13
  0
BLOCK_RECORD
  5
1F
330
1
100
AcDbSymbolTableRecord
100
AcDbBlockTableRecord
  2
*Model_Space
340
22
 70
     0
280
     1
281
     0
  0
BLOCK_RECORD
  5
1B
330
1
100
AcDbSymbolTableRecord
100
AcDbBlockTableRecord
  2
*Paper_Space
340
1E
 70
     0
280
     1
281
     0
  0
BLOCK_RECORD
  5
23
330
1
100
AcDbSymbolTableRecord
100
AcDbBlockTableRecord
  2
*Paper_Space0
340
26
 70
     0
280
     1
281
     0
  0
BLOCK_RECORD
  5
257
330
1
100
AcDbSymbolTableRecord
100
AcDbBlockTableRecord
  2
_D
340
0
 70
     0
280
     1
281
     0
  0
BLOCK_RECORD
  5
262
330
1
100
AcDbSymbolTableRecord
100
AcDbBlockTableRecord
  2
_D_1
340
0
 70
     0
280
     1
281
     0
  0
BLOCK_RECORD
  5
26E
330
1
100
AcDbSymbolTableRecord
100
AcDbBlockTableRecord
  2
_D_2
340
0
 70
     0
280
     1
281
     0
  0
BLOCK_RECORD
  5
27A
330
1
100
AcDbSymbolTableRecord
100
AcDbBlockTableRecord
  2
_D_3
340
0
 70
     0
280
     1
281
     0
  0
BLOCK_RECORD
  5
287
330
1
100
AcDbSymbolTableRecord
100
AcDbBlockTableRecord
  2
_D_4
340
0
 70
     0
280
     1
281
     0
  0
BLOCK_RECORD
  5
292
330
1
100
AcDbSymbolTableRecord
100
AcDbBlockTableRecord
  2
_D_5
340
0
 70
     0
280
     1
281
     0
  0
BLOCK_RECORD
  5
29D
330
1
100
AcDbSymbolTableRecord
100
AcDbBlockTableRecord
  2
_D_6
340
0
 70
     0
280
     1
281
     0
  0
BLOCK_RECORD
  5
2AA
330
1
100
AcDbSymbolTableRecord
100
AcDbBlockTableRecord
  2
_D_7
340
0
 70
     0
280
     1
281
     0
  0
BLOCK_RECORD
  5
2B5
330
1
100
AcDbSymbolTableRecord
100
AcDbBlockTableRecord
  2
_D_8
340
0
 70
     0
280
     1
281
     0
  0
BLOCK_RECORD
  5
2C1
330
1
100
AcDbSymbolTableRecord
100
AcDbBlockTableRecord
  2
_D_9
340
0
 70
     0
280
     1
281
     0
  0
BLOCK_RECORD
  5
2CE
330
1
100
AcDbSymbolTableRecord
100
AcDbBlockTableRecord
  2
_D_10
340
0
 70
     0
280
     1
281
     0
  0
BLOCK_RECORD
  5
2DB
330
1
100
AcDbSymbolTableRecord
100
AcDbBlockTableRecord
  2
_D_11
340
0
 70
     0
280
     1
281
     0
  0
ENDTAB
  0
ENDSEC
  0
SECTION
  2
BLOCKS
  0
BLOCK
  5
20
330
1F
100
AcDbEntity
  8
0
100
AcDbBlockBegin
  2
*Model_Space
 70
     0
 10
0.0
 20
0.0
 30
0.0
  3
*Model_Space
  1

  0
ENDBLK
  5
21
330
1F
100
AcDbEntity
  8
0
100
AcDbBlockEnd
  0
BLOCK
  5
1C
330
1B
100
AcDbEntity
 67
     1
  8
0
100
AcDbBlockBegin
  2
*Paper_Space
 70
     0
 10
0.0
 20
0.0
 30
0.0
  3
*Paper_Space
  1

  0
ENDBLK
  5
1D
330
1B
100
AcDbEntity
 67
     1
  8
0
100
AcDbBlockEnd
  0
BLOCK
  5
24
330
23
100
AcDbEntity
  8
0
100
AcDbBlockBegin
  2
*Paper_Space0
 70
     0
 10
0.0
 20
0.0
 30
0.0
  3
*Paper_Space0
  1

  0
ENDBLK
  5
25
330
23
100
AcDbEntity
  8
0
100
AcDbBlockEnd
  0
BLOCK
  5
258
330
257
100
AcDbEntity
  8
0
100
AcDbBlockBegin
  2
_D
 70
     0
 10
0.0
 20
0.0
 30
0.0
  3
_D
  1

  0
SOLID
  5
25A
330
257
100
AcDbEntity
  8
0
  6
SLD-Durchgehend
 62
   179
420
  2171202
370
    18
100
AcDbTrace
 10
304.4184008923
 20
413.671092429
 30
0.0
 11
297.8144008923
 21
415.111092429
 31
0.0
 12
297.8144008923
 22
412.231092429
 32
0.0
 13
297.8144008923
 23
412.231092429
 33
0.0
  0
SOLID
  5
25B
330
257
100
AcDbEntity
  8
0
  6
SLD-Durchgehend
 62
   179
420
  2171202
370
    18
100
AcDbTrace
 10
259.9184008923
 20
413.671092429
 30
0.0
 11
266.5224008923
 21
412.231092429
 31
0.0
 12
266.5224008923
 22
415.111092429
 32
0.0
 13
266.5224008923
 23
415.111092429
 33
0.0
  0
LINE
  5
25C
330
257
100
AcDbEntity
  8
0
  6
SLD-Durchgehend
 62
   179
420
  2171202
370
    18
100
AcDbLine
 10
304.4184008923
 20
409.2770973026
 30
0.0
 11
304.4184008923
 21
415.671092429
 31
0.0
  0
LINE
  5
25D
330
257
100
AcDbEntity
  8
0
  6
SLD-Durchgehend
 62
   179
420
  2171202
370
    18
100
AcDbLine
 10
259.9184008923
 20
409.7770973026
 30
0.0
 11
259.9184008923
 21
415.671092429
 31
0.0
  0
LINE
  5
25E
330
257
100
AcDbEntity
  8
0
  6
SLD-Durchgehend
 62
   179
420
  2171202
370
    18
100
AcDbLine
 10
304.4184008923
 20
413.671092429
 30
0.0
 11
259.9184008923
 21
413.671092429
 31
0.0
  0
MTEXT
  5
25F
330
257
100
AcDbEntity
  8
0
  6
SLD-Durchgehend
 62
   179
420
  2171202
370
    18
100
AcDbMText
 10
268.300028921
 20
422.6945666074
 30
0.0
 40
7.0
 41
0.0
 46
0.0
 71
     1
 72
     1
  1
%%c
  7
SLDTEXTSTYLE0
 73
     1
 44
1.0
  0
MTEXT
  5
260
330
257
100
AcDbEntity
  8
0
  6
SLD-Durchgehend
 62
   179
420
  2171202
370
    18
100
AcDbMText
 10
278.8569037178
 20
422.8015109607
 30
0.0
 40
7.0
 41
0.0
 46
0.0
 71
     1
 72
     1
  1
44,5
  7
SLDTEXTSTYLE0
 73
     1
 44
1.0
  0
ENDBLK
  5
259
330
257
100
AcDbEntity
  8
0
100
AcDbBlockEnd
  0
BLOCK
  5
263
330
262
100
AcDbEntity
  8
0
100
AcDbBlockBegin
  2
_D_1
 70
     0
 10
0.0
 20
0.0
 30
0.0
  3
_D_1
  1

  0
SOLID
  5
265
330
262
100
AcDbEntity
  8
0
  6
SLD-Durchgehend
 62
   179
420
  2171202
370
    18
100
AcDbTrace
 10
253.9184008923
 20
391.3654595799
 30
0.0
 11
260.5224008923
 21
389.9254595799
 31
0.0
 12
260.5224008923
 22
392.8054595799
 32
0.0
 13
260.5224008923
 23
392.8054595799
 33
0.0
  0
SOLID
  5
266
330
262
100
AcDbEntity
  8
0
  6
SLD-Durchgehend
 62
   179
420
  2171202
370
    18
100
AcDbTrace
 10
310.4184008923
 20
391.3654595799
 30
0.0
 11
303.8144008923
 21
392.8054595799
 31
0.0
 12
303.8144008923
 22
389.9254595799
 32
0.0
 13
303.8144008923
 23
389.9254595799
 33
0.0
  0
LINE
  5
267
330
262
100
AcDbEntity
  8
0
  6
SLD-Durchgehend
 62
   179
420
  2171202
370
    18
100
AcDbLine
 10
253.9184008923
 20
386.7354084523
 30
0.0
 11
253.9184008923
 21
393.3654595799
 31
0.0
  0
LINE
  5
268
330
262
100
AcDbEntity
  8
0
  6
SLD-Durchgehend
 62
   179
420
  2171202
370
    18
100
AcDbLine
 10
310.4184008923
 20
386.7354084523
 30
0.0
 11
310.4184008923
 21
393.3654595799
 31
0.0
  0
LINE
  5
269
330
262
100
AcDbEntity
  8
0
  6
SLD-Durchgehend
 62
   179
420
  2171202
370
    18
100
AcDbLine
 10
253.9184008923
 20
391.3654595799
 30
0.0
 11
310.4184008923
 21
391.3654595799
 31
0.0
  0
MTEXT
  5
26A
330
262
100
AcDbEntity
  8
0
  6
SLD-Durchgehend
 62
   179
420
  2171202
370
    18
100
AcDbMText
 10
271.7687416975
 20
400.3889337583
 30
0.0
 40
7.0
 41
0.0
 46
0.0
 71
     1
 72
     1
  1
%%c
  7
SLDTEXTSTYLE0
 73
     1
 44
1.0
  0
MTEXT
  5
26B
330
262
100
AcDbEntity
  8
0
  6
SLD-Durchgehend
 62
   179
420
  2171202
370
    18
100
AcDbMText
 10
282.3256164943
 20
400.4958781116
 30
0.0
 40
7.0
 41
0.0
 46
0.0
 71
     1
 72
     1
  1
56,5
  7
SLDTEXTSTYLE0
 73
     1
 44
1.0
  0
ENDBLK
  5
264
330
262
100
AcDbEntity
  8
0
100
AcDbBlockEnd
  0
BLOCK
  5
26F
330
26E
100
AcDbEntity
  8
0
100
AcDbBlockBegin
  2
_D_2
 70
     0
 10
0.0
 20
0.0
 30
0.0
  3
_D_2
  1

  0
SOLID
  5
271
330
26E
100
AcDbEntity
  8
0
  6
SLD-Durchgehend
 62
   179
420
  2171202
370
    18
100
AcDbTrace
 10
314.6184008923
 20
354.1040218388
 30
0.0
 11
308.0144008923
 21
355.5440218388
 31
0.0
 12
308.0144008923
 22
352.6640218388
 32
0.0
 13
308.0144008923
 23
352.6640218388
 33
0.0
  0
SOLID
  5
272
330
26E
100
AcDbEntity
  8
0
  6
SLD-Durchgehend
 62
   179
420
  2171202
370
    18
100
AcDbTrace
 10
249.7184008923
 20
354.1040218388
 30
0.0
 11
256.3224008923
 21
352.6640218388
 31
0.0
 12
256.3224008923
 22
355.5440218388
 32
0.0
 13
256.3224008923
 23
355.5440218388
 33
0.0
  0
LINE
  5
273
330
26E
100
AcDbEntity
  8
0
  6
SLD-Durchgehend
 62
   179
420
  2171202
370
    18
100
AcDbLine
 10
314.6184008923
 20
347.9205088751
 30
0.0
 11
314.6184008923
 21
356.1040218388
 31
0.0
  0
LINE
  5
274
330
26E
100
AcDbEntity
  8
0
  6
SLD-Durchgehend
 62
   179
420
  2171202
370
    18
100
AcDbLine
 10
249.7184008923
 20
348.9205088751
 30
0.0
 11
249.7184008923
 21
356.1040218388
 31
0.0
  0
LINE
  5
275
330
26E
100
AcDbEntity
  8
0
  6
SLD-Durchgehend
 62
   179
420
  2171202
370
    18
100
AcDbLine
 10
314.6184008923
 20
354.1040218388
 30
0.0
 11
249.7184008923
 21
354.1040218388
 31
0.0
  0
MTEXT
  5
276
330
26E
100
AcDbEntity
  8
0
  6
SLD-Durchgehend
 62
   179
420
  2171202
370
    18
100
AcDbMText
 10
268.0114269822
 20
363.1274960172
 30
0.0
 40
7.0
 41
0.0
 46
0.0
 71
     1
 72
     1
  1
%%c
  7
SLDTEXTSTYLE0
 73
     1
 44
1.0
  0
MTEXT
  5
277
330
26E
100
AcDbEntity
  8
0
  6
SLD-Durchgehend
 62
   179
420
  2171202
370
    18
100
AcDbMText
 10
278.5683017789
 20
363.2344403705
 30
0.0
 40
7.0
 41
0.0
 46
0.0
 71
     1
 72
     1
  1
65
  7
SLDTEXTSTYLE0
 73
     1
 44
1.0
  0
ENDBLK
  5
270
330
26E
100
AcDbEntity
  8
0
100
AcDbBlockEnd
  0
BLOCK
  5
27B
330
27A
100
AcDbEntity
  8
0
100
AcDbBlockBegin
  2
_D_3
 70
     0
 10
0.0
 20
0.0
 30
0.0
  3
_D_3
  1

  0
SOLID
  5
27D
330
27A
100
AcDbEntity
  8
0
  6
SLD-Durchgehend
 62
   179
420
  2171202
370
    18
100
AcDbTrace
 10
340.8373098694
 20
414.8815706798
 30
0.0
 11
334.2333098694
 21
416.3215706798
 31
0.0
 12
334.2333098694
 22
413.4415706798
 32
0.0
 13
334.2333098694
 23
413.4415706798
 33
0.0
  0
SOLID
  5
27E
330
27A
100
AcDbEntity
  8
0
  6
SLD-Durchgehend
 62
   179
420
  2171202
370
    18
100
AcDbTrace
 10
368.656987067
 20
414.8815706798
 30
0.0
 11
375.260987067
 21
413.4415706798
 31
0.0
 12
375.260987067
 22
416.3215706798
 32
0.0
 13
375.260987067
 23
416.3215706798
 33
0.0
  0
LINE
  5
27F
330
27A
100
AcDbEntity
  8
0
  6
SLD-Durchgehend
 62
   179
420
  2171202
370
    18
100
AcDbLine
 10
340.8373098694
 20
408.7770973026
 30
0.0
 11
340.8373098694
 21
416.8815706798
 31
0.0
  0
LINE
  5
280
330
27A
100
AcDbEntity
  8
0
  6
SLD-Durchgehend
 62
   179
420
  2171202
370
    18
100
AcDbLine
 10
368.656987067
 20
407.7770973026
 30
0.0
 11
368.656987067
 21
416.8815706798
 31
0.0
  0
LINE
  5
281
330
27A
100
AcDbEntity
  8
0
  6
SLD-Durchgehend
 62
   179
420
  2171202
370
    18
100
AcDbLine
 10
340.8373098694
 20
414.8815706798
 30
0.0
 11
328.1373098694
 21
414.8815706798
 31
0.0
  0
LINE
  5
282
330
27A
100
AcDbEntity
  8
0
  6
SLD-Durchgehend
 62
   179
420
  2171202
370
    18
100
AcDbLine
 10
340.8373098694
 20
414.8815706798
 30
0.0
 11
368.656987067
 21
414.8815706798
 31
0.0
  0
LINE
  5
283
330
27A
100
AcDbEntity
  8
0
  6
SLD-Durchgehend
 62
   179
420
  2171202
370
    18
100
AcDbLine
 10
368.656987067
 20
414.8815706798
 30
0.0
 11
381.356987067
 21
414.8815706798
 31
0.0
  0
MTEXT
  5
284
330
27A
100
AcDbEntity
  8
0
  6
SLD-Durchgehend
 62
   179
420
  2171202
370
    18
100
AcDbMText
 10
339.0460102417
 20
423.9050448582
 30
0.0
 40
7.0
 41
0.0
 46
0.0
 71
     1
 72
     1
  1
%%c
  7
SLDTEXTSTYLE0
 73
     1
 44
1.0
  0
MTEXT
  5
285
330
27A
100
AcDbEntity
  8
0
  6
SLD-Durchgehend
 62
   179
420
  2171202
370
    18
100
AcDbMText
 10
349.6028850384
 20
424.0119892115
 30
0.0
 40
7.0
 41
0.0
 46
0.0
 71
     1
 72
     1
  1
27,8
  7
SLDTEXTSTYLE0
 73
     1
 44
1.0
  0
ENDBLK
  5
27C
330
27A
100
AcDbEntity
  8
0
100
AcDbBlockEnd
  0
BLOCK
  5
288
330
287
100
AcDbEntity
  8
0
100
AcDbBlockBegin
  2
_D_4
 70
     0
 10
0.0
 20
0.0
 30
0.0
  3
_D_4
  1

  0
SOLID
  5
28A
330
287
100
AcDbEntity
  8
0
  6
SLD-Durchgehend
 62
   179
420
  2171202
370
    18
100
AcDbTrace
 10
335.3117783959
 20
390.464681545
 30
0.0
 11
341.9157783959
 21
389.024681545
 31
0.0
 12
341.9157783959
 22
391.904681545
 32
0.0
 13
341.9157783959
 23
391.904681545
 33
0.0
  0
SOLID
  5
28B
330
287
100
AcDbEntity
  8
0
  6
SLD-Durchgehend
 62
   179
420
  2171202
370
    18
100
AcDbTrace
 10
374.1825185404
 20
390.464681545
 30
0.0
 11
367.5785185404
 21
391.904681545
 31
0.0
 12
367.5785185404
 22
389.024681545
 32
0.0
 13
367.5785185404
 23
389.024681545
 33
0.0
  0
LINE
  5
28C
330
287
100
AcDbEntity
  8
0
  6
SLD-Durchgehend
 62
   179
420
  2171202
370
    18
100
AcDbLine
 10
335.3117783959
 20
385.7354084522
 30
0.0
 11
335.3117783959
 21
392.464681545
 31
0.0
  0
LINE
  5
28D
330
287
100
AcDbEntity
  8
0
  6
SLD-Durchgehend
 62
   179
420
  2171202
370
    18
100
AcDbLine
 10
374.1825185404
 20
386.7354084522
 30
0.0
 11
374.1825185404
 21
392.464681545
 31
0.0
  0
LINE
  5
28E
330
287
100
AcDbEntity
  8
0
  6
SLD-Durchgehend
 62
   179
420
  2171202
370
    18
100
AcDbLine
 10
335.3117783959
 20
390.464681545
 30
0.0
 11
374.1825185404
 21
390.464681545
 31
0.0
  0
MTEXT
  5
28F
330
287
100
AcDbEntity
  8
0
  6
SLD-Durchgehend
 62
   179
420
  2171202
370
    18
100
AcDbMText
 10
347.2785762192
 20
399.4881557234
 30
0.0
 40
7.0
 41
0.0
 46
0.0
 71
     1
 72
     1
  1
%%c
  7
SLDTEXTSTYLE0
 73
     1
 44
1.0
  0
MTEXT
  5
290
330
287
100
AcDbEntity
  8
0
  6
SLD-Durchgehend
 62
   179
420
  2171202
370
    18
100
AcDbMText
 10
357.8354510159
 20
399.5951000768
 30
0.0
 40
7.0
 41
0.0
 46
0.0
 71
     1
 72
     1
  1
39
  7
SLDTEXTSTYLE0
 73
     1
 44
1.0
  0
ENDBLK
  5
289
330
287
100
AcDbEntity
  8
0
100
AcDbBlockEnd
  0
BLOCK
  5
293
330
292
100
AcDbEntity
  8
0
100
AcDbBlockBegin
  2
_D_5
 70
     0
 10
0.0
 20
0.0
 30
0.0
  3
_D_5
  1

  0
SOLID
  5
295
330
292
100
AcDbEntity
  8
0
  6
SLD-Durchgehend
 62
   179
420
  2171202
370
    18
100
AcDbTrace
 10
377.1911590243
 20
354.1040218388
 30
0.0
 11
370.5871590243
 21
355.5440218388
 31
0.0
 12
370.5871590243
 22
352.6640218388
 32
0.0
 13
370.5871590243
 23
352.6640218388
 33
0.0
  0
SOLID
  5
296
330
292
100
AcDbEntity
  8
0
  6
SLD-Durchgehend
 62
   179
420
  2171202
370
    18
100
AcDbTrace
 10
332.303137912
 20
354.1040218388
 30
0.0
 11
338.907137912
 21
352.6640218388
 31
0.0
 12
338.907137912
 22
355.5440218388
 32
0.0
 13
338.907137912
 23
355.5440218388
 33
0.0
  0
LINE
  5
297
330
292
100
AcDbEntity
  8
0
  6
SLD-Durchgehend
 62
   179
420
  2171202
370
    18
100
AcDbLine
 10
377.1911590243
 20
346.920508875
 30
0.0
 11
377.1911590243
 21
356.1040218388
 31
0.0
  0
LINE
  5
298
330
292
100
AcDbEntity
  8
0
  6
SLD-Durchgehend
 62
   179
420
  2171202
370
    18
100
AcDbLine
 10
332.303137912
 20
348.920508875
 30
0.0
 11
332.303137912
 21
356.1040218388
 31
0.0
  0
LINE
  5
299
330
292
100
AcDbEntity
  8
0
  6
SLD-Durchgehend
 62
   179
420
  2171202
370
    18
100
AcDbLine
 10
377.1911590243
 20
354.1040218388
 30
0.0
 11
332.303137912
 21
354.1040218388
 31
0.0
  0
MTEXT
  5
29A
330
292
100
AcDbEntity
  8
0
  6
SLD-Durchgehend
 62
   179
420
  2171202
370
    18
100
AcDbMText
 10
344.5328320117
 20
363.1274960172
 30
0.0
 40
7.0
 41
0.0
 46
0.0
 71
     1
 72
     1
  1
%%c
  7
SLDTEXTSTYLE0
 73
     1
 44
1.0
  0
MTEXT
  5
29B
330
292
100
AcDbEntity
  8
0
  6
SLD-Durchgehend
 62
   179
420
  2171202
370
    18
100
AcDbMText
 10
355.0897068084
 20
363.2344403705
 30
0.0
 40
7.0
 41
0.0
 46
0.0
 71
     1
 72
     1
  1
45
  7
SLDTEXTSTYLE0
 73
     1
 44
1.0
  0
ENDBLK
  5
294
330
292
100
AcDbEntity
  8
0
100
AcDbBlockEnd
  0
BLOCK
  5
29E
330
29D
100
AcDbEntity
  8
0
100
AcDbBlockBegin
  2
_D_6
 70
     0
 10
0.0
 20
0.0
 30
0.0
  3
_D_6
  1

  0
SOLID
  5
2A0
330
29D
100
AcDbEntity
  8
0
  6
SLD-Durchgehend
 62
   179
420
  2171202
370
    18
100
AcDbTrace
 10
400.3417383721
 20
414.8815706798
 30
0.0
 11
393.7377383721
 21
416.3215706798
 31
0.0
 12
393.7377383721
 22
413.4415706798
 32
0.0
 13
393.7377383721
 23
413.4415706798
 33
0.0
  0
SOLID
  5
2A1
330
29D
100
AcDbEntity
  8
0
  6
SLD-Durchgehend
 62
   179
420
  2171202
370
    18
100
AcDbTrace
 10
444.6389594242
 20
414.8815706798
 30
0.0
 11
451.2429594242
 21
413.4415706798
 31
0.0
 12
451.2429594242
 22
416.3215706798
 32
0.0
 13
451.2429594242
 23
416.3215706798
 33
0.0
  0
LINE
  5
2A2
330
29D
100
AcDbEntity
  8
0
  6
SLD-Durchgehend
 62
   179
420
  2171202
370
    18
100
AcDbLine
 10
400.3417383721
 20
409.7770973026
 30
0.0
 11
400.3417383721
 21
416.8815706798
 31
0.0
  0
LINE
  5
2A3
330
29D
100
AcDbEntity
  8
0
  6
SLD-Durchgehend
 62
   179
420
  2171202
370
    18
100
AcDbLine
 10
444.6389594242
 20
409.7770973026
 30
0.0
 11
444.6389594242
 21
416.8815706798
 31
0.0
  0
LINE
  5
2A4
330
29D
100
AcDbEntity
  8
0
  6
SLD-Durchgehend
 62
   179
420
  2171202
370
    18
100
AcDbLine
 10
400.3417383721
 20
414.8815706798
 30
0.0
 11
387.6417383721
 21
414.8815706798
 31
0.0
  0
LINE
  5
2A5
330
29D
100
AcDbEntity
  8
0
  6
SLD-Durchgehend
 62
   179
420
  2171202
370
    18
100
AcDbLine
 10
400.3417383721
 20
414.8815706798
 30
0.0
 11
444.6389594242
 21
414.8815706798
 31
0.0
  0
LINE
  5
2A6
330
29D
100
AcDbEntity
  8
0
  6
SLD-Durchgehend
 62
   179
420
  2171202
370
    18
100
AcDbLine
 10
444.6389594242
 20
414.8815706798
 30
0.0
 11
457.3389594242
 21
414.8815706798
 31
0.0
  0
MTEXT
  5
2A7
330
29D
100
AcDbEntity
  8
0
  6
SLD-Durchgehend
 62
   179
420
  2171202
370
    18
100
AcDbMText
 10
407.6370635925
 20
423.9050448582
 30
0.0
 40
7.0
 41
0.0
 46
0.0
 71
     1
 72
     1
  1
%%c
  7
SLDTEXTSTYLE0
 73
     1
 44
1.0
  0
MTEXT
  5
2A8
330
29D
100
AcDbEntity
  8
0
  6
SLD-Durchgehend
 62
   179
420
  2171202
370
    18
100
AcDbMText
 10
418.1939383893
 20
424.0119892115
 30
0.0
 40
7.0
 41
0.0
 46
0.0
 71
     1
 72
     1
  1
44,3
  7
SLDTEXTSTYLE0
 73
     1
 44
1.0
  0
ENDBLK
  5
29F
330
29D
100
AcDbEntity
  8
0
100
AcDbBlockEnd
  0
BLOCK
  5
2AB
330
2AA
100
AcDbEntity
  8
0
100
AcDbBlockBegin
  2
_D_7
 70
     0
 10
0.0
 20
0.0
 30
0.0
  3
_D_7
  1

  0
SOLID
  5
2AD
330
2AA
100
AcDbEntity
  8
0
  6
SLD-Durchgehend
 62
   179
420
  2171202
370
    18
100
AcDbTrace
 10
394.2414383309
 20
389.0664594748
 30
0.0
 11
400.8454383309
 21
387.6264594748
 31
0.0
 12
400.8454383309
 22
390.5064594748
 32
0.0
 13
400.8454383309
 23
390.5064594748
 33
0.0
  0
SOLID
  5
2AE
330
2AA
100
AcDbEntity
  8
0
  6
SLD-Durchgehend
 62
   179
420
  2171202
370
    18
100
AcDbTrace
 10
450.7392594653
 20
389.0664594748
 30
0.0
 11
444.1352594653
 21
390.5064594748
 31
0.0
 12
444.1352594653
 22
387.6264594748
 32
0.0
 13
444.1352594653
 23
387.6264594748
 33
0.0
  0
LINE
  5
2AF
330
2AA
100
AcDbEntity
  8
0
  6
SLD-Durchgehend
 62
   179
420
  2171202
370
    18
100
AcDbLine
 10
394.2414383309
 20
385.3235719427
 30
0.0
 11
394.2414383309
 21
391.0664594748
 31
0.0
  0
LINE
  5
2B0
330
2AA
100
AcDbEntity
  8
0
  6
SLD-Durchgehend
 62
   179
420
  2171202
370
    18
100
AcDbLine
 10
450.7392594653
 20
385.3235719427
 30
0.0
 11
450.7392594653
 21
391.0664594748
 31
0.0
  0
LINE
  5
2B1
330
2AA
100
AcDbEntity
  8
0
  6
SLD-Durchgehend
 62
   179
420
  2171202
370
    18
100
AcDbLine
 10
394.2414383309
 20
389.0664594748
 30
0.0
 11
450.7392594653
 21
389.0664594748
 31
0.0
  0
MTEXT
  5
2B2
330
2AA
100
AcDbEntity
  8
0
  6
SLD-Durchgehend
 62
   179
420
  2171202
370
    18
100
AcDbMText
 10
411.1574844633
 20
398.0899336532
 30
0.0
 40
7.0
 41
0.0
 46
0.0
 71
     1
 72
     1
  1
%%c
  7
SLDTEXTSTYLE0
 73
     1
 44
1.0
  0
MTEXT
  5
2B3
330
2AA
100
AcDbEntity
  8
0
  6
SLD-Durchgehend
 62
   179
420
  2171202
370
    18
100
AcDbMText
 10
421.71435926
 20
398.1968780065
 30
0.0
 40
7.0
 41
0.0
 46
0.0
 71
     1
 72
     1
  1
56,5
  7
SLDTEXTSTYLE0
 73
     1
 44
1.0
  0
ENDBLK
  5
2AC
330
2AA
100
AcDbEntity
  8
0
100
AcDbBlockEnd
  0
BLOCK
  5
2B6
330
2B5
100
AcDbEntity
  8
0
100
AcDbBlockBegin
  2
_D_8
 70
     0
 10
0.0
 20
0.0
 30
0.0
  3
_D_8
  1

  0
SOLID
  5
2B8
330
2B5
100
AcDbEntity
  8
0
  6
SLD-Durchgehend
 62
   179
420
  2171202
370
    18
100
AcDbTrace
 10
390.7413182321
 20
356.0616311174
 30
0.0
 11
397.3453182321
 21
354.6216311174
 31
0.0
 12
397.3453182321
 22
357.5016311174
 32
0.0
 13
397.3453182321
 23
357.5016311174
 33
0.0
  0
SOLID
  5
2B9
330
2B5
100
AcDbEntity
  8
0
  6
SLD-Durchgehend
 62
   179
420
  2171202
370
    18
100
AcDbTrace
 10
454.2393795642
 20
356.0616311174
 30
0.0
 11
447.6353795642
 21
357.5016311174
 31
0.0
 12
447.6353795642
 22
354.6216311174
 32
0.0
 13
447.6353795642
 23
354.6216311174
 33
0.0
  0
LINE
  5
2BA
330
2B5
100
AcDbEntity
  8
0
  6
SLD-Durchgehend
 62
   179
420
  2171202
370
    18
100
AcDbLine
 10
390.7413182321
 20
348.2034219994
 30
0.0
 11
390.7413182321
 21
358.0616311174
 31
0.0
  0
LINE
  5
2BB
330
2B5
100
AcDbEntity
  8
0
  6
SLD-Durchgehend
 62
   179
420
  2171202
370
    18
100
AcDbLine
 10
454.2393795642
 20
348.9205088751
 30
0.0
 11
454.2393795642
 21
358.0616311174
 31
0.0
  0
LINE
  5
2BC
330
2B5
100
AcDbEntity
  8
0
  6
SLD-Durchgehend
 62
   179
420
  2171202
370
    18
100
AcDbLine
 10
390.7413182321
 20
356.0616311174
 30
0.0
 11
454.2393795642
 21
356.0616311174
 31
0.0
  0
MTEXT
  5
2BD
330
2B5
100
AcDbEntity
  8
0
  6
SLD-Durchgehend
 62
   179
420
  2171202
370
    18
100
AcDbMText
 10
406.7412789961
 20
365.0851052958
 30
0.0
 40
7.0
 41
0.0
 46
0.0
 71
     1
 72
     1
  1
%%c
  7
SLDTEXTSTYLE0
 73
     1
 44
1.0
  0
MTEXT
  5
2BE
330
2B5
100
AcDbEntity
  8
0
  6
SLD-Durchgehend
 62
   179
420
  2171202
370
    18
100
AcDbMText
 10
417.2981537929
 20
365.1920496491
 30
0.0
 40
7.0
 41
0.0
 46
0.0
 71
     1
 72
     1
  1
63,5
  7
SLDTEXTSTYLE0
 73
     1
 44
1.0
  0
ENDBLK
  5
2B7
330
2B5
100
AcDbEntity
  8
0
100
AcDbBlockEnd
  0
BLOCK
  5
2C2
330
2C1
100
AcDbEntity
  8
0
100
AcDbBlockBegin
  2
_D_9
 70
     0
 10
0.0
 20
0.0
 30
0.0
  3
_D_9
  1

  0
SOLID
  5
2C4
330
2C1
100
AcDbEntity
  8
0
  6
SLD-Durchgehend
 62
   179
420
  2171202
370
    18
100
AcDbTrace
 10
479.1699102555
 20
413.6435013335
 30
0.0
 11
472.5659102555
 21
415.0835013335
 31
0.0
 12
472.5659102555
 22
412.2035013335
 32
0.0
 13
472.5659102555
 23
412.2035013335
 33
0.0
  0
SOLID
  5
2C5
330
2C1
100
AcDbEntity
  8
0
  6
SLD-Durchgehend
 62
   179
420
  2171202
370
    18
100
AcDbTrace
 10
514.4056468221
 20
413.6435013335
 30
0.0
 11
521.0096468221
 21
412.2035013335
 31
0.0
 12
521.0096468221
 22
415.0835013335
 32
0.0
 13
521.0096468221
 23
415.0835013335
 33
0.0
  0
LINE
  5
2C6
330
2C1
100
AcDbEntity
  8
0
  6
SLD-Durchgehend
 62
   179
420
  2171202
370
    18
100
AcDbLine
 10
479.1699102555
 20
409.7770973026
 30
0.0
 11
479.1699102555
 21
415.6435013335
 31
0.0
  0
LINE
  5
2C7
330
2C1
100
AcDbEntity
  8
0
  6
SLD-Durchgehend
 62
   179
420
  2171202
370
    18
100
AcDbLine
 10
514.4056468221
 20
409.7770973026
 30
0.0
 11
514.4056468221
 21
415.6435013335
 31
0.0
  0
LINE
  5
2C8
330
2C1
100
AcDbEntity
  8
0
  6
SLD-Durchgehend
 62
   179
420
  2171202
370
    18
100
AcDbLine
 10
479.1699102555
 20
413.6435013335
 30
0.0
 11
466.4699102555
 21
413.6435013335
 31
0.0
  0
LINE
  5
2C9
330
2C1
100
AcDbEntity
  8
0
  6
SLD-Durchgehend
 62
   179
420
  2171202
370
    18
100
AcDbLine
 10
479.1699102555
 20
413.6435013335
 30
0.0
 11
514.4056468221
 21
413.6435013335
 31
0.0
  0
LINE
  5
2CA
330
2C1
100
AcDbEntity
  8
0
  6
SLD-Durchgehend
 62
   179
420
  2171202
370
    18
100
AcDbLine
 10
514.4056468221
 20
413.6435013335
 30
0.0
 11
527.1056468221
 21
413.6435013335
 31
0.0
  0
MTEXT
  5
2CB
330
2C1
100
AcDbEntity
  8
0
  6
SLD-Durchgehend
 62
   179
420
  2171202
370
    18
100
AcDbMText
 10
488.2291194165
 20
422.6669755119
 30
0.0
 40
7.0
 41
0.0
 46
0.0
 71
     1
 72
     1
  1
%%c
  7
SLDTEXTSTYLE0
 73
     1
 44
1.0
  0
MTEXT
  5
2CC
330
2C1
100
AcDbEntity
  8
0
  6
SLD-Durchgehend
 62
   179
420
  2171202
370
    18
100
AcDbMText
 10
498.7859942133
 20
422.7739198652
 30
0.0
 40
7.0
 41
0.0
 46
0.0
 71
     1
 72
     1
  1
35
  7
SLDTEXTSTYLE0
 73
     1
 44
1.0
  0
ENDBLK
  5
2C3
330
2C1
100
AcDbEntity
  8
0
100
AcDbBlockEnd
  0
BLOCK
  5
2CF
330
2CE
100
AcDbEntity
  8
0
100
AcDbBlockBegin
  2
_D_10
 70
     0
 10
0.0
 20
0.0
 30
0.0
  3
_D_10
  1

  0
SOLID
  5
2D1
330
2CE
100
AcDbEntity
  8
0
  6
SLD-Durchgehend
 62
   179
420
  2171202
370
    18
100
AcDbTrace
 10
474.8875660544
 20
388.385047877
 30
0.0
 11
468.2835660544
 21
389.825047877
 31
0.0
 12
468.2835660544
 22
386.945047877
 32
0.0
 13
468.2835660544
 23
386.945047877
 33
0.0
  0
SOLID
  5
2D2
330
2CE
100
AcDbEntity
  8
0
  6
SLD-Durchgehend
 62
   179
420
  2171202
370
    18
100
AcDbTrace
 10
518.6879910231
 20
388.385047877
 30
0.0
 11
525.2919910231
 21
386.945047877
 31
0.0
 12
525.2919910231
 22
389.825047877
 32
0.0
 13
525.2919910231
 23
389.825047877
 33
0.0
  0
LINE
  5
2D3
330
2CE
100
AcDbEntity
  8
0
  6
SLD-Durchgehend
 62
   179
420
  2171202
370
    18
100
AcDbLine
 10
474.8875660544
 20
386.7354084523
 30
0.0
 11
474.8875660544
 21
390.385047877
 31
0.0
  0
LINE
  5
2D4
330
2CE
100
AcDbEntity
  8
0
  6
SLD-Durchgehend
 62
   179
420
  2171202
370
    18
100
AcDbLine
 10
518.6879910231
 20
386.7354084523
 30
0.0
 11
518.6879910231
 21
390.385047877
 31
0.0
  0
LINE
  5
2D5
330
2CE
100
AcDbEntity
  8
0
  6
SLD-Durchgehend
 62
   179
420
  2171202
370
    18
100
AcDbLine
 10
474.8875660544
 20
388.385047877
 30
0.0
 11
462.1875660544
 21
388.385047877
 31
0.0
  0
LINE
  5
2D6
330
2CE
100
AcDbEntity
  8
0
  6
SLD-Durchgehend
 62
   179
420
  2171202
370
    18
100
AcDbLine
 10
474.8875660544
 20
388.385047877
 30
0.0
 11
518.6879910231
 21
388.385047877
 31
0.0
  0
LINE
  5
2D7
330
2CE
100
AcDbEntity
  8
0
  6
SLD-Durchgehend
 62
   179
420
  2171202
370
    18
100
AcDbLine
 10
518.6879910231
 20
388.385047877
 30
0.0
 11
531.3879910231
 21
388.385047877
 31
0.0
  0
MTEXT
  5
2D8
330
2CE
100
AcDbEntity
  8
0
  6
SLD-Durchgehend
 62
   179
420
  2171202
370
    18
100
AcDbMText
 10
483.2067895128
 20
397.4085220554
 30
0.0
 40
7.0
 41
0.0
 46
0.0
 71
     1
 72
     1
  1
%%c
  7
SLDTEXTSTYLE0
 73
     1
 44
1.0
  0
MTEXT
  5
2D9
330
2CE
100
AcDbEntity
  8
0
  6
SLD-Durchgehend
 62
   179
420
  2171202
370
    18
100
AcDbMText
 10
493.7636643095
 20
397.5154664087
 30
0.0
 40
7.0
 41
0.0
 46
0.0
 71
     1
 72
     1
  1
43,8
  7
SLDTEXTSTYLE0
 73
     1
 44
1.0
  0
ENDBLK
  5
2D0
330
2CE
100
AcDbEntity
  8
0
100
AcDbBlockEnd
  0
BLOCK
  5
2DC
330
2DB
100
AcDbEntity
  8
0
100
AcDbBlockBegin
  2
_D_11
 70
     0
 10
0.0
 20
0.0
 30
0.0
  3
_D_11
  1

  0
SOLID
  5
2DE
330
2DB
100
AcDbEntity
  8
0
  6
SLD-Durchgehend
 62
   179
420
  2171202
370
    18
100
AcDbTrace
 10
468.7985642097
 20
352.7082636738
 30
0.0
 11
475.4025642097
 21
351.2682636738
 31
0.0
 12
475.4025642097
 22
354.1482636738
 32
0.0
 13
475.4025642097
 23
354.1482636738
 33
0.0
  0
SOLID
  5
2DF
330
2DB
100
AcDbEntity
  8
0
  6
SLD-Durchgehend
 62
   179
420
  2171202
370
    18
100
AcDbTrace
 10
524.7769928678
 20
352.7082636738
 30
0.0
 11
518.1729928678
 21
354.1482636738
 31
0.0
 12
518.1729928678
 22
351.2682636738
 32
0.0
 13
518.1729928678
 23
351.2682636738
 33
0.0
  0
LINE
  5
2E0
330
2DB
100
AcDbEntity
  8
0
  6
SLD-Durchgehend
 62
   179
420
  2171202
370
    18
100
AcDbLine
 10
468.7985642097
 20
348.9205088751
 30
0.0
 11
468.7985642097
 21
354.7082636738
 31
0.0
  0
LINE
  5
2E1
330
2DB
100
AcDbEntity
  8
0
  6
SLD-Durchgehend
 62
   179
420
  2171202
370
    18
100
AcDbLine
 10
524.7769928678
 20
348.9205088751
 30
0.0
 11
524.7769928678
 21
354.7082636738
 31
0.0
  0
LINE
  5
2E2
330
2DB
100
AcDbEntity
  8
0
  6
SLD-Durchgehend
 62
   179
420
  2171202
370
    18
100
AcDbLine
 10
468.7985642097
 20
352.7082636738
 30
0.0
 11
524.7769928678
 21
352.7082636738
 31
0.0
  0
MTEXT
  5
2E3
330
2DB
100
AcDbEntity
  8
0
  6
SLD-Durchgehend
 62
   179
420
  2171202
370
    18
100
AcDbMText
 10
486.6451083562
 20
361.7317378522
 30
0.0
 40
7.0
 41
0.0
 46
0.0
 71
     1
 72
     1
  1
%%c
  7
SLDTEXTSTYLE0
 73
     1
 44
1.0
  0
MTEXT
  5
2E4
330
2DB
100
AcDbEntity
  8
0
  6
SLD-Durchgehend
 62
   179
420
  2171202
370
    18
100
AcDbMText
 10
497.2019831529
 20
361.8386822055
 30
0.0
 40
7.0
 41
0.0
 46
0.0
 71
     1
 72
     1
  1
56
  7
SLDTEXTSTYLE0
 73
     1
 44
1.0
  0
ENDBLK
  5
2DD
330
2DB
100
AcDbEntity
  8
0
100
AcDbBlockEnd
  0
ENDSEC
  0
SECTION
  2
ENTITIES
  0
LINE
  5
75
330
1F
100
AcDbEntity
  8
0
  6
SLD-Durchgehend
 62
   179
420
  2171202
370
    18
100
AcDbLine
 10
302.2684008923
 20
407.7770973026
 30
0.0
 11
302.2684008923
 21
406.7770973026
 31
0.0
  0
LINE
  5
76
330
1F
100
AcDbEntity
  8
0
  6
SLD-Durchgehend
 62
   179
420
  2171202
370
    18
100
AcDbLine
 10
302.2684008923
 20
406.7770973026
 30
0.0
 11
304.4184008923
 21
406.7770973026
 31
0.0
  0
LINE
  5
77
330
1F
100
AcDbEntity
  8
0
  6
SLD-Durchgehend
 62
   179
420
  2171202
370
    18
100
AcDbLine
 10
304.4184008923
 20
406.7770973026
 30
0.0
 11
304.4184008923
 21
407.7770973026
 31
0.0
  0
LINE
  5
78
330
1F
100
AcDbEntity
  8
0
  6
SLD-Durchgehend
 62
   179
420
  2171202
370
    18
100
AcDbLine
 10
304.4184008923
 20
407.7770973026
 30
0.0
 11
302.2684008923
 21
407.7770973026
 31
0.0
  0
LINE
  5
79
330
1F
100
AcDbEntity
  8
0
  6
SLD-Durchgehend
 62
   179
420
  2171202
370
    18
100
AcDbLine
 10
262.0684008923
 20
406.7770973026
 30
0.0
 11
262.0684008923
 21
407.7770973026
 31
0.0
  0
LINE
  5
7A
330
1F
100
AcDbEntity
  8
0
  6
SLD-Durchgehend
 62
   179
420
  2171202
370
    18
100
AcDbLine
 10
262.0684008923
 20
407.7770973026
 30
0.0
 11
259.9184008923
 21
407.7770973026
 31
0.0
  0
LINE
  5
7B
330
1F
100
AcDbEntity
  8
0
  6
SLD-Durchgehend
 62
   179
420
  2171202
370
    18
100
AcDbLine
 10
259.9184008923
 20
407.7770973026
 30
0.0
 11
259.9184008923
 21
406.7770973026
 31
0.0
  0
LINE
  5
7C
330
1F
100
AcDbEntity
  8
0
  6
SLD-Durchgehend
 62
   179
420
  2171202
370
    18
100
AcDbLine
 10
259.9184008923
 20
406.7770973026
 30
0.0
 11
262.0684008923
 21
406.7770973026
 31
0.0
  0
LINE
  5
7D
330
1F
100
AcDbEntity
  8
0
  6
SLD-Durchgehend
 62
   179
420
  2171202
370
    18
100
AcDbLine
 10
257.1684008923
 20
383.7354084523
 30
0.0
 11
257.1684008923
 21
384.7354084523
 31
0.0
  0
LINE
  5
7E
330
1F
100
AcDbEntity
  8
0
  6
SLD-Durchgehend
 62
   179
420
  2171202
370
    18
100
AcDbLine
 10
257.1684008923
 20
384.7354084523
 30
0.0
 11
253.9184008923
 21
384.7354084523
 31
0.0
  0
LINE
  5
7F
330
1F
100
AcDbEntity
  8
0
  6
SLD-Durchgehend
 62
   179
420
  2171202
370
    18
100
AcDbLine
 10
253.9184008923
 20
384.7354084523
 30
0.0
 11
253.9184008923
 21
383.7354084523
 31
0.0
  0
LINE
  5
80
330
1F
100
AcDbEntity
  8
0
  6
SLD-Durchgehend
 62
   179
420
  2171202
370
    18
100
AcDbLine
 10
253.9184008923
 20
383.7354084523
 30
0.0
 11
257.1684008923
 21
383.7354084523
 31
0.0
  0
LINE
  5
81
330
1F
100
AcDbEntity
  8
0
  6
SLD-Durchgehend
 62
   179
420
  2171202
370
    18
100
AcDbLine
 10
307.1684008923
 20
384.7354084523
 30
0.0
 11
307.1684008923
 21
383.7354084523
 31
0.0
  0
LINE
  5
82
330
1F
100
AcDbEntity
  8
0
  6
SLD-Durchgehend
 62
   179
420
  2171202
370
    18
100
AcDbLine
 10
307.1684008923
 20
383.7354084523
 30
0.0
 11
310.4184008923
 21
383.7354084523
 31
0.0
  0
LINE
  5
83
330
1F
100
AcDbEntity
  8
0
  6
SLD-Durchgehend
 62
   179
420
  2171202
370
    18
100
AcDbLine
 10
310.4184008923
 20
383.7354084523
 30
0.0
 11
310.4184008923
 21
384.7354084523
 31
0.0
  0
LINE
  5
84
330
1F
100
AcDbEntity
  8
0
  6
SLD-Durchgehend
 62
   179
420
  2171202
370
    18
100
AcDbLine
 10
310.4184008923
 20
384.7354084523
 30
0.0
 11
307.1684008923
 21
384.7354084523
 31
0.0
  0
LINE
  5
85
330
1F
100
AcDbEntity
  8
0
  6
SLD-Durchgehend
 62
   179
420
  2171202
370
    18
100
AcDbLine
 10
340.3341817422
 20
382.7354084522
 30
0.0
 11
340.3341817422
 21
384.7354084522
 31
0.0
  0
LINE
  5
86
330
1F
100
AcDbEntity
  8
0
  6
SLD-Durchgehend
 62
   179
420
  2171202
370
    18
100
AcDbLine
 10
340.3341817422
 20
384.7354084522
 30
0.0
 11
335.3117783959
 21
384.7354084522
 31
0.0
  0
LINE
  5
87
330
1F
100
AcDbEntity
  8
0
  6
SLD-Durchgehend
 62
   179
420
  2171202
370
    18
100
AcDbLine
 10
335.3117783959
 20
384.7354084522
 30
0.0
 11
335.3117783959
 21
382.7354084522
 31
0.0
  0
LINE
  5
88
330
1F
100
AcDbEntity
  8
0
  6
SLD-Durchgehend
 62
   179
420
  2171202
370
    18
100
AcDbLine
 10
335.3117783959
 20
382.7354084522
 30
0.0
 11
340.3341817422
 21
382.7354084522
 31
0.0
  0
LINE
  5
89
330
1F
100
AcDbEntity
  8
0
  6
SLD-Durchgehend
 62
   179
420
  2171202
370
    18
100
AcDbLine
 10
369.1601151942
 20
384.7354084522
 30
0.0
 11
369.1601151942
 21
382.7354084522
 31
0.0
  0
LINE
  5
8A
330
1F
100
AcDbEntity
  8
0
  6
SLD-Durchgehend
 62
   179
420
  2171202
370
    18
100
AcDbLine
 10
369.1601151942
 20
382.7354084522
 30
0.0
 11
374.1825185404
 21
382.7354084522
 31
0.0
  0
LINE
  5
8B
330
1F
100
AcDbEntity
  8
0
  6
SLD-Durchgehend
 62
   179
420
  2171202
370
    18
100
AcDbLine
 10
374.1825185404
 20
382.7354084522
 30
0.0
 11
374.1825185404
 21
384.7354084522
 31
0.0
  0
LINE
  5
8C
330
1F
100
AcDbEntity
  8
0
  6
SLD-Durchgehend
 62
   179
420
  2171202
370
    18
100
AcDbLine
 10
374.1825185404
 20
384.7354084522
 30
0.0
 11
369.1601151942
 21
384.7354084522
 31
0.0
  0
LINE
  5
8D
330
1F
100
AcDbEntity
  8
0
  6
SLD-Durchgehend
 62
   179
420
  2171202
370
    18
100
AcDbLine
 10
368.656987067
 20
405.7770973026
 30
0.0
 11
368.656987067
 21
407.7770973026
 31
0.0
  0
LINE
  5
8E
330
1F
100
AcDbEntity
  8
0
  6
SLD-Durchgehend
 62
   179
420
  2171202
370
    18
100
AcDbLine
 10
368.656987067
 20
407.7770973026
 30
0.0
 11
365.6321661459
 21
407.7770973026
 31
0.0
  0
LINE
  5
8F
330
1F
100
AcDbEntity
  8
0
  6
SLD-Durchgehend
 62
   179
420
  2171202
370
    18
100
AcDbLine
 10
365.6321661459
 20
407.7770973026
 30
0.0
 11
365.6321661459
 21
405.7770973026
 31
0.0
  0
LINE
  5
90
330
1F
100
AcDbEntity
  8
0
  6
SLD-Durchgehend
 62
   179
420
  2171202
370
    18
100
AcDbLine
 10
365.6321661459
 20
405.7770973026
 30
0.0
 11
368.656987067
 21
405.7770973026
 31
0.0
  0
LINE
  5
91
330
1F
100
AcDbEntity
  8
0
  6
SLD-Durchgehend
 62
   179
420
  2171202
370
    18
100
AcDbLine
 10
340.8373098694
 20
407.7770973026
 30
0.0
 11
340.8373098694
 21
405.7770973026
 31
0.0
  0
LINE
  5
92
330
1F
100
AcDbEntity
  8
0
  6
SLD-Durchgehend
 62
   179
420
  2171202
370
    18
100
AcDbLine
 10
340.8373098694
 20
405.7770973026
 30
0.0
 11
343.8621307904
 21
405.7770973026
 31
0.0
  0
LINE
  5
93
330
1F
100
AcDbEntity
  8
0
  6
SLD-Durchgehend
 62
   179
420
  2171202
370
    18
100
AcDbLine
 10
343.8621307904
 20
405.7770973026
 30
0.0
 11
343.8621307904
 21
407.7770973026
 31
0.0
  0
LINE
  5
94
330
1F
100
AcDbEntity
  8
0
  6
SLD-Durchgehend
 62
   179
420
  2171202
370
    18
100
AcDbLine
 10
343.8621307904
 20
407.7770973026
 30
0.0
 11
340.8373098694
 21
407.7770973026
 31
0.0
  0
LINE
  5
95
330
1F
100
AcDbEntity
  8
0
  6
SLD-Durchgehend
 62
   179
420
  2171202
370
    18
100
AcDbLine
 10
337.3191936299
 20
344.920508875
 30
0.0
 11
337.3191936299
 21
346.920508875
 31
0.0
  0
LINE
  5
96
330
1F
100
AcDbEntity
  8
0
  6
SLD-Durchgehend
 62
   179
420
  2171202
370
    18
100
AcDbLine
 10
337.3191936299
 20
346.920508875
 30
0.0
 11
332.303137912
 21
346.920508875
 31
0.0
  0
LINE
  5
97
330
1F
100
AcDbEntity
  8
0
  6
SLD-Durchgehend
 62
   179
420
  2171202
370
    18
100
AcDbLine
 10
332.303137912
 20
346.920508875
 30
0.0
 11
332.303137912
 21
344.920508875
 31
0.0
  0
LINE
  5
98
330
1F
100
AcDbEntity
  8
0
  6
SLD-Durchgehend
 62
   179
420
  2171202
370
    18
100
AcDbLine
 10
332.303137912
 20
344.920508875
 30
0.0
 11
337.3191936299
 21
344.920508875
 31
0.0
  0
LINE
  5
99
330
1F
100
AcDbEntity
  8
0
  6
SLD-Durchgehend
 62
   179
420
  2171202
370
    18
100
AcDbLine
 10
372.1751033064
 20
346.920508875
 30
0.0
 11
372.1751033064
 21
344.920508875
 31
0.0
  0
LINE
  5
9A
330
1F
100
AcDbEntity
  8
0
  6
SLD-Durchgehend
 62
   179
420
  2171202
370
    18
100
AcDbLine
 10
372.1751033064
 20
344.920508875
 30
0.0
 11
377.1911590243
 21
344.920508875
 31
0.0
  0
LINE
  5
9B
330
1F
100
AcDbEntity
  8
0
  6
SLD-Durchgehend
 62
   179
420
  2171202
370
    18
100
AcDbLine
 10
377.1911590243
 20
344.920508875
 30
0.0
 11
377.1911590243
 21
346.920508875
 31
0.0
  0
LINE
  5
9C
330
1F
100
AcDbEntity
  8
0
  6
SLD-Durchgehend
 62
   179
420
  2171202
370
    18
100
AcDbLine
 10
377.1911590243
 20
346.920508875
 30
0.0
 11
372.1751033064
 21
346.920508875
 31
0.0
  0
LINE
  5
9D
330
1F
100
AcDbEntity
  8
0
  6
SLD-Durchgehend
 62
   179
420
  2171202
370
    18
100
AcDbLine
 10
396.9574645045
 20
376.7354084523
 30
0.0
 11
397.2916608891
 21
376.7354084523
 31
0.0
  0
LINE
  5
9E
330
1F
100
AcDbEntity
  8
0
  6
SLD-Durchgehend
 62
   179
420
  2171202
370
    18
100
AcDbLine
 10
397.4459234691
 20
384.7354084523
 30
0.0
 11
394.2414383309
 21
384.7354084523
 31
0.0
  0
LINE
  5
9F
330
1F
100
AcDbEntity
  8
0
  6
SLD-Durchgehend
 62
   179
420
  2171202
370
    18
100
AcDbLine
 10
394.2414383309
 20
384.7354084523
 30
0.0
 11
394.2414383309
 21
383.3235719427
 31
0.0
  0
LINE
  5
A0
330
1F
100
AcDbEntity
  8
0
  6
SLD-Durchgehend
 62
   179
420
  2171202
370
    18
100
AcDbLine
 10
450.7392594653
 20
383.3235719427
 30
0.0
 11
450.7392594653
 21
384.7354084523
 31
0.0
  0
LINE
  5
A1
330
1F
100
AcDbEntity
  8
0
  6
SLD-Durchgehend
 62
   179
420
  2171202
370
    18
100
AcDbLine
 10
450.7392594653
 20
384.7354084523
 30
0.0
 11
447.5347743272
 21
384.7354084523
 31
0.0
  0
LINE
  5
A2
330
1F
100
AcDbEntity
  8
0
  6
SLD-Durchgehend
 62
   179
420
  2171202
370
    18
100
AcDbLine
 10
447.6890369072
 20
376.7354084523
 30
0.0
 11
448.0232332918
 21
376.7354084523
 31
0.0
  0
LINE
  5
A3
330
1F
100
AcDbEntity
  8
0
  6
SLD-Durchgehend
 62
   179
420
  2171202
370
    18
100
AcDbLine
 10
252.9184008923
 20
345.9205088751
 30
0.0
 11
252.9184008923
 21
346.9205088751
 31
0.0
  0
LINE
  5
A4
330
1F
100
AcDbEntity
  8
0
  6
SLD-Durchgehend
 62
   179
420
  2171202
370
    18
100
AcDbLine
 10
252.9184008923
 20
346.9205088751
 30
0.0
 11
249.7184008923
 21
346.9205088751
 31
0.0
  0
LINE
  5
A5
330
1F
100
AcDbEntity
  8
0
  6
SLD-Durchgehend
 62
   179
420
  2171202
370
    18
100
AcDbLine
 10
249.7184008923
 20
346.9205088751
 30
0.0
 11
249.7184008923
 21
345.9205088751
 31
0.0
  0
LINE
  5
A6
330
1F
100
AcDbEntity
  8
0
  6
SLD-Durchgehend
 62
   179
420
  2171202
370
    18
100
AcDbLine
 10
249.7184008923
 20
345.9205088751
 30
0.0
 11
252.9184008923
 21
345.9205088751
 31
0.0
  0
LINE
  5
A7
330
1F
100
AcDbEntity
  8
0
  6
SLD-Durchgehend
 62
   179
420
  2171202
370
    18
100
AcDbLine
 10
311.4184008923
 20
346.9205088751
 30
0.0
 11
311.4184008923
 21
345.9205088751
 31
0.0
  0
LINE
  5
A8
330
1F
100
AcDbEntity
  8
0
  6
SLD-Durchgehend
 62
   179
420
  2171202
370
    18
100
AcDbLine
 10
311.4184008923
 20
345.9205088751
 30
0.0
 11
314.6184008923
 21
345.9205088751
 31
0.0
  0
LINE
  5
A9
330
1F
100
AcDbEntity
  8
0
  6
SLD-Durchgehend
 62
   179
420
  2171202
370
    18
100
AcDbLine
 10
314.6184008923
 20
345.9205088751
 30
0.0
 11
314.6184008923
 21
346.9205088751
 31
0.0
  0
LINE
  5
AA
330
1F
100
AcDbEntity
  8
0
  6
SLD-Durchgehend
 62
   179
420
  2171202
370
    18
100
AcDbLine
 10
314.6184008923
 20
346.9205088751
 30
0.0
 11
311.4184008923
 21
346.9205088751
 31
0.0
  0
LINE
  5
AB
330
1F
100
AcDbEntity
  8
0
  6
SLD-Durchgehend
 62
   179
420
  2171202
370
    18
100
AcDbLine
 10
480.2946771928
 20
399.7770973026
 30
0.0
 11
480.7948928702
 21
399.7770973026
 31
0.0
  0
LINE
  5
AC
330
1F
100
AcDbEntity
  8
0
  6
SLD-Durchgehend
 62
   179
420
  2171202
370
    18
100
AcDbLine
 10
480.7948928702
 20
399.7770973026
 30
0.0
 11
480.7948928702
 21
407.7770973026
 31
0.0
  0
LINE
  5
AD
330
1F
100
AcDbEntity
  8
0
  6
SLD-Durchgehend
 62
   179
420
  2171202
370
    18
100
AcDbLine
 10
480.7948928702
 20
407.7770973026
 30
0.0
 11
479.1699102555
 21
407.7770973026
 31
0.0
  0
LINE
  5
AE
330
1F
100
AcDbEntity
  8
0
  6
SLD-Durchgehend
 62
   179
420
  2171202
370
    18
100
AcDbLine
 10
512.7806642074
 20
407.7770973026
 30
0.0
 11
512.7806642074
 21
399.7770973026
 31
0.0
  0
LINE
  5
AF
330
1F
100
AcDbEntity
  8
0
  6
SLD-Durchgehend
 62
   179
420
  2171202
370
    18
100
AcDbLine
 10
512.7806642074
 20
399.7770973026
 30
0.0
 11
513.2808798847
 21
399.7770973026
 31
0.0
  0
LINE
  5
B0
330
1F
100
AcDbEntity
  8
0
  6
SLD-Durchgehend
 62
   179
420
  2171202
370
    18
100
AcDbLine
 10
514.4056468221
 20
407.7770973026
 30
0.0
 11
512.7806642074
 21
407.7770973026
 31
0.0
  0
LINE
  5
B1
330
1F
100
AcDbEntity
  8
0
  6
SLD-Durchgehend
 62
   179
420
  2171202
370
    18
100
AcDbLine
 10
476.2933307051
 20
374.7354084523
 30
0.0
 11
476.7934695482
 21
374.7354084523
 31
0.0
  0
LINE
  5
B2
330
1F
100
AcDbEntity
  8
0
  6
SLD-Durchgehend
 62
   179
420
  2171202
370
    18
100
AcDbLine
 10
476.7934695482
 20
374.7354084523
 30
0.0
 11
476.7934695482
 21
384.7354084523
 31
0.0
  0
LINE
  5
B3
330
1F
100
AcDbEntity
  8
0
  6
SLD-Durchgehend
 62
   179
420
  2171202
370
    18
100
AcDbLine
 10
476.7934695482
 20
384.7354084523
 30
0.0
 11
474.8875660544
 21
384.7354084523
 31
0.0
  0
LINE
  5
B4
330
1F
100
AcDbEntity
  8
0
  6
SLD-Durchgehend
 62
   179
420
  2171202
370
    18
100
AcDbLine
 10
516.7820875293
 20
384.7354084523
 30
0.0
 11
516.7820875293
 21
374.7354084523
 31
0.0
  0
LINE
  5
B5
330
1F
100
AcDbEntity
  8
0
  6
SLD-Durchgehend
 62
   179
420
  2171202
370
    18
100
AcDbLine
 10
516.7820875293
 20
374.7354084523
 30
0.0
 11
517.2822263725
 21
374.7354084523
 31
0.0
  0
LINE
  5
B6
330
1F
100
AcDbEntity
  8
0
  6
SLD-Durchgehend
 62
   179
420
  2171202
370
    18
100
AcDbLine
 10
518.6879910231
 20
384.7354084523
 30
0.0
 11
516.7820875293
 21
384.7354084523
 31
0.0
  0
LINE
  5
B7
330
1F
100
AcDbEntity
  8
0
  6
SLD-Durchgehend
 62
   179
420
  2171202
370
    18
100
AcDbLine
 10
471.2922418312
 20
336.9205088751
 30
0.0
 11
471.7923311131
 21
336.9205088751
 31
0.0
  0
LINE
  5
B8
330
1F
100
AcDbEntity
  8
0
  6
SLD-Durchgehend
 62
   179
420
  2171202
370
    18
100
AcDbLine
 10
471.7923311131
 20
336.9205088751
 30
0.0
 11
471.7923311131
 21
346.9205088751
 31
0.0
  0
LINE
  5
B9
330
1F
100
AcDbEntity
  8
0
  6
SLD-Durchgehend
 62
   179
420
  2171202
370
    18
100
AcDbLine
 10
471.7923311131
 20
346.9205088751
 30
0.0
 11
468.7985642097
 21
346.9205088751
 31
0.0
  0
LINE
  5
BA
330
1F
100
AcDbEntity
  8
0
  6
SLD-Durchgehend
 62
   179
420
  2171202
370
    18
100
AcDbLine
 10
524.7769928678
 20
346.9205088751
 30
0.0
 11
521.7832259644
 21
346.9205088751
 31
0.0
  0
LINE
  5
BB
330
1F
100
AcDbEntity
  8
0
  6
SLD-Durchgehend
 62
   179
420
  2171202
370
    18
100
AcDbLine
 10
521.7832259644
 20
346.9205088751
 30
0.0
 11
521.7832259644
 21
336.9205088751
 31
0.0
  0
LINE
  5
BC
330
1F
100
AcDbEntity
  8
0
  6
SLD-Durchgehend
 62
   179
420
  2171202
370
    18
100
AcDbLine
 10
521.7832259644
 20
336.9205088751
 30
0.0
 11
522.2833152464
 21
336.9205088751
 31
0.0
  0
LINE
  5
BD
330
1F
100
AcDbEntity
  8
0
  6
SLD-Durchgehend
 62
   179
420
  2171202
370
    18
100
AcDbLine
 10
442.6661339655
 20
402.0770973026
 30
0.0
 11
443.1115461161
 21
402.0770973026
 31
0.0
  0
LINE
  5
BE
330
1F
100
AcDbEntity
  8
0
  6
SLD-Durchgehend
 62
   179
420
  2171202
370
    18
100
AcDbLine
 10
444.6389594242
 20
407.7770973026
 30
0.0
 11
441.1386986437
 21
407.7770973026
 31
0.0
  0
LINE
  5
BF
330
1F
100
AcDbEntity
  8
0
  6
SLD-Durchgehend
 62
   179
420
  2171202
370
    18
100
AcDbLine
 10
403.8419991526
 20
407.7770973026
 30
0.0
 11
400.3417383721
 21
407.7770973026
 31
0.0
  0
LINE
  5
C0
330
1F
100
AcDbEntity
  8
0
  6
SLD-Durchgehend
 62
   179
420
  2171202
370
    18
100
AcDbLine
 10
401.8691516802
 20
402.0770973026
 30
0.0
 11
402.3145638308
 21
402.0770973026
 31
0.0
  0
LINE
  5
C1
330
1F
100
AcDbEntity
  8
0
  6
SLD-Durchgehend
 62
   179
420
  2171202
370
    18
100
AcDbLine
 10
454.2393795642
 20
345.4863351238
 30
0.0
 11
454.2393795642
 21
346.9205088751
 31
0.0
  0
LINE
  5
C2
330
1F
100
AcDbEntity
  8
0
  6
SLD-Durchgehend
 62
   179
420
  2171202
370
    18
100
AcDbLine
 10
454.2393795642
 20
346.9205088751
 30
0.0
 11
450.8351399467
 21
346.9205088751
 31
0.0
  0
LINE
  5
C3
330
1F
100
AcDbEntity
  8
0
  6
SLD-Durchgehend
 62
   179
420
  2171202
370
    18
100
AcDbLine
 10
451.7380760044
 20
338.4205088751
 30
0.0
 11
451.9799974591
 21
338.4205088751
 31
0.0
  0
LINE
  5
C4
330
1F
100
AcDbEntity
  8
0
  6
SLD-Durchgehend
 62
   179
420
  2171202
370
    18
100
AcDbLine
 10
393.0007003372
 20
338.4205088751
 30
0.0
 11
393.2426217919
 21
338.4205088751
 31
0.0
  0
LINE
  5
C5
330
1F
100
AcDbEntity
  8
0
  6
SLD-Durchgehend
 62
   179
420
  2171202
370
    18
100
AcDbLine
 10
394.1455578496
 20
346.9205088751
 30
0.0
 11
390.7413182321
 21
346.9205088751
 31
0.0
  0
LINE
  5
C6
330
1F
100
AcDbEntity
  8
0
  6
SLD-Durchgehend
 62
   179
420
  2171202
370
    18
100
AcDbLine
 10
390.7413182321
 20
346.9205088751
 30
0.0
 11
390.7413182321
 21
345.4863351238
 31
0.0
  0
LINE
  5
C7
330
1F
100
AcDbEntity
  8
0
  6
SLD-Durchgehend
 62
   179
420
  2171202
370
    18
100
AcDbLine
 10
302.2684008923
 20
406.7770973026
 30
0.0
 11
304.4184008923
 21
406.7770973026
 31
0.0
  0
LINE
  5
C8
330
1F
100
AcDbEntity
  8
0
  6
SLD-Durchgehend
 62
   179
420
  2171202
370
    18
100
AcDbLine
 10
304.4184008923
 20
406.7770973026
 30
0.0
 11
304.4184008923
 21
407.7770973026
 31
0.0
  0
LINE
  5
C9
330
1F
100
AcDbEntity
  8
0
  6
SLD-Durchgehend
 62
   179
420
  2171202
370
    18
100
AcDbLine
 10
304.4184008923
 20
407.7770973026
 30
0.0
 11
302.2684008923
 21
407.7770973026
 31
0.0
  0
LINE
  5
CA
330
1F
100
AcDbEntity
  8
0
  6
SLD-Durchgehend
 62
   179
420
  2171202
370
    18
100
AcDbLine
 10
302.2684008923
 20
407.7770973026
 30
0.0
 11
302.2684008923
 21
406.7770973026
 31
0.0
  0
LINE
  5
CB
330
1F
100
AcDbEntity
  8
0
  6
SLD-Durchgehend
 62
   179
420
  2171202
370
    18
100
AcDbLine
 10
262.0684008923
 20
407.7770973026
 30
0.0
 11
259.9184008923
 21
407.7770973026
 31
0.0
  0
LINE
  5
CC
330
1F
100
AcDbEntity
  8
0
  6
SLD-Durchgehend
 62
   179
420
  2171202
370
    18
100
AcDbLine
 10
259.9184008923
 20
407.7770973026
 30
0.0
 11
259.9184008923
 21
406.7770973026
 31
0.0
  0
LINE
  5
CD
330
1F
100
AcDbEntity
  8
0
  6
SLD-Durchgehend
 62
   179
420
  2171202
370
    18
100
AcDbLine
 10
259.9184008923
 20
406.7770973026
 30
0.0
 11
262.0684008923
 21
406.7770973026
 31
0.0
  0
LINE
  5
CE
330
1F
100
AcDbEntity
  8
0
  6
SLD-Durchgehend
 62
   179
420
  2171202
370
    18
100
AcDbLine
 10
262.0684008923
 20
406.7770973026
 30
0.0
 11
262.0684008923
 21
407.7770973026
 31
0.0
  0
LINE
  5
CF
330
1F
100
AcDbEntity
  8
0
  6
SLD-Durchgehend
 62
   179
420
  2171202
370
    18
100
AcDbLine
 10
257.1684008923
 20
384.7354084523
 30
0.0
 11
253.9184008923
 21
384.7354084523
 31
0.0
  0
LINE
  5
D0
330
1F
100
AcDbEntity
  8
0
  6
SLD-Durchgehend
 62
   179
420
  2171202
370
    18
100
AcDbLine
 10
253.9184008923
 20
384.7354084523
 30
0.0
 11
253.9184008923
 21
383.7354084523
 31
0.0
  0
LINE
  5
D1
330
1F
100
AcDbEntity
  8
0
  6
SLD-Durchgehend
 62
   179
420
  2171202
370
    18
100
AcDbLine
 10
253.9184008923
 20
383.7354084523
 30
0.0
 11
257.1684008923
 21
383.7354084523
 31
0.0
  0
LINE
  5
D2
330
1F
100
AcDbEntity
  8
0
  6
SLD-Durchgehend
 62
   179
420
  2171202
370
    18
100
AcDbLine
 10
257.1684008923
 20
383.7354084523
 30
0.0
 11
257.1684008923
 21
384.7354084523
 31
0.0
  0
LINE
  5
D3
330
1F
100
AcDbEntity
  8
0
  6
SLD-Durchgehend
 62
   179
420
  2171202
370
    18
100
AcDbLine
 10
307.1684008923
 20
383.7354084523
 30
0.0
 11
310.4184008923
 21
383.7354084523
 31
0.0
  0
LINE
  5
D4
330
1F
100
AcDbEntity
  8
0
  6
SLD-Durchgehend
 62
   179
420
  2171202
370
    18
100
AcDbLine
 10
310.4184008923
 20
383.7354084523
 30
0.0
 11
310.4184008923
 21
384.7354084523
 31
0.0
  0
LINE
  5
D5
330
1F
100
AcDbEntity
  8
0
  6
SLD-Durchgehend
 62
   179
420
  2171202
370
    18
100
AcDbLine
 10
310.4184008923
 20
384.7354084523
 30
0.0
 11
307.1684008923
 21
384.7354084523
 31
0.0
  0
LINE
  5
D6
330
1F
100
AcDbEntity
  8
0
  6
SLD-Durchgehend
 62
   179
420
  2171202
370
    18
100
AcDbLine
 10
307.1684008923
 20
384.7354084523
 30
0.0
 11
307.1684008923
 21
383.7354084523
 31
0.0
  0
LINE
  5
D7
330
1F
100
AcDbEntity
  8
0
  6
SLD-Durchgehend
 62
   179
420
  2171202
370
    18
100
AcDbLine
 10
340.3341817422
 20
384.7354084522
 30
0.0
 11
335.3117783959
 21
384.7354084522
 31
0.0
  0
LINE
  5
D8
330
1F
100
AcDbEntity
  8
0
  6
SLD-Durchgehend
 62
   179
420
  2171202
370
    18
100
AcDbLine
 10
335.3117783959
 20
384.7354084522
 30
0.0
 11
335.3117783959
 21
382.7354084522
 31
0.0
  0
LINE
  5
D9
330
1F
100
AcDbEntity
  8
0
  6
SLD-Durchgehend
 62
   179
420
  2171202
370
    18
100
AcDbLine
 10
335.3117783959
 20
382.7354084522
 30
0.0
 11
340.3341817422
 21
382.7354084522
 31
0.0
  0
LINE
  5
DA
330
1F
100
AcDbEntity
  8
0
  6
SLD-Durchgehend
 62
   179
420
  2171202
370
    18
100
AcDbLine
 10
340.3341817422
 20
382.7354084522
 30
0.0
 11
340.3341817422
 21
384.7354084522
 31
0.0
  0
LINE
  5
DB
330
1F
100
AcDbEntity
  8
0
  6
SLD-Durchgehend
 62
   179
420
  2171202
370
    18
100
AcDbLine
 10
369.1601151942
 20
382.7354084522
 30
0.0
 11
374.1825185404
 21
382.7354084522
 31
0.0
  0
LINE
  5
DC
330
1F
100
AcDbEntity
  8
0
  6
SLD-Durchgehend
 62
   179
420
  2171202
370
    18
100
AcDbLine
 10
374.1825185404
 20
382.7354084522
 30
0.0
 11
374.1825185404
 21
384.7354084522
 31
0.0
  0
LINE
  5
DD
330
1F
100
AcDbEntity
  8
0
  6
SLD-Durchgehend
 62
   179
420
  2171202
370
    18
100
AcDbLine
 10
374.1825185404
 20
384.7354084522
 30
0.0
 11
369.1601151942
 21
384.7354084522
 31
0.0
  0
LINE
  5
DE
330
1F
100
AcDbEntity
  8
0
  6
SLD-Durchgehend
 62
   179
420
  2171202
370
    18
100
AcDbLine
 10
369.1601151942
 20
384.7354084522
 30
0.0
 11
369.1601151942
 21
382.7354084522
 31
0.0
  0
LINE
  5
DF
330
1F
100
AcDbEntity
  8
0
  6
SLD-Durchgehend
 62
   179
420
  2171202
370
    18
100
AcDbLine
 10
368.656987067
 20
407.7770973026
 30
0.0
 11
365.6321661459
 21
407.7770973026
 31
0.0
  0
LINE
  5
E0
330
1F
100
AcDbEntity
  8
0
  6
SLD-Durchgehend
 62
   179
420
  2171202
370
    18
100
AcDbLine
 10
365.6321661459
 20
407.7770973026
 30
0.0
 11
365.6321661459
 21
405.7770973026
 31
0.0
  0
LINE
  5
E1
330
1F
100
AcDbEntity
  8
0
  6
SLD-Durchgehend
 62
   179
420
  2171202
370
    18
100
AcDbLine
 10
365.6321661459
 20
405.7770973026
 30
0.0
 11
368.656987067
 21
405.7770973026
 31
0.0
  0
LINE
  5
E2
330
1F
100
AcDbEntity
  8
0
  6
SLD-Durchgehend
 62
   179
420
  2171202
370
    18
100
AcDbLine
 10
368.656987067
 20
405.7770973026
 30
0.0
 11
368.656987067
 21
407.7770973026
 31
0.0
  0
LINE
  5
E3
330
1F
100
AcDbEntity
  8
0
  6
SLD-Durchgehend
 62
   179
420
  2171202
370
    18
100
AcDbLine
 10
340.8373098694
 20
405.7770973026
 30
0.0
 11
343.8621307904
 21
405.7770973026
 31
0.0
  0
LINE
  5
E4
330
1F
100
AcDbEntity
  8
0
  6
SLD-Durchgehend
 62
   179
420
  2171202
370
    18
100
AcDbLine
 10
343.8621307904
 20
405.7770973026
 30
0.0
 11
343.8621307904
 21
407.7770973026
 31
0.0
  0
LINE
  5
E5
330
1F
100
AcDbEntity
  8
0
  6
SLD-Durchgehend
 62
   179
420
  2171202
370
    18
100
AcDbLine
 10
343.8621307904
 20
407.7770973026
 30
0.0
 11
340.8373098694
 21
407.7770973026
 31
0.0
  0
LINE
  5
E6
330
1F
100
AcDbEntity
  8
0
  6
SLD-Durchgehend
 62
   179
420
  2171202
370
    18
100
AcDbLine
 10
340.8373098694
 20
407.7770973026
 30
0.0
 11
340.8373098694
 21
405.7770973026
 31
0.0
  0
LINE
  5
E7
330
1F
100
AcDbEntity
  8
0
  6
SLD-Durchgehend
 62
   179
420
  2171202
370
    18
100
AcDbLine
 10
337.3191936299
 20
346.920508875
 30
0.0
 11
332.303137912
 21
346.920508875
 31
0.0
  0
LINE
  5
E8
330
1F
100
AcDbEntity
  8
0
  6
SLD-Durchgehend
 62
   179
420
  2171202
370
    18
100
AcDbLine
 10
332.303137912
 20
346.920508875
 30
0.0
 11
332.303137912
 21
344.920508875
 31
0.0
  0
LINE
  5
E9
330
1F
100
AcDbEntity
  8
0
  6
SLD-Durchgehend
 62
   179
420
  2171202
370
    18
100
AcDbLine
 10
332.303137912
 20
344.920508875
 30
0.0
 11
337.3191936299
 21
344.920508875
 31
0.0
  0
LINE
  5
EA
330
1F
100
AcDbEntity
  8
0
  6
SLD-Durchgehend
 62
   179
420
  2171202
370
    18
100
AcDbLine
 10
337.3191936299
 20
344.920508875
 30
0.0
 11
337.3191936299
 21
346.920508875
 31
0.0
  0
LINE
  5
EB
330
1F
100
AcDbEntity
  8
0
  6
SLD-Durchgehend
 62
   179
420
  2171202
370
    18
100
AcDbLine
 10
372.1751033064
 20
344.920508875
 30
0.0
 11
377.1911590243
 21
344.920508875
 31
0.0
  0
LINE
  5
EC
330
1F
100
AcDbEntity
  8
0
  6
SLD-Durchgehend
 62
   179
420
  2171202
370
    18
100
AcDbLine
 10
377.1911590243
 20
344.920508875
 30
0.0
 11
377.1911590243
 21
346.920508875
 31
0.0
  0
LINE
  5
ED
330
1F
100
AcDbEntity
  8
0
  6
SLD-Durchgehend
 62
   179
420
  2171202
370
    18
100
AcDbLine
 10
377.1911590243
 20
346.920508875
 30
0.0
 11
372.1751033064
 21
346.920508875
 31
0.0
  0
LINE
  5
EE
330
1F
100
AcDbEntity
  8
0
  6
SLD-Durchgehend
 62
   179
420
  2171202
370
    18
100
AcDbLine
 10
372.1751033064
 20
346.920508875
 30
0.0
 11
372.1751033064
 21
344.920508875
 31
0.0
  0
LINE
  5
EF
330
1F
100
AcDbEntity
  8
0
  6
SLD-Durchgehend
 62
   179
420
  2171202
370
    18
100
AcDbLine
 10
396.9574645045
 20
376.7354084523
 30
0.0
 11
397.2916608891
 21
376.7354084523
 31
0.0
  0
LINE
  5
F0
330
1F
100
AcDbEntity
  8
0
  6
SLD-Durchgehend
 62
   179
420
  2171202
370
    18
100
AcDbLine
 10
397.4459234691
 20
384.7354084523
 30
0.0
 11
394.2414383309
 21
384.7354084523
 31
0.0
  0
LINE
  5
F1
330
1F
100
AcDbEntity
  8
0
  6
SLD-Durchgehend
 62
   179
420
  2171202
370
    18
100
AcDbLine
 10
394.2414383309
 20
384.7354084523
 30
0.0
 11
394.2414383309
 21
383.3235719427
 31
0.0
  0
LINE
  5
F2
330
1F
100
AcDbEntity
  8
0
  6
SLD-Durchgehend
 62
   179
420
  2171202
370
    18
100
AcDbLine
 10
450.7392594653
 20
383.3235719427
 30
0.0
 11
450.7392594653
 21
384.7354084523
 31
0.0
  0
LINE
  5
F3
330
1F
100
AcDbEntity
  8
0
  6
SLD-Durchgehend
 62
   179
420
  2171202
370
    18
100
AcDbLine
 10
450.7392594653
 20
384.7354084523
 30
0.0
 11
447.5347743272
 21
384.7354084523
 31
0.0
  0
LINE
  5
F4
330
1F
100
AcDbEntity
  8
0
  6
SLD-Durchgehend
 62
   179
420
  2171202
370
    18
100
AcDbLine
 10
447.6890369072
 20
376.7354084523
 30
0.0
 11
448.0232332918
 21
376.7354084523
 31
0.0
  0
LINE
  5
F5
330
1F
100
AcDbEntity
  8
0
  6
SLD-Durchgehend
 62
   179
420
  2171202
370
    18
100
AcDbLine
 10
252.9184008923
 20
346.9205088751
 30
0.0
 11
249.7184008923
 21
346.9205088751
 31
0.0
  0
LINE
  5
F6
330
1F
100
AcDbEntity
  8
0
  6
SLD-Durchgehend
 62
   179
420
  2171202
370
    18
100
AcDbLine
 10
249.7184008923
 20
346.9205088751
 30
0.0
 11
249.7184008923
 21
345.9205088751
 31
0.0
  0
LINE
  5
F7
330
1F
100
AcDbEntity
  8
0
  6
SLD-Durchgehend
 62
   179
420
  2171202
370
    18
100
AcDbLine
 10
249.7184008923
 20
345.9205088751
 30
0.0
 11
252.9184008923
 21
345.9205088751
 31
0.0
  0
LINE
  5
F8
330
1F
100
AcDbEntity
  8
0
  6
SLD-Durchgehend
 62
   179
420
  2171202
370
    18
100
AcDbLine
 10
252.9184008923
 20
345.9205088751
 30
0.0
 11
252.9184008923
 21
346.9205088751
 31
0.0
  0
LINE
  5
F9
330
1F
100
AcDbEntity
  8
0
  6
SLD-Durchgehend
 62
   179
420
  2171202
370
    18
100
AcDbLine
 10
311.4184008923
 20
345.9205088751
 30
0.0
 11
314.6184008923
 21
345.9205088751
 31
0.0
  0
LINE
  5
FA
330
1F
100
AcDbEntity
  8
0
  6
SLD-Durchgehend
 62
   179
420
  2171202
370
    18
100
AcDbLine
 10
314.6184008923
 20
345.9205088751
 30
0.0
 11
314.6184008923
 21
346.9205088751
 31
0.0
  0
LINE
  5
FB
330
1F
100
AcDbEntity
  8
0
  6
SLD-Durchgehend
 62
   179
420
  2171202
370
    18
100
AcDbLine
 10
314.6184008923
 20
346.9205088751
 30
0.0
 11
311.4184008923
 21
346.9205088751
 31
0.0
  0
LINE
  5
FC
330
1F
100
AcDbEntity
  8
0
  6
SLD-Durchgehend
 62
   179
420
  2171202
370
    18
100
AcDbLine
 10
311.4184008923
 20
346.9205088751
 30
0.0
 11
311.4184008923
 21
345.9205088751
 31
0.0
  0
LINE
  5
FD
330
1F
100
AcDbEntity
  8
0
  6
SLD-Durchgehend
 62
   179
420
  2171202
370
    18
100
AcDbLine
 10
480.2946771928
 20
399.7770973026
 30
0.0
 11
480.7948928702
 21
399.7770973026
 31
0.0
  0
LINE
  5
FE
330
1F
100
AcDbEntity
  8
0
  6
SLD-Durchgehend
 62
   179
420
  2171202
370
    18
100
AcDbLine
 10
480.7948928702
 20
399.7770973026
 30
0.0
 11
480.7948928702
 21
407.7770973026
 31
0.0
  0
LINE
  5
FF
330
1F
100
AcDbEntity
  8
0
  6
SLD-Durchgehend
 62
   179
420
  2171202
370
    18
100
AcDbLine
 10
480.7948928702
 20
407.7770973026
 30
0.0
 11
479.1699102555
 21
407.7770973026
 31
0.0
  0
LINE
  5
100
330
1F
100
AcDbEntity
  8
0
  6
SLD-Durchgehend
 62
   179
420
  2171202
370
    18
100
AcDbLine
 10
512.7806642074
 20
399.7770973026
 30
0.0
 11
513.2808798847
 21
399.7770973026
 31
0.0
  0
LINE
  5
101
330
1F
100
AcDbEntity
  8
0
  6
SLD-Durchgehend
 62
   179
420
  2171202
370
    18
100
AcDbLine
 10
514.4056468221
 20
407.7770973026
 30
0.0
 11
512.7806642074
 21
407.7770973026
 31
0.0
  0
LINE
  5
102
330
1F
100
AcDbEntity
  8
0
  6
SLD-Durchgehend
 62
   179
420
  2171202
370
    18
100
AcDbLine
 10
512.7806642074
 20
407.7770973026
 30
0.0
 11
512.7806642074
 21
399.7770973026
 31
0.0
  0
LINE
  5
103
330
1F
100
AcDbEntity
  8
0
  6
SLD-Durchgehend
 62
   179
420
  2171202
370
    18
100
AcDbLine
 10
476.2933307051
 20
374.7354084523
 30
0.0
 11
476.7934695482
 21
374.7354084523
 31
0.0
  0
LINE
  5
104
330
1F
100
AcDbEntity
  8
0
  6
SLD-Durchgehend
 62
   179
420
  2171202
370
    18
100
AcDbLine
 10
476.7934695482
 20
374.7354084523
 30
0.0
 11
476.7934695482
 21
384.7354084523
 31
0.0
  0
LINE
  5
105
330
1F
100
AcDbEntity
  8
0
  6
SLD-Durchgehend
 62
   179
420
  2171202
370
    18
100
AcDbLine
 10
476.7934695482
 20
384.7354084523
 30
0.0
 11
474.8875660544
 21
384.7354084523
 31
0.0
  0
LINE
  5
106
330
1F
100
AcDbEntity
  8
0
  6
SLD-Durchgehend
 62
   179
420
  2171202
370
    18
100
AcDbLine
 10
516.7820875293
 20
374.7354084523
 30
0.0
 11
517.2822263725
 21
374.7354084523
 31
0.0
  0
LINE
  5
107
330
1F
100
AcDbEntity
  8
0
  6
SLD-Durchgehend
 62
   179
420
  2171202
370
    18
100
AcDbLine
 10
518.6879910231
 20
384.7354084523
 30
0.0
 11
516.7820875293
 21
384.7354084523
 31
0.0
  0
LINE
  5
108
330
1F
100
AcDbEntity
  8
0
  6
SLD-Durchgehend
 62
   179
420
  2171202
370
    18
100
AcDbLine
 10
516.7820875293
 20
384.7354084523
 30
0.0
 11
516.7820875293
 21
374.7354084523
 31
0.0
  0
LINE
  5
109
330
1F
100
AcDbEntity
  8
0
  6
SLD-Durchgehend
 62
   179
420
  2171202
370
    18
100
AcDbLine
 10
471.7923311131
 20
336.9205088751
 30
0.0
 11
471.7923311131
 21
346.9205088751
 31
0.0
  0
LINE
  5
10A
330
1F
100
AcDbEntity
  8
0
  6
SLD-Durchgehend
 62
   179
420
  2171202
370
    18
100
AcDbLine
 10
471.7923311131
 20
346.9205088751
 30
0.0
 11
468.7985642097
 21
346.9205088751
 31
0.0
  0
LINE
  5
10B
330
1F
100
AcDbEntity
  8
0
  6
SLD-Durchgehend
 62
   179
420
  2171202
370
    18
100
AcDbLine
 10
471.2922418312
 20
336.9205088751
 30
0.0
 11
471.7923311131
 21
336.9205088751
 31
0.0
  0
LINE
  5
10C
330
1F
100
AcDbEntity
  8
0
  6
SLD-Durchgehend
 62
   179
420
  2171202
370
    18
100
AcDbLine
 10
521.7832259644
 20
346.9205088751
 30
0.0
 11
521.7832259644
 21
336.9205088751
 31
0.0
  0
LINE
  5
10D
330
1F
100
AcDbEntity
  8
0
  6
SLD-Durchgehend
 62
   179
420
  2171202
370
    18
100
AcDbLine
 10
521.7832259644
 20
336.9205088751
 30
0.0
 11
522.2833152464
 21
336.9205088751
 31
0.0
  0
LINE
  5
10E
330
1F
100
AcDbEntity
  8
0
  6
SLD-Durchgehend
 62
   179
420
  2171202
370
    18
100
AcDbLine
 10
524.7769928678
 20
346.9205088751
 30
0.0
 11
521.7832259644
 21
346.9205088751
 31
0.0
  0
LINE
  5
10F
330
1F
100
AcDbEntity
  8
0
  6
SLD-Durchgehend
 62
   179
420
  2171202
370
    18
100
AcDbLine
 10
442.6661339655
 20
402.0770973026
 30
0.0
 11
443.1115461161
 21
402.0770973026
 31
0.0
  0
LINE
  5
110
330
1F
100
AcDbEntity
  8
0
  6
SLD-Durchgehend
 62
   179
420
  2171202
370
    18
100
AcDbLine
 10
444.6389594242
 20
407.7770973026
 30
0.0
 11
441.1386986437
 21
407.7770973026
 31
0.0
  0
LINE
  5
111
330
1F
100
AcDbEntity
  8
0
  6
SLD-Durchgehend
 62
   179
420
  2171202
370
    18
100
AcDbLine
 10
403.8419991526
 20
407.7770973026
 30
0.0
 11
400.3417383721
 21
407.7770973026
 31
0.0
  0
LINE
  5
112
330
1F
100
AcDbEntity
  8
0
  6
SLD-Durchgehend
 62
   179
420
  2171202
370
    18
100
AcDbLine
 10
401.8691516802
 20
402.0770973026
 30
0.0
 11
402.3145638308
 21
402.0770973026
 31
0.0
  0
LINE
  5
113
330
1F
100
AcDbEntity
  8
0
  6
SLD-Durchgehend
 62
   179
420
  2171202
370
    18
100
AcDbLine
 10
454.2393795642
 20
345.4863351238
 30
0.0
 11
454.2393795642
 21
346.9205088751
 31
0.0
  0
LINE
  5
114
330
1F
100
AcDbEntity
  8
0
  6
SLD-Durchgehend
 62
   179
420
  2171202
370
    18
100
AcDbLine
 10
454.2393795642
 20
346.9205088751
 30
0.0
 11
450.8351399467
 21
346.9205088751
 31
0.0
  0
LINE
  5
115
330
1F
100
AcDbEntity
  8
0
  6
SLD-Durchgehend
 62
   179
420
  2171202
370
    18
100
AcDbLine
 10
451.7380760044
 20
338.4205088751
 30
0.0
 11
451.9799974591
 21
338.4205088751
 31
0.0
  0
LINE
  5
116
330
1F
100
AcDbEntity
  8
0
  6
SLD-Durchgehend
 62
   179
420
  2171202
370
    18
100
AcDbLine
 10
393.0007003372
 20
338.4205088751
 30
0.0
 11
393.2426217919
 21
338.4205088751
 31
0.0
  0
LINE
  5
117
330
1F
100
AcDbEntity
  8
0
  6
SLD-Durchgehend
 62
   179
420
  2171202
370
    18
100
AcDbLine
 10
394.1455578496
 20
346.9205088751
 30
0.0
 11
390.7413182321
 21
346.9205088751
 31
0.0
  0
LINE
  5
118
330
1F
100
AcDbEntity
  8
0
  6
SLD-Durchgehend
 62
   179
420
  2171202
370
    18
100
AcDbLine
 10
390.7413182321
 20
346.9205088751
 30
0.0
 11
390.7413182321
 21
345.4863351238
 31
0.0
  0
LINE
  5
119
330
1F
100
AcDbEntity
  8
0
  6
SLD-Durchgehend
 62
   250
420
  1644836
370
    18
100
AcDbLine
 10
390.757385985
 20
345.3569256012
 30
0.0
 11
392.516693826
 21
338.7910993524
 31
0.0
  0
LINE
  5
11A
330
1F
100
AcDbEntity
  8
0
  6
SLD-Durchgehend
 62
   250
420
  1644836
370
    18
100
AcDbLine
 10
452.4640039703
 20
338.7910993525
 30
0.0
 11
454.2233118113
 21
345.3569256013
 31
0.0
  0
LINE
  5
11B
330
1F
100
AcDbEntity
  8
0
  6
SLD-Durchgehend
 62
   250
420
  1644836
370
    18
100
AcDbLine
 10
390.7403488982
 20
346.9205088751
 30
0.0
 11
390.7403488982
 21
345.4863351239
 31
0.0
  0
LINE
  5
11C
330
1F
100
AcDbEntity
  8
0
  6
SLD-Durchgehend
 62
   250
420
  1644836
370
    18
100
AcDbLine
 10
454.2403488982
 20
345.4863351239
 30
0.0
 11
454.2403488982
 21
346.9205088751
 31
0.0
  0
LINE
  5
11D
330
1F
100
AcDbEntity
  8
0
  6
SLD-Durchgehend
 62
   250
420
  1644836
370
    18
100
AcDbLine
 10
400.3403488982
 20
407.7770973026
 30
0.0
 11
401.867659295
 21
402.0770973026
 31
0.0
  0
LINE
  5
11E
330
1F
100
AcDbEntity
  8
0
  6
SLD-Durchgehend
 62
   250
420
  1644836
370
    18
100
AcDbLine
 10
443.1130385012
 20
402.0770973026
 30
0.0
 11
444.6403488982
 21
407.7770973026
 31
0.0
  0
LINE
  5
11F
330
1F
100
AcDbEntity
  8
0
  6
SLD-Durchgehend
 62
   250
420
  1644836
370
    18
100
AcDbLine
 10
468.7944985104
 20
346.9205088751
 30
0.0
 11
471.2877785388
 21
336.9205088751
 31
0.0
  0
LINE
  5
120
330
1F
100
AcDbEntity
  8
0
  6
SLD-Durchgehend
 62
   250
420
  1644836
370
    18
100
AcDbLine
 10
522.2877785388
 20
336.9205088751
 30
0.0
 11
524.7810585672
 21
346.9205088751
 31
0.0
  0
LINE
  5
121
330
1F
100
AcDbEntity
  8
0
  6
SLD-Durchgehend
 62
   250
420
  1644836
370
    18
100
AcDbLine
 10
474.8823701918
 20
384.7354084523
 30
0.0
 11
476.2877785388
 21
374.7354084523
 31
0.0
  0
LINE
  5
122
330
1F
100
AcDbEntity
  8
0
  6
SLD-Durchgehend
 62
   250
420
  1644836
370
    18
100
AcDbLine
 10
517.2877785388
 20
374.7354084523
 30
0.0
 11
518.6931868858
 21
384.7354084523
 31
0.0
  0
LINE
  5
123
330
1F
100
AcDbEntity
  8
0
  6
SLD-Durchgehend
 62
   250
420
  1644836
370
    18
100
AcDbLine
 10
479.1634518612
 20
407.7770973026
 30
0.0
 11
480.2877785388
 21
399.7770973026
 31
0.0
  0
LINE
  5
124
330
1F
100
AcDbEntity
  8
0
  6
SLD-Durchgehend
 62
   250
420
  1644836
370
    18
100
AcDbLine
 10
513.2877785388
 20
399.7770973026
 30
0.0
 11
514.4121052164
 21
407.7770973026
 31
0.0
  0
LINE
  5
125
330
1F
100
AcDbEntity
  8
0
  6
SLD-Durchgehend
 62
   250
420
  1644836
370
    18
100
AcDbLine
 10
394.2403488982
 20
384.7354084523
 30
0.0
 11
394.2403488982
 21
383.3235719427
 31
0.0
  0
LINE
  5
126
330
1F
100
AcDbEntity
  8
0
  6
SLD-Durchgehend
 62
   250
420
  1644836
370
    18
100
AcDbLine
 10
450.7403488982
 20
383.3235719427
 30
0.0
 11
450.7403488982
 21
384.7354084523
 31
0.0
  0
LINE
  5
127
330
1F
100
AcDbEntity
  8
0
  6
SLD-Durchgehend
 62
   250
420
  1644836
370
    18
100
AcDbLine
 10
394.2705025878
 20
383.1525618711
 30
0.0
 11
396.4864128796
 21
377.0643983807
 31
0.0
  0
LINE
  5
128
330
1F
100
AcDbEntity
  8
0
  6
SLD-Durchgehend
 62
   250
420
  1644836
370
    18
100
AcDbLine
 10
448.4942849168
 20
377.0643983807
 30
0.0
 11
450.7101952086
 21
383.1525618711
 31
0.0
  0
LINE
  5
129
330
1F
100
AcDbEntity
  8
0
  6
SLD-Durchgehend
 62
   250
420
  1644836
370
    18
100
AcDbLine
 10
377.2471484682
 20
344.920508875
 30
0.0
 11
377.2471484682
 21
346.920508875
 31
0.0
  0
LINE
  5
12A
330
1F
100
AcDbEntity
  8
0
  6
SLD-Durchgehend
 62
   250
420
  1644836
370
    18
100
AcDbLine
 10
332.2471484682
 20
346.920508875
 30
0.0
 11
332.2471484682
 21
344.920508875
 31
0.0
  0
LINE
  5
12B
330
1F
100
AcDbEntity
  8
0
  6
SLD-Durchgehend
 62
   250
420
  1644836
370
    18
100
AcDbLine
 10
340.7471484682
 20
407.7770973026
 30
0.0
 11
340.7471484682
 21
405.7770973026
 31
0.0
  0
LINE
  5
12C
330
1F
100
AcDbEntity
  8
0
  6
SLD-Durchgehend
 62
   250
420
  1644836
370
    18
100
AcDbLine
 10
368.7471484682
 20
405.7770973026
 30
0.0
 11
368.7471484682
 21
407.7770973026
 31
0.0
  0
LINE
  5
12D
330
1F
100
AcDbEntity
  8
0
  6
SLD-Durchgehend
 62
   250
420
  1644836
370
    18
100
AcDbLine
 10
374.2471484682
 20
382.7354084522
 30
0.0
 11
374.2471484682
 21
384.7354084522
 31
0.0
  0
LINE
  5
12E
330
1F
100
AcDbEntity
  8
0
  6
SLD-Durchgehend
 62
   250
420
  1644836
370
    18
100
AcDbLine
 10
335.2471484682
 20
384.7354084522
 30
0.0
 11
335.2471484682
 21
382.7354084522
 31
0.0
  0
LINE
  5
12F
330
1F
100
AcDbEntity
  8
0
  6
SLD-Durchgehend
 62
   250
420
  1644836
370
    18
100
AcDbLine
 10
451.9799974591
 20
338.4205088751
 30
0.0
 11
451.7380760044
 21
338.4205088751
 31
0.0
  0
LINE
  5
130
330
1F
100
AcDbEntity
  8
0
  6
SLD-Durchgehend
 62
   250
420
  1644836
370
    18
100
AcDbLine
 10
451.7380760044
 20
338.4205088751
 30
0.0
 11
450.8409571984
 21
343.5081336234
 31
0.0
  0
LINE
  5
131
330
1F
100
AcDbEntity
  8
0
  6
SLD-Durchgehend
 62
   250
420
  1644836
370
    18
100
AcDbLine
 10
450.8409571984
 20
343.5081336234
 30
0.0
 11
450.3427168752
 21
346.3336847862
 31
0.0
  0
LINE
  5
132
330
1F
100
AcDbEntity
  8
0
  6
SLD-Durchgehend
 62
   250
420
  1644836
370
    18
100
AcDbLine
 10
450.8351399467
 20
346.9205088751
 30
0.0
 11
454.2393795642
 21
346.9205088751
 31
0.0
  0
LINE
  5
133
330
1F
100
AcDbEntity
  8
0
  6
SLD-Durchgehend
 62
   250
420
  1644836
370
    18
100
AcDbLine
 10
454.2393795642
 20
346.9205088751
 30
0.0
 11
454.2393795642
 21
345.4863351238
 31
0.0
  0
LINE
  5
134
330
1F
100
AcDbEntity
  8
0
  6
SLD-Durchgehend
 62
   250
420
  1644836
370
    18
100
AcDbLine
 10
454.2223419569
 20
345.3569256013
 30
0.0
 11
452.8701883578
 21
340.3107807642
 31
0.0
  0
LINE
  5
135
330
1F
100
AcDbEntity
  8
0
  6
SLD-Durchgehend
 62
   250
420
  1644836
370
    18
100
AcDbLine
 10
452.8701883578
 20
340.3107807642
 30
0.0
 11
452.4629771883
 21
338.7910993525
 31
0.0
  0
LINE
  5
136
330
1F
100
AcDbEntity
  8
0
  6
SLD-Durchgehend
 62
   250
420
  1644836
370
    18
100
AcDbLine
 10
394.1455578496
 20
346.9205088751
 30
0.0
 11
450.8351399467
 21
346.9205088751
 31
0.0
  0
LINE
  5
137
330
1F
100
AcDbEntity
  8
0
  6
SLD-Durchgehend
 62
   250
420
  1644836
370
    18
100
AcDbLine
 10
394.6379809211
 20
346.3336847862
 30
0.0
 11
394.139740598
 21
343.5081336234
 31
0.0
  0
LINE
  5
138
330
1F
100
AcDbEntity
  8
0
  6
SLD-Durchgehend
 62
   250
420
  1644836
370
    18
100
AcDbLine
 10
394.139740598
 20
343.5081336234
 30
0.0
 11
393.2426217919
 21
338.4205088751
 31
0.0
  0
LINE
  5
139
330
1F
100
AcDbEntity
  8
0
  6
SLD-Durchgehend
 62
   250
420
  1644836
370
    18
100
AcDbLine
 10
451.7380760044
 20
338.4205088751
 30
0.0
 11
393.2426217919
 21
338.4205088751
 31
0.0
  0
LINE
  5
13A
330
1F
100
AcDbEntity
  8
0
  6
SLD-Durchgehend
 62
   250
420
  1644836
370
    18
100
AcDbLine
 10
392.517720608
 20
338.7910993525
 30
0.0
 11
392.1105094386
 21
340.3107807642
 31
0.0
  0
LINE
  5
13B
330
1F
100
AcDbEntity
  8
0
  6
SLD-Durchgehend
 62
   250
420
  1644836
370
    18
100
AcDbLine
 10
392.1105094386
 20
340.3107807642
 30
0.0
 11
390.7583558394
 21
345.3569256013
 31
0.0
  0
LINE
  5
13C
330
1F
100
AcDbEntity
  8
0
  6
SLD-Durchgehend
 62
   250
420
  1644836
370
    18
100
AcDbLine
 10
390.7413182321
 20
345.4863351238
 30
0.0
 11
390.7413182321
 21
346.9205088751
 31
0.0
  0
LINE
  5
13D
330
1F
100
AcDbEntity
  8
0
  6
SLD-Durchgehend
 62
   250
420
  1644836
370
    18
100
AcDbLine
 10
454.2393795642
 20
346.9205088751
 30
0.0
 11
454.2403488982
 21
346.9205088751
 31
0.0
  0
LINE
  5
13E
330
1F
100
AcDbEntity
  8
0
  6
SLD-Durchgehend
 62
   250
420
  1644836
370
    18
100
AcDbLine
 10
390.7403488982
 20
346.9205088751
 30
0.0
 11
390.7413182321
 21
346.9205088751
 31
0.0
  0
LINE
  5
13F
330
1F
100
AcDbEntity
  8
0
  6
SLD-Durchgehend
 62
   250
420
  1644836
370
    18
100
AcDbLine
 10
393.2426217919
 20
338.4205088751
 30
0.0
 11
393.0007003372
 21
338.4205088751
 31
0.0
  0
LINE
  5
140
330
1F
100
AcDbEntity
  8
0
  6
SLD-Durchgehend
 62
   250
420
  1644836
370
    18
100
AcDbLine
 10
390.7413182321
 20
346.9205088751
 30
0.0
 11
394.1455578496
 21
346.9205088751
 31
0.0
  0
LINE
  5
141
330
1F
100
AcDbEntity
  8
0
  6
SLD-Durchgehend
 62
   250
420
  1644836
370
    18
100
AcDbLine
 10
441.1386986437
 20
407.7770973026
 30
0.0
 11
444.6389594242
 21
407.7770973026
 31
0.0
  0
LINE
  5
142
330
1F
100
AcDbEntity
  8
0
  6
SLD-Durchgehend
 62
   250
420
  1644836
370
    18
100
AcDbLine
 10
444.6389594242
 20
407.7770973026
 30
0.0
 11
443.5555108008
 21
403.7338786858
 31
0.0
  0
LINE
  5
143
330
1F
100
AcDbEntity
  8
0
  6
SLD-Durchgehend
 62
   250
420
  1644836
370
    18
100
AcDbLine
 10
443.5555108008
 20
403.7338786858
 30
0.0
 11
443.1115461161
 21
402.0770973026
 31
0.0
  0
LINE
  5
144
330
1F
100
AcDbEntity
  8
0
  6
SLD-Durchgehend
 62
   250
420
  1644836
370
    18
100
AcDbLine
 10
443.1115461161
 20
402.0770973026
 30
0.0
 11
442.6661339655
 21
402.0770973026
 31
0.0
  0
LINE
  5
145
330
1F
100
AcDbEntity
  8
0
  6
SLD-Durchgehend
 62
   250
420
  1644836
370
    18
100
AcDbLine
 10
442.6661339655
 20
402.0770973026
 30
0.0
 11
441.61571659
 21
405.9969956894
 31
0.0
  0
LINE
  5
146
330
1F
100
AcDbEntity
  8
0
  6
SLD-Durchgehend
 62
   250
420
  1644836
370
    18
100
AcDbLine
 10
441.61571659
 20
405.9969956894
 30
0.0
 11
441.1386986437
 21
407.7770973026
 31
0.0
  0
LINE
  5
147
330
1F
100
AcDbEntity
  8
0
  6
SLD-Durchgehend
 62
   250
420
  1644836
370
    18
100
AcDbLine
 10
444.6389594242
 20
407.7770973026
 30
0.0
 11
444.6403488982
 21
407.7770973026
 31
0.0
  0
LINE
  5
148
330
1F
100
AcDbEntity
  8
0
  6
SLD-Durchgehend
 62
   250
420
  1644836
370
    18
100
AcDbLine
 10
400.3403488982
 20
407.7770973026
 30
0.0
 11
400.3417383721
 21
407.7770973026
 31
0.0
  0
LINE
  5
149
330
1F
100
AcDbEntity
  8
0
  6
SLD-Durchgehend
 62
   250
420
  1644836
370
    18
100
AcDbLine
 10
401.8691516802
 20
402.0770973026
 30
0.0
 11
401.4251869956
 21
403.7338786858
 31
0.0
  0
LINE
  5
14A
330
1F
100
AcDbEntity
  8
0
  6
SLD-Durchgehend
 62
   250
420
  1644836
370
    18
100
AcDbLine
 10
401.4251869956
 20
403.7338786858
 30
0.0
 11
400.3417383721
 21
407.7770973026
 31
0.0
  0
LINE
  5
14B
330
1F
100
AcDbEntity
  8
0
  6
SLD-Durchgehend
 62
   250
420
  1644836
370
    18
100
AcDbLine
 10
443.1115461161
 20
402.0770973026
 30
0.0
 11
443.1130385012
 21
402.0770973026
 31
0.0
  0
LINE
  5
14C
330
1F
100
AcDbEntity
  8
0
  6
SLD-Durchgehend
 62
   250
420
  1644836
370
    18
100
AcDbLine
 10
401.867659295
 20
402.0770973026
 30
0.0
 11
401.8691516802
 21
402.0770973026
 31
0.0
  0
LINE
  5
14D
330
1F
100
AcDbEntity
  8
0
  6
SLD-Durchgehend
 62
   250
420
  1644836
370
    18
100
AcDbLine
 10
403.8419991526
 20
407.7770973026
 30
0.0
 11
403.3649812064
 21
405.9969956894
 31
0.0
  0
LINE
  5
14E
330
1F
100
AcDbEntity
  8
0
  6
SLD-Durchgehend
 62
   250
420
  1644836
370
    18
100
AcDbLine
 10
403.3649812064
 20
405.9969956894
 30
0.0
 11
402.3145638308
 21
402.0770973026
 31
0.0
  0
LINE
  5
14F
330
1F
100
AcDbEntity
  8
0
  6
SLD-Durchgehend
 62
   250
420
  1644836
370
    18
100
AcDbLine
 10
441.1386986437
 20
407.7770973026
 30
0.0
 11
403.8419991526
 21
407.7770973026
 31
0.0
  0
LINE
  5
150
330
1F
100
AcDbEntity
  8
0
  6
SLD-Durchgehend
 62
   250
420
  1644836
370
    18
100
AcDbLine
 10
442.6661339655
 20
402.0770973026
 30
0.0
 11
402.3145638308
 21
402.0770973026
 31
0.0
  0
LINE
  5
151
330
1F
100
AcDbEntity
  8
0
  6
SLD-Durchgehend
 62
   250
420
  1644836
370
    18
100
AcDbLine
 10
400.3417383721
 20
407.7770973026
 30
0.0
 11
403.8419991526
 21
407.7770973026
 31
0.0
  0
LINE
  5
152
330
1F
100
AcDbEntity
  8
0
  6
SLD-Durchgehend
 62
   250
420
  1644836
370
    18
100
AcDbLine
 10
402.3145638308
 20
402.0770973026
 30
0.0
 11
401.8691516802
 21
402.0770973026
 31
0.0
  0
LINE
  5
153
330
1F
100
AcDbEntity
  8
0
  6
SLD-Durchgehend
 62
   250
420
  1644836
370
    18
100
AcDbLine
 10
471.7923311131
 20
336.9205088751
 30
0.0
 11
471.2922418312
 21
336.9205088751
 31
0.0
  0
LINE
  5
154
330
1F
100
AcDbEntity
  8
0
  6
SLD-Durchgehend
 62
   250
420
  1644836
370
    18
100
AcDbLine
 10
471.2922418312
 20
336.9205088751
 30
0.0
 11
470.381900574
 21
340.5710711892
 31
0.0
  0
LINE
  5
155
330
1F
100
AcDbEntity
  8
0
  6
SLD-Durchgehend
 62
   250
420
  1644836
370
    18
100
AcDbLine
 10
470.381900574
 20
340.5710711892
 30
0.0
 11
468.7985642097
 21
346.9205088751
 31
0.0
  0
LINE
  5
156
330
1F
100
AcDbEntity
  8
0
  6
SLD-Durchgehend
 62
   250
420
  1644836
370
    18
100
AcDbLine
 10
468.7985642097
 20
346.9205088751
 30
0.0
 11
471.7923311131
 21
346.9205088751
 31
0.0
  0
LINE
  5
157
330
1F
100
AcDbEntity
  8
0
  6
SLD-Durchgehend
 62
   250
420
  1644836
370
    18
100
AcDbLine
 10
471.7923311131
 20
346.9205088751
 30
0.0
 11
471.7923311131
 21
336.9205088751
 31
0.0
  0
LINE
  5
158
330
1F
100
AcDbEntity
  8
0
  6
SLD-Durchgehend
 62
   250
420
  1644836
370
    18
100
AcDbLine
 10
524.7769928678
 20
346.9205088751
 30
0.0
 11
523.1936565036
 21
340.5710711892
 31
0.0
  0
LINE
  5
159
330
1F
100
AcDbEntity
  8
0
  6
SLD-Durchgehend
 62
   250
420
  1644836
370
    18
100
AcDbLine
 10
523.1936565036
 20
340.5710711892
 30
0.0
 11
522.2833152464
 21
336.9205088751
 31
0.0
  0
LINE
  5
15A
330
1F
100
AcDbEntity
  8
0
  6
SLD-Durchgehend
 62
   250
420
  1644836
370
    18
100
AcDbLine
 10
471.2922418312
 20
336.9205088751
 30
0.0
 11
471.2877785388
 21
336.9205088751
 31
0.0
  0
LINE
  5
15B
330
1F
100
AcDbEntity
  8
0
  6
SLD-Durchgehend
 62
   250
420
  1644836
370
    18
100
AcDbLine
 10
522.2877785388
 20
336.9205088751
 30
0.0
 11
522.2833152464
 21
336.9205088751
 31
0.0
  0
LINE
  5
15C
330
1F
100
AcDbEntity
  8
0
  6
SLD-Durchgehend
 62
   250
420
  1644836
370
    18
100
AcDbLine
 10
468.7985642097
 20
346.9205088751
 30
0.0
 11
468.7944985104
 21
346.9205088751
 31
0.0
  0
LINE
  5
15D
330
1F
100
AcDbEntity
  8
0
  6
SLD-Durchgehend
 62
   250
420
  1644836
370
    18
100
AcDbLine
 10
524.7810585672
 20
346.9205088751
 30
0.0
 11
524.7769928678
 21
346.9205088751
 31
0.0
  0
LINE
  5
15E
330
1F
100
AcDbEntity
  8
0
  6
SLD-Durchgehend
 62
   250
420
  1644836
370
    18
100
AcDbLine
 10
521.7832259644
 20
336.9205088751
 30
0.0
 11
521.7832259644
 21
346.9205088751
 31
0.0
  0
LINE
  5
15F
330
1F
100
AcDbEntity
  8
0
  6
SLD-Durchgehend
 62
   250
420
  1644836
370
    18
100
AcDbLine
 10
471.7923311131
 20
336.9205088751
 30
0.0
 11
521.7832259644
 21
336.9205088751
 31
0.0
  0
LINE
  5
160
330
1F
100
AcDbEntity
  8
0
  6
SLD-Durchgehend
 62
   250
420
  1644836
370
    18
100
AcDbLine
 10
471.7923311131
 20
346.9205088751
 30
0.0
 11
521.7832259644
 21
346.9205088751
 31
0.0
  0
LINE
  5
161
330
1F
100
AcDbEntity
  8
0
  6
SLD-Durchgehend
 62
   250
420
  1644836
370
    18
100
AcDbLine
 10
522.2833152464
 20
336.9205088751
 30
0.0
 11
521.7832259644
 21
336.9205088751
 31
0.0
  0
LINE
  5
162
330
1F
100
AcDbEntity
  8
0
  6
SLD-Durchgehend
 62
   250
420
  1644836
370
    18
100
AcDbLine
 10
521.7832259644
 20
346.9205088751
 30
0.0
 11
524.7769928678
 21
346.9205088751
 31
0.0
  0
LINE
  5
163
330
1F
100
AcDbEntity
  8
0
  6
SLD-Durchgehend
 62
   250
420
  1644836
370
    18
100
AcDbLine
 10
474.8875660544
 20
384.7354084523
 30
0.0
 11
475.68286072
 21
379.0779856746
 31
0.0
  0
LINE
  5
164
330
1F
100
AcDbEntity
  8
0
  6
SLD-Durchgehend
 62
   250
420
  1644836
370
    18
100
AcDbLine
 10
475.68286072
 20
379.0779856746
 30
0.0
 11
476.2933307051
 21
374.7354084523
 31
0.0
  0
LINE
  5
165
330
1F
100
AcDbEntity
  8
0
  6
SLD-Durchgehend
 62
   250
420
  1644836
370
    18
100
AcDbLine
 10
474.8875660544
 20
384.7354084523
 30
0.0
 11
476.7934695482
 21
384.7354084523
 31
0.0
  0
LINE
  5
166
330
1F
100
AcDbEntity
  8
0
  6
SLD-Durchgehend
 62
   250
420
  1644836
370
    18
100
AcDbLine
 10
476.7934695482
 20
384.7354084523
 30
0.0
 11
476.7934695482
 21
374.7354084523
 31
0.0
  0
LINE
  5
167
330
1F
100
AcDbEntity
  8
0
  6
SLD-Durchgehend
 62
   250
420
  1644836
370
    18
100
AcDbLine
 10
476.7934695482
 20
374.7354084523
 30
0.0
 11
476.2933307051
 21
374.7354084523
 31
0.0
  0
LINE
  5
168
330
1F
100
AcDbEntity
  8
0
  6
SLD-Durchgehend
 62
   250
420
  1644836
370
    18
100
AcDbLine
 10
517.2822263725
 20
374.7354084523
 30
0.0
 11
517.2877785388
 21
374.7354084523
 31
0.0
  0
LINE
  5
169
330
1F
100
AcDbEntity
  8
0
  6
SLD-Durchgehend
 62
   250
420
  1644836
370
    18
100
AcDbLine
 10
476.2877785388
 20
374.7354084523
 30
0.0
 11
476.2933307051
 21
374.7354084523
 31
0.0
  0
LINE
  5
16A
330
1F
100
AcDbEntity
  8
0
  6
SLD-Durchgehend
 62
   250
420
  1644836
370
    18
100
AcDbLine
 10
517.2822263725
 20
374.7354084523
 30
0.0
 11
517.8926963576
 21
379.0779856746
 31
0.0
  0
LINE
  5
16B
330
1F
100
AcDbEntity
  8
0
  6
SLD-Durchgehend
 62
   250
420
  1644836
370
    18
100
AcDbLine
 10
517.8926963576
 20
379.0779856746
 30
0.0
 11
518.6879910231
 21
384.7354084523
 31
0.0
  0
LINE
  5
16C
330
1F
100
AcDbEntity
  8
0
  6
SLD-Durchgehend
 62
   250
420
  1644836
370
    18
100
AcDbLine
 10
518.6879910231
 20
384.7354084523
 30
0.0
 11
518.6931868858
 21
384.7354084523
 31
0.0
  0
LINE
  5
16D
330
1F
100
AcDbEntity
  8
0
  6
SLD-Durchgehend
 62
   250
420
  1644836
370
    18
100
AcDbLine
 10
474.8823701918
 20
384.7354084523
 30
0.0
 11
474.8875660544
 21
384.7354084523
 31
0.0
  0
LINE
  5
16E
330
1F
100
AcDbEntity
  8
0
  6
SLD-Durchgehend
 62
   250
420
  1644836
370
    18
100
AcDbLine
 10
516.7820875293
 20
374.7354084523
 30
0.0
 11
516.7820875293
 21
384.7354084523
 31
0.0
  0
LINE
  5
16F
330
1F
100
AcDbEntity
  8
0
  6
SLD-Durchgehend
 62
   250
420
  1644836
370
    18
100
AcDbLine
 10
516.7820875293
 20
374.7354084523
 30
0.0
 11
476.7934695482
 21
374.7354084523
 31
0.0
  0
LINE
  5
170
330
1F
100
AcDbEntity
  8
0
  6
SLD-Durchgehend
 62
   250
420
  1644836
370
    18
100
AcDbLine
 10
516.7820875293
 20
384.7354084523
 30
0.0
 11
476.7934695482
 21
384.7354084523
 31
0.0
  0
LINE
  5
171
330
1F
100
AcDbEntity
  8
0
  6
SLD-Durchgehend
 62
   250
420
  1644836
370
    18
100
AcDbLine
 10
517.2822263725
 20
374.7354084523
 30
0.0
 11
516.7820875293
 21
374.7354084523
 31
0.0
  0
LINE
  5
172
330
1F
100
AcDbEntity
  8
0
  6
SLD-Durchgehend
 62
   250
420
  1644836
370
    18
100
AcDbLine
 10
516.7820875293
 20
384.7354084523
 30
0.0
 11
518.6879910231
 21
384.7354084523
 31
0.0
  0
LINE
  5
173
330
1F
100
AcDbEntity
  8
0
  6
SLD-Durchgehend
 62
   250
420
  1644836
370
    18
100
AcDbLine
 10
479.1699102555
 20
407.7770973026
 30
0.0
 11
479.8066861516
 21
403.2479239334
 31
0.0
  0
LINE
  5
174
330
1F
100
AcDbEntity
  8
0
  6
SLD-Durchgehend
 62
   250
420
  1644836
370
    18
100
AcDbLine
 10
479.8066861516
 20
403.2479239334
 30
0.0
 11
480.2946771928
 21
399.7770973026
 31
0.0
  0
LINE
  5
175
330
1F
100
AcDbEntity
  8
0
  6
SLD-Durchgehend
 62
   250
420
  1644836
370
    18
100
AcDbLine
 10
479.1699102555
 20
407.7770973026
 30
0.0
 11
480.7948928702
 21
407.7770973026
 31
0.0
  0
LINE
  5
176
330
1F
100
AcDbEntity
  8
0
  6
SLD-Durchgehend
 62
   250
420
  1644836
370
    18
100
AcDbLine
 10
480.7948928702
 20
407.7770973026
 30
0.0
 11
480.7948928702
 21
399.7770973026
 31
0.0
  0
LINE
  5
177
330
1F
100
AcDbEntity
  8
0
  6
SLD-Durchgehend
 62
   250
420
  1644836
370
    18
100
AcDbLine
 10
480.7948928702
 20
399.7770973026
 30
0.0
 11
480.2946771928
 21
399.7770973026
 31
0.0
  0
LINE
  5
178
330
1F
100
AcDbEntity
  8
0
  6
SLD-Durchgehend
 62
   250
420
  1644836
370
    18
100
AcDbLine
 10
513.2808798847
 20
399.7770973026
 30
0.0
 11
513.2877785388
 21
399.7770973026
 31
0.0
  0
LINE
  5
179
330
1F
100
AcDbEntity
  8
0
  6
SLD-Durchgehend
 62
   250
420
  1644836
370
    18
100
AcDbLine
 10
480.2877785388
 20
399.7770973026
 30
0.0
 11
480.2946771928
 21
399.7770973026
 31
0.0
  0
LINE
  5
17A
330
1F
100
AcDbEntity
  8
0
  6
SLD-Durchgehend
 62
   250
420
  1644836
370
    18
100
AcDbLine
 10
513.2808798847
 20
399.7770973026
 30
0.0
 11
513.768870926
 21
403.2479239334
 31
0.0
  0
LINE
  5
17B
330
1F
100
AcDbEntity
  8
0
  6
SLD-Durchgehend
 62
   250
420
  1644836
370
    18
100
AcDbLine
 10
513.768870926
 20
403.2479239334
 30
0.0
 11
514.4056468221
 21
407.7770973026
 31
0.0
  0
LINE
  5
17C
330
1F
100
AcDbEntity
  8
0
  6
SLD-Durchgehend
 62
   250
420
  1644836
370
    18
100
AcDbLine
 10
514.4056468221
 20
407.7770973026
 30
0.0
 11
514.4121052164
 21
407.7770973026
 31
0.0
  0
LINE
  5
17D
330
1F
100
AcDbEntity
  8
0
  6
SLD-Durchgehend
 62
   250
420
  1644836
370
    18
100
AcDbLine
 10
479.1634518612
 20
407.7770973026
 30
0.0
 11
479.1699102555
 21
407.7770973026
 31
0.0
  0
LINE
  5
17E
330
1F
100
AcDbEntity
  8
0
  6
SLD-Durchgehend
 62
   250
420
  1644836
370
    18
100
AcDbLine
 10
512.7806642074
 20
399.7770973026
 30
0.0
 11
512.7806642074
 21
407.7770973026
 31
0.0
  0
LINE
  5
17F
330
1F
100
AcDbEntity
  8
0
  6
SLD-Durchgehend
 62
   250
420
  1644836
370
    18
100
AcDbLine
 10
512.7806642074
 20
399.7770973026
 30
0.0
 11
480.7948928702
 21
399.7770973026
 31
0.0
  0
LINE
  5
180
330
1F
100
AcDbEntity
  8
0
  6
SLD-Durchgehend
 62
   250
420
  1644836
370
    18
100
AcDbLine
 10
512.7806642074
 20
407.7770973026
 30
0.0
 11
480.7948928702
 21
407.7770973026
 31
0.0
  0
LINE
  5
181
330
1F
100
AcDbEntity
  8
0
  6
SLD-Durchgehend
 62
   250
420
  1644836
370
    18
100
AcDbLine
 10
513.2808798847
 20
399.7770973026
 30
0.0
 11
512.7806642074
 21
399.7770973026
 31
0.0
  0
LINE
  5
182
330
1F
100
AcDbEntity
  8
0
  6
SLD-Durchgehend
 62
   250
420
  1644836
370
    18
100
AcDbLine
 10
512.7806642074
 20
407.7770973026
 30
0.0
 11
514.4056468221
 21
407.7770973026
 31
0.0
  0
LINE
  5
183
330
1F
100
AcDbEntity
  8
0
  6
SLD-Durchgehend
 62
   250
420
  1644836
370
    18
100
AcDbLine
 10
252.9184008923
 20
346.9205088751
 30
0.0
 11
252.9184008923
 21
345.9205088751
 31
0.0
  0
LINE
  5
184
330
1F
100
AcDbEntity
  8
0
  6
SLD-Durchgehend
 62
   250
420
  1644836
370
    18
100
AcDbLine
 10
249.7184008923
 20
345.9205088751
 30
0.0
 11
252.9184008923
 21
345.9205088751
 31
0.0
  0
LINE
  5
185
330
1F
100
AcDbEntity
  8
0
  6
SLD-Durchgehend
 62
   250
420
  1644836
370
    18
100
AcDbLine
 10
249.7184008923
 20
346.9205088751
 30
0.0
 11
249.7184008923
 21
345.9205088751
 31
0.0
  0
LINE
  5
186
330
1F
100
AcDbEntity
  8
0
  6
SLD-Durchgehend
 62
   250
420
  1644836
370
    18
100
AcDbLine
 10
249.7184008923
 20
346.9205088751
 30
0.0
 11
252.9184008923
 21
346.9205088751
 31
0.0
  0
LINE
  5
187
330
1F
100
AcDbEntity
  8
0
  6
SLD-Durchgehend
 62
   250
420
  1644836
370
    18
100
AcDbLine
 10
311.4184008923
 20
345.9205088751
 30
0.0
 11
311.4184008923
 21
346.9205088751
 31
0.0
  0
LINE
  5
188
330
1F
100
AcDbEntity
  8
0
  6
SLD-Durchgehend
 62
   250
420
  1644836
370
    18
100
AcDbLine
 10
311.4184008923
 20
345.9205088751
 30
0.0
 11
252.9184008923
 21
345.9205088751
 31
0.0
  0
LINE
  5
189
330
1F
100
AcDbEntity
  8
0
  6
SLD-Durchgehend
 62
   250
420
  1644836
370
    18
100
AcDbLine
 10
311.4184008923
 20
346.9205088751
 30
0.0
 11
252.9184008923
 21
346.9205088751
 31
0.0
  0
LINE
  5
18A
330
1F
100
AcDbEntity
  8
0
  6
SLD-Durchgehend
 62
   250
420
  1644836
370
    18
100
AcDbLine
 10
314.6184008923
 20
345.9205088751
 30
0.0
 11
314.6184008923
 21
346.9205088751
 31
0.0
  0
LINE
  5
18B
330
1F
100
AcDbEntity
  8
0
  6
SLD-Durchgehend
 62
   250
420
  1644836
370
    18
100
AcDbLine
 10
311.4184008923
 20
346.9205088751
 30
0.0
 11
314.6184008923
 21
346.9205088751
 31
0.0
  0
LINE
  5
18C
330
1F
100
AcDbEntity
  8
0
  6
SLD-Durchgehend
 62
   250
420
  1644836
370
    18
100
AcDbLine
 10
311.4184008923
 20
345.9205088751
 30
0.0
 11
314.6184008923
 21
345.9205088751
 31
0.0
  0
LINE
  5
18D
330
1F
100
AcDbEntity
  8
0
  6
SLD-Durchgehend
 62
   250
420
  1644836
370
    18
100
AcDbLine
 10
450.7392594653
 20
383.3235719427
 30
0.0
 11
450.7091046116
 21
383.152561871
 31
0.0
  0
LINE
  5
18E
330
1F
100
AcDbEntity
  8
0
  6
SLD-Durchgehend
 62
   250
420
  1644836
370
    18
100
AcDbLine
 10
394.2715931847
 20
383.152561871
 30
0.0
 11
394.2414383309
 21
383.3235719427
 31
0.0
  0
LINE
  5
18F
330
1F
100
AcDbEntity
  8
0
  6
SLD-Durchgehend
 62
   250
420
  1644836
370
    18
100
AcDbLine
 10
394.2414383309
 20
383.3235719427
 30
0.0
 11
394.2414383309
 21
384.7354084523
 31
0.0
  0
LINE
  5
190
330
1F
100
AcDbEntity
  8
0
  6
SLD-Durchgehend
 62
   250
420
  1644836
370
    18
100
AcDbLine
 10
450.7392594653
 20
384.7354084523
 30
0.0
 11
450.7392594653
 21
383.3235719427
 31
0.0
  0
LINE
  5
191
330
1F
100
AcDbEntity
  8
0
  6
SLD-Durchgehend
 62
   250
420
  1644836
370
    18
100
AcDbLine
 10
450.7392594653
 20
384.7354084523
 30
0.0
 11
450.7403488982
 21
384.7354084523
 31
0.0
  0
LINE
  5
192
330
1F
100
AcDbEntity
  8
0
  6
SLD-Durchgehend
 62
   250
420
  1644836
370
    18
100
AcDbLine
 10
394.2403488982
 20
384.7354084523
 30
0.0
 11
394.2414383309
 21
384.7354084523
 31
0.0
  0
LINE
  5
193
330
1F
100
AcDbEntity
  8
0
  6
SLD-Durchgehend
 62
   250
420
  1644836
370
    18
100
AcDbLine
 10
450.7091046116
 20
383.152561871
 30
0.0
 11
448.4931013811
 21
377.0643983806
 31
0.0
  0
LINE
  5
194
330
1F
100
AcDbEntity
  8
0
  6
SLD-Durchgehend
 62
   250
420
  1644836
370
    18
100
AcDbLine
 10
396.4875964152
 20
377.0643983806
 30
0.0
 11
394.2715931847
 21
383.152561871
 31
0.0
  0
LINE
  5
195
330
1F
100
AcDbEntity
  8
0
  6
SLD-Durchgehend
 62
   250
420
  1644836
370
    18
100
AcDbLine
 10
397.9440457536
 20
384.1918305809
 30
0.0
 11
397.2916608891
 21
376.7354084523
 31
0.0
  0
LINE
  5
196
330
1F
100
AcDbEntity
  8
0
  6
SLD-Durchgehend
 62
   250
420
  1644836
370
    18
100
AcDbLine
 10
447.6890369072
 20
376.7354084523
 30
0.0
 11
447.0366520427
 21
384.1918305809
 31
0.0
  0
LINE
  5
197
330
1F
100
AcDbEntity
  8
0
  6
SLD-Durchgehend
 62
   250
420
  1644836
370
    18
100
AcDbLine
 10
447.6890369072
 20
376.7354084523
 30
0.0
 11
397.2916608891
 21
376.7354084523
 31
0.0
  0
LINE
  5
198
330
1F
100
AcDbEntity
  8
0
  6
SLD-Durchgehend
 62
   250
420
  1644836
370
    18
100
AcDbLine
 10
397.4459234691
 20
384.7354084523
 30
0.0
 11
447.5347743272
 21
384.7354084523
 31
0.0
  0
LINE
  5
199
330
1F
100
AcDbEntity
  8
0
  6
SLD-Durchgehend
 62
   250
420
  1644836
370
    18
100
AcDbLine
 10
397.2916608891
 20
376.7354084523
 30
0.0
 11
396.9574645045
 21
376.7354084523
 31
0.0
  0
LINE
  5
19A
330
1F
100
AcDbEntity
  8
0
  6
SLD-Durchgehend
 62
   250
420
  1644836
370
    18
100
AcDbLine
 10
394.2414383309
 20
384.7354084523
 30
0.0
 11
397.4459234691
 21
384.7354084523
 31
0.0
  0
LINE
  5
19B
330
1F
100
AcDbEntity
  8
0
  6
SLD-Durchgehend
 62
   250
420
  1644836
370
    18
100
AcDbLine
 10
448.0232332918
 20
376.7354084523
 30
0.0
 11
447.6890369072
 21
376.7354084523
 31
0.0
  0
LINE
  5
19C
330
1F
100
AcDbEntity
  8
0
  6
SLD-Durchgehend
 62
   250
420
  1644836
370
    18
100
AcDbLine
 10
447.5347743272
 20
384.7354084523
 30
0.0
 11
450.7392594653
 21
384.7354084523
 31
0.0
  0
LINE
  5
19D
330
1F
100
AcDbEntity
  8
0
  6
SLD-Durchgehend
 62
   250
420
  1644836
370
    18
100
AcDbLine
 10
337.3191936299
 20
346.920508875
 30
0.0
 11
337.3191936299
 21
344.920508875
 31
0.0
  0
LINE
  5
19E
330
1F
100
AcDbEntity
  8
0
  6
SLD-Durchgehend
 62
   250
420
  1644836
370
    18
100
AcDbLine
 10
332.303137912
 20
344.920508875
 30
0.0
 11
337.3191936299
 21
344.920508875
 31
0.0
  0
LINE
  5
19F
330
1F
100
AcDbEntity
  8
0
  6
SLD-Durchgehend
 62
   250
420
  1644836
370
    18
100
AcDbLine
 10
332.303137912
 20
346.920508875
 30
0.0
 11
332.303137912
 21
344.920508875
 31
0.0
  0
LINE
  5
1A0
330
1F
100
AcDbEntity
  8
0
  6
SLD-Durchgehend
 62
   250
420
  1644836
370
    18
100
AcDbLine
 10
332.303137912
 20
346.920508875
 30
0.0
 11
337.3191936299
 21
346.920508875
 31
0.0
  0
LINE
  5
1A1
330
1F
100
AcDbEntity
  8
0
  6
SLD-Durchgehend
 62
   250
420
  1644836
370
    18
100
AcDbLine
 10
372.1751033064
 20
344.920508875
 30
0.0
 11
372.1751033064
 21
346.920508875
 31
0.0
  0
LINE
  5
1A2
330
1F
100
AcDbEntity
  8
0
  6
SLD-Durchgehend
 62
   250
420
  1644836
370
    18
100
AcDbLine
 10
372.1751033064
 20
344.920508875
 30
0.0
 11
337.3191936299
 21
344.920508875
 31
0.0
  0
LINE
  5
1A3
330
1F
100
AcDbEntity
  8
0
  6
SLD-Durchgehend
 62
   250
420
  1644836
370
    18
100
AcDbLine
 10
372.1751033064
 20
346.920508875
 30
0.0
 11
337.3191936299
 21
346.920508875
 31
0.0
  0
LINE
  5
1A4
330
1F
100
AcDbEntity
  8
0
  6
SLD-Durchgehend
 62
   250
420
  1644836
370
    18
100
AcDbLine
 10
377.1911590243
 20
344.920508875
 30
0.0
 11
377.2471484682
 21
344.920508875
 31
0.0
  0
LINE
  5
1A5
330
1F
100
AcDbEntity
  8
0
  6
SLD-Durchgehend
 62
   250
420
  1644836
370
    18
100
AcDbLine
 10
332.2471484682
 20
344.920508875
 30
0.0
 11
332.303137912
 21
344.920508875
 31
0.0
  0
LINE
  5
1A6
330
1F
100
AcDbEntity
  8
0
  6
SLD-Durchgehend
 62
   250
420
  1644836
370
    18
100
AcDbLine
 10
377.1911590243
 20
344.920508875
 30
0.0
 11
377.1911590243
 21
346.920508875
 31
0.0
  0
LINE
  5
1A7
330
1F
100
AcDbEntity
  8
0
  6
SLD-Durchgehend
 62
   250
420
  1644836
370
    18
100
AcDbLine
 10
377.1911590243
 20
346.920508875
 30
0.0
 11
377.2471484682
 21
346.920508875
 31
0.0
  0
LINE
  5
1A8
330
1F
100
AcDbEntity
  8
0
  6
SLD-Durchgehend
 62
   250
420
  1644836
370
    18
100
AcDbLine
 10
332.2471484682
 20
346.920508875
 30
0.0
 11
332.303137912
 21
346.920508875
 31
0.0
  0
LINE
  5
1A9
330
1F
100
AcDbEntity
  8
0
  6
SLD-Durchgehend
 62
   250
420
  1644836
370
    18
100
AcDbLine
 10
372.1751033064
 20
346.920508875
 30
0.0
 11
377.1911590243
 21
346.920508875
 31
0.0
  0
LINE
  5
1AA
330
1F
100
AcDbEntity
  8
0
  6
SLD-Durchgehend
 62
   250
420
  1644836
370
    18
100
AcDbLine
 10
372.1751033064
 20
344.920508875
 30
0.0
 11
377.1911590243
 21
344.920508875
 31
0.0
  0
LINE
  5
1AB
330
1F
100
AcDbEntity
  8
0
  6
SLD-Durchgehend
 62
   250
420
  1644836
370
    18
100
AcDbLine
 10
365.6321661459
 20
405.7770973026
 30
0.0
 11
343.8621307904
 21
405.7770973026
 31
0.0
  0
LINE
  5
1AC
330
1F
100
AcDbEntity
  8
0
  6
SLD-Durchgehend
 62
   250
420
  1644836
370
    18
100
AcDbLine
 10
343.8621307904
 20
405.7770973026
 30
0.0
 11
343.8621307904
 21
407.7770973026
 31
0.0
  0
LINE
  5
1AD
330
1F
100
AcDbEntity
  8
0
  6
SLD-Durchgehend
 62
   250
420
  1644836
370
    18
100
AcDbLine
 10
365.6321661459
 20
407.7770973026
 30
0.0
 11
343.8621307904
 21
407.7770973026
 31
0.0
  0
LINE
  5
1AE
330
1F
100
AcDbEntity
  8
0
  6
SLD-Durchgehend
 62
   250
420
  1644836
370
    18
100
AcDbLine
 10
365.6321661459
 20
407.7770973026
 30
0.0
 11
365.6321661459
 21
405.7770973026
 31
0.0
  0
LINE
  5
1AF
330
1F
100
AcDbEntity
  8
0
  6
SLD-Durchgehend
 62
   250
420
  1644836
370
    18
100
AcDbLine
 10
340.8373098694
 20
407.7770973026
 30
0.0
 11
340.8373098694
 21
405.7770973026
 31
0.0
  0
LINE
  5
1B0
330
1F
100
AcDbEntity
  8
0
  6
SLD-Durchgehend
 62
   250
420
  1644836
370
    18
100
AcDbLine
 10
368.656987067
 20
405.7770973026
 30
0.0
 11
368.7471484682
 21
405.7770973026
 31
0.0
  0
LINE
  5
1B1
330
1F
100
AcDbEntity
  8
0
  6
SLD-Durchgehend
 62
   250
420
  1644836
370
    18
100
AcDbLine
 10
340.7471484682
 20
405.7770973026
 30
0.0
 11
340.8373098694
 21
405.7770973026
 31
0.0
  0
LINE
  5
1B2
330
1F
100
AcDbEntity
  8
0
  6
SLD-Durchgehend
 62
   250
420
  1644836
370
    18
100
AcDbLine
 10
368.656987067
 20
405.7770973026
 30
0.0
 11
368.656987067
 21
407.7770973026
 31
0.0
  0
LINE
  5
1B3
330
1F
100
AcDbEntity
  8
0
  6
SLD-Durchgehend
 62
   250
420
  1644836
370
    18
100
AcDbLine
 10
368.656987067
 20
407.7770973026
 30
0.0
 11
368.7471484682
 21
407.7770973026
 31
0.0
  0
LINE
  5
1B4
330
1F
100
AcDbEntity
  8
0
  6
SLD-Durchgehend
 62
   250
420
  1644836
370
    18
100
AcDbLine
 10
340.7471484682
 20
407.7770973026
 30
0.0
 11
340.8373098694
 21
407.7770973026
 31
0.0
  0
LINE
  5
1B5
330
1F
100
AcDbEntity
  8
0
  6
SLD-Durchgehend
 62
   250
420
  1644836
370
    18
100
AcDbLine
 10
365.6321661459
 20
405.7770973026
 30
0.0
 11
368.656987067
 21
405.7770973026
 31
0.0
  0
LINE
  5
1B6
330
1F
100
AcDbEntity
  8
0
  6
SLD-Durchgehend
 62
   250
420
  1644836
370
    18
100
AcDbLine
 10
368.656987067
 20
407.7770973026
 30
0.0
 11
365.6321661459
 21
407.7770973026
 31
0.0
  0
LINE
  5
1B7
330
1F
100
AcDbEntity
  8
0
  6
SLD-Durchgehend
 62
   250
420
  1644836
370
    18
100
AcDbLine
 10
340.8373098694
 20
405.7770973026
 30
0.0
 11
343.8621307904
 21
405.7770973026
 31
0.0
  0
LINE
  5
1B8
330
1F
100
AcDbEntity
  8
0
  6
SLD-Durchgehend
 62
   250
420
  1644836
370
    18
100
AcDbLine
 10
343.8621307904
 20
407.7770973026
 30
0.0
 11
340.8373098694
 21
407.7770973026
 31
0.0
  0
LINE
  5
1B9
330
1F
100
AcDbEntity
  8
0
  6
SLD-Durchgehend
 62
   250
420
  1644836
370
    18
100
AcDbLine
 10
340.3341817422
 20
384.7354084522
 30
0.0
 11
340.3341817422
 21
382.7354084522
 31
0.0
  0
LINE
  5
1BA
330
1F
100
AcDbEntity
  8
0
  6
SLD-Durchgehend
 62
   250
420
  1644836
370
    18
100
AcDbLine
 10
335.3117783959
 20
382.7354084522
 30
0.0
 11
340.3341817422
 21
382.7354084522
 31
0.0
  0
LINE
  5
1BB
330
1F
100
AcDbEntity
  8
0
  6
SLD-Durchgehend
 62
   250
420
  1644836
370
    18
100
AcDbLine
 10
335.3117783959
 20
384.7354084522
 30
0.0
 11
335.3117783959
 21
382.7354084522
 31
0.0
  0
LINE
  5
1BC
330
1F
100
AcDbEntity
  8
0
  6
SLD-Durchgehend
 62
   250
420
  1644836
370
    18
100
AcDbLine
 10
335.3117783959
 20
384.7354084522
 30
0.0
 11
340.3341817422
 21
384.7354084522
 31
0.0
  0
LINE
  5
1BD
330
1F
100
AcDbEntity
  8
0
  6
SLD-Durchgehend
 62
   250
420
  1644836
370
    18
100
AcDbLine
 10
369.1601151942
 20
382.7354084522
 30
0.0
 11
369.1601151942
 21
384.7354084522
 31
0.0
  0
LINE
  5
1BE
330
1F
100
AcDbEntity
  8
0
  6
SLD-Durchgehend
 62
   250
420
  1644836
370
    18
100
AcDbLine
 10
369.1601151942
 20
382.7354084522
 30
0.0
 11
340.3341817422
 21
382.7354084522
 31
0.0
  0
LINE
  5
1BF
330
1F
100
AcDbEntity
  8
0
  6
SLD-Durchgehend
 62
   250
420
  1644836
370
    18
100
AcDbLine
 10
369.1601151942
 20
384.7354084522
 30
0.0
 11
340.3341817422
 21
384.7354084522
 31
0.0
  0
LINE
  5
1C0
330
1F
100
AcDbEntity
  8
0
  6
SLD-Durchgehend
 62
   250
420
  1644836
370
    18
100
AcDbLine
 10
374.1825185404
 20
382.7354084522
 30
0.0
 11
374.2471484682
 21
382.7354084522
 31
0.0
  0
LINE
  5
1C1
330
1F
100
AcDbEntity
  8
0
  6
SLD-Durchgehend
 62
   250
420
  1644836
370
    18
100
AcDbLine
 10
335.2471484682
 20
382.7354084522
 30
0.0
 11
335.3117783959
 21
382.7354084522
 31
0.0
  0
LINE
  5
1C2
330
1F
100
AcDbEntity
  8
0
  6
SLD-Durchgehend
 62
   250
420
  1644836
370
    18
100
AcDbLine
 10
374.1825185404
 20
382.7354084522
 30
0.0
 11
374.1825185404
 21
384.7354084522
 31
0.0
  0
LINE
  5
1C3
330
1F
100
AcDbEntity
  8
0
  6
SLD-Durchgehend
 62
   250
420
  1644836
370
    18
100
AcDbLine
 10
374.1825185404
 20
384.7354084522
 30
0.0
 11
374.2471484682
 21
384.7354084522
 31
0.0
  0
LINE
  5
1C4
330
1F
100
AcDbEntity
  8
0
  6
SLD-Durchgehend
 62
   250
420
  1644836
370
    18
100
AcDbLine
 10
335.2471484682
 20
384.7354084522
 30
0.0
 11
335.3117783959
 21
384.7354084522
 31
0.0
  0
LINE
  5
1C5
330
1F
100
AcDbEntity
  8
0
  6
SLD-Durchgehend
 62
   250
420
  1644836
370
    18
100
AcDbLine
 10
369.1601151942
 20
384.7354084522
 30
0.0
 11
374.1825185404
 21
384.7354084522
 31
0.0
  0
LINE
  5
1C6
330
1F
100
AcDbEntity
  8
0
  6
SLD-Durchgehend
 62
   250
420
  1644836
370
    18
100
AcDbLine
 10
369.1601151942
 20
382.7354084522
 30
0.0
 11
374.1825185404
 21
382.7354084522
 31
0.0
  0
LINE
  5
1C7
330
1F
100
AcDbEntity
  8
0
  6
SLD-Durchgehend
 62
   250
420
  1644836
370
    18
100
AcDbLine
 10
257.1684008923
 20
384.7354084523
 30
0.0
 11
257.1684008923
 21
383.7354084523
 31
0.0
  0
LINE
  5
1C8
330
1F
100
AcDbEntity
  8
0
  6
SLD-Durchgehend
 62
   250
420
  1644836
370
    18
100
AcDbLine
 10
253.9184008923
 20
383.7354084523
 30
0.0
 11
257.1684008923
 21
383.7354084523
 31
0.0
  0
LINE
  5
1C9
330
1F
100
AcDbEntity
  8
0
  6
SLD-Durchgehend
 62
   250
420
  1644836
370
    18
100
AcDbLine
 10
253.9184008923
 20
384.7354084523
 30
0.0
 11
253.9184008923
 21
383.7354084523
 31
0.0
  0
LINE
  5
1CA
330
1F
100
AcDbEntity
  8
0
  6
SLD-Durchgehend
 62
   250
420
  1644836
370
    18
100
AcDbLine
 10
253.9184008923
 20
384.7354084523
 30
0.0
 11
257.1684008923
 21
384.7354084523
 31
0.0
  0
LINE
  5
1CB
330
1F
100
AcDbEntity
  8
0
  6
SLD-Durchgehend
 62
   250
420
  1644836
370
    18
100
AcDbLine
 10
307.1684008923
 20
383.7354084523
 30
0.0
 11
307.1684008923
 21
384.7354084523
 31
0.0
  0
LINE
  5
1CC
330
1F
100
AcDbEntity
  8
0
  6
SLD-Durchgehend
 62
   250
420
  1644836
370
    18
100
AcDbLine
 10
307.1684008923
 20
383.7354084523
 30
0.0
 11
257.1684008923
 21
383.7354084523
 31
0.0
  0
LINE
  5
1CD
330
1F
100
AcDbEntity
  8
0
  6
SLD-Durchgehend
 62
   250
420
  1644836
370
    18
100
AcDbLine
 10
307.1684008923
 20
384.7354084523
 30
0.0
 11
257.1684008923
 21
384.7354084523
 31
0.0
  0
LINE
  5
1CE
330
1F
100
AcDbEntity
  8
0
  6
SLD-Durchgehend
 62
   250
420
  1644836
370
    18
100
AcDbLine
 10
310.4184008923
 20
383.7354084523
 30
0.0
 11
310.4184008923
 21
384.7354084523
 31
0.0
  0
LINE
  5
1CF
330
1F
100
AcDbEntity
  8
0
  6
SLD-Durchgehend
 62
   250
420
  1644836
370
    18
100
AcDbLine
 10
307.1684008923
 20
384.7354084523
 30
0.0
 11
310.4184008923
 21
384.7354084523
 31
0.0
  0
LINE
  5
1D0
330
1F
100
AcDbEntity
  8
0
  6
SLD-Durchgehend
 62
   250
420
  1644836
370
    18
100
AcDbLine
 10
307.1684008923
 20
383.7354084523
 30
0.0
 11
310.4184008923
 21
383.7354084523
 31
0.0
  0
LINE
  5
1D1
330
1F
100
AcDbEntity
  8
0
  6
SLD-Durchgehend
 62
   250
420
  1644836
370
    18
100
AcDbLine
 10
302.2684008923
 20
406.7770973026
 30
0.0
 11
302.2684008923
 21
407.7770973026
 31
0.0
  0
LINE
  5
1D2
330
1F
100
AcDbEntity
  8
0
  6
SLD-Durchgehend
 62
   250
420
  1644836
370
    18
100
AcDbLine
 10
304.4184008923
 20
407.7770973026
 30
0.0
 11
302.2684008923
 21
407.7770973026
 31
0.0
  0
LINE
  5
1D3
330
1F
100
AcDbEntity
  8
0
  6
SLD-Durchgehend
 62
   250
420
  1644836
370
    18
100
AcDbLine
 10
304.4184008923
 20
406.7770973026
 30
0.0
 11
304.4184008923
 21
407.7770973026
 31
0.0
  0
LINE
  5
1D4
330
1F
100
AcDbEntity
  8
0
  6
SLD-Durchgehend
 62
   250
420
  1644836
370
    18
100
AcDbLine
 10
304.4184008923
 20
406.7770973026
 30
0.0
 11
302.2684008923
 21
406.7770973026
 31
0.0
  0
LINE
  5
1D5
330
1F
100
AcDbEntity
  8
0
  6
SLD-Durchgehend
 62
   250
420
  1644836
370
    18
100
AcDbLine
 10
262.0684008923
 20
407.7770973026
 30
0.0
 11
262.0684008923
 21
406.7770973026
 31
0.0
  0
LINE
  5
1D6
330
1F
100
AcDbEntity
  8
0
  6
SLD-Durchgehend
 62
   250
420
  1644836
370
    18
100
AcDbLine
 10
262.0684008923
 20
407.7770973026
 30
0.0
 11
302.2684008923
 21
407.7770973026
 31
0.0
  0
LINE
  5
1D7
330
1F
100
AcDbEntity
  8
0
  6
SLD-Durchgehend
 62
   250
420
  1644836
370
    18
100
AcDbLine
 10
262.0684008923
 20
406.7770973026
 30
0.0
 11
302.2684008923
 21
406.7770973026
 31
0.0
  0
LINE
  5
1D8
330
1F
100
AcDbEntity
  8
0
  6
SLD-Durchgehend
 62
   250
420
  1644836
370
    18
100
AcDbLine
 10
259.9184008923
 20
407.7770973026
 30
0.0
 11
259.9184008923
 21
406.7770973026
 31
0.0
  0
LINE
  5
1D9
330
1F
100
AcDbEntity
  8
0
  6
SLD-Durchgehend
 62
   250
420
  1644836
370
    18
100
AcDbLine
 10
262.0684008923
 20
406.7770973026
 30
0.0
 11
259.9184008923
 21
406.7770973026
 31
0.0
  0
LINE
  5
1DA
330
1F
100
AcDbEntity
  8
0
  6
SLD-Durchgehend
 62
   250
420
  1644836
370
    18
100
AcDbLine
 10
262.0684008923
 20
407.7770973026
 30
0.0
 11
259.9184008923
 21
407.7770973026
 31
0.0
  0
CIRCLE
  5
1DB
330
1F
100
AcDbEntity
  8
0
  6
SLD-Durchgehend
 62
   250
420
  1644836
370
    18
100
AcDbCircle
 10
422.4903488982
 20
251.2897683398
 30
0.0
 40
24.54565425053471
  0
CIRCLE
  5
1DC
330
1F
100
AcDbEntity
  8
0
  6
SLD-Durchgehend
 62
   250
420
  1644836
370
    18
100
AcDbCircle
 10
422.4903488982
 20
251.2897683398
 30
0.0
 40
31.75
  0
CIRCLE
  5
1DD
330
1F
100
AcDbEntity
  8
0
  6
SLD-Durchgehend
 62
   250
420
  1644836
370
    18
100
AcDbCircle
 10
422.4903488982
 20
251.2897683398
 30
0.0
 40
22.15000000000015
  0
CIRCLE
  5
1DE
330
1F
100
AcDbEntity
  8
0
  6
SLD-Durchgehend
 62
   250
420
  1644836
370
    18
100
AcDbCircle
 10
422.4903488982
 20
251.2897683398
 30
0.0
 40
18.6500000000002
  0
CIRCLE
  5
1DF
330
1F
100
AcDbEntity
  8
0
  6
SLD-Durchgehend
 62
   250
420
  1644836
370
    18
100
AcDbCircle
 10
496.7877785388
 20
251.5187548482
 30
0.0
 40
27.99328002843174
  0
CIRCLE
  5
1E0
330
1F
100
AcDbEntity
  8
0
  6
SLD-Durchgehend
 62
   250
420
  1644836
370
    18
100
AcDbCircle
 10
496.7877785388
 20
251.5187548482
 30
0.0
 40
25.0
  0
CIRCLE
  5
1E1
330
1F
100
AcDbEntity
  8
0
  6
SLD-Durchgehend
 62
   250
420
  1644836
370
    18
100
AcDbCircle
 10
496.7877785388
 20
251.5187548482
 30
0.0
 40
20.0
  0
CIRCLE
  5
1E2
330
1F
100
AcDbEntity
  8
0
  6
SLD-Durchgehend
 62
   250
420
  1644836
370
    18
100
AcDbCircle
 10
496.7877785388
 20
251.5187548482
 30
0.0
 40
21.90540834702392
  0
CIRCLE
  5
1E3
330
1F
100
AcDbEntity
  8
0
  6
SLD-Durchgehend
 62
   250
420
  1644836
370
    18
100
AcDbCircle
 10
496.7877785388
 20
251.5187548482
 30
0.0
 40
17.62432667761914
  0
CIRCLE
  5
1E4
330
1F
100
AcDbEntity
  8
0
  6
SLD-Durchgehend
 62
   250
420
  1644836
370
    18
100
AcDbCircle
 10
496.7877785388
 20
251.5187548482
 30
0.0
 40
16.0
  0
CIRCLE
  5
1E5
330
1F
100
AcDbEntity
  8
0
  6
SLD-Durchgehend
 62
   250
420
  1644836
370
    18
100
AcDbCircle
 10
282.1684008922
 20
251.0416720552
 30
0.0
 40
32.44999999999999
  0
CIRCLE
  5
1E6
330
1F
100
AcDbEntity
  8
0
  6
SLD-Durchgehend
 62
   250
420
  1644836
370
    18
100
AcDbCircle
 10
282.1684008922
 20
251.0416720552
 30
0.0
 40
29.25
  0
CIRCLE
  5
1E7
330
1F
100
AcDbEntity
  8
0
  6
SLD-Durchgehend
 62
   250
420
  1644836
370
    18
100
AcDbCircle
 10
422.4903488982
 20
251.2897683398
 30
0.0
 40
28.25000000000006
  0
CIRCLE
  5
1E8
330
1F
100
AcDbEntity
  8
0
  6
SLD-Durchgehend
 62
   250
420
  1644836
370
    18
100
AcDbCircle
 10
354.7471484682
 20
252.6279854402
 30
0.0
 40
22.5
  0
CIRCLE
  5
1E9
330
1F
100
AcDbEntity
  8
0
  6
SLD-Durchgehend
 62
   250
420
  1644836
370
    18
100
AcDbCircle
 10
354.7471484682
 20
252.6279854402
 30
0.0
 40
11.0
  0
CIRCLE
  5
1EA
330
1F
100
AcDbEntity
  8
0
  6
SLD-Durchgehend
 62
   250
420
  1644836
370
    18
100
AcDbCircle
 10
354.7471484682
 20
252.6279854402
 30
0.0
 40
14.0
  0
CIRCLE
  5
1EB
330
1F
100
AcDbEntity
  8
0
  6
SLD-Durchgehend
 62
   250
420
  1644836
370
    18
100
AcDbCircle
 10
354.7471484682
 20
252.6279854402
 30
0.0
 40
14.5
  0
CIRCLE
  5
1EC
330
1F
100
AcDbEntity
  8
0
  6
SLD-Durchgehend
 62
   250
420
  1644836
370
    18
100
AcDbCircle
 10
354.7471484682
 20
252.6279854402
 30
0.0
 40
19.5
  0
CIRCLE
  5
1ED
330
1F
100
AcDbEntity
  8
0
  6
SLD-Durchgehend
 62
   250
420
  1644836
370
    18
100
AcDbCircle
 10
282.1684008922
 20
251.0416720552
 30
0.0
 40
25.00000000000011
  0
CIRCLE
  5
1EE
330
1F
100
AcDbEntity
  8
0
  6
SLD-Durchgehend
 62
   250
420
  1644836
370
    18
100
AcDbCircle
 10
282.1684008922
 20
251.0416720552
 30
0.0
 40
28.25
  0
CIRCLE
  5
1EF
330
1F
100
AcDbEntity
  8
0
  6
SLD-Durchgehend
 62
   250
420
  1644836
370
    18
100
AcDbCircle
 10
282.1684008922
 20
251.0416720552
 30
0.0
 40
20.10000000000002
  0
CIRCLE
  5
1F0
330
1F
100
AcDbEntity
  8
0
  6
SLD-Durchgehend
 62
   250
420
  1644836
370
    18
100
AcDbCircle
 10
282.1684008922
 20
251.0416720552
 30
0.0
 40
22.25
  0
ARC
  5
1F1
330
1F
100
AcDbEntity
  8
0
  6
SLD-Durchgehend
 62
   250
420
  1644836
370
    18
100
AcDbCircle
 10
451.9810410572
 20
338.9205088751
 30
0.0
 40
0.500000000033148
100
AcDbArc
 50
270.0
 51
344.9999999962
  0
ARC
  5
1F2
330
1F
100
AcDbEntity
  8
0
  6
SLD-Durchgehend
 62
   250
420
  1644836
370
    18
100
AcDbCircle
 10
392.9996567392
 20
338.920508875
 30
0.0
 40
0.5000000000330931
100
AcDbArc
 50
195.0000000038
 51
270.0
  0
ARC
  5
1F3
330
1F
100
AcDbEntity
  8
0
  6
SLD-Durchgehend
 62
   250
420
  1644836
370
    18
100
AcDbCircle
 10
453.7403488982
 20
345.4863351239
 30
0.0
 40
0.5000000000330931
100
AcDbArc
 50
344.9999999962
 51
0.0
  0
ARC
  5
1F4
330
1F
100
AcDbEntity
  8
0
  6
SLD-Durchgehend
 62
   250
420
  1644836
370
    18
100
AcDbCircle
 10
450.2403488982
 20
383.3235719427
 30
0.0
 40
0.4999999999925535
100
AcDbArc
 50
340.000000007
 51
0.0
  0
ARC
  5
1F5
330
1F
100
AcDbEntity
  8
0
  6
SLD-Durchgehend
 62
   250
420
  1644836
370
    18
100
AcDbCircle
 10
394.7403488982
 20
383.3235719427
 30
0.0
 40
0.4999999999926104
100
AcDbArc
 50
180.0
 51
199.999999993
  0
SPLINE
  5
1F6
330
1F
100
AcDbEntity
  8
0
  6
SLD-Durchgehend
 62
   179
420
  2171202
370
    18
100
AcDbSpline
210
0.0
220
0.0
230
1.0
 70
    12
 71
     3
 72
    20
 73
    16
 74
     0
 42
0.000000001
 43
0.00000001
 40
0.0000175778395319
 40
0.0000175778395319
 40
0.0000175778395319
 40
0.0000175778395319
 40
0.0000760662465968
 40
0.0000760662465968
 40
0.0000760662465968
 40
0.000245884219254
 40
0.000245884219254
 40
0.000245884219254
 40
0.0004157081450222
 40
0.0004157081450222
 40
0.0004157081450222
 40
0.0005855335766515
 40
0.0005855335766515
 40
0.0005855335766515
 40
0.0006319575268266
 40
0.0006319575268266
 40
0.0006319575268266
 40
0.0006319575268266
 10
396.4875964151692
 20
377.0643983806357
 30
0.0
 41
1.0
 10
396.4942657883164
 20
377.0460752625028
 30
0.0
 41
1.0
 10
396.502022103221
 20
377.0281123628476
 30
0.0
 41
1.0
 10
396.5107859225928
 20
377.0106936181656
 30
0.0
 41
1.0
 10
396.5359389965502
 20
376.9607000075442
 30
0.0
 41
1.0
 10
396.5700710345682
 20
376.9143599405184
 30
0.0
 41
1.0
 10
396.6103549750216
 20
376.8755109717546
 30
0.0
 41
1.0
 10
396.6506403224292
 20
376.8366606461543
 30
0.0
 41
1.0
 10
396.6981892076216
 20
376.8042302733758
 30
0.0
 41
1.0
 10
396.7490635844738
 20
376.7809052911696
 30
0.0
 41
1.0
 10
396.7999384341268
 20
376.757580092193
 30
0.0
 41
1.0
 10
396.8555420971818
 20
376.7427170438504
 30
0.0
 41
1.0
 10
396.91126985948
 20
376.7375467688328
 30
0.0
 41
1.0
 10
396.9266186456512
 20
376.7361227488752
 30
0.0
 41
1.0
 10
396.9420498014806
 20
376.7354084522984
 30
0.0
 41
1.0
 10
396.957464504519
 20
376.7354084522984
 30
0.0
 41
1.0
  0
SPLINE
  5
1F7
330
1F
100
AcDbEntity
  8
0
  6
SLD-Durchgehend
 62
   179
420
  2171202
370
    18
100
AcDbSpline
210
0.0
220
0.0
230
1.0
 70
    12
 71
     3
 72
     8
 73
     4
 74
     0
 42
0.000000001
 43
0.00000001
 40
0.0000002007640414
 40
0.0000002007640414
 40
0.0000002007640414
 40
0.0000002007640414
 40
0.0074851080427998
 40
0.0074851080427998
 40
0.0074851080427998
 40
0.0074851080427998
 10
397.2916608891328
 20
376.7354084522984
 30
0.0
 41
1.0
 10
397.5091222326399
 20
379.2208825194942
 30
0.0
 41
1.0
 10
397.7265838467302
 20
381.7063565630161
 30
0.0
 41
1.0
 10
397.9440457535678
 20
384.1918305809246
 30
0.0
 41
1.0
  0
SPLINE
  5
1F8
330
1F
100
AcDbEntity
  8
0
  6
SLD-Durchgehend
 62
   179
420
  2171202
370
    18
100
AcDbSpline
210
0.0
220
0.0
230
1.0
 70
    12
 71
     3
 72
    20
 73
    16
 74
     0
 42
0.000000001
 43
0.00000001
 40
0.000027560688045
 40
0.000027560688045
 40
0.000027560688045
 40
0.000027560688045
 40
0.0001965860786237
 40
0.0001965860786237
 40
0.0001965860786237
 40
0.0003668339726619
 40
0.0003668339726619
 40
0.0003668339726619
 40
0.0005370898759638
 40
0.0005370898759638
 40
0.0005370898759638
 40
0.0007073501881472
 40
0.0007073501881472
 40
0.0007073501881472
 40
0.0008643859772903
 40
0.0008643859772903
 40
0.0008643859772903
 40
0.0008643859772903
 10
397.9440457535678
 20
384.1918305809246
 30
0.0
 41
1.0
 10
397.9488884936892
 20
384.2471805266808
 30
0.0
 41
1.0
 10
397.9443124709114
 20
384.30411303891
 30
0.0
 41
1.0
 10
397.9306914422156
 20
384.3579789483927
 30
0.0
 41
1.0
 10
397.916971919327
 20
384.412234364379
 30
0.0
 41
1.0
 10
397.893695268169
 20
384.464869178143
 30
0.0
 41
1.0
 10
397.8627895338095
 20
384.5115244142462
 30
0.0
 41
1.0
 10
397.8318823593162
 20
384.5581818243718
 30
0.0
 41
1.0
 10
397.792492862867
 20
384.6001461263568
 30
0.0
 41
1.0
 10
397.7478835466302
 20
384.6339422246474
 30
0.0
 41
1.0
 10
397.703273067874
 20
384.6677392036651
 30
0.0
 41
1.0
 10
397.6522119961902
 20
384.6942998339816
 30
0.0
 41
1.0
 10
397.5989291151232
 20
384.7114248213038
 30
0.0
 41
1.0
 10
397.5497805277406
 20
384.7272210567734
 30
0.0
 41
1.0
 10
397.4975481211256
 20
384.7354084522984
 30
0.0
 41
1.0
 10
397.4459234691004
 20
384.7354084522984
 30
0.0
 41
1.0
  0
SPLINE
  5
1F9
330
1F
100
AcDbEntity
  8
0
  6
SLD-Durchgehend
 62
   179
420
  2171202
370
    18
100
AcDbSpline
210
0.0
220
0.0
230
1.0
 70
    12
 71
     3
 72
     8
 73
     4
 74
     0
 42
0.000000001
 43
0.00000001
 40
0.0000086033071236
 40
0.0000086033071236
 40
0.0000086033071236
 40
0.0000086033071236
 40
0.0001822516563622
 40
0.0001822516563622
 40
0.0001822516563622
 40
0.0001822516563622
 10
394.2414383309451
 20
383.3235719426527
 30
0.0
 41
1.0
 10
394.2414383309451
 20
383.2656891493791
 30
0.0
 41
1.0
 10
394.2517954278244
 20
383.2069536587926
 30
0.0
 41
1.0
 10
394.2715931846862
 20
383.1525618709898
 30
0.0
 41
1.0
  0
SPLINE
  5
1FA
330
1F
100
AcDbEntity
  8
0
  6
SLD-Durchgehend
 62
   179
420
  2171202
370
    18
100
AcDbSpline
210
0.0
220
0.0
230
1.0
 70
    12
 71
     3
 72
     8
 73
     4
 74
     0
 42
0.000000001
 43
0.00000001
 40
0.0000002128365167
 40
0.0000002128365167
 40
0.0000002128365167
 40
0.0000002128365167
 40
0.0064791328856293
 40
0.0064791328856293
 40
0.0064791328856293
 40
0.0064791328856293
 10
394.2715931846862
 20
383.1525618709898
 30
0.0
 41
1.0
 10
395.010258780023
 20
381.1231732589748
 30
0.0
 41
1.0
 10
395.74892634045
 20
379.09378536222
 30
0.0
 41
1.0
 10
396.4875964151692
 20
377.0643983806357
 30
0.0
 41
1.0
  0
SPLINE
  5
1FB
330
1F
100
AcDbEntity
  8
0
  6
SLD-Durchgehend
 62
   179
420
  2171202
370
    18
100
AcDbSpline
210
0.0
220
0.0
230
1.0
 70
    12
 71
     3
 72
     8
 73
     4
 74
     0
 42
0.000000001
 43
0.00000001
 40
0.000009187800778
 40
0.000009187800778
 40
0.000009187800778
 40
0.000009187800778
 40
0.0001828361500166
 40
0.0001828361500166
 40
0.0001828361500166
 40
0.0001828361500166
 10
450.7091046116012
 20
383.1525618709898
 30
0.0
 41
1.0
 10
450.728902368463
 20
383.2069536587926
 30
0.0
 41
1.0
 10
450.7392594653425
 20
383.2656891493791
 30
0.0
 41
1.0
 10
450.7392594653425
 20
383.3235719426527
 30
0.0
 41
1.0
  0
SPLINE
  5
1FC
330
1F
100
AcDbEntity
  8
0
  6
SLD-Durchgehend
 62
   179
420
  2171202
370
    18
100
AcDbSpline
210
0.0
220
0.0
230
1.0
 70
    12
 71
     3
 72
    23
 73
    19
 74
     0
 42
0.000000001
 43
0.00000001
 40
0.0008643852442427
 40
0.0008643852442427
 40
0.0008643852442427
 40
0.0008643852442427
 40
0.0008776099090517
 40
0.0008776099090517
 40
0.0008776099090517
 40
0.0010478640144381
 40
0.0010478640144381
 40
0.0010478640144381
 40
0.0012181097314554
 40
0.0012181097314554
 40
0.0012181097314554
 40
0.0013883479999348
 40
0.0013883479999348
 40
0.0013883479999348
 40
0.001558583879906
 40
0.001558583879906
 40
0.001558583879906
 40
0.001701150194763
 40
0.001701150194763
 40
0.001701150194763
 40
0.001701150194763
 10
447.5347743271871
 20
384.7354084522984
 30
0.0
 41
1.0
 10
447.5303740886504
 20
384.7354084522984
 30
0.0
 41
1.0
 10
447.5259734668486
 20
384.735350361582
 30
0.0
 41
1.0
 10
447.5215747615724
 20
384.7352342105108
 30
0.0
 41
1.0
 10
447.4656289875674
 20
384.733756920906
 30
0.0
 41
1.0
 10
447.4091667670326
 20
384.7226005449269
 30
0.0
 41
1.0
 10
447.3568634981116
 20
384.702688737531
 30
0.0
 41
1.0
 10
447.3045627644814
 20
384.6827778953178
 30
0.0
 41
1.0
 10
447.2549781945498
 20
384.6535633456396
 30
0.0
 41
1.0
 10
447.2122157075552
 20
384.6174637877209
 30
0.0
 41
1.0
 10
447.1694550781264
 20
384.5813657979356
 30
0.0
 41
1.0
 10
447.1323366994198
 20
384.5373878556796
 30
0.0
 41
1.0
 10
447.1039344371832
 20
384.4891711801872
 30
0.0
 41
1.0
 10
447.0755325859886
 20
384.4409552024942
 30
0.0
 41
1.0
 10
447.0550633369832
 20
384.3871708349919
 30
0.0
 41
1.0
 10
447.0442219970523
 20
384.332271736596
 30
0.0
 41
1.0
 10
447.0351393249637
 20
384.2862782974208
 30
0.0
 41
1.0
 10
447.0325658284639
 20
384.2385338381183
 30
0.0
 41
1.0
 10
447.0366520427196
 20
384.1918305809246
 30
0.0
 41
1.0
  0
SPLINE
  5
1FD
330
1F
100
AcDbEntity
  8
0
  6
SLD-Durchgehend
 62
   179
420
  2171202
370
    18
100
AcDbSpline
210
0.0
220
0.0
230
1.0
 70
    12
 71
     3
 72
     8
 73
     4
 74
     0
 42
0.000000001
 43
0.00000001
 40
0.0000002007640454
 40
0.0000002007640454
 40
0.0000002007640454
 40
0.0000002007640454
 40
0.0074851080428038
 40
0.0074851080428038
 40
0.0074851080428038
 40
0.0074851080428038
 10
447.0366520427196
 20
384.1918305809246
 30
0.0
 41
1.0
 10
447.254113949557
 20
381.7063565630161
 30
0.0
 41
1.0
 10
447.4715755636477
 20
379.2208825194942
 30
0.0
 41
1.0
 10
447.6890369071546
 20
376.7354084522984
 30
0.0
 41
1.0
  0
SPLINE
  5
1FE
330
1F
100
AcDbEntity
  8
0
  6
SLD-Durchgehend
 62
   179
420
  2171202
370
    18
100
AcDbSpline
210
0.0
220
0.0
230
1.0
 70
    12
 71
     3
 72
    17
 73
    13
 74
     0
 42
0.000000001
 43
0.00000001
 40
0.0006319581132945
 40
0.0006319581132945
 40
0.0006319581132945
 40
0.0006319581132945
 40
0.0007553558468332
 40
0.0007553558468332
 40
0.0007553558468332
 40
0.0009251695975461
 40
0.0009251695975461
 40
0.0009251695975461
 40
0.0010949779988729
 40
0.0010949779988729
 40
0.0010949779988729
 40
0.0012471798563337
 40
0.0012471798563337
 40
0.0012471798563337
 40
0.0012471798563337
 10
448.0232332917682
 20
376.7354084522984
 30
0.0
 41
1.0
 10
448.063943409752
 20
376.7354084522984
 30
0.0
 41
1.0
 10
448.1049536670962
 20
376.7404543362404
 30
0.0
 41
1.0
 10
448.1444495561604
 20
376.7503228950642
 30
0.0
 41
1.0
 10
448.1987437178712
 20
376.7638889937476
 30
0.0
 41
1.0
 10
448.251444533471
 20
376.78701554733
 30
0.0
 41
1.0
 10
448.298188066448
 20
376.8177878913126
 30
0.0
 41
1.0
 10
448.3449301309052
 20
376.8485592685348
 30
0.0
 41
1.0
 10
448.3870043644899
 20
376.887824623168
 30
0.0
 41
1.0
 10
448.4209265205034
 20
376.9323328873136
 30
0.0
 41
1.0
 10
448.4513361537826
 20
376.9722324735904
 30
0.0
 41
1.0
 10
448.4759425843959
 20
377.017257119767
 30
0.0
 41
1.0
 10
448.4931013811182
 20
377.0643983806357
 30
0.0
 41
1.0
  0
SPLINE
  5
1FF
330
1F
100
AcDbEntity
  8
0
  6
SLD-Durchgehend
 62
   179
420
  2171202
370
    18
100
AcDbSpline
210
0.0
220
0.0
230
1.0
 70
    12
 71
     3
 72
     8
 73
     4
 74
     0
 42
0.000000001
 43
0.00000001
 40
0.0000002128366877
 40
0.0000002128366877
 40
0.0000002128366877
 40
0.0000002128366877
 40
0.0064791328858003
 40
0.0064791328858003
 40
0.0064791328858003
 40
0.0064791328858003
 10
448.4931013811182
 20
377.0643983806357
 30
0.0
 41
1.0
 10
449.2317714558374
 20
379.09378536222
 30
0.0
 41
1.0
 10
449.9704390162644
 20
381.1231732589748
 30
0.0
 41
1.0
 10
450.7091046116012
 20
383.1525618709898
 30
0.0
 41
1.0
  0
SPLINE
  5
200
330
1F
100
AcDbEntity
  8
0
  6
SLD-Durchgehend
 62
   179
420
  2171202
370
    18
100
AcDbSpline
210
0.0
220
0.0
230
1.0
 70
    12
 71
     3
 72
    11
 73
     7
 74
     0
 42
0.000000001
 43
0.00000001
 40
0.0252510609477513
 40
0.0252510609477513
 40
0.0252510609477513
 40
0.0252510609477513
 40
0.0298247787951829
 40
0.0298247787951829
 40
0.0298247787951829
 40
0.0333297428117076
 40
0.0333297428117076
 40
0.0333297428117076
 40
0.0333297428117076
 10
479.169910255453
 20
407.777097302556
 30
0.0
 41
1.0
 10
479.38216602787
 20
406.267372444136
 30
0.0
 41
1.0
 10
479.594424552662
 20
404.7576479726754
 30
0.0
 41
1.0
 10
479.8066861515196
 20
403.2479239334198
 30
0.0
 41
1.0
 10
479.9693479708308
 20
402.090981461465
 30
0.0
 41
1.0
 10
480.132011596189
 20
400.934039243432
 30
0.0
 41
1.0
 10
480.2946771927876
 20
399.777097302556
 30
0.0
 41
1.0
  0
SPLINE
  5
201
330
1F
100
AcDbEntity
  8
0
  6
SLD-Durchgehend
 62
   179
420
  2171202
370
    18
100
AcDbSpline
210
0.0
220
0.0
230
1.0
 70
    12
 71
     3
 72
    11
 73
     7
 74
     0
 42
0.000000001
 43
0.00000001
 40
0.0263198147820378
 40
0.0263198147820378
 40
0.0263198147820378
 40
0.0263198147820378
 40
0.0298247787982889
 40
0.0298247787982889
 40
0.0298247787982889
 40
0.0343984966454676
 40
0.0343984966454676
 40
0.0343984966454676
 40
0.0343984966454676
 10
513.280879884735
 20
399.777097302556
 30
0.0
 41
1.0
 10
513.4435454813336
 20
400.934039243432
 30
0.0
 41
1.0
 10
513.6062091066918
 20
402.090981461465
 30
0.0
 41
1.0
 10
513.7688709260032
 20
403.2479239334198
 30
0.0
 41
1.0
 10
513.9811325248608
 20
404.7576479726754
 30
0.0
 41
1.0
 10
514.1933910496526
 20
406.267372444136
 30
0.0
 41
1.0
 10
514.4056468220696
 20
407.777097302556
 30
0.0
 41
1.0
  0
SPLINE
  5
202
330
1F
100
AcDbEntity
  8
0
  6
SLD-Durchgehend
 62
   179
420
  2171202
370
    18
100
AcDbSpline
210
0.0
220
0.0
230
1.0
 70
    12
 71
     3
 72
    11
 73
     7
 74
     0
 42
0.000000001
 43
0.00000001
 40
0.0313494651151858
 40
0.0313494651151858
 40
0.0313494651151858
 40
0.0313494651151858
 40
0.0370625138713189
 40
0.0370625138713189
 40
0.0370625138713189
 40
0.0414477904342726
 40
0.0414477904342726
 40
0.0414477904342726
 40
0.0414477904342726
 10
474.8875660544401
 20
384.7354084522984
 30
0.0
 41
1.0
 10
475.1526619530234
 20
382.8496005331302
 30
0.0
 41
1.0
 10
475.4177600873305
 20
380.9637929282452
 30
0.0
 41
1.0
 10
475.6828607200004
 20
379.0779856745735
 30
0.0
 41
1.0
 10
475.8863491971501
 20
377.6304597204372
 30
0.0
 41
1.0
 10
476.0898391469556
 20
376.1829339733214
 30
0.0
 41
1.0
 10
476.2933307050538
 20
374.7354084522984
 30
0.0
 41
1.0
  0
SPLINE
  5
203
330
1F
100
AcDbEntity
  8
0
  6
SLD-Durchgehend
 62
   179
420
  2171202
370
    18
100
AcDbSpline
210
0.0
220
0.0
230
1.0
 70
    12
 71
     3
 72
    11
 73
     7
 74
     0
 42
0.000000001
 43
0.00000001
 40
0.0326772373101255
 40
0.0326772373101255
 40
0.0326772373101255
 40
0.0326772373101255
 40
0.0370625138729356
 40
0.0370625138729356
 40
0.0370625138729356
 40
0.0427755626289364
 40
0.0427755626289364
 40
0.0427755626289364
 40
0.0427755626289364
 10
517.282226372469
 20
374.7354084522984
 30
0.0
 41
1.0
 10
517.485717930567
 20
376.1829339733214
 30
0.0
 41
1.0
 10
517.6892078803726
 20
377.6304597204372
 30
0.0
 41
1.0
 10
517.8926963575224
 20
379.0779856745735
 30
0.0
 41
1.0
 10
518.1577969901928
 20
380.9637929282452
 30
0.0
 41
1.0
 10
518.4228951244994
 20
382.8496005331302
 30
0.0
 41
1.0
 10
518.6879910230828
 20
384.7354084522984
 30
0.0
 41
1.0
  0
SPLINE
  5
204
330
1F
100
AcDbEntity
  8
0
  6
SLD-Durchgehend
 62
   179
420
  2171202
370
    18
100
AcDbSpline
210
0.0
220
0.0
230
1.0
 70
    12
 71
     3
 72
    11
 73
     7
 74
     0
 42
0.000000001
 43
0.00000001
 40
0.0359872807701966
 40
0.0359872807701966
 40
0.0359872807701966
 40
0.0359872807701966
 40
0.0425311567597361
 40
0.0425311567597361
 40
0.0425311567597361
 40
0.0462935132569671
 40
0.0462935132569671
 40
0.0462935132569671
 40
0.0462935132569671
 10
468.7985642096888
 20
346.9205088750501
 30
0.0
 41
1.0
 10
469.3263386709594
 20
344.8040285674562
 30
0.0
 41
1.0
 10
469.8541171996022
 20
342.6875492741134
 30
0.0
 41
1.0
 10
470.381900573921
 20
340.5710711891348
 30
0.0
 41
1.0
 10
470.685345995365
 20
339.3542166694136
 30
0.0
 41
1.0
 10
470.9887930216884
 20
338.1373625498978
 30
0.0
 41
1.0
 10
471.2922418311616
 20
336.92050887505
 30
0.0
 41
1.0
  0
SPLINE
  5
205
330
1F
100
AcDbEntity
  8
0
  6
SLD-Durchgehend
 62
   179
420
  2171202
370
    18
100
AcDbSpline
210
0.0
220
0.0
230
1.0
 70
    12
 71
     3
 72
    11
 73
     7
 74
     0
 42
0.000000001
 43
0.00000001
 40
0.0387688002735937
 40
0.0387688002735937
 40
0.0387688002735937
 40
0.0387688002735937
 40
0.0425311567700067
 40
0.0425311567700067
 40
0.0425311567700067
 40
0.049075032757966
 40
0.049075032757966
 40
0.049075032757966
 40
0.049075032757966
 10
522.283315246361
 20
336.92050887505
 30
0.0
 41
1.0
 10
522.5867640558344
 20
338.1373625498978
 30
0.0
 41
1.0
 10
522.8902110821576
 20
339.3542166694136
 30
0.0
 41
1.0
 10
523.1936565036016
 20
340.5710711891348
 30
0.0
 41
1.0
 10
523.7214398779206
 20
342.6875492741134
 30
0.0
 41
1.0
 10
524.2492184065634
 20
344.8040285674562
 30
0.0
 41
1.0
 10
524.7769928678338
 20
346.9205088750501
 30
0.0
 41
1.0
  0
SPLINE
  5
206
330
1F
100
AcDbEntity
  8
0
  6
SLD-Durchgehend
 62
   179
420
  2171202
370
    18
100
AcDbSpline
210
0.0
220
0.0
230
1.0
 70
    12
 71
     3
 72
    11
 73
     7
 74
     0
 42
0.000000001
 43
0.00000001
 40
0.0285458555186926
 40
0.0285458555186926
 40
0.0285458555186926
 40
0.0285458555186926
 40
0.030388762969797
 40
0.030388762969797
 40
0.030388762969797
 40
0.0344469620806187
 40
0.0344469620806187
 40
0.0344469620806187
 40
0.0344469620806187
 10
441.1386986437268
 20
407.777097302556
 30
0.0
 41
1.0
 10
441.2977049531964
 20
407.183730185919
 30
0.0
 41
1.0
 10
441.4567109271026
 20
406.5903629793598
 30
0.0
 41
1.0
 10
441.6157165899424
 20
405.9969956894438
 30
0.0
 41
1.0
 10
441.9658571459249
 20
404.6903632772256
 30
0.0
 41
1.0
 10
442.3159961966248
 20
403.3837304616334
 30
0.0
 41
1.0
 10
442.666133965514
 20
402.077097302556
 30
0.0
 41
1.0
  0
SPLINE
  5
207
330
1F
100
AcDbEntity
  8
0
  6
SLD-Durchgehend
 62
   179
420
  2171202
370
    18
100
AcDbSpline
210
0.0
220
0.0
230
1.0
 70
    12
 71
     3
 72
    11
 73
     7
 74
     0
 42
0.000000001
 43
0.00000001
 40
0.0317552201400401
 40
0.0317552201400401
 40
0.0317552201400401
 40
0.0317552201400401
 40
0.0334704545825327
 40
0.0334704545825327
 40
0.0334704545825327
 40
0.037656321004193
 40
0.037656321004193
 40
0.037656321004193
 40
0.037656321004193
 10
443.1115461160832
 20
402.077097302556
 30
0.0
 41
1.0
 10
443.25953455488
 20
402.6293577072124
 30
0.0
 41
1.0
 10
443.4075227786599
 20
403.1816181694866
 30
0.0
 41
1.0
 10
443.5555108007364
 20
403.7338786858108
 30
0.0
 41
1.0
 10
443.9166614849069
 20
405.0816179184322
 30
0.0
 41
1.0
 10
444.2778109701382
 20
406.4293574723312
 30
0.0
 41
1.0
 10
444.6389594241696
 20
407.777097302556
 30
0.0
 41
1.0
  0
SPLINE
  5
208
330
1F
100
AcDbEntity
  8
0
  6
SLD-Durchgehend
 62
   179
420
  2171202
370
    18
100
AcDbSpline
210
0.0
220
0.0
230
1.0
 70
    12
 71
     3
 72
    11
 73
     7
 74
     0
 42
0.000000001
 43
0.00000001
 40
0.026330563855904
 40
0.026330563855904
 40
0.026330563855904
 40
0.026330563855904
 40
0.0303887629670875
 40
0.0303887629670875
 40
0.0303887629670875
 40
0.0322316704183459
 40
0.0322316704183459
 40
0.0322316704183459
 40
0.0322316704183459
 10
402.3145638307734
 20
402.077097302556
 30
0.0
 41
1.0
 10
402.6647015996626
 20
403.3837304616334
 30
0.0
 41
1.0
 10
403.0148406503626
 20
404.6903632772254
 30
0.0
 41
1.0
 10
403.364981206345
 20
405.9969956894438
 30
0.0
 41
1.0
 10
403.5239868691848
 20
406.5903629793598
 30
0.0
 41
1.0
 10
403.682992843091
 20
407.183730185919
 30
0.0
 41
1.0
 10
403.8419991525606
 20
407.777097302556
 30
0.0
 41
1.0
  0
SPLINE
  5
209
330
1F
100
AcDbEntity
  8
0
  6
SLD-Durchgehend
 62
   179
420
  2171202
370
    18
100
AcDbSpline
210
0.0
220
0.0
230
1.0
 70
    12
 71
     3
 72
    11
 73
     7
 74
     0
 42
0.000000001
 43
0.00000001
 40
0.0292845881585913
 40
0.0292845881585913
 40
0.0292845881585913
 40
0.0292845881585913
 40
0.0334704545805052
 40
0.0334704545805052
 40
0.0334704545805052
 40
0.0351856890230962
 40
0.0351856890230962
 40
0.0351856890230962
 40
0.0351856890230962
 10
400.3417383721176
 20
407.777097302556
 30
0.0
 41
1.0
 10
400.7028868261493
 20
406.4293574723312
 30
0.0
 41
1.0
 10
401.0640363113806
 20
405.0816179184322
 30
0.0
 41
1.0
 10
401.425186995551
 20
403.7338786858108
 30
0.0
 41
1.0
 10
401.5731750176276
 20
403.1816181694866
 30
0.0
 41
1.0
 10
401.7211632414072
 20
402.6293577072124
 30
0.0
 41
1.0
 10
401.8691516802042
 20
402.077097302556
 30
0.0
 41
1.0
  0
SPLINE
  5
20A
330
1F
100
AcDbEntity
  8
0
  6
SLD-Durchgehend
 62
   179
420
  2171202
370
    18
100
AcDbSpline
210
0.0
220
0.0
230
1.0
 70
    12
 71
     3
 72
    14
 73
    10
 74
     0
 42
0.000000001
 43
0.00000001
 40
0.0031479657500204
 40
0.0031479657500204
 40
0.0031479657500204
 40
0.0031479657500204
 40
0.0031536116034878
 40
0.0031536116034878
 40
0.0031536116034878
 40
0.0032586808843317
 40
0.0032586808843317
 40
0.0032586808843317
 40
0.0032785968786096
 40
0.0032785968786096
 40
0.0032785968786096
 40
0.0032785968786096
 10
454.2223419568944
 20
345.3569256012932
 30
0.0
 41
1.0
 10
454.2228313020406
 20
345.3587518064252
 30
0.0
 41
1.0
 10
454.2233102964338
 20
345.3605808166028
 30
0.0
 41
1.0
 10
454.2237788938392
 20
345.362412455303
 30
0.0
 41
1.0
 10
454.232459453266
 20
345.3963427511222
 30
0.0
 41
1.0
 10
454.2375829393754
 20
345.4313809678024
 30
0.0
 41
1.0
 10
454.2389810323662
 20
345.466376144932
 30
0.0
 41
1.0
 10
454.2392466672936
 20
345.4730251599768
 30
0.0
 41
1.0
 10
454.2393795641908
 20
345.479680804722
 30
0.0
 41
1.0
 10
454.2393795641908
 20
345.4863351238444
 30
0.0
 41
1.0
  0
SPLINE
  5
20B
330
1F
100
AcDbEntity
  8
0
  6
SLD-Durchgehend
 62
   179
420
  2171202
370
    18
100
AcDbSpline
210
0.0
220
0.0
230
1.0
 70
    12
 71
     3
 72
    23
 73
    19
 74
     0
 42
0.000000001
 43
0.00000001
 40
0.0028735467865899
 40
0.0028735467865899
 40
0.0028735467865899
 40
0.0028735467865899
 40
0.0029842516674319
 40
0.0029842516674319
 40
0.0029842516674319
 40
0.0031536231666064
 40
0.0031536231666064
 40
0.0031536231666064
 40
0.0032586919335014
 40
0.0032586919335014
 40
0.0032586919335014
 40
0.0034280470946704
 40
0.0034280470946704
 40
0.0034280470946704
 40
0.0035974007495573
 40
0.0035974007495573
 40
0.0035974007495573
 40
0.0037493369671923
 40
0.0037493369671923
 40
0.0037493369671923
 40
0.0037493369671923
 10
450.8351399466672
 20
346.9205088750508
 30
0.0
 41
1.0
 10
450.7984968627988
 20
346.9205088750508
 30
0.0
 41
1.0
 10
450.7616344238922
 20
346.9164322257144
 30
0.0
 41
1.0
 10
450.7258768291574
 20
346.908425352782
 30
0.0
 41
1.0
 10
450.6712636859131
 20
346.8961963283848
 30
0.0
 41
1.0
 10
450.6180087092588
 20
346.874369682288
 30
0.0
 41
1.0
 10
450.5705221012224
 20
346.844752685311
 30
0.0
 41
1.0
 10
450.5408052603948
 20
346.8262185422894
 30
0.0
 41
1.0
 10
450.5128945887238
 20
346.8044262233716
 30
0.0
 41
1.0
 10
450.4877068484852
 20
346.7800914164484
 30
0.0
 41
1.0
 10
450.4474614231016
 20
346.7412088232906
 30
0.0
 41
1.0
 10
450.4133737885606
 20
346.6948419582352
 30
0.0
 41
1.0
 10
450.3882668560814
 20
346.6448300370918
 30
0.0
 41
1.0
 10
450.3631601556274
 20
346.594818578132
 30
0.0
 41
1.0
 10
450.3463415831097
 20
346.5397828125217
 30
0.0
 41
1.0
 10
450.3392040593084
 20
346.4842801261996
 30
0.0
 41
1.0
 10
450.3327996322354
 20
346.4344781336866
 30
0.0
 41
1.0
 10
450.3339972997514
 20
346.3831339939875
 30
0.0
 41
1.0
 10
450.34271687516
 20
346.3336847862172
 30
0.0
 41
1.0
  0
SPLINE
  5
20C
330
1F
100
AcDbEntity
  8
0
  6
SLD-Durchgehend
 62
   179
420
  2171202
370
    18
100
AcDbSpline
210
0.0
220
0.0
230
1.0
 70
    12
 71
     3
 72
    11
 73
     7
 74
     0
 42
0.000000001
 43
0.00000001
 40
0.0454446434278045
 40
0.0454446434278045
 40
0.0454446434278045
 40
0.0454446434278045
 40
0.0483137866436845
 40
0.0483137866436845
 40
0.0483137866436845
 40
0.0534799019861905
 40
0.0534799019861905
 40
0.0534799019861905
 40
0.0534799019861905
 10
450.34271687516
 20
346.3336847862172
 30
0.0
 41
1.0
 10
450.5087970951696
 20
345.3918344184138
 30
0.0
 41
1.0
 10
450.6748772009137
 20
344.4499840304616
 30
0.0
 41
1.0
 10
450.8409571983129
 20
343.5081336234046
 30
0.0
 41
1.0
 10
451.1399971409335
 20
341.8122587673454
 30
0.0
 41
1.0
 10
451.4390367325088
 20
340.1163838493852
 30
0.0
 41
1.0
 10
451.7380760043807
 20
338.4205088750508
 30
0.0
 41
1.0
  0
SPLINE
  5
20D
330
1F
100
AcDbEntity
  8
0
  6
SLD-Durchgehend
 62
   179
420
  2171202
370
    18
100
AcDbSpline
210
0.0
220
0.0
230
1.0
 70
    12
 71
     3
 72
    20
 73
    16
 74
     0
 42
0.000000001
 43
0.00000001
 40
0.0028167603961934
 40
0.0028167603961934
 40
0.0028167603961934
 40
0.0028167603961934
 40
0.0029842498423524
 40
0.0029842498423524
 40
0.0029842498423524
 40
0.0031536189140897
 40
0.0031536189140897
 40
0.0031536189140897
 40
0.0032586862160171
 40
0.0032586862160171
 40
0.0032586862160171
 40
0.0034280412194195
 40
0.0034280412194195
 40
0.0034280412194195
 40
0.0034731491662584
 40
0.0034731491662584
 40
0.0034731491662584
 40
0.0034731491662584
 10
451.979997459123
 20
338.4205088750508
 30
0.0
 41
1.0
 10
452.0353412582926
 20
338.4205088750508
 30
0.0
 41
1.0
 10
452.091431793136
 20
338.4299520382246
 30
0.0
 41
1.0
 10
452.1437247359906
 20
338.4480734132857
 30
0.0
 41
1.0
 10
452.1966044103232
 20
338.4663981117894
 30
0.0
 41
1.0
 10
452.2470495972732
 20
338.4941052163814
 30
0.0
 41
1.0
 10
452.2908827233692
 20
338.5289004975186
 30
0.0
 41
1.0
 10
452.318313247913
 20
338.5506751893612
 30
0.0
 41
1.0
 10
452.3435808479114
 20
338.5754829364658
 30
0.0
 41
1.0
 10
452.3658555648354
 20
338.6025089955116
 30
0.0
 41
1.0
 10
452.401446961096
 20
338.6456922682842
 30
0.0
 41
1.0
 10
452.4300738014294
 20
338.6956157349008
 30
0.0
 41
1.0
 10
452.449365355285
 20
338.7481455215458
 30
0.0
 41
1.0
 10
452.4545431920911
 20
338.7622444720364
 30
0.0
 41
1.0
 10
452.459089688114
 20
338.7765915014664
 30
0.0
 41
1.0
 10
452.462977188253
 20
338.7910993524994
 30
0.0
 41
1.0
  0
SPLINE
  5
20E
330
1F
100
AcDbEntity
  8
0
  6
SLD-Durchgehend
 62
   179
420
  2171202
370
    18
100
AcDbSpline
210
0.0
220
0.0
230
1.0
 70
    12
 71
     3
 72
    11
 73
     7
 74
     0
 42
0.000000001
 43
0.00000001
 40
0.0466955225453178
 40
0.0466955225453178
 40
0.0466955225453178
 40
0.0466955225453178
 40
0.0482688160746447
 40
0.0482688160746447
 40
0.0482688160746447
 40
0.0534929807994737
 40
0.0534929807994737
 40
0.0534929807994737
 40
0.0534929807994737
 10
452.462977188253
 20
338.7910993524994
 30
0.0
 41
1.0
 10
452.5987143029104
 20
339.2976598074682
 30
0.0
 41
1.0
 10
452.7344513586382
 20
339.8042202782274
 30
0.0
 41
1.0
 10
452.870188357775
 20
340.3107807641508
 30
0.0
 41
1.0
 10
453.3209068216386
 20
341.992828883096
 30
0.0
 41
1.0
 10
453.7716246625519
 20
343.6748771689658
 30
0.0
 41
1.0
 10
454.2223419568944
 20
345.3569256012932
 30
0.0
 41
1.0
  0
SPLINE
  5
20F
330
1F
100
AcDbEntity
  8
0
  6
SLD-Durchgehend
 62
   179
420
  2171202
370
    18
100
AcDbSpline
210
0.0
220
0.0
230
1.0
 70
    12
 71
     3
 72
    20
 73
    16
 74
     0
 42
0.000000001
 43
0.00000001
 40
0.0019237582233726
 40
0.0019237582233726
 40
0.0019237582233726
 40
0.0019237582233726
 40
0.0019680523681574
 40
0.0019680523681574
 40
0.0019680523681574
 40
0.0021374170943423
 40
0.0021374170943423
 40
0.0021374170943423
 40
0.0023067870035671
 40
0.0023067870035671
 40
0.0023067870035671
 40
0.0024761593073528
 40
0.0024761593073528
 40
0.0024761593073528
 40
0.0025808341492901
 40
0.0025808341492901
 40
0.0025808341492901
 40
0.0025808341492901
 10
392.5177206080348
 20
338.791099352499
 30
0.0
 41
1.0
 10
392.5215383568808
 20
338.7768518079182
 30
0.0
 41
1.0
 10
392.5259915521966
 20
338.7627596071512
 30
0.0
 41
1.0
 10
392.5310540683028
 20
338.7489054141576
 30
0.0
 41
1.0
 10
392.5502616417584
 20
338.6963415459107
 30
0.0
 41
1.0
 10
392.5788097909956
 20
338.6463691446062
 30
0.0
 41
1.0
 10
392.6143340434613
 20
338.6031265890628
 30
0.0
 41
1.0
 10
392.6498593747702
 20
338.5598827202778
 30
0.0
 41
1.0
 10
392.6933411236969
 20
338.5221762819396
 30
0.0
 41
1.0
 10
392.7411781219568
 20
338.4931297167454
 30
0.0
 41
1.0
 10
392.7890158054266
 20
338.4640827354926
 30
0.0
 41
1.0
 10
392.8425283470564
 20
338.4428946539172
 30
0.0
 41
1.0
 10
392.8972841356343
 20
338.4313199099947
 30
0.0
 41
1.0
 10
392.9311946853969
 20
338.4241516098028
 30
0.0
 41
1.0
 10
392.966040419207
 20
338.4205088750502
 30
0.0
 41
1.0
 10
393.0007003371649
 20
338.4205088750502
 30
0.0
 41
1.0
  0
SPLINE
  5
210
330
1F
100
AcDbEntity
  8
0
  6
SLD-Durchgehend
 62
   179
420
  2171202
370
    18
100
AcDbSpline
210
0.0
220
0.0
230
1.0
 70
    12
 71
     3
 72
    11
 73
     7
 74
     0
 42
0.000000001
 43
0.00000001
 40
0.0431476713010356
 40
0.0431476713010356
 40
0.0431476713010356
 40
0.0431476713010356
 40
0.0483137866435555
 40
0.0483137866435555
 40
0.0483137866435555
 40
0.0511829298594424
 40
0.0511829298594424
 40
0.0511829298594424
 40
0.0511829298594424
 10
393.2426217919073
 20
338.4205088750504
 30
0.0
 41
1.0
 10
393.541661063779
 20
340.1163838493848
 30
0.0
 41
1.0
 10
393.8407006553545
 20
341.812258767345
 30
0.0
 41
1.0
 10
394.139740597975
 20
343.5081336234042
 30
0.0
 41
1.0
 10
394.305820595374
 20
344.4499840304612
 30
0.0
 41
1.0
 10
394.4719007011182
 20
345.3918344184134
 30
0.0
 41
1.0
 10
394.6379809211276
 20
346.3336847862168
 30
0.0
 41
1.0
  0
SPLINE
  5
211
330
1F
100
AcDbEntity
  8
0
  6
SLD-Durchgehend
 62
   179
420
  2171202
370
    18
100
AcDbSpline
210
0.0
220
0.0
230
1.0
 70
    12
 71
     3
 72
    23
 73
    19
 74
     0
 42
0.000000001
 43
0.00000001
 40
0.0028202583663392
 40
0.0028202583663392
 40
0.0028202583663392
 40
0.0028202583663392
 40
0.0029842611236796
 40
0.0029842611236796
 40
0.0029842611236796
 40
0.0031536156972274
 40
0.0031536156972274
 40
0.0031536156972274
 40
0.0032587037698884
 40
0.0032587037698884
 40
0.0032587037698884
 40
0.0034280745883162
 40
0.0034280745883162
 40
0.0034280745883162
 40
0.0035974474879979
 40
0.0035974474879979
 40
0.0035974474879979
 40
0.0036959267585325
 40
0.0036959267585325
 40
0.0036959267585325
 40
0.0036959267585325
 10
394.6379809211276
 20
346.3336847862168
 30
0.0
 41
1.0
 10
394.6473917151346
 20
346.3870539339474
 30
0.0
 41
1.0
 10
394.6480165351794
 20
346.44268503464
 30
0.0
 41
1.0
 10
394.6398067863282
 20
346.4962520860534
 30
0.0
 41
1.0
 10
394.6313292535136
 20
346.5515663769496
 30
0.0
 41
1.0
 10
394.6131846527838
 20
346.6061797919358
 30
0.0
 41
1.0
 10
394.586875740911
 20
346.655569876933
 30
0.0
 41
1.0
 10
394.5704071620962
 20
346.6864865682572
 30
0.0
 41
1.0
 10
394.5505634083066
 20
346.7158227087478
 30
0.0
 41
1.0
 10
394.52799658969
 20
346.7426143975364
 30
0.0
 41
1.0
 10
394.4919422078556
 20
346.7854187375716
 30
0.0
 41
1.0
 10
394.4479999692486
 20
346.8225882129149
 30
0.0
 41
1.0
 10
394.3998092147218
 20
346.8510448668544
 30
0.0
 41
1.0
 10
394.3516178545252
 20
346.8795018784424
 30
0.0
 41
1.0
 10
394.2978486314796
 20
346.9000308026476
 30
0.0
 41
1.0
 10
394.2429543964482
 20
346.9109317964754
 30
0.0
 41
1.0
 10
394.2109571066542
 20
346.9172858746106
 30
0.0
 41
1.0
 10
394.1781799412628
 20
346.9205088750504
 30
0.0
 41
1.0
 10
394.1455578496206
 20
346.9205088750504
 30
0.0
 41
1.0
  0
SPLINE
  5
212
330
1F
100
AcDbEntity
  8
0
  6
SLD-Durchgehend
 62
   179
420
  2171202
370
    18
100
AcDbSpline
210
0.0
220
0.0
230
1.0
 70
    12
 71
     3
 72
    11
 73
     7
 74
     0
 42
0.000000001
 43
0.00000001
 40
0.0016203973018787
 40
0.0016203973018787
 40
0.0016203973018787
 40
0.0016203973018787
 40
0.0016293398448401
 40
0.0016293398448401
 40
0.0016293398448401
 40
0.001751892774927
 40
0.001751892774927
 40
0.001751892774927
 40
0.001751892774927
 10
390.7413182320968
 20
345.486335123844
 30
0.0
 41
1.0
 10
390.7413182320968
 20
345.4833421393776
 30
0.0
 41
1.0
 10
390.7413451089524
 20
345.4803490342616
 30
0.0
 41
1.0
 10
390.7413988561622
 20
345.4773565324232
 30
0.0
 41
1.0
 10
390.7421268557828
 20
345.436823447717
 30
0.0
 41
1.0
 10
390.747863113972
 20
345.3960837888462
 30
0.0
 41
1.0
 10
390.7583558393932
 20
345.3569256012926
 30
0.0
 41
1.0
  0
SPLINE
  5
213
330
1F
100
AcDbEntity
  8
0
  6
SLD-Durchgehend
 62
   179
420
  2171202
370
    18
100
AcDbSpline
210
0.0
220
0.0
230
1.0
 70
    12
 71
     3
 72
    11
 73
     7
 74
     0
 42
0.000000001
 43
0.00000001
 40
0.0430446513490669
 40
0.0430446513490669
 40
0.0430446513490669
 40
0.0430446513490669
 40
0.0482688160739689
 40
0.0482688160739689
 40
0.0482688160739689
 40
0.0498421096033172
 40
0.0498421096033172
 40
0.0498421096033172
 40
0.0498421096033172
 10
390.7583558393932
 20
345.3569256012926
 30
0.0
 41
1.0
 10
391.209073133736
 20
343.6748771689654
 30
0.0
 41
1.0
 10
391.6597909746492
 20
341.9928288830956
 30
0.0
 41
1.0
 10
392.1105094385126
 20
340.3107807641504
 30
0.0
 41
1.0
 10
392.2462464376496
 20
339.804220278227
 30
0.0
 41
1.0
 10
392.3819834933774
 20
339.2976598074678
 30
0.0
 41
1.0
 10
392.5177206080348
 20
338.791099352499
 30
0.0
 41
1.0
  0
SPLINE
  5
214
330
1F
100
AcDbEntity
  8
0
  6
SLD-Durchgehend
 62
   179
420
  2171202
370
    18
100
AcDbSpline
210
0.0
220
0.0
230
1.0
 70
    12
 71
     3
 72
     8
 73
     4
 74
     0
 42
0.000000001
 43
0.00000001
 40
0.0000002128365167
 40
0.0000002128365167
 40
0.0000002128365167
 40
0.0000002128365167
 40
0.0064791328856293
 40
0.0064791328856293
 40
0.0064791328856293
 40
0.0064791328856293
 10
394.2715931846862
 20
383.1525618709898
 30
0.0
 41
1.0
 10
395.010258780023
 20
381.1231732589748
 30
0.0
 41
1.0
 10
395.74892634045
 20
379.09378536222
 30
0.0
 41
1.0
 10
396.4875964151692
 20
377.0643983806357
 30
0.0
 41
1.0
  0
SPLINE
  5
215
330
1F
100
AcDbEntity
  8
0
  6
SLD-Durchgehend
 62
   179
420
  2171202
370
    18
100
AcDbSpline
210
0.0
220
0.0
230
1.0
 70
    12
 71
     3
 72
    20
 73
    16
 74
     0
 42
0.000000001
 43
0.00000001
 40
0.0000175778395319
 40
0.0000175778395319
 40
0.0000175778395319
 40
0.0000175778395319
 40
0.0000760662465968
 40
0.0000760662465968
 40
0.0000760662465968
 40
0.000245884219254
 40
0.000245884219254
 40
0.000245884219254
 40
0.0004157081450222
 40
0.0004157081450222
 40
0.0004157081450222
 40
0.0005855335766515
 40
0.0005855335766515
 40
0.0005855335766515
 40
0.0006319575268266
 40
0.0006319575268266
 40
0.0006319575268266
 40
0.0006319575268266
 10
396.4875964151692
 20
377.0643983806357
 30
0.0
 41
1.0
 10
396.4942657883164
 20
377.0460752625028
 30
0.0
 41
1.0
 10
396.502022103221
 20
377.0281123628476
 30
0.0
 41
1.0
 10
396.5107859225928
 20
377.0106936181656
 30
0.0
 41
1.0
 10
396.5359389965502
 20
376.9607000075442
 30
0.0
 41
1.0
 10
396.5700710345682
 20
376.9143599405184
 30
0.0
 41
1.0
 10
396.6103549750216
 20
376.8755109717546
 30
0.0
 41
1.0
 10
396.6506403224292
 20
376.8366606461543
 30
0.0
 41
1.0
 10
396.6981892076216
 20
376.8042302733758
 30
0.0
 41
1.0
 10
396.7490635844738
 20
376.7809052911696
 30
0.0
 41
1.0
 10
396.7999384341268
 20
376.757580092193
 30
0.0
 41
1.0
 10
396.8555420971818
 20
376.7427170438504
 30
0.0
 41
1.0
 10
396.91126985948
 20
376.7375467688328
 30
0.0
 41
1.0
 10
396.9266186456512
 20
376.7361227488752
 30
0.0
 41
1.0
 10
396.9420498014806
 20
376.7354084522984
 30
0.0
 41
1.0
 10
396.957464504519
 20
376.7354084522984
 30
0.0
 41
1.0
  0
SPLINE
  5
216
330
1F
100
AcDbEntity
  8
0
  6
SLD-Durchgehend
 62
   179
420
  2171202
370
    18
100
AcDbSpline
210
0.0
220
0.0
230
1.0
 70
    12
 71
     3
 72
     8
 73
     4
 74
     0
 42
0.000000001
 43
0.00000001
 40
0.0000002007640414
 40
0.0000002007640414
 40
0.0000002007640414
 40
0.0000002007640414
 40
0.0074851080427998
 40
0.0074851080427998
 40
0.0074851080427998
 40
0.0074851080427998
 10
397.2916608891328
 20
376.7354084522984
 30
0.0
 41
1.0
 10
397.5091222326399
 20
379.2208825194942
 30
0.0
 41
1.0
 10
397.7265838467302
 20
381.7063565630161
 30
0.0
 41
1.0
 10
397.9440457535678
 20
384.1918305809246
 30
0.0
 41
1.0
  0
SPLINE
  5
217
330
1F
100
AcDbEntity
  8
0
  6
SLD-Durchgehend
 62
   179
420
  2171202
370
    18
100
AcDbSpline
210
0.0
220
0.0
230
1.0
 70
    12
 71
     3
 72
    20
 73
    16
 74
     0
 42
0.000000001
 43
0.00000001
 40
0.000027560688045
 40
0.000027560688045
 40
0.000027560688045
 40
0.000027560688045
 40
0.0001965860786237
 40
0.0001965860786237
 40
0.0001965860786237
 40
0.0003668339726619
 40
0.0003668339726619
 40
0.0003668339726619
 40
0.0005370898759638
 40
0.0005370898759638
 40
0.0005370898759638
 40
0.0007073501881472
 40
0.0007073501881472
 40
0.0007073501881472
 40
0.0008643859772903
 40
0.0008643859772903
 40
0.0008643859772903
 40
0.0008643859772903
 10
397.9440457535678
 20
384.1918305809246
 30
0.0
 41
1.0
 10
397.9488884936892
 20
384.2471805266808
 30
0.0
 41
1.0
 10
397.9443124709114
 20
384.30411303891
 30
0.0
 41
1.0
 10
397.9306914422156
 20
384.3579789483927
 30
0.0
 41
1.0
 10
397.916971919327
 20
384.412234364379
 30
0.0
 41
1.0
 10
397.893695268169
 20
384.464869178143
 30
0.0
 41
1.0
 10
397.8627895338095
 20
384.5115244142462
 30
0.0
 41
1.0
 10
397.8318823593162
 20
384.5581818243718
 30
0.0
 41
1.0
 10
397.792492862867
 20
384.6001461263568
 30
0.0
 41
1.0
 10
397.7478835466302
 20
384.6339422246474
 30
0.0
 41
1.0
 10
397.703273067874
 20
384.6677392036651
 30
0.0
 41
1.0
 10
397.6522119961902
 20
384.6942998339816
 30
0.0
 41
1.0
 10
397.5989291151232
 20
384.7114248213038
 30
0.0
 41
1.0
 10
397.5497805277406
 20
384.7272210567734
 30
0.0
 41
1.0
 10
397.4975481211256
 20
384.7354084522984
 30
0.0
 41
1.0
 10
397.4459234691004
 20
384.7354084522984
 30
0.0
 41
1.0
  0
SPLINE
  5
218
330
1F
100
AcDbEntity
  8
0
  6
SLD-Durchgehend
 62
   179
420
  2171202
370
    18
100
AcDbSpline
210
0.0
220
0.0
230
1.0
 70
    12
 71
     3
 72
     8
 73
     4
 74
     0
 42
0.000000001
 43
0.00000001
 40
0.0000086033071236
 40
0.0000086033071236
 40
0.0000086033071236
 40
0.0000086033071236
 40
0.0001822516563622
 40
0.0001822516563622
 40
0.0001822516563622
 40
0.0001822516563622
 10
394.2414383309451
 20
383.3235719426527
 30
0.0
 41
1.0
 10
394.2414383309451
 20
383.2656891493791
 30
0.0
 41
1.0
 10
394.2517954278244
 20
383.2069536587926
 30
0.0
 41
1.0
 10
394.2715931846862
 20
383.1525618709898
 30
0.0
 41
1.0
  0
SPLINE
  5
219
330
1F
100
AcDbEntity
  8
0
  6
SLD-Durchgehend
 62
   179
420
  2171202
370
    18
100
AcDbSpline
210
0.0
220
0.0
230
1.0
 70
    12
 71
     3
 72
     8
 73
     4
 74
     0
 42
0.000000001
 43
0.00000001
 40
0.0000002128366877
 40
0.0000002128366877
 40
0.0000002128366877
 40
0.0000002128366877
 40
0.0064791328858003
 40
0.0064791328858003
 40
0.0064791328858003
 40
0.0064791328858003
 10
448.4931013811182
 20
377.0643983806357
 30
0.0
 41
1.0
 10
449.2317714558374
 20
379.09378536222
 30
0.0
 41
1.0
 10
449.9704390162644
 20
381.1231732589748
 30
0.0
 41
1.0
 10
450.7091046116012
 20
383.1525618709898
 30
0.0
 41
1.0
  0
SPLINE
  5
21A
330
1F
100
AcDbEntity
  8
0
  6
SLD-Durchgehend
 62
   179
420
  2171202
370
    18
100
AcDbSpline
210
0.0
220
0.0
230
1.0
 70
    12
 71
     3
 72
     8
 73
     4
 74
     0
 42
0.000000001
 43
0.00000001
 40
0.000009187800778
 40
0.000009187800778
 40
0.000009187800778
 40
0.000009187800778
 40
0.0001828361500166
 40
0.0001828361500166
 40
0.0001828361500166
 40
0.0001828361500166
 10
450.7091046116012
 20
383.1525618709898
 30
0.0
 41
1.0
 10
450.728902368463
 20
383.2069536587926
 30
0.0
 41
1.0
 10
450.7392594653425
 20
383.2656891493791
 30
0.0
 41
1.0
 10
450.7392594653425
 20
383.3235719426527
 30
0.0
 41
1.0
  0
SPLINE
  5
21B
330
1F
100
AcDbEntity
  8
0
  6
SLD-Durchgehend
 62
   179
420
  2171202
370
    18
100
AcDbSpline
210
0.0
220
0.0
230
1.0
 70
    12
 71
     3
 72
    23
 73
    19
 74
     0
 42
0.000000001
 43
0.00000001
 40
0.0008643852442427
 40
0.0008643852442427
 40
0.0008643852442427
 40
0.0008643852442427
 40
0.0008776099090517
 40
0.0008776099090517
 40
0.0008776099090517
 40
0.0010478640144381
 40
0.0010478640144381
 40
0.0010478640144381
 40
0.0012181097314554
 40
0.0012181097314554
 40
0.0012181097314554
 40
0.0013883479999348
 40
0.0013883479999348
 40
0.0013883479999348
 40
0.001558583879906
 40
0.001558583879906
 40
0.001558583879906
 40
0.001701150194763
 40
0.001701150194763
 40
0.001701150194763
 40
0.001701150194763
 10
447.5347743271871
 20
384.7354084522984
 30
0.0
 41
1.0
 10
447.5303740886504
 20
384.7354084522984
 30
0.0
 41
1.0
 10
447.5259734668486
 20
384.735350361582
 30
0.0
 41
1.0
 10
447.5215747615724
 20
384.7352342105108
 30
0.0
 41
1.0
 10
447.4656289875674
 20
384.733756920906
 30
0.0
 41
1.0
 10
447.4091667670326
 20
384.7226005449269
 30
0.0
 41
1.0
 10
447.3568634981116
 20
384.702688737531
 30
0.0
 41
1.0
 10
447.3045627644814
 20
384.6827778953178
 30
0.0
 41
1.0
 10
447.2549781945498
 20
384.6535633456396
 30
0.0
 41
1.0
 10
447.2122157075552
 20
384.6174637877209
 30
0.0
 41
1.0
 10
447.1694550781264
 20
384.5813657979356
 30
0.0
 41
1.0
 10
447.1323366994198
 20
384.5373878556796
 30
0.0
 41
1.0
 10
447.1039344371832
 20
384.4891711801872
 30
0.0
 41
1.0
 10
447.0755325859886
 20
384.4409552024942
 30
0.0
 41
1.0
 10
447.0550633369832
 20
384.3871708349919
 30
0.0
 41
1.0
 10
447.0442219970523
 20
384.332271736596
 30
0.0
 41
1.0
 10
447.0351393249637
 20
384.2862782974208
 30
0.0
 41
1.0
 10
447.0325658284639
 20
384.2385338381183
 30
0.0
 41
1.0
 10
447.0366520427196
 20
384.1918305809246
 30
0.0
 41
1.0
  0
SPLINE
  5
21C
330
1F
100
AcDbEntity
  8
0
  6
SLD-Durchgehend
 62
   179
420
  2171202
370
    18
100
AcDbSpline
210
0.0
220
0.0
230
1.0
 70
    12
 71
     3
 72
     8
 73
     4
 74
     0
 42
0.000000001
 43
0.00000001
 40
0.0000002007640454
 40
0.0000002007640454
 40
0.0000002007640454
 40
0.0000002007640454
 40
0.0074851080428038
 40
0.0074851080428038
 40
0.0074851080428038
 40
0.0074851080428038
 10
447.0366520427196
 20
384.1918305809246
 30
0.0
 41
1.0
 10
447.254113949557
 20
381.7063565630161
 30
0.0
 41
1.0
 10
447.4715755636477
 20
379.2208825194942
 30
0.0
 41
1.0
 10
447.6890369071546
 20
376.7354084522984
 30
0.0
 41
1.0
  0
SPLINE
  5
21D
330
1F
100
AcDbEntity
  8
0
  6
SLD-Durchgehend
 62
   179
420
  2171202
370
    18
100
AcDbSpline
210
0.0
220
0.0
230
1.0
 70
    12
 71
     3
 72
    17
 73
    13
 74
     0
 42
0.000000001
 43
0.00000001
 40
0.0006319581132945
 40
0.0006319581132945
 40
0.0006319581132945
 40
0.0006319581132945
 40
0.0007553558468332
 40
0.0007553558468332
 40
0.0007553558468332
 40
0.0009251695975461
 40
0.0009251695975461
 40
0.0009251695975461
 40
0.0010949779988729
 40
0.0010949779988729
 40
0.0010949779988729
 40
0.0012471798563337
 40
0.0012471798563337
 40
0.0012471798563337
 40
0.0012471798563337
 10
448.0232332917682
 20
376.7354084522984
 30
0.0
 41
1.0
 10
448.063943409752
 20
376.7354084522984
 30
0.0
 41
1.0
 10
448.1049536670962
 20
376.7404543362404
 30
0.0
 41
1.0
 10
448.1444495561604
 20
376.7503228950642
 30
0.0
 41
1.0
 10
448.1987437178712
 20
376.7638889937476
 30
0.0
 41
1.0
 10
448.251444533471
 20
376.78701554733
 30
0.0
 41
1.0
 10
448.298188066448
 20
376.8177878913126
 30
0.0
 41
1.0
 10
448.3449301309052
 20
376.8485592685348
 30
0.0
 41
1.0
 10
448.3870043644899
 20
376.887824623168
 30
0.0
 41
1.0
 10
448.4209265205034
 20
376.9323328873136
 30
0.0
 41
1.0
 10
448.4513361537826
 20
376.9722324735904
 30
0.0
 41
1.0
 10
448.4759425843959
 20
377.017257119767
 30
0.0
 41
1.0
 10
448.4931013811182
 20
377.0643983806357
 30
0.0
 41
1.0
  0
SPLINE
  5
21E
330
1F
100
AcDbEntity
  8
0
  6
SLD-Durchgehend
 62
   179
420
  2171202
370
    18
100
AcDbSpline
210
0.0
220
0.0
230
1.0
 70
    12
 71
     3
 72
    11
 73
     7
 74
     0
 42
0.000000001
 43
0.00000001
 40
0.0252510609477513
 40
0.0252510609477513
 40
0.0252510609477513
 40
0.0252510609477513
 40
0.0298247787951829
 40
0.0298247787951829
 40
0.0298247787951829
 40
0.0333297428117076
 40
0.0333297428117076
 40
0.0333297428117076
 40
0.0333297428117076
 10
479.169910255453
 20
407.777097302556
 30
0.0
 41
1.0
 10
479.38216602787
 20
406.267372444136
 30
0.0
 41
1.0
 10
479.594424552662
 20
404.7576479726754
 30
0.0
 41
1.0
 10
479.8066861515196
 20
403.2479239334198
 30
0.0
 41
1.0
 10
479.9693479708308
 20
402.090981461465
 30
0.0
 41
1.0
 10
480.132011596189
 20
400.934039243432
 30
0.0
 41
1.0
 10
480.2946771927876
 20
399.777097302556
 30
0.0
 41
1.0
  0
SPLINE
  5
21F
330
1F
100
AcDbEntity
  8
0
  6
SLD-Durchgehend
 62
   179
420
  2171202
370
    18
100
AcDbSpline
210
0.0
220
0.0
230
1.0
 70
    12
 71
     3
 72
    11
 73
     7
 74
     0
 42
0.000000001
 43
0.00000001
 40
0.0263198147820378
 40
0.0263198147820378
 40
0.0263198147820378
 40
0.0263198147820378
 40
0.0298247787982889
 40
0.0298247787982889
 40
0.0298247787982889
 40
0.0343984966454676
 40
0.0343984966454676
 40
0.0343984966454676
 40
0.0343984966454676
 10
513.280879884735
 20
399.777097302556
 30
0.0
 41
1.0
 10
513.4435454813336
 20
400.934039243432
 30
0.0
 41
1.0
 10
513.6062091066918
 20
402.090981461465
 30
0.0
 41
1.0
 10
513.7688709260032
 20
403.2479239334198
 30
0.0
 41
1.0
 10
513.9811325248608
 20
404.7576479726754
 30
0.0
 41
1.0
 10
514.1933910496526
 20
406.267372444136
 30
0.0
 41
1.0
 10
514.4056468220696
 20
407.777097302556
 30
0.0
 41
1.0
  0
SPLINE
  5
220
330
1F
100
AcDbEntity
  8
0
  6
SLD-Durchgehend
 62
   179
420
  2171202
370
    18
100
AcDbSpline
210
0.0
220
0.0
230
1.0
 70
    12
 71
     3
 72
    11
 73
     7
 74
     0
 42
0.000000001
 43
0.00000001
 40
0.0313494651151858
 40
0.0313494651151858
 40
0.0313494651151858
 40
0.0313494651151858
 40
0.0370625138713189
 40
0.0370625138713189
 40
0.0370625138713189
 40
0.0414477904342726
 40
0.0414477904342726
 40
0.0414477904342726
 40
0.0414477904342726
 10
474.8875660544401
 20
384.7354084522984
 30
0.0
 41
1.0
 10
475.1526619530234
 20
382.8496005331302
 30
0.0
 41
1.0
 10
475.4177600873305
 20
380.9637929282452
 30
0.0
 41
1.0
 10
475.6828607200005
 20
379.0779856745735
 30
0.0
 41
1.0
 10
475.8863491971502
 20
377.6304597204372
 30
0.0
 41
1.0
 10
476.0898391469557
 20
376.1829339733214
 30
0.0
 41
1.0
 10
476.2933307050538
 20
374.7354084522984
 30
0.0
 41
1.0
  0
SPLINE
  5
221
330
1F
100
AcDbEntity
  8
0
  6
SLD-Durchgehend
 62
   179
420
  2171202
370
    18
100
AcDbSpline
210
0.0
220
0.0
230
1.0
 70
    12
 71
     3
 72
    11
 73
     7
 74
     0
 42
0.000000001
 43
0.00000001
 40
0.0326772373101255
 40
0.0326772373101255
 40
0.0326772373101255
 40
0.0326772373101255
 40
0.0370625138729356
 40
0.0370625138729356
 40
0.0370625138729356
 40
0.0427755626289364
 40
0.0427755626289364
 40
0.0427755626289364
 40
0.0427755626289364
 10
517.282226372469
 20
374.7354084522984
 30
0.0
 41
1.0
 10
517.485717930567
 20
376.1829339733214
 30
0.0
 41
1.0
 10
517.6892078803726
 20
377.6304597204372
 30
0.0
 41
1.0
 10
517.8926963575224
 20
379.0779856745735
 30
0.0
 41
1.0
 10
518.1577969901928
 20
380.9637929282452
 30
0.0
 41
1.0
 10
518.4228951244994
 20
382.8496005331302
 30
0.0
 41
1.0
 10
518.6879910230828
 20
384.7354084522984
 30
0.0
 41
1.0
  0
SPLINE
  5
222
330
1F
100
AcDbEntity
  8
0
  6
SLD-Durchgehend
 62
   179
420
  2171202
370
    18
100
AcDbSpline
210
0.0
220
0.0
230
1.0
 70
    12
 71
     3
 72
    11
 73
     7
 74
     0
 42
0.000000001
 43
0.00000001
 40
0.0359872807701966
 40
0.0359872807701966
 40
0.0359872807701966
 40
0.0359872807701966
 40
0.0425311567597361
 40
0.0425311567597361
 40
0.0425311567597361
 40
0.0462935132569671
 40
0.0462935132569671
 40
0.0462935132569671
 40
0.0462935132569671
 10
468.7985642096888
 20
346.9205088750501
 30
0.0
 41
1.0
 10
469.3263386709594
 20
344.8040285674562
 30
0.0
 41
1.0
 10
469.8541171996022
 20
342.6875492741134
 30
0.0
 41
1.0
 10
470.381900573921
 20
340.5710711891348
 30
0.0
 41
1.0
 10
470.685345995365
 20
339.3542166694136
 30
0.0
 41
1.0
 10
470.9887930216884
 20
338.1373625498978
 30
0.0
 41
1.0
 10
471.2922418311616
 20
336.92050887505
 30
0.0
 41
1.0
  0
SPLINE
  5
223
330
1F
100
AcDbEntity
  8
0
  6
SLD-Durchgehend
 62
   179
420
  2171202
370
    18
100
AcDbSpline
210
0.0
220
0.0
230
1.0
 70
    12
 71
     3
 72
    11
 73
     7
 74
     0
 42
0.000000001
 43
0.00000001
 40
0.0387688002735937
 40
0.0387688002735937
 40
0.0387688002735937
 40
0.0387688002735937
 40
0.0425311567700067
 40
0.0425311567700067
 40
0.0425311567700067
 40
0.049075032757966
 40
0.049075032757966
 40
0.049075032757966
 40
0.049075032757966
 10
522.283315246361
 20
336.92050887505
 30
0.0
 41
1.0
 10
522.5867640558344
 20
338.1373625498978
 30
0.0
 41
1.0
 10
522.8902110821576
 20
339.3542166694136
 30
0.0
 41
1.0
 10
523.1936565036016
 20
340.5710711891348
 30
0.0
 41
1.0
 10
523.7214398779206
 20
342.6875492741134
 30
0.0
 41
1.0
 10
524.2492184065634
 20
344.8040285674562
 30
0.0
 41
1.0
 10
524.7769928678338
 20
346.9205088750501
 30
0.0
 41
1.0
  0
SPLINE
  5
224
330
1F
100
AcDbEntity
  8
0
  6
SLD-Durchgehend
 62
   179
420
  2171202
370
    18
100
AcDbSpline
210
0.0
220
0.0
230
1.0
 70
    12
 71
     3
 72
    11
 73
     7
 74
     0
 42
0.000000001
 43
0.00000001
 40
0.0285458555186926
 40
0.0285458555186926
 40
0.0285458555186926
 40
0.0285458555186926
 40
0.030388762969797
 40
0.030388762969797
 40
0.030388762969797
 40
0.0344469620806187
 40
0.0344469620806187
 40
0.0344469620806187
 40
0.0344469620806187
 10
441.1386986437267
 20
407.7770973025561
 30
0.0
 41
1.0
 10
441.2977049531964
 20
407.1837301859189
 30
0.0
 41
1.0
 10
441.4567109271026
 20
406.5903629793596
 30
0.0
 41
1.0
 10
441.6157165899423
 20
405.9969956894439
 30
0.0
 41
1.0
 10
441.9658571459248
 20
404.6903632772255
 30
0.0
 41
1.0
 10
442.3159961966248
 20
403.3837304616332
 30
0.0
 41
1.0
 10
442.666133965514
 20
402.077097302556
 30
0.0
 41
1.0
  0
SPLINE
  5
225
330
1F
100
AcDbEntity
  8
0
  6
SLD-Durchgehend
 62
   179
420
  2171202
370
    18
100
AcDbSpline
210
0.0
220
0.0
230
1.0
 70
    12
 71
     3
 72
    11
 73
     7
 74
     0
 42
0.000000001
 43
0.00000001
 40
0.0317552201400401
 40
0.0317552201400401
 40
0.0317552201400401
 40
0.0317552201400401
 40
0.0334704545825327
 40
0.0334704545825327
 40
0.0334704545825327
 40
0.037656321004193
 40
0.037656321004193
 40
0.037656321004193
 40
0.037656321004193
 10
443.1115461160832
 20
402.0770973025559
 30
0.0
 41
1.0
 10
443.25953455488
 20
402.6293577072122
 30
0.0
 41
1.0
 10
443.4075227786598
 20
403.1816181694864
 30
0.0
 41
1.0
 10
443.5555108007374
 20
403.7338786858106
 30
0.0
 41
1.0
 10
443.9166614849078
 20
405.081617918432
 30
0.0
 41
1.0
 10
444.2778109701392
 20
406.429357472331
 30
0.0
 41
1.0
 10
444.6389594241696
 20
407.777097302556
 30
0.0
 41
1.0
  0
SPLINE
  5
226
330
1F
100
AcDbEntity
  8
0
  6
SLD-Durchgehend
 62
   179
420
  2171202
370
    18
100
AcDbSpline
210
0.0
220
0.0
230
1.0
 70
    12
 71
     3
 72
    11
 73
     7
 74
     0
 42
0.000000001
 43
0.00000001
 40
0.026330563855904
 40
0.026330563855904
 40
0.026330563855904
 40
0.026330563855904
 40
0.0303887629670875
 40
0.0303887629670875
 40
0.0303887629670875
 40
0.0322316704183459
 40
0.0322316704183459
 40
0.0322316704183459
 40
0.0322316704183459
 10
402.3145638307734
 20
402.077097302556
 30
0.0
 41
1.0
 10
402.6647015996626
 20
403.3837304616331
 30
0.0
 41
1.0
 10
403.0148406503626
 20
404.6903632772252
 30
0.0
 41
1.0
 10
403.364981206345
 20
405.9969956894438
 30
0.0
 41
1.0
 10
403.5239868691848
 20
406.5903629793595
 30
0.0
 41
1.0
 10
403.682992843091
 20
407.1837301859188
 30
0.0
 41
1.0
 10
403.8419991525606
 20
407.777097302556
 30
0.0
 41
1.0
  0
SPLINE
  5
227
330
1F
100
AcDbEntity
  8
0
  6
SLD-Durchgehend
 62
   179
420
  2171202
370
    18
100
AcDbSpline
210
0.0
220
0.0
230
1.0
 70
    12
 71
     3
 72
    11
 73
     7
 74
     0
 42
0.000000001
 43
0.00000001
 40
0.0292845881585913
 40
0.0292845881585913
 40
0.0292845881585913
 40
0.0292845881585913
 40
0.0334704545805052
 40
0.0334704545805052
 40
0.0334704545805052
 40
0.0351856890230962
 40
0.0351856890230962
 40
0.0351856890230962
 40
0.0351856890230962
 10
400.3417383721176
 20
407.7770973025561
 30
0.0
 41
1.0
 10
400.7028868261502
 20
406.4293574723313
 30
0.0
 41
1.0
 10
401.0640363113816
 20
405.0816179184322
 30
0.0
 41
1.0
 10
401.425186995551
 20
403.7338786858109
 30
0.0
 41
1.0
 10
401.5731750176276
 20
403.1816181694867
 30
0.0
 41
1.0
 10
401.7211632414072
 20
402.6293577072125
 30
0.0
 41
1.0
 10
401.8691516802042
 20
402.077097302556
 30
0.0
 41
1.0
  0
SPLINE
  5
228
330
1F
100
AcDbEntity
  8
0
  6
SLD-Durchgehend
 62
   179
420
  2171202
370
    18
100
AcDbSpline
210
0.0
220
0.0
230
1.0
 70
    12
 71
     3
 72
    11
 73
     7
 74
     0
 42
0.000000001
 43
0.00000001
 40
0.0466955225453178
 40
0.0466955225453178
 40
0.0466955225453178
 40
0.0466955225453178
 40
0.0482688160746447
 40
0.0482688160746447
 40
0.0482688160746447
 40
0.0534929807994737
 40
0.0534929807994737
 40
0.0534929807994737
 40
0.0534929807994737
 10
452.462977188253
 20
338.7910993524994
 30
0.0
 41
1.0
 10
452.5987143029104
 20
339.2976598074682
 30
0.0
 41
1.0
 10
452.7344513586382
 20
339.8042202782274
 30
0.0
 41
1.0
 10
452.870188357775
 20
340.3107807641508
 30
0.0
 41
1.0
 10
453.3209068216386
 20
341.992828883096
 30
0.0
 41
1.0
 10
453.7716246625519
 20
343.6748771689658
 30
0.0
 41
1.0
 10
454.2223419568944
 20
345.3569256012932
 30
0.0
 41
1.0
  0
SPLINE
  5
229
330
1F
100
AcDbEntity
  8
0
  6
SLD-Durchgehend
 62
   179
420
  2171202
370
    18
100
AcDbSpline
210
0.0
220
0.0
230
1.0
 70
    12
 71
     3
 72
    14
 73
    10
 74
     0
 42
0.000000001
 43
0.00000001
 40
0.0031479657500204
 40
0.0031479657500204
 40
0.0031479657500204
 40
0.0031479657500204
 40
0.0031536116034878
 40
0.0031536116034878
 40
0.0031536116034878
 40
0.0032586808843317
 40
0.0032586808843317
 40
0.0032586808843317
 40
0.0032785968786096
 40
0.0032785968786096
 40
0.0032785968786096
 40
0.0032785968786096
 10
454.2223419568944
 20
345.3569256012932
 30
0.0
 41
1.0
 10
454.2228313020406
 20
345.3587518064252
 30
0.0
 41
1.0
 10
454.2233102964338
 20
345.3605808166028
 30
0.0
 41
1.0
 10
454.2237788938392
 20
345.362412455303
 30
0.0
 41
1.0
 10
454.232459453266
 20
345.3963427511222
 30
0.0
 41
1.0
 10
454.2375829393754
 20
345.4313809678024
 30
0.0
 41
1.0
 10
454.2389810323662
 20
345.466376144932
 30
0.0
 41
1.0
 10
454.2392466672936
 20
345.4730251599768
 30
0.0
 41
1.0
 10
454.2393795641908
 20
345.479680804722
 30
0.0
 41
1.0
 10
454.2393795641908
 20
345.4863351238444
 30
0.0
 41
1.0
  0
SPLINE
  5
22A
330
1F
100
AcDbEntity
  8
0
  6
SLD-Durchgehend
 62
   179
420
  2171202
370
    18
100
AcDbSpline
210
0.0
220
0.0
230
1.0
 70
    12
 71
     3
 72
    23
 73
    19
 74
     0
 42
0.000000001
 43
0.00000001
 40
0.0028735467865899
 40
0.0028735467865899
 40
0.0028735467865899
 40
0.0028735467865899
 40
0.0029842516674319
 40
0.0029842516674319
 40
0.0029842516674319
 40
0.0031536231666064
 40
0.0031536231666064
 40
0.0031536231666064
 40
0.0032586919335014
 40
0.0032586919335014
 40
0.0032586919335014
 40
0.0034280470946704
 40
0.0034280470946704
 40
0.0034280470946704
 40
0.0035974007495573
 40
0.0035974007495573
 40
0.0035974007495573
 40
0.0037493369671923
 40
0.0037493369671923
 40
0.0037493369671923
 40
0.0037493369671923
 10
450.8351399466672
 20
346.9205088750508
 30
0.0
 41
1.0
 10
450.7984968627988
 20
346.9205088750508
 30
0.0
 41
1.0
 10
450.7616344238922
 20
346.9164322257144
 30
0.0
 41
1.0
 10
450.7258768291574
 20
346.908425352782
 30
0.0
 41
1.0
 10
450.6712636859131
 20
346.8961963283848
 30
0.0
 41
1.0
 10
450.6180087092588
 20
346.874369682288
 30
0.0
 41
1.0
 10
450.5705221012224
 20
346.844752685311
 30
0.0
 41
1.0
 10
450.5408052603948
 20
346.8262185422894
 30
0.0
 41
1.0
 10
450.5128945887238
 20
346.8044262233716
 30
0.0
 41
1.0
 10
450.4877068484852
 20
346.7800914164484
 30
0.0
 41
1.0
 10
450.4474614231016
 20
346.7412088232906
 30
0.0
 41
1.0
 10
450.4133737885606
 20
346.6948419582352
 30
0.0
 41
1.0
 10
450.3882668560814
 20
346.6448300370918
 30
0.0
 41
1.0
 10
450.3631601556274
 20
346.594818578132
 30
0.0
 41
1.0
 10
450.3463415831097
 20
346.5397828125217
 30
0.0
 41
1.0
 10
450.3392040593084
 20
346.4842801261996
 30
0.0
 41
1.0
 10
450.3327996322354
 20
346.4344781336866
 30
0.0
 41
1.0
 10
450.3339972997514
 20
346.3831339939875
 30
0.0
 41
1.0
 10
450.34271687516
 20
346.3336847862172
 30
0.0
 41
1.0
  0
SPLINE
  5
22B
330
1F
100
AcDbEntity
  8
0
  6
SLD-Durchgehend
 62
   179
420
  2171202
370
    18
100
AcDbSpline
210
0.0
220
0.0
230
1.0
 70
    12
 71
     3
 72
    11
 73
     7
 74
     0
 42
0.000000001
 43
0.00000001
 40
0.0454446434278045
 40
0.0454446434278045
 40
0.0454446434278045
 40
0.0454446434278045
 40
0.0483137866436845
 40
0.0483137866436845
 40
0.0483137866436845
 40
0.0534799019861905
 40
0.0534799019861905
 40
0.0534799019861905
 40
0.0534799019861905
 10
450.34271687516
 20
346.3336847862172
 30
0.0
 41
1.0
 10
450.5087970951696
 20
345.3918344184138
 30
0.0
 41
1.0
 10
450.6748772009137
 20
344.4499840304616
 30
0.0
 41
1.0
 10
450.8409571983129
 20
343.5081336234046
 30
0.0
 41
1.0
 10
451.1399971409335
 20
341.8122587673454
 30
0.0
 41
1.0
 10
451.4390367325088
 20
340.1163838493852
 30
0.0
 41
1.0
 10
451.7380760043807
 20
338.4205088750508
 30
0.0
 41
1.0
  0
SPLINE
  5
22C
330
1F
100
AcDbEntity
  8
0
  6
SLD-Durchgehend
 62
   179
420
  2171202
370
    18
100
AcDbSpline
210
0.0
220
0.0
230
1.0
 70
    12
 71
     3
 72
    20
 73
    16
 74
     0
 42
0.000000001
 43
0.00000001
 40
0.0028167603961934
 40
0.0028167603961934
 40
0.0028167603961934
 40
0.0028167603961934
 40
0.0029842498423524
 40
0.0029842498423524
 40
0.0029842498423524
 40
0.0031536189140897
 40
0.0031536189140897
 40
0.0031536189140897
 40
0.0032586862160171
 40
0.0032586862160171
 40
0.0032586862160171
 40
0.0034280412194195
 40
0.0034280412194195
 40
0.0034280412194195
 40
0.0034731491662584
 40
0.0034731491662584
 40
0.0034731491662584
 40
0.0034731491662584
 10
451.979997459123
 20
338.4205088750508
 30
0.0
 41
1.0
 10
452.0353412582926
 20
338.4205088750508
 30
0.0
 41
1.0
 10
452.091431793136
 20
338.4299520382246
 30
0.0
 41
1.0
 10
452.1437247359906
 20
338.4480734132857
 30
0.0
 41
1.0
 10
452.1966044103232
 20
338.4663981117894
 30
0.0
 41
1.0
 10
452.2470495972732
 20
338.4941052163814
 30
0.0
 41
1.0
 10
452.2908827233692
 20
338.5289004975186
 30
0.0
 41
1.0
 10
452.318313247913
 20
338.5506751893612
 30
0.0
 41
1.0
 10
452.3435808479114
 20
338.5754829364658
 30
0.0
 41
1.0
 10
452.3658555648354
 20
338.6025089955116
 30
0.0
 41
1.0
 10
452.401446961096
 20
338.6456922682842
 30
0.0
 41
1.0
 10
452.4300738014294
 20
338.6956157349008
 30
0.0
 41
1.0
 10
452.449365355285
 20
338.7481455215458
 30
0.0
 41
1.0
 10
452.4545431920911
 20
338.7622444720364
 30
0.0
 41
1.0
 10
452.459089688114
 20
338.7765915014664
 30
0.0
 41
1.0
 10
452.462977188253
 20
338.7910993524994
 30
0.0
 41
1.0
  0
SPLINE
  5
22D
330
1F
100
AcDbEntity
  8
0
  6
SLD-Durchgehend
 62
   179
420
  2171202
370
    18
100
AcDbSpline
210
0.0
220
0.0
230
1.0
 70
    12
 71
     3
 72
    11
 73
     7
 74
     0
 42
0.000000001
 43
0.00000001
 40
0.0430446513490669
 40
0.0430446513490669
 40
0.0430446513490669
 40
0.0430446513490669
 40
0.0482688160739689
 40
0.0482688160739689
 40
0.0482688160739689
 40
0.0498421096033172
 40
0.0498421096033172
 40
0.0498421096033172
 40
0.0498421096033172
 10
390.7583558393932
 20
345.3569256012926
 30
0.0
 41
1.0
 10
391.209073133736
 20
343.6748771689654
 30
0.0
 41
1.0
 10
391.6597909746492
 20
341.9928288830956
 30
0.0
 41
1.0
 10
392.1105094385126
 20
340.3107807641504
 30
0.0
 41
1.0
 10
392.2462464376496
 20
339.804220278227
 30
0.0
 41
1.0
 10
392.3819834933774
 20
339.2976598074678
 30
0.0
 41
1.0
 10
392.5177206080348
 20
338.791099352499
 30
0.0
 41
1.0
  0
SPLINE
  5
22E
330
1F
100
AcDbEntity
  8
0
  6
SLD-Durchgehend
 62
   179
420
  2171202
370
    18
100
AcDbSpline
210
0.0
220
0.0
230
1.0
 70
    12
 71
     3
 72
    20
 73
    16
 74
     0
 42
0.000000001
 43
0.00000001
 40
0.0019237582233726
 40
0.0019237582233726
 40
0.0019237582233726
 40
0.0019237582233726
 40
0.0019680523681574
 40
0.0019680523681574
 40
0.0019680523681574
 40
0.0021374170943423
 40
0.0021374170943423
 40
0.0021374170943423
 40
0.0023067870035671
 40
0.0023067870035671
 40
0.0023067870035671
 40
0.0024761593073528
 40
0.0024761593073528
 40
0.0024761593073528
 40
0.0025808341492901
 40
0.0025808341492901
 40
0.0025808341492901
 40
0.0025808341492901
 10
392.5177206080348
 20
338.791099352499
 30
0.0
 41
1.0
 10
392.5215383568808
 20
338.7768518079182
 30
0.0
 41
1.0
 10
392.5259915521966
 20
338.7627596071512
 30
0.0
 41
1.0
 10
392.5310540683028
 20
338.7489054141576
 30
0.0
 41
1.0
 10
392.5502616417584
 20
338.6963415459107
 30
0.0
 41
1.0
 10
392.5788097909956
 20
338.6463691446062
 30
0.0
 41
1.0
 10
392.6143340434613
 20
338.6031265890628
 30
0.0
 41
1.0
 10
392.6498593747702
 20
338.5598827202778
 30
0.0
 41
1.0
 10
392.6933411236969
 20
338.5221762819396
 30
0.0
 41
1.0
 10
392.7411781219568
 20
338.4931297167454
 30
0.0
 41
1.0
 10
392.7890158054266
 20
338.4640827354926
 30
0.0
 41
1.0
 10
392.8425283470564
 20
338.4428946539172
 30
0.0
 41
1.0
 10
392.8972841356343
 20
338.4313199099947
 30
0.0
 41
1.0
 10
392.9311946853969
 20
338.4241516098028
 30
0.0
 41
1.0
 10
392.966040419207
 20
338.4205088750502
 30
0.0
 41
1.0
 10
393.0007003371649
 20
338.4205088750502
 30
0.0
 41
1.0
  0
SPLINE
  5
22F
330
1F
100
AcDbEntity
  8
0
  6
SLD-Durchgehend
 62
   179
420
  2171202
370
    18
100
AcDbSpline
210
0.0
220
0.0
230
1.0
 70
    12
 71
     3
 72
    11
 73
     7
 74
     0
 42
0.000000001
 43
0.00000001
 40
0.0431476713010356
 40
0.0431476713010356
 40
0.0431476713010356
 40
0.0431476713010356
 40
0.0483137866435555
 40
0.0483137866435555
 40
0.0483137866435555
 40
0.0511829298594424
 40
0.0511829298594424
 40
0.0511829298594424
 40
0.0511829298594424
 10
393.2426217919073
 20
338.4205088750504
 30
0.0
 41
1.0
 10
393.541661063779
 20
340.1163838493848
 30
0.0
 41
1.0
 10
393.8407006553545
 20
341.812258767345
 30
0.0
 41
1.0
 10
394.139740597975
 20
343.5081336234042
 30
0.0
 41
1.0
 10
394.305820595374
 20
344.4499840304612
 30
0.0
 41
1.0
 10
394.4719007011182
 20
345.3918344184134
 30
0.0
 41
1.0
 10
394.6379809211276
 20
346.3336847862168
 30
0.0
 41
1.0
  0
SPLINE
  5
230
330
1F
100
AcDbEntity
  8
0
  6
SLD-Durchgehend
 62
   179
420
  2171202
370
    18
100
AcDbSpline
210
0.0
220
0.0
230
1.0
 70
    12
 71
     3
 72
    23
 73
    19
 74
     0
 42
0.000000001
 43
0.00000001
 40
0.0028202583663392
 40
0.0028202583663392
 40
0.0028202583663392
 40
0.0028202583663392
 40
0.0029842611236796
 40
0.0029842611236796
 40
0.0029842611236796
 40
0.0031536156972274
 40
0.0031536156972274
 40
0.0031536156972274
 40
0.0032587037698884
 40
0.0032587037698884
 40
0.0032587037698884
 40
0.0034280745883162
 40
0.0034280745883162
 40
0.0034280745883162
 40
0.0035974474879979
 40
0.0035974474879979
 40
0.0035974474879979
 40
0.0036959267585325
 40
0.0036959267585325
 40
0.0036959267585325
 40
0.0036959267585325
 10
394.6379809211276
 20
346.3336847862168
 30
0.0
 41
1.0
 10
394.6473917151346
 20
346.3870539339474
 30
0.0
 41
1.0
 10
394.6480165351794
 20
346.44268503464
 30
0.0
 41
1.0
 10
394.6398067863282
 20
346.4962520860534
 30
0.0
 41
1.0
 10
394.6313292535136
 20
346.5515663769496
 30
0.0
 41
1.0
 10
394.6131846527838
 20
346.6061797919358
 30
0.0
 41
1.0
 10
394.586875740911
 20
346.655569876933
 30
0.0
 41
1.0
 10
394.5704071620962
 20
346.6864865682572
 30
0.0
 41
1.0
 10
394.5505634083066
 20
346.7158227087478
 30
0.0
 41
1.0
 10
394.52799658969
 20
346.7426143975364
 30
0.0
 41
1.0
 10
394.4919422078556
 20
346.7854187375716
 30
0.0
 41
1.0
 10
394.4479999692486
 20
346.8225882129149
 30
0.0
 41
1.0
 10
394.3998092147218
 20
346.8510448668544
 30
0.0
 41
1.0
 10
394.3516178545252
 20
346.8795018784424
 30
0.0
 41
1.0
 10
394.2978486314796
 20
346.9000308026476
 30
0.0
 41
1.0
 10
394.2429543964482
 20
346.9109317964754
 30
0.0
 41
1.0
 10
394.2109571066542
 20
346.9172858746106
 30
0.0
 41
1.0
 10
394.1781799412628
 20
346.9205088750504
 30
0.0
 41
1.0
 10
394.1455578496206
 20
346.9205088750504
 30
0.0
 41
1.0
  0
SPLINE
  5
231
330
1F
100
AcDbEntity
  8
0
  6
SLD-Durchgehend
 62
   179
420
  2171202
370
    18
100
AcDbSpline
210
0.0
220
0.0
230
1.0
 70
    12
 71
     3
 72
    11
 73
     7
 74
     0
 42
0.000000001
 43
0.00000001
 40
0.0016203973018787
 40
0.0016203973018787
 40
0.0016203973018787
 40
0.0016203973018787
 40
0.0016293398448401
 40
0.0016293398448401
 40
0.0016293398448401
 40
0.001751892774927
 40
0.001751892774927
 40
0.001751892774927
 40
0.001751892774927
 10
390.7413182320968
 20
345.486335123844
 30
0.0
 41
1.0
 10
390.7413182320968
 20
345.4833421393776
 30
0.0
 41
1.0
 10
390.7413451089524
 20
345.4803490342616
 30
0.0
 41
1.0
 10
390.7413988561622
 20
345.4773565324232
 30
0.0
 41
1.0
 10
390.7421268557828
 20
345.436823447717
 30
0.0
 41
1.0
 10
390.747863113972
 20
345.3960837888462
 30
0.0
 41
1.0
 10
390.7583558393932
 20
345.3569256012926
 30
0.0
 41
1.0
  0
SPLINE
  5
232
330
1F
100
AcDbEntity
  8
0
  6
SLD-Durchgehend
 62
   250
420
  1644836
370
    18
100
AcDbSpline
210
0.0
220
0.0
230
1.0
 70
     8
 71
     3
 72
    12
 73
     8
 74
     0
 42
0.000000001
 43
0.00000001
 40
0.0
 40
0.0
 40
0.0
 40
0.0
 40
0.0691160480676198
 40
0.3266282126181922
 40
0.4877910545545581
 40
0.7453242694706435
 40
0.9999999999999999
 40
0.9999999999999999
 40
0.9999999999999999
 40
0.9999999999999999
 10
452.4629771882532
 20
338.7910993524995
 30
0.0
 10
452.4586857159332
 20
338.7767056587058
 30
0.0
 10
452.4384051013345
 20
338.7086840254037
 30
0.0
 10
452.3835230100796
 20
338.6146789781305
 30
0.0
 10
452.2782947837136
 20
338.5116785142789
 30
0.0
 10
452.1473613445428
 20
338.4367116783799
 30
0.0
 10
452.03557754974
 20
338.4258896851042
 30
0.0
 10
451.979997459123
 20
338.4205088750508
 30
0.0
  0
SPLINE
  5
233
330
1F
100
AcDbEntity
  8
0
  6
SLD-Durchgehend
 62
   250
420
  1644836
370
    18
100
AcDbSpline
210
0.0
220
0.0
230
1.0
 70
     8
 71
     3
 72
    13
 73
     9
 74
     0
 42
0.000000001
 43
0.00000001
 40
0.0
 40
0.0
 40
0.0
 40
0.0
 40
0.1732863951360848
 40
0.3664083958387371
 40
0.5595321812895959
 40
0.6803993778827112
 40
0.8735414828050093
 40
1.0
 40
1.0
 40
1.0
 40
1.0
 10
450.3427168751602
 20
346.3336847862174
 30
0.0
 10
450.3383622163836
 20
346.3840899489124
 30
0.0
 10
450.329154433306
 20
346.4906700113034
 30
0.0
 10
450.3803040056808
 20
346.649191432891
 30
0.0
 10
450.4684815293421
 20
346.7699595834402
 30
0.0
 10
450.5851021004174
 20
346.8605223717282
 30
0.0
 10
450.70570973281
 20
346.9120746578142
 30
0.0
 10
450.7984462630676
 20
346.9181177602604
 30
0.0
 10
450.8351399466672
 20
346.9205088750508
 30
0.0
  0
SPLINE
  5
234
330
1F
100
AcDbEntity
  8
0
  6
SLD-Durchgehend
 62
   250
420
  1644836
370
    18
100
AcDbSpline
210
0.0
220
0.0
230
1.0
 70
     8
 71
     3
 72
    10
 73
     6
 74
     0
 42
0.000000001
 43
0.00000001
 40
0.0
 40
0.0
 40
0.0
 40
0.0
 40
0.1527339449093416
 40
0.9566051077283658
 40
1.0
 40
1.0
 40
1.0
 40
1.0
 10
454.2393795641908
 20
345.4863351238444
 30
0.0
 10
454.239295271136
 20
345.479682237939
 30
0.0
 10
454.2387673258464
 20
345.4380138017432
 30
0.0
 10
454.2322426035642
 20
345.394441970822
 30
0.0
 10
454.2228243374199
 20
345.3587534784656
 30
0.0
 10
454.2223419568944
 20
345.3569256012932
 30
0.0
  0
SPLINE
  5
235
330
1F
100
AcDbEntity
  8
0
  6
SLD-Durchgehend
 62
   250
420
  1644836
370
    18
100
AcDbSpline
210
0.0
220
0.0
230
1.0
 70
     8
 71
     3
 72
    13
 73
     9
 74
     0
 42
0.000000001
 43
0.00000001
 40
0.0
 40
0.0
 40
0.0
 40
0.0
 40
0.1125925857895364
 40
0.3057553163490971
 40
0.4989156192361303
 40
0.6198166941510466
 40
0.8129587837646612
 40
0.9999999999999999
 40
0.9999999999999999
 40
0.9999999999999999
 40
0.9999999999999999
 10
394.1455578496207
 20
346.9205088750504
 30
0.0
 10
394.1782160347942
 20
346.9185923717486
 30
0.0
 10
394.2669022805981
 20
346.9133879342692
 30
0.0
 10
394.4046605823323
 20
346.8588376626324
 30
0.0
 10
394.5192313092103
 20
346.762454560238
 30
0.0
 10
394.6015361573239
 20
346.6399922147708
 30
0.0
 10
394.6512214730116
 20
346.4989330859544
 30
0.0
 10
394.6423469681366
 20
346.3881751013572
 30
0.0
 10
394.6379809211276
 20
346.3336847862168
 30
0.0
  0
SPLINE
  5
236
330
1F
100
AcDbEntity
  8
0
  6
SLD-Durchgehend
 62
   250
420
  1644836
370
    18
100
AcDbSpline
210
0.0
220
0.0
230
1.0
 70
     8
 71
     3
 72
    12
 73
     8
 74
     0
 42
0.000000001
 43
0.00000001
 40
0.0
 40
0.0
 40
0.0
 40
0.0
 40
0.1594995302753407
 40
0.4170454155282027
 40
0.6745876117870367
 40
0.9321219869321207
 40
1.0
 40
1.0
 40
1.0
 40
1.0
 10
393.000700337165
 20
338.42050887505
 30
0.0
 10
392.965999964473
 20
338.422663907515
 30
0.0
 10
392.8752684662464
 20
338.4282986978378
 30
0.0
 10
392.7360809110663
 20
338.4854734851228
 30
0.0
 10
392.6072528533256
 20
338.5968915134496
 30
0.0
 10
392.5421126543096
 20
338.709179025261
 30
0.0
 10
392.5219304327098
 20
338.7769607184904
 30
0.0
 10
392.5177206080348
 20
338.791099352499
 30
0.0
  0
SPLINE
  5
237
330
1F
100
AcDbEntity
  8
0
  6
SLD-Durchgehend
 62
   250
420
  1644836
370
    18
100
AcDbSpline
210
0.0
220
0.0
230
1.0
 70
     8
 71
     3
 72
     9
 73
     5
 74
     0
 42
0.000000001
 43
0.00000001
 40
0.0
 40
0.0
 40
0.0
 40
0.0
 40
0.9312472943848094
 40
1.0
 40
1.0
 40
1.0
 40
1.0
 10
390.7583558393932
 20
345.3569256012924
 30
0.0
 10
390.7502411479434
 20
345.3968856291966
 30
0.0
 10
390.7415273599962
 20
345.4397958509446
 30
0.0
 10
390.7413316852642
 20
345.4833412592088
 30
0.0
 10
390.7413182320968
 20
345.486335123844
 30
0.0
  0
SPLINE
  5
238
330
1F
100
AcDbEntity
  8
0
  6
SLD-Durchgehend
 62
   250
420
  1644836
370
    18
100
AcDbSpline
210
0.0
220
0.0
230
1.0
 70
     8
 71
     3
 72
    11
 73
     7
 74
     0
 42
0.000000001
 43
0.00000001
 40
0.0
 40
0.0
 40
0.0
 40
0.0
 40
0.2473691264480167
 40
0.5233110959967354
 40
0.7992617349587983
 40
0.9999999999999999
 40
0.9999999999999999
 40
0.9999999999999999
 40
0.9999999999999999
 10
448.4931013811182
 20
377.0643983806357
 30
0.0
 10
448.4716949050796
 20
377.0185709223612
 30
0.0
 10
448.4264093571294
 20
376.9216226177746
 30
0.0
 10
448.3028661700106
 20
376.8105779044578
 30
0.0
 10
448.1610040539344
 20
376.7453362893788
 30
0.0
 10
448.0640581435522
 20
376.7383503136265
 30
0.0
 10
448.0232332917682
 20
376.7354084522984
 30
0.0
  0
SPLINE
  5
239
330
1F
100
AcDbEntity
  8
0
  6
SLD-Durchgehend
 62
   250
420
  1644836
370
    18
100
AcDbSpline
210
0.0
220
0.0
230
1.0
 70
     8
 71
     3
 72
    12
 73
     8
 74
     0
 42
0.000000001
 43
0.00000001
 40
0.0
 40
0.0
 40
0.0
 40
0.0
 40
0.0760048344171683
 40
0.3519601639585338
 40
0.6279129289343811
 40
0.9038560563388005
 40
1.0
 40
1.0
 40
1.0
 40
1.0
 10
396.957464504519
 20
376.7354084522984
 30
0.0
 10
396.9420530338975
 20
376.7358518135778
 30
0.0
 10
396.8706862087677
 20
376.7379049133554
 30
0.0
 10
396.7448859071804
 20
376.7724882658248
 30
0.0
 10
396.6040972054626
 20
376.86858372258
 30
0.0
 10
396.5232864973278
 20
376.9763367004383
 30
0.0
 10
396.4949248174759
 20
377.0463162866406
 30
0.0
 10
396.4875964151692
 20
377.0643983806357
 30
0.0
  0
SPLINE
  5
23A
330
1F
100
AcDbEntity
  8
0
  6
SLD-Durchgehend
 62
   250
420
  1644836
370
    18
100
AcDbSpline
210
0.0
220
0.0
230
1.0
 70
     8
 71
     3
 72
    13
 73
     9
 74
     0
 42
0.000000001
 43
0.00000001
 40
0.0
 40
0.0
 40
0.0
 40
0.0
 40
0.170398757206309
 40
0.373791639020788
 40
0.5771874644110978
 40
0.780592125524631
 40
0.9840066467283494
 40
1.0
 40
1.0
 40
1.0
 40
1.0
 10
447.0366520427196
 20
384.1918305809246
 30
0.0
 10
447.0364357023366
 20
384.2390140612374
 30
0.0
 10
447.0359611318196
 20
384.3425171074452
 30
0.0
 10
447.0962988044382
 20
384.4940980741672
 30
0.0
 10
447.2059039079618
 20
384.6247893983974
 30
0.0
 10
447.3533957505848
 20
384.7115401107558
 30
0.0
 10
447.4700184424461
 20
384.7348555542478
 30
0.0
 10
447.5303747590498
 20
384.7353708879494
 30
0.0
 10
447.5347743271871
 20
384.7354084522984
 30
0.0
  0
SPLINE
  5
23B
330
1F
100
AcDbEntity
  8
0
  6
SLD-Durchgehend
 62
   250
420
  1644836
370
    18
100
AcDbSpline
210
0.0
220
0.0
230
1.0
 70
     8
 71
     3
 72
    12
 73
     8
 74
     0
 42
0.000000001
 43
0.00000001
 40
0.0
 40
0.0
 40
0.0
 40
0.0
 40
0.1876699068008878
 40
0.3911262797385132
 40
0.5945773507380334
 40
0.7980189418454507
 40
1.0
 40
1.0
 40
1.0
 40
1.0
 10
397.4459234691004
 20
384.7354084522984
 30
0.0
 10
397.4977328501566
 20
384.7306981496762
 30
0.0
 10
397.6057097272892
 20
384.7208813219682
 30
0.0
 10
397.7538570802383
 20
384.6409013526654
 30
0.0
 10
397.8700866900216
 20
384.5170512735208
 30
0.0
 10
397.942348758356
 20
384.360432071589
 30
0.0
 10
397.9434814486674
 20
384.2478959408738
 30
0.0
 10
397.9440457535678
 20
384.1918305809246
 30
0.0
  0
HATCH
  5
23C
330
1F
100
AcDbEntity
  8
0
 62
   250
420
  1644836
100
AcDbHatch
 10
0.0
 20
0.0
 30
0.0
210
0.0
220
0.0
230
1.0
  2
ANSI31
 70
     0
 71
     0
 91
        1
 92
        0
 93
        4
 72
     1
 10
304.4184008922662
 20
407.777097302556
 11
302.2684008922662
 21
407.777097302556
 72
     1
 10
302.2684008922662
 20
407.777097302556
 11
302.2684008922662
 21
406.777097302556
 72
     1
 10
302.2684008922662
 20
406.777097302556
 11
304.4184008922662
 21
406.777097302556
 72
     1
 10
304.4184008922662
 20
406.777097302556
 11
304.4184008922662
 21
407.777097302556
 97
        0
 75
     0
 76
     1
 52
0.0
 41
2.0
 77
     0
 78
     1
 53
45.0
 43
0.0
 44
0.0
 45
-4.490128060534577
 46
4.490128060534577
 79
     0
 98
        1
 10
0.0
 20
0.0
  0
HATCH
  5
23D
330
1F
100
AcDbEntity
  8
0
 62
   250
420
  1644836
100
AcDbHatch
 10
0.0
 20
0.0
 30
0.0
210
0.0
220
0.0
230
1.0
  2
ANSI31
 70
     0
 71
     0
 91
        1
 92
        0
 93
        4
 72
     1
 10
259.9184008922662
 20
406.777097302556
 11
262.0684008922662
 21
406.777097302556
 72
     1
 10
262.0684008922662
 20
406.777097302556
 11
262.0684008922662
 21
407.777097302556
 72
     1
 10
262.0684008922662
 20
407.777097302556
 11
259.9184008922662
 21
407.777097302556
 72
     1
 10
259.9184008922662
 20
407.777097302556
 11
259.9184008922662
 21
406.777097302556
 97
        0
 75
     0
 76
     1
 52
0.0
 41
2.0
 77
     0
 78
     1
 53
45.0
 43
0.0
 44
0.0
 45
-4.490128060534577
 46
4.490128060534577
 79
     0
 98
        1
 10
0.0
 20
0.0
  0
HATCH
  5
23E
330
1F
100
AcDbEntity
  8
0
 62
   250
420
  1644836
100
AcDbHatch
 10
0.0
 20
0.0
 30
0.0
210
0.0
220
0.0
230
1.0
  2
ANSI31
 70
     0
 71
     0
 91
        1
 92
        0
 93
        4
 72
     1
 10
253.9184008922662
 20
383.7354084522984
 11
257.1684008922662
 21
383.7354084522984
 72
     1
 10
257.1684008922662
 20
383.7354084522984
 11
257.1684008922662
 21
384.7354084522984
 72
     1
 10
257.1684008922662
 20
384.7354084522984
 11
253.9184008922662
 21
384.7354084522984
 72
     1
 10
253.9184008922662
 20
384.7354084522984
 11
253.9184008922662
 21
383.7354084522984
 97
        0
 75
     0
 76
     1
 52
0.0
 41
2.0
 77
     0
 78
     1
 53
45.0
 43
0.0
 44
0.0
 45
-4.490128060534577
 46
4.490128060534577
 79
     0
 98
        1
 10
0.0
 20
0.0
  0
HATCH
  5
23F
330
1F
100
AcDbEntity
  8
0
 62
   250
420
  1644836
100
AcDbHatch
 10
0.0
 20
0.0
 30
0.0
210
0.0
220
0.0
230
1.0
  2
ANSI31
 70
     0
 71
     0
 91
        1
 92
        0
 93
        4
 72
     1
 10
310.4184008922662
 20
384.7354084522984
 11
307.1684008922662
 21
384.7354084522984
 72
     1
 10
307.1684008922662
 20
384.7354084522984
 11
307.1684008922662
 21
383.7354084522984
 72
     1
 10
307.1684008922662
 20
383.7354084522984
 11
310.4184008922662
 21
383.7354084522984
 72
     1
 10
310.4184008922662
 20
383.7354084522984
 11
310.4184008922662
 21
384.7354084522984
 97
        0
 75
     0
 76
     1
 52
0.0
 41
2.0
 77
     0
 78
     1
 53
45.0
 43
0.0
 44
0.0
 45
-4.490128060534577
 46
4.490128060534577
 79
     0
 98
        1
 10
0.0
 20
0.0
  0
HATCH
  5
240
330
1F
100
AcDbEntity
  8
0
 62
   250
420
  1644836
100
AcDbHatch
 10
0.0
 20
0.0
 30
0.0
210
0.0
220
0.0
230
1.0
  2
ANSI31
 70
     0
 71
     0
 91
        1
 92
        0
 93
        4
 72
     1
 10
335.3117783959416
 20
382.7354084522984
 11
340.3341817421802
 21
382.7354084522984
 72
     1
 10
340.3341817421802
 20
382.7354084522984
 11
340.3341817421802
 21
384.7354084522984
 72
     1
 10
340.3341817421802
 20
384.7354084522984
 11
335.3117783959416
 21
384.7354084522984
 72
     1
 10
335.3117783959416
 20
384.7354084522984
 11
335.3117783959416
 21
382.7354084522984
 97
        0
 75
     0
 76
     1
 52
0.0
 41
2.0
 77
     0
 78
     1
 53
45.0
 43
0.0
 44
0.0
 45
-4.490128060534577
 46
4.490128060534577
 79
     0
 98
        1
 10
0.0
 20
0.0
  0
HATCH
  5
241
330
1F
100
AcDbEntity
  8
0
 62
   250
420
  1644836
100
AcDbHatch
 10
0.0
 20
0.0
 30
0.0
210
0.0
220
0.0
230
1.0
  2
ANSI31
 70
     0
 71
     0
 91
        1
 92
        0
 93
        4
 72
     1
 10
374.182518540401
 20
384.7354084522984
 11
369.1601151941622
 21
384.7354084522984
 72
     1
 10
369.1601151941622
 20
384.7354084522984
 11
369.1601151941622
 21
382.7354084522984
 72
     1
 10
369.1601151941622
 20
382.7354084522984
 11
374.182518540401
 21
382.7354084522984
 72
     1
 10
374.182518540401
 20
382.7354084522984
 11
374.182518540401
 21
384.7354084522984
 97
        0
 75
     0
 76
     1
 52
0.0
 41
2.0
 77
     0
 78
     1
 53
45.0
 43
0.0
 44
0.0
 45
-4.490128060534577
 46
4.490128060534577
 79
     0
 98
        1
 10
0.0
 20
0.0
  0
HATCH
  5
242
330
1F
100
AcDbEntity
  8
0
 62
   250
420
  1644836
100
AcDbHatch
 10
0.0
 20
0.0
 30
0.0
210
0.0
220
0.0
230
1.0
  2
ANSI31
 70
     0
 71
     0
 91
        1
 92
        0
 93
        4
 72
     1
 10
365.6321661459026
 20
405.777097302556
 11
368.6569870669663
 21
405.777097302556
 72
     1
 10
368.6569870669663
 20
405.777097302556
 11
368.6569870669663
 21
407.777097302556
 72
     1
 10
368.6569870669663
 20
407.777097302556
 11
365.6321661459026
 21
407.777097302556
 72
     1
 10
365.6321661459026
 20
407.777097302556
 11
365.6321661459026
 21
405.777097302556
 97
        0
 75
     0
 76
     1
 52
0.0
 41
2.0
 77
     0
 78
     1
 53
45.0
 43
0.0
 44
0.0
 45
-4.490128060534577
 46
4.490128060534577
 79
     0
 98
        1
 10
0.0
 20
0.0
  0
HATCH
  5
243
330
1F
100
AcDbEntity
  8
0
 62
   250
420
  1644836
100
AcDbHatch
 10
0.0
 20
0.0
 30
0.0
210
0.0
220
0.0
230
1.0
  2
ANSI31
 70
     0
 71
     0
 91
        1
 92
        0
 93
        4
 72
     1
 10
343.8621307904401
 20
407.777097302556
 11
340.8373098693764
 21
407.777097302556
 72
     1
 10
340.8373098693764
 20
407.777097302556
 11
340.8373098693764
 21
405.777097302556
 72
     1
 10
340.8373098693764
 20
405.777097302556
 11
343.8621307904401
 21
405.777097302556
 72
     1
 10
343.8621307904401
 20
405.777097302556
 11
343.8621307904401
 21
407.777097302556
 97
        0
 75
     0
 76
     1
 52
0.0
 41
2.0
 77
     0
 78
     1
 53
45.0
 43
0.0
 44
0.0
 45
-4.490128060534577
 46
4.490128060534577
 79
     0
 98
        1
 10
0.0
 20
0.0
  0
HATCH
  5
244
330
1F
100
AcDbEntity
  8
0
 62
   250
420
  1644836
100
AcDbHatch
 10
0.0
 20
0.0
 30
0.0
210
0.0
220
0.0
230
1.0
  2
ANSI31
 70
     0
 71
     0
 91
        1
 92
        0
 93
        4
 72
     1
 10
332.3031379120224
 20
344.9205088750501
 11
337.3191936299086
 21
344.9205088750501
 72
     1
 10
337.3191936299086
 20
344.9205088750501
 11
337.3191936299086
 21
346.9205088750501
 72
     1
 10
337.3191936299086
 20
346.9205088750501
 11
332.3031379120224
 21
346.9205088750501
 72
     1
 10
332.3031379120224
 20
346.9205088750501
 11
332.3031379120224
 21
344.9205088750501
 97
        0
 75
     0
 76
     1
 52
0.0
 41
2.0
 77
     0
 78
     1
 53
45.0
 43
0.0
 44
0.0
 45
-4.490128060534577
 46
4.490128060534577
 79
     0
 98
        1
 10
0.0
 20
0.0
  0
HATCH
  5
245
330
1F
100
AcDbEntity
  8
0
 62
   250
420
  1644836
100
AcDbHatch
 10
0.0
 20
0.0
 30
0.0
210
0.0
220
0.0
230
1.0
  2
ANSI31
 70
     0
 71
     0
 91
        1
 92
        0
 93
        4
 72
     1
 10
377.1911590243202
 20
346.9205088750501
 11
372.175103306434
 21
346.9205088750501
 72
     1
 10
372.175103306434
 20
346.9205088750501
 11
372.175103306434
 21
344.9205088750501
 72
     1
 10
372.175103306434
 20
344.9205088750501
 11
377.1911590243202
 21
344.9205088750501
 72
     1
 10
377.1911590243202
 20
344.9205088750501
 11
377.1911590243202
 21
346.9205088750501
 97
        0
 75
     0
 76
     1
 52
0.0
 41
2.0
 77
     0
 78
     1
 53
45.0
 43
0.0
 44
0.0
 45
-4.490128060534577
 46
4.490128060534577
 79
     0
 98
        1
 10
0.0
 20
0.0
  0
HATCH
  5
246
330
1F
100
AcDbEntity
  8
0
 62
   250
420
  1644836
100
AcDbHatch
 10
0.0
 20
0.0
 30
0.0
210
0.0
220
0.0
230
1.0
  2
ANSI34
 70
     0
 71
     0
 91
        1
 92
        0
 93
        8
 72
     4
 94
        3
 73
     1
 74
     0
 95
       20
 96
       16
 40
0.0000175778395319
 40
0.0000175778395319
 40
0.0000175778395319
 40
0.0000175778395319
 40
0.0000760662465968
 40
0.0000760662465968
 40
0.0000760662465968
 40
0.000245884219254
 40
0.000245884219254
 40
0.000245884219254
 40
0.0004157081450222
 40
0.0004157081450222
 40
0.0004157081450222
 40
0.0005855335766515
 40
0.0005855335766515
 40
0.0005855335766515
 40
0.0006319575268266
 40
0.0006319575268266
 40
0.0006319575268266
 40
0.0006319575268266
 10
396.4875964151692
 20
377.0643983806357
 42
1.0
 10
396.4942657883164
 20
377.0460752625028
 42
1.0
 10
396.502022103221
 20
377.0281123628476
 42
1.0
 10
396.5107859225928
 20
377.0106936181656
 42
1.0
 10
396.5359389965502
 20
376.9607000075442
 42
1.0
 10
396.5700710345682
 20
376.9143599405184
 42
1.0
 10
396.6103549750216
 20
376.8755109717546
 42
1.0
 10
396.6506403224292
 20
376.8366606461543
 42
1.0
 10
396.6981892076216
 20
376.8042302733758
 42
1.0
 10
396.7490635844738
 20
376.7809052911696
 42
1.0
 10
396.7999384341268
 20
376.757580092193
 42
1.0
 10
396.8555420971818
 20
376.7427170438504
 42
1.0
 10
396.91126985948
 20
376.7375467688328
 42
1.0
 10
396.9266186456512
 20
376.7361227488752
 42
1.0
 10
396.9420498014806
 20
376.7354084522984
 42
1.0
 10
396.957464504519
 20
376.7354084522984
 42
1.0
 97
        0
 72
     1
 10
396.957464504519
 20
376.7354084522984
 11
397.2916608891328
 21
376.7354084522984
 72
     4
 94
        3
 73
     1
 74
     0
 95
        8
 96
        4
 40
0.0000002007640414
 40
0.0000002007640414
 40
0.0000002007640414
 40
0.0000002007640414
 40
0.0074851080427998
 40
0.0074851080427998
 40
0.0074851080427998
 40
0.0074851080427998
 10
397.2916608891328
 20
376.7354084522984
 42
1.0
 10
397.5091222326399
 20
379.2208825194942
 42
1.0
 10
397.7265838467302
 20
381.7063565630161
 42
1.0
 10
397.9440457535678
 20
384.1918305809246
 42
1.0
 97
        0
 72
     4
 94
        3
 73
     1
 74
     0
 95
       20
 96
       16
 40
0.000027560688045
 40
0.000027560688045
 40
0.000027560688045
 40
0.000027560688045
 40
0.0001965860786237
 40
0.0001965860786237
 40
0.0001965860786237
 40
0.0003668339726619
 40
0.0003668339726619
 40
0.0003668339726619
 40
0.0005370898759638
 40
0.0005370898759638
 40
0.0005370898759638
 40
0.0007073501881472
 40
0.0007073501881472
 40
0.0007073501881472
 40
0.0008643859772903
 40
0.0008643859772903
 40
0.0008643859772903
 40
0.0008643859772903
 10
397.9440457535678
 20
384.1918305809246
 42
1.0
 10
397.9488884936892
 20
384.2471805266808
 42
1.0
 10
397.9443124709114
 20
384.30411303891
 42
1.0
 10
397.9306914422156
 20
384.3579789483927
 42
1.0
 10
397.916971919327
 20
384.412234364379
 42
1.0
 10
397.893695268169
 20
384.464869178143
 42
1.0
 10
397.8627895338095
 20
384.5115244142462
 42
1.0
 10
397.8318823593162
 20
384.5581818243718
 42
1.0
 10
397.792492862867
 20
384.6001461263568
 42
1.0
 10
397.7478835466302
 20
384.6339422246474
 42
1.0
 10
397.703273067874
 20
384.6677392036651
 42
1.0
 10
397.6522119961902
 20
384.6942998339816
 42
1.0
 10
397.5989291151232
 20
384.7114248213038
 42
1.0
 10
397.5497805277406
 20
384.7272210567734
 42
1.0
 10
397.4975481211256
 20
384.7354084522984
 42
1.0
 10
397.4459234691004
 20
384.7354084522984
 42
1.0
 97
        0
 72
     1
 10
397.4459234691004
 20
384.7354084522984
 11
394.2414383309451
 21
384.7354084522984
 72
     1
 10
394.2414383309451
 20
384.7354084522984
 11
394.2414383309451
 21
383.3235719426527
 72
     4
 94
        3
 73
     1
 74
     0
 95
        8
 96
        4
 40
0.0000086033071236
 40
0.0000086033071236
 40
0.0000086033071236
 40
0.0000086033071236
 40
0.0001822516563622
 40
0.0001822516563622
 40
0.0001822516563622
 40
0.0001822516563622
 10
394.2414383309451
 20
383.3235719426527
 42
1.0
 10
394.2414383309451
 20
383.2656891493791
 42
1.0
 10
394.2517954278244
 20
383.2069536587926
 42
1.0
 10
394.2715931846862
 20
383.1525618709898
 42
1.0
 97
        0
 72
     4
 94
        3
 73
     1
 74
     0
 95
        8
 96
        4
 40
0.0000002128365167
 40
0.0000002128365167
 40
0.0000002128365167
 40
0.0000002128365167
 40
0.0064791328856293
 40
0.0064791328856293
 40
0.0064791328856293
 40
0.0064791328856293
 10
394.2715931846862
 20
383.1525618709898
 42
1.0
 10
395.010258780023
 20
381.1231732589748
 42
1.0
 10
395.74892634045
 20
379.09378536222
 42
1.0
 10
396.4875964151692
 20
377.0643983806357
 42
1.0
 97
        0
 97
        0
 75
     0
 76
     1
 52
0.0
 41
2.0
 77
     0
 78
     4
 53
45.0
 43
0.0
 44
0.0
 45
-26.94076836320746
 46
26.94076836320746
 79
     0
 53
45.0
 43
8.98026
 44
0.0
 45
-26.94076836320746
 46
26.94076836320746
 79
     0
 53
45.0
 43
17.96052
 44
0.0
 45
-26.94076836320746
 46
26.94076836320746
 79
     0
 53
45.0
 43
26.9408
 44
0.0
 45
-26.94076836320746
 46
26.94076836320746
 79
     0
 98
        1
 10
0.0
 20
0.0
  0
HATCH
  5
247
330
1F
100
AcDbEntity
  8
0
 62
   250
420
  1644836
100
AcDbHatch
 10
0.0
 20
0.0
 30
0.0
210
0.0
220
0.0
230
1.0
  2
ANSI34
 70
     0
 71
     0
 91
        1
 92
        0
 93
        8
 72
     4
 94
        3
 73
     1
 74
     0
 95
        8
 96
        4
 40
0.000009187800778
 40
0.000009187800778
 40
0.000009187800778
 40
0.000009187800778
 40
0.0001828361500166
 40
0.0001828361500166
 40
0.0001828361500166
 40
0.0001828361500166
 10
450.7091046116012
 20
383.1525618709898
 42
1.0
 10
450.728902368463
 20
383.2069536587926
 42
1.0
 10
450.7392594653425
 20
383.2656891493791
 42
1.0
 10
450.7392594653425
 20
383.3235719426527
 42
1.0
 97
        0
 72
     1
 10
450.7392594653425
 20
383.3235719426527
 11
450.7392594653425
 21
384.7354084522984
 72
     1
 10
450.7392594653425
 20
384.7354084522984
 11
447.5347743271871
 21
384.7354084522984
 72
     4
 94
        3
 73
     1
 74
     0
 95
       23
 96
       19
 40
0.0008643852442427
 40
0.0008643852442427
 40
0.0008643852442427
 40
0.0008643852442427
 40
0.0008776099090517
 40
0.0008776099090517
 40
0.0008776099090517
 40
0.0010478640144381
 40
0.0010478640144381
 40
0.0010478640144381
 40
0.0012181097314554
 40
0.0012181097314554
 40
0.0012181097314554
 40
0.0013883479999348
 40
0.0013883479999348
 40
0.0013883479999348
 40
0.001558583879906
 40
0.001558583879906
 40
0.001558583879906
 40
0.001701150194763
 40
0.001701150194763
 40
0.001701150194763
 40
0.001701150194763
 10
447.5347743271871
 20
384.7354084522984
 42
1.0
 10
447.5303740886504
 20
384.7354084522984
 42
1.0
 10
447.5259734668486
 20
384.735350361582
 42
1.0
 10
447.5215747615724
 20
384.7352342105108
 42
1.0
 10
447.4656289875674
 20
384.733756920906
 42
1.0
 10
447.4091667670326
 20
384.7226005449269
 42
1.0
 10
447.3568634981116
 20
384.702688737531
 42
1.0
 10
447.3045627644814
 20
384.6827778953178
 42
1.0
 10
447.2549781945498
 20
384.6535633456396
 42
1.0
 10
447.2122157075552
 20
384.6174637877209
 42
1.0
 10
447.1694550781264
 20
384.5813657979356
 42
1.0
 10
447.1323366994198
 20
384.5373878556796
 42
1.0
 10
447.1039344371832
 20
384.4891711801872
 42
1.0
 10
447.0755325859886
 20
384.4409552024942
 42
1.0
 10
447.0550633369832
 20
384.3871708349919
 42
1.0
 10
447.0442219970523
 20
384.332271736596
 42
1.0
 10
447.0351393249637
 20
384.2862782974208
 42
1.0
 10
447.0325658284639
 20
384.2385338381183
 42
1.0
 10
447.0366520427196
 20
384.1918305809246
 42
1.0
 97
        0
 72
     4
 94
        3
 73
     1
 74
     0
 95
        8
 96
        4
 40
0.0000002007640454
 40
0.0000002007640454
 40
0.0000002007640454
 40
0.0000002007640454
 40
0.0074851080428038
 40
0.0074851080428038
 40
0.0074851080428038
 40
0.0074851080428038
 10
447.0366520427196
 20
384.1918305809246
 42
1.0
 10
447.254113949557
 20
381.7063565630161
 42
1.0
 10
447.4715755636477
 20
379.2208825194942
 42
1.0
 10
447.6890369071546
 20
376.7354084522984
 42
1.0
 97
        0
 72
     1
 10
447.6890369071546
 20
376.7354084522984
 11
448.0232332917682
 21
376.7354084522984
 72
     4
 94
        3
 73
     1
 74
     0
 95
       17
 96
       13
 40
0.0006319581132945
 40
0.0006319581132945
 40
0.0006319581132945
 40
0.0006319581132945
 40
0.0007553558468332
 40
0.0007553558468332
 40
0.0007553558468332
 40
0.0009251695975461
 40
0.0009251695975461
 40
0.0009251695975461
 40
0.0010949779988729
 40
0.0010949779988729
 40
0.0010949779988729
 40
0.0012471798563337
 40
0.0012471798563337
 40
0.0012471798563337
 40
0.0012471798563337
 10
448.0232332917682
 20
376.7354084522984
 42
1.0
 10
448.063943409752
 20
376.7354084522984
 42
1.0
 10
448.1049536670962
 20
376.7404543362404
 42
1.0
 10
448.1444495561604
 20
376.7503228950642
 42
1.0
 10
448.1987437178712
 20
376.7638889937476
 42
1.0
 10
448.251444533471
 20
376.78701554733
 42
1.0
 10
448.298188066448
 20
376.8177878913126
 42
1.0
 10
448.3449301309052
 20
376.8485592685348
 42
1.0
 10
448.3870043644899
 20
376.887824623168
 42
1.0
 10
448.4209265205034
 20
376.9323328873136
 42
1.0
 10
448.4513361537826
 20
376.9722324735904
 42
1.0
 10
448.4759425843959
 20
377.017257119767
 42
1.0
 10
448.4931013811182
 20
377.0643983806357
 42
1.0
 97
        0
 72
     4
 94
        3
 73
     1
 74
     0
 95
        8
 96
        4
 40
0.0000002128366877
 40
0.0000002128366877
 40
0.0000002128366877
 40
0.0000002128366877
 40
0.0064791328858003
 40
0.0064791328858003
 40
0.0064791328858003
 40
0.0064791328858003
 10
448.4931013811182
 20
377.0643983806357
 42
1.0
 10
449.2317714558374
 20
379.09378536222
 42
1.0
 10
449.9704390162644
 20
381.1231732589748
 42
1.0
 10
450.7091046116012
 20
383.1525618709898
 42
1.0
 97
        0
 97
        0
 75
     0
 76
     1
 52
0.0
 41
2.0
 77
     0
 78
     4
 53
45.0
 43
0.0
 44
0.0
 45
-26.94076836320746
 46
26.94076836320746
 79
     0
 53
45.0
 43
8.98026
 44
0.0
 45
-26.94076836320746
 46
26.94076836320746
 79
     0
 53
45.0
 43
17.96052
 44
0.0
 45
-26.94076836320746
 46
26.94076836320746
 79
     0
 53
45.0
 43
26.9408
 44
0.0
 45
-26.94076836320746
 46
26.94076836320746
 79
     0
 98
        1
 10
0.0
 20
0.0
  0
HATCH
  5
248
330
1F
100
AcDbEntity
  8
0
 62
   250
420
  1644836
100
AcDbHatch
 10
0.0
 20
0.0
 30
0.0
210
0.0
220
0.0
230
1.0
  2
ANSI31
 70
     0
 71
     0
 91
        1
 92
        0
 93
        4
 72
     1
 10
249.7184008922662
 20
345.9205088750501
 11
252.9184008922662
 21
345.9205088750501
 72
     1
 10
252.9184008922662
 20
345.9205088750501
 11
252.9184008922662
 21
346.9205088750501
 72
     1
 10
252.9184008922662
 20
346.9205088750501
 11
249.7184008922662
 21
346.9205088750501
 72
     1
 10
249.7184008922662
 20
346.9205088750501
 11
249.7184008922662
 21
345.9205088750501
 97
        0
 75
     0
 76
     1
 52
0.0
 41
2.0
 77
     0
 78
     1
 53
45.0
 43
0.0
 44
0.0
 45
-4.490128060534577
 46
4.490128060534577
 79
     0
 98
        1
 10
0.0
 20
0.0
  0
HATCH
  5
249
330
1F
100
AcDbEntity
  8
0
 62
   250
420
  1644836
100
AcDbHatch
 10
0.0
 20
0.0
 30
0.0
210
0.0
220
0.0
230
1.0
  2
ANSI31
 70
     0
 71
     0
 91
        1
 92
        0
 93
        4
 72
     1
 10
314.6184008922662
 20
346.9205088750501
 11
311.4184008922662
 21
346.9205088750501
 72
     1
 10
311.4184008922662
 20
346.9205088750501
 11
311.4184008922662
 21
345.9205088750501
 72
     1
 10
311.4184008922662
 20
345.9205088750501
 11
314.6184008922662
 21
345.9205088750501
 72
     1
 10
314.6184008922662
 20
345.9205088750501
 11
314.6184008922662
 21
346.9205088750501
 97
        0
 75
     0
 76
     1
 52
0.0
 41
2.0
 77
     0
 78
     1
 53
45.0
 43
0.0
 44
0.0
 45
-4.490128060534577
 46
4.490128060534577
 79
     0
 98
        1
 10
0.0
 20
0.0
  0
HATCH
  5
24A
330
1F
100
AcDbEntity
  8
0
 62
   250
420
  1644836
100
AcDbHatch
 10
0.0
 20
0.0
 30
0.0
210
0.0
220
0.0
230
1.0
  2
ANSI31
 70
     0
 71
     0
 91
        1
 92
        0
 93
        4
 72
     4
 94
        3
 73
     1
 74
     0
 95
       11
 96
        7
 40
0.0252510609477513
 40
0.0252510609477513
 40
0.0252510609477513
 40
0.0252510609477513
 40
0.0298247787951829
 40
0.0298247787951829
 40
0.0298247787951829
 40
0.0333297428117076
 40
0.0333297428117076
 40
0.0333297428117076
 40
0.0333297428117076
 10
479.169910255453
 20
407.777097302556
 42
1.0
 10
479.38216602787
 20
406.267372444136
 42
1.0
 10
479.594424552662
 20
404.7576479726754
 42
1.0
 10
479.8066861515196
 20
403.2479239334198
 42
1.0
 10
479.9693479708308
 20
402.090981461465
 42
1.0
 10
480.132011596189
 20
400.934039243432
 42
1.0
 10
480.2946771927876
 20
399.777097302556
 42
1.0
 97
        0
 72
     1
 10
480.2946771927876
 20
399.777097302556
 11
480.7948928701724
 21
399.777097302556
 72
     1
 10
480.7948928701724
 20
399.777097302556
 11
480.7948928701724
 21
407.777097302556
 72
     1
 10
480.7948928701724
 20
407.777097302556
 11
479.169910255453
 21
407.777097302556
 97
        0
 75
     0
 76
     1
 52
0.0
 41
2.0
 77
     0
 78
     1
 53
45.0
 43
0.0
 44
0.0
 45
-4.490128060534577
 46
4.490128060534577
 79
     0
 98
        1
 10
0.0
 20
0.0
  0
HATCH
  5
24B
330
1F
100
AcDbEntity
  8
0
 62
   250
420
  1644836
100
AcDbHatch
 10
0.0
 20
0.0
 30
0.0
210
0.0
220
0.0
230
1.0
  2
ANSI31
 70
     0
 71
     0
 91
        1
 92
        0
 93
        4
 72
     1
 10
514.4056468220696
 20
407.777097302556
 11
512.7806642073504
 21
407.777097302556
 72
     1
 10
512.7806642073504
 20
407.777097302556
 11
512.7806642073504
 21
399.777097302556
 72
     1
 10
512.7806642073504
 20
399.777097302556
 11
513.280879884735
 21
399.777097302556
 72
     4
 94
        3
 73
     1
 74
     0
 95
       11
 96
        7
 40
0.0263198147820378
 40
0.0263198147820378
 40
0.0263198147820378
 40
0.0263198147820378
 40
0.0298247787982889
 40
0.0298247787982889
 40
0.0298247787982889
 40
0.0343984966454676
 40
0.0343984966454676
 40
0.0343984966454676
 40
0.0343984966454676
 10
513.280879884735
 20
399.777097302556
 42
1.0
 10
513.4435454813336
 20
400.934039243432
 42
1.0
 10
513.6062091066918
 20
402.090981461465
 42
1.0
 10
513.7688709260032
 20
403.2479239334198
 42
1.0
 10
513.9811325248608
 20
404.7576479726754
 42
1.0
 10
514.1933910496526
 20
406.267372444136
 42
1.0
 10
514.4056468220696
 20
407.777097302556
 42
1.0
 97
        0
 97
        0
 75
     0
 76
     1
 52
0.0
 41
2.0
 77
     0
 78
     1
 53
45.0
 43
0.0
 44
0.0
 45
-4.490128060534577
 46
4.490128060534577
 79
     0
 98
        1
 10
0.0
 20
0.0
  0
HATCH
  5
24C
330
1F
100
AcDbEntity
  8
0
 62
   250
420
  1644836
100
AcDbHatch
 10
0.0
 20
0.0
 30
0.0
210
0.0
220
0.0
230
1.0
  2
ANSI31
 70
     0
 71
     0
 91
        1
 92
        0
 93
        4
 72
     4
 94
        3
 73
     1
 74
     0
 95
       11
 96
        7
 40
0.0313494651151858
 40
0.0313494651151858
 40
0.0313494651151858
 40
0.0313494651151858
 40
0.0370625138713189
 40
0.0370625138713189
 40
0.0370625138713189
 40
0.0414477904342726
 40
0.0414477904342726
 40
0.0414477904342726
 40
0.0414477904342726
 10
474.8875660544401
 20
384.7354084522984
 42
1.0
 10
475.1526619530234
 20
382.8496005331302
 42
1.0
 10
475.4177600873305
 20
380.9637929282452
 42
1.0
 10
475.6828607200004
 20
379.0779856745735
 42
1.0
 10
475.8863491971501
 20
377.6304597204372
 42
1.0
 10
476.0898391469556
 20
376.1829339733214
 42
1.0
 10
476.2933307050538
 20
374.7354084522984
 42
1.0
 97
        0
 72
     1
 10
476.2933307050538
 20
374.7354084522984
 11
476.793469548237
 21
374.7354084522984
 72
     1
 10
476.793469548237
 20
374.7354084522984
 11
476.793469548237
 21
384.7354084522984
 72
     1
 10
476.793469548237
 20
384.7354084522984
 11
474.8875660544401
 21
384.7354084522984
 97
        0
 75
     0
 76
     1
 52
0.0
 41
2.0
 77
     0
 78
     1
 53
45.0
 43
0.0
 44
0.0
 45
-4.490128060534577
 46
4.490128060534577
 79
     0
 98
        1
 10
0.0
 20
0.0
  0
HATCH
  5
24D
330
1F
100
AcDbEntity
  8
0
 62
   250
420
  1644836
100
AcDbHatch
 10
0.0
 20
0.0
 30
0.0
210
0.0
220
0.0
230
1.0
  2
ANSI31
 70
     0
 71
     0
 91
        1
 92
        0
 93
        4
 72
     1
 10
518.6879910230828
 20
384.7354084522984
 11
516.7820875292861
 21
384.7354084522984
 72
     1
 10
516.7820875292861
 20
384.7354084522984
 11
516.7820875292861
 21
374.7354084522984
 72
     1
 10
516.7820875292861
 20
374.7354084522984
 11
517.282226372469
 21
374.7354084522984
 72
     4
 94
        3
 73
     1
 74
     0
 95
       11
 96
        7
 40
0.0326772373101255
 40
0.0326772373101255
 40
0.0326772373101255
 40
0.0326772373101255
 40
0.0370625138729356
 40
0.0370625138729356
 40
0.0370625138729356
 40
0.0427755626289364
 40
0.0427755626289364
 40
0.0427755626289364
 40
0.0427755626289364
 10
517.282226372469
 20
374.7354084522984
 42
1.0
 10
517.485717930567
 20
376.1829339733214
 42
1.0
 10
517.6892078803726
 20
377.6304597204372
 42
1.0
 10
517.8926963575224
 20
379.0779856745735
 42
1.0
 10
518.1577969901928
 20
380.9637929282452
 42
1.0
 10
518.4228951244994
 20
382.8496005331302
 42
1.0
 10
518.6879910230828
 20
384.7354084522984
 42
1.0
 97
        0
 97
        0
 75
     0
 76
     1
 52
0.0
 41
2.0
 77
     0
 78
     1
 53
45.0
 43
0.0
 44
0.0
 45
-4.490128060534577
 46
4.490128060534577
 79
     0
 98
        1
 10
0.0
 20
0.0
  0
HATCH
  5
24E
330
1F
100
AcDbEntity
  8
0
 62
   250
420
  1644836
100
AcDbHatch
 10
0.0
 20
0.0
 30
0.0
210
0.0
220
0.0
230
1.0
  2
ANSI31
 70
     0
 71
     0
 91
        1
 92
        0
 93
        4
 72
     4
 94
        3
 73
     1
 74
     0
 95
       11
 96
        7
 40
0.0359872807701966
 40
0.0359872807701966
 40
0.0359872807701966
 40
0.0359872807701966
 40
0.0425311567597361
 40
0.0425311567597361
 40
0.0425311567597361
 40
0.0462935132569671
 40
0.0462935132569671
 40
0.0462935132569671
 40
0.0462935132569671
 10
468.7985642096888
 20
346.9205088750501
 42
1.0
 10
469.3263386709594
 20
344.8040285674562
 42
1.0
 10
469.8541171996022
 20
342.6875492741134
 42
1.0
 10
470.381900573921
 20
340.5710711891348
 42
1.0
 10
470.685345995365
 20
339.3542166694136
 42
1.0
 10
470.9887930216884
 20
338.1373625498978
 42
1.0
 10
471.2922418311616
 20
336.92050887505
 42
1.0
 97
        0
 72
     1
 10
471.2922418311616
 20
336.92050887505
 11
471.7923311131088
 21
336.92050887505
 72
     1
 10
471.7923311131088
 20
336.92050887505
 11
471.7923311131088
 21
346.9205088750501
 72
     1
 10
471.7923311131088
 20
346.9205088750501
 11
468.7985642096888
 21
346.9205088750501
 97
        0
 75
     0
 76
     1
 52
0.0
 41
2.0
 77
     0
 78
     1
 53
45.0
 43
0.0
 44
0.0
 45
-4.490128060534577
 46
4.490128060534577
 79
     0
 98
        1
 10
0.0
 20
0.0
  0
HATCH
  5
24F
330
1F
100
AcDbEntity
  8
0
 62
   250
420
  1644836
100
AcDbHatch
 10
0.0
 20
0.0
 30
0.0
210
0.0
220
0.0
230
1.0
  2
ANSI31
 70
     0
 71
     0
 91
        1
 92
        0
 93
        4
 72
     4
 94
        3
 73
     1
 74
     0
 95
       11
 96
        7
 40
0.0387688002735937
 40
0.0387688002735937
 40
0.0387688002735937
 40
0.0387688002735937
 40
0.0425311567700067
 40
0.0425311567700067
 40
0.0425311567700067
 40
0.049075032757966
 40
0.049075032757966
 40
0.049075032757966
 40
0.049075032757966
 10
522.283315246361
 20
336.92050887505
 42
1.0
 10
522.5867640558344
 20
338.1373625498978
 42
1.0
 10
522.8902110821576
 20
339.3542166694136
 42
1.0
 10
523.1936565036016
 20
340.5710711891348
 42
1.0
 10
523.7214398779206
 20
342.6875492741134
 42
1.0
 10
524.2492184065634
 20
344.8040285674562
 42
1.0
 10
524.7769928678338
 20
346.9205088750501
 42
1.0
 97
        0
 72
     1
 10
524.7769928678338
 20
346.9205088750501
 11
521.783225964414
 21
346.9205088750501
 72
     1
 10
521.783225964414
 20
346.9205088750501
 11
521.783225964414
 21
336.92050887505
 72
     1
 10
521.783225964414
 20
336.92050887505
 11
522.283315246361
 21
336.92050887505
 97
        0
 75
     0
 76
     1
 52
0.0
 41
2.0
 77
     0
 78
     1
 53
45.0
 43
0.0
 44
0.0
 45
-4.490128060534577
 46
4.490128060534577
 79
     0
 98
        1
 10
0.0
 20
0.0
  0
HATCH
  5
250
330
1F
100
AcDbEntity
  8
0
 62
   250
420
  1644836
100
AcDbHatch
 10
0.0
 20
0.0
 30
0.0
210
0.0
220
0.0
230
1.0
  2
ANSI31
 70
     0
 71
     0
 91
        1
 92
        0
 93
        4
 72
     4
 94
        3
 73
     1
 74
     0
 95
       11
 96
        7
 40
0.0285458555186926
 40
0.0285458555186926
 40
0.0285458555186926
 40
0.0285458555186926
 40
0.030388762969797
 40
0.030388762969797
 40
0.030388762969797
 40
0.0344469620806187
 40
0.0344469620806187
 40
0.0344469620806187
 40
0.0344469620806187
 10
441.1386986437268
 20
407.777097302556
 42
1.0
 10
441.2977049531964
 20
407.183730185919
 42
1.0
 10
441.4567109271026
 20
406.5903629793598
 42
1.0
 10
441.6157165899424
 20
405.9969956894438
 42
1.0
 10
441.9658571459249
 20
404.6903632772256
 42
1.0
 10
442.3159961966248
 20
403.3837304616334
 42
1.0
 10
442.666133965514
 20
402.077097302556
 42
1.0
 97
        0
 72
     1
 10
442.666133965514
 20
402.077097302556
 11
443.1115461160832
 21
402.077097302556
 72
     4
 94
        3
 73
     1
 74
     0
 95
       11
 96
        7
 40
0.0317552201400401
 40
0.0317552201400401
 40
0.0317552201400401
 40
0.0317552201400401
 40
0.0334704545825327
 40
0.0334704545825327
 40
0.0334704545825327
 40
0.037656321004193
 40
0.037656321004193
 40
0.037656321004193
 40
0.037656321004193
 10
443.1115461160832
 20
402.077097302556
 42
1.0
 10
443.25953455488
 20
402.6293577072124
 42
1.0
 10
443.4075227786599
 20
403.1816181694866
 42
1.0
 10
443.5555108007364
 20
403.7338786858108
 42
1.0
 10
443.9166614849069
 20
405.0816179184322
 42
1.0
 10
444.2778109701382
 20
406.4293574723312
 42
1.0
 10
444.6389594241696
 20
407.777097302556
 42
1.0
 97
        0
 72
     1
 10
444.6389594241696
 20
407.777097302556
 11
441.1386986437268
 21
407.777097302556
 97
        0
 75
     0
 76
     1
 52
0.0
 41
2.0
 77
     0
 78
     1
 53
45.0
 43
0.0
 44
0.0
 45
-4.490128060534577
 46
4.490128060534577
 79
     0
 98
        1
 10
0.0
 20
0.0
  0
HATCH
  5
251
330
1F
100
AcDbEntity
  8
0
 62
   250
420
  1644836
100
AcDbHatch
 10
0.0
 20
0.0
 30
0.0
210
0.0
220
0.0
230
1.0
  2
ANSI31
 70
     0
 71
     0
 91
        1
 92
        0
 93
        4
 72
     4
 94
        3
 73
     1
 74
     0
 95
       11
 96
        7
 40
0.026330563855904
 40
0.026330563855904
 40
0.026330563855904
 40
0.026330563855904
 40
0.0303887629670875
 40
0.0303887629670875
 40
0.0303887629670875
 40
0.0322316704183459
 40
0.0322316704183459
 40
0.0322316704183459
 40
0.0322316704183459
 10
402.3145638307734
 20
402.077097302556
 42
1.0
 10
402.6647015996626
 20
403.3837304616334
 42
1.0
 10
403.0148406503626
 20
404.6903632772254
 42
1.0
 10
403.364981206345
 20
405.9969956894438
 42
1.0
 10
403.5239868691848
 20
406.5903629793598
 42
1.0
 10
403.682992843091
 20
407.183730185919
 42
1.0
 10
403.8419991525606
 20
407.777097302556
 42
1.0
 97
        0
 72
     1
 10
403.8419991525606
 20
407.777097302556
 11
400.3417383721176
 21
407.777097302556
 72
     4
 94
        3
 73
     1
 74
     0
 95
       11
 96
        7
 40
0.0292845881585913
 40
0.0292845881585913
 40
0.0292845881585913
 40
0.0292845881585913
 40
0.0334704545805052
 40
0.0334704545805052
 40
0.0334704545805052
 40
0.0351856890230962
 40
0.0351856890230962
 40
0.0351856890230962
 40
0.0351856890230962
 10
400.3417383721176
 20
407.777097302556
 42
1.0
 10
400.7028868261493
 20
406.4293574723312
 42
1.0
 10
401.0640363113806
 20
405.0816179184322
 42
1.0
 10
401.425186995551
 20
403.7338786858108
 42
1.0
 10
401.5731750176276
 20
403.1816181694866
 42
1.0
 10
401.7211632414072
 20
402.6293577072124
 42
1.0
 10
401.8691516802042
 20
402.077097302556
 42
1.0
 97
        0
 72
     1
 10
401.8691516802042
 20
402.077097302556
 11
402.3145638307734
 21
402.077097302556
 97
        0
 75
     0
 76
     1
 52
0.0
 41
2.0
 77
     0
 78
     1
 53
45.0
 43
0.0
 44
0.0
 45
-4.490128060534577
 46
4.490128060534577
 79
     0
 98
        1
 10
0.0
 20
0.0
  0
HATCH
  5
252
330
1F
100
AcDbEntity
  8
0
 62
   250
420
  1644836
100
AcDbHatch
 10
0.0
 20
0.0
 30
0.0
210
0.0
220
0.0
230
1.0
  2
ANSI34
 70
     0
 71
     0
 91
        1
 92
        0
 93
        8
 72
     4
 94
        3
 73
     1
 74
     0
 95
       14
 96
       10
 40
0.0031479657500204
 40
0.0031479657500204
 40
0.0031479657500204
 40
0.0031479657500204
 40
0.0031536116034878
 40
0.0031536116034878
 40
0.0031536116034878
 40
0.0032586808843317
 40
0.0032586808843317
 40
0.0032586808843317
 40
0.0032785968786096
 40
0.0032785968786096
 40
0.0032785968786096
 40
0.0032785968786096
 10
454.2223419568944
 20
345.3569256012932
 42
1.0
 10
454.2228313020406
 20
345.3587518064252
 42
1.0
 10
454.2233102964338
 20
345.3605808166028
 42
1.0
 10
454.2237788938392
 20
345.362412455303
 42
1.0
 10
454.232459453266
 20
345.3963427511222
 42
1.0
 10
454.2375829393754
 20
345.4313809678024
 42
1.0
 10
454.2389810323662
 20
345.466376144932
 42
1.0
 10
454.2392466672936
 20
345.4730251599768
 42
1.0
 10
454.2393795641908
 20
345.479680804722
 42
1.0
 10
454.2393795641908
 20
345.4863351238444
 42
1.0
 97
        0
 72
     1
 10
454.2393795641908
 20
345.4863351238444
 11
454.2393795641908
 21
346.9205088750508
 72
     1
 10
454.2393795641908
 20
346.9205088750508
 11
450.8351399466672
 21
346.9205088750508
 72
     4
 94
        3
 73
     1
 74
     0
 95
       23
 96
       19
 40
0.0028735467865899
 40
0.0028735467865899
 40
0.0028735467865899
 40
0.0028735467865899
 40
0.0029842516674319
 40
0.0029842516674319
 40
0.0029842516674319
 40
0.0031536231666064
 40
0.0031536231666064
 40
0.0031536231666064
 40
0.0032586919335014
 40
0.0032586919335014
 40
0.0032586919335014
 40
0.0034280470946704
 40
0.0034280470946704
 40
0.0034280470946704
 40
0.0035974007495573
 40
0.0035974007495573
 40
0.0035974007495573
 40
0.0037493369671923
 40
0.0037493369671923
 40
0.0037493369671923
 40
0.0037493369671923
 10
450.8351399466672
 20
346.9205088750508
 42
1.0
 10
450.7984968627988
 20
346.9205088750508
 42
1.0
 10
450.7616344238922
 20
346.9164322257144
 42
1.0
 10
450.7258768291574
 20
346.908425352782
 42
1.0
 10
450.6712636859131
 20
346.8961963283848
 42
1.0
 10
450.6180087092588
 20
346.874369682288
 42
1.0
 10
450.5705221012224
 20
346.844752685311
 42
1.0
 10
450.5408052603948
 20
346.8262185422894
 42
1.0
 10
450.5128945887238
 20
346.8044262233716
 42
1.0
 10
450.4877068484852
 20
346.7800914164484
 42
1.0
 10
450.4474614231016
 20
346.7412088232906
 42
1.0
 10
450.4133737885606
 20
346.6948419582352
 42
1.0
 10
450.3882668560814
 20
346.6448300370918
 42
1.0
 10
450.3631601556274
 20
346.594818578132
 42
1.0
 10
450.3463415831097
 20
346.5397828125217
 42
1.0
 10
450.3392040593084
 20
346.4842801261996
 42
1.0
 10
450.3327996322354
 20
346.4344781336866
 42
1.0
 10
450.3339972997514
 20
346.3831339939875
 42
1.0
 10
450.34271687516
 20
346.3336847862172
 42
1.0
 97
        0
 72
     4
 94
        3
 73
     1
 74
     0
 95
       11
 96
        7
 40
0.0454446434278045
 40
0.0454446434278045
 40
0.0454446434278045
 40
0.0454446434278045
 40
0.0483137866436845
 40
0.0483137866436845
 40
0.0483137866436845
 40
0.0534799019861905
 40
0.0534799019861905
 40
0.0534799019861905
 40
0.0534799019861905
 10
450.34271687516
 20
346.3336847862172
 42
1.0
 10
450.5087970951696
 20
345.3918344184138
 42
1.0
 10
450.6748772009137
 20
344.4499840304616
 42
1.0
 10
450.8409571983129
 20
343.5081336234046
 42
1.0
 10
451.1399971409335
 20
341.8122587673454
 42
1.0
 10
451.4390367325088
 20
340.1163838493852
 42
1.0
 10
451.7380760043807
 20
338.4205088750508
 42
1.0
 97
        0
 72
     1
 10
451.7380760043807
 20
338.4205088750508
 11
451.979997459123
 21
338.4205088750508
 72
     4
 94
        3
 73
     1
 74
     0
 95
       20
 96
       16
 40
0.0028167603961934
 40
0.0028167603961934
 40
0.0028167603961934
 40
0.0028167603961934
 40
0.0029842498423524
 40
0.0029842498423524
 40
0.0029842498423524
 40
0.0031536189140897
 40
0.0031536189140897
 40
0.0031536189140897
 40
0.0032586862160171
 40
0.0032586862160171
 40
0.0032586862160171
 40
0.0034280412194195
 40
0.0034280412194195
 40
0.0034280412194195
 40
0.0034731491662584
 40
0.0034731491662584
 40
0.0034731491662584
 40
0.0034731491662584
 10
451.979997459123
 20
338.4205088750508
 42
1.0
 10
452.0353412582926
 20
338.4205088750508
 42
1.0
 10
452.091431793136
 20
338.4299520382246
 42
1.0
 10
452.1437247359906
 20
338.4480734132857
 42
1.0
 10
452.1966044103232
 20
338.4663981117894
 42
1.0
 10
452.2470495972732
 20
338.4941052163814
 42
1.0
 10
452.2908827233692
 20
338.5289004975186
 42
1.0
 10
452.318313247913
 20
338.5506751893612
 42
1.0
 10
452.3435808479114
 20
338.5754829364658
 42
1.0
 10
452.3658555648354
 20
338.6025089955116
 42
1.0
 10
452.401446961096
 20
338.6456922682842
 42
1.0
 10
452.4300738014294
 20
338.6956157349008
 42
1.0
 10
452.449365355285
 20
338.7481455215458
 42
1.0
 10
452.4545431920911
 20
338.7622444720364
 42
1.0
 10
452.459089688114
 20
338.7765915014664
 42
1.0
 10
452.462977188253
 20
338.7910993524994
 42
1.0
 97
        0
 72
     4
 94
        3
 73
     1
 74
     0
 95
       11
 96
        7
 40
0.0466955225453178
 40
0.0466955225453178
 40
0.0466955225453178
 40
0.0466955225453178
 40
0.0482688160746447
 40
0.0482688160746447
 40
0.0482688160746447
 40
0.0534929807994737
 40
0.0534929807994737
 40
0.0534929807994737
 40
0.0534929807994737
 10
452.462977188253
 20
338.7910993524994
 42
1.0
 10
452.5987143029104
 20
339.2976598074682
 42
1.0
 10
452.7344513586382
 20
339.8042202782274
 42
1.0
 10
452.870188357775
 20
340.3107807641508
 42
1.0
 10
453.3209068216386
 20
341.992828883096
 42
1.0
 10
453.7716246625519
 20
343.6748771689658
 42
1.0
 10
454.2223419568944
 20
345.3569256012932
 42
1.0
 97
        0
 97
        0
 75
     0
 76
     1
 52
0.0
 41
2.0
 77
     0
 78
     4
 53
45.0
 43
0.0
 44
0.0
 45
-26.94076836320746
 46
26.94076836320746
 79
     0
 53
45.0
 43
8.98026
 44
0.0
 45
-26.94076836320746
 46
26.94076836320746
 79
     0
 53
45.0
 43
17.96052
 44
0.0
 45
-26.94076836320746
 46
26.94076836320746
 79
     0
 53
45.0
 43
26.9408
 44
0.0
 45
-26.94076836320746
 46
26.94076836320746
 79
     0
 98
        1
 10
0.0
 20
0.0
  0
HATCH
  5
253
330
1F
100
AcDbEntity
  8
0
 62
   250
420
  1644836
100
AcDbHatch
 10
0.0
 20
0.0
 30
0.0
210
0.0
220
0.0
230
1.0
  2
ANSI34
 70
     0
 71
     0
 91
        1
 92
        0
 93
        8
 72
     4
 94
        3
 73
     1
 74
     0
 95
       20
 96
       16
 40
0.0019237582233726
 40
0.0019237582233726
 40
0.0019237582233726
 40
0.0019237582233726
 40
0.0019680523681574
 40
0.0019680523681574
 40
0.0019680523681574
 40
0.0021374170943423
 40
0.0021374170943423
 40
0.0021374170943423
 40
0.0023067870035671
 40
0.0023067870035671
 40
0.0023067870035671
 40
0.0024761593073528
 40
0.0024761593073528
 40
0.0024761593073528
 40
0.0025808341492901
 40
0.0025808341492901
 40
0.0025808341492901
 40
0.0025808341492901
 10
392.5177206080348
 20
338.791099352499
 42
1.0
 10
392.5215383568808
 20
338.7768518079182
 42
1.0
 10
392.5259915521966
 20
338.7627596071512
 42
1.0
 10
392.5310540683028
 20
338.7489054141576
 42
1.0
 10
392.5502616417584
 20
338.6963415459107
 42
1.0
 10
392.5788097909956
 20
338.6463691446062
 42
1.0
 10
392.6143340434613
 20
338.6031265890628
 42
1.0
 10
392.6498593747702
 20
338.5598827202778
 42
1.0
 10
392.6933411236969
 20
338.5221762819396
 42
1.0
 10
392.7411781219568
 20
338.4931297167454
 42
1.0
 10
392.7890158054266
 20
338.4640827354926
 42
1.0
 10
392.8425283470564
 20
338.4428946539172
 42
1.0
 10
392.8972841356343
 20
338.4313199099947
 42
1.0
 10
392.9311946853969
 20
338.4241516098028
 42
1.0
 10
392.966040419207
 20
338.4205088750502
 42
1.0
 10
393.0007003371649
 20
338.4205088750502
 42
1.0
 97
        0
 72
     1
 10
393.0007003371649
 20
338.4205088750502
 11
393.2426217919072
 21
338.4205088750502
 72
     4
 94
        3
 73
     1
 74
     0
 95
       11
 96
        7
 40
0.0431476713010356
 40
0.0431476713010356
 40
0.0431476713010356
 40
0.0431476713010356
 40
0.0483137866435555
 40
0.0483137866435555
 40
0.0483137866435555
 40
0.0511829298594424
 40
0.0511829298594424
 40
0.0511829298594424
 40
0.0511829298594424
 10
393.2426217919072
 20
338.4205088750504
 42
1.0
 10
393.541661063779
 20
340.1163838493848
 42
1.0
 10
393.8407006553545
 20
341.812258767345
 42
1.0
 10
394.139740597975
 20
343.5081336234042
 42
1.0
 10
394.305820595374
 20
344.4499840304612
 42
1.0
 10
394.4719007011182
 20
345.3918344184134
 42
1.0
 10
394.6379809211276
 20
346.3336847862168
 42
1.0
 97
        0
 72
     4
 94
        3
 73
     1
 74
     0
 95
       23
 96
       19
 40
0.0028202583663392
 40
0.0028202583663392
 40
0.0028202583663392
 40
0.0028202583663392
 40
0.0029842611236796
 40
0.0029842611236796
 40
0.0029842611236796
 40
0.0031536156972274
 40
0.0031536156972274
 40
0.0031536156972274
 40
0.0032587037698884
 40
0.0032587037698884
 40
0.0032587037698884
 40
0.0034280745883162
 40
0.0034280745883162
 40
0.0034280745883162
 40
0.0035974474879979
 40
0.0035974474879979
 40
0.0035974474879979
 40
0.0036959267585325
 40
0.0036959267585325
 40
0.0036959267585325
 40
0.0036959267585325
 10
394.6379809211276
 20
346.3336847862168
 42
1.0
 10
394.6473917151346
 20
346.3870539339474
 42
1.0
 10
394.6480165351794
 20
346.44268503464
 42
1.0
 10
394.6398067863282
 20
346.4962520860534
 42
1.0
 10
394.6313292535136
 20
346.5515663769496
 42
1.0
 10
394.6131846527838
 20
346.6061797919358
 42
1.0
 10
394.586875740911
 20
346.655569876933
 42
1.0
 10
394.5704071620962
 20
346.6864865682572
 42
1.0
 10
394.5505634083066
 20
346.7158227087478
 42
1.0
 10
394.52799658969
 20
346.7426143975364
 42
1.0
 10
394.4919422078556
 20
346.7854187375716
 42
1.0
 10
394.4479999692486
 20
346.8225882129149
 42
1.0
 10
394.3998092147218
 20
346.8510448668544
 42
1.0
 10
394.3516178545252
 20
346.8795018784424
 42
1.0
 10
394.2978486314796
 20
346.9000308026476
 42
1.0
 10
394.2429543964482
 20
346.9109317964754
 42
1.0
 10
394.2109571066542
 20
346.9172858746106
 42
1.0
 10
394.1781799412628
 20
346.9205088750504
 42
1.0
 10
394.1455578496206
 20
346.9205088750504
 42
1.0
 97
        0
 72
     1
 10
394.1455578496206
 20
346.9205088750504
 11
390.7413182320968
 21
346.9205088750502
 72
     1
 10
390.7413182320968
 20
346.9205088750502
 11
390.7413182320968
 21
345.486335123844
 72
     4
 94
        3
 73
     1
 74
     0
 95
       11
 96
        7
 40
0.0016203973018787
 40
0.0016203973018787
 40
0.0016203973018787
 40
0.0016203973018787
 40
0.0016293398448401
 40
0.0016293398448401
 40
0.0016293398448401
 40
0.001751892774927
 40
0.001751892774927
 40
0.001751892774927
 40
0.001751892774927
 10
390.7413182320968
 20
345.486335123844
 42
1.0
 10
390.7413182320968
 20
345.4833421393776
 42
1.0
 10
390.7413451089524
 20
345.4803490342616
 42
1.0
 10
390.7413988561622
 20
345.4773565324232
 42
1.0
 10
390.7421268557828
 20
345.436823447717
 42
1.0
 10
390.747863113972
 20
345.3960837888462
 42
1.0
 10
390.7583558393932
 20
345.3569256012926
 42
1.0
 97
        0
 72
     4
 94
        3
 73
     1
 74
     0
 95
       11
 96
        7
 40
0.0430446513490669
 40
0.0430446513490669
 40
0.0430446513490669
 40
0.0430446513490669
 40
0.0482688160739689
 40
0.0482688160739689
 40
0.0482688160739689
 40
0.0498421096033172
 40
0.0498421096033172
 40
0.0498421096033172
 40
0.0498421096033172
 10
390.7583558393932
 20
345.3569256012926
 42
1.0
 10
391.209073133736
 20
343.6748771689654
 42
1.0
 10
391.6597909746492
 20
341.9928288830956
 42
1.0
 10
392.1105094385126
 20
340.3107807641504
 42
1.0
 10
392.2462464376496
 20
339.804220278227
 42
1.0
 10
392.3819834933774
 20
339.2976598074678
 42
1.0
 10
392.5177206080348
 20
338.791099352499
 42
1.0
 97
        0
 97
        0
 75
     0
 76
     1
 52
0.0
 41
2.0
 77
     0
 78
     4
 53
45.0
 43
0.0
 44
0.0
 45
-26.94076836320746
 46
26.94076836320746
 79
     0
 53
45.0
 43
8.98026
 44
0.0
 45
-26.94076836320746
 46
26.94076836320746
 79
     0
 53
45.0
 43
17.96052
 44
0.0
 45
-26.94076836320746
 46
26.94076836320746
 79
     0
 53
45.0
 43
26.9408
 44
0.0
 45
-26.94076836320746
 46
26.94076836320746
 79
     0
 98
        1
 10
0.0
 20
0.0
  0
DIMENSION
  5
254
330
1F
100
AcDbEntity
  8
0
  6
SLD-Durchgehend
 62
   179
420
  2171202
370
    18
100
AcDbDimension
280
     0
  2
_D
 10
259.9184008923
 20
413.671092429
 30
0.0
 11
282.6298563116
 21
413.671092429
 31
0.0
 70
   160
  1
%%c<>
 71
     2
 42
-1.0
 73
     0
 74
     0
 75
     0
  3
SLDDIMSTYLE0
100
AcDbAlignedDimension
 13
304.4184008923
 23
407.2770973026
 33
0.0
 14
259.9184008923
 24
407.7770973026
 34
0.0
100
AcDbRotatedDimension
  0
DIMENSION
  5
261
330
1F
100
AcDbEntity
  8
0
  6
SLD-Durchgehend
 62
   179
420
  2171202
370
    18
100
AcDbDimension
280
     0
  2
_D_1
 10
310.4184008923
 20
391.3654595799
 30
0.0
 11
286.0985690881
 21
391.3654595799
 31
0.0
 70
   160
  1
%%c<>
 71
     2
 42
-1.0
 73
     0
 74
     0
 75
     0
  3
SLDDIMSTYLE0
100
AcDbAlignedDimension
 13
253.9184008923
 23
384.7354084523
 33
0.0
 14
310.4184008923
 24
384.7354084523
 34
0.0
100
AcDbRotatedDimension
  0
DIMENSION
  5
26C
330
1F
100
AcDbEntity
  8
0
  6
SLD-Durchgehend
 62
   179
420
  2171202
370
    18
100
AcDbDimension
280
     0
  2
_D_2
 10
249.7184008923
 20
354.1040218388
 30
0.0
 11
278.4620872332
 21
354.1040218388
 31
0.0
 70
   160
  1
%%c<>
 71
     2
 42
-1.0
 73
     0
 74
     0
 75
     0
  3
SLDDIMSTYLE1
100
AcDbAlignedDimension
 13
314.6184008923
 23
345.9205088751
 33
0.0
 14
249.7184008923
 24
346.9205088751
 34
0.0
100
AcDbRotatedDimension
  0
DIMENSION
  5
278
330
1F
100
AcDbEntity
  8
0
  6
SLD-Durchgehend
 62
   179
420
  2171202
370
    18
100
AcDbDimension
280
     0
  2
_D_3
 10
368.656987067
 20
414.8815706798
 30
0.0
 11
353.3758376323
 21
414.8815706798
 31
0.0
 70
   160
  1
%%c<>
 71
     2
 42
-1.0
 73
     0
 74
     0
 75
     0
  3
SLDDIMSTYLE2
100
AcDbAlignedDimension
 13
340.8373098694
 23
406.7770973026
 33
0.0
 14
368.656987067
 24
405.7770973026
 34
0.0
100
AcDbRotatedDimension
  0
DIMENSION
  5
286
330
1F
100
AcDbEntity
  8
0
  6
SLD-Durchgehend
 62
   179
420
  2171202
370
    18
100
AcDbDimension
280
     0
  2
_D_4
 10
374.1825185404
 20
390.464681545
 30
0.0
 11
357.7292364703
 21
390.464681545
 31
0.0
 70
   160
  1
%%c<>
 71
     2
 42
-1.0
 73
     0
 74
     0
 75
     0
  3
SLDDIMSTYLE1
100
AcDbAlignedDimension
 13
335.3117783959
 23
383.7354084522
 33
0.0
 14
374.1825185404
 24
384.7354084522
 34
0.0
100
AcDbRotatedDimension
  0
DIMENSION
  5
291
330
1F
100
AcDbEntity
  8
0
  6
SLD-Durchgehend
 62
   179
420
  2171202
370
    18
100
AcDbDimension
280
     0
  2
_D_5
 10
332.303137912
 20
354.1040218388
 30
0.0
 11
354.9834922628
 21
354.1040218388
 31
0.0
 70
   160
  1
%%c<>
 71
     2
 42
-1.0
 73
     0
 74
     0
 75
     0
  3
SLDDIMSTYLE1
100
AcDbAlignedDimension
 13
377.1911590243
 23
344.920508875
 33
0.0
 14
332.303137912
 24
346.920508875
 34
0.0
100
AcDbRotatedDimension
  0
DIMENSION
  5
29C
330
1F
100
AcDbEntity
  8
0
  6
SLD-Durchgehend
 62
   179
420
  2171202
370
    18
100
AcDbDimension
280
     0
  2
_D_6
 10
444.6389594242
 20
414.8815706798
 30
0.0
 11
421.9668909831
 21
414.8815706798
 31
0.0
 70
   160
  1
%%c<>
 71
     2
 42
-1.0
 73
     0
 74
     0
 75
     0
  3
SLDDIMSTYLE2
100
AcDbAlignedDimension
 13
400.3417383721
 23
407.7770973026
 33
0.0
 14
444.6389594242
 24
407.7770973026
 34
0.0
100
AcDbRotatedDimension
  0
DIMENSION
  5
2A9
330
1F
100
AcDbEntity
  8
0
  6
SLD-Durchgehend
 62
   179
420
  2171202
370
    18
100
AcDbDimension
280
     0
  2
_D_7
 10
450.7392594653
 20
389.0664594748
 30
0.0
 11
425.4873118539
 21
389.0664594748
 31
0.0
 70
   160
  1
%%c<>
 71
     2
 42
-1.0
 73
     0
 74
     0
 75
     0
  3
SLDDIMSTYLE2
100
AcDbAlignedDimension
 13
394.2414383309
 23
383.3235719427
 33
0.0
 14
450.7392594653
 24
383.3235719427
 34
0.0
100
AcDbRotatedDimension
  0
DIMENSION
  5
2B4
330
1F
100
AcDbEntity
  8
0
  6
SLD-Durchgehend
 62
   179
420
  2171202
370
    18
100
AcDbDimension
280
     0
  2
_D_8
 10
454.2393795642
 20
356.0616311174
 30
0.0
 11
421.0711063867
 21
356.0616311174
 31
0.0
 70
   160
  1
%%c<>
 71
     2
 42
-1.0
 73
     0
 74
     0
 75
     0
  3
SLDDIMSTYLE0
100
AcDbAlignedDimension
 13
390.7413182321
 23
346.2034219994
 33
0.0
 14
454.2393795642
 24
346.9205088751
 34
0.0
100
AcDbRotatedDimension
  0
DIMENSION
  5
2BF
330
1F
100
AcDbEntity
  8
0
  6
SLD-Durchgehend
 62
   179
420
  2171202
370
    18
100
AcDbDimension
280
     0
  2
_D_9
 10
514.4056468221
 20
413.6435013335
 30
0.0
 11
498.6797796676
 21
413.6435013335
 31
0.0
 70
   160
  1
%%c<>
 71
     2
 42
-1.0
 73
     0
 74
     0
 75
     0
  3
SLDDIMSTYLE3
100
AcDbAlignedDimension
 13
479.1699102555
 23
407.7770973026
 33
0.0
 14
514.4056468221
 24
407.7770973026
 34
0.0
100
AcDbRotatedDimension
  0
DIMENSION
  5
2CD
330
1F
100
AcDbEntity
  8
0
  6
SLD-Durchgehend
 62
   179
420
  2171202
370
    18
100
AcDbDimension
280
     0
  2
_D_10
 10
518.6879910231
 20
388.385047877
 30
0.0
 11
497.5366169034
 21
388.385047877
 31
0.0
 70
   160
  1
%%c<>
 71
     2
 42
-1.0
 73
     0
 74
     0
 75
     0
  3
SLDDIMSTYLE2
100
AcDbAlignedDimension
 13
474.8875660544
 23
384.7354084523
 33
0.0
 14
518.6879910231
 24
384.7354084523
 34
0.0
100
AcDbRotatedDimension
  0
DIMENSION
  5
2DA
330
1F
100
AcDbEntity
  8
0
  6
SLD-Durchgehend
 62
   179
420
  2171202
370
    18
100
AcDbDimension
280
     0
  2
_D_11
 10
524.7769928678
 20
352.7082636738
 30
0.0
 11
497.0957686073
 21
352.7082636738
 31
0.0
 70
   160
  1
%%c<>
 71
     2
 42
-1.0
 73
     0
 74
     0
 75
     0
  3
SLDDIMSTYLE1
100
AcDbAlignedDimension
 13
468.7985642097
 23
346.9205088751
 33
0.0
 14
524.7769928678
 24
346.9205088751
 34
0.0
100
AcDbRotatedDimension
  0
ENDSEC
  0
SECTION
  2
OBJECTS
  0
DICTIONARY
  5
C
330
0
100
AcDbDictionary
281
     1
  3
ACAD_DETAILVIEWSTYLE
350
2EC
  3
ACAD_GROUP
350
D
  3
ACAD_LAYOUT
350
1A
  3
ACAD_MATERIAL
350
43
  3
ACAD_MLEADERSTYLE
350
6B
  3
ACAD_MLINESTYLE
350
17
  3
ACAD_PLOTSETTINGS
350
19
  3
ACAD_PLOTSTYLENAME
350
E
  3
ACAD_SCALELIST
350
47
  3
ACAD_SECTIONVIEWSTYLE
350
2ED
  3
ACAD_TABLESTYLE
350
69
  3
ACAD_VISUALSTYLE
350
2A
  3
ACDB_RECOMPOSE_DATA
350
2E9
  3
AcDbVariableDictionary
350
2E5
  0
SUN
  5
6D
330
29
100
AcDbSun
 90
        1
290
     0
 63
     7
421
 16777215
 40
1.0
291
     1
 91
  2455826
 92
 54000000
292
     0
 70
     2
 71
   256
280
     1
  0
DICTIONARY
  5
2EC
102
{ACAD_REACTORS
330
C
102
}
330
C
100
AcDbDictionary
281
     1
  0
DICTIONARY
  5
D
102
{ACAD_REACTORS
330
C
102
}
330
C
100
AcDbDictionary
281
     1
  0
DICTIONARY
  5
1A
102
{ACAD_REACTORS
330
C
102
}
330
C
100
AcDbDictionary
281
     1
  3
Layout1
350
1E
  3
Layout2
350
26
  3
Model
350
22
  0
DICTIONARY
  5
43
102
{ACAD_REACTORS
330
C
102
}
330
C
100
AcDbDictionary
281
     1
  3
ByBlock
350
45
  3
ByLayer
350
44
  3
Global
350
46
  0
DICTIONARY
  5
6B
102
{ACAD_REACTORS
330
C
102
}
330
C
100
AcDbDictionary
281
     1
  3
Standard
350
6C
  0
DICTIONARY
  5
17
102
{ACAD_REACTORS
330
C
102
}
330
C
100
AcDbDictionary
281
     1
  3
Standard
350
18
  0
DICTIONARY
  5
19
102
{ACAD_REACTORS
330
C
102
}
330
C
100
AcDbDictionary
281
     1
  0
ACDBDICTIONARYWDFLT
  5
E
102
{ACAD_REACTORS
330
C
102
}
330
C
100
AcDbDictionary
281
     1
  3
Normal
350
F
100
AcDbDictionaryWithDefault
340
F
  0
DICTIONARY
  5
47
102
{ACAD_REACTORS
330
C
102
}
330
C
100
AcDbDictionary
281
     1
  3
A0
350
48
  3
A1
350
49
  3
A2
350
4A
  3
A3
350
4B
  3
A4
350
4C
  3
A5
350
4D
  3
A6
350
4E
  3
A7
350
4F
  3
A8
350
50
  3
A9
350
51
  3
B0
350
52
  3
B1
350
53
  3
B2
350
54
  3
B3
350
55
  3
B4
350
56
  3
B5
350
57
  3
B6
350
58
  3
B7
350
59
  3
B8
350
5A
  3
B9
350
5B
  3
C0
350
5C
  3
C1
350
5D
  3
C2
350
5E
  3
C3
350
5F
  3
C4
350
60
  3
C5
350
61
  3
C6
350
62
  3
C7
350
63
  3
C8
350
64
  3
C9
350
65
  3
D0
350
66
  3
D1
350
67
  3
D2
350
68
  0
DICTIONARY
  5
2ED
102
{ACAD_REACTORS
330
C
102
}
330
C
100
AcDbDictionary
281
     1
  0
DICTIONARY
  5
69
102
{ACAD_REACTORS
330
C
102
}
330
C
100
AcDbDictionary
281
     1
  3
Standard
350
6A
  0
DICTIONARY
  5
2A
102
{ACAD_REACTORS
330
C
102
}
330
C
100
AcDbDictionary
281
     1
  3
2dWireframe
350
2F
  3
Basic
350
32
  3
Brighten
350
36
  3
ColorChange
350
3A
  3
Conceptual
350
34
  3
Dim
350
35
  3
EdgeColorOff
350
3D
  3
Facepattern
350
39
  3
Flat
350
2B
  3
FlatWithEdges
350
2C
  3
Gouraud
350
2D
  3
GouraudWithEdges
350
2E
  3
Hidden
350
31
  3
JitterOff
350
3B
  3
Linepattern
350
38
  3
OverhangOff
350
3C
  3
Realistic
350
33
  3
Shaded
350
42
  3
Shaded with edges
350
41
  3
Shades of Gray
350
3E
  3
Sketchy
350
3F
  3
Thicken
350
37
  3
Wireframe
350
30
  3
X-Ray
350
40
  0
XRECORD
  5
2E9
102
{ACAD_REACTORS
330
C
102
}
330
C
100
AcDbXrecord
280
     1
 90
        1
330
6A
  0
DICTIONARY
  5
2E5
102
{ACAD_REACTORS
330
C
102
}
330
C
100
AcDbDictionary
281
     1
  3
CANNOSCALE
350
2E6
  3
CMLEADERSTYLE
350
2EB
  3
CTABLESTYLE
350
2EA
  3
SECTIONTHICKNESSINC
350
2EE
  0
LAYOUT
  5
1E
102
{ACAD_REACTORS
330
1A
102
}
330
1A
100
AcDbPlotSettings
  1

  2
none_device
  4

  6

 40
0.0
 41
0.0
 42
0.0
 43
0.0
 44
0.0
 45
0.0
 46
0.0
 47
0.0
 48
0.0
 49
0.0
140
0.0
141
0.0
142
1.0
143
1.0
 70
   688
 72
     1
 73
     0
 74
     5
  7

 75
    16
 76
     0
 77
     2
 78
   300
147
1.0
148
0.0
149
0.0
100
AcDbLayout
  1
Layout1
 70
     1
 71
     1
 10
0.0
 20
0.0
 11
420.0
 21
297.0
 12
0.0
 22
0.0
 32
0.0
 14
1.0000000000E+20
 24
1.0000000000E+20
 34
1.0000000000E+20
 15
-1.0000000000E+20
 25
-1.0000000000E+20
 35
-1.0000000000E+20
146
0.0
 13
0.0
 23
0.0
 33
0.0
 16
1.0
 26
0.0
 36
0.0
 17
0.0
 27
1.0
 37
0.0
 76
     0
330
1B
  0
LAYOUT
  5
26
102
{ACAD_REACTORS
330
1A
102
}
330
1A
100
AcDbPlotSettings
  1

  2
none_device
  4

  6

 40
0.0
 41
0.0
 42
0.0
 43
0.0
 44
0.0
 45
0.0
 46
0.0
 47
0.0
 48
0.0
 49
0.0
140
0.0
141
0.0
142
1.0
143
1.0
 70
   688
 72
     1
 73
     0
 74
     5
  7

 75
    16
 76
     0
 77
     2
 78
   300
147
1.0
148
0.0
149
0.0
100
AcDbLayout
  1
Layout2
 70
     1
 71
     2
 10
0.0
 20
0.0
 11
0.0
 21
0.0
 12
0.0
 22
0.0
 32
0.0
 14
0.0
 24
0.0
 34
0.0
 15
0.0
 25
0.0
 35
0.0
146
0.0
 13
0.0
 23
0.0
 33
0.0
 16
1.0
 26
0.0
 36
0.0
 17
0.0
 27
1.0
 37
0.0
 76
     0
330
23
  0
LAYOUT
  5
22
102
{ACAD_REACTORS
330
1A
102
}
330
1A
100
AcDbPlotSettings
  1

  2
none_device
  4
Letter_(8.50_x_11.00_Inches)
  6

 40
6.35
 41
6.35
 42
6.35000508
 43
6.35000508
 44
215.9
 45
279.4
 46
0.0
 47
0.0
 48
0.0
 49
0.0
140
0.0
141
0.0
142
1.0
143
1.0
 70
  1712
 72
     1
 73
     0
 74
     0
  7

 75
     0
 76
     0
 77
     2
 78
   300
147
1.0
148
0.0
149
0.0
100
AcDbLayout
  1
Model
 70
     1
 71
     0
 10
0.0
 20
0.0
 11
840.0
 21
594.0
 12
0.0
 22
0.0
 32
0.0
 14
0.0
 24
0.0
 34
0.0
 15
840.0
 25
594.0
 35
0.0
146
0.0
 13
0.0
 23
0.0
 33
0.0
 16
1.0
 26
0.0
 36
0.0
 17
0.0
 27
1.0
 37
0.0
 76
     0
330
1F
331
29
  0
MATERIAL
  5
45
102
{ACAD_REACTORS
330
43
102
}
330
43
100
AcDbMaterial
  1
ByBlock
 72
     1
 94
      127
  0
MATERIAL
  5
44
102
{ACAD_REACTORS
330
43
102
}
330
43
100
AcDbMaterial
  1
ByLayer
 72
     1
 94
      127
  0
MATERIAL
  5
46
102
{ACAD_REACTORS
330
43
102
}
330
43
100
AcDbMaterial
  1
Global
 72
     1
 94
      127
  0
MLEADERSTYLE
  5
6C
102
{ACAD_REACTORS
330
6B
102
}
330
6B
100
AcDbMLeaderStyle
179
     2
170
     2
171
     1
172
     0
 90
        2
 40
0.0
 41
0.0
173
     1
 91
-1056964608
340
14
 92
       -2
290
     1
 42
2.0
291
     1
 43
8.0
  3
Standard
341
0
 44
4.0
300

342
11
174
     1
178
     6
175
     1
176
     0
 93
-1056964608
 45
4.0
292
     0
297
     0
 46
4.0
343
0
 94
-1056964608
 47
1.0
 49
1.0
140
1.0
293
     1
141
0.0
294
     1
177
     0
142
1.0
295
     0
296
     0
143
3.75
271
     0
272
     9
273
     9
298
     0
  0
MLINESTYLE
  5
18
102
{ACAD_REACTORS
330
17
102
}
330
17
100
AcDbMlineStyle
  2
Standard
 70
     0
  3

 62
   256
 51
90.0
 52
90.0
 71
     2
 49
0.5
 62
   256
  6
BYLAYER
 49
-0.5
 62
   256
  6
BYLAYER
  0
ACDBPLACEHOLDER
  5
F
102
{ACAD_REACTORS
330
E
102
}
330
E
  0
SCALE
  5
48
102
{ACAD_REACTORS
330
47
102
}
330
47
100
AcDbScale
 70
     0
300
1:1
140
1.0
141
1.0
290
     1
  0
SCALE
  5
49
102
{ACAD_REACTORS
330
47
102
}
330
47
100
AcDbScale
 70
     0
300
1:2
140
1.0
141
2.0
290
     0
  0
SCALE
  5
4A
102
{ACAD_REACTORS
330
47
102
}
330
47
100
AcDbScale
 70
     0
300
1:4
140
1.0
141
4.0
290
     0
  0
SCALE
  5
4B
102
{ACAD_REACTORS
330
47
102
}
330
47
100
AcDbScale
 70
     0
300
1:5
140
1.0
141
5.0
290
     0
  0
SCALE
  5
4C
102
{ACAD_REACTORS
330
47
102
}
330
47
100
AcDbScale
 70
     0
300
1:8
140
1.0
141
8.0
290
     0
  0
SCALE
  5
4D
102
{ACAD_REACTORS
330
47
102
}
330
47
100
AcDbScale
 70
     0
300
1:10
140
1.0
141
10.0
290
     0
  0
SCALE
  5
4E
102
{ACAD_REACTORS
330
47
102
}
330
47
100
AcDbScale
 70
     0
300
1:16
140
1.0
141
16.0
290
     0
  0
SCALE
  5
4F
102
{ACAD_REACTORS
330
47
102
}
330
47
100
AcDbScale
 70
     0
300
1:20
140
1.0
141
20.0
290
     0
  0
SCALE
  5
50
102
{ACAD_REACTORS
330
47
102
}
330
47
100
AcDbScale
 70
     0
300
1:30
140
1.0
141
30.0
290
     0
  0
SCALE
  5
51
102
{ACAD_REACTORS
330
47
102
}
330
47
100
AcDbScale
 70
     0
300
1:40
140
1.0
141
40.0
290
     0
  0
SCALE
  5
52
102
{ACAD_REACTORS
330
47
102
}
330
47
100
AcDbScale
 70
     0
300
1:50
140
1.0
141
50.0
290
     0
  0
SCALE
  5
53
102
{ACAD_REACTORS
330
47
102
}
330
47
100
AcDbScale
 70
     0
300
1:100
140
1.0
141
100.0
290
     0
  0
SCALE
  5
54
102
{ACAD_REACTORS
330
47
102
}
330
47
100
AcDbScale
 70
     0
300
2:1
140
2.0
141
1.0
290
     0
  0
SCALE
  5
55
102
{ACAD_REACTORS
330
47
102
}
330
47
100
AcDbScale
 70
     0
300
4:1
140
4.0
141
1.0
290
     0
  0
SCALE
  5
56
102
{ACAD_REACTORS
330
47
102
}
330
47
100
AcDbScale
 70
     0
300
8:1
140
8.0
141
1.0
290
     0
  0
SCALE
  5
57
102
{ACAD_REACTORS
330
47
102
}
330
47
100
AcDbScale
 70
     0
300
10:1
140
10.0
141
1.0
290
     0
  0
SCALE
  5
58
102
{ACAD_REACTORS
330
47
102
}
330
47
100
AcDbScale
 70
     0
300
100:1
140
100.0
141
1.0
290
     0
  0
SCALE
  5
59
102
{ACAD_REACTORS
330
47
102
}
330
47
100
AcDbScale
 70
     0
300
1/128" = 1'-0"
140
0.0078125
141
12.0
290
     0
  0
SCALE
  5
5A
102
{ACAD_REACTORS
330
47
102
}
330
47
100
AcDbScale
 70
     0
300
1/64" = 1'-0"
140
0.015625
141
12.0
290
     0
  0
SCALE
  5
5B
102
{ACAD_REACTORS
330
47
102
}
330
47
100
AcDbScale
 70
     0
300
1/32" = 1'-0"
140
0.03125
141
12.0
290
     0
  0
SCALE
  5
5C
102
{ACAD_REACTORS
330
47
102
}
330
47
100
AcDbScale
 70
     0
300
1/16" = 1'-0"
140
0.0625
141
12.0
290
     0
  0
SCALE
  5
5D
102
{ACAD_REACTORS
330
47
102
}
330
47
100
AcDbScale
 70
     0
300
3/32" = 1'-0"
140
0.09375
141
12.0
290
     0
  0
SCALE
  5
5E
102
{ACAD_REACTORS
330
47
102
}
330
47
100
AcDbScale
 70
     0
300
1/8" = 1'-0"
140
0.125
141
12.0
290
     0
  0
SCALE
  5
5F
102
{ACAD_REACTORS
330
47
102
}
330
47
100
AcDbScale
 70
     0
300
3/16" = 1'-0"
140
0.1875
141
12.0
290
     0
  0
SCALE
  5
60
102
{ACAD_REACTORS
330
47
102
}
330
47
100
AcDbScale
 70
     0
300
1/4" = 1'-0"
140
0.25
141
12.0
290
     0
  0
SCALE
  5
61
102
{ACAD_REACTORS
330
47
102
}
330
47
100
AcDbScale
 70
     0
300
3/8" = 1'-0"
140
0.375
141
12.0
290
     0
  0
SCALE
  5
62
102
{ACAD_REACTORS
330
47
102
}
330
47
100
AcDbScale
 70
     0
300
1/2" = 1'-0"
140
0.5
141
12.0
290
     0
  0
SCALE
  5
63
102
{ACAD_REACTORS
330
47
102
}
330
47
100
AcDbScale
 70
     0
300
3/4" = 1'-0"
140
0.75
141
12.0
290
     0
  0
SCALE
  5
64
102
{ACAD_REACTORS
330
47
102
}
330
47
100
AcDbScale
 70
     0
300
1" = 1'-0"
140
1.0
141
12.0
290
     0
  0
SCALE
  5
65
102
{ACAD_REACTORS
330
47
102
}
330
47
100
AcDbScale
 70
     0
300
1-1/2" = 1'-0"
140
1.5
141
12.0
290
     0
  0
SCALE
  5
66
102
{ACAD_REACTORS
330
47
102
}
330
47
100
AcDbScale
 70
     0
300
3" = 1'-0"
140
3.0
141
12.0
290
     0
  0
SCALE
  5
67
102
{ACAD_REACTORS
330
47
102
}
330
47
100
AcDbScale
 70
     0
300
6" = 1'-0"
140
6.0
141
12.0
290
     0
  0
SCALE
  5
68
102
{ACAD_REACTORS
330
47
102
}
330
47
100
AcDbScale
 70
     0
300
1'-0" = 1'-0"
140
12.0
141
12.0
290
     0
  0
TABLESTYLE
  5
6A
102
{ACAD_REACTORS
330
69
102
}
102
{ACAD_XDICTIONARY
360
2E7
102
}
330
69
100
AcDbTableStyle
  3
Standard
 70
     0
 71
     0
 40
0.06
 41
0.06
280
     0
281
     0
  7
Standard
140
4.5
170
     2
 62
     0
 63
   257
283
     0
 90
        4
 91
        0
  1

274
    -2
284
     1
 64
     0
275
    -2
285
     1
 65
     0
276
    -2
286
     1
 66
     0
277
    -2
287
     1
 67
     0
278
    -2
288
     1
 68
     0
279
    -2
289
     1
 69
     0
  7
Standard
140
6.0
170
     5
 62
     0
 63
   257
283
     0
 90
        4
 91
        0
  1

274
    -2
284
     1
 64
     0
275
    -2
285
     1
 65
     0
276
    -2
286
     1
 66
     0
277
    -2
287
     1
 67
     0
278
    -2
288
     1
 68
     0
279
    -2
289
     1
 69
     0
  7
Standard
140
4.5
170
     5
 62
     0
 63
   257
283
     0
 90
        4
 91
        0
  1

274
    -2
284
     1
 64
     0
275
    -2
285
     1
 65
     0
276
    -2
286
     1
 66
     0
277
    -2
287
     1
 67
     0
278
    -2
288
     1
 68
     0
279
    -2
289
     1
 69
     0
  0
VISUALSTYLE
  5
2F
102
{ACAD_REACTORS
330
2A
102
}
330
2A
100
AcDbVisualStyle
  2
2dWireframe
 70
     4
177
     3
291
     0
 70
    58
 90
        0
176
     1
 90
        2
176
     1
 90
        0
176
     1
 90
        0
176
     1
 40
0.6
176
     1
 40
30.0
176
     1
 62
     7
420
 16777215
176
     1
 90
        1
176
     1
 90
        4
176
     1
 62
     7
176
     1
 62
   257
176
     1
 90
        1
176
     1
 90
        1
176
     1
 40
1.0
176
     1
 90
        0
176
     1
 62
   257
176
     1
 40
1.0
176
     1
 90
        1
176
     1
 90
        6
176
     1
 90
        2
176
     1
 62
     7
176
     1
 90
        5
176
     1
 90
        0
176
     1
 90
        0
176
     1
290
     0
176
     1
 90
        1
176
     1
 40
0.0
176
     1
 90
        0
176
     1
290
     1
176
     1
290
     1
176
     1
290
     0
176
     1
290
     0
176
     1
290
     0
176
     1
290
     0
176
     1
290
     0
176
     1
290
     0
176
     1
290
     0
176
     1
 90
       50
176
     1
 40
0.0
176
     1
 40
1.0
176
     1
 90
        0
176
     1
 62
    18
420
        0
176
     1
 90
       50
176
     1
 90
        3
176
     1
 62
     5
420
      255
176
     1
290
     0
176
     1
 90
       50
176
     1
 90
       50
176
     1
 90
       50
176
     1
290
     0
176
     1
 90
       50
176
     1
 62
   256
176
     0
 40
1.0
176
     0
 90
        2
176
     1
  1
strokes_ogs.tif
176
     1
290
     0
176
     1
 40
1.0
176
     1
 40
1.0
176
     1
  0
VISUALSTYLE
  5
32
102
{ACAD_REACTORS
330
2A
102
}
330
2A
100
AcDbVisualStyle
  2
Basic
 70
     7
177
     3
291
     1
 70
    58
 90
        1
176
     1
 90
        0
176
     1
 90
        1
176
     1
 90
        0
176
     1
 40
0.6
176
     1
 40
30.0
176
     1
 62
     7
420
 16777215
176
     1
 90
        0
176
     1
 90
        4
176
     1
 62
     7
176
     1
 62
   257
176
     1
 90
        1
176
     1
 90
        1
176
     1
 40
1.0
176
     1
 90
        8
176
     1
 62
     7
176
     1
 40
1.0
176
     1
 90
        1
176
     1
 90
        6
176
     1
 90
        2
176
     1
 62
     7
176
     1
 90
        5
176
     1
 90
        0
176
     1
 90
        0
176
     1
290
     0
176
     1
 90
        1
176
     1
 40
0.0
176
     1
 90
        0
176
     1
290
     0
176
     1
290
     1
176
     1
290
     1
176
     1
290
     0
176
     1
290
     0
176
     1
290
     0
176
     1
290
     0
176
     1
290
     0
176
     1
290
     0
176
     1
 90
       50
176
     1
 40
0.0
176
     1
 40
1.0
176
     1
 90
        0
176
     1
 62
    18
420
        0
176
     1
 90
       50
176
     1
 90
        3
176
     1
 62
     5
420
      255
176
     1
290
     0
176
     1
 90
       50
176
     1
 90
       50
176
     1
 90
       50
176
     1
290
     0
176
     1
 90
       50
176
     1
 62
   256
176
     0
 40
1.0
176
     0
 90
        2
176
     1
  1
strokes_ogs.tif
176
     1
290
     0
176
     1
 40
1.0
176
     1
 40
1.0
176
     1
  0
VISUALSTYLE
  5
36
102
{ACAD_REACTORS
330
2A
102
}
330
2A
100
AcDbVisualStyle
  2
Brighten
 70
    12
177
     3
291
     1
 70
    58
 90
        2
176
     1
 90
        2
176
     1
 90
        0
176
     1
 90
        0
176
     1
 40
0.6
176
     1
 40
30.0
176
     1
 62
     7
420
 16777215
176
     1
 90
        1
176
     1
 90
        4
176
     1
 62
     7
176
     1
 62
   257
176
     1
 90
        1
176
     1
 90
        1
176
     1
 40
1.0
176
     1
 90
        8
176
     1
 62
     7
176
     1
 40
1.0
176
     1
 90
        1
176
     1
 90
        6
176
     1
 90
        2
176
     1
 62
     7
176
     1
 90
        5
176
     1
 90
        0
176
     1
 90
        0
176
     1
290
     0
176
     1
 90
        1
176
     1
 40
50.0
176
     1
 90
        0
176
     1
290
     0
176
     1
290
     1
176
     1
290
     1
176
     1
290
     0
176
     1
290
     0
176
     1
290
     0
176
     1
290
     0
176
     1
290
     0
176
     1
290
     0
176
     1
 90
       50
176
     1
 40
0.0
176
     1
 40
1.0
176
     1
 90
        0
176
     1
 62
    18
420
        0
176
     1
 90
       50
176
     1
 90
        3
176
     1
 62
     5
420
      255
176
     1
290
     0
176
     1
 90
       50
176
     1
 90
       50
176
     1
 90
       50
176
     1
290
     0
176
     1
 90
       50
176
     1
 62
   256
176
     0
 40
1.0
176
     0
 90
        2
176
     1
  1
strokes_ogs.tif
176
     1
290
     0
176
     1
 40
1.0
176
     1
 40
1.0
176
     1
  0
VISUALSTYLE
  5
3A
102
{ACAD_REACTORS
330
2A
102
}
330
2A
100
AcDbVisualStyle
  2
ColorChange
 70
    16
177
     3
291
     1
 70
    58
 90
        2
176
     1
 90
        2
176
     1
 90
        3
176
     1
 90
        0
176
     1
 40
0.6
176
     1
 40
30.0
176
     1
 62
     8
420
  8421504
176
     1
 90
        1
176
     1
 90
        4
176
     1
 62
     7
176
     1
 62
   257
176
     1
 90
        1
176
     1
 90
        1
176
     1
 40
1.0
176
     1
 90
        8
176
     1
 62
     8
420
  8421504
176
     1
 40
1.0
176
     1
 90
        1
176
     1
 90
        6
176
     1
 90
        2
176
     1
 62
     7
176
     1
 90
        5
176
     1
 90
        0
176
     1
 90
        0
176
     1
290
     0
176
     1
 90
        1
176
     1
 40
0.0
176
     1
 90
        0
176
     1
290
     0
176
     1
290
     1
176
     1
290
     1
176
     1
290
     0
176
     1
290
     0
176
     1
290
     0
176
     1
290
     0
176
     1
290
     0
176
     1
290
     0
176
     1
 90
       50
176
     1
 40
0.0
176
     1
 40
1.0
176
     1
 90
        0
176
     1
 62
    18
420
        0
176
     1
 90
       50
176
     1
 90
        3
176
     1
 62
     5
420
      255
176
     1
290
     0
176
     1
 90
       50
176
     1
 90
       50
176
     1
 90
       50
176
     1
290
     0
176
     1
 90
       50
176
     1
 62
   256
176
     0
 40
1.0
176
     0
 90
        2
176
     1
  1
strokes_ogs.tif
176
     1
290
     0
176
     1
 40
1.0
176
     1
 40
1.0
176
     1
  0
VISUALSTYLE
  5
34
102
{ACAD_REACTORS
330
2A
102
}
330
2A
100
AcDbVisualStyle
  2
Conceptual
 70
     9
177
     3
291
     0
 70
    58
 90
        3
176
     1
 90
        2
176
     1
 90
        0
176
     1
 90
        0
176
     1
 40
0.6
176
     1
 40
30.0
176
     1
 62
     7
420
 16777215
176
     1
 90
        2
176
     1
 90
        2
176
     1
 62
     7
176
     1
 62
   257
176
     1
 90
        1
176
     1
 90
        1
176
     1
 40
179.0
176
     1
 90
        8
176
     1
 62
     7
176
     1
 40
1.0
176
     1
 90
        1
176
     1
 90
        6
176
     1
 90
        2
176
     1
 62
     7
176
     1
 90
        3
176
     1
 90
        0
176
     1
 90
        0
176
     1
290
     0
176
     1
 90
        1
176
     1
 40
0.0
176
     1
 90
        0
176
     1
290
     0
176
     1
290
     1
176
     1
290
     1
176
     1
290
     0
176
     1
290
     0
176
     1
290
     0
176
     1
290
     0
176
     1
290
     0
176
     1
290
     0
176
     1
 90
       50
176
     1
 40
0.0
176
     1
 40
1.0
176
     1
 90
        0
176
     1
 62
    18
420
        0
176
     1
 90
       50
176
     1
 90
        3
176
     1
 62
     5
420
      255
176
     1
290
     0
176
     1
 90
       50
176
     1
 90
       50
176
     1
 90
       50
176
     1
290
     0
176
     1
 90
       50
176
     1
 62
   256
176
     0
 40
1.0
176
     0
 90
        2
176
     1
  1
strokes_ogs.tif
176
     1
290
     0
176
     1
 40
1.0
176
     1
 40
1.0
176
     1
  0
VISUALSTYLE
  5
35
102
{ACAD_REACTORS
330
2A
102
}
330
2A
100
AcDbVisualStyle
  2
Dim
 70
    11
177
     3
291
     1
 70
    58
 90
        2
176
     1
 90
        2
176
     1
 90
        0
176
     1
 90
        0
176
     1
 40
0.6
176
     1
 40
30.0
176
     1
 62
     7
420
 16777215
176
     1
 90
        1
176
     1
 90
        4
176
     1
 62
     7
176
     1
 62
   257
176
     1
 90
        1
176
     1
 90
        1
176
     1
 40
1.0
176
     1
 90
        8
176
     1
 62
     7
176
     1
 40
1.0
176
     1
 90
        1
176
     1
 90
        6
176
     1
 90
        2
176
     1
 62
     7
176
     1
 90
        5
176
     1
 90
        0
176
     1
 90
        0
176
     1
290
     0
176
     1
 90
        1
176
     1
 40
-50.0
176
     1
 90
        0
176
     1
290
     0
176
     1
290
     1
176
     1
290
     1
176
     1
290
     0
176
     1
290
     0
176
     1
290
     0
176
     1
290
     0
176
     1
290
     0
176
     1
290
     0
176
     1
 90
       50
176
     1
 40
0.0
176
     1
 40
1.0
176
     1
 90
        0
176
     1
 62
    18
420
        0
176
     1
 90
       50
176
     1
 90
        3
176
     1
 62
     5
420
      255
176
     1
290
     0
176
     1
 90
       50
176
     1
 90
       50
176
     1
 90
       50
176
     1
290
     0
176
     1
 90
       50
176
     1
 62
   256
176
     0
 40
1.0
176
     0
 90
        2
176
     1
  1
strokes_ogs.tif
176
     1
290
     0
176
     1
 40
1.0
176
     1
 40
1.0
176
     1
  0
VISUALSTYLE
  5
3D
102
{ACAD_REACTORS
330
2A
102
}
330
2A
100
AcDbVisualStyle
  2
EdgeColorOff
 70
    22
177
     3
291
     1
 70
    58
 90
        2
176
     0
 90
        2
176
     0
 90
        0
176
     0
 90
        0
176
     0
 40
0.6
176
     0
 40
30.0
176
     0
 62
     7
420
 16777215
176
     0
 90
        1
176
     0
 90
        4
176
     0
 62
     7
176
     0
 62
   257
176
     0
 90
        1
176
     0
 90
        1
176
     0
 40
1.0
176
     0
 90
        8
176
     2
 62
     7
176
     0
 40
1.0
176
     0
 90
        1
176
     0
 90
        6
176
     0
 90
        2
176
     0
 62
     7
176
     0
 90
        5
176
     0
 90
        0
176
     0
 90
        0
176
     0
290
     0
176
     0
 90
        1
176
     0
 40
0.0
176
     0
 90
        0
176
     0
290
     0
176
     0
290
     1
176
     0
290
     1
176
     0
290
     0
176
     0
290
     0
176
     0
290
     0
176
     0
290
     0
176
     0
290
     0
176
     0
290
     0
176
     0
 90
       50
176
     0
 40
0.0
176
     0
 40
1.0
176
     0
 90
        0
176
     0
 62
    18
420
        0
176
     0
 90
       50
176
     0
 90
        3
176
     0
 62
     5
420
      255
176
     0
290
     0
176
     0
 90
       50
176
     0
 90
       50
176
     0
 90
       50
176
     0
290
     0
176
     0
 90
       50
176
     0
 62
   256
176
     0
 40
1.0
176
     0
 90
        2
176
     0
  1
strokes_ogs.tif
176
     0
290
     0
176
     0
 40
1.0
176
     0
 40
1.0
176
     0
  0
VISUALSTYLE
  5
39
102
{ACAD_REACTORS
330
2A
102
}
330
2A
100
AcDbVisualStyle
  2
Facepattern
 70
    15
177
     3
291
     1
 70
    58
 90
        2
176
     1
 90
        2
176
     1
 90
        0
176
     1
 90
        0
176
     1
 40
0.6
176
     1
 40
30.0
176
     1
 62
     7
420
 16777215
176
     1
 90
        1
176
     1
 90
        4
176
     1
 62
     7
176
     1
 62
   257
176
     1
 90
        1
176
     1
 90
        1
176
     1
 40
1.0
176
     1
 90
        8
176
     1
 62
     7
176
     1
 40
1.0
176
     1
 90
        1
176
     1
 90
        6
176
     1
 90
        2
176
     1
 62
     7
176
     1
 90
        5
176
     1
 90
        0
176
     1
 90
        0
176
     1
290
     0
176
     1
 90
        1
176
     1
 40
0.0
176
     1
 90
        0
176
     1
290
     0
176
     1
290
     1
176
     1
290
     1
176
     1
290
     0
176
     1
290
     0
176
     1
290
     0
176
     1
290
     0
176
     1
290
     0
176
     1
290
     0
176
     1
 90
       50
176
     1
 40
0.0
176
     1
 40
1.0
176
     1
 90
        0
176
     1
 62
    18
420
        0
176
     1
 90
       50
176
     1
 90
        3
176
     1
 62
     5
420
      255
176
     1
290
     0
176
     1
 90
       50
176
     1
 90
       50
176
     1
 90
       50
176
     1
290
     0
176
     1
 90
       50
176
     1
 62
   256
176
     0
 40
1.0
176
     0
 90
        2
176
     1
  1
strokes_ogs.tif
176
     1
290
     0
176
     1
 40
1.0
176
     1
 40
1.0
176
     1
  0
VISUALSTYLE
  5
2B
102
{ACAD_REACTORS
330
2A
102
}
330
2A
100
AcDbVisualStyle
  2
Flat
 70
     0
177
     3
291
     1
 70
    58
 90
        2
176
     1
 90
        1
176
     1
 90
        1
176
     1
 90
        2
176
     1
 40
0.6
176
     1
 40
30.0
176
     1
 62
     7
420
 16777215
176
     1
 90
        0
176
     1
 90
        0
176
     1
 62
     7
176
     1
 62
   257
176
     1
 90
        1
176
     1
 90
        1
176
     1
 40
1.0
176
     1
 90
        8
176
     1
 62
     7
176
     1
 40
1.0
176
     1
 90
        1
176
     1
 90
        6
176
     1
 90
        2
176
     1
 62
     7
176
     1
 90
        5
176
     1
 90
        0
176
     1
 90
        0
176
     1
290
     0
176
     1
 90
       13
176
     1
 40
0.0
176
     1
 90
        0
176
     1
290
     0
176
     1
290
     1
176
     1
290
     1
176
     1
290
     0
176
     1
290
     0
176
     1
290
     0
176
     1
290
     0
176
     1
290
     0
176
     1
290
     0
176
     1
 90
       50
176
     1
 40
0.0
176
     1
 40
1.0
176
     1
 90
        0
176
     1
 62
    18
420
        0
176
     1
 90
       50
176
     1
 90
        3
176
     1
 62
     5
420
      255
176
     1
290
     0
176
     1
 90
       50
176
     1
 90
       50
176
     1
 90
       50
176
     1
290
     0
176
     1
 90
       50
176
     1
 62
   256
176
     0
 40
1.0
176
     0
 90
        2
176
     1
  1
strokes_ogs.tif
176
     1
290
     0
176
     1
 40
1.0
176
     1
 40
1.0
176
     1
  0
VISUALSTYLE
  5
2C
102
{ACAD_REACTORS
330
2A
102
}
330
2A
100
AcDbVisualStyle
  2
FlatWithEdges
 70
     1
177
     3
291
     1
 70
    58
 90
        2
176
     1
 90
        1
176
     1
 90
        1
176
     1
 90
        2
176
     1
 40
0.6
176
     1
 40
30.0
176
     1
 62
     7
420
 16777215
176
     1
 90
        1
176
     1
 90
        0
176
     1
 62
     7
176
     1
 62
   257
176
     1
 90
        1
176
     1
 90
        1
176
     1
 40
1.0
176
     1
 90
        0
176
     1
 62
   257
176
     1
 40
1.0
176
     1
 90
        1
176
     1
 90
        6
176
     1
 90
        2
176
     1
 62
     7
176
     1
 90
        5
176
     1
 90
        0
176
     1
 90
        0
176
     1
290
     0
176
     1
 90
       13
176
     1
 40
0.0
176
     1
 90
        0
176
     1
290
     0
176
     1
290
     1
176
     1
290
     1
176
     1
290
     0
176
     1
290
     0
176
     1
290
     0
176
     1
290
     0
176
     1
290
     0
176
     1
290
     0
176
     1
 90
       50
176
     1
 40
0.0
176
     1
 40
1.0
176
     1
 90
        0
176
     1
 62
    18
420
        0
176
     1
 90
       50
176
     1
 90
        3
176
     1
 62
     5
420
      255
176
     1
290
     0
176
     1
 90
       50
176
     1
 90
       50
176
     1
 90
       50
176
     1
290
     0
176
     1
 90
       50
176
     1
 62
   256
176
     0
 40
1.0
176
     0
 90
        2
176
     1
  1
strokes_ogs.tif
176
     1
290
     0
176
     1
 40
1.0
176
     1
 40
1.0
176
     1
  0
VISUALSTYLE
  5
2D
102
{ACAD_REACTORS
330
2A
102
}
330
2A
100
AcDbVisualStyle
  2
Gouraud
 70
     2
177
     3
291
     1
 70
    58
 90
        2
176
     1
 90
        2
176
     1
 90
        1
176
     1
 90
        2
176
     1
 40
0.6
176
     1
 40
30.0
176
     1
 62
     7
420
 16777215
176
     1
 90
        0
176
     1
 90
        0
176
     1
 62
     7
176
     1
 62
   257
176
     1
 90
        1
176
     1
 90
        1
176
     1
 40
1.0
176
     1
 90
        0
176
     1
 62
     7
176
     1
 40
1.0
176
     1
 90
        1
176
     1
 90
        6
176
     1
 90
        2
176
     1
 62
     7
176
     1
 90
        5
176
     1
 90
        0
176
     1
 90
        0
176
     1
290
     0
176
     1
 90
       13
176
     1
 40
0.0
176
     1
 90
        0
176
     1
290
     0
176
     1
290
     1
176
     1
290
     1
176
     1
290
     0
176
     1
290
     0
176
     1
290
     0
176
     1
290
     0
176
     1
290
     0
176
     1
290
     0
176
     1
 90
       50
176
     1
 40
0.0
176
     1
 40
1.0
176
     1
 90
        0
176
     1
 62
    18
420
        0
176
     1
 90
       50
176
     1
 90
        3
176
     1
 62
     5
420
      255
176
     1
290
     0
176
     1
 90
       50
176
     1
 90
       50
176
     1
 90
       50
176
     1
290
     0
176
     1
 90
       50
176
     1
 62
   256
176
     0
 40
1.0
176
     0
 90
        2
176
     1
  1
strokes_ogs.tif
176
     1
290
     0
176
     1
 40
1.0
176
     1
 40
1.0
176
     1
  0
VISUALSTYLE
  5
2E
102
{ACAD_REACTORS
330
2A
102
}
330
2A
100
AcDbVisualStyle
  2
GouraudWithEdges
 70
     3
177
     3
291
     1
 70
    58
 90
        2
176
     1
 90
        2
176
     1
 90
        1
176
     1
 90
        2
176
     1
 40
0.6
176
     1
 40
30.0
176
     1
 62
     7
420
 16777215
176
     1
 90
        1
176
     1
 90
        0
176
     1
 62
     7
176
     1
 62
   257
176
     1
 90
        1
176
     1
 90
        1
176
     1
 40
1.0
176
     1
 90
        0
176
     1
 62
   257
176
     1
 40
1.0
176
     1
 90
        1
176
     1
 90
        6
176
     1
 90
        2
176
     1
 62
     7
176
     1
 90
        5
176
     1
 90
        0
176
     1
 90
        0
176
     1
290
     0
176
     1
 90
       13
176
     1
 40
0.0
176
     1
 90
        0
176
     1
290
     0
176
     1
290
     1
176
     1
290
     1
176
     1
290
     0
176
     1
290
     0
176
     1
290
     0
176
     1
290
     0
176
     1
290
     0
176
     1
290
     0
176
     1
 90
       50
176
     1
 40
0.0
176
     1
 40
1.0
176
     1
 90
        0
176
     1
 62
    18
420
        0
176
     1
 90
       50
176
     1
 90
        3
176
     1
 62
     5
420
      255
176
     1
290
     0
176
     1
 90
       50
176
     1
 90
       50
176
     1
 90
       50
176
     1
290
     0
176
     1
 90
       50
176
     1
 62
   256
176
     0
 40
1.0
176
     0
 90
        2
176
     1
  1
strokes_ogs.tif
176
     1
290
     0
176
     1
 40
1.0
176
     1
 40
1.0
176
     1
  0
VISUALSTYLE
  5
31
102
{ACAD_REACTORS
330
2A
102
}
330
2A
100
AcDbVisualStyle
  2
Hidden
 70
     6
177
     3
291
     0
 70
    58
 90
        1
176
     1
 90
        2
176
     1
 90
        2
176
     1
 90
        0
176
     1
 40
0.6
176
     1
 40
30.0
176
     1
 62
     7
420
 16777215
176
     1
 90
        2
176
     1
 90
        2
176
     1
 62
     7
176
     1
 62
   257
176
     1
 90
        2
176
     1
 90
        1
176
     1
 40
40.0
176
     1
 90
        0
176
     1
 62
   257
176
     1
 40
1.0
176
     1
 90
        1
176
     1
 90
        6
176
     1
 90
        2
176
     1
 62
     7
176
     1
 90
        3
176
     1
 90
        0
176
     1
 90
        0
176
     1
290
     0
176
     1
 90
        1
176
     1
 40
0.0
176
     1
 90
        0
176
     1
290
     0
176
     1
290
     1
176
     1
290
     1
176
     1
290
     0
176
     1
290
     0
176
     1
290
     0
176
     1
290
     0
176
     1
290
     0
176
     1
290
     0
176
     1
 90
       50
176
     1
 40
0.0
176
     1
 40
1.0
176
     1
 90
        0
176
     1
 62
    18
420
        0
176
     1
 90
       50
176
     1
 90
        3
176
     1
 62
     5
420
      255
176
     1
290
     0
176
     1
 90
       50
176
     1
 90
       50
176
     1
 90
       50
176
     1
290
     0
176
     1
 90
       50
176
     1
 62
   256
176
     0
 40
1.0
176
     0
 90
        2
176
     1
  1
strokes_ogs.tif
176
     1
290
     0
176
     1
 40
1.0
176
     1
 40
1.0
176
     1
  0
VISUALSTYLE
  5
3B
102
{ACAD_REACTORS
330
2A
102
}
330
2A
100
AcDbVisualStyle
  2
JitterOff
 70
    20
177
     3
291
     1
 70
    58
 90
        2
176
     0
 90
        2
176
     0
 90
        0
176
     0
 90
        0
176
     0
 40
0.6
176
     0
 40
30.0
176
     0
 62
     7
420
 16777215
176
     0
 90
        1
176
     0
 90
        4
176
     0
 62
     7
176
     0
 62
   257
176
     0
 90
        1
176
     0
 90
        1
176
     0
 40
1.0
176
     0
 90
       10
176
     2
 62
     7
176
     0
 40
1.0
176
     0
 90
        1
176
     0
 90
        6
176
     0
 90
        2
176
     0
 62
     7
176
     0
 90
        5
176
     0
 90
        0
176
     0
 90
        0
176
     0
290
     0
176
     0
 90
        1
176
     0
 40
0.0
176
     0
 90
        0
176
     0
290
     0
176
     0
290
     1
176
     0
290
     1
176
     0
290
     0
176
     0
290
     0
176
     0
290
     0
176
     0
290
     0
176
     0
290
     0
176
     0
290
     0
176
     0
 90
       50
176
     0
 40
0.0
176
     0
 40
1.0
176
     0
 90
        0
176
     0
 62
    18
420
        0
176
     0
 90
       50
176
     0
 90
        3
176
     0
 62
     5
420
      255
176
     0
290
     0
176
     0
 90
       50
176
     0
 90
       50
176
     0
 90
       50
176
     0
290
     0
176
     0
 90
       50
176
     0
 62
   256
176
     0
 40
1.0
176
     0
 90
        2
176
     0
  1
strokes_ogs.tif
176
     0
290
     0
176
     0
 40
1.0
176
     0
 40
1.0
176
     0
  0
VISUALSTYLE
  5
38
102
{ACAD_REACTORS
330
2A
102
}
330
2A
100
AcDbVisualStyle
  2
Linepattern
 70
    14
177
     3
291
     1
 70
    58
 90
        2
176
     1
 90
        2
176
     1
 90
        0
176
     1
 90
        0
176
     1
 40
0.6
176
     1
 40
30.0
176
     1
 62
     7
420
 16777215
176
     1
 90
        1
176
     1
 90
        4
176
     1
 62
     7
176
     1
 62
   257
176
     1
 90
        7
176
     1
 90
        7
176
     1
 40
1.0
176
     1
 90
        8
176
     1
 62
     7
176
     1
 40
1.0
176
     1
 90
        1
176
     1
 90
        6
176
     1
 90
        2
176
     1
 62
     7
176
     1
 90
        5
176
     1
 90
        0
176
     1
 90
        0
176
     1
290
     0
176
     1
 90
        1
176
     1
 40
0.0
176
     1
 90
        0
176
     1
290
     0
176
     1
290
     1
176
     1
290
     1
176
     1
290
     0
176
     1
290
     0
176
     1
290
     0
176
     1
290
     0
176
     1
290
     0
176
     1
290
     0
176
     1
 90
       50
176
     1
 40
0.0
176
     1
 40
1.0
176
     1
 90
        0
176
     1
 62
    18
420
        0
176
     1
 90
       50
176
     1
 90
        3
176
     1
 62
     5
420
      255
176
     1
290
     0
176
     1
 90
       50
176
     1
 90
       50
176
     1
 90
       50
176
     1
290
     0
176
     1
 90
       50
176
     1
 62
   256
176
     0
 40
1.0
176
     0
 90
        2
176
     1
  1
strokes_ogs.tif
176
     1
290
     0
176
     1
 40
1.0
176
     1
 40
1.0
176
     1
  0
VISUALSTYLE
  5
3C
102
{ACAD_REACTORS
330
2A
102
}
330
2A
100
AcDbVisualStyle
  2
OverhangOff
 70
    21
177
     3
291
     1
 70
    58
 90
        2
176
     0
 90
        2
176
     0
 90
        0
176
     0
 90
        0
176
     0
 40
0.6
176
     0
 40
30.0
176
     0
 62
     7
420
 16777215
176
     0
 90
        1
176
     0
 90
        4
176
     0
 62
     7
176
     0
 62
   257
176
     0
 90
        1
176
     0
 90
        1
176
     0
 40
1.0
176
     0
 90
        9
176
     2
 62
     7
176
     0
 40
1.0
176
     0
 90
        1
176
     0
 90
        6
176
     0
 90
        2
176
     0
 62
     7
176
     0
 90
        5
176
     0
 90
        0
176
     0
 90
        0
176
     0
290
     0
176
     0
 90
        1
176
     0
 40
0.0
176
     0
 90
        0
176
     0
290
     0
176
     0
290
     1
176
     0
290
     1
176
     0
290
     0
176
     0
290
     0
176
     0
290
     0
176
     0
290
     0
176
     0
290
     0
176
     0
290
     0
176
     0
 90
       50
176
     0
 40
0.0
176
     0
 40
1.0
176
     0
 90
        0
176
     0
 62
    18
420
        0
176
     0
 90
       50
176
     0
 90
        3
176
     0
 62
     5
420
      255
176
     0
290
     0
176
     0
 90
       50
176
     0
 90
       50
176
     0
 90
       50
176
     0
290
     0
176
     0
 90
       50
176
     0
 62
   256
176
     0
 40
1.0
176
     0
 90
        2
176
     0
  1
strokes_ogs.tif
176
     0
290
     0
176
     0
 40
1.0
176
     0
 40
1.0
176
     0
  0
VISUALSTYLE
  5
33
102
{ACAD_REACTORS
330
2A
102
}
330
2A
100
AcDbVisualStyle
  2
Realistic
 70
     8
177
     3
291
     0
 70
    58
 90
        2
176
     1
 90
        3
176
     1
 90
        0
176
     1
 90
        2
176
     1
 40
0.6
176
     1
 40
30.0
176
     1
 62
     7
420
 16777215
176
     1
 90
        0
176
     1
 90
        0
176
     1
 62
     7
176
     1
 62
   257
176
     1
 90
        1
176
     1
 90
        1
176
     1
 40
1.0
176
     1
 90
        8
176
     1
 62
   257
176
     1
 40
1.0
176
     1
 90
        1
176
     1
 90
        6
176
     1
 90
        2
176
     1
 62
     7
176
     1
 90
        3
176
     1
 90
        0
176
     1
 90
        0
176
     1
290
     0
176
     1
 90
       13
176
     1
 40
0.0
176
     1
 90
        0
176
     1
290
     0
176
     1
290
     1
176
     1
290
     1
176
     1
290
     0
176
     1
290
     0
176
     1
290
     0
176
     1
290
     0
176
     1
290
     0
176
     1
290
     0
176
     1
 90
       50
176
     1
 40
0.0
176
     1
 40
1.0
176
     1
 90
        0
176
     1
 62
    18
420
        0
176
     1
 90
       50
176
     1
 90
        3
176
     1
 62
     5
420
      255
176
     1
290
     0
176
     1
 90
       50
176
     1
 90
       50
176
     1
 90
       50
176
     1
290
     0
176
     1
 90
       50
176
     1
 62
   256
176
     0
 40
1.0
176
     0
 90
        2
176
     1
  1
strokes_ogs.tif
176
     1
290
     0
176
     1
 40
1.0
176
     1
 40
1.0
176
     1
  0
VISUALSTYLE
  5
42
102
{ACAD_REACTORS
330
2A
102
}
330
2A
100
AcDbVisualStyle
  2
Shaded
 70
    27
177
     3
291
     0
 70
    58
 90
        2
176
     1
 90
        2
176
     1
 90
        1
176
     1
 90
        2
176
     1
 40
0.6
176
     1
 40
30.0
176
     1
 62
     7
420
 16777215
176
     1
 90
        0
176
     1
 90
        4
176
     1
 62
     7
176
     1
 62
   257
176
     1
 90
        1
176
     1
 90
        1
176
     1
 40
1.0
176
     1
 90
        8
176
     1
 62
   257
176
     1
 40
1.0
176
     1
 90
        1
176
     1
 90
        6
176
     1
 90
        2
176
     1
 62
     8
420
  7895160
176
     1
 90
        3
176
     1
 90
        0
176
     1
 90
        0
176
     1
290
     0
176
     1
 90
        5
176
     1
 40
0.0
176
     1
 90
        0
176
     1
290
     0
176
     1
290
     1
176
     1
290
     1
176
     1
290
     0
176
     1
290
     0
176
     1
290
     0
176
     1
290
     0
176
     1
290
     0
176
     1
290
     0
176
     1
 90
       50
176
     1
 40
0.0
176
     1
 40
1.0
176
     1
 90
        0
176
     1
 62
    18
420
        0
176
     1
 90
       50
176
     1
 90
        3
176
     1
 62
     5
420
      255
176
     1
290
     0
176
     1
 90
       50
176
     1
 90
       50
176
     1
 90
       50
176
     1
290
     0
176
     1
 90
       50
176
     1
 62
   256
176
     0
 40
1.0
176
     0
 90
        2
176
     1
  1
strokes_ogs.tif
176
     1
290
     0
176
     1
 40
1.0
176
     1
 40
1.0
176
     1
  0
VISUALSTYLE
  5
41
102
{ACAD_REACTORS
330
2A
102
}
330
2A
100
AcDbVisualStyle
  2
Shaded with edges
 70
    26
177
     3
291
     0
 70
    58
 90
        2
176
     1
 90
        2
176
     1
 90
        1
176
     1
 90
        2
176
     1
 40
0.6
176
     1
 40
30.0
176
     1
 62
     7
420
 16777215
176
     1
 90
        1
176
     1
 90
       10
176
     1
 62
     7
176
     1
 62
   257
176
     1
 90
        2
176
     1
 90
        1
176
     1
 40
1.0
176
     1
 90
        8
176
     1
 62
   257
176
     1
 40
1.0
176
     1
 90
        1
176
     1
 90
        6
176
     1
 90
        2
176
     1
 62
     7
176
     1
 90
        3
176
     1
 90
        0
176
     1
 90
        0
176
     1
290
     0
176
     1
 90
        5
176
     1
 40
0.0
176
     1
 90
        0
176
     1
290
     0
176
     1
290
     1
176
     1
290
     1
176
     1
290
     0
176
     1
290
     0
176
     1
290
     0
176
     1
290
     0
176
     1
290
     0
176
     1
290
     0
176
     1
 90
       50
176
     1
 40
0.0
176
     1
 40
1.0
176
     1
 90
        0
176
     1
 62
    18
420
        0
176
     1
 90
       50
176
     1
 90
        3
176
     1
 62
     5
420
      255
176
     1
290
     0
176
     1
 90
       50
176
     1
 90
       50
176
     1
 90
       50
176
     1
290
     0
176
     1
 90
       50
176
     1
 62
   256
176
     0
 40
1.0
176
     0
 90
        2
176
     1
  1
strokes_ogs.tif
176
     1
290
     0
176
     1
 40
1.0
176
     1
 40
1.0
176
     1
  0
VISUALSTYLE
  5
3E
102
{ACAD_REACTORS
330
2A
102
}
330
2A
100
AcDbVisualStyle
  2
Shades of Gray
 70
    23
177
     3
291
     0
 70
    58
 90
        2
176
     1
 90
        2
176
     1
 90
        3
176
     1
 90
        0
176
     1
 40
0.6
176
     1
 40
30.0
176
     1
 62
     7
420
 16777215
176
     1
 90
        2
176
     1
 90
        2
176
     1
 62
     7
176
     1
 62
     7
176
     1
 90
        1
176
     1
 90
        1
176
     1
 40
40.0
176
     1
 90
        8
176
     1
 62
     7
176
     1
 40
1.0
176
     1
 90
        1
176
     1
 90
        6
176
     1
 90
        2
176
     1
 62
     7
176
     1
 90
        3
176
     1
 90
        0
176
     1
 90
        0
176
     1
290
     0
176
     1
 90
        1
176
     1
 40
0.0
176
     1
 90
        0
176
     1
290
     0
176
     1
290
     1
176
     1
290
     1
176
     1
290
     0
176
     1
290
     0
176
     1
290
     0
176
     1
290
     0
176
     1
290
     0
176
     1
290
     0
176
     1
 90
       50
176
     1
 40
0.0
176
     1
 40
1.0
176
     1
 90
        0
176
     1
 62
    18
420
        0
176
     1
 90
       50
176
     1
 90
        3
176
     1
 62
     5
420
      255
176
     1
290
     0
176
     1
 90
       50
176
     1
 90
       50
176
     1
 90
       50
176
     1
290
     0
176
     1
 90
       50
176
     1
 62
   256
176
     0
 40
1.0
176
     0
 90
        2
176
     1
  1
strokes_ogs.tif
176
     1
290
     0
176
     1
 40
1.0
176
     1
 40
1.0
176
     1
  0
VISUALSTYLE
  5
3F
102
{ACAD_REACTORS
330
2A
102
}
330
2A
100
AcDbVisualStyle
  2
Sketchy
 70
    24
177
     3
291
     0
 70
    58
 90
        1
176
     1
 90
        2
176
     1
 90
        2
176
     1
 90
        0
176
     1
 40
0.6
176
     1
 40
30.0
176
     1
 62
     7
420
 16777215
176
     1
 90
        2
176
     1
 90
        2
176
     1
 62
     7
176
     1
 62
     7
176
     1
 90
        1
176
     1
 90
        1
176
     1
 40
40.0
176
     1
 90
       11
176
     1
 62
     7
176
     1
 40
1.0
176
     1
 90
        1
176
     1
 90
        6
176
     1
 90
        2
176
     1
 62
     7
176
     1
 90
        6
176
     1
 90
        0
176
     1
 90
        0
176
     1
290
     0
176
     1
 90
        1
176
     1
 40
0.0
176
     1
 90
        0
176
     1
290
     0
176
     1
290
     1
176
     1
290
     1
176
     1
290
     0
176
     1
290
     0
176
     1
290
     0
176
     1
290
     0
176
     1
290
     0
176
     1
290
     0
176
     1
 90
       50
176
     1
 40
0.0
176
     1
 40
1.0
176
     1
 90
        0
176
     1
 62
    18
420
        0
176
     1
 90
       50
176
     1
 90
        3
176
     1
 62
     5
420
      255
176
     1
290
     0
176
     1
 90
       50
176
     1
 90
       50
176
     1
 90
       50
176
     1
290
     0
176
     1
 90
       50
176
     1
 62
   256
176
     0
 40
1.0
176
     0
 90
        2
176
     1
  1
strokes_ogs.tif
176
     1
290
     0
176
     1
 40
1.0
176
     1
 40
1.0
176
     1
  0
VISUALSTYLE
  5
37
102
{ACAD_REACTORS
330
2A
102
}
330
2A
100
AcDbVisualStyle
  2
Thicken
 70
    13
177
     3
291
     1
 70
    58
 90
        2
176
     1
 90
        2
176
     1
 90
        0
176
     1
 90
        0
176
     1
 40
0.6
176
     1
 40
30.0
176
     1
 62
     7
420
 16777215
176
     1
 90
        1
176
     1
 90
        4
176
     1
 62
     7
176
     1
 62
   257
176
     1
 90
        1
176
     1
 90
        1
176
     1
 40
1.0
176
     1
 90
       12
176
     1
 62
     7
176
     1
 40
1.0
176
     1
 90
        1
176
     1
 90
        6
176
     1
 90
        2
176
     1
 62
     7
176
     1
 90
        5
176
     1
 90
        0
176
     1
 90
        0
176
     1
290
     0
176
     1
 90
        1
176
     1
 40
0.0
176
     1
 90
        0
176
     1
290
     0
176
     1
290
     1
176
     1
290
     1
176
     1
290
     0
176
     1
290
     0
176
     1
290
     0
176
     1
290
     0
176
     1
290
     0
176
     1
290
     0
176
     1
 90
       50
176
     1
 40
0.0
176
     1
 40
1.0
176
     1
 90
        0
176
     1
 62
    18
420
        0
176
     1
 90
       50
176
     1
 90
        3
176
     1
 62
     5
420
      255
176
     1
290
     0
176
     1
 90
       50
176
     1
 90
       50
176
     1
 90
       50
176
     1
290
     0
176
     1
 90
       50
176
     1
 62
   256
176
     0
 40
1.0
176
     0
 90
        2
176
     1
  1
strokes_ogs.tif
176
     1
290
     0
176
     1
 40
1.0
176
     1
 40
1.0
176
     1
  0
VISUALSTYLE
  5
30
102
{ACAD_REACTORS
330
2A
102
}
330
2A
100
AcDbVisualStyle
  2
Wireframe
 70
     5
177
     3
291
     0
 70
    58
 90
        0
176
     1
 90
        2
176
     1
 90
        0
176
     1
 90
        0
176
     1
 40
0.6
176
     1
 40
30.0
176
     1
 62
     7
420
 16777215
176
     1
 90
        1
176
     1
 90
        4
176
     1
 62
     7
176
     1
 62
   257
176
     1
 90
        1
176
     1
 90
        1
176
     1
 40
1.0
176
     1
 90
        0
176
     1
 62
   257
176
     1
 40
1.0
176
     1
 90
        1
176
     1
 90
        6
176
     1
 90
        2
176
     1
 62
     7
176
     1
 90
        3
176
     1
 90
        0
176
     1
 90
        0
176
     1
290
     0
176
     1
 90
        1
176
     1
 40
0.0
176
     1
 90
        0
176
     1
290
     0
176
     1
290
     1
176
     1
290
     1
176
     1
290
     0
176
     1
290
     0
176
     1
290
     0
176
     1
290
     0
176
     1
290
     0
176
     1
290
     0
176
     1
 90
       50
176
     1
 40
0.0
176
     1
 40
1.0
176
     1
 90
        0
176
     1
 62
    18
420
        0
176
     1
 90
       50
176
     1
 90
        3
176
     1
 62
     5
420
      255
176
     1
290
     0
176
     1
 90
       50
176
     1
 90
       50
176
     1
 90
       50
176
     1
290
     0
176
     1
 90
       50
176
     1
 62
   256
176
     0
 40
1.0
176
     0
 90
        2
176
     1
  1
strokes_ogs.tif
176
     1
290
     0
176
     1
 40
1.0
176
     1
 40
1.0
176
     1
  0
VISUALSTYLE
  5
40
102
{ACAD_REACTORS
330
2A
102
}
330
2A
100
AcDbVisualStyle
  2
X-Ray
 70
    25
177
     3
291
     0
 70
    58
 90
        2
176
     1
 90
        2
176
     1
 90
        1
176
     1
 90
        1
176
     1
 40
0.5
176
     1
 40
30.0
176
     1
 62
     7
420
 16777215
176
     1
 90
        1
176
     1
 90
        0
176
     1
 62
     7
176
     1
 62
   257
176
     1
 90
        1
176
     1
 90
        1
176
     1
 40
1.0
176
     1
 90
        8
176
     1
 62
     7
176
     1
 40
1.0
176
     1
 90
        1
176
     1
 90
        6
176
     1
 90
        2
176
     1
 62
     7
176
     1
 90
        3
176
     1
 90
        0
176
     1
 90
        0
176
     1
290
     0
176
     1
 90
       13
176
     1
 40
0.0
176
     1
 90
        0
176
     1
290
     0
176
     1
290
     1
176
     1
290
     1
176
     1
290
     0
176
     1
290
     0
176
     1
290
     0
176
     1
290
     0
176
     1
290
     0
176
     1
290
     0
176
     1
 90
       50
176
     1
 40
0.0
176
     1
 40
1.0
176
     1
 90
        0
176
     1
 62
    18
420
        0
176
     1
 90
       50
176
     1
 90
        3
176
     1
 62
     5
420
      255
176
     1
290
     0
176
     1
 90
       50
176
     1
 90
       50
176
     1
 90
       50
176
     1
290
     0
176
     1
 90
       50
176
     1
 62
   256
176
     0
 40
1.0
176
     0
 90
        2
176
     1
  1
strokes_ogs.tif
176
     1
290
     0
176
     1
 40
1.0
176
     1
 40
1.0
176
     1
  0
DICTIONARYVAR
  5
2E6
102
{ACAD_REACTORS
330
2E5
102
}
330
2E5
100
DictionaryVariables
280
     0
  1
1:1
  0
DICTIONARYVAR
  5
2EB
102
{ACAD_REACTORS
330
2E5
102
}
330
2E5
100
DictionaryVariables
280
     0
  1
Standard
  0
DICTIONARYVAR
  5
2EA
102
{ACAD_REACTORS
330
2E5
102
}
330
2E5
100
DictionaryVariables
280
     0
  1
Standard
  0
DICTIONARYVAR
  5
2EE
102
{ACAD_REACTORS
330
2E5
102
}
330
2E5
100
DictionaryVariables
280
     0
  1
6.000000
  0
DICTIONARY
  5
2E7
330
6A
100
AcDbDictionary
280
     1
281
     1
  3
ACAD_ROUNDTRIP_2008_TABLESTYLE_CELLSTYLEMAP
360
2E8
  0
CELLSTYLEMAP
  5
2E8
102
{ACAD_REACTORS
330
2E7
102
}
330
2E7
100
AcDbCellStyleMap
 90
        3
300
CELLSTYLE
  1
TABLEFORMAT_BEGIN
 90
        5
170
     1
 91
        0
 92
    32768
 62
   257
 93
        1
300
CONTENTFORMAT
  1
CONTENTFORMAT_BEGIN
 90
        0
 91
        0
 92
        4
 93
        0
300

 40
0.0
140
1.0
 94
        5
 62
     0
340
11
144
6.0
309
CONTENTFORMAT_END
171
     1
301
MARGIN
  1
CELLMARGIN_BEGIN
 40
1.5
 40
1.5
 40
1.5
 40
1.5
 40
1.5
 40
1.5
309
CELLMARGIN_END
 94
        6
 95
        1
302
GRIDFORMAT
  1
GRIDFORMAT_BEGIN
 90
        0
 91
        1
 62
     0
 92
       -2
340
14
 93
        0
 40
0.045
309
GRIDFORMAT_END
 95
        2
302
GRIDFORMAT
  1
GRIDFORMAT_BEGIN
 90
        0
 91
        1
 62
     0
 92
       -2
340
14
 93
        0
 40
0.045
309
GRIDFORMAT_END
 95
        4
302
GRIDFORMAT
  1
GRIDFORMAT_BEGIN
 90
        0
 91
        1
 62
     0
 92
       -2
340
14
 93
        0
 40
0.045
309
GRIDFORMAT_END
 95
        8
302
GRIDFORMAT
  1
GRIDFORMAT_BEGIN
 90
        0
 91
        1
 62
     0
 92
       -2
340
14
 93
        0
 40
0.045
309
GRIDFORMAT_END
 95
       16
302
GRIDFORMAT
  1
GRIDFORMAT_BEGIN
 90
        0
 91
        1
 62
     0
 92
       -2
340
14
 93
        0
 40
0.045
309
GRIDFORMAT_END
 95
       32
302
GRIDFORMAT
  1
GRIDFORMAT_BEGIN
 90
        0
 91
        1
 62
     0
 92
       -2
340
14
 93
        0
 40
0.045
309
GRIDFORMAT_END
309
TABLEFORMAT_END
  1
CELLSTYLE_BEGIN
 90
        1
 91
        1
300
_TITLE
309
CELLSTYLE_END
300
CELLSTYLE
  1
TABLEFORMAT_BEGIN
 90
        5
170
     1
 91
        0
 92
        0
 62
   257
 93
        1
300
CONTENTFORMAT
  1
CONTENTFORMAT_BEGIN
 90
        0
 91
        0
 92
        4
 93
        0
300

 40
0.0
140
1.0
 94
        5
 62
     0
340
11
144
4.5
309
CONTENTFORMAT_END
171
     1
301
MARGIN
  1
CELLMARGIN_BEGIN
 40
1.5
 40
1.5
 40
1.5
 40
1.5
 40
1.5
 40
1.5
309
CELLMARGIN_END
 94
        6
 95
        1
302
GRIDFORMAT
  1
GRIDFORMAT_BEGIN
 90
        0
 91
        1
 62
     0
 92
       -2
340
14
 93
        0
 40
0.045
309
GRIDFORMAT_END
 95
        2
302
GRIDFORMAT
  1
GRIDFORMAT_BEGIN
 90
        0
 91
        1
 62
     0
 92
       -2
340
14
 93
        0
 40
0.045
309
GRIDFORMAT_END
 95
        4
302
GRIDFORMAT
  1
GRIDFORMAT_BEGIN
 90
        0
 91
        1
 62
     0
 92
       -2
340
14
 93
        0
 40
0.045
309
GRIDFORMAT_END
 95
        8
302
GRIDFORMAT
  1
GRIDFORMAT_BEGIN
 90
        0
 91
        1
 62
     0
 92
       -2
340
14
 93
        0
 40
0.045
309
GRIDFORMAT_END
 95
       16
302
GRIDFORMAT
  1
GRIDFORMAT_BEGIN
 90
        0
 91
        1
 62
     0
 92
       -2
340
14
 93
        0
 40
0.045
309
GRIDFORMAT_END
 95
       32
302
GRIDFORMAT
  1
GRIDFORMAT_BEGIN
 90
        0
 91
        1
 62
     0
 92
       -2
340
14
 93
        0
 40
0.045
309
GRIDFORMAT_END
309
TABLEFORMAT_END
  1
CELLSTYLE_BEGIN
 90
        2
 91
        1
300
_HEADER
309
CELLSTYLE_END
300
CELLSTYLE
  1
TABLEFORMAT_BEGIN
 90
        5
170
     1
 91
        0
 92
        0
 62
   257
 93
        1
300
CONTENTFORMAT
  1
CONTENTFORMAT_BEGIN
 90
        0
 91
        0
 92
        4
 93
        0
300

 40
0.0
140
1.0
 94
        2
 62
     0
340
11
144
4.5
309
CONTENTFORMAT_END
171
     1
301
MARGIN
  1
CELLMARGIN_BEGIN
 40
1.5
 40
1.5
 40
1.5
 40
1.5
 40
1.5
 40
1.5
309
CELLMARGIN_END
 94
        6
 95
        1
302
GRIDFORMAT
  1
GRIDFORMAT_BEGIN
 90
        0
 91
        1
 62
     0
 92
       -2
340
14
 93
        0
 40
0.045
309
GRIDFORMAT_END
 95
        2
302
GRIDFORMAT
  1
GRIDFORMAT_BEGIN
 90
        0
 91
        1
 62
     0
 92
       -2
340
14
 93
        0
 40
0.045
309
GRIDFORMAT_END
 95
        4
302
GRIDFORMAT
  1
GRIDFORMAT_BEGIN
 90
        0
 91
        1
 62
     0
 92
       -2
340
14
 93
        0
 40
0.045
309
GRIDFORMAT_END
 95
        8
302
GRIDFORMAT
  1
GRIDFORMAT_BEGIN
 90
        0
 91
        1
 62
     0
 92
       -2
340
14
 93
        0
 40
0.045
309
GRIDFORMAT_END
 95
       16
302
GRIDFORMAT
  1
GRIDFORMAT_BEGIN
 90
        0
 91
        1
 62
     0
 92
       -2
340
14
 93
        0
 40
0.045
309
GRIDFORMAT_END
 95
       32
302
GRIDFORMAT
  1
GRIDFORMAT_BEGIN
 90
        0
 91
        1
 62
     0
 92
       -2
340
14
 93
        0
 40
0.045
309
GRIDFORMAT_END
309
TABLEFORMAT_END
  1
CELLSTYLE_BEGIN
 90
        3
 91
        2
300
_DATA
309
CELLSTYLE_END
  0
ENDSEC
  0
EOF
