  0
SECTION
  2
HEADER
  9
$ACADVER
  1
AC1015
  9
$ACADMAINTVER
 70
     6
  9
$DWGCODEPAGE
  3
DOS850
  9
$INSBASE
 10
0.0
 20
0.0
 30
0.0
  9
$EXTMIN
 10
0.0
 20
0.0
 30
0.0
  9
$EXTMAX
 10
840.0
 20
594.0
 30
0.0
  9
$LIMMIN
 10
0.0
 20
0.0
  9
$LIMMAX
 10
840.0
 20
594.0
  9
$ORTHOMODE
 70
     0
  9
$REGENMODE
 70
     1
  9
$FILLMODE
 70
     1
  9
$QTEXTMODE
 70
     0
  9
$MIRRTEXT
 70
     1
  9
$LTSCALE
 40
2.0
  9
$ATTMODE
 70
     1
  9
$TEXTSIZE
 40
2.5
  9
$TRACEWID
 40
1.0
  9
$TEXTSTYLE
  7
Standard
  9
$CLAYER
  8
0
  9
$CELTYPE
  6
ByLayer
  9
$CECOLOR
 62
     7
  9
$CELTSCALE
 40
1.0
  9
$DISPSILH
 70
     0
  9
$DIMSCALE
 40
2.0
  9
$DIMASZ
 40
3.5
  9
$DIMEXO
 40
0.625
  9
$DIMDLI
 40
3.75
  9
$DIMRND
 40
0.0
  9
$DIMDLE
 40
0.0
  9
$DIMEXE
 40
1.25
  9
$DIMTP
 40
0.0
  9
$DIMTM
 40
0.0
  9
$DIMTXT
 40
3.5
  9
$DIMCEN
 40
2.5
  9
$DIMTSZ
 40
0.0
  9
$DIMTOL
 70
     0
  9
$DIMLIM
 70
     0
  9
$DIMTIH
 70
     0
  9
$DIMTOH
 70
     0
  9
$DIMSE1
 70
     0
  9
$DIMSE2
 70
     0
  9
$DIMTAD
 70
     1
  9
$DIMZIN
 70
     8
  9
$DIMBLK
  1

  9
$DIMASO
 70
     1
  9
$DIMSHO
 70
     1
  9
$DIMPOST
  1

  9
$DIMAPOST
  1

  9
$DIMALT
 70
     0
  9
$DIMALTD
 70
     3
  9
$DIMALTF
 40
0.03937
  9
$DIMLFAC
 40
1.0
  9
$DIMTOFL
 70
     1
  9
$DIMTVP
 40
0.0
  9
$DIMTIX
 70
     0
  9
$DIMSOXD
 70
     0
  9
$DIMSAH
 70
     0
  9
$DIMBLK1
  1

  9
$DIMBLK2
  1

  9
$DIMSTYLE
  2
ISO-25
  9
$DIMCLRD
 70
     0
  9
$DIMCLRE
 70
     0
  9
$DIMCLRT
 70
     0
  9
$DIMTFAC
 40
1.0
  9
$DIMGAP
 40
0.625
  9
$DIMJUST
 70
     0
  9
$DIMSD1
 70
     0
  9
$DIMSD2
 70
     0
  9
$DIMTOLJ
 70
     0
  9
$DIMTZIN
 70
     8
  9
$DIMALTZ
 70
     0
  9
$DIMALTTZ
 70
     0
  9
$DIMUPT
 70
     0
  9
$DIMDEC
 70
     2
  9
$DIMTDEC
 70
     2
  9
$DIMALTU
 70
     2
  9
$DIMALTTD
 70
     3
  9
$DIMTXSTY
  7
Standard
  9
$DIMAUNIT
 70
     0
  9
$DIMADEC
 70
     0
  9
$DIMALTRND
 40
0.0
  9
$DIMAZIN
 70
     0
  9
$DIMDSEP
 70
    44
  9
$DIMATFIT
 70
     3
  9
$DIMFRAC
 70
     0
  9
$DIMLDRBLK
  1

  9
$DIMLUNIT
 70
     2
  9
$DIMLWD
 70
    -2
  9
$DIMLWE
 70
    -2
  9
$DIMTMOVE
 70
     0
  9
$LUNITS
 70
     2
  9
$LUPREC
 70
     4
  9
$SKETCHINC
 40
1.0
  9
$FILLETRAD
 40
10.0
  9
$AUNITS
 70
     0
  9
$AUPREC
 70
     0
  9
$MENU
  1
.
  9
$ELEVATION
 40
0.0
  9
$PELEVATION
 40
0.0
  9
$THICKNESS
 40
0.0
  9
$LIMCHECK
 70
     0
  9
$CHAMFERA
 40
10.0
  9
$CHAMFERB
 40
10.0
  9
$CHAMFERC
 40
20.0
  9
$CHAMFERD
 40
0.0
  9
$SKPOLY
 70
     0
  9
$TDCREATE
 40
2453854.602172963
  9
$TDUCREATE
 40
2453854.51883963
  9
$TDUPDATE
 40
2453854.602172975
  9
$TDUUPDATE
 40
2453854.518839641
  9
$TDINDWG
 40
0.0000000116
  9
$TDUSRTIMER
 40
0.0000000116
  9
$USRTIMER
 70
     1
  9
$ANGBASE
 50
0.0
  9
$ANGDIR
 70
     0
  9
$PDMODE
 70
     0
  9
$PDSIZE
 40
0.0
  9
$PLINEWID
 40
0.0
  9
$SPLFRAME
 70
     0
  9
$SPLINETYPE
 70
     6
  9
$SPLINESEGS
 70
     8
  9
$HANDSEED
  5
347
  9
$SURFTAB1
 70
     6
  9
$SURFTAB2
 70
     6
  9
$SURFTYPE
 70
     6
  9
$SURFU
 70
     6
  9
$SURFV
 70
     6
  9
$UCSBASE
  2

  9
$UCSNAME
  2

  9
$UCSORG
 10
0.0
 20
0.0
 30
0.0
  9
$UCSXDIR
 10
1.0
 20
0.0
 30
0.0
  9
$UCSYDIR
 10
0.0
 20
1.0
 30
0.0
  9
$UCSORTHOREF
  2

  9
$UCSORTHOVIEW
 70
     0
  9
$UCSORGTOP
 10
0.0
 20
0.0
 30
0.0
  9
$UCSORGBOTTOM
 10
0.0
 20
0.0
 30
0.0
  9
$UCSORGLEFT
 10
0.0
 20
0.0
 30
0.0
  9
$UCSORGRIGHT
 10
0.0
 20
0.0
 30
0.0
  9
$UCSORGFRONT
 10
0.0
 20
0.0
 30
0.0
  9
$UCSORGBACK
 10
0.0
 20
0.0
 30
0.0
  9
$PUCSBASE
  2

  9
$PUCSNAME
  2

  9
$PUCSORG
 10
0.0
 20
0.0
 30
0.0
  9
$PUCSXDIR
 10
1.0
 20
0.0
 30
0.0
  9
$PUCSYDIR
 10
0.0
 20
1.0
 30
0.0
  9
$PUCSORTHOREF
  2

  9
$PUCSORTHOVIEW
 70
     0
  9
$PUCSORGTOP
 10
0.0
 20
0.0
 30
0.0
  9
$PUCSORGBOTTOM
 10
0.0
 20
0.0
 30
0.0
  9
$PUCSORGLEFT
 10
0.0
 20
0.0
 30
0.0
  9
$PUCSORGRIGHT
 10
0.0
 20
0.0
 30
0.0
  9
$PUCSORGFRONT
 10
0.0
 20
0.0
 30
0.0
  9
$PUCSORGBACK
 10
0.0
 20
0.0
 30
0.0
  9
$USERI1
 70
     0
  9
$USERI2
 70
     0
  9
$USERI3
 70
     0
  9
$USERI4
 70
     0
  9
$USERI5
 70
     0
  9
$USERR1
 40
0.0
  9
$USERR2
 40
0.0
  9
$USERR3
 40
0.0
  9
$USERR4
 40
0.0
  9
$USERR5
 40
0.0
  9
$WORLDVIEW
 70
     1
  9
$SHADEDGE
 70
     3
  9
$SHADEDIF
 70
    70
  9
$TILEMODE
 70
     1
  9
$MAXACTVP
 70
    64
  9
$PINSBASE
 10
0.0
 20
0.0
 30
0.0
  9
$PLIMCHECK
 70
     0
  9
$PEXTMIN
 10
0.0
 20
0.0
 30
0.0
  9
$PEXTMAX
 10
840.0
 20
594.0
 30
0.0
  9
$PLIMMIN
 10
0.0
 20
0.0
  9
$PLIMMAX
 10
840.0
 20
594.0
  9
$UNITMODE
 70
     0
  9
$VISRETAIN
 70
     1
  9
$PLINEGEN
 70
     0
  9
$PSLTSCALE
 70
     1
  9
$TREEDEPTH
 70
  3020
  9
$CMLSTYLE
  2
Standard
  9
$CMLJUST
 70
     0
  9
$CMLSCALE
 40
20.0
  9
$PROXYGRAPHICS
 70
     1
  9
$MEASUREMENT
 70
     1
  9
$CELWEIGHT
370
    -1
  9
$ENDCAPS
280
     0
  9
$JOINSTYLE
280
     0
  9
$LWDISPLAY
290
     0
  9
$INSUNITS
 70
     4
  9
$HYPERLINKBASE
  1

  9
$STYLESHEET
  1

  9
$XEDIT
290
     1
  9
$CEPSNTYPE
380
     0
  9
$PSTYLEMODE
290
     1
  9
$FINGERPRINTGUID
  2
{FAEB1C30-E019-11D5-929B-00C0DF256EC4}
  9
$VERSIONGUID
  2
{FAEB1C32-E019-11D5-929B-00C0DF256EC4}
  9
$EXTNAMES
290
     1
  9
$PSVPSCALE
 40
0.0
  9
$OLESTARTUP
290
     0
  0
ENDSEC
  0
SECTION
  2
CLASSES
  0
CLASS
  1
ACDBDICTIONARYWDFLT
  2
AcDbDictionaryWithDefault
  3
ObjectDBX Classes
 90
        0
280
     0
281
     0
  0
CLASS
  1
ACDBPLACEHOLDER
  2
AcDbPlaceHolder
  3
ObjectDBX Classes
 90
        0
280
     0
281
     0
  0
CLASS
  1
LAYOUT
  2
AcDbLayout
  3
ObjectDBX Classes
 90
        0
280
     0
281
     0
  0
ENDSEC
  0
SECTION
  2
TABLES
  0
TABLE
  2
VPORT
  5
8
330
0
100
AcDbSymbolTable
 70
     2
  0
VPORT
  5
29
330
8
100
AcDbSymbolTableRecord
100
AcDbViewportTableRecord
  2
*ACTIVE
 70
     0
 10
0.0
 20
0.0
 11
1.0
 21
1.0
 12
420.0
 22
297.0
 13
0.0
 23
0.0
 14
1.0
 24
1.0
 15
0.0
 25
0.0
 16
0.0
 26
0.0
 36
1.0
 17
0.0
 27
0.0
 37
0.0
 40
594.0
 41
1.414141
 42
50.0
 43
0.0
 44
0.0
 50
0.0
 51
0.0
 71
    16
 72
   100
 73
     1
 74
     0
 75
     0
 76
     0
 77
     0
 78
     0
281
     0
 65
     0
110
0.0
120
0.0
130
0.0
111
1.0
121
0.0
131
0.0
112
0.0
122
1.0
132
0.0
 79
     0
146
0.0
  0
ENDTAB
  0
TABLE
  2
LTYPE
  5
5
330
0
100
AcDbSymbolTable
 70
     3
  0
LTYPE
  5
14
330
5
100
AcDbSymbolTableRecord
100
AcDbLinetypeTableRecord
  2
ByBlock
 70
     0
  3

 72
    65
 73
     0
 40
0.0
  0
LTYPE
  5
15
330
5
100
AcDbSymbolTableRecord
100
AcDbLinetypeTableRecord
  2
ByLayer
 70
     0
  3

 72
    65
 73
     0
 40
0.0
  0
LTYPE
  5
16
330
5
100
AcDbSymbolTableRecord
100
AcDbLinetypeTableRecord
  2
Continuous
 70
     0
  3
Solid line
 72
    65
 73
     0
 40
0.0
  0
LTYPE
  5
2A
330
5
100
AcDbSymbolTableRecord
100
AcDbLinetypeTableRecord
  2
DASHED
 70
     0
  3
__ __ __ __ __
 72
    65
 73
     2
 40
6.25
 49
5.0
 74
     4
 75
     0
340
0
 46
1.0
 50
0.0
 44
0.0
 45
0.0
 49
-1.25
 74
     4
 75
     0
340
0
 46
1.0
 50
0.0
 44
0.0
 45
0.0
  0
LTYPE
  5
E4
330
5
100
AcDbSymbolTableRecord
100
AcDbLinetypeTableRecord
  2
DASHDOT
 70
     0
  3
__ . __ . __ . __ . __
 72
    65
 73
     4
 40
7.5
 49
5.0
 74
     4
 75
     0
340
0
 46
1.0
 50
0.0
 44
0.0
 45
0.0
 49
-1.25
 74
     4
 75
     0
340
0
 46
1.0
 50
0.0
 44
0.0
 45
0.0
 49
0.0
 74
     4
 75
     0
340
0
 46
1.0
 50
0.0
 44
0.0
 45
0.0
 49
-1.25
 74
     4
 75
     0
340
0
 46
1.0
 50
0.0
 44
0.0
 45
0.0
  0
ENDTAB
  0
TABLE
  2
LAYER
  5
2
330
0
100
AcDbSymbolTable
 70
    14
  0
LAYER
  5
10
330
2
100
AcDbSymbolTableRecord
100
AcDbLayerTableRecord
  2
0
 70
     0
 62
     7
  6
Continuous
370
    -3
390
F
  0
LAYER
  5
2B
330
2
100
AcDbSymbolTableRecord
100
AcDbLayerTableRecord
  2
LC-INFO-1-2-mm-A3-0
 70
     1
 62
     7
  6
ByBlock
370
    -3
390
F
  0
LAYER
  5
2C
330
2
100
AcDbSymbolTableRecord
100
AcDbLayerTableRecord
  2
LC-CUT-HIDDEN
 70
     0
 62
     7
  6
DASHED
370
    -3
390
F
  0
LAYER
  5
2D
330
2
100
AcDbSymbolTableRecord
100
AcDbLayerTableRecord
  2
LC-VIEWPORT
 70
     0
 62
     7
  6
ByBlock
370
    -3
390
F
  0
LAYER
  5
2E
330
2
100
AcDbSymbolTableRecord
100
AcDbLayerTableRecord
  2
LC-3D-HIDDEN
 70
     0
 62
     9
  6
DASHED
370
    -3
390
F
  0
LAYER
  5
30
330
2
100
AcDbSymbolTableRecord
100
AcDbLayerTableRecord
  2
LC-001-207-----0
 70
     0
 62
     1
  6
ByBlock
370
    -3
390
F
  0
LAYER
  5
34
330
2
100
AcDbSymbolTableRecord
100
AcDbLayerTableRecord
  2
LC-002-003-----0
 70
     0
 62
     2
  6
ByBlock
370
    -3
390
F
  0
LAYER
  5
36
330
2
100
AcDbSymbolTableRecord
100
AcDbLayerTableRecord
  2
Defpoints
 70
     0
 62
     7
  6
Continuous
290
     0
370
    -3
390
F
  0
LAYER
  5
48
330
2
100
AcDbSymbolTableRecord
100
AcDbLayerTableRecord
  2
LC-003-005-----0
 70
     0
 62
     2
  6
DASHED
370
    -3
390
F
  0
LAYER
  5
50
330
2
100
AcDbSymbolTableRecord
100
AcDbLayerTableRecord
  2
LC-004-002-----0
 70
     0
 62
     1
  6
ByBlock
370
    -3
390
F
  0
LAYER
  5
9A
330
2
100
AcDbSymbolTableRecord
100
AcDbLayerTableRecord
  2
LC-005-002-RND-0
 70
     0
 62
     1
  6
ByBlock
370
    -3
390
F
  0
LAYER
  5
1E9
330
2
100
AcDbSymbolTableRecord
100
AcDbLayerTableRecord
  2
LC-006-205-----0
 70
     0
 62
     1
  6
ByBlock
370
    -3
390
F
  0
LAYER
  5
33B
330
2
100
AcDbSymbolTableRecord
100
AcDbLayerTableRecord
  2
LC-007-003-MTG-0
 70
     0
 62
     2
  6
ByBlock
370
    -3
390
F
  0
LAYER
  5
33F
330
2
100
AcDbSymbolTableRecord
100
AcDbLayerTableRecord
  2
LC-008-003-MTH-0
 70
     0
 62
     2
  6
ByBlock
370
    -3
390
F
  0
ENDTAB
  0
TABLE
  2
STYLE
  5
3
330
0
100
AcDbSymbolTable
 70
     3
  0
STYLE
  5
11
330
3
100
AcDbSymbolTableRecord
100
AcDbTextStyleTableRecord
  2
Standard
 70
     0
 40
0.0
 41
1.0
 50
0.0
 71
     0
 42
2.5
  3
txt
  4

  0
STYLE
  5
2F
330
3
100
AcDbSymbolTableRecord
100
AcDbTextStyleTableRecord
  2
LCTX15-400-0-0-Arial
 70
     0
 40
0.0
 41
0.9
 50
0.0
 71
     0
 42
3.5
  3
ARIAL.TTF
  4

1001
ACAD
1000
Arial
1071
 16777218
  0
STYLE
  5
32
330
3
100
AcDbSymbolTableRecord
100
AcDbTextStyleTableRecord
  2
LCTX15-400-0-0pDIN-Schrift
 70
     0
 40
2.5
 41
0.8
 50
15.0
 71
     0
 42
3.5
  3
STANDARD
  4

  0
ENDTAB
  0
TABLE
  2
VIEW
  5
6
330
0
100
AcDbSymbolTable
 70
     0
  0
ENDTAB
  0
TABLE
  2
UCS
  5
7
330
0
100
AcDbSymbolTable
 70
     0
  0
ENDTAB
  0
TABLE
  2
APPID
  5
9
330
0
100
AcDbSymbolTable
 70
     1
  0
APPID
  5
12
330
9
100
AcDbSymbolTableRecord
100
AcDbRegAppTableRecord
  2
ACAD
 70
     0
  0
ENDTAB
  0
TABLE
  2
DIMSTYLE
  5
A
330
0
100
AcDbSymbolTable
 70
     3
100
AcDbDimStyleTable
  0
DIMSTYLE
105
27
330
A
100
AcDbSymbolTableRecord
100
AcDbDimStyleTableRecord
  2
ISO-25
 70
     0
 41
2.5
 42
0.625
 43
3.75
 44
1.25
 73
     0
 74
     0
 77
     1
 78
     8
140
2.5
141
2.5
143
0.03937
147
0.625
171
     3
172
     1
271
     2
272
     2
274
     3
278
    44
283
     0
284
     8
340
11
  0
DIMSTYLE
105
33
102
{ACAD_REACTORS
330
35
330
83
330
213
330
301
102
}
330
A
100
AcDbSymbolTableRecord
100
AcDbDimStyleTableRecord
  2
LC-DIM-L-0140-02-02
 70
     0
 40
2.0
 41
14.0
 42
0.0
 43
7.5
 44
1.8
 73
     0
 74
     0
 77
     1
 78
     8
 79
     2
140
14.0
141
0.0
146
0.71
147
1.5
176
     2
177
     2
178
     2
179
     2
271
     2
278
    44
289
     1
340
32
  0
DIMSTYLE
105
324
330
A
100
AcDbSymbolTableRecord
100
AcDbDimStyleTableRecord
  2
LC-DIM-W-0140-02-02
 70
     0
 40
2.0
 41
14.0
 42
0.0
 43
7.5
 44
1.8
 73
     0
 74
     0
 77
     1
 78
     8
 79
     2
140
14.0
141
0.0
146
0.71
147
1.5
176
     2
177
     2
178
     2
179
     2
271
     2
278
    44
289
     1
340
32
  0
ENDTAB
  0
TABLE
  2
BLOCK_RECORD
  5
1
330
0
100
AcDbSymbolTable
 70
    31
  0
BLOCK_RECORD
  5
1F
330
1
100
AcDbSymbolTableRecord
100
AcDbBlockTableRecord
  2
*Model_Space
340
22
  0
BLOCK_RECORD
  5
1B
330
1
100
AcDbSymbolTableRecord
100
AcDbBlockTableRecord
  2
*Paper_Space
340
1E
  0
BLOCK_RECORD
  5
23
330
1
100
AcDbSymbolTableRecord
100
AcDbBlockTableRecord
  2
*Paper_Space0
340
26
  0
BLOCK_RECORD
  5
37
330
1
100
AcDbSymbolTableRecord
100
AcDbBlockTableRecord
  2
*D1
340
0
  0
BLOCK_RECORD
  5
45
330
1
100
AcDbSymbolTableRecord
100
AcDbBlockTableRecord
  2
*X12
340
0
102
{BLKREFS
331
4F
102
}
  0
BLOCK_RECORD
  5
53
330
1
100
AcDbSymbolTableRecord
100
AcDbBlockTableRecord
  2
*X23
340
0
102
{BLKREFS
331
67
102
}
  0
BLOCK_RECORD
  5
68
330
1
100
AcDbSymbolTableRecord
100
AcDbBlockTableRecord
  2
*X34
340
0
102
{BLKREFS
331
7F
102
}
  0
BLOCK_RECORD
  5
84
330
1
100
AcDbSymbolTableRecord
100
AcDbBlockTableRecord
  2
*D5
340
0
  0
BLOCK_RECORD
  5
9E
330
1
100
AcDbSymbolTableRecord
100
AcDbBlockTableRecord
  2
*X46
340
0
102
{BLKREFS
331
BA
102
}
  0
BLOCK_RECORD
  5
C7
330
1
100
AcDbSymbolTableRecord
100
AcDbBlockTableRecord
  2
*X57
340
0
102
{BLKREFS
331
E0
102
}
  0
BLOCK_RECORD
  5
EF
330
1
100
AcDbSymbolTableRecord
100
AcDbBlockTableRecord
  2
*X68
340
0
102
{BLKREFS
331
10F
102
}
  0
BLOCK_RECORD
  5
110
330
1
100
AcDbSymbolTableRecord
100
AcDbBlockTableRecord
  2
*X79
340
0
102
{BLKREFS
331
121
102
}
  0
BLOCK_RECORD
  5
128
330
1
100
AcDbSymbolTableRecord
100
AcDbBlockTableRecord
  2
*X810
340
0
102
{BLKREFS
331
135
102
}
  0
BLOCK_RECORD
  5
13F
330
1
100
AcDbSymbolTableRecord
100
AcDbBlockTableRecord
  2
*X911
340
0
102
{BLKREFS
331
14A
102
}
  0
BLOCK_RECORD
  5
14D
330
1
100
AcDbSymbolTableRecord
100
AcDbBlockTableRecord
  2
*X1012
340
0
102
{BLKREFS
331
15A
102
}
  0
BLOCK_RECORD
  5
167
330
1
100
AcDbSymbolTableRecord
100
AcDbBlockTableRecord
  2
*X1113
340
0
102
{BLKREFS
331
176
102
}
  0
BLOCK_RECORD
  5
1AA
330
1
100
AcDbSymbolTableRecord
100
AcDbBlockTableRecord
  2
*X1214
340
0
102
{BLKREFS
331
1AE
102
}
  0
BLOCK_RECORD
  5
1B3
330
1
100
AcDbSymbolTableRecord
100
AcDbBlockTableRecord
  2
*X1315
340
0
102
{BLKREFS
331
1BF
102
}
  0
BLOCK_RECORD
  5
1C3
330
1
100
AcDbSymbolTableRecord
100
AcDbBlockTableRecord
  2
*X1416
340
0
102
{BLKREFS
331
1C7
102
}
  0
BLOCK_RECORD
  5
1C8
330
1
100
AcDbSymbolTableRecord
100
AcDbBlockTableRecord
  2
*X1517
340
0
102
{BLKREFS
331
1CF
102
}
  0
BLOCK_RECORD
  5
1F4
330
1
100
AcDbSymbolTableRecord
100
AcDbBlockTableRecord
  2
*X1618
340
0
102
{BLKREFS
331
1FE
102
}
  0
BLOCK_RECORD
  5
214
330
1
100
AcDbSymbolTableRecord
100
AcDbBlockTableRecord
  2
*D19
340
0
  0
BLOCK_RECORD
  5
220
330
1
100
AcDbSymbolTableRecord
100
AcDbBlockTableRecord
  2
*X1720
340
0
102
{BLKREFS
331
229
102
}
  0
BLOCK_RECORD
  5
22C
330
1
100
AcDbSymbolTableRecord
100
AcDbBlockTableRecord
  2
*X1821
340
0
102
{BLKREFS
331
233
102
}
  0
BLOCK_RECORD
  5
237
330
1
100
AcDbSymbolTableRecord
100
AcDbBlockTableRecord
  2
*X1922
340
0
102
{BLKREFS
331
23E
102
}
  0
BLOCK_RECORD
  5
23F
330
1
100
AcDbSymbolTableRecord
100
AcDbBlockTableRecord
  2
*X2023
340
0
102
{BLKREFS
331
246
102
}
  0
BLOCK_RECORD
  5
24D
330
1
100
AcDbSymbolTableRecord
100
AcDbBlockTableRecord
  2
*X2124
340
0
102
{BLKREFS
331
253
102
}
  0
BLOCK_RECORD
  5
257
330
1
100
AcDbSymbolTableRecord
100
AcDbBlockTableRecord
  2
*X2225
340
0
102
{BLKREFS
331
25D
102
}
  0
BLOCK_RECORD
  5
25E
330
1
100
AcDbSymbolTableRecord
100
AcDbBlockTableRecord
  2
*X2326
340
0
102
{BLKREFS
331
27A
102
}
  0
BLOCK_RECORD
  5
27B
330
1
100
AcDbSymbolTableRecord
100
AcDbBlockTableRecord
  2
*X2427
340
0
102
{BLKREFS
331
28D
102
}
  0
BLOCK_RECORD
  5
28E
330
1
100
AcDbSymbolTableRecord
100
AcDbBlockTableRecord
  2
*X2528
340
0
102
{BLKREFS
331
293
102
}
  0
BLOCK_RECORD
  5
302
330
1
100
AcDbSymbolTableRecord
100
AcDbBlockTableRecord
  2
*D29
340
0
  0
BLOCK_RECORD
  5
325
330
1
100
AcDbSymbolTableRecord
100
AcDbBlockTableRecord
  2
LCDIM1
340
0
102
{BLKREFS
331
342
102
}
  0
ENDTAB
  0
ENDSEC
  0
SECTION
  2
BLOCKS
  0
BLOCK
  5
20
330
1F
100
AcDbEntity
  8
0
100
AcDbBlockBegin
  2
*Model_Space
 70
     0
 71
     0
 10
0.0
 20
0.0
 30
0.0
  3
*Model_Space
  1

  0
ENDBLK
  5
21
330
1F
100
AcDbEntity
  8
0
100
AcDbBlockEnd
  0
BLOCK
  5
1C
330
1B
100
AcDbEntity
 67
     1
  8
0
100
AcDbBlockBegin
  2
*Paper_Space
 70
     0
 71
     0
 10
0.0
 20
0.0
 30
0.0
  3
*Paper_Space
  1

  0
ENDBLK
  5
1D
330
1B
100
AcDbEntity
 67
     1
  8
0
100
AcDbBlockEnd
  0
BLOCK
  5
24
330
23
100
AcDbEntity
  8
0
100
AcDbBlockBegin
  2
*Paper_Space0
 70
     0
 71
     0
 10
0.0
 20
0.0
 30
0.0
  3
*Paper_Space0
  1

  0
ENDBLK
  5
25
330
23
100
AcDbEntity
  8
0
100
AcDbBlockEnd
  0
BLOCK
  5
43
330
37
100
AcDbEntity
  8
0
100
AcDbBlockBegin
  2
*D1
 70
     1
 71
     0
 10
0.0
 20
0.0
 30
0.0
  3
*D1
  1

  0
LINE
  5
38
330
37
100
AcDbEntity
  8
LC-002-003-----0
 62
     2
370
    -2
100
AcDbLine
 10
491.26487
 20
315.243876
 30
0.0
 11
567.6
 21
315.243876
 31
0.0
  0
LINE
  5
39
330
37
100
AcDbEntity
  8
LC-002-003-----0
 62
     2
370
    -2
100
AcDbLine
 10
520.584516
 20
265.262537
 30
0.0
 11
567.6
 21
265.262537
 31
0.0
  0
LINE
  5
3A
330
37
100
AcDbEntity
  8
LC-002-003-----0
 62
     2
370
    -2
100
AcDbLine
 10
564.0
 20
343.243876
 30
0.0
 11
564.0
 21
371.243876
 31
0.0
  0
LINE
  5
3B
330
37
100
AcDbEntity
  8
LC-002-003-----0
 62
     2
370
    -2
100
AcDbLine
 10
564.0
 20
237.262537
 30
0.0
 11
564.0
 21
209.262537
 31
0.0
  0
LINE
  5
3C
330
37
100
AcDbEntity
  8
LC-002-003-----0
 62
     2
370
    -2
100
AcDbLine
 10
564.0
 20
315.243876
 30
0.0
 11
564.0
 21
265.262537
 31
0.0
  0
SOLID
  5
3D
330
37
100
AcDbEntity
  8
LC-002-003-----0
 62
     2
100
AcDbTrace
 10
559.333333
 20
343.243876
 30
0.0
 11
568.666667
 21
343.243876
 31
0.0
 12
564.0
 22
315.243876
 32
0.0
 13
564.0
 23
315.243876
 33
0.0
  0
SOLID
  5
3E
330
37
100
AcDbEntity
  8
LC-002-003-----0
 62
     2
100
AcDbTrace
 10
568.666667
 20
237.262537
 30
0.0
 11
559.333333
 21
237.262537
 31
0.0
 12
564.0
 22
265.262537
 32
0.0
 13
564.0
 23
265.262537
 33
0.0
  0
MTEXT
  5
3F
330
37
100
AcDbEntity
  8
LC-002-003-----0
 62
     2
100
AcDbMText
 10
533.2
 20
290.253207
 30
0.0
 40
28.0
 41
0.0
 71
     5
 72
     1
  1
\A1;DN50
  7
LCTX15-400-0-0pDIN-Schrift
 11
6.123031769111886E-17
 21
1.0
 31
0.0
 73
     1
 44
1.0
  0
POINT
  5
40
330
37
100
AcDbEntity
  8
Defpoints
 62
     0
100
AcDbPoint
 10
491.26487
 20
315.243876
 30
0.0
  0
POINT
  5
41
330
37
100
AcDbEntity
  8
Defpoints
 62
     0
100
AcDbPoint
 10
520.584516
 20
265.262537
 30
0.0
  0
POINT
  5
42
330
37
100
AcDbEntity
  8
Defpoints
 62
     0
100
AcDbPoint
 10
564.0
 20
265.262537
 30
0.0
  0
ENDBLK
  5
44
330
37
100
AcDbEntity
  8
0
100
AcDbBlockEnd
  0
BLOCK
  5
46
330
45
100
AcDbEntity
  8
0
100
AcDbBlockBegin
  2
*X12
 70
     1
 71
     0
 10
0.0
 20
0.0
 30
0.0
  3
*X12
  1

  4
*X1
  0
LINE
  5
49
330
45
100
AcDbEntity
  8
LC-003-005-----0
 62
     7
370
    25
100
AcDbLine
 10
316.375993
 20
317.191683
 30
0.0
 11
310.478087
 21
323.089589
 31
0.0
  0
LINE
  5
4A
330
45
100
AcDbEntity
  8
LC-003-005-----0
 62
     7
370
    25
100
AcDbLine
 10
316.375993
 20
315.77747
 30
0.0
 11
308.768181
 21
323.385282
 31
0.0
  0
LINE
  5
4B
330
45
100
AcDbEntity
  8
LC-003-005-----0
  6
ByBlock
 62
     7
370
    25
100
AcDbLine
 10
315.563435
 20
313.7616
 30
0.0
 11
305.881158
 21
323.443877
 31
0.0
  0
LINE
  5
4C
330
45
100
AcDbEntity
  8
LC-003-005-----0
  6
ByBlock
 62
     7
370
    25
100
AcDbLine
 10
314.166946
 20
313.743876
 30
0.0
 11
305.575993
 21
322.334829
 31
0.0
  0
LINE
  5
4D
330
45
100
AcDbEntity
  8
LC-003-005-----0
 62
     7
370
    25
100
AcDbLine
 10
308.138519
 20
316.943876
 30
0.0
 11
305.575993
 21
319.506402
 31
0.0
  0
LINE
  5
4E
330
45
100
AcDbEntity
  8
LC-003-005-----0
 62
     7
370
    25
100
AcDbLine
 10
306.724305
 20
316.943876
 30
0.0
 11
305.575993
 21
318.092188
 31
0.0
  0
ENDBLK
  5
47
330
45
100
AcDbEntity
  8
0
100
AcDbBlockEnd
  0
BLOCK
  5
54
330
53
100
AcDbEntity
  8
0
100
AcDbBlockBegin
  2
*X23
 70
     1
 71
     0
 10
0.0
 20
0.0
 30
0.0
  3
*X23
  1

  4
*X2
  0
LINE
  5
56
330
53
100
AcDbEntity
  8
LC-003-005-----0
  6
ByBlock
 62
     7
370
    25
100
AcDbLine
 10
436.998222
 20
312.547429
 30
0.0
 11
438.859927
 21
314.409134
 31
0.0
  0
LINE
  5
57
330
53
100
AcDbEntity
  8
LC-003-005-----0
  6
ByBlock
 62
     7
370
    25
100
AcDbLine
 10
434.169795
 20
312.547429
 30
0.0
 11
437.152778
 21
315.530412
 31
0.0
  0
LINE
  5
58
330
53
100
AcDbEntity
  8
LC-003-005-----0
  6
ByBlock
 62
     7
370
    25
100
AcDbLine
 10
431.341368
 20
312.547429
 30
0.0
 11
435.341294
 21
316.547355
 31
0.0
  0
LINE
  5
59
330
53
100
AcDbEntity
  8
LC-003-005-----0
  6
ByBlock
 62
     7
370
    25
100
AcDbLine
 10
428.512941
 20
312.547429
 30
0.0
 11
431.209388
 21
315.243876
 31
0.0
  0
LINE
  5
5A
330
53
100
AcDbEntity
  8
LC-003-005-----0
  6
ByBlock
 62
     7
370
    25
100
AcDbLine
 10
432.364924
 20
316.399412
 30
0.0
 11
433.419077
 21
317.453565
 31
0.0
  0
LINE
  5
5B
330
53
100
AcDbEntity
  8
LC-003-005-----0
  6
ByBlock
 62
     7
370
    25
100
AcDbLine
 10
425.684514
 20
312.547429
 30
0.0
 11
428.380961
 21
315.243876
 31
0.0
  0
LINE
  5
5C
330
53
100
AcDbEntity
  8
LC-003-005-----0
  6
ByBlock
 62
     7
370
    25
100
AcDbLine
 10
422.856086
 20
312.547429
 30
0.0
 11
427.864924
 21
317.556266
 31
0.0
  0
LINE
  5
5D
330
53
100
AcDbEntity
  8
LC-003-005-----0
  6
ByBlock
 62
     7
370
    25
100
AcDbLine
 10
420.027659
 20
312.547429
 30
0.0
 11
426.879146
 21
319.398916
 31
0.0
  0
LINE
  5
5E
330
53
100
AcDbEntity
  8
LC-003-005-----0
  6
ByBlock
 62
     7
370
    25
100
AcDbLine
 10
417.199232
 20
312.547429
 30
0.0
 11
424.380034
 21
319.72823
 31
0.0
  0
LINE
  5
5F
330
53
100
AcDbEntity
  8
LC-003-005-----0
  6
ByBlock
 62
     7
370
    25
100
AcDbLine
 10
414.370805
 20
312.547429
 30
0.0
 11
421.667087
 21
319.84371
 31
0.0
  0
LINE
  5
60
330
53
100
AcDbEntity
  8
LC-003-005-----0
  6
ByBlock
 62
     7
370
    25
100
AcDbLine
 10
411.542378
 20
312.547429
 30
0.0
 11
418.67722
 21
319.68227
 31
0.0
  0
LINE
  5
61
330
53
100
AcDbEntity
  8
LC-003-005-----0
  6
ByBlock
 62
     7
370
    25
100
AcDbLine
 10
408.713951
 20
312.547429
 30
0.0
 11
415.294223
 21
319.1277
 31
0.0
  0
LINE
  5
62
330
53
100
AcDbEntity
  8
LC-003-005-----0
  6
ByBlock
 62
     7
370
    25
100
AcDbLine
 10
395.281971
 20
301.943876
 30
0.0
 11
398.627557
 21
305.289462
 31
0.0
  0
LINE
  5
63
330
53
100
AcDbEntity
  8
LC-003-005-----0
  6
ByBlock
 62
     7
370
    25
100
AcDbLine
 10
405.885524
 20
312.547429
 30
0.0
 11
411.251534
 21
317.913439
 31
0.0
  0
LINE
  5
64
330
53
100
AcDbEntity
  8
LC-003-005-----0
  6
ByBlock
 62
     7
370
    25
100
AcDbLine
 10
392.453544
 20
301.943876
 30
0.0
 11
395.453544
 21
304.943876
 31
0.0
  0
LINE
  5
65
330
53
100
AcDbEntity
  8
LC-003-005-----0
  6
ByBlock
 62
     7
370
    25
100
AcDbLine
 10
397.067741
 20
306.558073
 30
0.0
 11
405.451863
 21
314.942195
 31
0.0
  0
LINE
  5
66
330
53
100
AcDbEntity
  8
LC-003-005-----0
  6
ByBlock
 62
     7
370
    25
100
AcDbLine
 10
401.365616
 20
313.684375
 30
0.0
 11
403.425117
 21
315.743876
 31
0.0
  0
ENDBLK
  5
55
330
53
100
AcDbEntity
  8
0
100
AcDbBlockEnd
  0
BLOCK
  5
69
330
68
100
AcDbEntity
  8
0
100
AcDbBlockBegin
  2
*X34
 70
     1
 71
     0
 10
0.0
 20
0.0
 30
0.0
  3
*X34
  1

  4
*X3
  0
LINE
  5
6B
330
68
100
AcDbEntity
  8
LC-003-005-----0
  6
ByBlock
 62
     7
370
    25
100
AcDbLine
 10
438.078354
 20
265.5443
 30
0.0
 11
439.365616
 21
266.831561
 31
0.0
  0
LINE
  5
6C
330
68
100
AcDbEntity
  8
LC-003-005-----0
  6
ByBlock
 62
     7
370
    25
100
AcDbLine
 10
432.364924
 20
262.659296
 30
0.0
 11
437.649503
 21
267.943876
 31
0.0
  0
LINE
  5
6D
330
68
100
AcDbEntity
  8
LC-003-005-----0
  6
ByBlock
 62
     7
370
    25
100
AcDbLine
 10
432.121076
 20
265.243876
 30
0.0
 11
434.821076
 21
267.943876
 31
0.0
  0
LINE
  5
6E
330
68
100
AcDbEntity
  8
LC-003-005-----0
  6
ByBlock
 62
     7
370
    25
100
AcDbLine
 10
424.854179
 20
260.805406
 30
0.0
 11
427.864924
 21
263.816151
 31
0.0
  0
LINE
  5
6F
330
68
100
AcDbEntity
  8
LC-003-005-----0
  6
ByBlock
 62
     7
370
    25
100
AcDbLine
 10
429.292649
 20
265.243876
 30
0.0
 11
431.992649
 21
267.943876
 31
0.0
  0
LINE
  5
70
330
68
100
AcDbEntity
  8
LC-003-005-----0
  6
ByBlock
 62
     7
370
    25
100
AcDbLine
 10
421.864385
 20
260.644039
 30
0.0
 11
429.164222
 21
267.943876
 31
0.0
  0
LINE
  5
71
330
68
100
AcDbEntity
  8
LC-003-005-----0
  6
ByBlock
 62
     7
370
    25
100
AcDbLine
 10
419.151493
 20
260.759574
 30
0.0
 11
426.335795
 21
267.943876
 31
0.0
  0
LINE
  5
72
330
68
100
AcDbEntity
  8
LC-003-005-----0
  6
ByBlock
 62
     7
370
    25
100
AcDbLine
 10
416.652424
 20
261.088932
 30
0.0
 11
423.507368
 21
267.943876
 31
0.0
  0
LINE
  5
73
330
68
100
AcDbEntity
  8
LC-003-005-----0
  6
ByBlock
 62
     7
370
    25
100
AcDbLine
 10
414.32857
 20
261.593505
 30
0.0
 11
420.678941
 21
267.943876
 31
0.0
  0
LINE
  5
74
330
68
100
AcDbEntity
  8
LC-003-005-----0
  6
ByBlock
 62
     7
370
    25
100
AcDbLine
 10
412.154485
 20
262.247847
 30
0.0
 11
417.850513
 21
267.943876
 31
0.0
  0
LINE
  5
75
330
68
100
AcDbEntity
  8
LC-003-005-----0
  6
ByBlock
 62
     7
370
    25
100
AcDbLine
 10
410.112591
 20
263.03438
 30
0.0
 11
415.022086
 21
267.943876
 31
0.0
  0
LINE
  5
76
330
68
100
AcDbEntity
  8
LC-003-005-----0
  6
ByBlock
 62
     7
370
    25
100
AcDbLine
 10
408.1904
 20
263.940617
 30
0.0
 11
412.193659
 21
267.943876
 31
0.0
  0
LINE
  5
77
330
68
100
AcDbEntity
  8
LC-003-005-----0
  6
ByBlock
 62
     7
370
    25
100
AcDbLine
 10
406.37894
 20
264.957584
 30
0.0
 11
409.365232
 21
267.943876
 31
0.0
  0
LINE
  5
78
330
68
100
AcDbEntity
  8
LC-003-005-----0
  6
ByBlock
 62
     7
370
    25
100
AcDbLine
 10
403.336805
 20
264.743876
 30
0.0
 11
403.865616
 21
265.272687
 31
0.0
  0
LINE
  5
79
330
68
100
AcDbEntity
  8
LC-003-005-----0
  6
ByBlock
 62
     7
370
    25
100
AcDbLine
 10
404.536805
 20
265.943876
 30
0.0
 11
406.536805
 21
267.943876
 31
0.0
  0
LINE
  5
7A
330
68
100
AcDbEntity
  8
LC-003-005-----0
  6
ByBlock
 62
     7
370
    25
100
AcDbLine
 10
401.365616
 20
265.601114
 30
0.0
 11
403.708378
 21
267.943876
 31
0.0
  0
LINE
  5
7B
330
68
100
AcDbEntity
  8
LC-003-005-----0
  6
ByBlock
 62
     7
370
    25
100
AcDbLine
 10
398.879951
 20
265.943876
 30
0.0
 11
400.879951
 21
267.943876
 31
0.0
  0
LINE
  5
7C
330
68
100
AcDbEntity
  8
LC-003-005-----0
  6
ByBlock
 62
     7
370
    25
100
AcDbLine
 10
396.051524
 20
265.943876
 30
0.0
 11
398.051524
 21
267.943876
 31
0.0
  0
LINE
  5
7D
330
68
100
AcDbEntity
  8
LC-003-005-----0
  6
ByBlock
 62
     7
370
    25
100
AcDbLine
 10
393.223096
 20
265.943876
 30
0.0
 11
395.223096
 21
267.943876
 31
0.0
  0
LINE
  5
7E
330
68
100
AcDbEntity
  8
LC-003-005-----0
  6
ByBlock
 62
     7
370
    25
100
AcDbLine
 10
390.394669
 20
265.943876
 30
0.0
 11
392.394669
 21
267.943876
 31
0.0
  0
ENDBLK
  5
6A
330
68
100
AcDbEntity
  8
0
100
AcDbBlockEnd
  0
BLOCK
  5
90
330
84
100
AcDbEntity
  8
0
100
AcDbBlockBegin
  2
*D5
 70
     1
 71
     0
 10
0.0
 20
0.0
 30
0.0
  3
*D5
  1

  0
LINE
  5
85
330
84
100
AcDbEntity
  8
LC-002-003-----0
 62
     2
370
    -2
100
AcDbLine
 10
305.575993
 20
323.443876
 30
0.0
 11
270.8
 21
323.443876
 31
0.0
  0
LINE
  5
86
330
84
100
AcDbEntity
  8
LC-002-003-----0
 62
     2
370
    -2
100
AcDbLine
 10
306.875993
 20
329.48436
 30
0.0
 11
270.8
 21
329.48436
 31
0.0
  0
LINE
  5
87
330
84
100
AcDbEntity
  8
LC-002-003-----0
 62
     2
370
    -2
100
AcDbLine
 10
274.4
 20
295.443876
 30
0.0
 11
274.4
 21
267.443876
 31
0.0
  0
LINE
  5
88
330
84
100
AcDbEntity
  8
LC-002-003-----0
 62
     2
370
    -2
100
AcDbLine
 10
274.4
 20
357.48436
 30
0.0
 11
274.4
 21
385.48436
 31
0.0
  0
LINE
  5
89
330
84
100
AcDbEntity
  8
LC-002-003-----0
 62
     2
370
    -2
100
AcDbLine
 10
274.4
 20
323.443876
 30
0.0
 11
274.4
 21
329.48436
 31
0.0
  0
SOLID
  5
8A
330
84
100
AcDbEntity
  8
LC-002-003-----0
 62
     2
100
AcDbTrace
 10
279.066667
 20
295.443876
 30
0.0
 11
269.733333
 21
295.443876
 31
0.0
 12
274.4
 22
323.443876
 32
0.0
 13
274.4
 23
323.443876
 33
0.0
  0
SOLID
  5
8B
330
84
100
AcDbEntity
  8
LC-002-003-----0
 62
     2
100
AcDbTrace
 10
269.733333
 20
357.48436
 30
0.0
 11
279.066667
 21
357.48436
 31
0.0
 12
274.4
 22
329.48436
 32
0.0
 13
274.4
 23
329.48436
 33
0.0
  0
MTEXT
  5
8C
330
84
100
AcDbEntity
  8
LC-002-003-----0
 62
     2
100
AcDbMText
 10
243.6
 20
326.464118
 30
0.0
 40
28.0
 41
0.0
 71
     5
 72
     1
  1
\A1;0-8(8-16)
  7
LCTX15-400-0-0pDIN-Schrift
 11
6.123031769111886E-17
 21
1.0
 31
0.0
 73
     1
 44
1.0
  0
POINT
  5
8D
330
84
100
AcDbEntity
  8
Defpoints
 62
     0
100
AcDbPoint
 10
305.575993
 20
323.443876
 30
0.0
  0
POINT
  5
8E
330
84
100
AcDbEntity
  8
Defpoints
 62
     0
100
AcDbPoint
 10
306.875993
 20
329.48436
 30
0.0
  0
POINT
  5
8F
330
84
100
AcDbEntity
  8
Defpoints
 62
     0
100
AcDbPoint
 10
274.4
 20
329.48436
 30
0.0
  0
ENDBLK
  5
91
330
84
100
AcDbEntity
  8
0
100
AcDbBlockEnd
  0
BLOCK
  5
9F
330
9E
100
AcDbEntity
  8
0
100
AcDbBlockBegin
  2
*X46
 70
     1
 71
     0
 10
0.0
 20
0.0
 30
0.0
  3
*X46
  1

  4
*X4
  0
LINE
  5
A1
330
9E
100
AcDbEntity
  8
LC-003-005-----0
  6
ByBlock
 62
     7
370
    25
100
AcDbLine
 10
360.224476
 20
306.48436
 30
0.0
 11
361.125993
 21
307.385877
 31
0.0
  0
LINE
  5
A2
330
9E
100
AcDbEntity
  8
LC-003-005-----0
  6
ByBlock
 62
     7
370
    25
100
AcDbLine
 10
359.125993
 20
308.214305
 30
0.0
 11
361.125993
 21
310.214305
 31
0.0
  0
LINE
  5
A3
330
9E
100
AcDbEntity
  8
LC-003-005-----0
  6
ByBlock
 62
     7
370
    25
100
AcDbLine
 10
359.125993
 20
311.042732
 30
0.0
 11
361.125993
 21
313.042732
 31
0.0
  0
LINE
  5
A4
330
9E
100
AcDbEntity
  8
LC-003-005-----0
  6
ByBlock
 62
     7
370
    25
100
AcDbLine
 10
359.125993
 20
313.871159
 30
0.0
 11
361.125993
 21
315.871159
 31
0.0
  0
LINE
  5
A5
330
9E
100
AcDbEntity
  8
LC-003-005-----0
  6
ByBlock
 62
     7
370
    25
100
AcDbLine
 10
375.239194
 20
329.98436
 30
0.0
 11
376.739194
 21
331.48436
 31
0.0
  0
LINE
  5
A6
330
9E
100
AcDbEntity
  8
LC-003-005-----0
  6
ByBlock
 62
     7
370
    25
100
AcDbLine
 10
359.125993
 20
316.699586
 30
0.0
 11
361.125993
 21
318.699586
 31
0.0
  0
LINE
  5
A7
330
9E
100
AcDbEntity
  8
LC-003-005-----0
  6
ByBlock
 62
     7
370
    25
100
AcDbLine
 10
372.410767
 20
329.98436
 30
0.0
 11
373.910767
 21
331.48436
 31
0.0
  0
LINE
  5
A8
330
9E
100
AcDbEntity
  8
LC-003-005-----0
  6
ByBlock
 62
     7
370
    25
100
AcDbLine
 10
359.125993
 20
319.528013
 30
0.0
 11
361.125993
 21
321.528013
 31
0.0
  0
LINE
  5
A9
330
9E
100
AcDbEntity
  8
LC-003-005-----0
  6
ByBlock
 62
     7
370
    25
100
AcDbLine
 10
369.58234
 20
329.98436
 30
0.0
 11
371.08234
 21
331.48436
 31
0.0
  0
LINE
  5
AA
330
9E
100
AcDbEntity
  8
LC-003-005-----0
  6
ByBlock
 62
     7
370
    25
100
AcDbLine
 10
359.125993
 20
322.35644
 30
0.0
 11
361.125993
 21
324.35644
 31
0.0
  0
LINE
  5
AB
330
9E
100
AcDbEntity
  8
LC-003-005-----0
  6
ByBlock
 62
     7
370
    25
100
AcDbLine
 10
366.753913
 20
329.98436
 30
0.0
 11
368.253913
 21
331.48436
 31
0.0
  0
LINE
  5
AC
330
9E
100
AcDbEntity
  8
LC-003-005-----0
  6
ByBlock
 62
     7
370
    25
100
AcDbLine
 10
359.125993
 20
325.184867
 30
0.0
 11
361.125993
 21
327.184867
 31
0.0
  0
LINE
  5
AD
330
9E
100
AcDbEntity
  8
LC-003-005-----0
  6
ByBlock
 62
     7
370
    25
100
AcDbLine
 10
363.925486
 20
329.98436
 30
0.0
 11
365.425486
 21
331.48436
 31
0.0
  0
LINE
  5
AE
330
9E
100
AcDbEntity
  8
LC-003-005-----0
  6
ByBlock
 62
     7
370
    25
100
AcDbLine
 10
359.125993
 20
328.013294
 30
0.0
 11
362.597059
 21
331.48436
 31
0.0
  0
LINE
  5
AF
330
9E
100
AcDbEntity
  8
LC-003-005-----0
  6
ByBlock
 62
     7
370
    25
100
AcDbLine
 10
359.125993
 20
330.841722
 30
0.0
 11
360.836719
 21
332.552448
 31
0.0
  0
LINE
  5
B0
330
9E
100
AcDbEntity
  8
LC-003-005-----0
  6
ByBlock
 62
     7
370
    25
100
AcDbLine
 10
358.603472
 20
333.147628
 30
0.0
 11
360.23394
 21
334.778095
 31
0.0
  0
LINE
  5
B1
330
9E
100
AcDbEntity
  8
LC-003-005-----0
  6
ByBlock
 62
     7
370
    25
100
AcDbLine
 10
358.000692
 20
335.373275
 30
0.0
 11
359.63116
 21
337.003743
 31
0.0
  0
LINE
  5
B2
330
9E
100
AcDbEntity
  8
LC-003-005-----0
  6
ByBlock
 62
     7
370
    25
100
AcDbLine
 10
357.397913
 20
337.598923
 30
0.0
 11
359.02838
 21
339.229391
 31
0.0
  0
LINE
  5
B3
330
9E
100
AcDbEntity
  8
LC-003-005-----0
  6
ByBlock
 62
     7
370
    25
100
AcDbLine
 10
356.795133
 20
339.82457
 30
0.0
 11
358.425601
 21
341.455038
 31
0.0
  0
LINE
  5
B4
330
9E
100
AcDbEntity
  8
LC-003-005-----0
  6
ByBlock
 62
     7
370
    25
100
AcDbLine
 10
355.626496
 20
341.48436
 30
0.0
 11
357.353794
 21
343.211658
 31
0.0
  0
LINE
  5
B5
330
9E
100
AcDbEntity
  8
LC-003-005-----0
  6
ByBlock
 62
     7
370
    25
100
AcDbLine
 10
352.798069
 20
341.48436
 30
0.0
 11
354.798069
 21
343.48436
 31
0.0
  0
LINE
  5
B6
330
9E
100
AcDbEntity
  8
LC-003-005-----0
  6
ByBlock
 62
     7
370
    25
100
AcDbLine
 10
349.969642
 20
341.48436
 30
0.0
 11
351.969642
 21
343.48436
 31
0.0
  0
LINE
  5
B7
330
9E
100
AcDbEntity
  8
LC-003-005-----0
  6
ByBlock
 62
     7
370
    25
100
AcDbLine
 10
347.141215
 20
341.48436
 30
0.0
 11
349.141215
 21
343.48436
 31
0.0
  0
LINE
  5
B8
330
9E
100
AcDbEntity
  8
LC-003-005-----0
  6
ByBlock
 62
     7
370
    25
100
AcDbLine
 10
344.312788
 20
341.48436
 30
0.0
 11
346.312788
 21
343.48436
 31
0.0
  0
LINE
  5
B9
330
9E
100
AcDbEntity
  8
LC-003-005-----0
  6
ByBlock
 62
     7
370
    25
100
AcDbLine
 10
341.875993
 20
341.875993
 30
0.0
 11
343.48436
 21
343.48436
 31
0.0
  0
ENDBLK
  5
A0
330
9E
100
AcDbEntity
  8
0
100
AcDbBlockEnd
  0
BLOCK
  5
C8
330
C7
100
AcDbEntity
  8
0
100
AcDbBlockBegin
  2
*X57
 70
     1
 71
     0
 10
0.0
 20
0.0
 30
0.0
  3
*X57
  1

  4
*X5
  0
LINE
  5
CA
330
C7
100
AcDbEntity
  8
LC-003-005-----0
  6
ByBlock
 62
     7
370
    25
100
AcDbLine
 10
323.454923
 20
306.48436
 30
0.0
 11
324.625993
 21
307.65543
 31
0.0
  0
LINE
  5
CB
330
C7
100
AcDbEntity
  8
LC-003-005-----0
  6
ByBlock
 62
     7
370
    25
100
AcDbLine
 10
322.625993
 20
308.483857
 30
0.0
 11
324.625993
 21
310.483857
 31
0.0
  0
LINE
  5
CC
330
C7
100
AcDbEntity
  8
LC-003-005-----0
  6
ByBlock
 62
     7
370
    25
100
AcDbLine
 10
322.625993
 20
311.312284
 30
0.0
 11
324.625993
 21
313.312284
 31
0.0
  0
LINE
  5
CD
330
C7
100
AcDbEntity
  8
LC-003-005-----0
  6
ByBlock
 62
     7
370
    25
100
AcDbLine
 10
322.625993
 20
314.140711
 30
0.0
 11
324.625993
 21
316.140711
 31
0.0
  0
LINE
  5
CE
330
C7
100
AcDbEntity
  8
LC-003-005-----0
  6
ByBlock
 62
     7
370
    25
100
AcDbLine
 10
322.625993
 20
316.969139
 30
0.0
 11
324.625993
 21
318.969139
 31
0.0
  0
LINE
  5
CF
330
C7
100
AcDbEntity
  8
LC-003-005-----0
  6
ByBlock
 62
     7
370
    25
100
AcDbLine
 10
322.625993
 20
319.797566
 30
0.0
 11
324.625993
 21
321.797566
 31
0.0
  0
LINE
  5
D0
330
C7
100
AcDbEntity
  8
LC-003-005-----0
  6
ByBlock
 62
     7
370
    25
100
AcDbLine
 10
322.625993
 20
322.625993
 30
0.0
 11
324.625993
 21
324.625993
 31
0.0
  0
LINE
  5
D1
330
C7
100
AcDbEntity
  8
LC-003-005-----0
  6
ByBlock
 62
     7
370
    25
100
AcDbLine
 10
341.48436
 20
341.48436
 30
0.0
 11
341.875993
 21
341.875993
 31
0.0
  0
LINE
  5
D2
330
C7
100
AcDbEntity
  8
LC-003-005-----0
  6
ByBlock
 62
     7
370
    25
100
AcDbLine
 10
322.625993
 20
325.45442
 30
0.0
 11
324.625993
 21
327.45442
 31
0.0
  0
LINE
  5
D3
330
C7
100
AcDbEntity
  8
LC-003-005-----0
  6
ByBlock
 62
     7
370
    25
100
AcDbLine
 10
338.655933
 20
341.48436
 30
0.0
 11
340.655933
 21
343.48436
 31
0.0
  0
LINE
  5
D4
330
C7
100
AcDbEntity
  8
LC-003-005-----0
  6
ByBlock
 62
     7
370
    25
100
AcDbLine
 10
322.625993
 20
328.282847
 30
0.0
 11
324.625993
 21
330.282847
 31
0.0
  0
LINE
  5
D5
330
C7
100
AcDbEntity
  8
LC-003-005-----0
  6
ByBlock
 62
     7
370
    25
100
AcDbLine
 10
335.827506
 20
341.48436
 30
0.0
 11
337.827506
 21
343.48436
 31
0.0
  0
LINE
  5
D6
330
C7
100
AcDbEntity
  8
LC-003-005-----0
  6
ByBlock
 62
     7
370
    25
100
AcDbLine
 10
321.499079
 20
329.98436
 30
0.0
 11
325.32909
 21
333.814372
 31
0.0
  0
LINE
  5
D7
330
C7
100
AcDbEntity
  8
LC-003-005-----0
  6
ByBlock
 62
     7
370
    25
100
AcDbLine
 10
332.999079
 20
341.48436
 30
0.0
 11
334.999079
 21
343.48436
 31
0.0
  0
LINE
  5
D8
330
C7
100
AcDbEntity
  8
LC-003-005-----0
  6
ByBlock
 62
     7
370
    25
100
AcDbLine
 10
318.670652
 20
329.98436
 30
0.0
 11
320.170652
 21
331.48436
 31
0.0
  0
LINE
  5
D9
330
C7
100
AcDbEntity
  8
LC-003-005-----0
  6
ByBlock
 62
     7
370
    25
100
AcDbLine
 10
323.537976
 20
334.851685
 30
0.0
 11
326.379649
 21
337.693357
 31
0.0
  0
LINE
  5
DA
330
C7
100
AcDbEntity
  8
LC-003-005-----0
  6
ByBlock
 62
     7
370
    25
100
AcDbLine
 10
330.170652
 20
341.48436
 30
0.0
 11
332.170652
 21
343.48436
 31
0.0
  0
LINE
  5
DB
330
C7
100
AcDbEntity
  8
LC-003-005-----0
  6
ByBlock
 62
     7
370
    25
100
AcDbLine
 10
315.842225
 20
329.98436
 30
0.0
 11
317.342225
 21
331.48436
 31
0.0
  0
LINE
  5
DC
330
C7
100
AcDbEntity
  8
LC-003-005-----0
  6
ByBlock
 62
     7
370
    25
100
AcDbLine
 10
324.588535
 20
338.730671
 30
0.0
 11
329.342225
 21
343.48436
 31
0.0
  0
LINE
  5
DD
330
C7
100
AcDbEntity
  8
LC-003-005-----0
  6
ByBlock
 62
     7
370
    25
100
AcDbLine
 10
313.013798
 20
329.98436
 30
0.0
 11
314.513798
 21
331.48436
 31
0.0
  0
LINE
  5
DE
330
C7
100
AcDbEntity
  8
LC-003-005-----0
  6
ByBlock
 62
     7
370
    25
100
AcDbLine
 10
310.185371
 20
329.98436
 30
0.0
 11
311.685371
 21
331.48436
 31
0.0
  0
LINE
  5
DF
330
C7
100
AcDbEntity
  8
LC-003-005-----0
  6
ByBlock
 62
     7
370
    25
100
AcDbLine
 10
307.356943
 20
329.98436
 30
0.0
 11
308.856943
 21
331.48436
 31
0.0
  0
ENDBLK
  5
C9
330
C7
100
AcDbEntity
  8
0
100
AcDbBlockEnd
  0
BLOCK
  5
F0
330
EF
100
AcDbEntity
  8
0
100
AcDbBlockBegin
  2
*X68
 70
     1
 71
     0
 10
0.0
 20
0.0
 30
0.0
  3
*X68
  1

  4
*X6
  0
LINE
  5
F2
330
EF
100
AcDbEntity
  8
LC-003-005-----0
  6
ByBlock
 62
     7
370
    25
100
AcDbLine
 10
490.520149
 20
315.157667
 30
0.0
 11
490.606358
 21
315.243876
 31
0.0
  0
LINE
  5
F3
330
EF
100
AcDbEntity
  8
LC-003-005-----0
  6
ByBlock
 62
     7
370
    25
100
AcDbLine
 10
486.656445
 20
314.122391
 30
0.0
 11
487.77793
 21
315.243876
 31
0.0
  0
LINE
  5
F4
330
EF
100
AcDbEntity
  8
LC-003-005-----0
  6
ByBlock
 62
     7
370
    25
100
AcDbLine
 10
482.792742
 20
313.087114
 30
0.0
 11
484.949503
 21
315.243876
 31
0.0
  0
LINE
  5
F5
330
EF
100
AcDbEntity
  8
LC-003-005-----0
  6
ByBlock
 62
     7
370
    25
100
AcDbLine
 10
479.871076
 20
312.993876
 30
0.0
 11
482.121076
 21
315.243876
 31
0.0
  0
LINE
  5
F6
330
EF
100
AcDbEntity
  8
LC-003-005-----0
  6
ByBlock
 62
     7
370
    25
100
AcDbLine
 10
477.042649
 20
312.993876
 30
0.0
 11
479.292649
 21
315.243876
 31
0.0
  0
LINE
  5
F7
330
EF
100
AcDbEntity
  8
LC-003-005-----0
  6
ByBlock
 62
     7
370
    25
100
AcDbLine
 10
474.214222
 20
312.993876
 30
0.0
 11
476.464222
 21
315.243876
 31
0.0
  0
LINE
  5
F8
330
EF
100
AcDbEntity
  8
LC-003-005-----0
  6
ByBlock
 62
     7
370
    25
100
AcDbLine
 10
471.385795
 20
312.993876
 30
0.0
 11
473.635795
 21
315.243876
 31
0.0
  0
LINE
  5
F9
330
EF
100
AcDbEntity
  8
LC-003-005-----0
  6
ByBlock
 62
     7
370
    25
100
AcDbLine
 10
468.557368
 20
312.993876
 30
0.0
 11
470.807368
 21
315.243876
 31
0.0
  0
LINE
  5
FA
330
EF
100
AcDbEntity
  8
LC-003-005-----0
  6
ByBlock
 62
     7
370
    25
100
AcDbLine
 10
465.728941
 20
312.993876
 30
0.0
 11
467.978941
 21
315.243876
 31
0.0
  0
LINE
  5
FB
330
EF
100
AcDbEntity
  8
LC-003-005-----0
  6
ByBlock
 62
     7
370
    25
100
AcDbLine
 10
462.900513
 20
312.993876
 30
0.0
 11
465.150513
 21
315.243876
 31
0.0
  0
LINE
  5
FC
330
EF
100
AcDbEntity
  8
LC-003-005-----0
  6
ByBlock
 62
     7
370
    25
100
AcDbLine
 10
460.072086
 20
312.993876
 30
0.0
 11
462.322086
 21
315.243876
 31
0.0
  0
LINE
  5
FD
330
EF
100
AcDbEntity
  8
LC-003-005-----0
  6
ByBlock
 62
     7
370
    25
100
AcDbLine
 10
457.243659
 20
312.993876
 30
0.0
 11
459.493659
 21
315.243876
 31
0.0
  0
LINE
  5
FE
330
EF
100
AcDbEntity
  8
LC-003-005-----0
  6
ByBlock
 62
     7
370
    25
100
AcDbLine
 10
454.415232
 20
312.993876
 30
0.0
 11
456.665232
 21
315.243876
 31
0.0
  0
LINE
  5
FF
330
EF
100
AcDbEntity
  8
LC-003-005-----0
  6
ByBlock
 62
     7
370
    25
100
AcDbLine
 10
451.586805
 20
312.993876
 30
0.0
 11
453.836805
 21
315.243876
 31
0.0
  0
LINE
  5
100
330
EF
100
AcDbEntity
  8
LC-003-005-----0
  6
ByBlock
 62
     7
370
    25
100
AcDbLine
 10
448.758378
 20
312.993876
 30
0.0
 11
451.008378
 21
315.243876
 31
0.0
  0
LINE
  5
101
330
EF
100
AcDbEntity
  8
LC-003-005-----0
  6
ByBlock
 62
     7
370
    25
100
AcDbLine
 10
445.929951
 20
312.993876
 30
0.0
 11
448.179951
 21
315.243876
 31
0.0
  0
LINE
  5
102
330
EF
100
AcDbEntity
  8
LC-003-005-----0
  6
ByBlock
 62
     7
370
    25
100
AcDbLine
 10
443.101524
 20
312.993876
 30
0.0
 11
445.351524
 21
315.243876
 31
0.0
  0
LINE
  5
103
330
EF
100
AcDbEntity
  8
LC-003-005-----0
  6
ByBlock
 62
     7
370
    25
100
AcDbLine
 10
440.538221
 20
313.259001
 30
0.0
 11
442.523096
 21
315.243876
 31
0.0
  0
LINE
  5
104
330
EF
100
AcDbEntity
  8
LC-003-005-----0
  6
ByBlock
 62
     7
370
    25
100
AcDbLine
 10
438.931666
 20
314.480872
 30
0.0
 11
440.36504
 21
315.914247
 31
0.0
  0
LINE
  5
105
330
EF
100
AcDbEntity
  8
LC-003-005-----0
  6
ByBlock
 62
     7
370
    25
100
AcDbLine
 10
437.225546
 20
315.60318
 30
0.0
 11
438.678068
 21
317.055702
 31
0.0
  0
LINE
  5
106
330
EF
100
AcDbEntity
  8
LC-003-005-----0
  6
ByBlock
 62
     7
370
    25
100
AcDbLine
 10
435.415507
 20
316.621567
 30
0.0
 11
436.894796
 21
318.100856
 31
0.0
  0
LINE
  5
107
330
EF
100
AcDbEntity
  8
LC-003-005-----0
  6
ByBlock
 62
     7
370
    25
100
AcDbLine
 10
433.495222
 20
317.52971
 30
0.0
 11
435.010152
 21
319.04464
 31
0.0
  0
LINE
  5
108
330
EF
100
AcDbEntity
  8
LC-003-005-----0
  6
ByBlock
 62
     7
370
    25
100
AcDbLine
 10
431.455831
 20
318.318746
 30
0.0
 11
433.017141
 21
319.880056
 31
0.0
  0
LINE
  5
109
330
EF
100
AcDbEntity
  8
LC-003-005-----0
  6
ByBlock
 62
     7
370
    25
100
AcDbLine
 10
429.285013
 20
318.976355
 30
0.0
 11
430.906235
 21
320.597577
 31
0.0
  0
LINE
  5
10A
330
EF
100
AcDbEntity
  8
LC-003-005-----0
  6
ByBlock
 62
     7
370
    25
100
AcDbLine
 10
426.965453
 20
319.485222
 30
0.0
 11
428.664415
 21
321.184184
 31
0.0
  0
LINE
  5
10B
330
EF
100
AcDbEntity
  8
LC-003-005-----0
  6
ByBlock
 62
     7
370
    25
100
AcDbLine
 10
424.472142
 20
319.820338
 30
0.0
 11
426.273575
 21
321.621771
 31
0.0
  0
LINE
  5
10C
330
EF
100
AcDbEntity
  8
LC-003-005-----0
  6
ByBlock
 62
     7
370
    25
100
AcDbLine
 10
421.767252
 20
319.943876
 30
0.0
 11
423.707731
 21
321.884355
 31
0.0
  0
LINE
  5
10D
330
EF
100
AcDbEntity
  8
LC-003-005-----0
  6
ByBlock
 62
     7
370
    25
100
AcDbLine
 10
418.789269
 20
319.794319
 30
0.0
 11
420.927738
 21
321.932789
 31
0.0
  0
LINE
  5
10E
330
EF
100
AcDbEntity
  8
LC-003-005-----0
  6
ByBlock
 62
     7
370
    25
100
AcDbLine
 10
415.697285
 20
319.530763
 30
0.0
 11
417.870075
 21
321.703553
 31
0.0
  0
ENDBLK
  5
F1
330
EF
100
AcDbEntity
  8
0
100
AcDbBlockEnd
  0
BLOCK
  5
111
330
110
100
AcDbEntity
  8
0
100
AcDbBlockBegin
  2
*X79
 70
     1
 71
     0
 10
0.0
 20
0.0
 30
0.0
  3
*X79
  1

  4
*X7
  0
LINE
  5
113
330
110
100
AcDbEntity
  8
LC-003-005-----0
  6
ByBlock
 62
     7
370
    25
100
AcDbLine
 10
519.469056
 20
312.993876
 30
0.0
 11
520.820329
 21
314.345149
 31
0.0
  0
LINE
  5
114
330
110
100
AcDbEntity
  8
LC-003-005-----0
  6
ByBlock
 62
     7
370
    25
100
AcDbLine
 10
516.640629
 20
312.993876
 30
0.0
 11
518.890629
 21
315.243876
 31
0.0
  0
LINE
  5
115
330
110
100
AcDbEntity
  8
LC-003-005-----0
  6
ByBlock
 62
     7
370
    25
100
AcDbLine
 10
513.812202
 20
312.993876
 30
0.0
 11
516.062202
 21
315.243876
 31
0.0
  0
LINE
  5
116
330
110
100
AcDbEntity
  8
LC-003-005-----0
  6
ByBlock
 62
     7
370
    25
100
AcDbLine
 10
510.983775
 20
312.993876
 30
0.0
 11
513.233775
 21
315.243876
 31
0.0
  0
LINE
  5
117
330
110
100
AcDbEntity
  8
LC-003-005-----0
  6
ByBlock
 62
     7
370
    25
100
AcDbLine
 10
508.155347
 20
312.993876
 30
0.0
 11
510.405347
 21
315.243876
 31
0.0
  0
LINE
  5
118
330
110
100
AcDbEntity
  8
LC-003-005-----0
  6
ByBlock
 62
     7
370
    25
100
AcDbLine
 10
505.32692
 20
312.993876
 30
0.0
 11
507.57692
 21
315.243876
 31
0.0
  0
LINE
  5
119
330
110
100
AcDbEntity
  8
LC-003-005-----0
  6
ByBlock
 62
     7
370
    25
100
AcDbLine
 10
502.498493
 20
312.993876
 30
0.0
 11
504.748493
 21
315.243876
 31
0.0
  0
LINE
  5
11A
330
110
100
AcDbEntity
  8
LC-003-005-----0
  6
ByBlock
 62
     7
370
    25
100
AcDbLine
 10
499.670066
 20
312.993876
 30
0.0
 11
501.920066
 21
315.243876
 31
0.0
  0
LINE
  5
11B
330
110
100
AcDbEntity
  8
LC-003-005-----0
  6
ByBlock
 62
     7
370
    25
100
AcDbLine
 10
496.841639
 20
312.993876
 30
0.0
 11
499.091639
 21
315.243876
 31
0.0
  0
LINE
  5
11C
330
110
100
AcDbEntity
  8
LC-003-005-----0
  6
ByBlock
 62
     7
370
    25
100
AcDbLine
 10
494.013212
 20
312.993876
 30
0.0
 11
496.263212
 21
315.243876
 31
0.0
  0
LINE
  5
11D
330
110
100
AcDbEntity
  8
LC-003-005-----0
  6
ByBlock
 62
     7
370
    25
100
AcDbLine
 10
491.184785
 20
312.993876
 30
0.0
 11
493.434785
 21
315.243876
 31
0.0
  0
LINE
  5
11E
330
110
100
AcDbEntity
  8
LC-003-005-----0
  6
ByBlock
 62
     7
370
    25
100
AcDbLine
 10
488.356358
 20
312.993876
 30
0.0
 11
490.520149
 21
315.157667
 31
0.0
  0
LINE
  5
11F
330
110
100
AcDbEntity
  8
LC-003-005-----0
  6
ByBlock
 62
     7
370
    25
100
AcDbLine
 10
485.52793
 20
312.993876
 30
0.0
 11
486.656445
 21
314.122391
 31
0.0
  0
LINE
  5
120
330
110
100
AcDbEntity
  8
LC-003-005-----0
  6
ByBlock
 62
     7
370
    25
100
AcDbLine
 10
482.699503
 20
312.993876
 30
0.0
 11
482.792742
 21
313.087114
 31
0.0
  0
ENDBLK
  5
112
330
110
100
AcDbEntity
  8
0
100
AcDbBlockEnd
  0
BLOCK
  5
129
330
128
100
AcDbEntity
  8
0
100
AcDbBlockBegin
  2
*X810
 70
     1
 71
     0
 10
0.0
 20
0.0
 30
0.0
  3
*X810
  1

  4
*X8
  0
LINE
  5
12B
330
128
100
AcDbEntity
  8
LC-003-005-----0
  6
ByBlock
 62
     7
370
    25
100
AcDbLine
 10
387.566242
 20
265.943876
 30
0.0
 11
388.285351
 21
266.662985
 31
0.0
  0
LINE
  5
12C
330
128
100
AcDbEntity
  8
LC-003-005-----0
  6
ByBlock
 62
     7
370
    25
100
AcDbLine
 10
384.737815
 20
265.943876
 30
0.0
 11
386.737815
 21
267.943876
 31
0.0
  0
LINE
  5
12D
330
128
100
AcDbEntity
  8
LC-003-005-----0
  6
ByBlock
 62
     7
370
    25
100
AcDbLine
 10
381.909388
 20
265.943876
 30
0.0
 11
383.909388
 21
267.943876
 31
0.0
  0
LINE
  5
12E
330
128
100
AcDbEntity
  8
LC-003-005-----0
  6
ByBlock
 62
     7
370
    25
100
AcDbLine
 10
379.080961
 20
265.943876
 30
0.0
 11
381.080961
 21
267.943876
 31
0.0
  0
LINE
  5
12F
330
128
100
AcDbEntity
  8
LC-003-005-----0
  6
ByBlock
 62
     7
370
    25
100
AcDbLine
 10
376.252534
 20
265.943876
 30
0.0
 11
378.252534
 21
267.943876
 31
0.0
  0
LINE
  5
130
330
128
100
AcDbEntity
  8
LC-003-005-----0
  6
ByBlock
 62
     7
370
    25
100
AcDbLine
 10
373.424107
 20
265.943876
 30
0.0
 11
375.424107
 21
267.943876
 31
0.0
  0
LINE
  5
131
330
128
100
AcDbEntity
  8
LC-003-005-----0
  6
ByBlock
 62
     7
370
    25
100
AcDbLine
 10
370.595679
 20
265.943876
 30
0.0
 11
372.595679
 21
267.943876
 31
0.0
  0
LINE
  5
132
330
128
100
AcDbEntity
  8
LC-003-005-----0
  6
ByBlock
 62
     7
370
    25
100
AcDbLine
 10
367.767252
 20
265.943876
 30
0.0
 11
369.767252
 21
267.943876
 31
0.0
  0
LINE
  5
133
330
128
100
AcDbEntity
  8
LC-003-005-----0
  6
ByBlock
 62
     7
370
    25
100
AcDbLine
 10
364.938825
 20
265.943876
 30
0.0
 11
366.938825
 21
267.943876
 31
0.0
  0
LINE
  5
134
330
128
100
AcDbEntity
  8
LC-003-005-----0
  6
ByBlock
 62
     7
370
    25
100
AcDbLine
 10
363.615734
 20
267.449212
 30
0.0
 11
364.110398
 21
267.943876
 31
0.0
  0
ENDBLK
  5
12A
330
128
100
AcDbEntity
  8
0
100
AcDbBlockEnd
  0
BLOCK
  5
140
330
13F
100
AcDbEntity
  8
0
100
AcDbBlockBegin
  2
*X911
 70
     1
 71
     0
 10
0.0
 20
0.0
 30
0.0
  3
*X911
  1

  4
*X9
  0
LINE
  5
142
330
13F
100
AcDbEntity
  8
LC-003-005-----0
  6
ByBlock
 62
     7
370
    25
100
AcDbLine
 10
319.475993
 20
302.50543
 30
0.0
 11
320.972516
 21
304.001954
 31
0.0
  0
LINE
  5
143
330
13F
100
AcDbEntity
  8
LC-003-005-----0
  6
ByBlock
 62
     7
370
    25
100
AcDbLine
 10
319.475993
 20
308.162284
 30
0.0
 11
320.964706
 21
309.650997
 31
0.0
  0
LINE
  5
144
330
13F
100
AcDbEntity
  8
LC-003-005-----0
  6
ByBlock
 62
     7
370
    25
100
AcDbLine
 10
319.475993
 20
313.819139
 30
0.0
 11
320.956895
 21
315.300041
 31
0.0
  0
LINE
  5
145
330
13F
100
AcDbEntity
  8
LC-003-005-----0
  6
ByBlock
 62
     7
370
    25
100
AcDbLine
 10
319.475993
 20
319.475993
 30
0.0
 11
320.949084
 21
320.949084
 31
0.0
  0
LINE
  5
146
330
13F
100
AcDbEntity
  8
LC-003-005-----0
  6
ByBlock
 62
     7
370
    25
100
AcDbLine
 10
317.975993
 20
323.632847
 30
0.0
 11
320.424118
 21
326.080972
 31
0.0
  0
LINE
  5
147
330
13F
100
AcDbEntity
  8
LC-003-005-----0
  6
ByBlock
 62
     7
370
    25
100
AcDbLine
 10
315.156715
 20
326.470424
 30
0.0
 11
316.837816
 21
328.151524
 31
0.0
  0
LINE
  5
148
330
13F
100
AcDbEntity
  8
LC-003-005-----0
  6
ByBlock
 62
     7
370
    25
100
AcDbLine
 10
311.009371
 20
327.979934
 30
0.0
 11
312.294336
 21
329.264898
 31
0.0
  0
LINE
  5
149
330
13F
100
AcDbEntity
  8
LC-003-005-----0
  6
ByBlock
 62
     7
370
    25
100
AcDbLine
 10
306.875993
 20
329.50341
 30
0.0
 11
307.29558
 21
329.922997
 31
0.0
  0
ENDBLK
  5
141
330
13F
100
AcDbEntity
  8
0
100
AcDbBlockEnd
  0
BLOCK
  5
14E
330
14D
100
AcDbEntity
  8
0
100
AcDbBlockBegin
  2
*X1012
 70
     1
 71
     0
 10
0.0
 20
0.0
 30
0.0
  3
*X1012
  1

  4
*X10
  0
LINE
  5
150
330
14D
100
AcDbEntity
  8
LC-003-005-----0
  6
ByBlock
 62
     7
370
    25
100
AcDbLine
 10
378.175993
 20
323.273934
 30
0.0
 11
378.00605
 21
323.443877
 31
0.0
  0
LINE
  5
151
330
14D
100
AcDbEntity
  8
LC-003-005-----0
 62
     7
370
    25
100
AcDbLine
 10
378.175993
 20
320.445507
 30
0.0
 11
375.215501
 21
323.405998
 31
0.0
  0
LINE
  5
152
330
14D
100
AcDbEntity
  8
LC-003-005-----0
 62
     7
370
    25
100
AcDbLine
 10
378.175993
 20
319.031293
 30
0.0
 11
373.96703
 21
323.240257
 31
0.0
  0
LINE
  5
153
330
14D
100
AcDbEntity
  8
LC-003-005-----0
  6
ByBlock
 62
     7
370
    25
100
AcDbLine
 10
377.434983
 20
316.943876
 30
0.0
 11
371.770055
 21
322.608804
 31
0.0
  0
LINE
  5
154
330
14D
100
AcDbEntity
  8
LC-003-005-----0
  6
ByBlock
 62
     7
370
    25
100
AcDbLine
 10
376.02077
 20
316.943876
 30
0.0
 11
370.79234
 21
322.172306
 31
0.0
  0
LINE
  5
155
330
14D
100
AcDbEntity
  8
LC-003-005-----0
 62
     7
370
    25
100
AcDbLine
 10
373.308399
 20
316.827819
 30
0.0
 11
369.039412
 21
321.096807
 31
0.0
  0
LINE
  5
156
330
14D
100
AcDbEntity
  8
LC-003-005-----0
 62
     7
370
    25
100
AcDbLine
 10
372.775995
 20
315.94601
 30
0.0
 11
368.256094
 21
320.465911
 31
0.0
  0
LINE
  5
157
330
14D
100
AcDbEntity
  8
LC-003-005-----0
  6
ByBlock
 62
     7
370
    25
100
AcDbLine
 10
372.096835
 20
313.796743
 30
0.0
 11
366.86734
 21
319.026238
 31
0.0
  0
LINE
  5
158
330
14D
100
AcDbEntity
  8
LC-003-005-----0
  6
ByBlock
 62
     7
370
    25
100
AcDbLine
 10
370.735488
 20
313.743876
 30
0.0
 11
367.375993
 21
317.103371
 31
0.0
  0
LINE
  5
159
330
14D
100
AcDbEntity
  8
LC-003-005-----0
  6
ByBlock
 62
     7
370
    25
100
AcDbLine
 10
367.035488
 20
317.443876
 30
0.0
 11
366.262445
 21
318.216919
 31
0.0
  0
ENDBLK
  5
14F
330
14D
100
AcDbEntity
  8
0
100
AcDbBlockEnd
  0
BLOCK
  5
168
330
167
100
AcDbEntity
  8
0
100
AcDbBlockBegin
  2
*X1113
 70
     1
 71
     0
 10
0.0
 20
0.0
 30
0.0
  3
*X1113
  1

  4
*X11
  0
LINE
  5
16A
330
167
100
AcDbEntity
  8
LC-003-005-----0
  6
ByBlock
 62
     7
370
    25
100
AcDbLine
 10
300.226495
 20
307.885337
 30
0.0
 11
301.667956
 21
306.443876
 31
0.0
  0
LINE
  5
16B
330
167
100
AcDbEntity
  8
LC-003-005-----0
  6
ByBlock
 62
     7
370
    25
100
AcDbLine
 10
302.46099
 20
308.479269
 30
0.0
 11
304.675993
 21
306.264266
 31
0.0
  0
LINE
  5
16C
330
167
100
AcDbEntity
  8
LC-003-005-----0
  6
ByBlock
 62
     7
370
    25
100
AcDbLine
 10
302.667351
 20
311.101335
 30
0.0
 11
304.675993
 21
309.092693
 31
0.0
  0
LINE
  5
16D
330
167
100
AcDbEntity
  8
LC-003-005-----0
  6
ByBlock
 62
     7
370
    25
100
AcDbLine
 10
302.873712
 20
313.723401
 30
0.0
 11
304.675993
 21
311.92112
 31
0.0
  0
LINE
  5
16E
330
167
100
AcDbEntity
  8
LC-003-005-----0
  6
ByBlock
 62
     7
370
    25
100
AcDbLine
 10
303.336356
 20
316.089184
 30
0.0
 11
304.878429
 21
314.547111
 31
0.0
  0
LINE
  5
16F
330
167
100
AcDbEntity
  8
LC-003-005-----0
  6
ByBlock
 62
     7
370
    25
100
AcDbLine
 10
305.310092
 20
316.943876
 30
0.0
 11
307.310092
 21
314.943876
 31
0.0
  0
LINE
  5
170
330
167
100
AcDbEntity
  8
LC-003-005-----0
  6
ByBlock
 62
     7
370
    25
100
AcDbLine
 10
308.975993
 20
313.277975
 30
0.0
 11
310.510092
 21
311.743876
 31
0.0
  0
LINE
  5
171
330
167
100
AcDbEntity
  8
LC-003-005-----0
  6
ByBlock
 62
     7
370
    25
100
AcDbLine
 10
308.138519
 20
316.943876
 30
0.0
 11
313.338519
 21
311.743876
 31
0.0
  0
LINE
  5
172
330
167
100
AcDbEntity
  8
LC-003-005-----0
  6
ByBlock
 62
     7
370
    25
100
AcDbLine
 10
315.075993
 20
310.006402
 30
0.0
 11
317.639027
 21
307.443368
 31
0.0
  0
LINE
  5
173
330
167
100
AcDbEntity
  8
LC-003-005-----0
  6
ByBlock
 62
     7
370
    25
100
AcDbLine
 10
314.166946
 20
313.743876
 30
0.0
 11
317.975993
 21
309.934829
 31
0.0
  0
LINE
  5
174
330
167
100
AcDbEntity
  8
LC-003-005-----0
  6
ByBlock
 62
     7
370
    25
100
AcDbLine
 10
316.321365
 20
314.417884
 30
0.0
 11
317.975993
 21
312.763256
 31
0.0
  0
LINE
  5
175
330
167
100
AcDbEntity
  8
LC-003-005-----0
  6
ByBlock
 62
     7
370
    25
100
AcDbLine
 10
316.375993
 20
317.191683
 30
0.0
 11
317.975993
 21
315.591683
 31
0.0
  0
ENDBLK
  5
169
330
167
100
AcDbEntity
  8
0
100
AcDbBlockEnd
  0
BLOCK
  5
1AB
330
1AA
100
AcDbEntity
  8
0
100
AcDbBlockBegin
  2
*X1214
 70
     1
 71
     0
 10
0.0
 20
0.0
 30
0.0
  3
*X1214
  1

  4
*X12
  0
LINE
  5
1AD
330
1AA
100
AcDbEntity
  8
LC-003-005-----0
  6
ByBlock
 62
     7
370
    25
100
AcDbLine
 10
302.675993
 20
305.435839
 30
0.0
 11
304.675993
 21
303.435839
 31
0.0
  0
ENDBLK
  5
1AC
330
1AA
100
AcDbEntity
  8
0
100
AcDbBlockEnd
  0
BLOCK
  5
1B4
330
1B3
100
AcDbEntity
  8
0
100
AcDbBlockBegin
  2
*X1315
 70
     1
 71
     0
 10
0.0
 20
0.0
 30
0.0
  3
*X1315
  1

  4
*X13
  0
LINE
  5
1B6
330
1B3
100
AcDbEntity
  8
LC-003-005-----0
  6
ByBlock
 62
     7
370
    25
100
AcDbLine
 10
365.775993
 20
310.21809
 30
0.0
 11
368.317681
 21
307.676402
 31
0.0
  0
LINE
  5
1B7
330
1B3
100
AcDbEntity
  8
LC-003-005-----0
  6
ByBlock
 62
     7
370
    25
100
AcDbLine
 10
365.775993
 20
313.046517
 30
0.0
 11
368.675993
 21
310.146517
 31
0.0
  0
LINE
  5
1B8
330
1B3
100
AcDbEntity
  8
LC-003-005-----0
  6
ByBlock
 62
     7
370
    25
100
AcDbLine
 10
365.775993
 20
315.874944
 30
0.0
 11
369.907061
 21
311.743876
 31
0.0
  0
LINE
  5
1B9
330
1B3
100
AcDbEntity
  8
LC-003-005-----0
  6
ByBlock
 62
     7
370
    25
100
AcDbLine
 10
367.035488
 20
317.443876
 30
0.0
 11
367.375993
 21
317.103371
 31
0.0
  0
LINE
  5
1BA
330
1B3
100
AcDbEntity
  8
LC-003-005-----0
  6
ByBlock
 62
     7
370
    25
100
AcDbLine
 10
370.735488
 20
313.743876
 30
0.0
 11
372.735488
 21
311.743876
 31
0.0
  0
LINE
  5
1BB
330
1B3
100
AcDbEntity
  8
LC-003-005-----0
  6
ByBlock
 62
     7
370
    25
100
AcDbLine
 10
372.757146
 20
314.550645
 30
0.0
 11
374.757146
 21
312.550645
 31
0.0
  0
LINE
  5
1BC
330
1B3
100
AcDbEntity
  8
LC-003-005-----0
  6
ByBlock
 62
     7
370
    25
100
AcDbLine
 10
373.308399
 20
316.827819
 30
0.0
 11
375.308399
 21
314.827819
 31
0.0
  0
LINE
  5
1BD
330
1B3
100
AcDbEntity
  8
LC-003-005-----0
  6
ByBlock
 62
     7
370
    25
100
AcDbLine
 10
376.02077
 20
316.943876
 30
0.0
 11
378.02077
 21
314.943876
 31
0.0
  0
LINE
  5
1BE
330
1B3
100
AcDbEntity
  8
LC-003-005-----0
  6
ByBlock
 62
     7
370
    25
100
AcDbLine
 10
378.849197
 20
316.943876
 30
0.0
 11
380.849197
 21
314.943876
 31
0.0
  0
ENDBLK
  5
1B5
330
1B3
100
AcDbEntity
  8
0
100
AcDbBlockEnd
  0
BLOCK
  5
1C4
330
1C3
100
AcDbEntity
  8
0
100
AcDbBlockBegin
  2
*X1416
 70
     1
 71
     0
 10
0.0
 20
0.0
 30
0.0
  3
*X1416
  1

  4
*X14
  0
LINE
  5
1C6
330
1C3
100
AcDbEntity
  8
LC-003-005-----0
  6
ByBlock
 62
     7
370
    25
100
AcDbLine
 10
388.075993
 20
304.888653
 30
0.0
 11
389.075993
 21
303.888653
 31
0.0
  0
ENDBLK
  5
1C5
330
1C3
100
AcDbEntity
  8
0
100
AcDbBlockEnd
  0
BLOCK
  5
1C9
330
1C8
100
AcDbEntity
  8
0
100
AcDbBlockBegin
  2
*X1517
 70
     1
 71
     0
 10
0.0
 20
0.0
 30
0.0
  3
*X1517
  1

  4
*X15
  0
LINE
  5
1CB
330
1C8
100
AcDbEntity
  8
LC-003-005-----0
  6
ByBlock
 62
     7
370
    25
100
AcDbLine
 10
318.967142
 20
301.996579
 30
0.0
 11
319.475993
 21
302.50543
 31
0.0
  0
LINE
  5
1CC
330
1C8
100
AcDbEntity
  8
LC-003-005-----0
  6
ByBlock
 62
     7
370
    25
100
AcDbLine
 10
317.975993
 20
306.662284
 30
0.0
 11
319.475993
 21
308.162284
 31
0.0
  0
LINE
  5
1CD
330
1C8
100
AcDbEntity
  8
LC-003-005-----0
  6
ByBlock
 62
     7
370
    25
100
AcDbLine
 10
317.975993
 20
312.319139
 30
0.0
 11
319.475993
 21
313.819139
 31
0.0
  0
LINE
  5
1CE
330
1C8
100
AcDbEntity
  8
LC-003-005-----0
  6
ByBlock
 62
     7
370
    25
100
AcDbLine
 10
317.975993
 20
317.975993
 30
0.0
 11
319.475993
 21
319.475993
 31
0.0
  0
ENDBLK
  5
1CA
330
1C8
100
AcDbEntity
  8
0
100
AcDbBlockEnd
  0
BLOCK
  5
1F5
330
1F4
100
AcDbEntity
  8
0
100
AcDbBlockBegin
  2
*X1618
 70
     1
 71
     0
 10
0.0
 20
0.0
 30
0.0
  3
*X1618
  1

  4
*X16
  0
LINE
  5
1F7
330
1F4
100
AcDbEntity
  8
LC-003-005-----0
  6
ByBlock
 62
     7
370
    25
100
AcDbLine
 10
388.075993
 20
307.71708
 30
0.0
 11
390.075993
 21
305.71708
 31
0.0
  0
LINE
  5
1F8
330
1F4
100
AcDbEntity
  8
LC-003-005-----0
  6
ByBlock
 62
     7
370
    25
100
AcDbLine
 10
381.677624
 20
316.943876
 30
0.0
 11
383.677624
 21
314.943876
 31
0.0
  0
LINE
  5
1F9
330
1F4
100
AcDbEntity
  8
LC-003-005-----0
  6
ByBlock
 62
     7
370
    25
100
AcDbLine
 10
388.075993
 20
310.545507
 30
0.0
 11
390.303704
 21
308.317796
 31
0.0
  0
LINE
  5
1FA
330
1F4
100
AcDbEntity
  8
LC-003-005-----0
  6
ByBlock
 62
     7
370
    25
100
AcDbLine
 10
390.677624
 20
307.943876
 30
0.0
 11
392.177624
 21
306.443876
 31
0.0
  0
LINE
  5
1FB
330
1F4
100
AcDbEntity
  8
LC-003-005-----0
  6
ByBlock
 62
     7
370
    25
100
AcDbLine
 10
384.506051
 20
316.943876
 30
0.0
 11
386.506051
 21
314.943876
 31
0.0
  0
LINE
  5
1FC
330
1F4
100
AcDbEntity
  8
LC-003-005-----0
  6
ByBlock
 62
     7
370
    25
100
AcDbLine
 10
388.075993
 20
313.373934
 30
0.0
 11
390.062086
 21
311.387841
 31
0.0
  0
LINE
  5
1FD
330
1F4
100
AcDbEntity
  8
LC-003-005-----0
  6
ByBlock
 62
     7
370
    25
100
AcDbLine
 10
387.334478
 20
316.943876
 30
0.0
 11
389.820468
 21
314.457886
 31
0.0
  0
ENDBLK
  5
1F6
330
1F4
100
AcDbEntity
  8
0
100
AcDbBlockEnd
  0
BLOCK
  5
21E
330
214
100
AcDbEntity
  8
0
100
AcDbBlockBegin
  2
*D19
 70
     1
 71
     0
 10
0.0
 20
0.0
 30
0.0
  3
*D19
  1

  0
LINE
  5
215
330
214
100
AcDbEntity
  8
LC-002-003-----0
 62
     2
370
    -2
100
AcDbLine
 10
319.136567
 20
215.953367
 30
0.0
 11
231.6
 21
215.953367
 31
0.0
  0
LINE
  5
216
330
214
100
AcDbEntity
  8
LC-002-003-----0
 62
     2
370
    -2
100
AcDbLine
 10
305.575993
 20
323.443876
 30
0.0
 11
231.6
 21
323.443876
 31
0.0
  0
LINE
  5
217
330
214
100
AcDbEntity
  8
LC-002-003-----0
 62
     2
370
    -2
100
AcDbLine
 10
235.2
 20
243.953367
 30
0.0
 11
235.2
 21
295.443876
 31
0.0
  0
SOLID
  5
218
330
214
100
AcDbEntity
  8
LC-002-003-----0
 62
     2
100
AcDbTrace
 10
230.533333
 20
243.953367
 30
0.0
 11
239.866667
 21
243.953367
 31
0.0
 12
235.2
 22
215.953367
 32
0.0
 13
235.2
 23
215.953367
 33
0.0
  0
SOLID
  5
219
330
214
100
AcDbEntity
  8
LC-002-003-----0
 62
     2
100
AcDbTrace
 10
239.866667
 20
295.443876
 30
0.0
 11
230.533333
 21
295.443876
 31
0.0
 12
235.2
 22
323.443876
 32
0.0
 13
235.2
 23
323.443876
 33
0.0
  0
MTEXT
  5
21A
330
214
100
AcDbEntity
  8
LC-002-003-----0
 62
     2
100
AcDbMText
 10
204.4
 20
269.698621
 30
0.0
 40
28.0
 41
0.0
 71
     5
 72
     1
  1
\A1;105
  7
LCTX15-400-0-0pDIN-Schrift
 11
6.123031769111886E-17
 21
1.0
 31
0.0
 73
     1
 44
1.0
  0
POINT
  5
21B
330
214
100
AcDbEntity
  8
Defpoints
 62
     0
100
AcDbPoint
 10
319.136567
 20
215.953367
 30
0.0
  0
POINT
  5
21C
330
214
100
AcDbEntity
  8
Defpoints
 62
     0
100
AcDbPoint
 10
305.575993
 20
323.443876
 30
0.0
  0
POINT
  5
21D
330
214
100
AcDbEntity
  8
Defpoints
 62
     0
100
AcDbPoint
 10
235.2
 20
323.443876
 30
0.0
  0
ENDBLK
  5
21F
330
214
100
AcDbEntity
  8
0
100
AcDbBlockEnd
  0
BLOCK
  5
221
330
220
100
AcDbEntity
  8
0
100
AcDbBlockBegin
  2
*X1720
 70
     1
 71
     0
 10
0.0
 20
0.0
 30
0.0
  3
*X1720
  1

  4
*X17
  0
LINE
  5
223
330
220
100
AcDbEntity
  8
LC-003-005-----0
  6
ByBlock
 62
     7
370
    25
100
AcDbLine
 10
363.713126
 20
301.487729
 30
0.0
 11
364.275993
 21
302.050596
 31
0.0
  0
LINE
  5
224
330
220
100
AcDbEntity
  8
LC-003-005-----0
  6
ByBlock
 62
     7
370
    25
100
AcDbLine
 10
362.782528
 20
306.213985
 30
0.0
 11
364.275993
 21
307.70745
 31
0.0
  0
LINE
  5
225
330
220
100
AcDbEntity
  8
LC-003-005-----0
  6
ByBlock
 62
     7
370
    25
100
AcDbLine
 10
362.79036
 20
311.878672
 30
0.0
 11
364.275993
 21
313.364305
 31
0.0
  0
LINE
  5
226
330
220
100
AcDbEntity
  8
LC-003-005-----0
  6
ByBlock
 62
     7
370
    25
100
AcDbLine
 10
362.798192
 20
317.543358
 30
0.0
 11
364.275993
 21
319.021159
 31
0.0
  0
LINE
  5
227
330
220
100
AcDbEntity
  8
LC-003-005-----0
  6
ByBlock
 62
     7
370
    25
100
AcDbLine
 10
373.516404
 20
328.26157
 30
0.0
 11
374.983983
 21
329.729149
 31
0.0
  0
LINE
  5
228
330
220
100
AcDbEntity
  8
LC-003-005-----0
  6
ByBlock
 62
     7
370
    25
100
AcDbLine
 10
362.806025
 20
323.208045
 30
0.0
 11
368.469478
 21
328.871498
 31
0.0
  0
ENDBLK
  5
222
330
220
100
AcDbEntity
  8
0
100
AcDbBlockEnd
  0
BLOCK
  5
22D
330
22C
100
AcDbEntity
  8
0
100
AcDbBlockBegin
  2
*X1821
 70
     1
 71
     0
 10
0.0
 20
0.0
 30
0.0
  3
*X1821
  1

  4
*X18
  0
LINE
  5
22F
330
22C
100
AcDbEntity
  8
LC-003-005-----0
  6
ByBlock
 62
     7
370
    25
100
AcDbLine
 10
364.275993
 20
302.050596
 30
0.0
 11
365.775993
 21
303.550596
 31
0.0
  0
LINE
  5
230
330
22C
100
AcDbEntity
  8
LC-003-005-----0
  6
ByBlock
 62
     7
370
    25
100
AcDbLine
 10
364.275993
 20
307.70745
 30
0.0
 11
365.775993
 21
309.20745
 31
0.0
  0
LINE
  5
231
330
22C
100
AcDbEntity
  8
LC-003-005-----0
  6
ByBlock
 62
     7
370
    25
100
AcDbLine
 10
364.275993
 20
313.364305
 30
0.0
 11
365.775993
 21
314.864305
 31
0.0
  0
LINE
  5
232
330
22C
100
AcDbEntity
  8
LC-003-005-----0
  6
ByBlock
 62
     7
370
    25
100
AcDbLine
 10
364.275993
 20
319.021159
 30
0.0
 11
365.775993
 21
320.521159
 31
0.0
  0
ENDBLK
  5
22E
330
22C
100
AcDbEntity
  8
0
100
AcDbBlockEnd
  0
BLOCK
  5
238
330
237
100
AcDbEntity
  8
0
100
AcDbBlockBegin
  2
*X1922
 70
     1
 71
     0
 10
0.0
 20
0.0
 30
0.0
  3
*X1922
  1

  4
*X19
  0
LINE
  5
23A
330
237
100
AcDbEntity
  8
LC-003-005-----0
  6
ByBlock
 62
     7
370
    25
100
AcDbLine
 10
430.045627
 20
261.754214
 30
0.0
 11
431.611554
 21
263.32014
 31
0.0
  0
LINE
  5
23B
330
237
100
AcDbEntity
  8
LC-003-005-----0
  6
ByBlock
 62
     7
370
    25
100
AcDbLine
 10
428.909798
 20
262.032597
 30
0.0
 11
431.33317
 21
264.45597
 31
0.0
  0
LINE
  5
23C
330
237
100
AcDbEntity
  8
LC-003-005-----0
  6
ByBlock
 62
     7
370
    25
100
AcDbLine
 10
428.264014
 20
262.801027
 30
0.0
 11
430.56474
 21
265.101753
 31
0.0
  0
LINE
  5
23D
330
237
100
AcDbEntity
  8
LC-003-005-----0
  6
ByBlock
 62
     7
370
    25
100
AcDbLine
 10
428.284792
 20
264.236018
 30
0.0
 11
429.129749
 21
265.080975
 31
0.0
  0
ENDBLK
  5
239
330
237
100
AcDbEntity
  8
0
100
AcDbBlockEnd
  0
BLOCK
  5
240
330
23F
100
AcDbEntity
  8
0
100
AcDbBlockBegin
  2
*X2023
 70
     1
 71
     0
 10
0.0
 20
0.0
 30
0.0
  3
*X2023
  1

  4
*X20
  0
LINE
  5
242
330
23F
100
AcDbEntity
  8
LC-003-005-----0
  6
ByBlock
 62
     7
370
    25
100
AcDbLine
 10
428.121621
 20
263.428811
 30
0.0
 11
429.80375
 21
261.746682
 31
0.0
  0
LINE
  5
243
330
23F
100
AcDbEntity
  8
LC-003-005-----0
  6
ByBlock
 62
     7
370
    25
100
AcDbLine
 10
428.448717
 20
264.515929
 30
0.0
 11
430.890868
 21
262.073778
 31
0.0
  0
LINE
  5
244
330
23F
100
AcDbEntity
  8
LC-003-005-----0
  6
ByBlock
 62
     7
370
    25
100
AcDbLine
 10
429.24789
 20
265.130969
 30
0.0
 11
431.505908
 21
262.872951
 31
0.0
  0
LINE
  5
245
330
23F
100
AcDbEntity
  8
LC-003-005-----0
  6
ByBlock
 62
     7
370
    25
100
AcDbLine
 10
430.842558
 20
264.950514
 30
0.0
 11
431.325453
 21
264.467619
 31
0.0
  0
ENDBLK
  5
241
330
23F
100
AcDbEntity
  8
0
100
AcDbBlockEnd
  0
BLOCK
  5
24E
330
24D
100
AcDbEntity
  8
0
100
AcDbBlockBegin
  2
*X2124
 70
     1
 71
     0
 10
0.0
 20
0.0
 30
0.0
  3
*X2124
  1

  4
*X21
  0
LINE
  5
250
330
24D
100
AcDbEntity
  8
LC-003-005-----0
  6
ByBlock
 62
     7
370
    25
100
AcDbLine
 10
428.128593
 20
317.161955
 30
0.0
 11
430.03997
 21
315.250577
 31
0.0
  0
LINE
  5
251
330
24D
100
AcDbEntity
  8
LC-003-005-----0
  6
ByBlock
 62
     7
370
    25
100
AcDbLine
 10
428.556473
 20
318.148288
 30
0.0
 11
431.026303
 21
315.678458
 31
0.0
  0
LINE
  5
252
330
24D
100
AcDbEntity
  8
LC-003-005-----0
  6
ByBlock
 62
     7
370
    25
100
AcDbLine
 10
429.432339
 20
318.686635
 30
0.0
 11
431.564651
 21
316.554324
 31
0.0
  0
ENDBLK
  5
24F
330
24D
100
AcDbEntity
  8
0
100
AcDbBlockEnd
  0
BLOCK
  5
258
330
257
100
AcDbEntity
  8
0
100
AcDbBlockBegin
  2
*X2225
 70
     1
 71
     0
 10
0.0
 20
0.0
 30
0.0
  3
*X2225
  1

  4
*X22
  0
LINE
  5
25A
330
257
100
AcDbEntity
  8
LC-003-005-----0
  6
ByBlock
 62
     7
370
    25
100
AcDbLine
 10
429.795249
 20
315.24395
 30
0.0
 11
431.618741
 21
317.067442
 31
0.0
  0
LINE
  5
25B
330
257
100
AcDbEntity
  8
LC-003-005-----0
  6
ByBlock
 62
     7
370
    25
100
AcDbLine
 10
428.76925
 20
315.632165
 30
0.0
 11
431.230526
 21
318.093441
 31
0.0
  0
LINE
  5
25C
330
257
100
AcDbEntity
  8
LC-003-005-----0
  6
ByBlock
 62
     7
370
    25
100
AcDbLine
 10
428.198404
 20
316.475533
 30
0.0
 11
430.387158
 21
318.664286
 31
0.0
  0
ENDBLK
  5
259
330
257
100
AcDbEntity
  8
0
100
AcDbBlockEnd
  0
BLOCK
  5
25F
330
25E
100
AcDbEntity
  8
0
100
AcDbBlockBegin
  2
*X2326
 70
     1
 71
     0
 10
0.0
 20
0.0
 30
0.0
  3
*X2326
  1

  4
*X23
  0
LINE
  5
261
330
25E
100
AcDbEntity
  8
LC-003-005-----0
  6
ByBlock
 62
     7
370
    25
100
AcDbLine
 10
488.689619
 20
265.243876
 30
0.0
 11
489.144446
 21
265.698703
 31
0.0
  0
LINE
  5
262
330
25E
100
AcDbEntity
  8
LC-003-005-----0
  6
ByBlock
 62
     7
370
    25
100
AcDbLine
 10
485.861192
 20
265.243876
 30
0.0
 11
486.913736
 21
266.29642
 31
0.0
  0
LINE
  5
263
330
25E
100
AcDbEntity
  8
LC-003-005-----0
  6
ByBlock
 62
     7
370
    25
100
AcDbLine
 10
483.032764
 20
265.243876
 30
0.0
 11
484.683026
 21
266.894137
 31
0.0
  0
LINE
  5
264
330
25E
100
AcDbEntity
  8
LC-003-005-----0
  6
ByBlock
 62
     7
370
    25
100
AcDbLine
 10
480.204337
 20
265.243876
 30
0.0
 11
482.452316
 21
267.491854
 31
0.0
  0
LINE
  5
265
330
25E
100
AcDbEntity
  8
LC-003-005-----0
  6
ByBlock
 62
     7
370
    25
100
AcDbLine
 10
477.37591
 20
265.243876
 30
0.0
 11
479.62591
 21
267.493876
 31
0.0
  0
LINE
  5
266
330
25E
100
AcDbEntity
  8
LC-003-005-----0
  6
ByBlock
 62
     7
370
    25
100
AcDbLine
 10
474.547483
 20
265.243876
 30
0.0
 11
476.797483
 21
267.493876
 31
0.0
  0
LINE
  5
267
330
25E
100
AcDbEntity
  8
LC-003-005-----0
  6
ByBlock
 62
     7
370
    25
100
AcDbLine
 10
471.719056
 20
265.243876
 30
0.0
 11
473.969056
 21
267.493876
 31
0.0
  0
LINE
  5
268
330
25E
100
AcDbEntity
  8
LC-003-005-----0
  6
ByBlock
 62
     7
370
    25
100
AcDbLine
 10
468.890629
 20
265.243876
 30
0.0
 11
471.140629
 21
267.493876
 31
0.0
  0
LINE
  5
269
330
25E
100
AcDbEntity
  8
LC-003-005-----0
  6
ByBlock
 62
     7
370
    25
100
AcDbLine
 10
466.062202
 20
265.243876
 30
0.0
 11
468.312202
 21
267.493876
 31
0.0
  0
LINE
  5
26A
330
25E
100
AcDbEntity
  8
LC-003-005-----0
  6
ByBlock
 62
     7
370
    25
100
AcDbLine
 10
463.233775
 20
265.243876
 30
0.0
 11
465.483775
 21
267.493876
 31
0.0
  0
LINE
  5
26B
330
25E
100
AcDbEntity
  8
LC-003-005-----0
  6
ByBlock
 62
     7
370
    25
100
AcDbLine
 10
460.405347
 20
265.243876
 30
0.0
 11
462.655347
 21
267.493876
 31
0.0
  0
LINE
  5
26C
330
25E
100
AcDbEntity
  8
LC-003-005-----0
  6
ByBlock
 62
     7
370
    25
100
AcDbLine
 10
457.57692
 20
265.243876
 30
0.0
 11
459.82692
 21
267.493876
 31
0.0
  0
LINE
  5
26D
330
25E
100
AcDbEntity
  8
LC-003-005-----0
  6
ByBlock
 62
     7
370
    25
100
AcDbLine
 10
454.748493
 20
265.243876
 30
0.0
 11
456.998493
 21
267.493876
 31
0.0
  0
LINE
  5
26E
330
25E
100
AcDbEntity
  8
LC-003-005-----0
  6
ByBlock
 62
     7
370
    25
100
AcDbLine
 10
451.920066
 20
265.243876
 30
0.0
 11
454.170066
 21
267.493876
 31
0.0
  0
LINE
  5
26F
330
25E
100
AcDbEntity
  8
LC-003-005-----0
  6
ByBlock
 62
     7
370
    25
100
AcDbLine
 10
449.091639
 20
265.243876
 30
0.0
 11
451.341639
 21
267.493876
 31
0.0
  0
LINE
  5
270
330
25E
100
AcDbEntity
  8
LC-003-005-----0
  6
ByBlock
 62
     7
370
    25
100
AcDbLine
 10
446.263212
 20
265.243876
 30
0.0
 11
448.513212
 21
267.493876
 31
0.0
  0
LINE
  5
271
330
25E
100
AcDbEntity
  8
LC-003-005-----0
  6
ByBlock
 62
     7
370
    25
100
AcDbLine
 10
443.434785
 20
265.243876
 30
0.0
 11
445.684785
 21
267.493876
 31
0.0
  0
LINE
  5
272
330
25E
100
AcDbEntity
  8
LC-003-005-----0
  6
ByBlock
 62
     7
370
    25
100
AcDbLine
 10
439.000904
 20
263.638422
 30
0.0
 11
442.856358
 21
267.493876
 31
0.0
  0
LINE
  5
273
330
25E
100
AcDbEntity
  8
LC-003-005-----0
  6
ByBlock
 62
     7
370
    25
100
AcDbLine
 10
433.219282
 20
260.685227
 30
0.0
 11
437.738605
 21
265.204551
 31
0.0
  0
LINE
  5
274
330
25E
100
AcDbEntity
  8
LC-003-005-----0
  6
ByBlock
 62
     7
370
    25
100
AcDbLine
 10
429.11252
 20
259.406893
 30
0.0
 11
432.108429
 21
262.402802
 31
0.0
  0
LINE
  5
275
330
25E
100
AcDbEntity
  8
LC-003-005-----0
  6
ByBlock
 62
     7
370
    25
100
AcDbLine
 10
425.661307
 20
258.784107
 30
0.0
 11
428.105548
 21
261.228347
 31
0.0
  0
LINE
  5
276
330
25E
100
AcDbEntity
  8
LC-003-005-----0
  6
ByBlock
 62
     7
370
    25
100
AcDbLine
 10
422.603718
 20
258.554945
 30
0.0
 11
424.742133
 21
260.69336
 31
0.0
  0
LINE
  5
277
330
25E
100
AcDbEntity
  8
LC-003-005-----0
  6
ByBlock
 62
     7
370
    25
100
AcDbLine
 10
419.82378
 20
258.603434
 30
0.0
 11
421.764222
 21
260.543876
 31
0.0
  0
LINE
  5
278
330
25E
100
AcDbEntity
  8
LC-003-005-----0
  6
ByBlock
 62
     7
370
    25
100
AcDbLine
 10
417.257981
 20
258.866062
 30
0.0
 11
419.059387
 21
260.667468
 31
0.0
  0
LINE
  5
279
330
25E
100
AcDbEntity
  8
LC-003-005-----0
  6
ByBlock
 62
     7
370
    25
100
AcDbLine
 10
415.145071
 20
259.581579
 30
0.0
 11
416.566119
 21
261.002627
 31
0.0
  0
ENDBLK
  5
260
330
25E
100
AcDbEntity
  8
0
100
AcDbBlockEnd
  0
BLOCK
  5
27C
330
27B
100
AcDbEntity
  8
0
100
AcDbBlockBegin
  2
*X2427
 70
     1
 71
     0
 10
0.0
 20
0.0
 30
0.0
  3
*X2427
  1

  4
*X24
  0
LINE
  5
27E
330
27B
100
AcDbEntity
  8
LC-003-005-----0
  6
ByBlock
 62
     7
370
    25
100
AcDbLine
 10
519.802317
 20
265.243876
 30
0.0
 11
520.86399
 21
266.305549
 31
0.0
  0
LINE
  5
27F
330
27B
100
AcDbEntity
  8
LC-003-005-----0
  6
ByBlock
 62
     7
370
    25
100
AcDbLine
 10
516.97389
 20
265.243876
 30
0.0
 11
519.22389
 21
267.493876
 31
0.0
  0
LINE
  5
280
330
27B
100
AcDbEntity
  8
LC-003-005-----0
  6
ByBlock
 62
     7
370
    25
100
AcDbLine
 10
514.145463
 20
265.243876
 30
0.0
 11
516.395463
 21
267.493876
 31
0.0
  0
LINE
  5
281
330
27B
100
AcDbEntity
  8
LC-003-005-----0
  6
ByBlock
 62
     7
370
    25
100
AcDbLine
 10
511.317036
 20
265.243876
 30
0.0
 11
513.567036
 21
267.493876
 31
0.0
  0
LINE
  5
282
330
27B
100
AcDbEntity
  8
LC-003-005-----0
  6
ByBlock
 62
     7
370
    25
100
AcDbLine
 10
508.488609
 20
265.243876
 30
0.0
 11
510.738609
 21
267.493876
 31
0.0
  0
LINE
  5
283
330
27B
100
AcDbEntity
  8
LC-003-005-----0
  6
ByBlock
 62
     7
370
    25
100
AcDbLine
 10
505.660181
 20
265.243876
 30
0.0
 11
507.910181
 21
267.493876
 31
0.0
  0
LINE
  5
284
330
27B
100
AcDbEntity
  8
LC-003-005-----0
  6
ByBlock
 62
     7
370
    25
100
AcDbLine
 10
502.831754
 20
265.243876
 30
0.0
 11
505.081754
 21
267.493876
 31
0.0
  0
LINE
  5
285
330
27B
100
AcDbEntity
  8
LC-003-005-----0
  6
ByBlock
 62
     7
370
    25
100
AcDbLine
 10
500.003327
 20
265.243876
 30
0.0
 11
502.253327
 21
267.493876
 31
0.0
  0
LINE
  5
286
330
27B
100
AcDbEntity
  8
LC-003-005-----0
  6
ByBlock
 62
     7
370
    25
100
AcDbLine
 10
497.1749
 20
265.243876
 30
0.0
 11
499.4249
 21
267.493876
 31
0.0
  0
LINE
  5
287
330
27B
100
AcDbEntity
  8
LC-003-005-----0
  6
ByBlock
 62
     7
370
    25
100
AcDbLine
 10
494.346473
 20
265.243876
 30
0.0
 11
496.596473
 21
267.493876
 31
0.0
  0
LINE
  5
288
330
27B
100
AcDbEntity
  8
LC-003-005-----0
  6
ByBlock
 62
     7
370
    25
100
AcDbLine
 10
491.518046
 20
265.243876
 30
0.0
 11
493.768046
 21
267.493876
 31
0.0
  0
LINE
  5
289
330
27B
100
AcDbEntity
  8
LC-003-005-----0
  6
ByBlock
 62
     7
370
    25
100
AcDbLine
 10
489.144446
 20
265.698703
 30
0.0
 11
490.939619
 21
267.493876
 31
0.0
  0
LINE
  5
28A
330
27B
100
AcDbEntity
  8
LC-003-005-----0
  6
ByBlock
 62
     7
370
    25
100
AcDbLine
 10
486.913736
 20
266.29642
 30
0.0
 11
488.111192
 21
267.493876
 31
0.0
  0
LINE
  5
28B
330
27B
100
AcDbEntity
  8
LC-003-005-----0
  6
ByBlock
 62
     7
370
    25
100
AcDbLine
 10
484.683026
 20
266.894137
 30
0.0
 11
485.282764
 21
267.493876
 31
0.0
  0
LINE
  5
28C
330
27B
100
AcDbEntity
  8
LC-003-005-----0
  6
ByBlock
 62
     7
370
    25
100
AcDbLine
 10
482.452316
 20
267.491854
 30
0.0
 11
482.454337
 21
267.493876
 31
0.0
  0
ENDBLK
  5
27D
330
27B
100
AcDbEntity
  8
0
100
AcDbBlockEnd
  0
BLOCK
  5
28F
330
28E
100
AcDbEntity
  8
0
100
AcDbBlockBegin
  2
*X2528
 70
     1
 71
     0
 10
0.0
 20
0.0
 30
0.0
  3
*X2528
  1

  4
*X25
  0
LINE
  5
291
330
28E
100
AcDbEntity
  8
LC-003-005-----0
  6
ByBlock
 62
     7
370
    25
100
AcDbLine
 10
523.405208
 20
266.01834
 30
0.0
 11
523.51487
 21
266.128001
 31
0.0
  0
LINE
  5
292
330
28E
100
AcDbEntity
  8
LC-003-005-----0
  6
ByBlock
 62
     7
370
    25
100
AcDbLine
 10
520.86399
 20
266.305549
 30
0.0
 11
522.052317
 21
267.493876
 31
0.0
  0
ENDBLK
  5
290
330
28E
100
AcDbEntity
  8
0
100
AcDbBlockEnd
  0
BLOCK
  5
30C
330
302
100
AcDbEntity
  8
0
100
AcDbBlockBegin
  2
*D29
 70
     1
 71
     0
 10
0.0
 20
0.0
 30
0.0
  3
*D29
  1

  0
LINE
  5
303
330
302
100
AcDbEntity
  8
LC-002-003-----0
 62
     2
370
    -2
100
AcDbLine
 10
388.855993
 20
215.943876
 30
0.0
 11
388.855993
 21
153.2
 31
0.0
  0
LINE
  5
304
330
302
100
AcDbEntity
  8
LC-002-003-----0
 62
     2
370
    -2
100
AcDbLine
 10
304.154428
 20
228.107078
 30
0.0
 11
304.154428
 21
153.2
 31
0.0
  0
LINE
  5
305
330
302
100
AcDbEntity
  8
LC-002-003-----0
 62
     2
370
    -2
100
AcDbLine
 10
360.855993
 20
156.8
 30
0.0
 11
332.154428
 21
156.8
 31
0.0
  0
SOLID
  5
306
330
302
100
AcDbEntity
  8
LC-002-003-----0
 62
     2
100
AcDbTrace
 10
360.855993
 20
152.133333
 30
0.0
 11
360.855993
 21
161.466667
 31
0.0
 12
388.855993
 22
156.8
 32
0.0
 13
388.855993
 23
156.8
 33
0.0
  0
SOLID
  5
307
330
302
100
AcDbEntity
  8
LC-002-003-----0
 62
     2
100
AcDbTrace
 10
332.154428
 20
161.466667
 30
0.0
 11
332.154428
 21
152.133333
 31
0.0
 12
304.154428
 22
156.8
 32
0.0
 13
304.154428
 23
156.8
 33
0.0
  0
MTEXT
  5
308
330
302
100
AcDbEntity
  8
LC-002-003-----0
 62
     2
100
AcDbMText
 10
346.505211
 20
187.6
 30
0.0
 40
28.0
 41
0.0
 71
     5
 72
     1
  1
\A1;%%c85
  7
LCTX15-400-0-0pDIN-Schrift
 73
     1
 44
1.0
  0
POINT
  5
309
330
302
100
AcDbEntity
  8
Defpoints
 62
     0
100
AcDbPoint
 10
388.855993
 20
215.943876
 30
0.0
  0
POINT
  5
30A
330
302
100
AcDbEntity
  8
Defpoints
 62
     0
100
AcDbPoint
 10
304.154428
 20
228.107078
 30
0.0
  0
POINT
  5
30B
330
302
100
AcDbEntity
  8
Defpoints
 62
     0
100
AcDbPoint
 10
304.154428
 20
156.8
 30
0.0
  0
ENDBLK
  5
30D
330
302
100
AcDbEntity
  8
0
100
AcDbBlockEnd
  0
BLOCK
  5
326
330
325
100
AcDbEntity
  8
0
100
AcDbBlockBegin
  2
LCDIM1
 70
     0
 71
     0
 10
0.0
 20
0.0
 30
0.0
  3
LCDIM1
  1

  4
LCDIM1
  0
TEXT
  5
328
330
325
100
AcDbEntity
  8
LC-002-003-----0
 62
     7
370
   140
100
AcDbText
 10
509.579825
 20
152.950968
 30
0.0
 40
28.0
  1
 15%%d
 50
42.18187
 41
0.9
 51
15.0
  7
LCTX15-400-0-0-Arial
 72
     1
 11
532.959212
 21
174.136625
 31
0.0
100
AcDbText
  0
LINE
  5
329
330
325
100
AcDbEntity
  8
LC-002-003-----0
 62
     7
370
    25
100
AcDbLine
 10
586.923946
 20
217.165628
 30
0.0
 11
592.755942
 21
244.551533
 31
0.0
  0
LINE
  5
32A
330
325
100
AcDbEntity
  8
LC-002-003-----0
 62
     7
370
    25
100
AcDbLine
 10
592.755942
 20
244.551533
 30
0.0
 11
580.034673
 21
219.608211
 31
0.0
  0
LINE
  5
32B
330
325
100
AcDbEntity
  8
LC-002-003-----0
 62
     7
370
    25
100
AcDbLine
 10
580.034673
 20
219.608211
 30
0.0
 11
586.923946
 21
217.165628
 31
0.0
  0
LINE
  5
32C
330
325
100
AcDbEntity
  8
LC-002-003-----0
 62
     7
370
    25
100
AcDbLine
 10
586.007528
 20
217.424462
 30
0.0
 11
590.323205
 21
237.690033
 31
0.0
  0
LINE
  5
32D
330
325
100
AcDbEntity
  8
LC-002-003-----0
 62
     7
370
    25
100
AcDbLine
 10
590.323205
 20
237.690033
 30
0.0
 11
580.909466
 21
219.231974
 31
0.0
  0
LINE
  5
32E
330
325
100
AcDbEntity
  8
LC-002-003-----0
 62
     7
370
    25
100
AcDbLine
 10
585.09111
 20
217.683297
 30
0.0
 11
587.890468
 21
230.828532
 31
0.0
  0
LINE
  5
32F
330
325
100
AcDbEntity
  8
LC-002-003-----0
 62
     7
370
    25
100
AcDbLine
 10
587.890468
 20
230.828532
 30
0.0
 11
581.784259
 21
218.855737
 31
0.0
  0
LINE
  5
330
330
325
100
AcDbEntity
  8
LC-002-003-----0
 62
     7
370
    25
100
AcDbLine
 10
584.174693
 20
217.942132
 30
0.0
 11
585.457732
 21
223.967031
 31
0.0
  0
LINE
  5
331
330
325
100
AcDbEntity
  8
LC-002-003-----0
 62
     7
370
    25
100
AcDbLine
 10
585.457732
 20
223.967031
 30
0.0
 11
582.659052
 21
218.4795
 31
0.0
  0
LINE
  5
332
330
325
100
AcDbEntity
  8
LC-002-003-----0
 62
     7
370
    25
100
AcDbLine
 10
592.955816
 20
317.75404
 30
0.0
 11
598.787812
 21
290.368134
 31
0.0
  0
LINE
  5
333
330
325
100
AcDbEntity
  8
LC-002-003-----0
 62
     7
370
    25
100
AcDbLine
 10
598.787812
 20
290.368134
 30
0.0
 11
600.242531
 21
318.330319
 31
0.0
  0
LINE
  5
334
330
325
100
AcDbEntity
  8
LC-002-003-----0
 62
     7
370
    25
100
AcDbLine
 10
600.242531
 20
318.330319
 30
0.0
 11
592.955816
 21
317.75404
 31
0.0
  0
LINE
  5
335
330
325
100
AcDbEntity
  8
LC-002-003-----0
 62
     7
370
    25
100
AcDbLine
 10
593.898179
 20
317.891043
 30
0.0
 11
598.213856
 21
297.625473
 31
0.0
  0
LINE
  5
336
330
325
100
AcDbEntity
  8
LC-002-003-----0
 62
     7
370
    25
100
AcDbLine
 10
598.213856
 20
297.625473
 30
0.0
 11
599.290348
 21
318.31749
 31
0.0
  0
LINE
  5
337
330
325
100
AcDbEntity
  8
LC-002-003-----0
 62
     7
370
    25
100
AcDbLine
 10
594.840541
 20
318.028047
 30
0.0
 11
597.639899
 21
304.882813
 31
0.0
  0
LINE
  5
338
330
325
100
AcDbEntity
  8
LC-002-003-----0
 62
     7
370
    25
100
AcDbLine
 10
597.639899
 20
304.882813
 30
0.0
 11
598.338164
 21
318.304661
 31
0.0
  0
LINE
  5
339
330
325
100
AcDbEntity
  8
LC-002-003-----0
 62
     7
370
    25
100
AcDbLine
 10
595.782904
 20
318.165051
 30
0.0
 11
597.065943
 21
312.140152
 31
0.0
  0
LINE
  5
33A
330
325
100
AcDbEntity
  8
LC-002-003-----0
 62
     7
370
    25
100
AcDbLine
 10
597.065943
 20
312.140152
 30
0.0
 11
597.385981
 21
318.291833
 31
0.0
  0
ARC
  5
33C
330
325
100
AcDbEntity
  8
LC-007-003-MTG-0
 62
     7
370
    25
100
AcDbCircle
 10
421.76606
 20
290.368134
 30
0.0
 40
177.0217517770654
100
AcDbArc
 50
299.502102
 51
300.380487
  0
ARC
  5
33D
330
325
100
AcDbEntity
  8
LC-007-003-MTG-0
 62
     7
370
    25
100
AcDbCircle
 10
421.76606
 20
290.368134
 30
0.0
 40
177.0217517770654
100
AcDbArc
 50
301.977705
 51
322.386034
  0
ARC
  5
33E
330
325
100
AcDbEntity
  8
LC-007-003-MTG-0
 62
     7
370
    25
100
AcDbCircle
 10
421.76606
 20
290.368134
 30
0.0
 40
177.0217517770654
100
AcDbArc
 50
328.824187
 51
12.486185
  0
LINE
  5
340
330
325
100
AcDbEntity
  8
LC-008-003-MTH-0
 62
     7
370
    25
100
AcDbLine
 10
524.540568
 20
262.829788
 30
0.0
 11
596.619645
 21
243.516257
 31
0.0
  0
LINE
  5
341
330
325
100
AcDbEntity
  8
LC-008-003-MTH-0
 62
     7
370
    25
100
AcDbLine
 10
528.16606
 20
290.368134
 30
0.0
 11
602.787812
 21
290.368134
 31
0.0
  0
ENDBLK
  5
327
330
325
100
AcDbEntity
  8
0
100
AcDbBlockEnd
  0
ENDSEC
  0
SECTION
  2
ENTITIES
  0
LINE
  5
31
330
1F
100
AcDbEntity
  8
LC-001-207-----0
 62
     7
370
    50
100
AcDbLine
 10
492.26487
 20
315.243876
 30
0.0
 11
520.51487
 21
315.243876
 31
0.0
  0
DIMENSION
  5
35
330
1F
100
AcDbEntity
  8
LC-002-003-----0
 62
     7
370
    25
100
AcDbDimension
  2
*D1
 10
564.0
 20
265.262537
 30
0.0
 11
533.2
 21
290.253207
 31
0.0
 70
   160
  1
DN50
 71
     5
 42
49.981338
 53
90.0
  3
LC-DIM-L-0140-02-02
100
AcDbAlignedDimension
 13
491.26487
 23
315.243876
 33
0.0
 14
520.584516
 24
265.262537
 34
0.0
 50
90.0
100
AcDbRotatedDimension
  0
INSERT
  5
4F
102
{ACAD_REACTORS
330
345
102
}
330
1F
100
AcDbEntity
  8
LC-003-005-----0
  6
ByBlock
 62
     7
370
    25
100
AcDbBlockReference
  2
*X12
 10
0.0
 20
0.0
 30
0.0
  0
LINE
  5
51
102
{ACAD_REACTORS
330
345
102
}
330
1F
100
AcDbEntity
  8
LC-004-002-----0
 62
     7
370
    50
100
AcDbLine
 10
303.674774
 20
289.338881
 30
0.0
 11
305.696114
 21
231.455283
 31
0.0
  0
LINE
  5
52
102
{ACAD_REACTORS
330
346
102
}
330
1F
100
AcDbEntity
  8
LC-004-002-----0
 62
     7
370
    50
100
AcDbLine
 10
361.125993
 20
331.48436
 30
0.0
 11
377.375993
 21
331.48436
 31
0.0
  0
INSERT
  5
67
102
{ACAD_REACTORS
330
345
102
}
330
1F
100
AcDbEntity
  8
LC-003-005-----0
  6
ByBlock
 62
     7
370
    25
100
AcDbBlockReference
  2
*X23
 10
0.0
 20
0.0
 30
0.0
  0
INSERT
  5
7F
102
{ACAD_REACTORS
330
345
102
}
330
1F
100
AcDbEntity
  8
LC-003-005-----0
  6
ByBlock
 62
     7
370
    25
100
AcDbBlockReference
  2
*X34
 10
0.0
 20
0.0
 30
0.0
  0
LINE
  5
80
102
{ACAD_REACTORS
330
345
102
}
330
1F
100
AcDbEntity
  8
LC-004-002-----0
 62
     7
370
    50
100
AcDbLine
 10
390.261459
 20
265.943876
 30
0.0
 11
401.365616
 21
265.943876
 31
0.0
  0
LINE
  5
81
330
1F
100
AcDbEntity
  8
LC-004-002-----0
 62
     7
370
    50
100
AcDbLine
 10
362.775993
 20
325.762347
 30
0.0
 11
362.775993
 21
325.762347
 31
0.0
  0
LINE
  5
82
102
{ACAD_REACTORS
330
346
102
}
330
1F
100
AcDbEntity
  8
LC-004-002-----0
 62
     7
370
    50
100
AcDbLine
 10
327.406379
 20
341.48436
 30
0.0
 11
356.345607
 21
341.48436
 31
0.0
  0
DIMENSION
  5
83
330
1F
100
AcDbEntity
  8
LC-002-003-----0
 62
     7
370
    25
100
AcDbDimension
  2
*D5
 10
274.4
 20
329.48436
 30
0.0
 11
243.6
 21
326.464118
 31
0.0
 70
   160
  1
0-8(8-16)
 71
     5
 42
6.040485
 53
90.0
  3
LC-DIM-L-0140-02-02
100
AcDbAlignedDimension
 13
305.575993
 23
323.443876
 33
0.0
 14
306.875993
 24
329.48436
 34
0.0
 50
90.0
100
AcDbRotatedDimension
  0
LINE
  5
92
102
{ACAD_REACTORS
330
346
102
}
330
1F
100
AcDbEntity
  8
LC-004-002-----0
 62
     7
370
    50
100
AcDbLine
 10
377.375993
 20
331.48436
 30
0.0
 11
377.375993
 21
329.98436
 31
0.0
  0
LINE
  5
93
102
{ACAD_REACTORS
330
346
102
}
330
1F
100
AcDbEntity
  8
LC-004-002-----0
 62
     7
370
    50
100
AcDbLine
 10
361.125993
 20
329.98436
 30
0.0
 11
361.125993
 21
306.48436
 31
0.0
  0
LINE
  5
94
102
{ACAD_REACTORS
330
346
102
}
330
1F
100
AcDbEntity
  8
LC-004-002-----0
 62
     7
370
    50
100
AcDbLine
 10
322.625993
 20
306.48436
 30
0.0
 11
361.125993
 21
306.48436
 31
0.0
  0
LINE
  5
95
102
{ACAD_REACTORS
330
346
102
}
330
1F
100
AcDbEntity
  8
LC-004-002-----0
 62
     7
370
    50
100
AcDbLine
 10
359.125993
 20
331.218319
 30
0.0
 11
359.125993
 21
306.48436
 31
0.0
  0
LINE
  5
96
102
{ACAD_REACTORS
330
346
102
}
330
1F
100
AcDbEntity
  8
LC-004-002-----0
 62
     7
370
    50
100
AcDbLine
 10
361.125993
 20
329.98436
 30
0.0
 11
377.375993
 21
329.98436
 31
0.0
  0
LINE
  5
97
102
{ACAD_REACTORS
330
346
102
}
330
1F
100
AcDbEntity
  8
LC-004-002-----0
 62
     7
370
    50
100
AcDbLine
 10
327.406379
 20
343.48436
 30
0.0
 11
356.345607
 21
343.48436
 31
0.0
  0
LINE
  5
98
102
{ACAD_REACTORS
330
346
102
}
330
1F
100
AcDbEntity
  8
LC-004-002-----0
 62
     7
370
    50
100
AcDbLine
 10
356.345607
 20
341.48436
 30
0.0
 11
359.125993
 21
331.218319
 31
0.0
  0
LINE
  5
99
102
{ACAD_REACTORS
330
346
102
}
330
1F
100
AcDbEntity
  8
LC-004-002-----0
 62
     7
370
    50
100
AcDbLine
 10
358.276059
 20
342.007191
 30
0.0
 11
361.125993
 21
331.48436
 31
0.0
  0
ARC
  5
9B
102
{ACAD_REACTORS
330
346
102
}
330
1F
100
AcDbEntity
  8
LC-005-002-RND-0
 62
     7
370
    50
100
AcDbCircle
 10
356.345607
 20
341.48436
 30
0.0
 40
2.000000000000017
100
AcDbArc
 50
15.154068
 51
90.0
  0
ARC
  5
9C
102
{ACAD_REACTORS
330
346
102
}
330
1F
100
AcDbEntity
  8
LC-005-002-RND-0
 62
     7
370
    50
100
AcDbCircle
 10
332.845607
 20
331.98436
 30
0.0
 40
2.0
100
AcDbArc
 50
270.0
 51
344.845932
  0
LINE
  5
9D
102
{ACAD_REACTORS
330
346
102
}
330
1F
100
AcDbEntity
  8
LC-004-002-----0
 62
     7
370
    50
100
AcDbLine
 10
338.639458
 20
337.250402
 30
0.0
 11
345.112527
 21
337.250402
 31
0.0
  0
INSERT
  5
BA
102
{ACAD_REACTORS
330
346
102
}
330
1F
100
AcDbEntity
  8
LC-003-005-----0
  6
ByBlock
 62
     7
370
    25
100
AcDbBlockReference
  2
*X46
 10
0.0
 20
0.0
 30
0.0
  0
LINE
  5
BB
102
{ACAD_REACTORS
330
346
102
}
330
1F
100
AcDbEntity
  8
LC-004-002-----0
 62
     7
370
    50
100
AcDbLine
 10
348.008207
 20
335.034648
 30
0.0
 11
348.969743
 21
331.48436
 31
0.0
  0
ARC
  5
BC
102
{ACAD_REACTORS
330
346
102
}
330
1F
100
AcDbEntity
  8
LC-005-002-RND-0
 62
     7
370
    50
100
AcDbCircle
 10
345.112527
 20
334.250402
 30
0.0
 40
2.999999999999999
100
AcDbArc
 50
15.154068
 51
90.0
  0
LINE
  5
BD
102
{ACAD_REACTORS
330
346
102
}
330
1F
100
AcDbEntity
  8
LC-004-002-----0
 62
     7
370
    50
100
AcDbLine
 10
348.969743
 20
331.48436
 30
0.0
 11
334.782243
 21
331.48436
 31
0.0
  0
LINE
  5
BE
102
{ACAD_REACTORS
330
346
102
}
330
1F
100
AcDbEntity
  8
LC-004-002-----0
 62
     7
370
    50
100
AcDbLine
 10
306.375993
 20
331.48436
 30
0.0
 11
306.375993
 21
329.98436
 31
0.0
  0
LINE
  5
BF
102
{ACAD_REACTORS
330
346
102
}
330
1F
100
AcDbEntity
  8
LC-004-002-----0
 62
     7
370
    50
100
AcDbLine
 10
322.625993
 20
329.98436
 30
0.0
 11
322.625993
 21
306.48436
 31
0.0
  0
LINE
  5
C0
102
{ACAD_REACTORS
330
346
102
}
330
1F
100
AcDbEntity
  8
LC-004-002-----0
 62
     7
370
    50
100
AcDbLine
 10
324.625993
 20
331.218319
 30
0.0
 11
324.625993
 21
306.48436
 31
0.0
  0
LINE
  5
C1
102
{ACAD_REACTORS
330
346
102
}
330
1F
100
AcDbEntity
  8
LC-004-002-----0
 62
     7
370
    50
100
AcDbLine
 10
359.125993
 20
329.98436
 30
0.0
 11
324.625993
 21
329.98436
 31
0.0
  0
LINE
  5
C2
102
{ACAD_REACTORS
330
346
102
}
330
1F
100
AcDbEntity
  8
LC-004-002-----0
 62
     7
370
    50
100
AcDbLine
 10
327.406379
 20
341.48436
 30
0.0
 11
324.625993
 21
331.218319
 31
0.0
  0
LINE
  5
C3
102
{ACAD_REACTORS
330
346
102
}
330
1F
100
AcDbEntity
  8
LC-004-002-----0
 62
     7
370
    50
100
AcDbLine
 10
325.475926
 20
342.007191
 30
0.0
 11
322.625993
 21
331.48436
 31
0.0
  0
ARC
  5
C4
102
{ACAD_REACTORS
330
346
102
}
330
1F
100
AcDbEntity
  8
LC-005-002-RND-0
 62
     7
370
    50
100
AcDbCircle
 10
327.406379
 20
341.48436
 30
0.0
 40
2.0
100
AcDbArc
 50
90.0
 51
164.845932
  0
LINE
  5
C5
102
{ACAD_REACTORS
330
346
102
}
330
1F
100
AcDbEntity
  8
LC-004-002-----0
 62
     7
370
    50
100
AcDbLine
 10
335.743779
 20
335.034648
 30
0.0
 11
334.776059
 21
331.46153
 31
0.0
  0
ARC
  5
C6
102
{ACAD_REACTORS
330
346
102
}
330
1F
100
AcDbEntity
  8
LC-005-002-RND-0
 62
     7
370
    50
100
AcDbCircle
 10
338.639458
 20
334.250402
 30
0.0
 40
3.0
100
AcDbArc
 50
90.0
 51
164.845932
  0
INSERT
  5
E0
102
{ACAD_REACTORS
330
346
102
}
330
1F
100
AcDbEntity
  8
LC-003-005-----0
  6
ByBlock
 62
     7
370
    25
100
AcDbBlockReference
  2
*X57
 10
0.0
 20
0.0
 30
0.0
  0
LINE
  5
E1
102
{ACAD_REACTORS
330
345
102
}
330
1F
100
AcDbEntity
  8
LC-004-002-----0
 62
     7
370
    50
100
AcDbLine
 10
363.495305
 20
290.449138
 30
0.0
 11
362.253189
 21
290.449138
 31
0.0
  0
LINE
  5
E2
102
{ACAD_REACTORS
330
345
102
}
330
1F
100
AcDbEntity
  8
LC-004-002-----0
 62
     7
370
    50
100
AcDbLine
 10
305.575993
 20
323.443876
 30
0.0
 11
307.583683
 21
323.443876
 31
0.0
  0
LINE
  5
E3
102
{ACAD_REACTORS
330
344
102
}
330
1F
100
AcDbEntity
  8
LC-004-002-----0
 62
     7
370
    50
100
AcDbLine
 10
315.681845
 20
328.818924
 30
0.0
 11
315.681845
 21
328.818924
 31
0.0
  0
LINE
  5
E5
102
{ACAD_REACTORS
330
344
102
}
330
1F
100
AcDbEntity
  8
LC-004-002-----0
  6
DASHDOT
 62
     7
370
    25
100
AcDbLine
 10
341.875993
 20
343.48436
 30
0.0
 11
341.875993
 21
215.943876
 31
0.0
  0
LINE
  5
E6
330
1F
100
AcDbEntity
  8
LC-004-002-----0
 62
     7
370
    50
100
AcDbLine
 10
315.681845
 20
328.818924
 30
0.0
 11
322.625993
 21
328.818924
 31
0.0
  0
LINE
  5
E7
330
1F
100
AcDbEntity
  8
LC-004-002-----0
 62
     7
370
    50
100
AcDbLine
 10
320.975993
 20
325.762347
 30
0.0
 11
322.625993
 21
325.762347
 31
0.0
  0
LINE
  5
E8
330
1F
100
AcDbEntity
  8
LC-004-002-----0
 62
     7
370
    50
100
AcDbLine
 10
368.070141
 20
328.818924
 30
0.0
 11
361.125993
 21
328.818924
 31
0.0
  0
LINE
  5
E9
330
1F
100
AcDbEntity
  8
LC-004-002-----0
 62
     7
370
    50
100
AcDbLine
 10
362.775993
 20
325.762347
 30
0.0
 11
361.125993
 21
325.762347
 31
0.0
  0
LINE
  5
EA
102
{ACAD_REACTORS
330
346
102
}
330
1F
100
AcDbEntity
  8
LC-004-002-----0
 62
     7
370
    50
100
AcDbLine
 10
322.625993
 20
331.48436
 30
0.0
 11
306.375993
 21
331.48436
 31
0.0
  0
LINE
  5
EB
102
{ACAD_REACTORS
330
346
102
}
330
1F
100
AcDbEntity
  8
LC-004-002-----0
 62
     7
370
    50
100
AcDbLine
 10
322.625993
 20
329.98436
 30
0.0
 11
306.375993
 21
329.98436
 31
0.0
  0
ARC
  5
EC
330
1F
100
AcDbEntity
  8
LC-005-002-RND-0
 62
     7
370
    50
100
AcDbCircle
 10
350.906379
 20
331.98436
 30
0.0
 40
2.000000000000022
100
AcDbArc
 50
195.154068
 51
270.0
  0
LINE
  5
ED
330
1F
100
AcDbEntity
  8
LC-001-207-----0
 62
     7
370
    50
100
AcDbLine
 10
492.26487
 20
312.993876
 30
0.0
 11
523.51487
 21
312.993876
 31
0.0
  0
LINE
  5
EE
330
1F
100
AcDbEntity
  8
LC-001-207-----0
 62
     7
370
    50
100
AcDbLine
 10
520.51487
 20
315.243876
 30
0.0
 11
523.51487
 21
314.440028
 31
0.0
  0
INSERT
  5
10F
330
1F
100
AcDbEntity
  8
LC-003-005-----0
  6
ByBlock
 62
     7
370
    25
100
AcDbBlockReference
  2
*X68
 10
0.0
 20
0.0
 30
0.0
  0
INSERT
  5
121
330
1F
100
AcDbEntity
  8
LC-003-005-----0
  6
ByBlock
 62
     7
370
    25
100
AcDbBlockReference
  2
*X79
 10
0.0
 20
0.0
 30
0.0
  0
LINE
  5
122
330
1F
100
AcDbEntity
  8
LC-004-002-----0
 62
     7
370
    50
100
AcDbLine
 10
388.330081
 20
267.943876
 30
0.0
 11
363.614726
 21
267.943876
 31
0.0
  0
LINE
  5
123
330
1F
100
AcDbEntity
  8
LC-004-002-----0
 62
     7
370
    50
100
AcDbLine
 10
388.26024
 20
265.943876
 30
0.0
 11
363.629614
 21
265.943876
 31
0.0
  0
LINE
  5
124
330
1F
100
AcDbEntity
  8
LC-004-002-----0
  6
DASHDOT
 62
     7
370
    25
100
AcDbLine
 10
523.51487
 20
290.243876
 30
0.0
 11
382.686618
 21
290.243876
 31
0.0
  0
ARC
  5
125
330
1F
100
AcDbEntity
  8
LC-004-002-----0
 62
     7
370
    50
100
AcDbCircle
 10
409.245871
 20
285.101133
 30
0.0
 40
27.05257392515162
100
AcDbArc
 50
141.494263
 51
219.362085
  0
LINE
  5
126
102
{ACAD_REACTORS
330
345
102
}
330
1F
100
AcDbEntity
  8
LC-004-002-----0
 62
     7
370
    50
100
AcDbLine
 10
363.613144
 20
267.943868
 30
0.0
 11
363.495305
 21
290.449138
 31
0.0
  0
LINE
  5
127
102
{ACAD_REACTORS
330
345
102
}
330
1F
100
AcDbEntity
  8
LC-004-002-----0
 62
     7
370
    50
100
AcDbLine
 10
388.26024
 20
265.943876
 30
0.0
 11
386.853659
 21
225.66468
 31
0.0
  0
INSERT
  5
135
330
1F
100
AcDbEntity
  8
LC-003-005-----0
  6
ByBlock
 62
     7
370
    25
100
AcDbBlockReference
  2
*X810
 10
0.0
 20
0.0
 30
0.0
  0
LINE
  5
136
102
{ACAD_REACTORS
330
344
102
}
330
1F
100
AcDbEntity
  8
LC-004-002-----0
 62
     7
370
    50
100
AcDbLine
 10
364.275993
 20
301.487729
 30
0.0
 11
361.375993
 21
301.487729
 31
0.0
  0
LINE
  5
137
102
{ACAD_REACTORS
330
344
102
}
330
1F
100
AcDbEntity
  8
LC-004-002-----0
 62
     7
370
    50
100
AcDbLine
 10
362.775993
 20
319.487729
 30
0.0
 11
361.775993
 21
319.487729
 31
0.0
  0
LINE
  5
138
102
{ACAD_REACTORS
330
344
102
}
330
1F
100
AcDbEntity
  8
LC-004-002-----0
 62
     7
370
    50
100
AcDbLine
 10
319.475993
 20
301.487729
 30
0.0
 11
361.775993
 21
301.487729
 31
0.0
  0
LINE
  5
139
102
{ACAD_REACTORS
330
344
102
}
330
1F
100
AcDbEntity
  8
LC-004-002-----0
 62
     7
370
    50
100
AcDbLine
 10
365.775993
 20
324.043876
 30
0.0
 11
365.775993
 21
302.987729
 31
0.0
  0
LINE
  5
13A
102
{ACAD_REACTORS
330
344
102
}
330
1F
100
AcDbEntity
  8
LC-004-002-----0
 62
     7
370
    50
100
AcDbLine
 10
321.975993
 20
319.487729
 30
0.0
 11
321.975993
 21
304.437729
 31
0.0
  0
LINE
  5
13B
102
{ACAD_REACTORS
330
344
102
}
330
1F
100
AcDbEntity
  8
LC-004-002-----0
 62
     7
370
    50
100
AcDbLine
 10
320.975993
 20
321.840165
 30
0.0
 11
320.975993
 21
301.487729
 31
0.0
  0
LINE
  5
13C
102
{ACAD_REACTORS
330
344
102
}
330
1F
100
AcDbEntity
  8
LC-004-002-----0
 62
     7
370
    50
100
AcDbLine
 10
361.775993
 20
319.487729
 30
0.0
 11
361.775993
 21
304.437729
 31
0.0
  0
LINE
  5
13D
102
{ACAD_REACTORS
330
344
102
}
330
1F
100
AcDbEntity
  8
LC-004-002-----0
 62
     7
370
    50
100
AcDbLine
 10
362.775993
 20
321.840165
 30
0.0
 11
362.775993
 21
301.487729
 31
0.0
  0
LINE
  5
13E
102
{ACAD_REACTORS
330
344
102
}
330
1F
100
AcDbEntity
  8
LC-004-002-----0
 62
     7
370
    50
100
AcDbLine
 10
320.975993
 20
319.487729
 30
0.0
 11
321.975993
 21
319.487729
 31
0.0
  0
INSERT
  5
14A
102
{ACAD_REACTORS
330
344
102
}
330
1F
100
AcDbEntity
  8
LC-003-005-----0
  6
ByBlock
 62
     7
370
    25
100
AcDbBlockReference
  2
*X911
 10
0.0
 20
0.0
 30
0.0
  0
LINE
  5
14B
102
{ACAD_REACTORS
330
344
102
}
330
1F
100
AcDbEntity
  8
LC-004-002-----0
 62
     7
370
    50
100
AcDbLine
 10
320.975993
 20
325.762347
 30
0.0
 11
320.975993
 21
321.840165
 31
0.0
  0
ARC
  5
14C
102
{ACAD_REACTORS
330
345
102
}
330
1F
100
AcDbEntity
  8
LC-004-002-----0
 62
     7
370
    50
100
AcDbCircle
 10
376.168303
 20
311.443884
 30
0.0
 40
12.0
100
AcDbArc
 50
90.0
 51
150.000048
  0
INSERT
  5
15A
102
{ACAD_REACTORS
330
345
102
}
330
1F
100
AcDbEntity
  8
LC-003-005-----0
  6
ByBlock
 62
     7
370
    25
100
AcDbBlockReference
  2
*X1012
 10
0.0
 20
0.0
 30
0.0
  0
LINE
  5
15B
102
{ACAD_REACTORS
330
344
102
}
330
1F
100
AcDbEntity
  8
LC-004-002-----0
 62
     7
370
    50
100
AcDbLine
 10
362.775993
 20
325.762347
 30
0.0
 11
362.775993
 21
321.840165
 31
0.0
  0
ARC
  5
15C
102
{ACAD_REACTORS
330
345
102
}
330
1F
100
AcDbEntity
  8
LC-005-002-RND-0
 62
     7
370
    50
100
AcDbCircle
 10
319.687586
 20
231.943876
 30
0.0
 40
14.00000000000001
100
AcDbArc
 50
182.0
 51
270.0
  0
LINE
  5
15D
102
{ACAD_REACTORS
330
344
102
}
330
1F
100
AcDbEntity
  8
LC-004-002-----0
 62
     7
370
    25
100
AcDbLine
 10
364.275993
 20
322.077149
 30
0.0
 11
364.275993
 21
301.487729
 31
0.0
  0
LINE
  5
15E
102
{ACAD_REACTORS
330
344
102
}
330
1F
100
AcDbEntity
  8
LC-004-002-----0
 62
     7
370
    50
100
AcDbLine
 10
315.681845
 20
328.818924
 30
0.0
 11
306.875993
 21
329.978237
 31
0.0
  0
LINE
  5
15F
102
{ACAD_REACTORS
330
344
102
}
330
1F
100
AcDbEntity
  8
LC-004-002-----0
 62
     7
370
    50
100
AcDbLine
 10
306.875993
 20
329.98436
 30
0.0
 11
306.875993
 21
329.48436
 31
0.0
  0
LINE
  5
160
102
{ACAD_REACTORS
330
344
102
}
330
1F
100
AcDbEntity
  8
LC-004-002-----0
 62
     7
370
    50
100
AcDbLine
 10
306.875993
 20
329.48436
 30
0.0
 11
316.660033
 21
325.923261
 31
0.0
  0
LINE
  5
161
102
{ACAD_REACTORS
330
344
102
}
330
1F
100
AcDbEntity
  8
LC-004-002-----0
 62
     7
370
    50
100
AcDbLine
 10
368.070141
 20
328.818924
 30
0.0
 11
376.875993
 21
329.978237
 31
0.0
  0
ARC
  5
162
102
{ACAD_REACTORS
330
344
102
}
330
1F
100
AcDbEntity
  8
LC-005-002-RND-0
 62
     7
370
    50
100
AcDbCircle
 10
367.775993
 20
324.043876
 30
0.0
 40
1.999999999999902
100
AcDbArc
 50
110.0
 51
180.0
  0
LINE
  5
163
102
{ACAD_REACTORS
330
344
102
}
330
1F
100
AcDbEntity
  8
LC-004-002-----0
 62
     7
370
    25
100
AcDbLine
 10
365.775993
 20
322.943174
 30
0.0
 11
364.275993
 21
322.077149
 31
0.0
  0
LINE
  5
164
102
{ACAD_REACTORS
330
344
102
}
330
1F
100
AcDbEntity
  8
LC-004-002-----0
 62
     7
370
    50
100
AcDbLine
 10
362.775993
 20
304.437729
 30
0.0
 11
361.775993
 21
304.437729
 31
0.0
  0
LINE
  5
165
102
{ACAD_REACTORS
330
344
102
}
330
1F
100
AcDbEntity
  8
LC-004-002-----0
 62
     7
370
    50
100
AcDbLine
 10
320.975993
 20
304.437729
 30
0.0
 11
321.975993
 21
304.437729
 31
0.0
  0
ARC
  5
166
102
{ACAD_REACTORS
330
344
102
}
330
1F
100
AcDbEntity
  8
LC-005-002-RND-0
 62
     7
370
    50
100
AcDbCircle
 10
315.975993
 20
324.043876
 30
0.0
 40
2.0
100
AcDbArc
 50
0.0
 51
70.0
  0
INSERT
  5
176
102
{ACAD_REACTORS
330
345
102
}
330
1F
100
AcDbEntity
  8
LC-003-005-----0
  6
ByBlock
 62
     7
370
    25
100
AcDbBlockReference
  2
*X1113
 10
0.0
 20
0.0
 30
0.0
  0
LINE
  5
177
330
1F
100
AcDbEntity
  8
LC-004-002-----0
 62
     7
370
    50
100
AcDbLine
 10
317.975993
 20
319.443876
 30
0.0
 11
317.975993
 21
319.743876
 31
0.0
  0
ARC
  5
178
102
{ACAD_REACTORS
330
345
102
}
330
1F
100
AcDbEntity
  8
LC-004-002-----0
 62
     7
370
    50
100
AcDbCircle
 10
307.583683
 20
311.443884
 30
0.0
 40
12.00000000000003
100
AcDbArc
 50
29.999952
 51
90.0
  0
LINE
  5
179
102
{ACAD_REACTORS
330
345
102
}
330
1F
100
AcDbEntity
  8
LC-004-002-----0
 62
     7
370
    50
100
AcDbLine
 10
378.175993
 20
323.443876
 30
0.0
 11
376.168303
 21
323.443876
 31
0.0
  0
LINE
  5
17A
102
{ACAD_REACTORS
330
345
102
}
330
1F
100
AcDbEntity
  8
LC-004-002-----0
 62
     7
370
    50
100
AcDbLine
 10
319.687586
 20
217.943876
 30
0.0
 11
361.873549
 21
217.943876
 31
0.0
  0
LINE
  5
17B
102
{ACAD_REACTORS
330
344
102
}
330
1F
100
AcDbEntity
  8
LC-004-002-----0
 62
     7
370
    25
100
AcDbLine
 10
317.975993
 20
322.943174
 30
0.0
 11
319.475993
 21
322.077149
 31
0.0
  0
LINE
  5
17C
102
{ACAD_REACTORS
330
344
102
}
330
1F
100
AcDbEntity
  8
LC-004-002-----0
 62
     7
370
    50
100
AcDbLine
 10
317.975993
 20
324.043876
 30
0.0
 11
317.975993
 21
302.987729
 31
0.0
  0
LINE
  5
17D
102
{ACAD_REACTORS
330
344
102
}
330
1F
100
AcDbEntity
  8
LC-004-002-----0
 62
     7
370
    25
100
AcDbLine
 10
319.475993
 20
322.077149
 30
0.0
 11
319.475993
 21
301.487729
 31
0.0
  0
LINE
  5
17E
102
{ACAD_REACTORS
330
344
102
}
330
1F
100
AcDbEntity
  8
LC-004-002-----0
 62
     7
370
    50
100
AcDbLine
 10
376.875993
 20
329.48436
 30
0.0
 11
367.091952
 21
325.923261
 31
0.0
  0
LINE
  5
17F
102
{ACAD_REACTORS
330
345
102
}
330
1F
100
AcDbEntity
  8
LC-004-002-----0
 62
     7
370
    50
100
AcDbLine
 10
301.675993
 20
289.269082
 30
0.0
 11
303.697333
 21
231.385484
 31
0.0
  0
ARC
  5
180
102
{ACAD_REACTORS
330
345
102
}
330
1F
100
AcDbEntity
  8
LC-005-002-RND-0
 62
     7
370
    50
100
AcDbCircle
 10
319.687586
 20
231.943876
 30
0.0
 40
16.00000000000004
100
AcDbArc
 50
182.0
 51
270.0
  0
LINE
  5
181
102
{ACAD_REACTORS
330
345
102
}
330
1F
100
AcDbEntity
  8
LC-004-002-----0
 62
     7
370
    50
100
AcDbLine
 10
319.687586
 20
215.943876
 30
0.0
 11
338.875993
 21
215.943876
 31
0.0
  0
LINE
  5
182
102
{ACAD_REACTORS
330
344
102
}
330
1F
100
AcDbEntity
  8
LC-004-002-----0
 62
     7
370
    50
100
AcDbLine
 10
368.070141
 20
328.818924
 30
0.0
 11
362.775993
 21
325.762347
 31
0.0
  0
LINE
  5
183
102
{ACAD_REACTORS
330
345
102
}
330
1F
100
AcDbEntity
  8
LC-004-002-----0
 62
     7
370
    50
100
AcDbLine
 10
316.075993
 20
307.443368
 30
0.0
 11
317.975993
 21
307.443368
 31
0.0
  0
LINE
  5
184
102
{ACAD_REACTORS
330
345
102
}
330
1F
100
AcDbEntity
  8
LC-004-002-----0
 62
     7
370
    50
100
AcDbLine
 10
389.76987
 20
315.100794
 30
0.0
 11
390.333132
 21
307.943876
 31
0.0
  0
ARC
  5
185
102
{ACAD_REACTORS
330
345
102
}
330
1F
100
AcDbEntity
  8
LC-005-002-RND-0
 62
     7
370
    50
100
AcDbCircle
 10
387.776035
 20
314.943876
 30
0.0
 40
1.999999999999953
100
AcDbArc
 50
4.5
 51
90.0
  0
LINE
  5
186
102
{ACAD_REACTORS
330
345
102
}
330
1F
100
AcDbEntity
  8
LC-004-002-----0
 62
     7
370
    50
100
AcDbLine
 10
387.776035
 20
316.943876
 30
0.0
 11
373.875993
 21
316.943876
 31
0.0
  0
LINE
  5
187
102
{ACAD_REACTORS
330
345
102
}
330
1F
100
AcDbEntity
  8
LC-004-002-----0
 62
     7
370
    50
100
AcDbLine
 10
393.075993
 20
306.443876
 30
0.0
 11
389.76987
 21
315.100794
 31
0.0
  0
LINE
  5
188
102
{ACAD_REACTORS
330
345
102
}
330
1F
100
AcDbEntity
  8
LC-004-002-----0
 62
     7
370
    50
100
AcDbLine
 10
387.075993
 20
314.943876
 30
0.0
 11
375.775993
 21
314.943876
 31
0.0
  0
ARC
  5
189
102
{ACAD_REACTORS
330
345
102
}
330
1F
100
AcDbEntity
  8
LC-005-002-RND-0
 62
     7
370
    50
100
AcDbCircle
 10
387.075993
 20
313.943876
 30
0.0
 40
1.0
100
AcDbArc
 50
0.0
 51
90.0
  0
LINE
  5
18A
102
{ACAD_REACTORS
330
345
102
}
330
1F
100
AcDbEntity
  8
LC-004-002-----0
 62
     7
370
    50
100
AcDbLine
 10
388.075993
 20
301.943876
 30
0.0
 11
388.075993
 21
313.943876
 31
0.0
  0
LINE
  5
18B
102
{ACAD_REACTORS
330
345
102
}
330
1F
100
AcDbEntity
  8
LC-004-002-----0
 62
     7
370
    50
100
AcDbLine
 10
309.975993
 20
316.943876
 30
0.0
 11
304.97595
 21
316.943876
 31
0.0
  0
ARC
  5
18C
102
{ACAD_REACTORS
330
345
102
}
330
1F
100
AcDbEntity
  8
LC-005-002-RND-0
 62
     7
370
    50
100
AcDbCircle
 10
304.97595
 20
314.943876
 30
0.0
 40
2.0
100
AcDbArc
 50
90.0
 51
175.5
  0
LINE
  5
18D
102
{ACAD_REACTORS
330
345
102
}
330
1F
100
AcDbEntity
  8
LC-004-002-----0
 62
     7
370
    50
100
AcDbLine
 10
302.982116
 20
315.100794
 30
0.0
 11
302.418854
 21
307.943876
 31
0.0
  0
LINE
  5
18E
102
{ACAD_REACTORS
330
345
102
}
330
1F
100
AcDbEntity
  8
LC-004-002-----0
 62
     7
370
    50
100
AcDbLine
 10
299.675993
 20
306.443876
 30
0.0
 11
302.982116
 21
315.100794
 31
0.0
  0
LINE
  5
18F
102
{ACAD_REACTORS
330
345
102
}
330
1F
100
AcDbEntity
  8
LC-004-002-----0
 62
     7
370
    50
100
AcDbLine
 10
307.975993
 20
314.943876
 30
0.0
 11
305.675993
 21
314.943876
 31
0.0
  0
ARC
  5
190
102
{ACAD_REACTORS
330
345
102
}
330
1F
100
AcDbEntity
  8
LC-005-002-RND-0
 62
     7
370
    50
100
AcDbCircle
 10
305.675993
 20
313.943876
 30
0.0
 40
1.0
100
AcDbArc
 50
90.0
 51
180.0
  0
LINE
  5
191
102
{ACAD_REACTORS
330
345
102
}
330
1F
100
AcDbEntity
  8
LC-004-002-----0
 62
     7
370
    50
100
AcDbLine
 10
304.675993
 20
302.443876
 30
0.0
 11
304.675993
 21
313.943876
 31
0.0
  0
LINE
  5
192
102
{ACAD_REACTORS
330
345
102
}
330
1F
100
AcDbEntity
  8
LC-004-002-----0
 62
     7
370
    50
100
AcDbLine
 10
314.075993
 20
311.743876
 30
0.0
 11
309.975993
 21
311.743876
 31
0.0
  0
LINE
  5
193
102
{ACAD_REACTORS
330
345
102
}
330
1F
100
AcDbEntity
  8
LC-004-002-----0
 62
     7
370
    50
100
AcDbLine
 10
315.075993
 20
308.443368
 30
0.0
 11
315.075993
 21
310.743876
 31
0.0
  0
LINE
  5
194
102
{ACAD_REACTORS
330
345
102
}
330
1F
100
AcDbEntity
  8
LC-004-002-----0
 62
     7
370
    50
100
AcDbLine
 10
368.675993
 20
308.443368
 30
0.0
 11
368.675993
 21
310.743876
 31
0.0
  0
ARC
  5
195
102
{ACAD_REACTORS
330
345
102
}
330
1F
100
AcDbEntity
  8
LC-005-002-RND-0
 62
     7
370
    50
100
AcDbCircle
 10
307.975993
 20
313.943876
 30
0.0
 40
1.0
100
AcDbArc
 50
0.0
 51
90.0
  0
ARC
  5
196
102
{ACAD_REACTORS
330
345
102
}
330
1F
100
AcDbEntity
  8
LC-005-002-RND-0
 62
     7
370
    50
100
AcDbCircle
 10
309.975993
 20
312.743876
 30
0.0
 40
1.0
100
AcDbArc
 50
180.0
 51
270.0
  0
LINE
  5
197
102
{ACAD_REACTORS
330
345
102
}
330
1F
100
AcDbEntity
  8
LC-004-002-----0
 62
     7
370
    50
100
AcDbLine
 10
308.975993
 20
313.943876
 30
0.0
 11
308.975993
 21
312.743876
 31
0.0
  0
ARC
  5
198
102
{ACAD_REACTORS
330
345
102
}
330
1F
100
AcDbEntity
  8
LC-005-002-RND-0
 62
     7
370
    50
100
AcDbCircle
 10
314.075993
 20
310.743876
 30
0.0
 40
1.0
100
AcDbArc
 50
0.0
 51
90.0
  0
LINE
  5
199
102
{ACAD_REACTORS
330
345
102
}
330
1F
100
AcDbEntity
  8
LC-004-002-----0
 62
     7
370
    50
100
AcDbLine
 10
310.975993
 20
315.943876
 30
0.0
 11
310.975993
 21
314.743876
 31
0.0
  0
LINE
  5
19A
102
{ACAD_REACTORS
330
345
102
}
330
1F
100
AcDbEntity
  8
LC-004-002-----0
 62
     7
370
    50
100
AcDbLine
 10
304.675993
 20
302.443876
 30
0.0
 11
303.675993
 21
302.443876
 31
0.0
  0
ARC
  5
19B
102
{ACAD_REACTORS
330
345
102
}
330
1F
100
AcDbEntity
  8
LC-005-002-RND-0
 62
     7
370
    50
100
AcDbCircle
 10
369.675993
 20
310.743876
 30
0.0
 40
1.0
100
AcDbArc
 50
90.0
 51
180.0
  0
ARC
  5
19C
102
{ACAD_REACTORS
330
345
102
}
330
1F
100
AcDbEntity
  8
LC-005-002-RND-0
 62
     7
370
    50
100
AcDbCircle
 10
373.775993
 20
312.743876
 30
0.0
 40
1.0
100
AcDbArc
 50
270.0
 51
0.0
  0
LINE
  5
19D
102
{ACAD_REACTORS
330
345
102
}
330
1F
100
AcDbEntity
  8
LC-004-002-----0
 62
     7
370
    50
100
AcDbLine
 10
369.675993
 20
311.743876
 30
0.0
 11
373.775993
 21
311.743876
 31
0.0
  0
ARC
  5
19E
102
{ACAD_REACTORS
330
345
102
}
330
1F
100
AcDbEntity
  8
LC-005-002-RND-0
 62
     7
370
    50
100
AcDbCircle
 10
375.775993
 20
313.943876
 30
0.0
 40
1.0
100
AcDbArc
 50
90.0
 51
180.0
  0
ARC
  5
19F
102
{ACAD_REACTORS
330
345
102
}
330
1F
100
AcDbEntity
  8
LC-005-002-RND-0
 62
     7
370
    50
100
AcDbCircle
 10
309.975993
 20
315.943876
 30
0.0
 40
1.0
100
AcDbArc
 50
0.0
 51
90.0
  0
LINE
  5
1A0
102
{ACAD_REACTORS
330
345
102
}
330
1F
100
AcDbEntity
  8
LC-004-002-----0
 62
     7
370
    50
100
AcDbLine
 10
374.775993
 20
313.943876
 30
0.0
 11
374.775993
 21
312.743876
 31
0.0
  0
LINE
  5
1A1
102
{ACAD_REACTORS
330
345
102
}
330
1F
100
AcDbEntity
  8
LC-004-002-----0
 62
     7
370
    50
100
AcDbLine
 10
390.075993
 20
306.443876
 30
0.0
 11
393.075993
 21
306.443876
 31
0.0
  0
LINE
  5
1A2
102
{ACAD_REACTORS
330
345
102
}
330
1F
100
AcDbEntity
  8
LC-004-002-----0
 62
     7
370
    50
100
AcDbLine
 10
302.418854
 20
307.943876
 30
0.0
 11
300.235878
 21
307.943876
 31
0.0
  0
ARC
  5
1A3
102
{ACAD_REACTORS
330
345
102
}
330
1F
100
AcDbEntity
  8
LC-005-002-RND-0
 62
     7
370
    50
100
AcDbCircle
 10
311.975993
 20
314.743876
 30
0.0
 40
1.0
100
AcDbArc
 50
180.0
 51
270.0
  0
LINE
  5
1A4
102
{ACAD_REACTORS
330
345
102
}
330
1F
100
AcDbEntity
  8
LC-004-002-----0
 62
     7
370
    50
100
AcDbLine
 10
315.375993
 20
313.743876
 30
0.0
 11
311.975993
 21
313.743876
 31
0.0
  0
LINE
  5
1A5
102
{ACAD_REACTORS
330
345
102
}
330
1F
100
AcDbEntity
  8
LC-004-002-----0
 62
     7
370
    50
100
AcDbLine
 10
367.375993
 20
317.443876
 30
0.0
 11
367.375993
 21
314.743876
 31
0.0
  0
LINE
  5
1A6
102
{ACAD_REACTORS
330
345
102
}
330
1F
100
AcDbEntity
  8
LC-004-002-----0
 62
     7
370
    50
100
AcDbLine
 10
372.775993
 20
315.943876
 30
0.0
 11
372.775993
 21
314.743876
 31
0.0
  0
LINE
  5
1A7
102
{ACAD_REACTORS
330
345
102
}
330
1F
100
AcDbEntity
  8
LC-004-002-----0
 62
     7
370
    50
100
AcDbLine
 10
389.075993
 20
303.943876
 30
0.0
 11
390.075993
 21
303.943876
 31
0.0
  0
LINE
  5
1A8
102
{ACAD_REACTORS
330
345
102
}
330
1F
100
AcDbEntity
  8
LC-004-002-----0
 62
     7
370
    50
100
AcDbLine
 10
390.075993
 20
306.443876
 30
0.0
 11
390.075993
 21
303.943876
 31
0.0
  0
LINE
  5
1A9
102
{ACAD_REACTORS
330
345
102
}
330
1F
100
AcDbEntity
  8
LC-004-002-----0
 62
     7
370
    50
100
AcDbLine
 10
302.675993
 20
306.443876
 30
0.0
 11
299.675993
 21
306.443876
 31
0.0
  0
INSERT
  5
1AE
102
{ACAD_REACTORS
330
345
102
}
330
1F
100
AcDbEntity
  8
LC-003-005-----0
  6
ByBlock
 62
     7
370
    25
100
AcDbBlockReference
  2
*X1214
 10
0.0
 20
0.0
 30
0.0
  0
LINE
  5
1AF
102
{ACAD_REACTORS
330
345
102
}
330
1F
100
AcDbEntity
  8
LC-004-002-----0
 62
     7
370
    50
100
AcDbLine
 10
388.075993
 20
302.443876
 30
0.0
 11
389.075993
 21
302.443876
 31
0.0
  0
LINE
  5
1B0
102
{ACAD_REACTORS
330
345
102
}
330
1F
100
AcDbEntity
  8
LC-004-002-----0
 62
     7
370
    50
100
AcDbLine
 10
390.333132
 20
307.943876
 30
0.0
 11
392.516107
 21
307.943876
 31
0.0
  0
LINE
  5
1B1
102
{ACAD_REACTORS
330
345
102
}
330
1F
100
AcDbEntity
  8
LC-004-002-----0
 62
     7
370
    50
100
AcDbLine
 10
303.675993
 20
303.943876
 30
0.0
 11
303.675993
 21
302.443876
 31
0.0
  0
ARC
  5
1B2
102
{ACAD_REACTORS
330
345
102
}
330
1F
100
AcDbEntity
  8
LC-005-002-RND-0
 62
     7
370
    50
100
AcDbCircle
 10
316.075993
 20
308.443368
 30
0.0
 40
1.0
100
AcDbArc
 50
180.0
 51
270.0
  0
INSERT
  5
1BF
102
{ACAD_REACTORS
330
345
102
}
330
1F
100
AcDbEntity
  8
LC-003-005-----0
  6
ByBlock
 62
     7
370
    25
100
AcDbBlockReference
  2
*X1315
 10
0.0
 20
0.0
 30
0.0
  0
LINE
  5
1C0
102
{ACAD_REACTORS
330
345
102
}
330
1F
100
AcDbEntity
  8
LC-004-002-----0
 62
     7
370
    50
100
AcDbLine
 10
367.675993
 20
307.443368
 30
0.0
 11
365.775993
 21
307.443368
 31
0.0
  0
LINE
  5
1C1
102
{ACAD_REACTORS
330
344
102
}
330
1F
100
AcDbEntity
  8
LC-004-002-----0
 62
     7
370
    50
100
AcDbLine
 10
364.275993
 20
301.487729
 30
0.0
 11
365.775993
 21
302.987729
 31
0.0
  0
LINE
  5
1C2
102
{ACAD_REACTORS
330
344
102
}
330
1F
100
AcDbEntity
  8
LC-004-002-----0
 62
     7
370
    50
100
AcDbLine
 10
319.475993
 20
301.487729
 30
0.0
 11
317.975993
 21
302.987729
 31
0.0
  0
INSERT
  5
1C7
102
{ACAD_REACTORS
330
345
102
}
330
1F
100
AcDbEntity
  8
LC-003-005-----0
  6
ByBlock
 62
     7
370
    25
100
AcDbBlockReference
  2
*X1416
 10
0.0
 20
0.0
 30
0.0
  0
INSERT
  5
1CF
102
{ACAD_REACTORS
330
344
102
}
330
1F
100
AcDbEntity
  8
LC-003-005-----0
  6
ByBlock
 62
     7
370
    25
100
AcDbBlockReference
  2
*X1517
 10
0.0
 20
0.0
 30
0.0
  0
ARC
  5
1D0
102
{ACAD_REACTORS
330
345
102
}
330
1F
100
AcDbEntity
  8
LC-005-002-RND-0
 62
     7
370
    50
100
AcDbCircle
 10
367.675993
 20
308.443368
 30
0.0
 40
1.0
100
AcDbArc
 50
270.0
 51
0.0
  0
LINE
  5
1D1
102
{ACAD_REACTORS
330
345
102
}
330
1F
100
AcDbEntity
  8
LC-004-002-----0
 62
     7
370
    50
100
AcDbLine
 10
367.375993
 20
317.443876
 30
0.0
 11
365.775993
 21
317.443876
 31
0.0
  0
LINE
  5
1D2
102
{ACAD_REACTORS
330
345
102
}
330
1F
100
AcDbEntity
  8
LC-004-002-----0
 62
     7
370
    50
100
AcDbLine
 10
388.075993
 20
301.943876
 30
0.0
 11
396.76866
 21
301.943876
 31
0.0
  0
LINE
  5
1D3
102
{ACAD_REACTORS
330
345
102
}
330
1F
100
AcDbEntity
  8
LC-004-002-----0
 62
     7
370
    50
100
AcDbLine
 10
316.375993
 20
317.443876
 30
0.0
 11
317.975993
 21
317.443876
 31
0.0
  0
ARC
  5
1D4
102
{ACAD_REACTORS
330
345
102
}
330
1F
100
AcDbEntity
  8
LC-005-002-RND-0
 62
     7
370
    50
100
AcDbCircle
 10
373.775993
 20
315.943876
 30
0.0
 40
0.999999999999974
100
AcDbArc
 50
90.890752
 51
180.0
  0
LINE
  5
1D5
102
{ACAD_REACTORS
330
345
102
}
330
1F
100
AcDbEntity
  8
LC-004-002-----0
 62
     7
370
    50
100
AcDbLine
 10
303.675993
 20
303.943876
 30
0.0
 11
302.675993
 21
303.943876
 31
0.0
  0
LINE
  5
1D6
102
{ACAD_REACTORS
330
345
102
}
330
1F
100
AcDbEntity
  8
LC-004-002-----0
 62
     7
370
    50
100
AcDbLine
 10
299.675993
 20
304.943876
 30
0.0
 11
301.675993
 21
297.479774
 31
0.0
  0
LINE
  5
1D7
102
{ACAD_REACTORS
330
345
102
}
330
1F
100
AcDbEntity
  8
LC-004-002-----0
 62
     7
370
    50
100
AcDbLine
 10
302.675993
 20
304.943876
 30
0.0
 11
299.675993
 21
304.943876
 31
0.0
  0
LINE
  5
1D8
102
{ACAD_REACTORS
330
345
102
}
330
1F
100
AcDbEntity
  8
LC-004-002-----0
 62
     7
370
    50
100
AcDbLine
 10
302.675993
 20
304.943876
 30
0.0
 11
302.675993
 21
302.943876
 31
0.0
  0
LINE
  5
1D9
102
{ACAD_REACTORS
330
345
102
}
330
1F
100
AcDbEntity
  8
LC-004-002-----0
 62
     7
370
    50
100
AcDbLine
 10
303.675993
 20
303.443876
 30
0.0
 11
302.675993
 21
303.443876
 31
0.0
  0
LINE
  5
1DA
102
{ACAD_REACTORS
330
345
102
}
330
1F
100
AcDbEntity
  8
LC-004-002-----0
 62
     7
370
    50
100
AcDbLine
 10
301.675993
 20
303.443876
 30
0.0
 11
300.077917
 21
303.443876
 31
0.0
  0
LINE
  5
1DB
102
{ACAD_REACTORS
330
345
102
}
330
1F
100
AcDbEntity
  8
LC-004-002-----0
 62
     7
370
    50
100
AcDbLine
 10
303.675993
 20
303.443876
 30
0.0
 11
302.675993
 21
302.943876
 31
0.0
  0
LINE
  5
1DC
102
{ACAD_REACTORS
330
345
102
}
330
1F
100
AcDbEntity
  8
LC-004-002-----0
 62
     7
370
    50
100
AcDbLine
 10
316.375993
 20
317.443876
 30
0.0
 11
316.375993
 21
314.743876
 31
0.0
  0
ARC
  5
1DD
102
{ACAD_REACTORS
330
345
102
}
330
1F
100
AcDbEntity
  8
LC-005-002-RND-0
 62
     7
370
    50
100
AcDbCircle
 10
315.375993
 20
314.743876
 30
0.0
 40
1.0
100
AcDbArc
 50
270.0
 51
0.0
  0
LINE
  5
1DE
102
{ACAD_REACTORS
330
345
102
}
330
1F
100
AcDbEntity
  8
LC-004-002-----0
 62
     7
370
    50
100
AcDbLine
 10
303.675993
 20
303.443876
 30
0.0
 11
303.675993
 21
294.693876
 31
0.0
  0
ARC
  5
1DF
102
{ACAD_REACTORS
330
345
102
}
330
1F
100
AcDbEntity
  8
LC-005-002-RND-0
 62
     7
370
    50
100
AcDbCircle
 10
371.775993
 20
314.743876
 30
0.0
 40
1.0
100
AcDbArc
 50
270.0
 51
0.0
  0
ARC
  5
1E0
102
{ACAD_REACTORS
330
345
102
}
330
1F
100
AcDbEntity
  8
LC-005-002-RND-0
 62
     7
370
    50
100
AcDbCircle
 10
368.375993
 20
314.743876
 30
0.0
 40
1.0
100
AcDbArc
 50
180.0
 51
270.0
  0
LINE
  5
1E1
102
{ACAD_REACTORS
330
345
102
}
330
1F
100
AcDbEntity
  8
LC-004-002-----0
 62
     7
370
    50
100
AcDbLine
 10
368.375993
 20
313.743876
 30
0.0
 11
371.775993
 21
313.743876
 31
0.0
  0
LINE
  5
1E2
102
{ACAD_REACTORS
330
345
102
}
330
1F
100
AcDbEntity
  8
LC-004-002-----0
 62
     7
370
    50
100
AcDbLine
 10
302.675993
 20
306.443876
 30
0.0
 11
302.675993
 21
303.943876
 31
0.0
  0
LINE
  5
1E3
102
{ACAD_REACTORS
330
345
102
}
330
1F
100
AcDbEntity
  8
LC-004-002-----0
 62
     7
370
    50
100
AcDbLine
 10
390.075993
 20
304.943876
 30
0.0
 11
396.074233
 21
304.943876
 31
0.0
  0
LINE
  5
1E4
102
{ACAD_REACTORS
330
345
102
}
330
1F
100
AcDbEntity
  8
LC-004-002-----0
 62
     7
370
    50
100
AcDbLine
 10
389.075993
 20
303.443876
 30
0.0
 11
390.075993
 21
303.443876
 31
0.0
  0
LINE
  5
1E5
102
{ACAD_REACTORS
330
345
102
}
330
1F
100
AcDbEntity
  8
LC-004-002-----0
 62
     7
370
    50
100
AcDbLine
 10
338.875993
 20
215.943876
 30
0.0
 11
388.855993
 21
215.943876
 31
0.0
  0
LINE
  5
1E6
102
{ACAD_REACTORS
330
345
102
}
330
1F
100
AcDbEntity
  8
LC-004-002-----0
 62
     7
370
    50
100
AcDbLine
 10
363.885418
 20
215.943876
 30
0.0
 11
363.623616
 21
265.943844
 31
0.0
  0
LINE
  5
1E7
102
{ACAD_REACTORS
330
345
102
}
330
1F
100
AcDbEntity
  8
LC-004-002-----0
 62
     7
370
    50
100
AcDbLine
 10
390.261459
 20
265.943876
 30
0.0
 11
388.854878
 21
225.66468
 31
0.0
  0
LINE
  5
1E8
330
1F
100
AcDbEntity
  8
LC-004-002-----0
 62
     7
370
    50
100
AcDbLine
 10
303.675993
 20
297.693876
 30
0.0
 11
303.675993
 21
291.269082
 31
0.0
  0
ARC
  5
1EA
102
{ACAD_REACTORS
330
345
102
}
330
1F
100
AcDbEntity
  8
LC-006-205-----0
 62
     7
370
    50
100
AcDbCircle
 10
421.76606
 20
290.243876
 30
0.0
 40
29.59999999999985
100
AcDbArc
 50
133.567148
 51
150.223261
  0
LINE
  5
1EB
102
{ACAD_REACTORS
330
345
102
}
330
1F
100
AcDbEntity
  8
LC-006-205-----0
 62
     7
370
    50
100
AcDbLine
 10
427.864924
 20
315.243876
 30
0.0
 11
427.864924
 21
319.208749
 31
0.0
  0
LINE
  5
1EC
102
{ACAD_REACTORS
330
345
102
}
330
1F
100
AcDbEntity
  8
LC-006-205-----0
 62
     7
370
    50
100
AcDbLine
 10
427.864924
 20
315.243876
 30
0.0
 11
432.364924
 21
315.243876
 31
0.0
  0
LINE
  5
1ED
102
{ACAD_REACTORS
330
345
102
}
330
1F
100
AcDbEntity
  8
LC-006-205-----0
 62
     7
370
    50
100
AcDbLine
 10
432.364924
 20
315.243876
 30
0.0
 11
432.364924
 21
317.881243
 31
0.0
  0
ARC
  5
1EE
102
{ACAD_REACTORS
330
345
102
}
330
1F
100
AcDbEntity
  8
LC-006-205-----0
 62
     7
370
    50
100
AcDbCircle
 10
421.76606
 20
290.243876
 30
0.0
 40
29.60000000000006
100
AcDbArc
 50
53.517333
 51
69.018302
  0
LINE
  5
1EF
102
{ACAD_REACTORS
330
345
102
}
330
1F
100
AcDbEntity
  8
LC-004-002-----0
 62
     7
370
    50
100
AcDbLine
 10
301.675993
 20
303.443876
 30
0.0
 11
301.675993
 21
289.269082
 31
0.0
  0
LINE
  5
1F0
102
{ACAD_REACTORS
330
345
102
}
330
1F
100
AcDbEntity
  8
LC-004-002-----0
 62
     7
370
    50
100
AcDbLine
 10
362.253189
 20
290.449138
 30
0.0
 11
361.873549
 21
217.943876
 31
0.0
  0
LINE
  5
1F1
102
{ACAD_REACTORS
330
345
102
}
330
1F
100
AcDbEntity
  8
LC-004-002-----0
 62
     7
370
    50
100
AcDbLine
 10
303.675993
 20
295.693876
 30
0.0
 11
303.675993
 21
289.269082
 31
0.0
  0
LINE
  5
1F2
102
{ACAD_REACTORS
330
344
102
}
330
1F
100
AcDbEntity
  8
LC-004-002-----0
 62
     7
370
    50
100
AcDbLine
 10
315.681845
 20
328.818924
 30
0.0
 11
320.975993
 21
325.762347
 31
0.0
  0
LINE
  5
1F3
102
{ACAD_REACTORS
330
344
102
}
330
1F
100
AcDbEntity
  8
LC-004-002-----0
 62
     7
370
    50
100
AcDbLine
 10
376.875993
 20
329.98436
 30
0.0
 11
376.875993
 21
329.48436
 31
0.0
  0
INSERT
  5
1FE
102
{ACAD_REACTORS
330
345
102
}
330
1F
100
AcDbEntity
  8
LC-003-005-----0
  6
ByBlock
 62
     7
370
    25
100
AcDbBlockReference
  2
*X1618
 10
0.0
 20
0.0
 30
0.0
  0
LINE
  5
1FF
102
{ACAD_REACTORS
330
345
102
}
330
1F
100
AcDbEntity
  8
LC-004-002-----0
 62
     7
370
    50
100
AcDbLine
 10
390.075993
 20
304.943876
 30
0.0
 11
390.075993
 21
302.943876
 31
0.0
  0
LINE
  5
200
102
{ACAD_REACTORS
330
345
102
}
330
1F
100
AcDbEntity
  8
LC-004-002-----0
 62
     7
370
    50
100
AcDbLine
 10
389.075993
 20
303.443876
 30
0.0
 11
390.075993
 21
302.943876
 31
0.0
  0
LINE
  5
201
102
{ACAD_REACTORS
330
345
102
}
330
1F
100
AcDbEntity
  8
LC-006-205-----0
 62
     7
370
    50
100
AcDbLine
 10
439.365616
 20
314.046588
 30
0.0
 11
439.365616
 21
266.444387
 31
0.0
  0
ARC
  5
202
102
{ACAD_REACTORS
330
345
102
}
330
1F
100
AcDbEntity
  8
LC-006-205-----0
 62
     7
370
    50
100
AcDbCircle
 10
421.76606
 20
290.243876
 30
0.0
 40
29.60000000000018
100
AcDbArc
 50
290.981698
 51
306.482667
  0
LINE
  5
203
102
{ACAD_REACTORS
330
345
102
}
330
1F
100
AcDbEntity
  8
LC-006-205-----0
 62
     7
370
    50
100
AcDbLine
 10
439.364924
 20
267.943876
 30
0.0
 11
405.503527
 21
267.943876
 31
0.0
  0
LINE
  5
204
102
{ACAD_REACTORS
330
345
102
}
330
1F
100
AcDbEntity
  8
LC-006-205-----0
 62
     7
370
    50
100
AcDbLine
 10
432.364924
 20
265.243876
 30
0.0
 11
432.364924
 21
262.606508
 31
0.0
  0
LINE
  5
205
102
{ACAD_REACTORS
330
345
102
}
330
1F
100
AcDbEntity
  8
LC-006-205-----0
 62
     7
370
    50
100
AcDbLine
 10
427.864924
 20
265.243876
 30
0.0
 11
432.364924
 21
265.243876
 31
0.0
  0
ARC
  5
206
102
{ACAD_REACTORS
330
345
102
}
330
1F
100
AcDbEntity
  8
LC-006-205-----0
 62
     7
370
    50
100
AcDbCircle
 10
421.76606
 20
290.243876
 30
0.0
 40
29.59999999999978
100
AcDbArc
 50
235.179599
 51
281.890544
  0
LINE
  5
207
102
{ACAD_REACTORS
330
345
102
}
330
1F
100
AcDbEntity
  8
LC-006-205-----0
 62
     7
370
    50
100
AcDbLine
 10
427.864924
 20
265.243876
 30
0.0
 11
427.864924
 21
261.279003
 31
0.0
  0
LINE
  5
208
102
{ACAD_REACTORS
330
345
102
}
330
1F
100
AcDbEntity
  8
LC-006-205-----0
 62
     7
370
    50
100
AcDbLine
 10
388.330081
 20
267.943876
 30
0.0
 11
405.503527
 21
267.943876
 31
0.0
  0
LINE
  5
209
102
{ACAD_REACTORS
330
345
102
}
330
1F
100
AcDbEntity
  8
LC-006-205-----0
 62
     7
370
    50
100
AcDbLine
 10
439.364479
 20
312.547429
 30
0.0
 11
405.508399
 21
312.547429
 31
0.0
  0
ARC
  5
20A
102
{ACAD_REACTORS
330
345
102
}
330
1F
100
AcDbEntity
  8
LC-004-002-----0
 62
     7
370
    50
100
AcDbCircle
 10
421.76606
 20
290.243876
 30
0.0
 40
27.59999999999998
100
AcDbArc
 50
126.089316
 51
154.918118
  0
LINE
  5
20B
102
{ACAD_REACTORS
330
345
102
}
330
1F
100
AcDbEntity
  8
LC-004-002-----0
 62
     7
370
    50
100
AcDbLine
 10
401.365616
 20
315.743876
 30
0.0
 11
401.365616
 21
311.691064
 31
0.0
  0
LINE
  5
20C
102
{ACAD_REACTORS
330
345
102
}
330
1F
100
AcDbEntity
  8
LC-004-002-----0
 62
     7
370
    50
100
AcDbLine
 10
403.865616
 20
315.743876
 30
0.0
 11
403.865616
 21
313.817889
 31
0.0
  0
LINE
  5
20D
102
{ACAD_REACTORS
330
345
102
}
330
1F
100
AcDbEntity
  8
LC-004-002-----0
 62
     7
370
    50
100
AcDbLine
 10
401.365616
 20
315.743876
 30
0.0
 11
403.865616
 21
315.743876
 31
0.0
  0
LINE
  5
20E
102
{ACAD_REACTORS
330
345
102
}
330
1F
100
AcDbEntity
  8
LC-004-002-----0
 62
     7
370
    50
100
AcDbLine
 10
401.365616
 20
264.743876
 30
0.0
 11
403.865616
 21
264.743876
 31
0.0
  0
LINE
  5
20F
102
{ACAD_REACTORS
330
345
102
}
330
1F
100
AcDbEntity
  8
LC-004-002-----0
 62
     7
370
    50
100
AcDbLine
 10
403.865616
 20
265.943876
 30
0.0
 11
403.865616
 21
264.743876
 31
0.0
  0
LINE
  5
210
102
{ACAD_REACTORS
330
345
102
}
330
1F
100
AcDbEntity
  8
LC-004-002-----0
 62
     7
370
    50
100
AcDbLine
 10
401.365616
 20
265.943876
 30
0.0
 11
401.365616
 21
264.743876
 31
0.0
  0
LINE
  5
211
102
{ACAD_REACTORS
330
345
102
}
330
1F
100
AcDbEntity
  8
LC-004-002-----0
 62
     7
370
    50
100
AcDbLine
 10
403.865616
 20
265.943876
 30
0.0
 11
404.864285
 21
265.943876
 31
0.0
  0
ARC
  5
212
102
{ACAD_REACTORS
330
345
102
}
330
1F
100
AcDbEntity
  8
LC-006-205-----0
 62
     7
370
    50
100
AcDbCircle
 10
421.76606
 20
290.243876
 30
0.0
 40
29.59999999999993
100
AcDbArc
 50
78.109456
 51
127.210476
  0
DIMENSION
  5
213
330
1F
100
AcDbEntity
  8
LC-002-003-----0
 62
     7
370
    25
100
AcDbDimension
  2
*D19
 10
235.2
 20
323.443876
 30
0.0
 11
204.4
 21
269.698621
 31
0.0
 70
   160
  1
105
 71
     5
 42
107.490509
 53
90.0
  3
LC-DIM-L-0140-02-02
100
AcDbAlignedDimension
 13
319.136567
 23
215.953367
 33
0.0
 14
305.575993
 24
323.443876
 34
0.0
 50
90.0
100
AcDbRotatedDimension
  0
INSERT
  5
229
102
{ACAD_REACTORS
330
344
102
}
330
1F
100
AcDbEntity
  8
LC-003-005-----0
  6
ByBlock
 62
     7
370
    25
100
AcDbBlockReference
  2
*X1720
 10
0.0
 20
0.0
 30
0.0
  0
LINE
  5
22A
330
1F
100
AcDbEntity
  8
LC-004-002-----0
 62
     7
370
    50
100
AcDbLine
 10
390.075993
 20
306.443876
 30
0.0
 11
390.075993
 21
304.943876
 31
0.0
  0
LINE
  5
22B
102
{ACAD_REACTORS
330
345
102
}
330
1F
100
AcDbEntity
  8
LC-004-002-----0
 62
     7
370
    50
100
AcDbLine
 10
389.075993
 20
303.943876
 30
0.0
 11
389.075993
 21
301.943876
 31
0.0
  0
INSERT
  5
233
330
1F
100
AcDbEntity
  8
LC-003-005-----0
  6
ByBlock
 62
     7
370
    25
100
AcDbBlockReference
  2
*X1821
 10
0.0
 20
0.0
 30
0.0
  0
LINE
  5
234
330
1F
100
AcDbEntity
  8
LC-004-002-----0
 62
     7
370
    50
100
AcDbLine
 10
378.125993
 20
323.443876
 30
0.0
 11
378.125993
 21
316.943876
 31
0.0
  0
LINE
  5
235
330
1F
100
AcDbEntity
  8
LC-004-002-----0
 62
     7
370
    50
100
AcDbLine
 10
305.625993
 20
323.443876
 30
0.0
 11
305.625993
 21
316.943876
 31
0.0
  0
CIRCLE
  5
236
330
1F
100
AcDbEntity
  8
LC-004-002-----0
 62
     7
370
    50
100
AcDbCircle
 10
429.870353
 20
263.495414
 30
0.0
 40
1.75
  0
INSERT
  5
23E
330
1F
100
AcDbEntity
  8
LC-003-005-----0
  6
ByBlock
 62
     7
370
    25
100
AcDbBlockReference
  2
*X1922
 10
0.0
 20
0.0
 30
0.0
  0
INSERT
  5
246
330
1F
100
AcDbEntity
  8
LC-003-005-----0
  6
ByBlock
 62
     7
370
    25
100
AcDbBlockReference
  2
*X2023
 10
0.0
 20
0.0
 30
0.0
  0
LINE
  5
247
330
1F
100
AcDbEntity
  8
LC-004-002-----0
 62
     7
370
    50
100
AcDbLine
 10
440.858664
 20
312.993876
 30
0.0
 11
440.858664
 21
267.493876
 31
0.0
  0
ARC
  5
248
330
1F
100
AcDbEntity
  8
LC-001-207-----0
 62
     7
370
    50
100
AcDbCircle
 10
421.76606
 20
290.243876
 30
0.0
 40
29.70000000000029
100
AcDbArc
 50
49.995438
 51
78.158811
  0
ARC
  5
249
330
1F
100
AcDbEntity
  8
LC-001-207-----0
 62
     7
370
    50
100
AcDbCircle
 10
416.145071
 20
260.062847
 30
0.0
 40
0.9999999999999742
100
AcDbArc
 50
79.449965
 51
180.0
  0
CIRCLE
  5
24A
330
1F
100
AcDbEntity
  8
LC-004-002-----0
 62
     7
370
    50
100
AcDbCircle
 10
429.870353
 20
316.992338
 30
0.0
 40
1.75
  0
LINE
  5
24B
330
1F
100
AcDbEntity
  8
LC-001-207-----0
 62
     7
370
    50
100
AcDbLine
 10
523.51487
 20
267.493876
 30
0.0
 11
523.51487
 21
266.047723
 31
0.0
  0
ARC
  5
24C
330
1F
100
AcDbEntity
  8
LC-001-207-----0
 62
     7
370
    50
100
AcDbCircle
 10
421.76606
 20
290.243876
 30
0.0
 40
29.70000000000009
100
AcDbArc
 50
281.940306
 51
310.004562
  0
INSERT
  5
253
330
1F
100
AcDbEntity
  8
LC-003-005-----0
  6
ByBlock
 62
     7
370
    25
100
AcDbBlockReference
  2
*X2124
 10
0.0
 20
0.0
 30
0.0
  0
ARC
  5
254
330
1F
100
AcDbEntity
  8
LC-001-207-----0
 62
     7
370
    50
100
AcDbCircle
 10
416.145071
 20
320.424904
 30
0.0
 40
1.0
100
AcDbArc
 50
180.0
 51
280.550035
  0
ARC
  5
255
330
1F
100
AcDbEntity
  8
LC-004-002-----0
 62
     7
370
    50
100
AcDbCircle
 10
421.76606
 20
290.368134
 30
0.0
 40
32.65621125500474
100
AcDbArc
 50
106.729931
 51
128.660417
  0
LINE
  5
256
330
1F
100
AcDbEntity
  8
LC-004-002-----0
 62
     7
370
    50
100
AcDbLine
 10
412.365616
 20
321.642081
 30
0.0
 11
412.365616
 21
318.43576
 31
0.0
  0
INSERT
  5
25D
330
1F
100
AcDbEntity
  8
LC-003-005-----0
  6
ByBlock
 62
     7
370
    25
100
AcDbBlockReference
  2
*X2225
 10
0.0
 20
0.0
 30
0.0
  0
INSERT
  5
27A
330
1F
100
AcDbEntity
  8
LC-003-005-----0
  6
ByBlock
 62
     7
370
    25
100
AcDbBlockReference
  2
*X2326
 10
0.0
 20
0.0
 30
0.0
  0
INSERT
  5
28D
330
1F
100
AcDbEntity
  8
LC-003-005-----0
  6
ByBlock
 62
     7
370
    25
100
AcDbBlockReference
  2
*X2427
 10
0.0
 20
0.0
 30
0.0
  0
INSERT
  5
293
330
1F
100
AcDbEntity
  8
LC-003-005-----0
  6
ByBlock
 62
     7
370
    25
100
AcDbBlockReference
  2
*X2528
 10
0.0
 20
0.0
 30
0.0
  0
LINE
  5
294
330
1F
100
AcDbEntity
  8
LC-001-207-----0
 62
     7
370
    50
100
AcDbLine
 10
492.26487
 20
265.243876
 30
0.0
 11
520.51487
 21
265.243876
 31
0.0
  0
LINE
  5
295
330
1F
100
AcDbEntity
  8
LC-001-207-----0
 62
     7
370
    50
100
AcDbLine
 10
441.256827
 20
315.243876
 30
0.0
 11
491.26487
 21
315.243876
 31
0.0
  0
LINE
  5
296
330
1F
100
AcDbEntity
  8
LC-001-207-----0
 62
     7
370
    50
100
AcDbLine
 10
492.26487
 20
267.493876
 30
0.0
 11
523.51487
 21
267.493876
 31
0.0
  0
LINE
  5
297
330
1F
100
AcDbEntity
  8
LC-001-207-----0
 62
     7
370
    50
100
AcDbLine
 10
440.858664
 20
312.993876
 30
0.0
 11
491.26487
 21
312.993876
 31
0.0
  0
LINE
  5
298
330
1F
100
AcDbEntity
  8
LC-001-207-----0
 62
     7
370
    50
100
AcDbLine
 10
440.858664
 20
267.493876
 30
0.0
 11
492.26487
 21
267.493876
 31
0.0
  0
LINE
  5
299
330
1F
100
AcDbEntity
  8
LC-001-207-----0
 62
     7
370
    50
100
AcDbLine
 10
441.256827
 20
265.243876
 30
0.0
 11
492.26487
 21
265.243876
 31
0.0
  0
LINE
  5
29A
330
1F
100
AcDbEntity
  8
LC-001-207-----0
 62
     7
370
    50
100
AcDbLine
 10
520.51487
 20
265.243876
 30
0.0
 11
523.51487
 21
266.047723
 31
0.0
  0
LINE
  5
29B
330
1F
100
AcDbEntity
  8
LC-001-207-----0
 62
     7
370
    50
100
AcDbLine
 10
523.51487
 20
314.440028
 30
0.0
 11
523.51487
 21
267.493876
 31
0.0
  0
ARC
  5
29C
330
1F
100
AcDbEntity
  8
LC-001-207-----0
 62
     7
370
    50
100
AcDbCircle
 10
421.76606
 20
290.243876
 30
0.0
 40
31.70000000000007
100
AcDbArc
 50
257.827272
 51
307.941072
  0
ARC
  5
29D
330
1F
100
AcDbEntity
  8
LC-001-207-----0
 62
     7
370
    50
100
AcDbCircle
 10
421.76606
 20
290.243876
 30
0.0
 40
31.7000000000001
100
AcDbArc
 50
52.058928
 51
102.055789
  0
LINE
  5
29E
330
1F
100
AcDbEntity
  8
LC-001-207-----0
 62
     7
370
    50
100
AcDbLine
 10
415.145071
 20
320.424904
 30
0.0
 11
415.145071
 21
321.244723
 31
0.0
  0
LINE
  5
29F
330
1F
100
AcDbEntity
  8
LC-001-207-----0
 62
     7
370
    50
100
AcDbLine
 10
415.145071
 20
259.256607
 30
0.0
 11
415.145071
 21
260.062847
 31
0.0
  0
LINE
  5
2A0
102
{ACAD_REACTORS
330
345
102
}
330
1F
100
AcDbEntity
  8
LC-004-002-----0
 62
     7
370
    50
100
AcDbLine
 10
388.855993
 20
225.66468
 30
0.0
 11
388.855993
 21
215.943876
 31
0.0
  0
LINE
  5
2A1
102
{ACAD_REACTORS
330
345
102
}
330
1F
100
AcDbEntity
  8
LC-004-002-----0
 62
     7
370
    50
100
AcDbLine
 10
386.857093
 20
215.943876
 30
0.0
 11
386.853659
 21
225.66468
 31
0.0
  0
LINE
  5
2A2
102
{ACAD_REACTORS
330
345
102
}
330
1F
100
AcDbEntity
  8
LC-003-005-----0
  6
ByBlock
 62
     7
370
    25
100
AcDbLine
 10
341.773475
 20
215.943876
 30
0.0
 11
340.26234
 21
217.45501
 31
0.0
  0
LINE
  5
2A3
102
{ACAD_REACTORS
330
345
102
}
330
1F
100
AcDbEntity
  8
LC-003-005-----0
  6
ByBlock
 62
     7
370
    25
100
AcDbLine
 10
344.601902
 20
215.943876
 30
0.0
 11
342.601902
 21
217.943876
 31
0.0
  0
LINE
  5
2A4
102
{ACAD_REACTORS
330
345
102
}
330
1F
100
AcDbEntity
  8
LC-003-005-----0
  6
ByBlock
 62
     7
370
    25
100
AcDbLine
 10
347.430329
 20
215.943876
 30
0.0
 11
345.430329
 21
217.943876
 31
0.0
  0
LINE
  5
2A5
102
{ACAD_REACTORS
330
345
102
}
330
1F
100
AcDbEntity
  8
LC-003-005-----0
  6
ByBlock
 62
     7
370
    25
100
AcDbLine
 10
350.258756
 20
215.943876
 30
0.0
 11
348.258756
 21
217.943876
 31
0.0
  0
LINE
  5
2A6
102
{ACAD_REACTORS
330
345
102
}
330
1F
100
AcDbEntity
  8
LC-003-005-----0
  6
ByBlock
 62
     7
370
    25
100
AcDbLine
 10
353.087183
 20
215.943876
 30
0.0
 11
351.087183
 21
217.943876
 31
0.0
  0
LINE
  5
2A7
102
{ACAD_REACTORS
330
345
102
}
330
1F
100
AcDbEntity
  8
LC-003-005-----0
  6
ByBlock
 62
     7
370
    25
100
AcDbLine
 10
355.91561
 20
215.943876
 30
0.0
 11
353.91561
 21
217.943876
 31
0.0
  0
LINE
  5
2A8
102
{ACAD_REACTORS
330
345
102
}
330
1F
100
AcDbEntity
  8
LC-003-005-----0
  6
ByBlock
 62
     7
370
    25
100
AcDbLine
 10
358.744037
 20
215.943876
 30
0.0
 11
356.744037
 21
217.943876
 31
0.0
  0
LINE
  5
2A9
102
{ACAD_REACTORS
330
345
102
}
330
1F
100
AcDbEntity
  8
LC-003-005-----0
  6
ByBlock
 62
     7
370
    25
100
AcDbLine
 10
361.572465
 20
215.943876
 30
0.0
 11
359.572465
 21
217.943876
 31
0.0
  0
LINE
  5
2AA
102
{ACAD_REACTORS
330
345
102
}
330
1F
100
AcDbEntity
  8
LC-003-005-----0
  6
ByBlock
 62
     7
370
    25
100
AcDbLine
 10
363.882704
 20
216.462063
 30
0.0
 11
361.876296
 21
218.468472
 31
0.0
  0
LINE
  5
2AB
102
{ACAD_REACTORS
330
345
102
}
330
1F
100
AcDbEntity
  8
LC-003-005-----0
  6
ByBlock
 62
     7
370
    25
100
AcDbLine
 10
363.867817
 20
219.305378
 30
0.0
 11
361.891028
 21
221.282166
 31
0.0
  0
LINE
  5
2AC
102
{ACAD_REACTORS
330
345
102
}
330
1F
100
AcDbEntity
  8
LC-003-005-----0
  6
ByBlock
 62
     7
370
    25
100
AcDbLine
 10
363.852929
 20
222.148693
 30
0.0
 11
361.905761
 21
224.095861
 31
0.0
  0
LINE
  5
2AD
102
{ACAD_REACTORS
330
345
102
}
330
1F
100
AcDbEntity
  8
LC-003-005-----0
  6
ByBlock
 62
     7
370
    25
100
AcDbLine
 10
363.838041
 20
224.992008
 30
0.0
 11
361.920494
 21
226.909555
 31
0.0
  0
LINE
  5
2AE
102
{ACAD_REACTORS
330
345
102
}
330
1F
100
AcDbEntity
  8
LC-003-005-----0
  6
ByBlock
 62
     7
370
    25
100
AcDbLine
 10
363.823154
 20
227.835322
 30
0.0
 11
361.935226
 21
229.72325
 31
0.0
  0
LINE
  5
2AF
102
{ACAD_REACTORS
330
345
102
}
330
1F
100
AcDbEntity
  8
LC-003-005-----0
  6
ByBlock
 62
     7
370
    25
100
AcDbLine
 10
363.808266
 20
230.678637
 30
0.0
 11
361.949959
 21
232.536944
 31
0.0
  0
LINE
  5
2B0
102
{ACAD_REACTORS
330
345
102
}
330
1F
100
AcDbEntity
  8
LC-003-005-----0
  6
ByBlock
 62
     7
370
    25
100
AcDbLine
 10
363.793378
 20
233.521952
 30
0.0
 11
361.964691
 21
235.350639
 31
0.0
  0
LINE
  5
2B1
102
{ACAD_REACTORS
330
345
102
}
330
1F
100
AcDbEntity
  8
LC-003-005-----0
  6
ByBlock
 62
     7
370
    25
100
AcDbLine
 10
363.778491
 20
236.365267
 30
0.0
 11
361.979424
 21
238.164333
 31
0.0
  0
LINE
  5
2B2
102
{ACAD_REACTORS
330
345
102
}
330
1F
100
AcDbEntity
  8
LC-003-005-----0
  6
ByBlock
 62
     7
370
    25
100
AcDbLine
 10
363.763603
 20
239.208582
 30
0.0
 11
361.994157
 21
240.978028
 31
0.0
  0
LINE
  5
2B3
102
{ACAD_REACTORS
330
345
102
}
330
1F
100
AcDbEntity
  8
LC-003-005-----0
  6
ByBlock
 62
     7
370
    25
100
AcDbLine
 10
363.748715
 20
242.051897
 30
0.0
 11
362.008889
 21
243.791722
 31
0.0
  0
LINE
  5
2B4
102
{ACAD_REACTORS
330
345
102
}
330
1F
100
AcDbEntity
  8
LC-003-005-----0
  6
ByBlock
 62
     7
370
    25
100
AcDbLine
 10
363.733827
 20
244.895211
 30
0.0
 11
362.023622
 21
246.605417
 31
0.0
  0
LINE
  5
2B5
102
{ACAD_REACTORS
330
345
102
}
330
1F
100
AcDbEntity
  8
LC-003-005-----0
  6
ByBlock
 62
     7
370
    25
100
AcDbLine
 10
363.71894
 20
247.738526
 30
0.0
 11
362.038354
 21
249.419111
 31
0.0
  0
LINE
  5
2B6
102
{ACAD_REACTORS
330
345
102
}
330
1F
100
AcDbEntity
  8
LC-003-005-----0
  6
ByBlock
 62
     7
370
    25
100
AcDbLine
 10
363.704052
 20
250.581841
 30
0.0
 11
362.053087
 21
252.232806
 31
0.0
  0
LINE
  5
2B7
102
{ACAD_REACTORS
330
345
102
}
330
1F
100
AcDbEntity
  8
LC-003-005-----0
  6
ByBlock
 62
     7
370
    25
100
AcDbLine
 10
363.689164
 20
253.425156
 30
0.0
 11
362.06782
 21
255.046501
 31
0.0
  0
LINE
  5
2B8
102
{ACAD_REACTORS
330
345
102
}
330
1F
100
AcDbEntity
  8
LC-003-005-----0
  6
ByBlock
 62
     7
370
    25
100
AcDbLine
 10
363.674277
 20
256.268471
 30
0.0
 11
362.082552
 21
257.860195
 31
0.0
  0
LINE
  5
2B9
102
{ACAD_REACTORS
330
345
102
}
330
1F
100
AcDbEntity
  8
LC-003-005-----0
  6
ByBlock
 62
     7
370
    25
100
AcDbLine
 10
363.659389
 20
259.111785
 30
0.0
 11
362.097285
 21
260.67389
 31
0.0
  0
LINE
  5
2BA
102
{ACAD_REACTORS
330
345
102
}
330
1F
100
AcDbEntity
  8
LC-003-005-----0
  6
ByBlock
 62
     7
370
    25
100
AcDbLine
 10
363.644501
 20
261.9551
 30
0.0
 11
362.112017
 21
263.487584
 31
0.0
  0
LINE
  5
2BB
102
{ACAD_REACTORS
330
345
102
}
330
1F
100
AcDbEntity
  8
LC-003-005-----0
  6
ByBlock
 62
     7
370
    25
100
AcDbLine
 10
363.629614
 20
264.798415
 30
0.0
 11
362.12675
 21
266.301279
 31
0.0
  0
LINE
  5
2BC
102
{ACAD_REACTORS
330
345
102
}
330
1F
100
AcDbEntity
  8
LC-003-005-----0
  6
ByBlock
 62
     7
370
    25
100
AcDbLine
 10
363.614726
 20
267.64173
 30
0.0
 11
362.141483
 21
269.114973
 31
0.0
  0
LINE
  5
2BD
102
{ACAD_REACTORS
330
345
102
}
330
1F
100
AcDbEntity
  8
LC-003-005-----0
  6
ByBlock
 62
     7
370
    25
100
AcDbLine
 10
363.599838
 20
270.485045
 30
0.0
 11
362.156215
 21
271.928668
 31
0.0
  0
LINE
  5
2BE
102
{ACAD_REACTORS
330
345
102
}
330
1F
100
AcDbEntity
  8
LC-003-005-----0
  6
ByBlock
 62
     7
370
    25
100
AcDbLine
 10
363.58495
 20
273.32836
 30
0.0
 11
362.170948
 21
274.742362
 31
0.0
  0
LINE
  5
2BF
102
{ACAD_REACTORS
330
345
102
}
330
1F
100
AcDbEntity
  8
LC-003-005-----0
  6
ByBlock
 62
     7
370
    25
100
AcDbLine
 10
363.570063
 20
276.171674
 30
0.0
 11
362.18568
 21
277.556057
 31
0.0
  0
LINE
  5
2C0
102
{ACAD_REACTORS
330
345
102
}
330
1F
100
AcDbEntity
  8
LC-003-005-----0
  6
ByBlock
 62
     7
370
    25
100
AcDbLine
 10
363.555175
 20
279.014989
 30
0.0
 11
362.200413
 21
280.369751
 31
0.0
  0
LINE
  5
2C1
102
{ACAD_REACTORS
330
345
102
}
330
1F
100
AcDbEntity
  8
LC-003-005-----0
  6
ByBlock
 62
     7
370
    25
100
AcDbLine
 10
363.540287
 20
281.858304
 30
0.0
 11
362.215146
 21
283.183446
 31
0.0
  0
LINE
  5
2C2
102
{ACAD_REACTORS
330
345
102
}
330
1F
100
AcDbEntity
  8
LC-003-005-----0
  6
ByBlock
 62
     7
370
    25
100
AcDbLine
 10
363.5254
 20
284.701619
 30
0.0
 11
362.229878
 21
285.99714
 31
0.0
  0
LINE
  5
2C3
102
{ACAD_REACTORS
330
345
102
}
330
1F
100
AcDbEntity
  8
LC-003-005-----0
  6
ByBlock
 62
     7
370
    25
100
AcDbLine
 10
363.510512
 20
287.544934
 30
0.0
 11
362.244611
 21
288.810835
 31
0.0
  0
LINE
  5
2C4
102
{ACAD_REACTORS
330
345
102
}
330
1F
100
AcDbEntity
  8
LC-003-005-----0
  6
ByBlock
 62
     7
370
    70
100
AcDbLine
 10
363.495624
 20
290.388249
 30
0.0
 11
363.434735
 21
290.449138
 31
0.0
  0
LINE
  5
2C5
102
{ACAD_REACTORS
330
345
102
}
330
1F
100
AcDbEntity
  8
LC-003-005-----0
  6
ByBlock
 62
     7
370
    25
100
AcDbLine
 10
388.855993
 20
216.944619
 30
0.0
 11
386.856033
 21
218.944579
 31
0.0
  0
LINE
  5
2C6
102
{ACAD_REACTORS
330
345
102
}
330
1F
100
AcDbEntity
  8
LC-003-005-----0
  6
ByBlock
 62
     7
370
    25
100
AcDbLine
 10
388.855993
 20
219.773046
 30
0.0
 11
386.855033
 21
221.774005
 31
0.0
  0
LINE
  5
2C7
102
{ACAD_REACTORS
330
345
102
}
330
1F
100
AcDbEntity
  8
LC-003-005-----0
  6
ByBlock
 62
     7
370
    25
100
AcDbLine
 10
388.855993
 20
222.601473
 30
0.0
 11
386.854034
 21
224.603432
 31
0.0
  0
LINE
  5
2C8
102
{ACAD_REACTORS
330
345
102
}
330
1F
100
AcDbEntity
  8
LC-003-005-----0
  6
ByBlock
 62
     7
370
    25
100
AcDbLine
 10
388.855993
 20
225.4299
 30
0.0
 11
386.913332
 21
227.372561
 31
0.0
  0
LINE
  5
2C9
102
{ACAD_REACTORS
330
345
102
}
330
1F
100
AcDbEntity
  8
LC-003-005-----0
  6
ByBlock
 62
     7
370
    25
100
AcDbLine
 10
388.943466
 20
228.170854
 30
0.0
 11
387.008821
 21
230.105499
 31
0.0
  0
LINE
  5
2CA
102
{ACAD_REACTORS
330
345
102
}
330
1F
100
AcDbEntity
  8
LC-003-005-----0
  6
ByBlock
 62
     7
370
    25
100
AcDbLine
 10
389.038858
 20
230.903889
 30
0.0
 11
387.10431
 21
232.838438
 31
0.0
  0
LINE
  5
2CB
102
{ACAD_REACTORS
330
345
102
}
330
1F
100
AcDbEntity
  8
LC-003-005-----0
  6
ByBlock
 62
     7
370
    25
100
AcDbLine
 10
389.13425
 20
233.636924
 30
0.0
 11
387.199798
 21
235.571376
 31
0.0
  0
LINE
  5
2CC
102
{ACAD_REACTORS
330
345
102
}
330
1F
100
AcDbEntity
  8
LC-003-005-----0
  6
ByBlock
 62
     7
370
    25
100
AcDbLine
 10
389.229642
 20
236.36996
 30
0.0
 11
387.295287
 21
238.304314
 31
0.0
  0
LINE
  5
2CD
102
{ACAD_REACTORS
330
345
102
}
330
1F
100
AcDbEntity
  8
LC-003-005-----0
  6
ByBlock
 62
     7
370
    25
100
AcDbLine
 10
389.325034
 20
239.102995
 30
0.0
 11
387.390776
 21
241.037253
 31
0.0
  0
LINE
  5
2CE
102
{ACAD_REACTORS
330
345
102
}
330
1F
100
AcDbEntity
  8
LC-003-005-----0
  6
ByBlock
 62
     7
370
    25
100
AcDbLine
 10
389.420425
 20
241.83603
 30
0.0
 11
387.486264
 21
243.770191
 31
0.0
  0
LINE
  5
2CF
102
{ACAD_REACTORS
330
345
102
}
330
1F
100
AcDbEntity
  8
LC-003-005-----0
  6
ByBlock
 62
     7
370
    25
100
AcDbLine
 10
389.515817
 20
244.569066
 30
0.0
 11
387.581753
 21
246.50313
 31
0.0
  0
LINE
  5
2D0
102
{ACAD_REACTORS
330
345
102
}
330
1F
100
AcDbEntity
  8
LC-003-005-----0
  6
ByBlock
 62
     7
370
    25
100
AcDbLine
 10
389.611209
 20
247.302101
 30
0.0
 11
387.677242
 21
249.236068
 31
0.0
  0
LINE
  5
2D1
102
{ACAD_REACTORS
330
345
102
}
330
1F
100
AcDbEntity
  8
LC-003-005-----0
  6
ByBlock
 62
     7
370
    25
100
AcDbLine
 10
389.706601
 20
250.035136
 30
0.0
 11
387.772731
 21
251.969007
 31
0.0
  0
LINE
  5
2D2
102
{ACAD_REACTORS
330
345
102
}
330
1F
100
AcDbEntity
  8
LC-003-005-----0
  6
ByBlock
 62
     7
370
    25
100
AcDbLine
 10
389.801993
 20
252.768172
 30
0.0
 11
387.868219
 21
254.701945
 31
0.0
  0
LINE
  5
2D3
102
{ACAD_REACTORS
330
345
102
}
330
1F
100
AcDbEntity
  8
LC-003-005-----0
  6
ByBlock
 62
     7
370
    25
100
AcDbLine
 10
389.897384
 20
255.501207
 30
0.0
 11
387.963708
 21
257.434884
 31
0.0
  0
LINE
  5
2D4
102
{ACAD_REACTORS
330
345
102
}
330
1F
100
AcDbEntity
  8
LC-003-005-----0
  6
ByBlock
 62
     7
370
    25
100
AcDbLine
 10
389.992776
 20
258.234242
 30
0.0
 11
388.059197
 21
260.167822
 31
0.0
  0
LINE
  5
2D5
102
{ACAD_REACTORS
330
345
102
}
330
1F
100
AcDbEntity
  8
LC-003-005-----0
  6
ByBlock
 62
     7
370
    25
100
AcDbLine
 10
390.088168
 20
260.967278
 30
0.0
 11
388.154685
 21
262.90076
 31
0.0
  0
LINE
  5
2D6
102
{ACAD_REACTORS
330
345
102
}
330
1F
100
AcDbEntity
  8
LC-003-005-----0
  6
ByBlock
 62
     7
370
    25
100
AcDbLine
 10
390.18356
 20
263.700313
 30
0.0
 11
388.249434
 21
265.634439
 31
0.0
  0
LINE
  5
2D7
102
{ACAD_REACTORS
330
345
102
}
330
1F
100
AcDbEntity
  8
LC-003-005-----0
  6
ByBlock
 62
     7
370
    25
100
AcDbLine
 10
390.278952
 20
266.433348
 30
0.0
 11
388.768424
 21
267.943876
 31
0.0
  0
LINE
  5
2D8
102
{ACAD_REACTORS
330
345
102
}
330
1F
100
AcDbEntity
  8
LC-003-005-----0
  6
ByBlock
 62
     7
370
    25
100
AcDbLine
 10
391.537977
 20
301.943876
 30
0.0
 11
390.075993
 21
303.40586
 31
0.0
  0
LINE
  5
2D9
102
{ACAD_REACTORS
330
345
102
}
330
1F
100
AcDbEntity
  8
LC-003-005-----0
  6
ByBlock
 62
     7
370
    25
100
AcDbLine
 10
392.714714
 20
303.595566
 30
0.0
 11
391.366404
 21
304.943876
 31
0.0
  0
LINE
  5
2DA
102
{ACAD_REACTORS
330
345
102
}
330
1F
100
AcDbEntity
  8
LC-003-005-----0
  6
ByBlock
 62
     7
370
    25
100
AcDbLine
 10
310.7811
 20
218.65198
 30
0.0
 11
306.39569
 21
223.03739
 31
0.0
  0
LINE
  5
2DB
102
{ACAD_REACTORS
330
345
102
}
330
1F
100
AcDbEntity
  8
LC-003-005-----0
  6
ByBlock
 62
     7
370
    25
100
AcDbLine
 10
315.850788
 20
216.410718
 30
0.0
 11
312.052293
 21
220.209213
 31
0.0
  0
LINE
  5
2DC
102
{ACAD_REACTORS
330
345
102
}
330
1F
100
AcDbEntity
  8
LC-003-005-----0
  6
ByBlock
 62
     7
370
    25
100
AcDbLine
 10
307.952923
 20
224.308583
 30
0.0
 11
304.154428
 21
228.107078
 31
0.0
  0
LINE
  5
2DD
102
{ACAD_REACTORS
330
345
102
}
330
1F
100
AcDbEntity
  8
LC-003-005-----0
  6
ByBlock
 62
     7
370
    25
100
AcDbLine
 10
319.136567
 20
215.953367
 30
0.0
 11
316.856901
 21
218.233033
 31
0.0
  0
LINE
  5
2DE
102
{ACAD_REACTORS
330
345
102
}
330
1F
100
AcDbEntity
  8
LC-003-005-----0
  6
ByBlock
 62
     7
370
    25
100
AcDbLine
 10
305.976743
 20
229.113191
 30
0.0
 11
303.697075
 21
231.392858
 31
0.0
  0
LINE
  5
2DF
102
{ACAD_REACTORS
330
345
102
}
330
1F
100
AcDbEntity
  8
LC-003-005-----0
  6
ByBlock
 62
     7
370
    25
100
AcDbLine
 10
321.974485
 20
215.943876
 30
0.0
 11
319.974485
 21
217.943876
 31
0.0
  0
LINE
  5
2E0
102
{ACAD_REACTORS
330
345
102
}
330
1F
100
AcDbEntity
  8
LC-003-005-----0
  6
ByBlock
 62
     7
370
    25
100
AcDbLine
 10
305.668362
 20
232.249999
 30
0.0
 11
303.59473
 21
234.32363
 31
0.0
  0
LINE
  5
2E1
102
{ACAD_REACTORS
330
345
102
}
330
1F
100
AcDbEntity
  8
LC-003-005-----0
  6
ByBlock
 62
     7
370
    25
100
AcDbLine
 10
324.802912
 20
215.943876
 30
0.0
 11
322.802912
 21
217.943876
 31
0.0
  0
LINE
  5
2E2
102
{ACAD_REACTORS
330
345
102
}
330
1F
100
AcDbEntity
  8
LC-003-005-----0
  6
ByBlock
 62
     7
370
    25
100
AcDbLine
 10
305.566017
 20
235.18077
 30
0.0
 11
303.492385
 21
237.254402
 31
0.0
  0
LINE
  5
2E3
102
{ACAD_REACTORS
330
345
102
}
330
1F
100
AcDbEntity
  8
LC-003-005-----0
  6
ByBlock
 62
     7
370
    25
100
AcDbLine
 10
327.631339
 20
215.943876
 30
0.0
 11
325.631339
 21
217.943876
 31
0.0
  0
LINE
  5
2E4
102
{ACAD_REACTORS
330
345
102
}
330
1F
100
AcDbEntity
  8
LC-003-005-----0
  6
ByBlock
 62
     7
370
    25
100
AcDbLine
 10
305.463673
 20
238.111542
 30
0.0
 11
303.390041
 21
240.185174
 31
0.0
  0
LINE
  5
2E5
102
{ACAD_REACTORS
330
345
102
}
330
1F
100
AcDbEntity
  8
LC-003-005-----0
  6
ByBlock
 62
     7
370
    25
100
AcDbLine
 10
330.459766
 20
215.943876
 30
0.0
 11
328.459766
 21
217.943876
 31
0.0
  0
LINE
  5
2E6
102
{ACAD_REACTORS
330
345
102
}
330
1F
100
AcDbEntity
  8
LC-003-005-----0
  6
ByBlock
 62
     7
370
    25
100
AcDbLine
 10
305.361328
 20
241.042314
 30
0.0
 11
303.287696
 21
243.115946
 31
0.0
  0
LINE
  5
2E7
102
{ACAD_REACTORS
330
345
102
}
330
1F
100
AcDbEntity
  8
LC-003-005-----0
  6
ByBlock
 62
     7
370
    25
100
AcDbLine
 10
333.288193
 20
215.943876
 30
0.0
 11
331.288193
 21
217.943876
 31
0.0
  0
LINE
  5
2E8
102
{ACAD_REACTORS
330
345
102
}
330
1F
100
AcDbEntity
  8
LC-003-005-----0
  6
ByBlock
 62
     7
370
    25
100
AcDbLine
 10
305.258983
 20
243.973086
 30
0.0
 11
303.185351
 21
246.046718
 31
0.0
  0
LINE
  5
2E9
102
{ACAD_REACTORS
330
345
102
}
330
1F
100
AcDbEntity
  8
LC-003-005-----0
  6
ByBlock
 62
     7
370
    25
100
AcDbLine
 10
336.11662
 20
215.943876
 30
0.0
 11
334.11662
 21
217.943876
 31
0.0
  0
LINE
  5
2EA
102
{ACAD_REACTORS
330
345
102
}
330
1F
100
AcDbEntity
  8
LC-003-005-----0
  6
ByBlock
 62
     7
370
    25
100
AcDbLine
 10
305.156638
 20
246.903858
 30
0.0
 11
303.083006
 21
248.97749
 31
0.0
  0
LINE
  5
2EB
102
{ACAD_REACTORS
330
345
102
}
330
1F
100
AcDbEntity
  8
LC-003-005-----0
  6
ByBlock
 62
     7
370
    25
100
AcDbLine
 10
305.054293
 20
249.83463
 30
0.0
 11
302.980661
 21
251.908262
 31
0.0
  0
LINE
  5
2EC
102
{ACAD_REACTORS
330
345
102
}
330
1F
100
AcDbEntity
  8
LC-003-005-----0
  6
ByBlock
 62
     7
370
    25
100
AcDbLine
 10
340.26234
 20
217.45501
 30
0.0
 11
339.773475
 21
217.943876
 31
0.0
  0
LINE
  5
2ED
102
{ACAD_REACTORS
330
345
102
}
330
1F
100
AcDbEntity
  8
LC-003-005-----0
  6
ByBlock
 62
     7
370
    25
100
AcDbLine
 10
304.951948
 20
252.765402
 30
0.0
 11
302.878317
 21
254.839034
 31
0.0
  0
LINE
  5
2EE
102
{ACAD_REACTORS
330
345
102
}
330
1F
100
AcDbEntity
  8
LC-003-005-----0
  6
ByBlock
 62
     7
370
    25
100
AcDbLine
 10
304.849604
 20
255.696174
 30
0.0
 11
302.775972
 21
257.769806
 31
0.0
  0
LINE
  5
2EF
102
{ACAD_REACTORS
330
345
102
}
330
1F
100
AcDbEntity
  8
LC-003-005-----0
  6
ByBlock
 62
     7
370
    25
100
AcDbLine
 10
304.747259
 20
258.626946
 30
0.0
 11
302.673627
 21
260.700578
 31
0.0
  0
LINE
  5
2F0
102
{ACAD_REACTORS
330
345
102
}
330
1F
100
AcDbEntity
  8
LC-003-005-----0
  6
ByBlock
 62
     7
370
    25
100
AcDbLine
 10
304.644914
 20
261.557718
 30
0.0
 11
302.571282
 21
263.63135
 31
0.0
  0
LINE
  5
2F1
102
{ACAD_REACTORS
330
345
102
}
330
1F
100
AcDbEntity
  8
LC-003-005-----0
  6
ByBlock
 62
     7
370
    25
100
AcDbLine
 10
304.542569
 20
264.48849
 30
0.0
 11
302.468937
 21
266.562122
 31
0.0
  0
LINE
  5
2F2
102
{ACAD_REACTORS
330
345
102
}
330
1F
100
AcDbEntity
  8
LC-003-005-----0
  6
ByBlock
 62
     7
370
    25
100
AcDbLine
 10
304.440224
 20
267.419262
 30
0.0
 11
302.366593
 21
269.492894
 31
0.0
  0
LINE
  5
2F3
102
{ACAD_REACTORS
330
345
102
}
330
1F
100
AcDbEntity
  8
LC-003-005-----0
  6
ByBlock
 62
     7
370
    25
100
AcDbLine
 10
304.33788
 20
270.350034
 30
0.0
 11
302.264248
 21
272.423666
 31
0.0
  0
LINE
  5
2F4
102
{ACAD_REACTORS
330
345
102
}
330
1F
100
AcDbEntity
  8
LC-003-005-----0
  6
ByBlock
 62
     7
370
    25
100
AcDbLine
 10
304.235535
 20
273.280806
 30
0.0
 11
302.161903
 21
275.354438
 31
0.0
  0
LINE
  5
2F5
102
{ACAD_REACTORS
330
345
102
}
330
1F
100
AcDbEntity
  8
LC-003-005-----0
  6
ByBlock
 62
     7
370
    25
100
AcDbLine
 10
304.13319
 20
276.211578
 30
0.0
 11
302.059558
 21
278.285209
 31
0.0
  0
LINE
  5
2F6
102
{ACAD_REACTORS
330
345
102
}
330
1F
100
AcDbEntity
  8
LC-003-005-----0
  6
ByBlock
 62
     7
370
    25
100
AcDbLine
 10
304.030845
 20
279.142349
 30
0.0
 11
301.957213
 21
281.215981
 31
0.0
  0
LINE
  5
2F7
102
{ACAD_REACTORS
330
345
102
}
330
1F
100
AcDbEntity
  8
LC-003-005-----0
  6
ByBlock
 62
     7
370
    25
100
AcDbLine
 10
303.9285
 20
282.073121
 30
0.0
 11
301.854868
 21
284.146753
 31
0.0
  0
LINE
  5
2F8
102
{ACAD_REACTORS
330
345
102
}
330
1F
100
AcDbEntity
  8
LC-003-005-----0
  6
ByBlock
 62
     7
370
    25
100
AcDbLine
 10
303.826156
 20
285.003893
 30
0.0
 11
301.752524
 21
287.077525
 31
0.0
  0
LINE
  5
2F9
102
{ACAD_REACTORS
330
345
102
}
330
1F
100
AcDbEntity
  8
LC-003-005-----0
  6
ByBlock
 62
     7
370
    25
100
AcDbLine
 10
303.723811
 20
287.934665
 30
0.0
 11
301.675993
 21
289.982483
 31
0.0
  0
LINE
  5
2FA
102
{ACAD_REACTORS
330
345
102
}
330
1F
100
AcDbEntity
  8
LC-003-005-----0
  6
ByBlock
 62
     7
370
    25
100
AcDbLine
 10
303.675993
 20
290.81091
 30
0.0
 11
301.675993
 21
292.81091
 31
0.0
  0
LINE
  5
2FB
102
{ACAD_REACTORS
330
345
102
}
330
1F
100
AcDbEntity
  8
LC-003-005-----0
  6
ByBlock
 62
     7
370
    25
100
AcDbLine
 10
303.675993
 20
293.639338
 30
0.0
 11
301.675993
 21
295.639338
 31
0.0
  0
LINE
  5
2FC
102
{ACAD_REACTORS
330
345
102
}
330
1F
100
AcDbEntity
  8
LC-003-005-----0
  6
ByBlock
 62
     7
370
    25
100
AcDbLine
 10
303.675993
 20
296.467765
 30
0.0
 11
301.675993
 21
298.467765
 31
0.0
  0
LINE
  5
2FD
102
{ACAD_REACTORS
330
345
102
}
330
1F
100
AcDbEntity
  8
LC-003-005-----0
  6
ByBlock
 62
     7
370
    25
100
AcDbLine
 10
303.675993
 20
299.296192
 30
0.0
 11
301.675993
 21
301.296192
 31
0.0
  0
LINE
  5
2FE
102
{ACAD_REACTORS
330
345
102
}
330
1F
100
AcDbEntity
  8
LC-003-005-----0
  6
ByBlock
 62
     7
370
    25
100
AcDbLine
 10
303.675993
 20
302.124619
 30
0.0
 11
302.796488
 21
303.004124
 31
0.0
  0
LINE
  5
2FF
102
{ACAD_REACTORS
330
345
102
}
330
1F
100
AcDbEntity
  8
LC-003-005-----0
  6
ByBlock
 62
     7
370
    25
100
AcDbLine
 10
302.675993
 20
303.124619
 30
0.0
 11
300.856736
 21
304.943876
 31
0.0
  0
LINE
  5
300
102
{ACAD_REACTORS
330
345
102
}
330
1F
100
AcDbEntity
  8
LC-003-005-----0
  6
ByBlock
 62
     7
370
    25
100
AcDbLine
 10
338.91052
 20
215.978403
 30
0.0
 11
336.945048
 21
217.943876
 31
0.0
  0
DIMENSION
  5
301
330
1F
100
AcDbEntity
  8
LC-002-003-----0
 62
     7
370
    25
100
AcDbDimension
  2
*D29
 10
304.154428
 20
156.8
 30
0.0
 11
346.505211
 21
187.6
 31
0.0
 70
   160
  1
%%c85
 71
     5
 42
84.701565
  3
LC-DIM-L-0140-02-02
100
AcDbAlignedDimension
 13
388.855993
 23
215.943876
 33
0.0
 14
304.154428
 24
228.107078
 34
0.0
100
AcDbRotatedDimension
  0
LINE
  5
30E
102
{ACAD_REACTORS
330
343
102
}
330
1F
100
AcDbEntity
  8
LC-004-002-----0
  6
DASHED
 62
     7
370
    25
100
AcDbLine
 10
514.689352
 20
239.587509
 30
0.0
 11
518.312818
 21
239.587509
 31
0.0
  0
ARC
  5
30F
102
{ACAD_REACTORS
330
343
102
}
330
1F
100
AcDbEntity
  8
LC-001-207-----0
 62
     7
370
    50
100
AcDbCircle
 10
421.669897
 20
290.393901
 30
0.0
 40
29.70000000000018
100
AcDbArc
 50
54.721682
 51
89.141305
  0
ARC
  5
310
102
{ACAD_REACTORS
330
343
102
}
330
1F
100
AcDbEntity
  8
LC-004-002-----0
  6
DASHED
 62
     7
370
    25
100
AcDbCircle
 10
406.720066
 20
263.579864
 30
0.0
 40
1.000000000000003
100
AcDbArc
 50
60.858695
 51
165.0
  0
LINE
  5
311
102
{ACAD_REACTORS
330
343
102
}
330
1F
100
AcDbEntity
  8
LC-004-002-----0
  6
DASHED
 62
     7
370
    25
100
AcDbLine
 10
405.75414
 20
263.838683
 30
0.0
 11
405.176889
 21
261.684351
 31
0.0
  0
LINE
  5
312
102
{ACAD_REACTORS
330
343
102
}
330
1F
100
AcDbEntity
  8
LC-004-002-----0
  6
DASHED
 62
     7
370
    25
100
AcDbLine
 10
518.312818
 20
239.587509
 30
0.0
 11
518.652435
 21
240.854975
 31
0.0
  0
LINE
  5
313
102
{ACAD_REACTORS
330
343
102
}
330
1F
100
AcDbEntity
  8
LC-004-002-----0
  6
DASHED
 62
     7
370
    25
100
AcDbLine
 10
518.652435
 20
240.854975
 30
0.0
 11
530.428701
 21
284.8046
 31
0.0
  0
LINE
  5
314
102
{ACAD_REACTORS
330
343
102
}
330
1F
100
AcDbEntity
  8
LC-004-002-----0
  6
DASHED
 62
     7
370
    25
100
AcDbLine
 10
530.428701
 20
284.8046
 30
0.0
 11
530.768318
 21
286.072067
 31
0.0
  0
LINE
  5
315
102
{ACAD_REACTORS
330
343
102
}
330
1F
100
AcDbEntity
  8
LC-004-002-----0
  6
DASHDOT
 62
     7
370
    25
100
AcDbLine
 10
524.540568
 20
262.829788
 30
0.0
 11
394.993607
 21
297.541791
 31
0.0
  0
LINE
  5
316
102
{ACAD_REACTORS
330
343
102
}
330
1F
100
AcDbEntity
  8
LC-004-002-----0
  6
DASHED
 62
     7
370
    25
100
AcDbLine
 10
527.630304
 20
287.8838
 30
0.0
 11
530.768318
 21
286.072067
 31
0.0
  0
ARC
  5
317
102
{ACAD_REACTORS
330
343
102
}
330
1F
100
AcDbEntity
  8
LC-004-002-----0
  6
DASHED
 62
     7
370
    25
100
AcDbCircle
 10
422.129982
 20
321.090453
 30
0.0
 40
1.00000000000003
100
AcDbArc
 50
165.0
 51
269.141305
  0
LINE
  5
318
102
{ACAD_REACTORS
330
343
102
}
330
1F
100
AcDbEntity
  8
LC-004-002-----0
  6
DASHED
 62
     7
370
    25
100
AcDbLine
 10
447.53089
 20
309.346373
 30
0.0
 11
527.630304
 21
287.8838
 31
0.0
  0
LINE
  5
319
102
{ACAD_REACTORS
330
343
102
}
330
1F
100
AcDbEntity
  8
LC-004-002-----0
  6
DASHED
 62
     7
370
    25
100
AcDbLine
 10
434.589937
 20
261.050082
 30
0.0
 11
514.689352
 21
239.587509
 31
0.0
  0
LINE
  5
31A
102
{ACAD_REACTORS
330
343
102
}
330
1F
100
AcDbEntity
  8
LC-004-002-----0
  6
DASHED
 62
     7
370
    25
100
AcDbLine
 10
446.000068
 20
307.427184
 30
0.0
 11
530.428701
 21
284.8046
 31
0.0
  0
LINE
  5
31B
102
{ACAD_REACTORS
330
343
102
}
330
1F
100
AcDbEntity
  8
LC-004-002-----0
  6
DASHED
 62
     7
370
    25
100
AcDbLine
 10
434.223802
 20
263.477559
 30
0.0
 11
518.652435
 21
240.854975
 31
0.0
  0
LINE
  5
31C
102
{ACAD_REACTORS
330
343
102
}
330
1F
100
AcDbEntity
  8
LC-004-002-----0
  6
DASHED
 62
     7
370
    25
100
AcDbLine
 10
421.164056
 20
321.349272
 30
0.0
 11
421.741308
 21
323.503604
 31
0.0
  0
LINE
  5
31D
102
{ACAD_REACTORS
330
343
102
}
330
1F
100
AcDbEntity
  8
LC-004-002-----0
  6
DASHED
 62
     7
370
    25
100
AcDbLine
 10
421.741308
 20
323.503604
 30
0.0
 11
429.951677
 21
321.303642
 31
0.0
  0
LINE
  5
31E
102
{ACAD_REACTORS
330
343
102
}
330
1F
100
AcDbEntity
  8
LC-004-002-----0
  6
DASHED
 62
     7
370
    25
100
AcDbLine
 10
405.176889
 20
261.684351
 30
0.0
 11
413.483851
 21
259.458508
 31
0.0
  0
ARC
  5
31F
102
{ACAD_REACTORS
330
343
102
}
330
1F
100
AcDbEntity
  8
LC-004-002-----0
  6
DASHED
 62
     7
370
    25
100
AcDbCircle
 10
421.76606
 20
290.368134
 30
0.0
 40
32.00000000000085
100
AcDbArc
 50
36.375167
 51
75.17905
  0
ARC
  5
320
102
{ACAD_REACTORS
330
343
102
}
330
1F
100
AcDbEntity
  8
LC-004-002-----0
  6
DASHED
 62
     7
370
    25
100
AcDbCircle
 10
421.76606
 20
290.368134
 30
0.0
 40
32.00000000000124
100
AcDbArc
 50
255.0
 51
293.624833
  0
ARC
  5
321
102
{ACAD_REACTORS
330
343
102
}
330
1F
100
AcDbEntity
  8
LC-004-002-----0
  6
DASHED
 62
     7
370
    25
100
AcDbCircle
 10
421.669897
 20
290.393901
 30
0.0
 40
29.7000000000002
100
AcDbArc
 50
34.995438
 51
54.721682
  0
ARC
  5
322
102
{ACAD_REACTORS
330
343
102
}
330
1F
100
AcDbEntity
  8
LC-004-002-----0
  6
DASHED
 62
     7
370
    25
100
AcDbCircle
 10
421.669897
 20
290.393901
 30
0.0
 40
29.70000000000012
100
AcDbArc
 50
240.858695
 51
295.004562
  0
LINE
  5
323
330
1F
100
AcDbEntity
  8
LC-004-002-----0
  6
DASHED
 62
     7
370
    25
100
AcDbLine
 10
446.000068
 20
307.427184
 30
0.0
 11
434.223802
 21
263.477559
 31
0.0
  0
INSERT
  5
342
330
1F
100
AcDbEntity
  8
LC-002-003-----0
 62
     7
370
    25
100
AcDbBlockReference
  2
LCDIM1
 10
0.0
 20
0.0
 30
0.0
  0
ENDSEC
  0
SECTION
  2
OBJECTS
  0
DICTIONARY
  5
C
330
0
100
AcDbDictionary
281
     1
  3
ACAD_GROUP
350
D
  3
ACAD_LAYOUT
350
1A
  3
ACAD_MLINESTYLE
350
17
  3
ACAD_PLOTSETTINGS
350
19
  3
ACAD_PLOTSTYLENAME
350
E
  0
DICTIONARY
  5
D
102
{ACAD_REACTORS
330
C
102
}
330
C
100
AcDbDictionary
281
     1
  3
LCGROUP111
350
346
  3
LCGROUP76
350
345
  3
LCGROUP79
350
344
  3
LCGROUP835
350
343
  0
DICTIONARY
  5
1A
102
{ACAD_REACTORS
330
C
102
}
330
C
100
AcDbDictionary
281
     1
  3
Layout1
350
1E
  3
Layout2
350
26
  3
Model
350
22
  0
DICTIONARY
  5
17
102
{ACAD_REACTORS
330
C
102
}
330
C
100
AcDbDictionary
281
     1
  3
Standard
350
18
  0
DICTIONARY
  5
19
102
{ACAD_REACTORS
330
C
102
}
330
C
100
AcDbDictionary
281
     1
  0
ACDBDICTIONARYWDFLT
  5
E
102
{ACAD_REACTORS
330
C
102
}
330
C
100
AcDbDictionary
281
     1
  3
Normal
350
F
100
AcDbDictionaryWithDefault
340
F
  0
GROUP
  5
346
102
{ACAD_REACTORS
330
D
102
}
330
D
100
AcDbGroup
300
GRP111
 70
     1
 71
     1
340
52
340
82
340
92
340
93
340
94
340
95
340
96
340
97
340
98
340
99
340
9B
340
9C
340
9D
340
BA
340
BB
340
BC
340
BD
340
BE
340
BF
340
C0
340
C1
340
C2
340
C3
340
C4
340
C5
340
C6
340
E0
340
EA
340
EB
  0
GROUP
  5
345
102
{ACAD_REACTORS
330
D
102
}
330
D
100
AcDbGroup
300
GRP76
 70
     1
 71
     1
340
4F
340
51
340
67
340
7F
340
80
340
E1
340
E2
340
126
340
127
340
14C
340
15A
340
15C
340
176
340
178
340
179
340
17A
340
17F
340
180
340
181
340
183
340
184
340
185
340
186
340
187
340
188
340
189
340
18A
340
18B
340
18C
340
18D
340
18E
340
18F
340
190
340
191
340
192
340
193
340
194
340
195
340
196
340
197
340
198
340
199
340
19A
340
19B
340
19C
340
19D
340
19E
340
19F
340
1A0
340
1A1
340
1A2
340
1A3
340
1A4
340
1A5
340
1A6
340
1A7
340
1A8
340
1A9
340
1AE
340
1AF
340
1B0
340
1B1
340
1B2
340
1BF
340
1C0
340
1C7
340
1D0
340
1D1
340
1D2
340
1D3
340
1D4
340
1D5
340
1D6
340
1D7
340
1D8
340
1D9
340
1DA
340
1DB
340
1DC
340
1DD
340
1DE
340
1DF
340
1E0
340
1E1
340
1E2
340
1E3
340
1E4
340
1E5
340
1E6
340
1E7
340
1EA
340
1EB
340
1EC
340
1ED
340
1EE
340
1EF
340
1F0
340
1F1
340
1FE
340
1FF
340
200
340
201
340
202
340
203
340
204
340
205
340
206
340
207
340
208
340
209
340
20A
340
20B
340
20C
340
20D
340
20E
340
20F
340
210
340
211
340
212
340
22B
340
2A0
340
2A1
340
2A2
340
2A3
340
2A4
340
2A5
340
2A6
340
2A7
340
2A8
340
2A9
340
2AA
340
2AB
340
2AC
340
2AD
340
2AE
340
2AF
340
2B0
340
2B1
340
2B2
340
2B3
340
2B4
340
2B5
340
2B6
340
2B7
340
2B8
340
2B9
340
2BA
340
2BB
340
2BC
340
2BD
340
2BE
340
2BF
340
2C0
340
2C1
340
2C2
340
2C3
340
2C4
340
2C5
340
2C6
340
2C7
340
2C8
340
2C9
340
2CA
340
2CB
340
2CC
340
2CD
340
2CE
340
2CF
340
2D0
340
2D1
340
2D2
340
2D3
340
2D4
340
2D5
340
2D6
340
2D7
340
2D8
340
2D9
340
2DA
340
2DB
340
2DC
340
2DD
340
2DE
340
2DF
340
2E0
340
2E1
340
2E2
340
2E3
340
2E4
340
2E5
340
2E6
340
2E7
340
2E8
340
2E9
340
2EA
340
2EB
340
2EC
340
2ED
340
2EE
340
2EF
340
2F0
340
2F1
340
2F2
340
2F3
340
2F4
340
2F5
340
2F6
340
2F7
340
2F8
340
2F9
340
2FA
340
2FB
340
2FC
340
2FD
340
2FE
340
2FF
340
300
  0
GROUP
  5
344
102
{ACAD_REACTORS
330
D
102
}
330
D
100
AcDbGroup
300
GRP79
 70
     1
 71
     1
340
E3
340
E5
340
136
340
137
340
138
340
139
340
13A
340
13B
340
13C
340
13D
340
13E
340
14A
340
14B
340
15B
340
15D
340
15E
340
15F
340
160
340
161
340
162
340
163
340
164
340
165
340
166
340
17B
340
17C
340
17D
340
17E
340
182
340
1C1
340
1C2
340
1CF
340
1F2
340
1F3
340
229
  0
GROUP
  5
343
102
{ACAD_REACTORS
330
D
102
}
330
D
100
AcDbGroup
300
GRP835
 70
     1
 71
     1
340
30E
340
30F
340
310
340
311
340
312
340
313
340
314
340
315
340
316
340
317
340
318
340
319
340
31A
340
31B
340
31C
340
31D
340
31E
340
31F
340
320
340
321
340
322
  0
LAYOUT
  5
1E
102
{ACAD_REACTORS
330
1A
102
}
330
1A
100
AcDbPlotSettings
  1

  2

  4

  6

 40
0.0
 41
0.0
 42
0.0
 43
0.0
 44
0.0
 45
0.0
 46
0.0
 47
0.0
 48
0.0
 49
0.0
140
0.0
141
0.0
142
1.0
143
1.0
 70
   688
 72
     0
 73
     0
 74
     5
  7

 75
    16
147
1.0
148
0.0
149
0.0
100
AcDbLayout
  1
Layout1
 70
     1
 71
     1
 10
0.0
 20
0.0
 11
840.0
 21
594.0
 12
0.0
 22
0.0
 32
0.0
 14
0.0
 24
0.0
 34
0.0
 15
840.0
 25
594.0
 35
0.0
146
0.0
 13
0.0
 23
0.0
 33
0.0
 16
1.0
 26
0.0
 36
0.0
 17
0.0
 27
1.0
 37
0.0
 76
     0
330
1B
  0
LAYOUT
  5
26
102
{ACAD_REACTORS
330
1A
102
}
330
1A
100
AcDbPlotSettings
  1

  2

  4

  6

 40
0.0
 41
0.0
 42
0.0
 43
0.0
 44
0.0
 45
0.0
 46
0.0
 47
0.0
 48
0.0
 49
0.0
140
0.0
141
0.0
142
1.0
143
1.0
 70
   688
 72
     0
 73
     0
 74
     5
  7

 75
    16
147
1.0
148
0.0
149
0.0
100
AcDbLayout
  1
Layout2
 70
     1
 71
     2
 10
0.0
 20
0.0
 11
0.0
 21
0.0
 12
0.0
 22
0.0
 32
0.0
 14
0.0
 24
0.0
 34
0.0
 15
0.0
 25
0.0
 35
0.0
146
0.0
 13
0.0
 23
0.0
 33
0.0
 16
1.0
 26
0.0
 36
0.0
 17
0.0
 27
1.0
 37
0.0
 76
     0
330
23
  0
LAYOUT
  5
22
102
{ACAD_REACTORS
330
1A
102
}
330
1A
100
AcDbPlotSettings
  1

  2

  4

  6

 40
0.0
 41
0.0
 42
0.0
 43
0.0
 44
0.0
 45
0.0
 46
0.0
 47
0.0
 48
0.0
 49
0.0
140
0.0
141
0.0
142
1.0
143
1.0
 70
  1776
 72
     0
 73
     0
 74
     0
  7

 75
     0
147
1.0
148
0.0
149
0.0
100
AcDbLayout
  1
Model
 70
     1
 71
     0
 10
0.0
 20
0.0
 11
840.0
 21
594.0
 12
0.0
 22
0.0
 32
0.0
 14
0.0
 24
0.0
 34
0.0
 15
840.0
 25
594.0
 35
0.0
146
0.0
 13
0.0
 23
0.0
 33
0.0
 16
1.0
 26
0.0
 36
0.0
 17
0.0
 27
1.0
 37
0.0
 76
     0
330
1F
  0
MLINESTYLE
  5
18
102
{ACAD_REACTORS
330
17
102
}
330
17
100
AcDbMlineStyle
  2
Standard
 70
     0
  3

 62
   256
 51
90.0
 52
90.0
 71
     2
 49
0.5
 62
   256
  6
BYLAYER
 49
-0.5
 62
   256
  6
BYLAYER
  0
ACDBPLACEHOLDER
  5
F
102
{ACAD_REACTORS
330
E
102
}
330
E
  0
ENDSEC
  0
EOF
