  0
SECTION
  2
HEADER
  9
$ACADVER
  1
AC1015
  9
$ACADMAINTVER
 70
     6
  9
$DWGCODEPAGE
  3
ANSI_1252
  9
$INSBASE
 10
0.0
 20
0.0
 30
0.0
  9
$EXTMIN
 10
-289.926477
 20
-47.317027
 30
0.0
  9
$EXTMAX
 10
550.073523
 20
546.682973
 30
0.0
  9
$LIMMIN
 10
-289.926477
 20
-47.317027
  9
$LIMMAX
 10
550.073523
 20
546.682973
  9
$ORTHOMODE
 70
     0
  9
$REGENMODE
 70
     1
  9
$FILLMODE
 70
     1
  9
$QTEXTMODE
 70
     0
  9
$MIRRTEXT
 70
     1
  9
$LTSCALE
 40
2.0
  9
$ATTMODE
 70
     1
  9
$TEXTSIZE
 40
2.5
  9
$TRACEWID
 40
1.0
  9
$TEXTSTYLE
  7
Standard
  9
$CLAYER
  8
0
  9
$CELTYPE
  6
ByLayer
  9
$CECOLOR
 62
     7
  9
$CELTSCALE
 40
1.0
  9
$DISPSILH
 70
     0
  9
$DIMSCALE
 40
2.0
  9
$DIMASZ
 40
3.5
  9
$DIMEXO
 40
0.625
  9
$DIMDLI
 40
3.75
  9
$DIMRND
 40
0.0
  9
$DIMDLE
 40
0.0
  9
$DIMEXE
 40
1.25
  9
$DIMTP
 40
0.0
  9
$DIMTM
 40
0.0
  9
$DIMTXT
 40
3.5
  9
$DIMCEN
 40
2.5
  9
$DIMTSZ
 40
0.0
  9
$DIMTOL
 70
     0
  9
$DIMLIM
 70
     0
  9
$DIMTIH
 70
     0
  9
$DIMTOH
 70
     0
  9
$DIMSE1
 70
     0
  9
$DIMSE2
 70
     0
  9
$DIMTAD
 70
     1
  9
$DIMZIN
 70
     8
  9
$DIMBLK
  1

  9
$DIMASO
 70
     1
  9
$DIMSHO
 70
     1
  9
$DIMPOST
  1

  9
$DIMAPOST
  1

  9
$DIMALT
 70
     0
  9
$DIMALTD
 70
     3
  9
$DIMALTF
 40
0.03937
  9
$DIMLFAC
 40
1.0
  9
$DIMTOFL
 70
     1
  9
$DIMTVP
 40
0.0
  9
$DIMTIX
 70
     0
  9
$DIMSOXD
 70
     0
  9
$DIMSAH
 70
     0
  9
$DIMBLK1
  1

  9
$DIMBLK2
  1

  9
$DIMSTYLE
  2
ISO-25
  9
$DIMCLRD
 70
     0
  9
$DIMCLRE
 70
     0
  9
$DIMCLRT
 70
     0
  9
$DIMTFAC
 40
1.0
  9
$DIMGAP
 40
0.625
  9
$DIMJUST
 70
     0
  9
$DIMSD1
 70
     0
  9
$DIMSD2
 70
     0
  9
$DIMTOLJ
 70
     0
  9
$DIMTZIN
 70
     8
  9
$DIMALTZ
 70
     0
  9
$DIMALTTZ
 70
     0
  9
$DIMUPT
 70
     0
  9
$DIMDEC
 70
     2
  9
$DIMTDEC
 70
     2
  9
$DIMALTU
 70
     2
  9
$DIMALTTD
 70
     3
  9
$DIMTXSTY
  7
Standard
  9
$DIMAUNIT
 70
     0
  9
$DIMADEC
 70
     0
  9
$DIMALTRND
 40
0.0
  9
$DIMAZIN
 70
     0
  9
$DIMDSEP
 70
    44
  9
$DIMATFIT
 70
     3
  9
$DIMFRAC
 70
     0
  9
$DIMLDRBLK
  1

  9
$DIMLUNIT
 70
     2
  9
$DIMLWD
 70
    -2
  9
$DIMLWE
 70
    -2
  9
$DIMTMOVE
 70
     0
  9
$LUNITS
 70
     2
  9
$LUPREC
 70
     4
  9
$SKETCHINC
 40
1.0
  9
$FILLETRAD
 40
10.0
  9
$AUNITS
 70
     0
  9
$AUPREC
 70
     0
  9
$MENU
  1
.
  9
$ELEVATION
 40
0.0
  9
$PELEVATION
 40
0.0
  9
$THICKNESS
 40
0.0
  9
$LIMCHECK
 70
     0
  9
$CHAMFERA
 40
10.0
  9
$CHAMFERB
 40
10.0
  9
$CHAMFERC
 40
20.0
  9
$CHAMFERD
 40
0.0
  9
$SKPOLY
 70
     0
  9
$TDCREATE
 40
2456002.312034387
  9
$TDUCREATE
 40
2456002.27036772
  9
$TDUPDATE
 40
2456002.312034398
  9
$TDUUPDATE
 40
2456002.270367731
  9
$TDINDWG
 40
0.0000000116
  9
$TDUSRTIMER
 40
0.0000000116
  9
$USRTIMER
 70
     1
  9
$ANGBASE
 50
0.0
  9
$ANGDIR
 70
     0
  9
$PDMODE
 70
     0
  9
$PDSIZE
 40
0.0
  9
$PLINEWID
 40
0.0
  9
$SPLFRAME
 70
     0
  9
$SPLINETYPE
 70
     6
  9
$SPLINESEGS
 70
     8
  9
$HANDSEED
  5
21B
  9
$SURFTAB1
 70
     6
  9
$SURFTAB2
 70
     6
  9
$SURFTYPE
 70
     6
  9
$SURFU
 70
     6
  9
$SURFV
 70
     6
  9
$UCSBASE
  2

  9
$UCSNAME
  2

  9
$UCSORG
 10
0.0
 20
0.0
 30
0.0
  9
$UCSXDIR
 10
1.0
 20
0.0
 30
0.0
  9
$UCSYDIR
 10
0.0
 20
1.0
 30
0.0
  9
$UCSORTHOREF
  2

  9
$UCSORTHOVIEW
 70
     0
  9
$UCSORGTOP
 10
0.0
 20
0.0
 30
0.0
  9
$UCSORGBOTTOM
 10
0.0
 20
0.0
 30
0.0
  9
$UCSORGLEFT
 10
0.0
 20
0.0
 30
0.0
  9
$UCSORGRIGHT
 10
0.0
 20
0.0
 30
0.0
  9
$UCSORGFRONT
 10
0.0
 20
0.0
 30
0.0
  9
$UCSORGBACK
 10
0.0
 20
0.0
 30
0.0
  9
$PUCSBASE
  2

  9
$PUCSNAME
  2

  9
$PUCSORG
 10
0.0
 20
0.0
 30
0.0
  9
$PUCSXDIR
 10
1.0
 20
0.0
 30
0.0
  9
$PUCSYDIR
 10
0.0
 20
1.0
 30
0.0
  9
$PUCSORTHOREF
  2

  9
$PUCSORTHOVIEW
 70
     0
  9
$PUCSORGTOP
 10
0.0
 20
0.0
 30
0.0
  9
$PUCSORGBOTTOM
 10
0.0
 20
0.0
 30
0.0
  9
$PUCSORGLEFT
 10
0.0
 20
0.0
 30
0.0
  9
$PUCSORGRIGHT
 10
0.0
 20
0.0
 30
0.0
  9
$PUCSORGFRONT
 10
0.0
 20
0.0
 30
0.0
  9
$PUCSORGBACK
 10
0.0
 20
0.0
 30
0.0
  9
$USERI1
 70
     0
  9
$USERI2
 70
     0
  9
$USERI3
 70
     0
  9
$USERI4
 70
     0
  9
$USERI5
 70
     0
  9
$USERR1
 40
0.0
  9
$USERR2
 40
0.0
  9
$USERR3
 40
0.0
  9
$USERR4
 40
0.0
  9
$USERR5
 40
0.0
  9
$WORLDVIEW
 70
     1
  9
$SHADEDGE
 70
     3
  9
$SHADEDIF
 70
    70
  9
$TILEMODE
 70
     1
  9
$MAXACTVP
 70
    64
  9
$PINSBASE
 10
0.0
 20
0.0
 30
0.0
  9
$PLIMCHECK
 70
     0
  9
$PEXTMIN
 10
-289.926477
 20
-47.317027
 30
0.0
  9
$PEXTMAX
 10
550.073523
 20
546.682973
 30
0.0
  9
$PLIMMIN
 10
-289.926477
 20
-47.317027
  9
$PLIMMAX
 10
550.073523
 20
546.682973
  9
$UNITMODE
 70
     0
  9
$VISRETAIN
 70
     1
  9
$PLINEGEN
 70
     0
  9
$PSLTSCALE
 70
     1
  9
$TREEDEPTH
 70
  3020
  9
$CMLSTYLE
  2
Standard
  9
$CMLJUST
 70
     0
  9
$CMLSCALE
 40
20.0
  9
$PROXYGRAPHICS
 70
     1
  9
$MEASUREMENT
 70
     1
  9
$CELWEIGHT
370
    -1
  9
$ENDCAPS
280
     0
  9
$JOINSTYLE
280
     0
  9
$LWDISPLAY
290
     0
  9
$INSUNITS
 70
     4
  9
$HYPERLINKBASE
  1

  9
$STYLESHEET
  1

  9
$XEDIT
290
     1
  9
$CEPSNTYPE
380
     0
  9
$PSTYLEMODE
290
     1
  9
$FINGERPRINTGUID
  2
{FAEB1C30-E019-11D5-929B-00C0DF256EC4}
  9
$VERSIONGUID
  2
{FAEB1C32-E019-11D5-929B-00C0DF256EC4}
  9
$EXTNAMES
290
     1
  9
$PSVPSCALE
 40
0.0
  9
$OLESTARTUP
290
     0
  0
ENDSEC
  0
SECTION
  2
CLASSES
  0
CLASS
  1
ACDBDICTIONARYWDFLT
  2
AcDbDictionaryWithDefault
  3
ObjectDBX Classes
 90
        0
280
     0
281
     0
  0
CLASS
  1
ACDBPLACEHOLDER
  2
AcDbPlaceHolder
  3
ObjectDBX Classes
 90
        0
280
     0
281
     0
  0
CLASS
  1
LAYOUT
  2
AcDbLayout
  3
ObjectDBX Classes
 90
        0
280
     0
281
     0
  0
ENDSEC
  0
SECTION
  2
TABLES
  0
TABLE
  2
VPORT
  5
8
330
0
100
AcDbSymbolTable
 70
     2
  0
VPORT
  5
29
330
8
100
AcDbSymbolTableRecord
100
AcDbViewportTableRecord
  2
*ACTIVE
 70
     0
 10
0.0
 20
0.0
 11
1.0
 21
1.0
 12
130.073523
 22
249.682973
 13
0.0
 23
0.0
 14
1.0
 24
1.0
 15
0.0
 25
0.0
 16
0.0
 26
0.0
 36
1.0
 17
0.0
 27
0.0
 37
0.0
 40
594.0
 41
1.414141
 42
50.0
 43
0.0
 44
0.0
 50
0.0
 51
0.0
 71
    16
 72
   100
 73
     1
 74
     0
 75
     0
 76
     0
 77
     0
 78
     0
281
     0
 65
     0
110
0.0
120
0.0
130
0.0
111
1.0
121
0.0
131
0.0
112
0.0
122
1.0
132
0.0
 79
     0
146
0.0
  0
ENDTAB
  0
TABLE
  2
LTYPE
  5
5
330
0
100
AcDbSymbolTable
 70
     3
  0
LTYPE
  5
14
330
5
100
AcDbSymbolTableRecord
100
AcDbLinetypeTableRecord
  2
ByBlock
 70
     0
  3

 72
    65
 73
     0
 40
0.0
  0
LTYPE
  5
15
330
5
100
AcDbSymbolTableRecord
100
AcDbLinetypeTableRecord
  2
ByLayer
 70
     0
  3

 72
    65
 73
     0
 40
0.0
  0
LTYPE
  5
16
330
5
100
AcDbSymbolTableRecord
100
AcDbLinetypeTableRecord
  2
Continuous
 70
     0
  3
Solid line
 72
    65
 73
     0
 40
0.0
  0
LTYPE
  5
2A
330
5
100
AcDbSymbolTableRecord
100
AcDbLinetypeTableRecord
  2
DASHED
 70
     0
  3
__ __ __ __ __
 72
    65
 73
     2
 40
6.25
 49
5.0
 74
     4
 75
     0
340
0
 46
1.0
 50
0.0
 44
0.0
 45
0.0
 49
-1.25
 74
     4
 75
     0
340
0
 46
1.0
 50
0.0
 44
0.0
 45
0.0
  0
LTYPE
  5
30
330
5
100
AcDbSymbolTableRecord
100
AcDbLinetypeTableRecord
  2
DASHDOT
 70
     0
  3
__ . __ . __ . __ . __
 72
    65
 73
     4
 40
7.5
 49
5.0
 74
     4
 75
     0
340
0
 46
1.0
 50
0.0
 44
0.0
 45
0.0
 49
-1.25
 74
     4
 75
     0
340
0
 46
1.0
 50
0.0
 44
0.0
 45
0.0
 49
0.0
 74
     4
 75
     0
340
0
 46
1.0
 50
0.0
 44
0.0
 45
0.0
 49
-1.25
 74
     4
 75
     0
340
0
 46
1.0
 50
0.0
 44
0.0
 45
0.0
  0
ENDTAB
  0
TABLE
  2
LAYER
  5
2
330
0
100
AcDbSymbolTable
 70
     9
  0
LAYER
  5
10
330
2
100
AcDbSymbolTableRecord
100
AcDbLayerTableRecord
  2
0
 70
     0
 62
     7
  6
Continuous
370
    -3
390
F
  0
LAYER
  5
2B
330
2
100
AcDbSymbolTableRecord
100
AcDbLayerTableRecord
  2
LC-INFO-1-2-mm-A3-0
 70
     1
 62
     7
  6
ByBlock
370
    -3
390
F
  0
LAYER
  5
2C
330
2
100
AcDbSymbolTableRecord
100
AcDbLayerTableRecord
  2
LC-CUT-HIDDEN
 70
     0
 62
     7
  6
DASHED
370
    -3
390
F
  0
LAYER
  5
2D
330
2
100
AcDbSymbolTableRecord
100
AcDbLayerTableRecord
  2
LC-VIEWPORT
 70
     0
 62
     7
  6
ByBlock
370
    -3
390
F
  0
LAYER
  5
2E
330
2
100
AcDbSymbolTableRecord
100
AcDbLayerTableRecord
  2
LC-3D-HIDDEN
 70
     0
 62
     9
  6
DASHED
370
    -3
390
F
  0
LAYER
  5
31
330
2
100
AcDbSymbolTableRecord
100
AcDbLayerTableRecord
  2
LC-001-002-----0
 70
     0
 62
     2
  6
DASHDOT
370
    -3
390
F
  0
LAYER
  5
33
330
2
100
AcDbSymbolTableRecord
100
AcDbLayerTableRecord
  2
LC-002-100-D00-0
 70
     0
 62
     1
  6
ByBlock
370
    -3
390
F
  0
LAYER
  5
1B9
330
2
100
AcDbSymbolTableRecord
100
AcDbLayerTableRecord
  2
Defpoints
 70
     0
 62
     7
  6
Continuous
290
     0
370
    -3
390
F
  0
LAYER
  5
1D7
330
2
100
AcDbSymbolTableRecord
100
AcDbLayerTableRecord
  2
LC-003-003-----0
 70
     0
 62
     2
  6
ByBlock
370
    -3
390
F
  0
ENDTAB
  0
TABLE
  2
STYLE
  5
3
330
0
100
AcDbSymbolTable
 70
     3
  0
STYLE
  5
11
330
3
100
AcDbSymbolTableRecord
100
AcDbTextStyleTableRecord
  2
Standard
 70
     0
 40
0.0
 41
1.0
 50
0.0
 71
     0
 42
2.5
  3
txt
  4

  0
STYLE
  5
2F
330
3
100
AcDbSymbolTableRecord
100
AcDbTextStyleTableRecord
  2
LCTX15-400-0-0-Arial
 70
     0
 40
0.0
 41
0.8
 50
0.0
 71
     0
 42
3.5
  3

  4

1001
ACAD
1000
Arial
1071
 16777218
  0
STYLE
  5
1B6
330
3
100
AcDbSymbolTableRecord
100
AcDbTextStyleTableRecord
  2
LCTX15-400-0-0pDIN-Schrift
 70
     0
 40
2.5
 41
0.8
 50
15.0
 71
     0
 42
3.5
  3
STANDARD
  4

  0
ENDTAB
  0
TABLE
  2
VIEW
  5
6
330
0
100
AcDbSymbolTable
 70
     0
  0
ENDTAB
  0
TABLE
  2
UCS
  5
7
330
0
100
AcDbSymbolTable
 70
     0
  0
ENDTAB
  0
TABLE
  2
APPID
  5
9
330
0
100
AcDbSymbolTable
 70
     1
  0
APPID
  5
12
330
9
100
AcDbSymbolTableRecord
100
AcDbRegAppTableRecord
  2
ACAD
 70
     0
  0
ENDTAB
  0
TABLE
  2
DIMSTYLE
  5
A
330
0
100
AcDbSymbolTable
 70
     3
100
AcDbDimStyleTable
  0
DIMSTYLE
105
27
330
A
100
AcDbSymbolTableRecord
100
AcDbDimStyleTableRecord
  2
ISO-25
 70
     0
 41
2.5
 42
0.625
 43
3.75
 44
1.25
 73
     0
 74
     0
 77
     1
 78
     8
140
2.5
141
2.5
143
0.03937
147
0.625
171
     3
172
     1
271
     2
272
     2
274
     3
278
    44
283
     0
284
     8
340
11
  0
DIMSTYLE
105
1B7
102
{ACAD_REACTORS
330
1B8
330
1D8
330
1E5
330
1F2
330
1FF
330
20C
102
}
330
A
100
AcDbSymbolTableRecord
100
AcDbDimStyleTableRecord
  2
LC-DIM-L-0140-02-02
 70
     0
 40
2.0
 41
14.0
 42
0.0
 43
7.5
 44
1.8
 73
     0
 74
     0
 77
     1
 78
     8
 79
     2
140
14.0
141
0.0
146
0.71
147
1.5
176
     2
177
     2
178
     2
179
     2
271
     2
278
    44
289
     1
340
1B6
  0
DIMSTYLE
105
1C7
102
{ACAD_REACTORS
330
1C8
102
}
330
A
100
AcDbSymbolTableRecord
100
AcDbDimStyleTableRecord
  2
LC-DIM-L-0140-00-02
 70
     0
 40
2.0
 41
14.0
 42
0.0
 43
7.5
 44
1.8
 73
     0
 74
     0
 77
     1
 78
     8
140
14.0
141
0.0
146
0.71
147
1.5
176
     2
177
     2
178
     2
271
     0
278
    44
289
     1
340
1B6
  0
ENDTAB
  0
TABLE
  2
BLOCK_RECORD
  5
1
330
0
100
AcDbSymbolTable
 70
    16
  0
BLOCK_RECORD
  5
1F
330
1
100
AcDbSymbolTableRecord
100
AcDbBlockTableRecord
  2
*Model_Space
340
22
  0
BLOCK_RECORD
  5
1B
330
1
100
AcDbSymbolTableRecord
100
AcDbBlockTableRecord
  2
*Paper_Space
340
1E
  0
BLOCK_RECORD
  5
23
330
1
100
AcDbSymbolTableRecord
100
AcDbBlockTableRecord
  2
*Paper_Space0
340
26
  0
BLOCK_RECORD
  5
57
330
1
100
AcDbSymbolTableRecord
100
AcDbBlockTableRecord
  2
POLY1
340
0
102
{BLKREFS
331
68
102
}
  0
BLOCK_RECORD
  5
EF
330
1
100
AcDbSymbolTableRecord
100
AcDbBlockTableRecord
  2
POLY2
340
0
102
{BLKREFS
331
FC
102
}
  0
BLOCK_RECORD
  5
101
330
1
100
AcDbSymbolTableRecord
100
AcDbBlockTableRecord
  2
POLY3
340
0
102
{BLKREFS
331
10C
102
}
  0
BLOCK_RECORD
  5
110
330
1
100
AcDbSymbolTableRecord
100
AcDbBlockTableRecord
  2
POLY4
340
0
102
{BLKREFS
331
11B
102
}
  0
BLOCK_RECORD
  5
11C
330
1
100
AcDbSymbolTableRecord
100
AcDbBlockTableRecord
  2
POLY5
340
0
102
{BLKREFS
331
129
102
}
  0
BLOCK_RECORD
  5
14C
330
1
100
AcDbSymbolTableRecord
100
AcDbBlockTableRecord
  2
KLON1
340
0
102
{BLKREFS
331
172
102
}
  0
BLOCK_RECORD
  5
173
330
1
100
AcDbSymbolTableRecord
100
AcDbBlockTableRecord
  2
KLON2
340
0
102
{BLKREFS
331
198
102
}
  0
BLOCK_RECORD
  5
199
330
1
100
AcDbSymbolTableRecord
100
AcDbBlockTableRecord
  2
KLON3
340
0
102
{BLKREFS
331
1B5
102
}
  0
BLOCK_RECORD
  5
1BA
330
1
100
AcDbSymbolTableRecord
100
AcDbBlockTableRecord
  2
*D9
340
0
  0
BLOCK_RECORD
  5
1C9
330
1
100
AcDbSymbolTableRecord
100
AcDbBlockTableRecord
  2
*D10
340
0
  0
BLOCK_RECORD
  5
1D9
330
1
100
AcDbSymbolTableRecord
100
AcDbBlockTableRecord
  2
*D11
340
0
  0
BLOCK_RECORD
  5
1E6
330
1
100
AcDbSymbolTableRecord
100
AcDbBlockTableRecord
  2
*D12
340
0
  0
BLOCK_RECORD
  5
1F3
330
1
100
AcDbSymbolTableRecord
100
AcDbBlockTableRecord
  2
*D13
340
0
  0
BLOCK_RECORD
  5
200
330
1
100
AcDbSymbolTableRecord
100
AcDbBlockTableRecord
  2
*D14
340
0
  0
BLOCK_RECORD
  5
20D
330
1
100
AcDbSymbolTableRecord
100
AcDbBlockTableRecord
  2
*D15
340
0
  0
ENDTAB
  0
ENDSEC
  0
SECTION
  2
BLOCKS
  0
BLOCK
  5
20
330
1F
100
AcDbEntity
  8
0
100
AcDbBlockBegin
  2
*Model_Space
 70
     0
 71
     0
 10
0.0
 20
0.0
 30
0.0
  3
*Model_Space
  1

  0
ENDBLK
  5
21
330
1F
100
AcDbEntity
  8
0
100
AcDbBlockEnd
  0
BLOCK
  5
1C
330
1B
100
AcDbEntity
 67
     1
  8
0
100
AcDbBlockBegin
  2
*Paper_Space
 70
     0
 71
     0
 10
0.0
 20
0.0
 30
0.0
  3
*Paper_Space
  1

  0
ENDBLK
  5
1D
330
1B
100
AcDbEntity
 67
     1
  8
0
100
AcDbBlockEnd
  0
BLOCK
  5
24
330
23
100
AcDbEntity
  8
0
100
AcDbBlockBegin
  2
*Paper_Space0
 70
     0
 71
     0
 10
0.0
 20
0.0
 30
0.0
  3
*Paper_Space0
  1

  0
ENDBLK
  5
25
330
23
100
AcDbEntity
  8
0
100
AcDbBlockEnd
  0
BLOCK
  5
58
330
57
100
AcDbEntity
  8
0
100
AcDbBlockBegin
  2
POLY1
 70
     0
 71
     0
 10
0.0
 20
0.0
 30
0.0
  3
POLY1
  1

  4
POLY1
  0
LINE
  5
5A
330
57
100
AcDbEntity
  8
LC-002-100-D00-0
 62
     7
370
    50
100
AcDbLine
 10
73.8676
 20
303.079205
 30
0.0
 11
73.8676
 21
303.079205
 31
0.0
  0
LINE
  5
5B
330
57
100
AcDbEntity
  8
LC-002-100-D00-0
 62
     7
370
    50
100
AcDbLine
 10
73.8676
 20
303.079205
 30
0.0
 11
73.914502
 21
304.203308
 31
0.0
  0
LINE
  5
5C
330
57
100
AcDbEntity
  8
LC-002-100-D00-0
 62
     7
370
    50
100
AcDbLine
 10
73.914502
 20
304.203308
 30
0.0
 11
73.914502
 21
304.203308
 31
0.0
  0
LINE
  5
5D
330
57
100
AcDbEntity
  8
LC-002-100-D00-0
 62
     7
370
    50
100
AcDbLine
 10
73.914502
 20
304.203308
 30
0.0
 11
74.008305
 21
306.451506
 31
0.0
  0
LINE
  5
5E
330
57
100
AcDbEntity
  8
LC-002-100-D00-0
 62
     7
370
    50
100
AcDbLine
 10
74.008305
 20
306.451506
 30
0.0
 11
74.008305
 21
306.451506
 31
0.0
  0
LINE
  5
5F
330
57
100
AcDbEntity
  8
LC-002-100-D00-0
 62
     7
370
    50
100
AcDbLine
 10
74.008305
 20
306.451506
 30
0.0
 11
74.848045
 21
309.447724
 31
0.0
  0
LINE
  5
60
330
57
100
AcDbEntity
  8
LC-002-100-D00-0
 62
     7
370
    50
100
AcDbLine
 10
74.848045
 20
309.447724
 30
0.0
 11
74.848045
 21
309.447724
 31
0.0
  0
LINE
  5
61
330
57
100
AcDbEntity
  8
LC-002-100-D00-0
 62
     7
370
    50
100
AcDbLine
 10
74.848045
 20
309.447724
 30
0.0
 11
76.100056
 21
311.709239
 31
0.0
  0
LINE
  5
62
330
57
100
AcDbEntity
  8
LC-002-100-D00-0
 62
     7
370
    50
100
AcDbLine
 10
76.100056
 20
311.709239
 30
0.0
 11
76.100056
 21
311.709239
 31
0.0
  0
LINE
  5
63
330
57
100
AcDbEntity
  8
LC-002-100-D00-0
 62
     7
370
    50
100
AcDbLine
 10
76.100056
 20
311.709239
 30
0.0
 11
77.497736
 21
312.908251
 31
0.0
  0
LINE
  5
64
330
57
100
AcDbEntity
  8
LC-002-100-D00-0
 62
     7
370
    50
100
AcDbLine
 10
77.497736
 20
312.908251
 30
0.0
 11
77.497736
 21
312.908251
 31
0.0
  0
LINE
  5
65
330
57
100
AcDbEntity
  8
LC-002-100-D00-0
 62
     7
370
    50
100
AcDbLine
 10
77.497736
 20
312.908251
 30
0.0
 11
78.42664
 21
313.030618
 31
0.0
  0
LINE
  5
66
330
57
100
AcDbEntity
  8
LC-002-100-D00-0
 62
     7
370
    50
100
AcDbLine
 10
78.42664
 20
313.030618
 30
0.0
 11
78.42664
 21
313.030618
 31
0.0
  0
LINE
  5
67
330
57
100
AcDbEntity
  8
LC-002-100-D00-0
 62
     7
370
    50
100
AcDbLine
 10
78.42664
 20
313.030618
 30
0.0
 11
78.795473
 21
313.079205
 31
0.0
  0
ENDBLK
  5
59
330
57
100
AcDbEntity
  8
0
100
AcDbBlockEnd
  0
BLOCK
  5
F0
330
EF
100
AcDbEntity
  8
0
100
AcDbBlockBegin
  2
POLY2
 70
     0
 71
     0
 10
0.0
 20
0.0
 30
0.0
  3
POLY2
  1

  4
POLY2
  0
LINE
  5
F2
330
EF
100
AcDbEntity
  8
LC-002-100-D00-0
 62
     7
370
    50
100
AcDbLine
 10
28.652567
 20
321.844085
 30
0.0
 11
28.652567
 21
321.844085
 31
0.0
  0
LINE
  5
F3
330
EF
100
AcDbEntity
  8
LC-002-100-D00-0
 62
     7
370
    50
100
AcDbLine
 10
28.652567
 20
321.844085
 30
0.0
 11
28.652242
 21
321.843479
 31
0.0
  0
LINE
  5
F4
330
EF
100
AcDbEntity
  8
LC-002-100-D00-0
 62
     7
370
    50
100
AcDbLine
 10
28.652242
 20
321.843479
 30
0.0
 11
28.652242
 21
321.843479
 31
0.0
  0
LINE
  5
F5
330
EF
100
AcDbEntity
  8
LC-002-100-D00-0
 62
     7
370
    50
100
AcDbLine
 10
28.652242
 20
321.843479
 30
0.0
 11
28.649725
 21
321.838787
 31
0.0
  0
LINE
  5
F6
330
EF
100
AcDbEntity
  8
LC-002-100-D00-0
 62
     7
370
    50
100
AcDbLine
 10
28.649725
 20
321.838787
 30
0.0
 11
28.649725
 21
321.838787
 31
0.0
  0
LINE
  5
F7
330
EF
100
AcDbEntity
  8
LC-002-100-D00-0
 62
     7
370
    50
100
AcDbLine
 10
28.649725
 20
321.838787
 30
0.0
 11
28.58785
 21
321.723237
 31
0.0
  0
LINE
  5
F8
330
EF
100
AcDbEntity
  8
LC-002-100-D00-0
 62
     7
370
    50
100
AcDbLine
 10
28.58785
 20
321.723237
 30
0.0
 11
28.58785
 21
321.723237
 31
0.0
  0
LINE
  5
F9
330
EF
100
AcDbEntity
  8
LC-002-100-D00-0
 62
     7
370
    50
100
AcDbLine
 10
28.58785
 20
321.723237
 30
0.0
 11
28.450952
 21
321.468718
 31
0.0
  0
LINE
  5
FA
330
EF
100
AcDbEntity
  8
LC-002-100-D00-0
 62
     7
370
    50
100
AcDbLine
 10
28.450952
 20
321.468718
 30
0.0
 11
28.450952
 21
321.468718
 31
0.0
  0
LINE
  5
FB
330
EF
100
AcDbEntity
  8
LC-002-100-D00-0
 62
     7
370
    50
100
AcDbLine
 10
28.450952
 20
321.468718
 30
0.0
 11
28.384017
 21
321.344272
 31
0.0
  0
ENDBLK
  5
F1
330
EF
100
AcDbEntity
  8
0
100
AcDbBlockEnd
  0
BLOCK
  5
102
330
101
100
AcDbEntity
  8
0
100
AcDbBlockBegin
  2
POLY3
 70
     0
 71
     0
 10
0.0
 20
0.0
 30
0.0
  3
POLY3
  1

  4
POLY3
  0
LINE
  5
104
330
101
100
AcDbEntity
  8
LC-002-100-D00-0
 62
     7
370
    50
100
AcDbLine
 10
158.921117
 20
321.344272
 30
0.0
 11
158.921117
 21
321.344272
 31
0.0
  0
LINE
  5
105
330
101
100
AcDbEntity
  8
LC-002-100-D00-0
 62
     7
370
    50
100
AcDbLine
 10
158.921117
 20
321.344272
 30
0.0
 11
158.841434
 21
321.492468
 31
0.0
  0
LINE
  5
106
330
101
100
AcDbEntity
  8
LC-002-100-D00-0
 62
     7
370
    50
100
AcDbLine
 10
158.841434
 20
321.492468
 30
0.0
 11
158.841434
 21
321.492468
 31
0.0
  0
LINE
  5
107
330
101
100
AcDbEntity
  8
LC-002-100-D00-0
 62
     7
370
    50
100
AcDbLine
 10
158.841434
 20
321.492468
 30
0.0
 11
158.691788
 21
321.770784
 31
0.0
  0
LINE
  5
108
330
101
100
AcDbEntity
  8
LC-002-100-D00-0
 62
     7
370
    50
100
AcDbLine
 10
158.691788
 20
321.770784
 30
0.0
 11
158.691788
 21
321.770784
 31
0.0
  0
LINE
  5
109
330
101
100
AcDbEntity
  8
LC-002-100-D00-0
 62
     7
370
    50
100
AcDbLine
 10
158.691788
 20
321.770784
 30
0.0
 11
158.665062
 21
321.820732
 31
0.0
  0
LINE
  5
10A
330
101
100
AcDbEntity
  8
LC-002-100-D00-0
 62
     7
370
    50
100
AcDbLine
 10
158.665062
 20
321.820732
 30
0.0
 11
158.665062
 21
321.820732
 31
0.0
  0
LINE
  5
10B
330
101
100
AcDbEntity
  8
LC-002-100-D00-0
 62
     7
370
    50
100
AcDbLine
 10
158.665062
 20
321.820732
 30
0.0
 11
158.652567
 21
321.844085
 31
0.0
  0
ENDBLK
  5
103
330
101
100
AcDbEntity
  8
0
100
AcDbBlockEnd
  0
BLOCK
  5
111
330
110
100
AcDbEntity
  8
0
100
AcDbBlockBegin
  2
POLY4
 70
     0
 71
     0
 10
0.0
 20
0.0
 30
0.0
  3
POLY4
  1

  4
POLY4
  0
LINE
  5
113
330
110
100
AcDbEntity
  8
LC-002-100-D00-0
 62
     7
370
    50
100
AcDbLine
 10
18.961266
 20
321.344272
 30
0.0
 11
18.961266
 21
321.344272
 31
0.0
  0
LINE
  5
114
330
110
100
AcDbEntity
  8
LC-002-100-D00-0
 62
     7
370
    50
100
AcDbLine
 10
18.961266
 20
321.344272
 30
0.0
 11
18.868967
 21
321.49386
 31
0.0
  0
LINE
  5
115
330
110
100
AcDbEntity
  8
LC-002-100-D00-0
 62
     7
370
    50
100
AcDbLine
 10
18.868967
 20
321.49386
 30
0.0
 11
18.868967
 21
321.49386
 31
0.0
  0
LINE
  5
116
330
110
100
AcDbEntity
  8
LC-002-100-D00-0
 62
     7
370
    50
100
AcDbLine
 10
18.868967
 20
321.49386
 30
0.0
 11
18.69637
 21
321.773585
 31
0.0
  0
LINE
  5
117
330
110
100
AcDbEntity
  8
LC-002-100-D00-0
 62
     7
370
    50
100
AcDbLine
 10
18.69637
 20
321.773585
 30
0.0
 11
18.69637
 21
321.773585
 31
0.0
  0
LINE
  5
118
330
110
100
AcDbEntity
  8
LC-002-100-D00-0
 62
     7
370
    50
100
AcDbLine
 10
18.69637
 20
321.773585
 30
0.0
 11
18.666475
 21
321.821828
 31
0.0
  0
LINE
  5
119
330
110
100
AcDbEntity
  8
LC-002-100-D00-0
 62
     7
370
    50
100
AcDbLine
 10
18.666475
 20
321.821828
 30
0.0
 11
18.666475
 21
321.821828
 31
0.0
  0
LINE
  5
11A
330
110
100
AcDbEntity
  8
LC-002-100-D00-0
 62
     7
370
    50
100
AcDbLine
 10
18.666475
 20
321.821828
 30
0.0
 11
18.652567
 21
321.844272
 31
0.0
  0
ENDBLK
  5
112
330
110
100
AcDbEntity
  8
0
100
AcDbBlockEnd
  0
BLOCK
  5
11D
330
11C
100
AcDbEntity
  8
0
100
AcDbBlockBegin
  2
POLY5
 70
     0
 71
     0
 10
0.0
 20
0.0
 30
0.0
  3
POLY5
  1

  4
POLY5
  0
LINE
  5
11F
330
11C
100
AcDbEntity
  8
LC-002-100-D00-0
 62
     7
370
    50
100
AcDbLine
 10
168.652567
 20
321.844272
 30
0.0
 11
168.652567
 21
321.844272
 31
0.0
  0
LINE
  5
120
330
11C
100
AcDbEntity
  8
LC-002-100-D00-0
 62
     7
370
    50
100
AcDbLine
 10
168.652567
 20
321.844272
 30
0.0
 11
168.652156
 21
321.843607
 31
0.0
  0
LINE
  5
121
330
11C
100
AcDbEntity
  8
LC-002-100-D00-0
 62
     7
370
    50
100
AcDbLine
 10
168.652156
 20
321.843607
 30
0.0
 11
168.652156
 21
321.843607
 31
0.0
  0
LINE
  5
122
330
11C
100
AcDbEntity
  8
LC-002-100-D00-0
 62
     7
370
    50
100
AcDbLine
 10
168.652156
 20
321.843607
 30
0.0
 11
168.649021
 21
321.838536
 31
0.0
  0
LINE
  5
123
330
11C
100
AcDbEntity
  8
LC-002-100-D00-0
 62
     7
370
    50
100
AcDbLine
 10
168.649021
 20
321.838536
 30
0.0
 11
168.649021
 21
321.838536
 31
0.0
  0
LINE
  5
124
330
11C
100
AcDbEntity
  8
LC-002-100-D00-0
 62
     7
370
    50
100
AcDbLine
 10
168.649021
 20
321.838536
 30
0.0
 11
168.575923
 21
321.72049
 31
0.0
  0
LINE
  5
125
330
11C
100
AcDbEntity
  8
LC-002-100-D00-0
 62
     7
370
    50
100
AcDbLine
 10
168.575923
 20
321.72049
 30
0.0
 11
168.575923
 21
321.72049
 31
0.0
  0
LINE
  5
126
330
11C
100
AcDbEntity
  8
LC-002-100-D00-0
 62
     7
370
    50
100
AcDbLine
 10
168.575923
 20
321.72049
 30
0.0
 11
168.417811
 21
321.464153
 31
0.0
  0
LINE
  5
127
330
11C
100
AcDbEntity
  8
LC-002-100-D00-0
 62
     7
370
    50
100
AcDbLine
 10
168.417811
 20
321.464153
 30
0.0
 11
168.417811
 21
321.464153
 31
0.0
  0
LINE
  5
128
330
11C
100
AcDbEntity
  8
LC-002-100-D00-0
 62
     7
370
    50
100
AcDbLine
 10
168.417811
 20
321.464153
 30
0.0
 11
168.343867
 21
321.344272
 31
0.0
  0
ENDBLK
  5
11E
330
11C
100
AcDbEntity
  8
0
100
AcDbBlockEnd
  0
BLOCK
  5
14D
330
14C
100
AcDbEntity
  8
0
100
AcDbBlockBegin
  2
KLON1
 70
     0
 71
     0
 10
0.0
 20
0.0
 30
0.0
  3
KLON1
  1

  4
KLON1
  0
LINE
  5
14F
330
14C
100
AcDbEntity
  8
LC-002-100-D00-0
 62
     7
370
    25
100
AcDbLine
 10
69.002281
 20
179.274116
 30
0.0
 11
71.652567
 21
181.924402
 31
0.0
  0
LINE
  5
150
330
14C
100
AcDbEntity
  8
LC-002-100-D00-0
 62
     7
370
    25
100
AcDbLine
 10
68.652567
 20
187.904658
 30
0.0
 11
71.652567
 21
190.904658
 31
0.0
  0
LINE
  5
151
330
14C
100
AcDbEntity
  8
LC-002-100-D00-0
 62
     7
370
    25
100
AcDbLine
 10
68.652567
 20
196.884914
 30
0.0
 11
71.652567
 21
199.884914
 31
0.0
  0
LINE
  5
152
330
14C
100
AcDbEntity
  8
LC-002-100-D00-0
 62
     7
370
    25
100
AcDbLine
 10
68.652567
 20
205.865171
 30
0.0
 11
71.652567
 21
208.865171
 31
0.0
  0
LINE
  5
153
330
14C
100
AcDbEntity
  8
LC-002-100-D00-0
 62
     7
370
    25
100
AcDbLine
 10
68.652567
 20
214.845427
 30
0.0
 11
71.652567
 21
217.845427
 31
0.0
  0
LINE
  5
154
330
14C
100
AcDbEntity
  8
LC-002-100-D00-0
 62
     7
370
    25
100
AcDbLine
 10
68.652567
 20
223.825683
 30
0.0
 11
71.652567
 21
226.825683
 31
0.0
  0
LINE
  5
155
330
14C
100
AcDbEntity
  8
LC-002-100-D00-0
 62
     7
370
    25
100
AcDbLine
 10
68.652567
 20
232.805939
 30
0.0
 11
71.652567
 21
235.805939
 31
0.0
  0
LINE
  5
156
330
14C
100
AcDbEntity
  8
LC-002-100-D00-0
 62
     7
370
    25
100
AcDbLine
 10
61.945639
 20
235.079267
 30
0.0
 11
64.445639
 21
237.579267
 31
0.0
  0
LINE
  5
157
330
14C
100
AcDbEntity
  8
LC-002-100-D00-0
 62
     7
370
    25
100
AcDbLine
 10
69.152567
 20
242.286195
 30
0.0
 11
71.652567
 21
244.786195
 31
0.0
  0
LINE
  5
158
330
14C
100
AcDbEntity
  8
LC-002-100-D00-0
 62
     7
370
    25
100
AcDbLine
 10
52.965383
 20
235.079267
 30
0.0
 11
55.465383
 21
237.579267
 31
0.0
  0
LINE
  5
159
330
14C
100
AcDbEntity
  8
LC-002-100-D00-0
 62
     7
370
    25
100
AcDbLine
 10
69.152567
 20
251.266451
 30
0.0
 11
71.652567
 21
253.766451
 31
0.0
  0
LINE
  5
15A
330
14C
100
AcDbEntity
  8
LC-002-100-D00-0
 62
     7
370
    25
100
AcDbLine
 10
44.093471
 20
235.187612
 30
0.0
 11
46.559357
 21
237.653498
 31
0.0
  0
LINE
  5
15B
330
14C
100
AcDbEntity
  8
LC-002-100-D00-0
 62
     7
370
    25
100
AcDbLine
 10
69.152567
 20
260.246707
 30
0.0
 11
71.652567
 21
262.746707
 31
0.0
  0
LINE
  5
15C
330
14C
100
AcDbEntity
  8
LC-002-100-D00-0
 62
     7
370
    25
100
AcDbLine
 10
40.987419
 20
241.061815
 30
0.0
 11
43.353459
 21
243.427855
 31
0.0
  0
LINE
  5
15D
330
14C
100
AcDbEntity
  8
LC-002-100-D00-0
 62
     7
370
    25
100
AcDbLine
 10
69.152567
 20
269.226963
 30
0.0
 11
71.652567
 21
271.726963
 31
0.0
  0
LINE
  5
15E
330
14C
100
AcDbEntity
  8
LC-002-100-D00-0
 62
     7
370
    25
100
AcDbLine
 10
39.089656
 20
248.144308
 30
0.0
 11
41.652567
 21
250.707219
 31
0.0
  0
LINE
  5
15F
330
14C
100
AcDbEntity
  8
LC-002-100-D00-0
 62
     7
370
    25
100
AcDbLine
 10
69.152567
 20
278.207219
 30
0.0
 11
71.652567
 21
280.707219
 31
0.0
  0
LINE
  5
160
330
14C
100
AcDbEntity
  8
LC-002-100-D00-0
 62
     7
370
    25
100
AcDbLine
 10
38.652567
 20
256.687476
 30
0.0
 11
41.652567
 21
259.687476
 31
0.0
  0
LINE
  5
161
330
14C
100
AcDbEntity
  8
LC-002-100-D00-0
 62
     7
370
    25
100
AcDbLine
 10
69.152567
 20
287.187476
 30
0.0
 11
71.652567
 21
289.687476
 31
0.0
  0
LINE
  5
162
330
14C
100
AcDbEntity
  8
LC-002-100-D00-0
 62
     7
370
    25
100
AcDbLine
 10
38.652567
 20
265.667732
 30
0.0
 11
41.652567
 21
268.667732
 31
0.0
  0
LINE
  5
163
330
14C
100
AcDbEntity
  8
LC-002-100-D00-0
 62
     7
370
    25
100
AcDbLine
 10
69.152567
 20
296.167732
 30
0.0
 11
71.652567
 21
298.667732
 31
0.0
  0
LINE
  5
164
330
14C
100
AcDbEntity
  8
LC-002-100-D00-0
 62
     7
370
    25
100
AcDbLine
 10
38.652567
 20
274.647988
 30
0.0
 11
41.652567
 21
277.647988
 31
0.0
  0
LINE
  5
165
330
14C
100
AcDbEntity
  8
LC-002-100-D00-0
 62
     7
370
    25
100
AcDbLine
 10
38.652567
 20
283.628244
 30
0.0
 11
41.652567
 21
286.628244
 31
0.0
  0
LINE
  5
166
330
14C
100
AcDbEntity
  8
LC-002-100-D00-0
 62
     7
370
    25
100
AcDbLine
 10
38.123334
 20
292.079267
 30
0.0
 11
41.123334
 21
295.079267
 31
0.0
  0
LINE
  5
167
330
14C
100
AcDbEntity
  8
LC-002-100-D00-0
 62
     7
370
    25
100
AcDbLine
 10
30.915309
 20
293.851498
 30
0.0
 11
33.652567
 21
296.588756
 31
0.0
  0
LINE
  5
168
330
14C
100
AcDbEntity
  8
LC-002-100-D00-0
 62
     7
370
    25
100
AcDbLine
 10
30.652567
 20
302.569012
 30
0.0
 11
33.652567
 21
305.569012
 31
0.0
  0
LINE
  5
169
330
14C
100
AcDbEntity
  8
LC-002-100-D00-0
 62
     7
370
    25
100
AcDbLine
 10
24.21421
 20
305.110912
 30
0.0
 11
33.652567
 21
314.549268
 31
0.0
  0
LINE
  5
16A
330
14C
100
AcDbEntity
  8
LC-002-100-D00-0
 62
     7
370
    25
100
AcDbLine
 10
17.652567
 20
307.529525
 30
0.0
 11
21.152567
 21
311.029525
 31
0.0
  0
LINE
  5
16B
330
14C
100
AcDbEntity
  8
LC-002-100-D00-0
 62
     7
370
    25
100
AcDbLine
 10
26.152567
 20
316.029525
 30
0.0
 11
32.809926
 21
322.686884
 31
0.0
  0
LINE
  5
16C
330
14C
100
AcDbEntity
  8
LC-002-100-D00-0
 62
     7
370
    25
100
AcDbLine
 10
16.647511
 20
315.504724
 30
0.0
 11
21.152567
 21
320.009781
 31
0.0
  0
LINE
  5
16D
330
14C
100
AcDbEntity
  8
LC-002-100-D00-0
 62
     7
370
    25
100
AcDbLine
 10
9.084225
 20
316.921695
 30
0.0
 11
10.652567
 21
318.490037
 31
0.0
  0
LINE
  5
16E
330
14C
100
AcDbEntity
  8
LC-002-100-D00-0
 62
     7
370
    25
100
AcDbLine
 10
2.689666
 20
319.507392
 30
0.0
 11
5.492634
 21
322.31036
 31
0.0
  0
LINE
  5
16F
330
14C
100
AcDbEntity
  8
LC-002-100-D00-0
 62
     7
370
    25
100
AcDbLine
 10
-4.187905
 20
321.610077
 30
0.0
 11
-1.384937
 21
324.413045
 31
0.0
  0
LINE
  5
170
330
14C
100
AcDbEntity
  8
LC-002-100-D00-0
 62
     7
370
    25
100
AcDbLine
 10
-11.065477
 20
323.712762
 30
0.0
 11
-8.262509
 21
326.51573
 31
0.0
  0
LINE
  5
171
330
14C
100
AcDbEntity
  8
LC-002-100-D00-0
 62
     7
370
    25
100
AcDbLine
 10
-19.536846
 20
324.221649
 30
0.0
 11
-16.09872
 21
327.659774
 31
0.0
  0
ENDBLK
  5
14E
330
14C
100
AcDbEntity
  8
0
100
AcDbBlockEnd
  0
BLOCK
  5
174
330
173
100
AcDbEntity
  8
0
100
AcDbBlockBegin
  2
KLON2
 70
     0
 71
     0
 10
0.0
 20
0.0
 30
0.0
  3
KLON2
  1

  4
KLON2
  0
LINE
  5
176
330
173
100
AcDbEntity
  8
LC-002-100-D00-0
 62
     7
370
    25
100
AcDbLine
 10
115.652567
 20
181.023122
 30
0.0
 11
118.652567
 21
184.023122
 31
0.0
  0
LINE
  5
177
330
173
100
AcDbEntity
  8
LC-002-100-D00-0
 62
     7
370
    25
100
AcDbLine
 10
115.652567
 20
190.003378
 30
0.0
 11
118.652567
 21
193.003378
 31
0.0
  0
LINE
  5
178
330
173
100
AcDbEntity
  8
LC-002-100-D00-0
 62
     7
370
    25
100
AcDbLine
 10
115.652567
 20
198.983634
 30
0.0
 11
118.652567
 21
201.983634
 31
0.0
  0
LINE
  5
179
330
173
100
AcDbEntity
  8
LC-002-100-D00-0
 62
     7
370
    25
100
AcDbLine
 10
115.652567
 20
207.96389
 30
0.0
 11
118.652567
 21
210.96389
 31
0.0
  0
LINE
  5
17A
330
173
100
AcDbEntity
  8
LC-002-100-D00-0
 62
     7
370
    25
100
AcDbLine
 10
142.792021
 20
235.103344
 30
0.0
 11
145.427248
 21
237.738571
 31
0.0
  0
LINE
  5
17B
330
173
100
AcDbEntity
  8
LC-002-100-D00-0
 62
     7
370
    25
100
AcDbLine
 10
115.652567
 20
216.944146
 30
0.0
 11
118.652567
 21
219.944146
 31
0.0
  0
LINE
  5
17C
330
173
100
AcDbEntity
  8
LC-002-100-D00-0
 62
     7
370
    25
100
AcDbLine
 10
133.787688
 20
235.079267
 30
0.0
 11
136.287688
 21
237.579267
 31
0.0
  0
LINE
  5
17D
330
173
100
AcDbEntity
  8
LC-002-100-D00-0
 62
     7
370
    25
100
AcDbLine
 10
144.616176
 20
245.907756
 30
0.0
 11
148.652567
 21
249.944146
 31
0.0
  0
LINE
  5
17E
330
173
100
AcDbEntity
  8
LC-002-100-D00-0
 62
     7
370
    25
100
AcDbLine
 10
115.652567
 20
225.924402
 30
0.0
 11
118.652567
 21
228.924402
 31
0.0
  0
LINE
  5
17F
330
173
100
AcDbEntity
  8
LC-002-100-D00-0
 62
     7
370
    25
100
AcDbLine
 10
124.807432
 20
235.079267
 30
0.0
 11
127.307432
 21
237.579267
 31
0.0
  0
LINE
  5
180
330
173
100
AcDbEntity
  8
LC-002-100-D00-0
 62
     7
370
    25
100
AcDbLine
 10
145.652567
 20
255.924402
 30
0.0
 11
148.652567
 21
258.924402
 31
0.0
  0
LINE
  5
181
330
173
100
AcDbEntity
  8
LC-002-100-D00-0
 62
     7
370
    25
100
AcDbLine
 10
115.652567
 20
234.904658
 30
0.0
 11
118.68281
 21
237.934902
 31
0.0
  0
LINE
  5
182
330
173
100
AcDbEntity
  8
LC-002-100-D00-0
 62
     7
370
    25
100
AcDbLine
 10
145.652567
 20
264.904658
 30
0.0
 11
148.652567
 21
267.904658
 31
0.0
  0
LINE
  5
183
330
173
100
AcDbEntity
  8
LC-002-100-D00-0
 62
     7
370
    25
100
AcDbLine
 10
204.902739
 20
324.154831
 30
0.0
 11
207.728775
 21
326.980866
 31
0.0
  0
LINE
  5
184
330
173
100
AcDbEntity
  8
LC-002-100-D00-0
 62
     7
370
    25
100
AcDbLine
 10
115.652567
 20
243.884914
 30
0.0
 11
118.152567
 21
246.384914
 31
0.0
  0
LINE
  5
185
330
173
100
AcDbEntity
  8
LC-002-100-D00-0
 62
     7
370
    25
100
AcDbLine
 10
145.652567
 20
273.884914
 30
0.0
 11
148.652567
 21
276.884914
 31
0.0
  0
LINE
  5
186
330
173
100
AcDbEntity
  8
LC-002-100-D00-0
 62
     7
370
    25
100
AcDbLine
 10
194.207678
 20
322.440026
 30
0.0
 11
199.291111
 21
327.523458
 31
0.0
  0
LINE
  5
187
330
173
100
AcDbEntity
  8
LC-002-100-D00-0
 62
     7
370
    25
100
AcDbLine
 10
115.652567
 20
252.865171
 30
0.0
 11
118.152567
 21
255.365171
 31
0.0
  0
LINE
  5
188
330
173
100
AcDbEntity
  8
LC-002-100-D00-0
 62
     7
370
    25
100
AcDbLine
 10
145.652567
 20
282.865171
 30
0.0
 11
148.652567
 21
285.865171
 31
0.0
  0
LINE
  5
189
330
173
100
AcDbEntity
  8
LC-002-100-D00-0
 62
     7
370
    25
100
AcDbLine
 10
155.513959
 20
292.726562
 30
0.0
 11
156.005272
 21
293.217875
 31
0.0
  0
LINE
  5
18A
330
173
100
AcDbEntity
  8
LC-002-100-D00-0
 62
     7
370
    25
100
AcDbLine
 10
168.792121
 20
306.004724
 30
0.0
 11
169.652567
 21
306.865171
 31
0.0
  0
LINE
  5
18B
330
173
100
AcDbEntity
  8
LC-002-100-D00-0
 62
     7
370
    25
100
AcDbLine
 10
181.272847
 20
318.485451
 30
0.0
 11
186.544463
 21
323.757067
 31
0.0
  0
LINE
  5
18C
330
173
100
AcDbEntity
  8
LC-002-100-D00-0
 62
     7
370
    25
100
AcDbLine
 10
115.652567
 20
261.845427
 30
0.0
 11
118.152567
 21
264.345427
 31
0.0
  0
LINE
  5
18D
330
173
100
AcDbEntity
  8
LC-002-100-D00-0
 62
     7
370
    25
100
AcDbLine
 10
145.652567
 20
291.845427
 30
0.0
 11
148.886408
 21
295.079267
 31
0.0
  0
LINE
  5
18E
330
173
100
AcDbEntity
  8
LC-002-100-D00-0
 62
     7
370
    25
100
AcDbLine
 10
153.652567
 20
299.845427
 30
0.0
 11
156.652567
 21
302.845427
 31
0.0
  0
LINE
  5
18F
330
173
100
AcDbEntity
  8
LC-002-100-D00-0
 62
     7
370
    25
100
AcDbLine
 10
159.811865
 20
306.004724
 30
0.0
 11
162.151412
 21
308.344272
 31
0.0
  0
LINE
  5
190
330
173
100
AcDbEntity
  8
LC-002-100-D00-0
 62
     7
370
    25
100
AcDbLine
 10
166.152567
 20
312.345427
 30
0.0
 11
171.651412
 21
317.844272
 31
0.0
  0
LINE
  5
191
330
173
100
AcDbEntity
  8
LC-002-100-D00-0
 62
     7
370
    25
100
AcDbLine
 10
115.652567
 20
270.825683
 30
0.0
 11
118.152567
 21
273.325683
 31
0.0
  0
LINE
  5
192
330
173
100
AcDbEntity
  8
LC-002-100-D00-0
 62
     7
370
    25
100
AcDbLine
 10
153.652567
 20
308.825683
 30
0.0
 11
161.152567
 21
316.325683
 31
0.0
  0
LINE
  5
193
330
173
100
AcDbEntity
  8
LC-002-100-D00-0
 62
     7
370
    25
100
AcDbLine
 10
166.152567
 20
321.325683
 30
0.0
 11
166.171156
 21
321.344272
 31
0.0
  0
LINE
  5
194
330
173
100
AcDbEntity
  8
LC-002-100-D00-0
 62
     7
370
    25
100
AcDbLine
 10
115.652567
 20
279.805939
 30
0.0
 11
118.152567
 21
282.305939
 31
0.0
  0
LINE
  5
195
330
173
100
AcDbEntity
  8
LC-002-100-D00-0
 62
     7
370
    25
100
AcDbLine
 10
153.652567
 20
317.805939
 30
0.0
 11
157.652567
 21
321.805939
 31
0.0
  0
LINE
  5
196
330
173
100
AcDbEntity
  8
LC-002-100-D00-0
 62
     7
370
    25
100
AcDbLine
 10
115.652567
 20
288.786195
 30
0.0
 11
118.152567
 21
291.286195
 31
0.0
  0
LINE
  5
197
330
173
100
AcDbEntity
  8
LC-002-100-D00-0
 62
     7
370
    25
100
AcDbLine
 10
115.652567
 20
297.766451
 30
0.0
 11
117.465383
 21
299.579267
 31
0.0
  0
ENDBLK
  5
175
330
173
100
AcDbEntity
  8
0
100
AcDbBlockEnd
  0
BLOCK
  5
19A
330
199
100
AcDbEntity
  8
0
100
AcDbBlockBegin
  2
KLON3
 70
     0
 71
     0
 10
0.0
 20
0.0
 30
0.0
  3
KLON3
  1

  4
KLON3
  0
LINE
  5
19C
330
199
100
AcDbEntity
  8
LC-002-100-D00-0
 62
     7
370
    25
100
AcDbLine
 10
131.652567
 20
250.904658
 30
0.0
 11
133.152567
 21
252.404658
 31
0.0
  0
LINE
  5
19D
330
199
100
AcDbEntity
  8
LC-002-100-D00-0
 62
     7
370
    25
100
AcDbLine
 10
131.652567
 20
259.884914
 30
0.0
 11
133.152567
 21
261.384914
 31
0.0
  0
LINE
  5
19E
330
199
100
AcDbEntity
  8
LC-002-100-D00-0
 62
     7
370
    25
100
AcDbLine
 10
131.652567
 20
268.865171
 30
0.0
 11
133.152567
 21
270.365171
 31
0.0
  0
LINE
  5
19F
330
199
100
AcDbEntity
  8
LC-002-100-D00-0
 62
     7
370
    25
100
AcDbLine
 10
131.652567
 20
277.845427
 30
0.0
 11
133.152567
 21
279.345427
 31
0.0
  0
LINE
  5
1A0
330
199
100
AcDbEntity
  8
LC-002-100-D00-0
 62
     7
370
    25
100
AcDbLine
 10
129.906089
 20
285.079205
 30
0.0
 11
133.152567
 21
288.325683
 31
0.0
  0
LINE
  5
1A1
330
199
100
AcDbEntity
  8
LC-002-100-D00-0
 62
     7
370
    25
100
AcDbLine
 10
120.925833
 20
285.079205
 30
0.0
 11
133.152567
 21
297.305939
 31
0.0
  0
LINE
  5
1A2
330
199
100
AcDbEntity
  8
LC-002-100-D00-0
 62
     7
370
    25
100
AcDbLine
 10
118.152567
 20
291.286195
 30
0.0
 11
132.806533
 21
305.940161
 31
0.0
  0
LINE
  5
1A3
330
199
100
AcDbEntity
  8
LC-002-100-D00-0
 62
     7
370
    25
100
AcDbLine
 10
113.46532
 20
295.579205
 30
0.0
 11
115.652567
 21
297.766451
 31
0.0
  0
LINE
  5
1A4
330
199
100
AcDbEntity
  8
LC-002-100-D00-0
 62
     7
370
    25
100
AcDbLine
 10
117.96532
 20
300.079205
 30
0.0
 11
129.543709
 21
311.657593
 31
0.0
  0
LINE
  5
1A5
330
199
100
AcDbEntity
  8
LC-002-100-D00-0
 62
     7
370
    25
100
AcDbLine
 10
111.652567
 20
302.746707
 30
0.0
 11
123.70949
 21
314.80363
 31
0.0
  0
LINE
  5
1A6
330
199
100
AcDbEntity
  8
LC-002-100-D00-0
 62
     7
370
    25
100
AcDbLine
 10
54.152567
 20
254.226963
 30
0.0
 11
55.652567
 21
255.726963
 31
0.0
  0
LINE
  5
1A7
330
199
100
AcDbEntity
  8
LC-002-100-D00-0
 62
     7
370
    25
100
AcDbLine
 10
111.652567
 20
311.726963
 30
0.0
 11
115.004808
 21
315.079205
 31
0.0
  0
LINE
  5
1A8
330
199
100
AcDbEntity
  8
LC-002-100-D00-0
 62
     7
370
    25
100
AcDbLine
 10
54.152567
 20
263.207219
 30
0.0
 11
55.652567
 21
264.707219
 31
0.0
  0
LINE
  5
1A9
330
199
100
AcDbEntity
  8
LC-002-100-D00-0
 62
     7
370
    25
100
AcDbLine
 10
104.024552
 20
313.079205
 30
0.0
 11
107.394942
 21
316.449595
 31
0.0
  0
LINE
  5
1AA
330
199
100
AcDbEntity
  8
LC-002-100-D00-0
 62
     7
370
    25
100
AcDbLine
 10
54.152567
 20
272.187476
 30
0.0
 11
55.652567
 21
273.687476
 31
0.0
  0
LINE
  5
1AB
330
199
100
AcDbEntity
  8
LC-002-100-D00-0
 62
     7
370
    25
100
AcDbLine
 10
95.044296
 20
313.079205
 30
0.0
 11
104.584871
 21
322.61978
 31
0.0
  0
LINE
  5
1AC
330
199
100
AcDbEntity
  8
LC-002-100-D00-0
 62
     7
370
    25
100
AcDbLine
 10
54.152567
 20
281.167732
 30
0.0
 11
55.652567
 21
282.667732
 31
0.0
  0
LINE
  5
1AD
330
199
100
AcDbEntity
  8
LC-002-100-D00-0
 62
     7
370
    25
100
AcDbLine
 10
86.06404
 20
313.079205
 30
0.0
 11
98.06404
 21
325.079205
 31
0.0
  0
LINE
  5
1AE
330
199
100
AcDbEntity
  8
LC-002-100-D00-0
 62
     7
370
    25
100
AcDbLine
 10
54.152567
 20
290.147988
 30
0.0
 11
55.652567
 21
291.647988
 31
0.0
  0
LINE
  5
1AF
330
199
100
AcDbEntity
  8
LC-002-100-D00-0
 62
     7
370
    25
100
AcDbLine
 10
77.083784
 20
313.079205
 30
0.0
 11
79.083784
 21
315.079205
 31
0.0
  0
LINE
  5
1B0
330
199
100
AcDbEntity
  8
LC-002-100-D00-0
 62
     7
370
    25
100
AcDbLine
 10
79.902567
 20
315.897988
 30
0.0
 11
89.083784
 21
325.079205
 31
0.0
  0
LINE
  5
1B1
330
199
100
AcDbEntity
  8
LC-002-100-D00-0
 62
     7
370
    25
100
AcDbLine
 10
54.152567
 20
299.128244
 30
0.0
 11
55.652567
 21
300.628244
 31
0.0
  0
LINE
  5
1B2
330
199
100
AcDbEntity
  8
LC-002-100-D00-0
 62
     7
370
    25
100
AcDbLine
 10
68.103528
 20
313.079205
 30
0.0
 11
70.103528
 21
315.079205
 31
0.0
  0
LINE
  5
1B3
330
199
100
AcDbEntity
  8
LC-002-100-D00-0
 62
     7
370
    25
100
AcDbLine
 10
97.044296
 20
315.079205
 30
0.0
 11
101.754424
 21
319.789333
 31
0.0
  0
LINE
  5
1B4
330
199
100
AcDbEntity
  8
LC-002-100-D00-0
 62
     7
370
    25
100
AcDbLine
 10
88.06404
 20
315.079205
 30
0.0
 11
94.06404
 21
321.079205
 31
0.0
  0
ENDBLK
  5
19B
330
199
100
AcDbEntity
  8
0
100
AcDbBlockEnd
  0
BLOCK
  5
1C5
330
1BA
100
AcDbEntity
  8
0
100
AcDbBlockBegin
  2
*D9
 70
     1
 71
     0
 10
0.0
 20
0.0
 30
0.0
  3
*D9
  1

  0
LINE
  5
1BB
330
1BA
100
AcDbEntity
  8
LC-002-100-D00-0
 62
     2
370
    -2
100
AcDbLine
 10
68.652567
 20
180.579267
 30
0.0
 11
68.652567
 21
155.794973
 31
0.0
  0
LINE
  5
1BC
330
1BA
100
AcDbEntity
  8
LC-002-100-D00-0
 62
     2
370
    -2
100
AcDbLine
 10
118.652567
 20
180.579267
 30
0.0
 11
118.652567
 21
155.794973
 31
0.0
  0
LINE
  5
1BD
330
1BA
100
AcDbEntity
  8
LC-002-100-D00-0
 62
     2
370
    -2
100
AcDbLine
 10
40.652567
 20
159.394973
 30
0.0
 11
12.652567
 21
159.394973
 31
0.0
  0
LINE
  5
1BE
330
1BA
100
AcDbEntity
  8
LC-002-100-D00-0
 62
     2
370
    -2
100
AcDbLine
 10
146.652567
 20
159.394973
 30
0.0
 11
227.224475
 21
159.394973
 31
0.0
  0
SOLID
  5
1BF
330
1BA
100
AcDbEntity
  8
LC-002-100-D00-0
 62
     2
100
AcDbTrace
 10
40.652567
 20
154.728306
 30
0.0
 11
40.652567
 21
164.061639
 31
0.0
 12
68.652567
 22
159.394973
 32
0.0
 13
68.652567
 23
159.394973
 33
0.0
  0
SOLID
  5
1C0
330
1BA
100
AcDbEntity
  8
LC-002-100-D00-0
 62
     2
100
AcDbTrace
 10
146.652567
 20
164.061639
 30
0.0
 11
146.652567
 21
154.728306
 31
0.0
 12
118.652567
 22
159.394973
 32
0.0
 13
118.652567
 23
159.394973
 33
0.0
  0
MTEXT
  5
1C1
330
1BA
100
AcDbEntity
  8
LC-002-100-D00-0
 62
     2
100
AcDbMText
 10
181.187717
 20
190.194973
 30
0.0
 40
28.0
 41
0.0
 71
     5
 72
     1
  1
\A1;DN50
  7
LCTX15-400-0-0pDIN-Schrift
 73
     1
 44
1.0
  0
POINT
  5
1C2
330
1BA
100
AcDbEntity
  8
Defpoints
 62
     0
100
AcDbPoint
 10
68.652567
 20
180.579267
 30
0.0
  0
POINT
  5
1C3
330
1BA
100
AcDbEntity
  8
Defpoints
 62
     0
100
AcDbPoint
 10
118.652567
 20
180.579267
 30
0.0
  0
POINT
  5
1C4
330
1BA
100
AcDbEntity
  8
Defpoints
 62
     0
100
AcDbPoint
 10
118.652567
 20
159.394973
 30
0.0
  0
ENDBLK
  5
1C6
330
1BA
100
AcDbEntity
  8
0
100
AcDbBlockEnd
  0
BLOCK
  5
1D5
330
1C9
100
AcDbEntity
  8
0
100
AcDbBlockBegin
  2
*D10
 70
     1
 71
     0
 10
0.0
 20
0.0
 30
0.0
  3
*D10
  1

  0
LINE
  5
1CA
330
1C9
100
AcDbEntity
  8
LC-002-100-D00-0
 62
     2
370
    -2
100
AcDbLine
 10
64.552567
 20
299.579205
 30
0.0
 11
2.049873
 21
299.579205
 31
0.0
  0
LINE
  5
1CB
330
1C9
100
AcDbEntity
  8
LC-002-100-D00-0
 62
     2
370
    -2
100
AcDbLine
 10
54.152567
 20
250.079205
 30
0.0
 11
2.049873
 21
250.079205
 31
0.0
  0
LINE
  5
1CC
330
1C9
100
AcDbEntity
  8
LC-002-100-D00-0
 62
     2
370
    -2
100
AcDbLine
 10
5.649873
 20
327.579205
 30
0.0
 11
5.649873
 21
355.579205
 31
0.0
  0
LINE
  5
1CD
330
1C9
100
AcDbEntity
  8
LC-002-100-D00-0
 62
     2
370
    -2
100
AcDbLine
 10
5.649873
 20
222.079205
 30
0.0
 11
5.649873
 21
194.079205
 31
0.0
  0
LINE
  5
1CE
330
1C9
100
AcDbEntity
  8
LC-002-100-D00-0
 62
     2
370
    -2
100
AcDbLine
 10
5.649873
 20
299.579205
 30
0.0
 11
5.649873
 21
250.079205
 31
0.0
  0
SOLID
  5
1CF
330
1C9
100
AcDbEntity
  8
LC-002-100-D00-0
 62
     2
100
AcDbTrace
 10
0.983207
 20
327.579205
 30
0.0
 11
10.31654
 21
327.579205
 31
0.0
 12
5.649873
 22
299.579205
 32
0.0
 13
5.649873
 23
299.579205
 33
0.0
  0
SOLID
  5
1D0
330
1C9
100
AcDbEntity
  8
LC-002-100-D00-0
 62
     2
100
AcDbTrace
 10
10.31654
 20
222.079205
 30
0.0
 11
0.983207
 21
222.079205
 31
0.0
 12
5.649873
 22
250.079205
 32
0.0
 13
5.649873
 23
250.079205
 33
0.0
  0
MTEXT
  5
1D1
330
1C9
100
AcDbEntity
  8
LC-002-100-D00-0
 62
     2
100
AcDbMText
 10
-25.150127
 20
279.292704
 30
0.0
 40
28.0
 41
0.0
 71
     5
 72
     1
  1
\A1;50
  7
LCTX15-400-0-0pDIN-Schrift
 11
6.123031769111886E-17
 21
1.0
 31
0.0
 73
     1
 44
1.0
  0
POINT
  5
1D2
330
1C9
100
AcDbEntity
  8
Defpoints
 62
     0
100
AcDbPoint
 10
64.552567
 20
299.579205
 30
0.0
  0
POINT
  5
1D3
330
1C9
100
AcDbEntity
  8
Defpoints
 62
     0
100
AcDbPoint
 10
54.152567
 20
250.079205
 30
0.0
  0
POINT
  5
1D4
330
1C9
100
AcDbEntity
  8
Defpoints
 62
     0
100
AcDbPoint
 10
5.649873
 20
250.079205
 30
0.0
  0
ENDBLK
  5
1D6
330
1C9
100
AcDbEntity
  8
0
100
AcDbBlockEnd
  0
BLOCK
  5
1E3
330
1D9
100
AcDbEntity
  8
0
100
AcDbBlockBegin
  2
*D11
 70
     1
 71
     0
 10
0.0
 20
0.0
 30
0.0
  3
*D11
  1

  0
LINE
  5
1DA
330
1D9
100
AcDbEntity
  8
LC-003-003-----0
 62
     2
370
    -2
100
AcDbLine
 10
-20.847433
 20
324.266806
 30
0.0
 11
-20.847433
 21
360.162127
 31
0.0
  0
LINE
  5
1DB
330
1D9
100
AcDbEntity
  8
LC-003-003-----0
 62
     2
370
    -2
100
AcDbLine
 10
208.152567
 20
324.266806
 30
0.0
 11
208.152567
 21
360.162127
 31
0.0
  0
LINE
  5
1DC
330
1D9
100
AcDbEntity
  8
LC-003-003-----0
 62
     2
370
    -2
100
AcDbLine
 10
7.152567
 20
356.562127
 30
0.0
 11
180.152567
 21
356.562127
 31
0.0
  0
SOLID
  5
1DD
330
1D9
100
AcDbEntity
  8
LC-003-003-----0
 62
     2
100
AcDbTrace
 10
7.152567
 20
361.228793
 30
0.0
 11
7.152567
 21
351.89546
 31
0.0
 12
-20.847433
 22
356.562127
 32
0.0
 13
-20.847433
 23
356.562127
 33
0.0
  0
SOLID
  5
1DE
330
1D9
100
AcDbEntity
  8
LC-003-003-----0
 62
     2
100
AcDbTrace
 10
180.152567
 20
351.89546
 30
0.0
 11
180.152567
 21
361.228793
 31
0.0
 12
208.152567
 22
356.562127
 32
0.0
 13
208.152567
 23
356.562127
 33
0.0
  0
MTEXT
  5
1DF
330
1D9
100
AcDbEntity
  8
LC-003-003-----0
 62
     2
100
AcDbMText
 10
91.622664
 20
387.362127
 30
0.0
 40
28.0
 41
0.0
 71
     5
 72
     1
  1
\A1;%%c230
  7
LCTX15-400-0-0pDIN-Schrift
 73
     1
 44
1.0
  0
POINT
  5
1E0
330
1D9
100
AcDbEntity
  8
Defpoints
 62
     0
100
AcDbPoint
 10
-20.847433
 20
324.266806
 30
0.0
  0
POINT
  5
1E1
330
1D9
100
AcDbEntity
  8
Defpoints
 62
     0
100
AcDbPoint
 10
208.152567
 20
324.266806
 30
0.0
  0
POINT
  5
1E2
330
1D9
100
AcDbEntity
  8
Defpoints
 62
     0
100
AcDbPoint
 10
208.152567
 20
356.562127
 30
0.0
  0
ENDBLK
  5
1E4
330
1D9
100
AcDbEntity
  8
0
100
AcDbBlockEnd
  0
BLOCK
  5
1F0
330
1E6
100
AcDbEntity
  8
0
100
AcDbBlockBegin
  2
*D12
 70
     1
 71
     0
 10
0.0
 20
0.0
 30
0.0
  3
*D12
  1

  0
LINE
  5
1E7
330
1E6
100
AcDbEntity
  8
LC-003-003-----0
 62
     2
370
    -2
100
AcDbLine
 10
38.652567
 20
249.775534
 30
0.0
 11
38.652567
 21
105.898973
 31
0.0
  0
LINE
  5
1E8
330
1E6
100
AcDbEntity
  8
LC-003-003-----0
 62
     2
370
    -2
100
AcDbLine
 10
148.652567
 20
249.775534
 30
0.0
 11
148.652567
 21
105.898973
 31
0.0
  0
LINE
  5
1E9
330
1E6
100
AcDbEntity
  8
LC-003-003-----0
 62
     2
370
    -2
100
AcDbLine
 10
66.652567
 20
109.498973
 30
0.0
 11
120.652567
 21
109.498973
 31
0.0
  0
SOLID
  5
1EA
330
1E6
100
AcDbEntity
  8
LC-003-003-----0
 62
     2
100
AcDbTrace
 10
66.652567
 20
114.165639
 30
0.0
 11
66.652567
 21
104.832306
 31
0.0
 12
38.652567
 22
109.498973
 32
0.0
 13
38.652567
 23
109.498973
 33
0.0
  0
SOLID
  5
1EB
330
1E6
100
AcDbEntity
  8
LC-003-003-----0
 62
     2
100
AcDbTrace
 10
120.652567
 20
104.832306
 30
0.0
 11
120.652567
 21
114.165639
 31
0.0
 12
148.652567
 22
109.498973
 32
0.0
 13
148.652567
 23
109.498973
 33
0.0
  0
MTEXT
  5
1EC
330
1E6
100
AcDbEntity
  8
LC-003-003-----0
 62
     2
100
AcDbMText
 10
91.737877
 20
140.298973
 30
0.0
 40
28.0
 41
0.0
 71
     5
 72
     1
  1
%%c\A1;110
  7
LCTX15-400-0-0pDIN-Schrift
 73
     1
 44
1.0
  0
POINT
  5
1ED
330
1E6
100
AcDbEntity
  8
Defpoints
 62
     0
100
AcDbPoint
 10
38.652567
 20
249.775534
 30
0.0
  0
POINT
  5
1EE
330
1E6
100
AcDbEntity
  8
Defpoints
 62
     0
100
AcDbPoint
 10
148.652567
 20
249.775534
 30
0.0
  0
POINT
  5
1EF
330
1E6
100
AcDbEntity
  8
Defpoints
 62
     0
100
AcDbPoint
 10
148.652567
 20
109.498973
 30
0.0
  0
ENDBLK
  5
1F1
330
1E6
100
AcDbEntity
  8
0
100
AcDbBlockEnd
  0
BLOCK
  5
1FD
330
1F3
100
AcDbEntity
  8
0
100
AcDbBlockBegin
  2
*D13
 70
     1
 71
     0
 10
0.0
 20
0.0
 30
0.0
  3
*D13
  1

  0
LINE
  5
1F4
330
1F3
100
AcDbEntity
  8
LC-003-003-----0
 62
     2
370
    -2
100
AcDbLine
 10
30.652567
 20
295.079267
 30
0.0
 11
30.652567
 21
58.378973
 31
0.0
  0
LINE
  5
1F5
330
1F3
100
AcDbEntity
  8
LC-003-003-----0
 62
     2
370
    -2
100
AcDbLine
 10
156.652567
 20
295.079267
 30
0.0
 11
156.652567
 21
58.378973
 31
0.0
  0
LINE
  5
1F6
330
1F3
100
AcDbEntity
  8
LC-003-003-----0
 62
     2
370
    -2
100
AcDbLine
 10
58.652567
 20
61.978973
 30
0.0
 11
128.652567
 21
61.978973
 31
0.0
  0
SOLID
  5
1F7
330
1F3
100
AcDbEntity
  8
LC-003-003-----0
 62
     2
100
AcDbTrace
 10
58.652567
 20
66.645639
 30
0.0
 11
58.652567
 21
57.312306
 31
0.0
 12
30.652567
 22
61.978973
 32
0.0
 13
30.652567
 23
61.978973
 33
0.0
  0
SOLID
  5
1F8
330
1F3
100
AcDbEntity
  8
LC-003-003-----0
 62
     2
100
AcDbTrace
 10
128.652567
 20
57.312306
 30
0.0
 11
128.652567
 21
66.645639
 31
0.0
 12
156.652567
 22
61.978973
 32
0.0
 13
156.652567
 23
61.978973
 33
0.0
  0
MTEXT
  5
1F9
330
1F3
100
AcDbEntity
  8
LC-003-003-----0
 62
     2
100
AcDbMText
 10
92.802756
 20
92.778973
 30
0.0
 40
28.0
 41
0.0
 71
     5
 72
     1
  1
%%c\A1;126
  7
LCTX15-400-0-0pDIN-Schrift
 73
     1
 44
1.0
  0
POINT
  5
1FA
330
1F3
100
AcDbEntity
  8
Defpoints
 62
     0
100
AcDbPoint
 10
30.652567
 20
295.079267
 30
0.0
  0
POINT
  5
1FB
330
1F3
100
AcDbEntity
  8
Defpoints
 62
     0
100
AcDbPoint
 10
156.652567
 20
295.079267
 30
0.0
  0
POINT
  5
1FC
330
1F3
100
AcDbEntity
  8
Defpoints
 62
     0
100
AcDbPoint
 10
156.652567
 20
61.978973
 30
0.0
  0
ENDBLK
  5
1FE
330
1F3
100
AcDbEntity
  8
0
100
AcDbBlockEnd
  0
BLOCK
  5
20A
330
200
100
AcDbEntity
  8
0
100
AcDbBlockBegin
  2
*D14
 70
     1
 71
     0
 10
0.0
 20
0.0
 30
0.0
  3
*D14
  1

  0
LINE
  5
201
330
200
100
AcDbEntity
  8
LC-003-003-----0
 62
     2
370
    -2
100
AcDbLine
 10
-20.847433
 20
324.266806
 30
0.0
 11
-86.502288
 21
324.266806
 31
0.0
  0
LINE
  5
202
330
200
100
AcDbEntity
  8
LC-003-003-----0
 62
     2
370
    -2
100
AcDbLine
 10
44.892426
 20
235.079267
 30
0.0
 11
-86.502288
 21
235.079267
 31
0.0
  0
LINE
  5
203
330
200
100
AcDbEntity
  8
LC-003-003-----0
 62
     2
370
    -2
100
AcDbLine
 10
-82.902288
 20
296.266806
 30
0.0
 11
-82.902288
 21
263.079267
 31
0.0
  0
SOLID
  5
204
330
200
100
AcDbEntity
  8
LC-003-003-----0
 62
     2
100
AcDbTrace
 10
-78.235621
 20
296.266806
 30
0.0
 11
-87.568955
 21
296.266806
 31
0.0
 12
-82.902288
 22
324.266806
 32
0.0
 13
-82.902288
 23
324.266806
 33
0.0
  0
SOLID
  5
205
330
200
100
AcDbEntity
  8
LC-003-003-----0
 62
     2
100
AcDbTrace
 10
-87.568955
 20
263.079267
 30
0.0
 11
-78.235621
 21
263.079267
 31
0.0
 12
-82.902288
 22
235.079267
 32
0.0
 13
-82.902288
 23
235.079267
 33
0.0
  0
MTEXT
  5
206
330
200
100
AcDbEntity
  8
LC-003-003-----0
 62
     2
100
AcDbMText
 10
-113.702288
 20
275.818973
 30
0.0
 40
28.0
 41
0.0
 71
     5
 72
     1
  1
\A1;90
  7
LCTX15-400-0-0pDIN-Schrift
 11
6.123031769111886E-17
 21
1.0
 31
0.0
 73
     1
 44
1.0
  0
POINT
  5
207
330
200
100
AcDbEntity
  8
Defpoints
 62
     0
100
AcDbPoint
 10
-20.847433
 20
324.266806
 30
0.0
  0
POINT
  5
208
330
200
100
AcDbEntity
  8
Defpoints
 62
     0
100
AcDbPoint
 10
44.892426
 20
235.079267
 30
0.0
  0
POINT
  5
209
330
200
100
AcDbEntity
  8
Defpoints
 62
     0
100
AcDbPoint
 10
-82.902288
 20
235.079267
 30
0.0
  0
ENDBLK
  5
20B
330
200
100
AcDbEntity
  8
0
100
AcDbBlockEnd
  0
BLOCK
  5
219
330
20D
100
AcDbEntity
  8
0
100
AcDbBlockBegin
  2
*D15
 70
     1
 71
     0
 10
0.0
 20
0.0
 30
0.0
  3
*D15
  1

  0
LINE
  5
20E
330
20D
100
AcDbEntity
  8
LC-003-003-----0
 62
     2
370
    -2
100
AcDbLine
 10
44.892426
 20
235.079267
 30
0.0
 11
-44.972005
 21
235.079267
 31
0.0
  0
LINE
  5
20F
330
20D
100
AcDbEntity
  8
LC-003-003-----0
 62
     2
370
    -2
100
AcDbLine
 10
69.590389
 20
177.079267
 30
0.0
 11
-44.972005
 21
177.079267
 31
0.0
  0
LINE
  5
210
330
20D
100
AcDbEntity
  8
LC-003-003-----0
 62
     2
370
    -2
100
AcDbLine
 10
-41.372005
 20
263.079267
 30
0.0
 11
-41.372005
 21
291.079267
 31
0.0
  0
LINE
  5
211
330
20D
100
AcDbEntity
  8
LC-003-003-----0
 62
     2
370
    -2
100
AcDbLine
 10
-41.372005
 20
149.079267
 30
0.0
 11
-41.372005
 21
121.079267
 31
0.0
  0
LINE
  5
212
330
20D
100
AcDbEntity
  8
LC-003-003-----0
 62
     2
370
    -2
100
AcDbLine
 10
-41.372005
 20
235.079267
 30
0.0
 11
-41.372005
 21
177.079267
 31
0.0
  0
SOLID
  5
213
330
20D
100
AcDbEntity
  8
LC-003-003-----0
 62
     2
100
AcDbTrace
 10
-46.038672
 20
263.079267
 30
0.0
 11
-36.705338
 21
263.079267
 31
0.0
 12
-41.372005
 22
235.079267
 32
0.0
 13
-41.372005
 23
235.079267
 33
0.0
  0
SOLID
  5
214
330
20D
100
AcDbEntity
  8
LC-003-003-----0
 62
     2
100
AcDbTrace
 10
-36.705338
 20
149.079267
 30
0.0
 11
-46.038672
 21
149.079267
 31
0.0
 12
-41.372005
 22
177.079267
 32
0.0
 13
-41.372005
 23
177.079267
 33
0.0
  0
MTEXT
  5
215
330
20D
100
AcDbEntity
  8
LC-003-003-----0
 62
     2
100
AcDbMText
 10
-72.172005
 20
203.350973
 30
0.0
 40
28.0
 41
0.0
 71
     5
 72
     1
  1
\A1;58
  7
LCTX15-400-0-0pDIN-Schrift
 11
6.123031769111886E-17
 21
1.0
 31
0.0
 73
     1
 44
1.0
  0
POINT
  5
216
330
20D
100
AcDbEntity
  8
Defpoints
 62
     0
100
AcDbPoint
 10
44.892426
 20
235.079267
 30
0.0
  0
POINT
  5
217
330
20D
100
AcDbEntity
  8
Defpoints
 62
     0
100
AcDbPoint
 10
69.590389
 20
177.079267
 30
0.0
  0
POINT
  5
218
330
20D
100
AcDbEntity
  8
Defpoints
 62
     0
100
AcDbPoint
 10
-41.372005
 20
177.079267
 30
0.0
  0
ENDBLK
  5
21A
330
20D
100
AcDbEntity
  8
0
100
AcDbBlockEnd
  0
ENDSEC
  0
SECTION
  2
ENTITIES
  0
LINE
  5
32
330
1F
100
AcDbEntity
  8
LC-001-002-----0
 62
     7
370
    25
100
AcDbLine
 10
93.652567
 20
327.748684
 30
0.0
 11
93.652567
 21
177.079267
 31
0.0
  0
LINE
  5
34
330
1F
100
AcDbEntity
  8
LC-002-100-D00-0
 62
     7
370
    50
100
AcDbLine
 10
126.652567
 20
322.844345
 30
0.0
 11
126.652567
 21
325.844345
 31
0.0
  0
LINE
  5
35
330
1F
100
AcDbEntity
  8
LC-002-100-D00-0
 62
     7
370
    50
100
AcDbLine
 10
103.402567
 20
315.079205
 30
0.0
 11
103.402567
 21
316.079205
 31
0.0
  0
ARC
  5
36
330
1F
100
AcDbEntity
  8
LC-002-100-D00-0
 62
     7
370
    50
100
AcDbCircle
 10
98.402567
 20
316.079205
 30
0.0
 40
5.0
100
AcDbArc
 50
0.0
 51
90.0
  0
LINE
  5
37
330
1F
100
AcDbEntity
  8
LC-002-100-D00-0
 62
     7
370
    50
100
AcDbLine
 10
88.902567
 20
321.079205
 30
0.0
 11
98.402567
 21
321.079205
 31
0.0
  0
ARC
  5
38
330
1F
100
AcDbEntity
  8
LC-002-100-D00-0
 62
     7
370
    50
100
AcDbCircle
 10
88.902567
 20
316.079205
 30
0.0
 40
5.0
100
AcDbArc
 50
90.0
 51
180.0
  0
LINE
  5
39
330
1F
100
AcDbEntity
  8
LC-002-100-D00-0
 62
     7
370
    50
100
AcDbLine
 10
83.902567
 20
315.079205
 30
0.0
 11
83.902567
 21
316.079205
 31
0.0
  0
LINE
  5
3A
330
1F
100
AcDbEntity
  8
LC-002-100-D00-0
 62
     7
370
    50
100
AcDbLine
 10
83.902567
 20
315.079205
 30
0.0
 11
103.402567
 21
315.079205
 31
0.0
  0
LINE
  5
3B
330
1F
100
AcDbEntity
  8
LC-002-100-D00-0
 62
     7
370
    50
100
AcDbLine
 10
79.902567
 20
316.079205
 30
0.0
 11
79.902567
 21
315.079205
 31
0.0
  0
ARC
  5
3C
330
1F
100
AcDbEntity
  8
LC-002-100-D00-0
 62
     7
370
    50
100
AcDbCircle
 10
88.902567
 20
316.079205
 30
0.0
 40
9.0
100
AcDbArc
 50
90.0
 51
180.0
  0
LINE
  5
3D
330
1F
100
AcDbEntity
  8
LC-002-100-D00-0
 62
     7
370
    50
100
AcDbLine
 10
98.402567
 20
325.079205
 30
0.0
 11
88.902567
 21
325.079205
 31
0.0
  0
ARC
  5
3E
330
1F
100
AcDbEntity
  8
LC-002-100-D00-0
 62
     7
370
    50
100
AcDbCircle
 10
98.402567
 20
316.079205
 30
0.0
 40
9.0
100
AcDbArc
 50
0.0
 51
90.0
  0
LINE
  5
3F
330
1F
100
AcDbEntity
  8
LC-002-100-D00-0
 62
     7
370
    50
100
AcDbLine
 10
107.402567
 20
316.079205
 30
0.0
 11
107.402567
 21
315.079205
 31
0.0
  0
LINE
  5
40
330
1F
100
AcDbEntity
  8
LC-002-100-D00-0
 62
     7
370
    50
100
AcDbLine
 10
107.402567
 20
315.079205
 30
0.0
 11
121.152567
 21
315.079205
 31
0.0
  0
ARC
  5
41
330
1F
100
AcDbEntity
  8
LC-002-100-D00-0
 62
     7
370
    50
100
AcDbCircle
 10
121.152567
 20
303.079205
 30
0.0
 40
12.00000000000001
100
AcDbArc
 50
0.0
 51
90.0
  0
LINE
  5
42
330
1F
100
AcDbEntity
  8
LC-002-100-D00-0
 62
     7
370
    50
100
AcDbLine
 10
133.152567
 20
303.079205
 30
0.0
 11
133.152567
 21
250.079205
 31
0.0
  0
LINE
  5
43
330
1F
100
AcDbEntity
  8
LC-002-100-D00-0
 62
     7
370
    50
100
AcDbLine
 10
133.152567
 20
250.079205
 30
0.0
 11
131.652567
 21
250.079205
 31
0.0
  0
LINE
  5
44
330
1F
100
AcDbEntity
  8
LC-002-100-D00-0
 62
     7
370
    50
100
AcDbLine
 10
131.652567
 20
250.079205
 30
0.0
 11
131.652567
 21
285.079205
 31
0.0
  0
LINE
  5
45
330
1F
100
AcDbEntity
  8
LC-002-100-D00-0
 62
     7
370
    50
100
AcDbLine
 10
131.652567
 20
285.079205
 30
0.0
 11
119.626287
 21
285.079205
 31
0.0
  0
LINE
  5
46
330
1F
100
AcDbEntity
  8
LC-002-100-D00-0
 62
     7
370
    50
100
AcDbLine
 10
119.626287
 20
285.079205
 30
0.0
 11
118.152567
 21
290.579205
 31
0.0
  0
LINE
  5
47
330
1F
100
AcDbEntity
  8
LC-002-100-D00-0
 62
     7
370
    50
100
AcDbLine
 10
118.152567
 20
290.579205
 30
0.0
 11
118.152567
 21
300.079205
 31
0.0
  0
LINE
  5
48
330
1F
100
AcDbEntity
  8
LC-002-100-D00-0
 62
     7
370
    50
100
AcDbLine
 10
118.152567
 20
300.079205
 30
0.0
 11
115.652567
 21
300.079205
 31
0.0
  0
LINE
  5
49
330
1F
100
AcDbEntity
  8
LC-002-100-D00-0
 62
     7
370
    50
100
AcDbLine
 10
115.652567
 20
297.579205
 30
0.0
 11
115.652567
 21
300.079205
 31
0.0
  0
LINE
  5
4A
330
1F
100
AcDbEntity
  8
LC-002-100-D00-0
 62
     7
370
    50
100
AcDbLine
 10
115.116668
 20
295.579205
 30
0.0
 11
115.652567
 21
297.579205
 31
0.0
  0
LINE
  5
4B
330
1F
100
AcDbEntity
  8
LC-002-100-D00-0
 62
     7
370
    50
100
AcDbLine
 10
111.652567
 20
295.579205
 30
0.0
 11
115.116668
 21
295.579205
 31
0.0
  0
LINE
  5
4C
330
1F
100
AcDbEntity
  8
LC-002-100-D00-0
 62
     7
370
    50
100
AcDbLine
 10
111.652567
 20
295.579205
 30
0.0
 11
111.652567
 21
313.079205
 31
0.0
  0
LINE
  5
4D
330
1F
100
AcDbEntity
  8
LC-002-100-D00-0
 62
     7
370
    50
100
AcDbLine
 10
111.652567
 20
313.079205
 30
0.0
 11
65.652567
 21
313.079205
 31
0.0
  0
ARC
  5
4E
330
1F
100
AcDbEntity
  8
LC-002-100-D00-0
 62
     7
370
    50
100
AcDbCircle
 10
65.652567
 20
303.079205
 30
0.0
 40
10.0
100
AcDbArc
 50
90.0
 51
180.0
  0
LINE
  5
4F
330
1F
100
AcDbEntity
  8
LC-002-100-D00-0
 62
     7
370
    50
100
AcDbLine
 10
55.652567
 20
303.079205
 30
0.0
 11
55.652567
 21
250.079205
 31
0.0
  0
LINE
  5
50
330
1F
100
AcDbEntity
  8
LC-002-100-D00-0
 62
     7
370
    50
100
AcDbLine
 10
55.652567
 20
250.079205
 30
0.0
 11
54.152567
 21
250.079205
 31
0.0
  0
LINE
  5
51
330
1F
100
AcDbEntity
  8
LC-002-100-D00-0
 62
     7
370
    50
100
AcDbLine
 10
54.152567
 20
250.079205
 30
0.0
 11
54.152567
 21
303.079205
 31
0.0
  0
ARC
  5
52
330
1F
100
AcDbEntity
  8
LC-002-100-D00-0
 62
     7
370
    50
100
AcDbCircle
 10
66.152567
 20
303.079205
 30
0.0
 40
12.0
100
AcDbArc
 50
90.0
 51
180.0
  0
LINE
  5
53
330
1F
100
AcDbEntity
  8
LC-002-100-D00-0
 62
     7
370
    50
100
AcDbLine
 10
66.152567
 20
315.079205
 30
0.0
 11
79.902567
 21
315.079205
 31
0.0
  0
LINE
  5
54
330
1F
100
AcDbEntity
  8
LC-002-100-D00-0
 62
     7
370
    50
100
AcDbLine
 10
55.652567
 20
303.079205
 30
0.0
 11
73.8676
 21
303.079205
 31
0.0
  0
LINE
  5
55
330
1F
100
AcDbEntity
  8
LC-002-100-D00-0
 62
     7
370
    50
100
AcDbLine
 10
55.652567
 20
250.079205
 30
0.0
 11
69.152567
 21
250.079205
 31
0.0
  0
LINE
  5
56
330
1F
100
AcDbEntity
  8
LC-002-100-D00-0
 62
     7
370
    50
100
AcDbLine
 10
118.152567
 20
250.079205
 30
0.0
 11
131.652567
 21
250.079205
 31
0.0
  0
INSERT
  5
68
330
1F
100
AcDbEntity
  8
LC-002-100-D00-0
 62
     7
370
    50
100
AcDbBlockReference
  2
POLY1
 10
0.0
 20
0.0
 30
0.0
  0
LINE
  5
69
330
1F
100
AcDbEntity
  8
LC-002-100-D00-0
 62
     7
370
    50
100
AcDbLine
 10
80.63857
 20
299.579267
 30
0.0
 11
80.634791
 21
300.079205
 31
0.0
  0
LINE
  5
6A
330
1F
100
AcDbEntity
  8
LC-002-100-D00-0
 62
     7
370
    50
100
AcDbLine
 10
83.918801
 20
295.579205
 30
0.0
 11
83.786541
 21
313.079205
 31
0.0
  0
LINE
  5
6B
330
1F
100
AcDbEntity
  8
LC-002-100-D00-0
 62
     7
370
    50
100
AcDbLine
 10
82.18675
 20
295.579205
 30
0.0
 11
83.918801
 21
295.579205
 31
0.0
  0
LINE
  5
6C
330
1F
100
AcDbEntity
  8
LC-002-100-D00-0
 62
     7
370
    50
100
AcDbLine
 10
81.912654
 20
297.515837
 30
0.0
 11
82.18675
 21
295.579205
 31
0.0
  0
LINE
  5
6D
330
1F
100
AcDbEntity
  8
LC-002-100-D00-0
 62
     7
370
    50
100
AcDbLine
 10
81.88857
 20
299.579267
 30
0.0
 11
81.884791
 21
300.079205
 31
0.0
  0
LINE
  5
6E
330
1F
100
AcDbEntity
  8
LC-002-100-D00-0
 62
     7
370
    50
100
AcDbLine
 10
80.634791
 20
300.079205
 30
0.0
 11
81.884791
 21
300.079205
 31
0.0
  0
LINE
  5
6F
330
1F
100
AcDbEntity
  8
LC-002-100-D00-0
 62
     7
370
    50
100
AcDbLine
 10
85.386333
 20
295.579205
 30
0.0
 11
85.518592
 21
313.079205
 31
0.0
  0
LINE
  5
70
330
1F
100
AcDbEntity
  8
LC-002-100-D00-0
 62
     7
370
    50
100
AcDbLine
 10
83.918801
 20
295.579205
 30
0.0
 11
85.386333
 21
295.579205
 31
0.0
  0
LINE
  5
71
330
1F
100
AcDbEntity
  8
LC-002-100-D00-0
 62
     7
370
    50
100
AcDbLine
 10
-18.78118
 20
327.748684
 30
0.0
 11
206.086314
 21
327.748684
 31
0.0
  0
ARC
  5
72
330
1F
100
AcDbEntity
  8
LC-002-100-D00-0
 62
     7
370
    50
100
AcDbCircle
 10
-18.847433
 20
325.749782
 30
0.0
 40
2.000000000000045
100
AcDbArc
 50
88.101637
 51
180.0
  0
ARC
  5
73
330
1F
100
AcDbEntity
  8
LC-002-100-D00-0
 62
     7
370
    50
100
AcDbCircle
 10
206.152567
 20
325.749782
 30
0.0
 40
2.0
100
AcDbArc
 50
0.0
 51
91.898363
  0
LINE
  5
74
330
1F
100
AcDbEntity
  8
LC-002-100-D00-0
 62
     7
370
    50
100
AcDbLine
 10
44.324812
 20
239.802795
 30
0.0
 11
41.70368
 21
249.584781
 31
0.0
  0
ARC
  5
75
330
1F
100
AcDbEntity
  8
LC-002-100-D00-0
 62
     7
370
    50
100
AcDbCircle
 10
47.222585
 20
240.579267
 30
0.0
 40
3.000000000000023
100
AcDbArc
 50
195.000309
 51
270.0
  0
LINE
  5
76
330
1F
100
AcDbEntity
  8
LC-002-100-D00-0
 62
     7
370
    50
100
AcDbLine
 10
67.652567
 20
237.579267
 30
0.0
 11
47.222585
 21
237.579267
 31
0.0
  0
ARC
  5
77
330
1F
100
AcDbEntity
  8
LC-002-100-D00-0
 62
     7
370
    50
100
AcDbCircle
 10
67.652567
 20
239.079267
 30
0.0
 40
1.5
100
AcDbArc
 50
270.0
 51
0.0
  0
LINE
  5
78
330
1F
100
AcDbEntity
  8
LC-002-100-D00-0
 62
     7
370
    50
100
AcDbLine
 10
69.152567
 20
239.079267
 30
0.0
 11
69.152567
 21
299.579267
 31
0.0
  0
LINE
  5
79
330
1F
100
AcDbEntity
  8
LC-002-100-D00-0
 62
     7
370
    50
100
AcDbLine
 10
69.152567
 20
299.579267
 30
0.0
 11
71.652567
 21
299.579267
 31
0.0
  0
LINE
  5
7A
330
1F
100
AcDbEntity
  8
LC-002-100-D00-0
 62
     7
370
    50
100
AcDbLine
 10
71.652567
 20
299.579267
 30
0.0
 11
71.652567
 21
177.079267
 31
0.0
  0
LINE
  5
7B
330
1F
100
AcDbEntity
  8
LC-002-100-D00-0
 62
     7
370
    50
100
AcDbLine
 10
69.590389
 20
177.079267
 30
0.0
 11
71.652567
 21
177.079267
 31
0.0
  0
LINE
  5
7C
330
1F
100
AcDbEntity
  8
LC-002-100-D00-0
 62
     7
370
    50
100
AcDbLine
 10
68.652567
 20
180.579267
 30
0.0
 11
69.590389
 21
177.079267
 31
0.0
  0
LINE
  5
7D
330
1F
100
AcDbEntity
  8
LC-002-100-D00-0
 62
     7
370
    50
100
AcDbLine
 10
68.652567
 20
180.579267
 30
0.0
 11
68.652567
 21
235.079267
 31
0.0
  0
LINE
  5
7E
330
1F
100
AcDbEntity
  8
LC-002-100-D00-0
 62
     7
370
    50
100
AcDbLine
 10
68.652567
 20
235.079267
 30
0.0
 11
44.892426
 21
235.079267
 31
0.0
  0
ARC
  5
7F
330
1F
100
AcDbEntity
  8
LC-002-100-D00-0
 62
     7
370
    50
100
AcDbCircle
 10
44.892426
 20
238.079267
 30
0.0
 40
3.000000000000007
100
AcDbArc
 50
195.000108
 51
270.0
  0
LINE
  5
80
330
1F
100
AcDbEntity
  8
LC-002-100-D00-0
 62
     7
370
    50
100
AcDbLine
 10
41.99465
 20
237.302805
 30
0.0
 11
38.652567
 21
249.775534
 31
0.0
  0
LINE
  5
81
330
1F
100
AcDbEntity
  8
LC-002-100-D00-0
 62
     7
370
    50
100
AcDbLine
 10
38.652567
 20
249.775534
 30
0.0
 11
38.652567
 21
292.079267
 31
0.0
  0
LINE
  5
82
330
1F
100
AcDbEntity
  8
LC-002-100-D00-0
 62
     7
370
    50
100
AcDbLine
 10
38.652567
 20
292.079267
 30
0.0
 11
33.652567
 21
292.079267
 31
0.0
  0
ARC
  5
83
330
1F
100
AcDbEntity
  8
LC-002-100-D00-0
 62
     7
370
    50
100
AcDbCircle
 10
33.652567
 20
295.079267
 30
0.0
 40
3.0
100
AcDbArc
 50
180.0
 51
270.0
  0
LINE
  5
84
330
1F
100
AcDbEntity
  8
LC-002-100-D00-0
 62
     7
370
    50
100
AcDbLine
 10
30.652567
 20
306.004724
 30
0.0
 11
30.652567
 21
295.079267
 31
0.0
  0
LINE
  5
85
330
1F
100
AcDbEntity
  8
LC-002-100-D00-0
 62
     7
370
    50
100
AcDbLine
 10
26.550515
 20
306.004724
 30
0.0
 11
30.652567
 21
306.004724
 31
0.0
  0
ARC
  5
86
330
1F
100
AcDbEntity
  8
LC-002-100-D00-0
 62
     7
370
    50
100
AcDbCircle
 10
23.652567
 20
310.079267
 30
0.0
 40
5.000000000000043
100
AcDbArc
 50
234.578322
 51
305.421678
  0
LINE
  5
87
330
1F
100
AcDbEntity
  8
LC-002-100-D00-0
 62
     7
370
    50
100
AcDbLine
 10
17.652567
 20
306.004724
 30
0.0
 11
20.754619
 21
306.004724
 31
0.0
  0
LINE
  5
88
330
1F
100
AcDbEntity
  8
LC-002-100-D00-0
 62
     7
370
    50
100
AcDbLine
 10
17.652567
 20
306.004724
 30
0.0
 11
17.652567
 21
315.504724
 31
0.0
  0
LINE
  5
89
330
1F
100
AcDbEntity
  8
LC-002-100-D00-0
 62
     7
370
    50
100
AcDbLine
 10
10.679699
 20
315.504724
 30
0.0
 11
17.652567
 21
315.504724
 31
0.0
  0
LINE
  5
8A
330
1F
100
AcDbEntity
  8
LC-002-100-D00-0
 62
     7
370
    50
100
AcDbLine
 10
8.001295
 20
317.883465
 30
0.0
 11
10.679699
 21
315.504724
 31
0.0
  0
LINE
  5
8B
330
1F
100
AcDbEntity
  8
LC-002-100-D00-0
 62
     7
370
    50
100
AcDbLine
 10
-11.8654
 20
323.957323
 30
0.0
 11
8.001295
 21
317.883465
 31
0.0
  0
LINE
  5
8C
330
1F
100
AcDbEntity
  8
LC-002-100-D00-0
 62
     7
370
    50
100
AcDbLine
 10
-20.847433
 20
324.266806
 30
0.0
 11
-11.8654
 21
323.957323
 31
0.0
  0
LINE
  5
8D
330
1F
100
AcDbEntity
  8
LC-002-100-D00-0
 62
     7
370
    50
100
AcDbLine
 10
-20.847433
 20
324.266806
 30
0.0
 11
-20.847433
 21
325.749782
 31
0.0
  0
LINE
  5
8E
330
1F
100
AcDbEntity
  8
LC-002-100-D00-0
 62
     7
370
    50
100
AcDbLine
 10
-18.78118
 20
327.748684
 30
0.0
 11
-11.506679
 21
327.507572
 31
0.0
  0
LINE
  5
8F
330
1F
100
AcDbEntity
  8
LC-002-100-D00-0
 62
     7
370
    50
100
AcDbLine
 10
-11.506679
 20
327.507572
 30
0.0
 11
8.652567
 21
321.344272
 31
0.0
  0
LINE
  5
90
330
1F
100
AcDbEntity
  8
LC-002-100-D00-0
 62
     7
370
    50
100
AcDbLine
 10
8.652567
 20
321.344272
 30
0.0
 11
10.652567
 21
321.344272
 31
0.0
  0
LINE
  5
91
330
1F
100
AcDbEntity
  8
LC-002-100-D00-0
 62
     7
370
    50
100
AcDbLine
 10
10.652567
 20
321.344272
 30
0.0
 11
10.652567
 21
317.844272
 31
0.0
  0
LINE
  5
92
330
1F
100
AcDbEntity
  8
LC-002-100-D00-0
 62
     7
370
    50
100
AcDbLine
 10
17.652567
 20
317.844272
 30
0.0
 11
17.652567
 21
321.344272
 31
0.0
  0
LINE
  5
93
330
1F
100
AcDbEntity
  8
LC-002-100-D00-0
 62
     7
370
    50
100
AcDbLine
 10
17.652567
 20
321.344272
 30
0.0
 11
18.363892
 21
321.344272
 31
0.0
  0
LINE
  5
94
330
1F
100
AcDbEntity
  8
LC-002-100-D00-0
 62
     7
370
    50
100
AcDbLine
 10
18.363892
 20
321.344272
 30
0.0
 11
18.652567
 21
321.844272
 31
0.0
  0
LINE
  5
95
330
1F
100
AcDbEntity
  8
LC-002-100-D00-0
 62
     7
370
    50
100
AcDbLine
 10
18.652567
 20
321.344272
 30
0.0
 11
18.652567
 21
321.844272
 31
0.0
  0
LINE
  5
96
330
1F
100
AcDbEntity
  8
LC-002-100-D00-0
 62
     7
370
    50
100
AcDbLine
 10
18.652567
 20
321.344272
 30
0.0
 11
21.152567
 21
321.344272
 31
0.0
  0
LINE
  5
97
330
1F
100
AcDbEntity
  8
LC-002-100-D00-0
 62
     7
370
    50
100
AcDbLine
 10
21.152567
 20
321.344272
 30
0.0
 11
21.152567
 21
308.844272
 31
0.0
  0
LINE
  5
98
330
1F
100
AcDbEntity
  8
LC-002-100-D00-0
 62
     7
370
    50
100
AcDbLine
 10
21.152567
 20
308.844272
 30
0.0
 11
21.652567
 21
308.344272
 31
0.0
  0
LINE
  5
99
330
1F
100
AcDbEntity
  8
LC-002-100-D00-0
 62
     7
370
    50
100
AcDbLine
 10
25.652567
 20
308.344272
 30
0.0
 11
21.652567
 21
308.344272
 31
0.0
  0
LINE
  5
9A
330
1F
100
AcDbEntity
  8
LC-002-100-D00-0
 62
     7
370
    50
100
AcDbLine
 10
25.652567
 20
308.344272
 30
0.0
 11
26.152567
 21
308.844272
 31
0.0
  0
LINE
  5
9B
330
1F
100
AcDbEntity
  8
LC-002-100-D00-0
 62
     7
370
    50
100
AcDbLine
 10
26.152567
 20
308.844272
 30
0.0
 11
26.152567
 21
321.344272
 31
0.0
  0
LINE
  5
9C
330
1F
100
AcDbEntity
  8
LC-002-100-D00-0
 62
     7
370
    50
100
AcDbLine
 10
26.152567
 20
321.344272
 30
0.0
 11
28.652567
 21
321.344272
 31
0.0
  0
LINE
  5
9D
330
1F
100
AcDbEntity
  8
LC-002-100-D00-0
 62
     7
370
    50
100
AcDbLine
 10
28.652567
 20
321.844085
 30
0.0
 11
28.652567
 21
321.344272
 31
0.0
  0
LINE
  5
9E
330
1F
100
AcDbEntity
  8
LC-002-100-D00-0
 62
     7
370
    50
100
AcDbLine
 10
28.652567
 20
321.844085
 30
0.0
 11
28.652675
 21
321.844272
 31
0.0
  0
LINE
  5
9F
330
1F
100
AcDbEntity
  8
LC-002-100-D00-0
 62
     7
370
    50
100
AcDbLine
 10
28.652675
 20
321.844272
 30
0.0
 11
28.94135
 21
321.344272
 31
0.0
  0
LINE
  5
A0
330
1F
100
AcDbEntity
  8
LC-002-100-D00-0
 62
     7
370
    50
100
AcDbLine
 10
28.94135
 20
321.344272
 30
0.0
 11
29.652567
 21
321.344272
 31
0.0
  0
LINE
  5
A1
330
1F
100
AcDbEntity
  8
LC-002-100-D00-0
 62
     7
370
    50
100
AcDbLine
 10
29.652567
 20
321.344272
 30
0.0
 11
29.652567
 21
322.844345
 31
0.0
  0
LINE
  5
A2
330
1F
100
AcDbEntity
  8
LC-002-100-D00-0
 62
     7
370
    50
100
AcDbLine
 10
30.652567
 20
322.844345
 30
0.0
 11
29.652567
 21
322.844345
 31
0.0
  0
LINE
  5
A3
330
1F
100
AcDbEntity
  8
LC-002-100-D00-0
 62
     7
370
    50
100
AcDbLine
 10
30.652567
 20
322.844345
 30
0.0
 11
30.652567
 21
325.844345
 31
0.0
  0
LINE
  5
A4
330
1F
100
AcDbEntity
  8
LC-002-100-D00-0
 62
     7
370
    50
100
AcDbLine
 10
32.652567
 20
325.844345
 30
0.0
 11
30.652567
 21
325.844345
 31
0.0
  0
LINE
  5
A5
330
1F
100
AcDbEntity
  8
LC-002-100-D00-0
 62
     7
370
    50
100
AcDbLine
 10
32.652567
 20
325.844345
 30
0.0
 11
32.652567
 21
322.844345
 31
0.0
  0
LINE
  5
A6
330
1F
100
AcDbEntity
  8
LC-002-100-D00-0
 62
     7
370
    50
100
AcDbLine
 10
32.652567
 20
322.844345
 30
0.0
 11
32.652461
 21
322.844345
 31
0.0
  0
LINE
  5
A7
330
1F
100
AcDbEntity
  8
LC-002-100-D00-0
 62
     7
370
    50
100
AcDbLine
 10
32.652461
 20
322.844345
 30
0.0
 11
33.652567
 21
321.844272
 31
0.0
  0
LINE
  5
A8
330
1F
100
AcDbEntity
  8
LC-002-100-D00-0
 62
     7
370
    50
100
AcDbLine
 10
33.652567
 20
321.844272
 30
0.0
 11
33.652567
 21
295.079267
 31
0.0
  0
LINE
  5
A9
330
1F
100
AcDbEntity
  8
LC-002-100-D00-0
 62
     7
370
    50
100
AcDbLine
 10
33.652567
 20
295.079267
 30
0.0
 11
41.652567
 21
295.079267
 31
0.0
  0
LINE
  5
AA
330
1F
100
AcDbEntity
  8
LC-002-100-D00-0
 62
     7
370
    50
100
AcDbLine
 10
41.652567
 20
249.973017
 30
0.0
 11
41.652567
 21
295.079267
 31
0.0
  0
ARC
  5
AB
330
1F
100
AcDbEntity
  8
LC-002-100-D00-0
 62
     7
370
    50
100
AcDbCircle
 10
43.152567
 20
249.973017
 30
0.0
 40
1.500000000000028
100
AcDbArc
 50
180.0
 51
195.000309
  0
LINE
  5
AC
330
1F
100
AcDbEntity
  8
LC-002-100-D00-0
 62
     7
370
    50
100
AcDbLine
 10
10.652567
 20
317.844272
 30
0.0
 11
17.652567
 21
317.844272
 31
0.0
  0
LINE
  5
AD
330
1F
100
AcDbEntity
  8
LC-002-100-D00-0
 62
     7
370
    50
100
AcDbLine
 10
10.652567
 20
321.344272
 30
0.0
 11
17.652567
 21
321.344272
 31
0.0
  0
LINE
  5
AE
330
1F
100
AcDbEntity
  8
LC-002-100-D00-0
 62
     7
370
    50
100
AcDbLine
 10
169.652567
 20
321.344272
 30
0.0
 11
176.652567
 21
321.344272
 31
0.0
  0
LINE
  5
AF
330
1F
100
AcDbEntity
  8
LC-002-100-D00-0
 62
     7
370
    50
100
AcDbLine
 10
176.652567
 20
317.844272
 30
0.0
 11
176.652567
 21
321.344272
 31
0.0
  0
LINE
  5
B0
330
1F
100
AcDbEntity
  8
LC-002-100-D00-0
 62
     7
370
    50
100
AcDbLine
 10
208.152567
 20
325.749782
 30
0.0
 11
208.152567
 21
324.266806
 31
0.0
  0
LINE
  5
B1
330
1F
100
AcDbEntity
  8
LC-002-100-D00-0
 62
     7
370
    50
100
AcDbLine
 10
148.652567
 20
292.079267
 30
0.0
 11
148.652567
 21
249.775534
 31
0.0
  0
LINE
  5
B2
330
1F
100
AcDbEntity
  8
LC-002-100-D00-0
 62
     7
370
    50
100
AcDbLine
 10
169.652567
 20
321.344272
 30
0.0
 11
169.652567
 21
317.844272
 31
0.0
  0
LINE
  5
B3
330
1F
100
AcDbEntity
  8
LC-002-100-D00-0
 62
     7
370
    50
100
AcDbLine
 10
118.652567
 20
235.079267
 30
0.0
 11
118.652567
 21
180.579267
 31
0.0
  0
ARC
  5
B4
330
1F
100
AcDbEntity
  8
LC-002-100-D00-0
 62
     7
370
    50
100
AcDbCircle
 10
119.652567
 20
239.079267
 30
0.0
 40
1.5
100
AcDbArc
 50
180.0
 51
270.0
  0
LINE
  5
B5
330
1F
100
AcDbEntity
  8
LC-002-100-D00-0
 62
     7
370
    50
100
AcDbLine
 10
118.152567
 20
299.579267
 30
0.0
 11
118.152567
 21
239.079267
 31
0.0
  0
LINE
  5
B6
330
1F
100
AcDbEntity
  8
LC-002-100-D00-0
 62
     7
370
    50
100
AcDbLine
 10
156.652567
 20
295.079267
 30
0.0
 11
156.652567
 21
306.004724
 31
0.0
  0
LINE
  5
B7
330
1F
100
AcDbEntity
  8
LC-002-100-D00-0
 62
     7
370
    50
100
AcDbLine
 10
71.652567
 20
299.579267
 30
0.0
 11
81.88857
 21
299.579267
 31
0.0
  0
LINE
  5
B8
330
1F
100
AcDbEntity
  8
LC-002-100-D00-0
 62
     7
370
    50
100
AcDbLine
 10
85.416564
 20
299.579267
 30
0.0
 11
111.652567
 21
299.579267
 31
0.0
  0
LINE
  5
B9
330
1F
100
AcDbEntity
  8
LC-002-100-D00-0
 62
     7
370
    50
100
AcDbLine
 10
115.652567
 20
177.079267
 30
0.0
 11
115.652567
 21
299.579267
 31
0.0
  0
LINE
  5
BA
330
1F
100
AcDbEntity
  8
LC-002-100-D00-0
 62
     7
370
    50
100
AcDbLine
 10
71.652567
 20
177.079267
 30
0.0
 11
115.652567
 21
177.079267
 31
0.0
  0
LINE
  5
BB
330
1F
100
AcDbEntity
  8
LC-002-100-D00-0
 62
     7
370
    50
100
AcDbLine
 10
117.714745
 20
177.079267
 30
0.0
 11
118.652567
 21
180.579267
 31
0.0
  0
LINE
  5
BC
330
1F
100
AcDbEntity
  8
LC-002-100-D00-0
 62
     7
370
    50
100
AcDbLine
 10
157.652567
 20
322.844345
 30
0.0
 11
157.652567
 21
321.344272
 31
0.0
  0
LINE
  5
BD
330
1F
100
AcDbEntity
  8
LC-002-100-D00-0
 62
     7
370
    50
100
AcDbLine
 10
148.652567
 20
249.775534
 30
0.0
 11
145.310484
 21
237.302805
 31
0.0
  0
LINE
  5
BE
330
1F
100
AcDbEntity
  8
LC-002-100-D00-0
 62
     7
370
    50
100
AcDbLine
 10
33.652567
 20
321.844272
 30
0.0
 11
81.991416
 21
321.844272
 31
0.0
  0
LINE
  5
BF
330
1F
100
AcDbEntity
  8
LC-002-100-D00-0
 62
     7
370
    50
100
AcDbLine
 10
105.313717
 20
321.844272
 30
0.0
 11
153.652567
 21
321.844272
 31
0.0
  0
LINE
  5
C0
330
1F
100
AcDbEntity
  8
LC-002-100-D00-0
 62
     7
370
    50
100
AcDbLine
 10
153.652567
 20
295.079267
 30
0.0
 11
153.652567
 21
321.844272
 31
0.0
  0
LINE
  5
C1
330
1F
100
AcDbEntity
  8
LC-002-100-D00-0
 62
     7
370
    50
100
AcDbLine
 10
145.652567
 20
295.079267
 30
0.0
 11
145.652567
 21
249.973017
 31
0.0
  0
LINE
  5
C2
330
1F
100
AcDbEntity
  8
LC-002-100-D00-0
 62
     7
370
    50
100
AcDbLine
 10
153.652567
 20
321.844272
 30
0.0
 11
154.652673
 21
322.844345
 31
0.0
  0
LINE
  5
C3
330
1F
100
AcDbEntity
  8
LC-002-100-D00-0
 62
     7
370
    50
100
AcDbLine
 10
157.652567
 20
321.344272
 30
0.0
 11
158.363784
 21
321.344272
 31
0.0
  0
LINE
  5
C4
330
1F
100
AcDbEntity
  8
LC-002-100-D00-0
 62
     7
370
    50
100
AcDbLine
 10
158.363784
 20
321.344272
 30
0.0
 11
158.652459
 21
321.844272
 31
0.0
  0
LINE
  5
C5
330
1F
100
AcDbEntity
  8
LC-002-100-D00-0
 62
     7
370
    50
100
AcDbLine
 10
158.652459
 20
321.844272
 30
0.0
 11
158.652567
 21
321.844085
 31
0.0
  0
LINE
  5
C6
330
1F
100
AcDbEntity
  8
LC-002-100-D00-0
 62
     7
370
    50
100
AcDbLine
 10
158.652567
 20
321.344272
 30
0.0
 11
158.652567
 21
321.844085
 31
0.0
  0
LINE
  5
C7
330
1F
100
AcDbEntity
  8
LC-002-100-D00-0
 62
     7
370
    50
100
AcDbLine
 10
158.652567
 20
321.344272
 30
0.0
 11
161.152567
 21
321.344272
 31
0.0
  0
LINE
  5
C8
330
1F
100
AcDbEntity
  8
LC-002-100-D00-0
 62
     7
370
    50
100
AcDbLine
 10
161.152567
 20
321.344272
 30
0.0
 11
161.152567
 21
308.844272
 31
0.0
  0
LINE
  5
C9
330
1F
100
AcDbEntity
  8
LC-002-100-D00-0
 62
     7
370
    50
100
AcDbLine
 10
161.152567
 20
308.844272
 30
0.0
 11
161.652567
 21
308.344272
 31
0.0
  0
LINE
  5
CA
330
1F
100
AcDbEntity
  8
LC-002-100-D00-0
 62
     7
370
    50
100
AcDbLine
 10
165.652567
 20
308.344272
 30
0.0
 11
161.652567
 21
308.344272
 31
0.0
  0
LINE
  5
CB
330
1F
100
AcDbEntity
  8
LC-002-100-D00-0
 62
     7
370
    50
100
AcDbLine
 10
165.652567
 20
308.344272
 30
0.0
 11
166.152567
 21
308.844272
 31
0.0
  0
LINE
  5
CC
330
1F
100
AcDbEntity
  8
LC-002-100-D00-0
 62
     7
370
    50
100
AcDbLine
 10
166.152567
 20
308.844272
 30
0.0
 11
166.152567
 21
321.344272
 31
0.0
  0
LINE
  5
CD
330
1F
100
AcDbEntity
  8
LC-002-100-D00-0
 62
     7
370
    50
100
AcDbLine
 10
166.152567
 20
321.344272
 30
0.0
 11
168.652567
 21
321.344272
 31
0.0
  0
LINE
  5
CE
330
1F
100
AcDbEntity
  8
LC-002-100-D00-0
 62
     7
370
    50
100
AcDbLine
 10
168.652567
 20
321.844272
 30
0.0
 11
168.652567
 21
321.344272
 31
0.0
  0
LINE
  5
CF
330
1F
100
AcDbEntity
  8
LC-002-100-D00-0
 62
     7
370
    50
100
AcDbLine
 10
168.652567
 20
321.844272
 30
0.0
 11
168.941242
 21
321.344272
 31
0.0
  0
LINE
  5
D0
330
1F
100
AcDbEntity
  8
LC-002-100-D00-0
 62
     7
370
    50
100
AcDbLine
 10
176.652567
 20
321.344272
 30
0.0
 11
178.652567
 21
321.344272
 31
0.0
  0
LINE
  5
D1
330
1F
100
AcDbEntity
  8
LC-002-100-D00-0
 62
     7
370
    50
100
AcDbLine
 10
178.652567
 20
321.344272
 30
0.0
 11
198.811813
 21
327.507572
 31
0.0
  0
LINE
  5
D2
330
1F
100
AcDbEntity
  8
LC-002-100-D00-0
 62
     7
370
    50
100
AcDbLine
 10
198.811813
 20
327.507572
 30
0.0
 11
206.086314
 21
327.748684
 31
0.0
  0
LINE
  5
D3
330
1F
100
AcDbEntity
  8
LC-002-100-D00-0
 62
     7
370
    50
100
AcDbLine
 10
199.170534
 20
323.957323
 30
0.0
 11
208.152567
 21
324.266806
 31
0.0
  0
LINE
  5
D4
330
1F
100
AcDbEntity
  8
LC-002-100-D00-0
 62
     7
370
    50
100
AcDbLine
 10
179.303839
 20
317.883465
 30
0.0
 11
199.170534
 21
323.957323
 31
0.0
  0
LINE
  5
D5
330
1F
100
AcDbEntity
  8
LC-002-100-D00-0
 62
     7
370
    50
100
AcDbLine
 10
176.625435
 20
315.504724
 30
0.0
 11
179.303839
 21
317.883465
 31
0.0
  0
LINE
  5
D6
330
1F
100
AcDbEntity
  8
LC-002-100-D00-0
 62
     7
370
    50
100
AcDbLine
 10
169.652567
 20
315.504724
 30
0.0
 11
176.625435
 21
315.504724
 31
0.0
  0
LINE
  5
D7
330
1F
100
AcDbEntity
  8
LC-002-100-D00-0
 62
     7
370
    50
100
AcDbLine
 10
169.652567
 20
315.504724
 30
0.0
 11
169.652567
 21
306.004724
 31
0.0
  0
LINE
  5
D8
330
1F
100
AcDbEntity
  8
LC-002-100-D00-0
 62
     7
370
    50
100
AcDbLine
 10
166.550515
 20
306.004724
 30
0.0
 11
169.652567
 21
306.004724
 31
0.0
  0
ARC
  5
D9
330
1F
100
AcDbEntity
  8
LC-002-100-D00-0
 62
     7
370
    50
100
AcDbCircle
 10
163.652567
 20
310.079267
 30
0.0
 40
5.000000000000051
100
AcDbArc
 50
234.578322
 51
305.421678
  0
LINE
  5
DA
330
1F
100
AcDbEntity
  8
LC-002-100-D00-0
 62
     7
370
    50
100
AcDbLine
 10
156.652567
 20
306.004724
 30
0.0
 11
160.754619
 21
306.004724
 31
0.0
  0
ARC
  5
DB
330
1F
100
AcDbEntity
  8
LC-002-100-D00-0
 62
     7
370
    50
100
AcDbCircle
 10
153.652567
 20
295.079267
 30
0.0
 40
3.0
100
AcDbArc
 50
270.0
 51
0.0
  0
ARC
  5
DC
330
1F
100
AcDbEntity
  8
LC-002-100-D00-0
 62
     7
370
    50
100
AcDbCircle
 10
142.412708
 20
238.079267
 30
0.0
 40
3.0
100
AcDbArc
 50
270.0
 51
344.999892
  0
LINE
  5
DD
330
1F
100
AcDbEntity
  8
LC-002-100-D00-0
 62
     7
370
    50
100
AcDbLine
 10
140.082549
 20
237.579267
 30
0.0
 11
119.652567
 21
237.579267
 31
0.0
  0
ARC
  5
DE
330
1F
100
AcDbEntity
  8
LC-002-100-D00-0
 62
     7
370
    50
100
AcDbCircle
 10
140.082549
 20
240.579267
 30
0.0
 40
3.0
100
AcDbArc
 50
270.0
 51
344.999691
  0
LINE
  5
DF
330
1F
100
AcDbEntity
  8
LC-002-100-D00-0
 62
     7
370
    50
100
AcDbLine
 10
145.601454
 20
249.584781
 30
0.0
 11
142.980322
 21
239.802795
 31
0.0
  0
ARC
  5
E0
330
1F
100
AcDbEntity
  8
LC-002-100-D00-0
 62
     7
370
    50
100
AcDbCircle
 10
144.152567
 20
249.973017
 30
0.0
 40
1.499999999999985
100
AcDbArc
 50
344.999691
 51
0.0
  0
LINE
  5
E1
330
1F
100
AcDbEntity
  8
LC-002-100-D00-0
 62
     7
370
    50
100
AcDbLine
 10
142.412708
 20
235.079267
 30
0.0
 11
118.652567
 21
235.079267
 31
0.0
  0
LINE
  5
E2
330
1F
100
AcDbEntity
  8
LC-002-100-D00-0
 62
     7
370
    50
100
AcDbLine
 10
115.652567
 20
299.579267
 30
0.0
 11
118.152567
 21
299.579267
 31
0.0
  0
LINE
  5
E3
330
1F
100
AcDbEntity
  8
LC-002-100-D00-0
 62
     7
370
    50
100
AcDbLine
 10
157.652567
 20
322.844345
 30
0.0
 11
154.652673
 21
322.844345
 31
0.0
  0
LINE
  5
E4
330
1F
100
AcDbEntity
  8
LC-002-100-D00-0
 62
     7
370
    50
100
AcDbLine
 10
145.652567
 20
295.079267
 30
0.0
 11
153.652567
 21
295.079267
 31
0.0
  0
LINE
  5
E5
330
1F
100
AcDbEntity
  8
LC-002-100-D00-0
 62
     7
370
    50
100
AcDbLine
 10
115.652567
 20
177.079267
 30
0.0
 11
117.714745
 21
177.079267
 31
0.0
  0
LINE
  5
E6
330
1F
100
AcDbEntity
  8
LC-002-100-D00-0
 62
     7
370
    50
100
AcDbLine
 10
168.941242
 20
321.344272
 30
0.0
 11
169.652567
 21
321.344272
 31
0.0
  0
LINE
  5
E7
330
1F
100
AcDbEntity
  8
LC-002-100-D00-0
 62
     7
370
    50
100
AcDbLine
 10
153.652567
 20
292.079267
 30
0.0
 11
148.652567
 21
292.079267
 31
0.0
  0
LINE
  5
E8
330
1F
100
AcDbEntity
  8
LC-002-100-D00-0
 62
     7
370
    50
100
AcDbLine
 10
169.652567
 20
317.844272
 30
0.0
 11
176.652567
 21
317.844272
 31
0.0
  0
LINE
  5
E9
330
1F
100
AcDbEntity
  8
LC-002-100-D00-0
 62
     7
370
    50
100
AcDbLine
 10
41.652567
 20
295.079267
 30
0.0
 11
54.152567
 21
295.079267
 31
0.0
  0
LINE
  5
EA
330
1F
100
AcDbEntity
  8
LC-002-100-D00-0
 62
     7
370
    50
100
AcDbLine
 10
133.152567
 20
295.079267
 30
0.0
 11
145.652567
 21
295.079267
 31
0.0
  0
LINE
  5
EB
330
1F
100
AcDbEntity
  8
LC-002-100-D00-0
 62
     7
370
    50
100
AcDbLine
 10
21.152567
 20
308.844272
 30
0.0
 11
26.152567
 21
308.844272
 31
0.0
  0
LINE
  5
EC
330
1F
100
AcDbEntity
  8
LC-002-100-D00-0
 62
     7
370
    50
100
AcDbLine
 10
26.152567
 20
321.344272
 30
0.0
 11
21.152567
 21
321.344272
 31
0.0
  0
LINE
  5
ED
330
1F
100
AcDbEntity
  8
LC-002-100-D00-0
 62
     7
370
    50
100
AcDbLine
 10
161.152567
 20
308.844272
 30
0.0
 11
166.152567
 21
308.844272
 31
0.0
  0
LINE
  5
EE
330
1F
100
AcDbEntity
  8
LC-002-100-D00-0
 62
     7
370
    50
100
AcDbLine
 10
166.152567
 20
321.344272
 30
0.0
 11
161.152567
 21
321.344272
 31
0.0
  0
INSERT
  5
FC
330
1F
100
AcDbEntity
  8
LC-002-100-D00-0
 62
     7
370
    50
100
AcDbBlockReference
  2
POLY2
 10
0.0
 20
0.0
 30
0.0
  0
LINE
  5
FD
330
1F
100
AcDbEntity
  8
LC-002-100-D00-0
 62
     7
370
    50
100
AcDbLine
 10
18.652567
 20
321.844272
 30
0.0
 11
20.766853
 21
321.844272
 31
0.0
  0
LINE
  5
FE
330
1F
100
AcDbEntity
  8
LC-002-100-D00-0
 62
     7
370
    50
100
AcDbLine
 10
166.577548
 20
321.844272
 30
0.0
 11
168.652567
 21
321.844272
 31
0.0
  0
LINE
  5
FF
330
1F
100
AcDbEntity
  8
LC-002-100-D00-0
 62
     7
370
    50
100
AcDbLine
 10
28.652675
 20
321.844272
 30
0.0
 11
29.652567
 21
321.844272
 31
0.0
  0
LINE
  5
100
330
1F
100
AcDbEntity
  8
LC-002-100-D00-0
 62
     7
370
    50
100
AcDbLine
 10
157.652567
 20
321.844272
 30
0.0
 11
158.652459
 21
321.844272
 31
0.0
  0
INSERT
  5
10C
330
1F
100
AcDbEntity
  8
LC-002-100-D00-0
 62
     7
370
    50
100
AcDbBlockReference
  2
POLY3
 10
0.0
 20
0.0
 30
0.0
  0
LINE
  5
10D
330
1F
100
AcDbEntity
  8
LC-002-100-D00-0
 62
     7
370
    50
100
AcDbLine
 10
126.5884
 20
322.844345
 30
0.0
 11
154.652673
 21
322.844345
 31
0.0
  0
LINE
  5
10E
330
1F
100
AcDbEntity
  8
LC-002-100-D00-0
 62
     7
370
    50
100
AcDbLine
 10
32.719126
 20
322.844345
 30
0.0
 11
82.966837
 21
322.844345
 31
0.0
  0
LINE
  5
10F
330
1F
100
AcDbEntity
  8
LC-002-100-D00-0
 62
     7
370
    50
100
AcDbLine
 10
104.338296
 20
322.844345
 30
0.0
 11
121.650175
 21
322.844345
 31
0.0
  0
INSERT
  5
11B
330
1F
100
AcDbEntity
  8
LC-002-100-D00-0
 62
     7
370
    50
100
AcDbBlockReference
  2
POLY4
 10
0.0
 20
0.0
 30
0.0
  0
INSERT
  5
129
330
1F
100
AcDbEntity
  8
LC-002-100-D00-0
 62
     7
370
    50
100
AcDbBlockReference
  2
POLY5
 10
0.0
 20
0.0
 30
0.0
  0
LINE
  5
12A
330
1F
100
AcDbEntity
  8
LC-002-100-D00-0
 62
     7
370
    50
100
AcDbLine
 10
32.719234
 20
325.844345
 30
0.0
 11
32.719234
 21
322.844345
 31
0.0
  0
LINE
  5
12B
330
1F
100
AcDbEntity
  8
LC-002-100-D00-0
 62
     7
370
    50
100
AcDbLine
 10
32.652567
 20
325.844345
 30
0.0
 11
32.719234
 21
325.844345
 31
0.0
  0
LINE
  5
12C
330
1F
100
AcDbEntity
  8
LC-002-100-D00-0
 62
     7
370
    50
100
AcDbLine
 10
32.652567
 20
322.844345
 30
0.0
 11
32.719234
 21
322.844345
 31
0.0
  0
LINE
  5
12D
330
1F
100
AcDbEntity
  8
LC-002-100-D00-0
 62
     7
370
    50
100
AcDbLine
 10
27.042664
 20
321.344272
 30
0.0
 11
26.766956
 21
321.844272
 31
0.0
  0
LINE
  5
12E
330
1F
100
AcDbEntity
  8
LC-002-100-D00-0
 62
     7
370
    50
100
AcDbLine
 10
26.766956
 20
321.844272
 30
0.0
 11
28.652675
 21
321.844272
 31
0.0
  0
LINE
  5
12F
330
1F
100
AcDbEntity
  8
LC-002-100-D00-0
 62
     7
370
    50
100
AcDbLine
 10
26.766956
 20
321.844272
 30
0.0
 11
26.490058
 21
321.344272
 31
0.0
  0
LINE
  5
130
330
1F
100
AcDbEntity
  8
LC-002-100-D00-0
 62
     7
370
    50
100
AcDbLine
 10
160.815076
 20
321.344272
 30
0.0
 11
160.538178
 21
321.844272
 31
0.0
  0
LINE
  5
131
330
1F
100
AcDbEntity
  8
LC-002-100-D00-0
 62
     7
370
    50
100
AcDbLine
 10
160.538178
 20
321.844272
 30
0.0
 11
160.26247
 21
321.344272
 31
0.0
  0
LINE
  5
132
330
1F
100
AcDbEntity
  8
LC-002-100-D00-0
 62
     7
370
    50
100
AcDbLine
 10
158.652459
 20
321.844272
 30
0.0
 11
160.538178
 21
321.844272
 31
0.0
  0
LINE
  5
133
330
1F
100
AcDbEntity
  8
LC-002-100-D00-0
 62
     7
370
    50
100
AcDbLine
 10
20.766853
 20
321.844272
 30
0.0
 11
20.465211
 21
321.344272
 31
0.0
  0
LINE
  5
134
330
1F
100
AcDbEntity
  8
LC-002-100-D00-0
 62
     7
370
    50
100
AcDbLine
 10
21.067304
 20
321.344272
 30
0.0
 11
20.766853
 21
321.844272
 31
0.0
  0
LINE
  5
135
330
1F
100
AcDbEntity
  8
LC-002-100-D00-0
 62
     7
370
    50
100
AcDbLine
 10
166.538281
 20
321.844272
 30
0.0
 11
166.23783
 21
321.344272
 31
0.0
  0
LINE
  5
136
330
1F
100
AcDbEntity
  8
LC-002-100-D00-0
 62
     7
370
    50
100
AcDbLine
 10
166.839923
 20
321.344272
 30
0.0
 11
166.538281
 21
321.844272
 31
0.0
  0
LINE
  5
137
330
1F
100
AcDbEntity
  8
LC-002-100-D00-0
 62
     7
370
    50
100
AcDbLine
 10
20.766853
 20
321.844272
 30
0.0
 11
22.823995
 21
321.844272
 31
0.0
  0
LINE
  5
138
330
1F
100
AcDbEntity
  8
LC-002-100-D00-0
 62
     7
370
    50
100
AcDbLine
 10
164.481138
 20
321.844272
 30
0.0
 11
166.538281
 21
321.844272
 31
0.0
  0
LINE
  5
139
330
1F
100
AcDbEntity
  8
LC-002-100-D00-0
 62
     7
370
    50
100
AcDbLine
 10
25.107951
 20
321.344272
 30
0.0
 11
24.823992
 21
321.844272
 31
0.0
  0
LINE
  5
13A
330
1F
100
AcDbEntity
  8
LC-002-100-D00-0
 62
     7
370
    50
100
AcDbLine
 10
24.823992
 20
321.844272
 30
0.0
 11
26.766956
 21
321.844272
 31
0.0
  0
LINE
  5
13B
330
1F
100
AcDbEntity
  8
LC-002-100-D00-0
 62
     7
370
    50
100
AcDbLine
 10
24.823992
 20
321.844272
 30
0.0
 11
24.538849
 21
321.344272
 31
0.0
  0
LINE
  5
13C
330
1F
100
AcDbEntity
  8
LC-002-100-D00-0
 62
     7
370
    50
100
AcDbLine
 10
160.538178
 20
321.844272
 30
0.0
 11
162.481142
 21
321.844272
 31
0.0
  0
LINE
  5
13D
330
1F
100
AcDbEntity
  8
LC-002-100-D00-0
 62
     7
370
    50
100
AcDbLine
 10
162.481142
 20
321.844272
 30
0.0
 11
162.197182
 21
321.344272
 31
0.0
  0
LINE
  5
13E
330
1F
100
AcDbEntity
  8
LC-002-100-D00-0
 62
     7
370
    50
100
AcDbLine
 10
162.766285
 20
321.344272
 30
0.0
 11
162.481142
 21
321.844272
 31
0.0
  0
LINE
  5
13F
330
1F
100
AcDbEntity
  8
LC-002-100-D00-0
 62
     7
370
    50
100
AcDbLine
 10
22.823995
 20
321.844272
 30
0.0
 11
22.530601
 21
321.344272
 31
0.0
  0
LINE
  5
140
330
1F
100
AcDbEntity
  8
LC-002-100-D00-0
 62
     7
370
    50
100
AcDbLine
 10
23.116199
 20
321.344272
 30
0.0
 11
22.823995
 21
321.844272
 31
0.0
  0
LINE
  5
141
330
1F
100
AcDbEntity
  8
LC-002-100-D00-0
 62
     7
370
    50
100
AcDbLine
 10
164.481138
 20
321.844272
 30
0.0
 11
164.188935
 21
321.344272
 31
0.0
  0
LINE
  5
142
330
1F
100
AcDbEntity
  8
LC-002-100-D00-0
 62
     7
370
    50
100
AcDbLine
 10
164.774532
 20
321.344272
 30
0.0
 11
164.481138
 21
321.844272
 31
0.0
  0
LINE
  5
143
330
1F
100
AcDbEntity
  8
LC-002-100-D00-0
 62
     7
370
    50
100
AcDbLine
 10
22.823995
 20
321.844272
 30
0.0
 11
24.823992
 21
321.844272
 31
0.0
  0
LINE
  5
144
330
1F
100
AcDbEntity
  8
LC-002-100-D00-0
 62
     7
370
    50
100
AcDbLine
 10
162.481142
 20
321.844272
 30
0.0
 11
164.481138
 21
321.844272
 31
0.0
  0
LINE
  5
145
330
1F
100
AcDbEntity
  8
LC-002-100-D00-0
 62
     7
370
    50
100
AcDbLine
 10
121.650091
 20
325.844345
 30
0.0
 11
121.650091
 21
322.844345
 31
0.0
  0
LINE
  5
146
330
1F
100
AcDbEntity
  8
LC-002-100-D00-0
 62
     7
370
    50
100
AcDbLine
 10
121.650091
 20
325.844345
 30
0.0
 11
126.588376
 21
325.844345
 31
0.0
  0
LINE
  5
147
330
1F
100
AcDbEntity
  8
LC-002-100-D00-0
 62
     7
370
    50
100
AcDbLine
 10
126.588376
 20
325.844345
 30
0.0
 11
126.588376
 21
322.844345
 31
0.0
  0
LINE
  5
148
330
1F
100
AcDbEntity
  8
LC-002-100-D00-0
 62
     7
370
    50
100
AcDbLine
 10
121.650091
 20
322.844345
 30
0.0
 11
126.588376
 21
322.844345
 31
0.0
  0
LINE
  5
149
330
1F
100
AcDbEntity
  8
LC-002-100-D00-0
 62
     7
370
    50
100
AcDbLine
 10
126.588376
 20
325.844345
 30
0.0
 11
126.652567
 21
325.844345
 31
0.0
  0
LINE
  5
14A
330
1F
100
AcDbEntity
  8
LC-002-100-D00-0
 62
     7
370
    50
100
AcDbLine
 10
126.588376
 20
322.844345
 30
0.0
 11
126.588376
 21
322.844345
 31
0.0
  0
LINE
  5
14B
330
1F
100
AcDbEntity
  8
LC-002-100-D00-0
 62
     7
370
    50
100
AcDbLine
 10
85.443015
 20
303.079205
 30
0.0
 11
111.652567
 21
303.079205
 31
0.0
  0
INSERT
  5
172
330
1F
100
AcDbEntity
  8
LC-002-100-D00-0
 62
     7
370
    25
100
AcDbBlockReference
  2
KLON1
 10
0.0
 20
0.0
 30
0.0
  0
INSERT
  5
198
330
1F
100
AcDbEntity
  8
LC-002-100-D00-0
 62
     7
370
    25
100
AcDbBlockReference
  2
KLON2
 10
0.0
 20
0.0
 30
0.0
  0
INSERT
  5
1B5
330
1F
100
AcDbEntity
  8
LC-002-100-D00-0
 62
     7
370
    25
100
AcDbBlockReference
  2
KLON3
 10
0.0
 20
0.0
 30
0.0
  0
DIMENSION
  5
1B8
330
1F
100
AcDbEntity
  8
LC-002-100-D00-0
 62
     7
370
    25
100
AcDbDimension
  2
*D9
 10
118.652567
 20
159.394973
 30
0.0
 11
181.187717
 21
190.194973
 31
0.0
 70
   160
  1
DN50
 71
     5
 42
50.0
  3
LC-DIM-L-0140-02-02
100
AcDbAlignedDimension
 13
68.652567
 23
180.579267
 33
0.0
 14
118.652567
 24
180.579267
 34
0.0
100
AcDbRotatedDimension
  0
DIMENSION
  5
1C8
330
1F
100
AcDbEntity
  8
LC-002-100-D00-0
 62
     7
370
    25
100
AcDbDimension
  2
*D10
 10
5.649873
 20
250.079205
 30
0.0
 11
-25.150127
 21
279.292704
 31
0.0
 70
   160
  1
50
 71
     5
 42
49.5
 53
90.0
  3
LC-DIM-L-0140-00-02
100
AcDbAlignedDimension
 13
64.552567
 23
299.579205
 33
0.0
 14
54.152567
 24
250.079205
 34
0.0
 50
90.0
100
AcDbRotatedDimension
  0
DIMENSION
  5
1D8
330
1F
100
AcDbEntity
  8
LC-003-003-----0
 62
     7
370
    25
100
AcDbDimension
  2
*D11
 10
208.152567
 20
356.562127
 30
0.0
 11
91.622664
 21
387.362127
 31
0.0
 70
   160
  1
%%c230
 71
     5
 42
229.0
  3
LC-DIM-L-0140-02-02
100
AcDbAlignedDimension
 13
-20.847433
 23
324.266806
 33
0.0
 14
208.152567
 24
324.266806
 34
0.0
100
AcDbRotatedDimension
  0
DIMENSION
  5
1E5
330
1F
100
AcDbEntity
  8
LC-003-003-----0
 62
     7
370
    25
100
AcDbDimension
  2
*D12
 10
148.652567
 20
109.498973
 30
0.0
 11
91.737877
 21
140.298973
 31
0.0
 70
   160
  1
%%c<>
 71
     5
 42
110.0
  3
LC-DIM-L-0140-02-02
100
AcDbAlignedDimension
 13
38.652567
 23
249.775534
 33
0.0
 14
148.652567
 24
249.775534
 34
0.0
100
AcDbRotatedDimension
  0
DIMENSION
  5
1F2
330
1F
100
AcDbEntity
  8
LC-003-003-----0
 62
     7
370
    25
100
AcDbDimension
  2
*D13
 10
156.652567
 20
61.978973
 30
0.0
 11
92.802756
 21
92.778973
 31
0.0
 70
   160
  1
%%c<>
 71
     5
 42
126.0
  3
LC-DIM-L-0140-02-02
100
AcDbAlignedDimension
 13
30.652567
 23
295.079267
 33
0.0
 14
156.652567
 24
295.079267
 34
0.0
100
AcDbRotatedDimension
  0
DIMENSION
  5
1FF
330
1F
100
AcDbEntity
  8
LC-003-003-----0
 62
     7
370
    25
100
AcDbDimension
  2
*D14
 10
-82.902288
 20
235.079267
 30
0.0
 11
-113.702288
 21
275.818973
 31
0.0
 70
   160
  1
90
 71
     5
 42
89.187539
 53
90.0
  3
LC-DIM-L-0140-02-02
100
AcDbAlignedDimension
 13
-20.847433
 23
324.266806
 33
0.0
 14
44.892426
 24
235.079267
 34
0.0
 50
90.0
100
AcDbRotatedDimension
  0
DIMENSION
  5
20C
330
1F
100
AcDbEntity
  8
LC-003-003-----0
 62
     7
370
    25
100
AcDbDimension
  2
*D15
 10
-41.372005
 20
177.079267
 30
0.0
 11
-72.172005
 21
203.350973
 31
0.0
 70
   160
 71
     5
 42
58.0
 53
90.0
  3
LC-DIM-L-0140-02-02
100
AcDbAlignedDimension
 13
44.892426
 23
235.079267
 33
0.0
 14
69.590389
 24
177.079267
 34
0.0
 50
90.0
100
AcDbRotatedDimension
  0
ENDSEC
  0
SECTION
  2
OBJECTS
  0
DICTIONARY
  5
C
330
0
100
AcDbDictionary
281
     1
  3
ACAD_GROUP
350
D
  3
ACAD_LAYOUT
350
1A
  3
ACAD_MLINESTYLE
350
17
  3
ACAD_PLOTSETTINGS
350
19
  3
ACAD_PLOTSTYLENAME
350
E
  0
DICTIONARY
  5
D
102
{ACAD_REACTORS
330
C
102
}
330
C
100
AcDbDictionary
281
     1
  0
DICTIONARY
  5
1A
102
{ACAD_REACTORS
330
C
102
}
330
C
100
AcDbDictionary
281
     1
  3
Layout1
350
1E
  3
Layout2
350
26
  3
Model
350
22
  0
DICTIONARY
  5
17
102
{ACAD_REACTORS
330
C
102
}
330
C
100
AcDbDictionary
281
     1
  3
Standard
350
18
  0
DICTIONARY
  5
19
102
{ACAD_REACTORS
330
C
102
}
330
C
100
AcDbDictionary
281
     1
  0
ACDBDICTIONARYWDFLT
  5
E
102
{ACAD_REACTORS
330
C
102
}
330
C
100
AcDbDictionary
281
     1
  3
Normal
350
F
100
AcDbDictionaryWithDefault
340
F
  0
LAYOUT
  5
1E
102
{ACAD_REACTORS
330
1A
102
}
330
1A
100
AcDbPlotSettings
  1

  2

  4

  6

 40
0.0
 41
0.0
 42
0.0
 43
0.0
 44
0.0
 45
0.0
 46
0.0
 47
0.0
 48
0.0
 49
0.0
140
0.0
141
0.0
142
1.0
143
1.0
 70
   688
 72
     0
 73
     0
 74
     5
  7

 75
    16
147
1.0
148
0.0
149
0.0
100
AcDbLayout
  1
Layout1
 70
     1
 71
     1
 10
-289.926477
 20
-47.317027
 11
550.073523
 21
546.682973
 12
0.0
 22
0.0
 32
0.0
 14
-289.926477
 24
-47.317027
 34
0.0
 15
550.073523
 25
546.682973
 35
0.0
146
0.0
 13
0.0
 23
0.0
 33
0.0
 16
1.0
 26
0.0
 36
0.0
 17
0.0
 27
1.0
 37
0.0
 76
     0
330
1B
  0
LAYOUT
  5
26
102
{ACAD_REACTORS
330
1A
102
}
330
1A
100
AcDbPlotSettings
  1

  2

  4

  6

 40
0.0
 41
0.0
 42
0.0
 43
0.0
 44
0.0
 45
0.0
 46
0.0
 47
0.0
 48
0.0
 49
0.0
140
0.0
141
0.0
142
1.0
143
1.0
 70
   688
 72
     0
 73
     0
 74
     5
  7

 75
    16
147
1.0
148
0.0
149
0.0
100
AcDbLayout
  1
Layout2
 70
     1
 71
     2
 10
0.0
 20
0.0
 11
0.0
 21
0.0
 12
0.0
 22
0.0
 32
0.0
 14
0.0
 24
0.0
 34
0.0
 15
0.0
 25
0.0
 35
0.0
146
0.0
 13
0.0
 23
0.0
 33
0.0
 16
1.0
 26
0.0
 36
0.0
 17
0.0
 27
1.0
 37
0.0
 76
     0
330
23
  0
LAYOUT
  5
22
102
{ACAD_REACTORS
330
1A
102
}
330
1A
100
AcDbPlotSettings
  1

  2

  4

  6

 40
0.0
 41
0.0
 42
0.0
 43
0.0
 44
0.0
 45
0.0
 46
0.0
 47
0.0
 48
0.0
 49
0.0
140
0.0
141
0.0
142
1.0
143
1.0
 70
  1776
 72
     0
 73
     0
 74
     0
  7

 75
     0
147
1.0
148
0.0
149
0.0
100
AcDbLayout
  1
Model
 70
     1
 71
     0
 10
-289.926477
 20
-47.317027
 11
550.073523
 21
546.682973
 12
0.0
 22
0.0
 32
0.0
 14
-289.926477
 24
-47.317027
 34
0.0
 15
550.073523
 25
546.682973
 35
0.0
146
0.0
 13
0.0
 23
0.0
 33
0.0
 16
1.0
 26
0.0
 36
0.0
 17
0.0
 27
1.0
 37
0.0
 76
     0
330
1F
  0
MLINESTYLE
  5
18
102
{ACAD_REACTORS
330
17
102
}
330
17
100
AcDbMlineStyle
  2
Standard
 70
     0
  3

 62
   256
 51
90.0
 52
90.0
 71
     2
 49
0.5
 62
   256
  6
BYLAYER
 49
-0.5
 62
   256
  6
BYLAYER
  0
ACDBPLACEHOLDER
  5
F
102
{ACAD_REACTORS
330
E
102
}
330
E
  0
ENDSEC
  0
EOF
