  0
SECTION
  2
HEADER
  9
$ACADVER
  1
AC1009
  9
$INSBASE
 10
0.0
 20
0.0
 30
0.0
  9
$EXTMIN
 10
0.0
 20
0.0
 30
0.0
  9
$EXTMAX
 10
840.0
 20
594.0
 30
0.0
  9
$LIMMIN
 10
0.0
 20
0.0
  9
$LIMMAX
 10
840.0
 20
594.0
  9
$ORTHOMODE
 70
     0
  9
$REGENMODE
 70
     1
  9
$FILLMODE
 70
     1
  9
$QTEXTMODE
 70
     0
  9
$MIRRTEXT
 70
     1
  9
$DRAGMODE
 70
     2
  9
$LTSCALE
 40
2.0
  9
$OSMODE
 70
     0
  9
$ATTMODE
 70
     1
  9
$TEXTSIZE
 40
0.2
  9
$TRACEWID
 40
0.05
  9
$TEXTSTYLE
  7
STANDARD
  9
$CLAYER
  8
0
  9
$CELTYPE
  6
BYLAYER
  9
$CECOLOR
 62
     7
  9
$DIMSCALE
 40
2.0
  9
$DIMASZ
 40
3.5
  9
$DIMEXO
 40
0.0625
  9
$DIMDLI
 40
0.38
  9
$DIMRND
 40
0.0
  9
$DIMDLE
 40
0.0
  9
$DIMEXE
 40
0.18
  9
$DIMTP
 40
0.0
  9
$DIMTM
 40
0.0
  9
$DIMTXT
 40
3.5
  9
$DIMCEN
 40
0.09
  9
$DIMTSZ
 40
0.0
  9
$DIMTOL
 70
     0
  9
$DIMLIM
 70
     0
  9
$DIMTIH
 70
     1
  9
$DIMTOH
 70
     1
  9
$DIMSE1
 70
     0
  9
$DIMSE2
 70
     0
  9
$DIMTAD
 70
     1
  9
$DIMZIN
 70
     0
  9
$DIMBLK
  1

  9
$DIMASO
 70
     1
  9
$DIMSHO
 70
     1
  9
$DIMPOST
  1

  9
$DIMAPOST
  1

  9
$DIMALT
 70
     0
  9
$DIMALTD
 70
     2
  9
$DIMALTF
 40
25.4
  9
$DIMLFAC
 40
1.0
  9
$DIMTOFL
 70
     0
  9
$DIMTVP
 40
0.0
  9
$DIMTIX
 70
     0
  9
$DIMSOXD
 70
     0
  9
$DIMSAH
 70
     0
  9
$DIMBLK1
  1

  9
$DIMBLK2
  1

  9
$DIMSTYLE
  2
STANDARD
  9
$DIMCLRD
 70
     0
  9
$DIMCLRE
 70
     0
  9
$DIMCLRT
 70
     0
  9
$DIMTFAC
 40
1.0
  9
$DIMGAP
 40
0.09
  9
$LUNITS
 70
     2
  9
$LUPREC
 70
     2
  9
$AXISMODE
 70
     0
  9
$AXISUNIT
 10
0.0
 20
0.0
  9
$SKETCHINC
 40
0.1
  9
$FILLETRAD
 40
0.0
  9
$AUNITS
 70
     0
  9
$AUPREC
 70
     0
  9
$MENU
  1
acad
  9
$ELEVATION
 40
0.0
  9
$PELEVATION
 40
0.0
  9
$THICKNESS
 40
0.0
  9
$LIMCHECK
 70
     0
  9
$BLIPMODE
 70
     1
  9
$CHAMFERA
 40
0.0
  9
$CHAMFERB
 40
0.0
  9
$SKPOLY
 70
     0
  9
$TDCREATE
 40
0.000000000
  9
$TDUPDATE
 40
0.000000000
  9
$TDINDWG
 40
0.0000000000
  9
$TDUSRTIMER
 40
0.0000000000
  9
$USRTIMER
 70
     1
  9
$ANGBASE
 50
0.0
  9
$ANGDIR
 70
     0
  9
$PDMODE
 70
     0
  9
$PDSIZE
 40
0.0
  9
$PLINEWID
 40
0.0
  9
$COORDS
 70
     0
  9
$SPLFRAME
 70
     0
  9
$SPLINETYPE
 70
     6
  9
$SPLINESEGS
 70
     8
  9
$ATTDIA
 70
     0
  9
$ATTREQ
 70
     1
  9
$HANDLING
 70
     1
  9
$HANDSEED
  5
19A
  9
$SURFTAB1
 70
     6
  9
$SURFTAB2
 70
     6
  9
$SURFTYPE
 70
     6
  9
$SURFU
 70
     6
  9
$SURFV
 70
     6
  9
$UCSNAME
  2

  9
$UCSORG
 10
0.0
 20
0.0
 30
0.0
  9
$UCSXDIR
 10
1.0
 20
0.0
 30
0.0
  9
$UCSYDIR
 10
0.0
 20
1.0
 30
0.0
  9
$PUCSNAME
  2

  9
$PUCSORG
 10
0.0
 20
0.0
 30
0.0
  9
$PUCSXDIR
 10
1.0
 20
0.0
 30
0.0
  9
$PUCSYDIR
 10
0.0
 20
1.0
 30
0.0
  9
$USERI1
 70
     0
  9
$USERI2
 70
     0
  9
$USERI3
 70
     0
  9
$USERI4
 70
     0
  9
$USERI5
 70
     0
  9
$USERR1
 40
0.0
  9
$USERR2
 40
0.0
  9
$USERR3
 40
0.0
  9
$USERR4
 40
0.0
  9
$USERR5
 40
0.0
  9
$WORLDVIEW
 70
     1
  9
$SHADEDGE
 70
     3
  9
$SHADEDIF
 70
    70
  9
$TILEMODE
 70
     1
  9
$MAXACTVP
 70
    16
  9
$PINSBASE
 10
0.0
 20
0.0
 30
0.0
  9
$PLIMCHECK
 70
     0
  9
$PEXTMIN
 10
1.000000E+20
 20
1.000000E+20
 30
1.000000E+20
  9
$PEXTMAX
 10
-1.000000E+20
 20
-1.000000E+20
 30
-1.000000E+20
  9
$PLIMMIN
 10
0.0
 20
0.0
  9
$PLIMMAX
 10
840.0
 20
594.0
  9
$UNITMODE
 70
     0
  9
$VISRETAIN
 70
     0
  9
$PLINEGEN
 70
     1
  9
$PSLTSCALE
 70
     0
  9
$TREEDEPTH
 70
  3020
  9
$DWGCODEPAGE
  3
dos850
  0
ENDSEC
  0
SECTION
  2
TABLES
  0
TABLE
  2
VPORT
 70
     1
  0
VPORT
  2
*ACTIVE
 70
     0
 10
0.0
 20
0.0
 11
1.0
 21
1.0
 12
420.0
 22
297.0
 13
0.0
 23
0.0
 14
1.0
 24
1.0
 15
0.0
 25
0.0
 16
0.0
 26
0.0
 36
1.0
 17
0.0
 27
0.0
 37
0.0
 40
594.0
 41
1.604229
 42
50.0
 43
0.0
 44
0.0
 50
0.0
 51
0.0
 71
     0
 72
   100
 73
     1
 74
     1
 75
     0
 76
     0
 77
     0
 78
     0
  0
ENDTAB
  0
TABLE
  2
LTYPE
 70
     2
  0
LTYPE
  2
CONTINUOUS
 70
    64
  3
Solid line
 72
    65
 73
     0
 40
0.0
  0
LTYPE
  2
DASHDOT
 70
    64
  3
__ . __ . __ . __ . __
 72
    65
 73
     4
 40
7.5
 49
5.0
 49
-1.25
 49
0.0
 49
-1.25
  0
ENDTAB
  0
TABLE
  2
LAYER
 70
    11
  0
LAYER
  2
0
 70
     0
 62
     7
  6
CONTINUOUS
  0
LAYER
  2
LC-INFO-1-2-MM-A3-0
 70
     1
 62
    -1
  6
CONTINUOUS
  0
LAYER
  2
LC-003-005-----0
 70
     0
 62
     2
  6
CONTINUOUS
  0
LAYER
  2
LC-007-003-MTH-0
 70
     0
 62
     2
  6
CONTINUOUS
  0
LAYER
  2
LC-006-003-----0
 70
     0
 62
     2
  6
CONTINUOUS
  0
LAYER
  2
LC-008-003-MTG-0
 70
     0
 62
     2
  6
CONTINUOUS
  0
LAYER
  2
LC-005-000-----0
 70
     0
 62
     7
  6
CONTINUOUS
  0
LAYER
  2
LC-001-002-----0
 70
     0
 62
     2
  6
DASHDOT
  0
LAYER
  2
LC-002-001-----0
 70
     0
 62
     1
  6
CONTINUOUS
  0
LAYER
  2
LC-004-002-RND-0
 70
     0
 62
     1
  6
CONTINUOUS
  0
LAYER
  2
LC-000
 70
     0
 62
     7
  6
CONTINUOUS
  0
ENDTAB
  0
TABLE
  2
STYLE
 70
     4
  0
STYLE
  2
STANDARD
 70
     0
 40
0.0
 41
1.0
 50
0.0
 71
     0
 42
0.0
  3
txt
  4

  0
STYLE
  2
LC-STANDARD
 70
    64
 40
0.0
 41
1.0
 50
0.0
 71
     0
 42
3.5
  3
MONOTXT
  4

  0
STYLE
  2
LC-TXTSTYLE-150-400-0-0-A2
 70
    64
 40
0.0
 41
1.0
 50
15.0
 71
     0
 42
3.5
  3
MONOTXT
  4

  0
STYLE
  2
LC-TXTSTYLE-150-400-0-0-D3
 70
    64
 40
0.0
 41
1.0
 50
15.0
 71
     0
 42
3.5
  3
LC-STANDARD
  4

  0
ENDTAB
  0
TABLE
  2
VIEW
 70
     0
  0
ENDTAB
  0
TABLE
  2
UCS
 70
     0
  0
ENDTAB
  0
TABLE
  2
APPID
 70
     1
  0
APPID
  2
ACAD
 70
     0
  0
ENDTAB
  0
TABLE
  2
DIMSTYLE
 70
     3
  0
DIMSTYLE
  2
STANDARD
 70
     0
  3

  4

  5

  6

  7

 40
1.0
 41
0.18
 42
0.0625
 43
0.38
 44
0.18
 45
0.0
 46
0.0
 47
0.0
 48
0.0
 71
     0
 72
     0
 73
     1
 74
     1
 75
     0
 76
     0
 77
     0
 78
     0
140
0.18
141
0.09
142
0.0
143
25.4
144
1.0
145
0.0
146
1.0
147
0.09
170
     0
171
     2
172
     0
173
     0
174
     0
175
     0
176
     0
177
     0
178
     0
  0
DIMSTYLE
  2
LC-STANDARD
 70
     0
  3

  4

  5

  6

  7

 40
1.0
 41
3.5
 42
0.0
 43
7.5
 44
1.8
 45
0.0
 46
0.0
 47
0.0
 48
0.0
 71
     0
 72
     0
 73
     0
 74
     0
 75
     0
 76
     0
 77
     1
 78
     8
140
3.5
141
0.0
142
0.0
143
25.4
144
1.0
145
0.0
146
0.71
147
1.5
170
     0
171
     2
172
     1
173
     0
174
     0
175
     0
176
     0
177
     0
178
     3
  0
DIMSTYLE
  2
LC-DIM-L-0140-02-02
 70
     0
  3

  4

  5

  6

  7

 40
2.0
 41
3.5
 42
0.0
 43
7.5
 44
1.8
 45
0.0
 46
0.0
 47
0.0
 48
0.0
 71
     0
 72
     0
 73
     0
 74
     0
 75
     0
 76
     0
 77
     1
 78
     8
140
14.0
141
0.0
142
0.0
143
25.4
144
1.0
145
0.0
146
0.71
147
1.5
170
     0
171
     2
172
     0
173
     0
174
     0
175
     0
176
     2
177
     2
178
     8
  0
ENDTAB
  0
ENDSEC
  0
SECTION
  2
BLOCKS
  0
BLOCK
  8
0
  5
23
  2
*X0
 70
    65
 10
314.306482
 20
275.948199
 30
0.0
  3
*X0
  0
LINE
  8
LC-003-005-----0
  6
CONTINUOUS
  5
25
 10
341.002023
 20
275.948199
 30
0.0
 11
341.306482
 21
276.252658
 31
0.0
  0
LINE
  8
LC-003-005-----0
  6
CONTINUOUS
  5
26
 10
338.306482
 20
276.081086
 30
0.0
 11
341.306482
 21
279.081086
 31
0.0
  0
LINE
  8
LC-003-005-----0
  6
CONTINUOUS
  5
27
 10
338.306482
 20
278.909513
 30
0.0
 11
341.306482
 21
281.909513
 31
0.0
  0
LINE
  8
LC-003-005-----0
  6
CONTINUOUS
  5
28
 10
338.306482
 20
281.73794
 30
0.0
 11
341.306482
 21
284.73794
 31
0.0
  0
LINE
  8
LC-003-005-----0
  6
CONTINUOUS
  5
29
 10
338.306482
 20
284.566367
 30
0.0
 11
341.306482
 21
287.566367
 31
0.0
  0
LINE
  8
LC-003-005-----0
  6
CONTINUOUS
  5
2A
 10
338.306482
 20
287.394794
 30
0.0
 11
341.306482
 21
290.394794
 31
0.0
  0
LINE
  8
LC-003-005-----0
  6
CONTINUOUS
  5
2B
 10
338.306482
 20
290.223221
 30
0.0
 11
341.306482
 21
293.223221
 31
0.0
  0
LINE
  8
LC-003-005-----0
  6
CONTINUOUS
  5
2C
 10
338.306482
 20
293.051648
 30
0.0
 11
341.306482
 21
296.051648
 31
0.0
  0
LINE
  8
LC-003-005-----0
  6
CONTINUOUS
  5
2D
 10
338.306482
 20
295.880075
 30
0.0
 11
341.306482
 21
298.880075
 31
0.0
  0
LINE
  8
LC-003-005-----0
  6
CONTINUOUS
  5
2E
 10
338.306482
 20
298.708503
 30
0.0
 11
341.306482
 21
301.708503
 31
0.0
  0
LINE
  8
LC-003-005-----0
  6
CONTINUOUS
  5
2F
 10
338.306482
 20
301.53693
 30
0.0
 11
341.306482
 21
304.53693
 31
0.0
  0
LINE
  8
LC-003-005-----0
  6
CONTINUOUS
  5
30
 10
338.306482
 20
304.365357
 30
0.0
 11
341.306482
 21
307.365357
 31
0.0
  0
LINE
  8
LC-003-005-----0
  6
CONTINUOUS
  5
31
 10
338.306482
 20
307.193784
 30
0.0
 11
341.306482
 21
310.193784
 31
0.0
  0
LINE
  8
LC-003-005-----0
  6
CONTINUOUS
  5
32
 10
338.306482
 20
310.022211
 30
0.0
 11
341.306482
 21
313.022211
 31
0.0
  0
LINE
  8
LC-003-005-----0
  6
CONTINUOUS
  5
33
 10
338.306482
 20
312.850638
 30
0.0
 11
341.306482
 21
315.850638
 31
0.0
  0
LINE
  8
LC-003-005-----0
  6
CONTINUOUS
  5
34
 10
338.306482
 20
315.679065
 30
0.0
 11
341.306482
 21
318.679065
 31
0.0
  0
LINE
  8
LC-003-005-----0
  6
CONTINUOUS
  5
35
 10
338.306482
 20
318.507492
 30
0.0
 11
341.306482
 21
321.507492
 31
0.0
  0
LINE
  8
LC-003-005-----0
  6
CONTINUOUS
  5
36
 10
338.306482
 20
321.33592
 30
0.0
 11
341.306482
 21
324.33592
 31
0.0
  0
LINE
  8
LC-003-005-----0
  6
CONTINUOUS
  5
37
 10
338.306482
 20
324.164347
 30
0.0
 11
341.306482
 21
327.164347
 31
0.0
  0
LINE
  8
LC-003-005-----0
  6
CONTINUOUS
  5
38
 10
338.306482
 20
326.992774
 30
0.0
 11
341.306482
 21
329.992774
 31
0.0
  0
LINE
  8
LC-003-005-----0
  6
CONTINUOUS
  5
39
 10
338.306482
 20
329.821201
 30
0.0
 11
341.306482
 21
332.821201
 31
0.0
  0
LINE
  8
LC-003-005-----0
  6
CONTINUOUS
  5
3A
 10
338.306482
 20
332.649628
 30
0.0
 11
341.306482
 21
335.649628
 31
0.0
  0
LINE
  8
LC-003-005-----0
  6
CONTINUOUS
  5
3B
 10
338.306482
 20
335.478055
 30
0.0
 11
341.306482
 21
338.478055
 31
0.0
  0
LINE
  8
LC-003-005-----0
  6
CONTINUOUS
  5
3C
 10
338.306482
 20
338.306482
 30
0.0
 11
341.300282
 21
341.300282
 31
0.0
  0
LINE
  8
LC-003-005-----0
  6
CONTINUOUS
  5
3D
 10
338.304056
 20
341.132483
 30
0.0
 11
340.909479
 21
343.737906
 31
0.0
  0
LINE
  8
LC-003-005-----0
  6
CONTINUOUS
  5
3E
 10
337.829942
 20
343.486796
 30
0.0
 11
340.083471
 21
345.740325
 31
0.0
  0
LINE
  8
LC-003-005-----0
  6
CONTINUOUS
  5
3F
 10
336.800558
 20
345.28584
 30
0.0
 11
338.932087
 21
347.417368
 31
0.0
  0
LINE
  8
LC-003-005-----0
  6
CONTINUOUS
  5
40
 10
335.349125
 20
346.662833
 30
0.0
 11
337.491961
 21
348.80567
 31
0.0
  0
LINE
  8
LC-003-005-----0
  6
CONTINUOUS
  5
41
 10
333.464964
 20
347.607099
 30
0.0
 11
335.759746
 21
349.901882
 31
0.0
  0
LINE
  8
LC-003-005-----0
  6
CONTINUOUS
  5
42
 10
330.977636
 20
347.948199
 30
0.0
 11
333.689538
 21
350.660101
 31
0.0
  0
LINE
  8
LC-003-005-----0
  6
CONTINUOUS
  5
43
 10
328.149209
 20
347.948199
 30
0.0
 11
331.149209
 21
350.948199
 31
0.0
  0
LINE
  8
LC-003-005-----0
  6
CONTINUOUS
  5
44
 10
325.320782
 20
347.948199
 30
0.0
 11
328.320782
 21
350.948199
 31
0.0
  0
LINE
  8
LC-003-005-----0
  6
CONTINUOUS
  5
45
 10
322.492355
 20
347.948199
 30
0.0
 11
325.492355
 21
350.948199
 31
0.0
  0
LINE
  8
LC-003-005-----0
  6
CONTINUOUS
  5
46
 10
319.663928
 20
347.948199
 30
0.0
 11
322.663928
 21
350.948199
 31
0.0
  0
LINE
  8
LC-003-005-----0
  6
CONTINUOUS
  5
47
 10
316.8355
 20
347.948199
 30
0.0
 11
319.8355
 21
350.948199
 31
0.0
  0
LINE
  8
LC-003-005-----0
  6
CONTINUOUS
  5
48
 10
314.306482
 20
348.247608
 30
0.0
 11
317.306482
 21
351.247608
 31
0.0
  0
LINE
  8
LC-003-005-----0
  6
CONTINUOUS
  5
49
 10
314.306482
 20
351.076035
 30
0.0
 11
317.306482
 21
354.076035
 31
0.0
  0
LINE
  8
LC-003-005-----0
  6
CONTINUOUS
  5
4A
 10
314.306482
 20
353.904462
 30
0.0
 11
317.306482
 21
356.904462
 31
0.0
  0
LINE
  8
LC-003-005-----0
  6
CONTINUOUS
  5
4B
 10
317.350219
 20
356.948199
 30
0.0
 11
319.306482
 21
358.904462
 31
0.0
  0
LINE
  8
LC-003-005-----0
  6
CONTINUOUS
  5
4C
 10
314.306482
 20
356.732889
 30
0.0
 11
319.306482
 21
361.732889
 31
0.0
  0
LINE
  8
LC-003-005-----0
  6
CONTINUOUS
  5
4D
 10
314.306482
 20
359.561316
 30
0.0
 11
314.693365
 21
359.948199
 31
0.0
  0
LINE
  8
LC-003-005-----0
  6
CONTINUOUS
  5
4E
 10
315.806482
 20
361.061316
 30
0.0
 11
319.306482
 21
364.561316
 31
0.0
  0
LINE
  8
LC-003-005-----0
  6
CONTINUOUS
  5
4F
 10
315.806482
 20
363.889743
 30
0.0
 11
317.864938
 21
365.948199
 31
0.0
  0
ENDBLK
  8
0
  5
50
  0
BLOCK
  8
0
  5
52
  2
*X1
 70
    65
 10
197.306482
 20
275.948199
 30
0.0
  3
*X1
  0
LINE
  8
LC-003-005-----0
  6
CONTINUOUS
  5
53
 10
199.580666
 20
275.948199
 30
0.0
 11
200.306482
 21
276.674015
 31
0.0
  0
LINE
  8
LC-003-005-----0
  6
CONTINUOUS
  5
54
 10
197.306482
 20
276.502442
 30
0.0
 11
200.306482
 21
279.502442
 31
0.0
  0
LINE
  8
LC-003-005-----0
  6
CONTINUOUS
  5
55
 10
197.306482
 20
279.330869
 30
0.0
 11
200.306482
 21
282.330869
 31
0.0
  0
LINE
  8
LC-003-005-----0
  6
CONTINUOUS
  5
56
 10
197.306482
 20
282.159296
 30
0.0
 11
200.306482
 21
285.159296
 31
0.0
  0
LINE
  8
LC-003-005-----0
  6
CONTINUOUS
  5
57
 10
197.306482
 20
284.987723
 30
0.0
 11
200.306482
 21
287.987723
 31
0.0
  0
LINE
  8
LC-003-005-----0
  6
CONTINUOUS
  5
58
 10
197.306482
 20
287.81615
 30
0.0
 11
200.306482
 21
290.81615
 31
0.0
  0
LINE
  8
LC-003-005-----0
  6
CONTINUOUS
  5
59
 10
197.306482
 20
290.644577
 30
0.0
 11
200.306482
 21
293.644577
 31
0.0
  0
LINE
  8
LC-003-005-----0
  6
CONTINUOUS
  5
5A
 10
197.306482
 20
293.473005
 30
0.0
 11
200.306482
 21
296.473005
 31
0.0
  0
LINE
  8
LC-003-005-----0
  6
CONTINUOUS
  5
5B
 10
197.306482
 20
296.301432
 30
0.0
 11
200.306482
 21
299.301432
 31
0.0
  0
LINE
  8
LC-003-005-----0
  6
CONTINUOUS
  5
5C
 10
197.306482
 20
299.129859
 30
0.0
 11
200.306482
 21
302.129859
 31
0.0
  0
LINE
  8
LC-003-005-----0
  6
CONTINUOUS
  5
5D
 10
197.306482
 20
301.958286
 30
0.0
 11
200.306482
 21
304.958286
 31
0.0
  0
LINE
  8
LC-003-005-----0
  6
CONTINUOUS
  5
5E
 10
197.306482
 20
304.786713
 30
0.0
 11
200.306482
 21
307.786713
 31
0.0
  0
LINE
  8
LC-003-005-----0
  6
CONTINUOUS
  5
5F
 10
197.306482
 20
307.61514
 30
0.0
 11
200.306482
 21
310.61514
 31
0.0
  0
LINE
  8
LC-003-005-----0
  6
CONTINUOUS
  5
60
 10
197.306482
 20
310.443567
 30
0.0
 11
200.306482
 21
313.443567
 31
0.0
  0
LINE
  8
LC-003-005-----0
  6
CONTINUOUS
  5
61
 10
197.306482
 20
313.271994
 30
0.0
 11
200.306482
 21
316.271994
 31
0.0
  0
LINE
  8
LC-003-005-----0
  6
CONTINUOUS
  5
62
 10
197.306482
 20
316.100422
 30
0.0
 11
200.306482
 21
319.100422
 31
0.0
  0
LINE
  8
LC-003-005-----0
  6
CONTINUOUS
  5
63
 10
197.306482
 20
318.928849
 30
0.0
 11
200.306482
 21
321.928849
 31
0.0
  0
LINE
  8
LC-003-005-----0
  6
CONTINUOUS
  5
64
 10
197.306482
 20
321.757276
 30
0.0
 11
200.306482
 21
324.757276
 31
0.0
  0
LINE
  8
LC-003-005-----0
  6
CONTINUOUS
  5
65
 10
223.497405
 20
347.948199
 30
0.0
 11
224.306482
 21
348.757276
 31
0.0
  0
LINE
  8
LC-003-005-----0
  6
CONTINUOUS
  5
66
 10
197.306482
 20
324.585703
 30
0.0
 11
200.306482
 21
327.585703
 31
0.0
  0
LINE
  8
LC-003-005-----0
  6
CONTINUOUS
  5
67
 10
220.668978
 20
347.948199
 30
0.0
 11
224.306482
 21
351.585703
 31
0.0
  0
LINE
  8
LC-003-005-----0
  6
CONTINUOUS
  5
68
 10
197.306482
 20
327.41413
 30
0.0
 11
200.306482
 21
330.41413
 31
0.0
  0
LINE
  8
LC-003-005-----0
  6
CONTINUOUS
  5
69
 10
217.840551
 20
347.948199
 30
0.0
 11
220.840551
 21
350.948199
 31
0.0
  0
LINE
  8
LC-003-005-----0
  6
CONTINUOUS
  5
6A
 10
221.306482
 20
351.41413
 30
0.0
 11
224.306482
 21
354.41413
 31
0.0
  0
LINE
  8
LC-003-005-----0
  6
CONTINUOUS
  5
6B
 10
197.306482
 20
330.242557
 30
0.0
 11
200.306482
 21
333.242557
 31
0.0
  0
LINE
  8
LC-003-005-----0
  6
CONTINUOUS
  5
6C
 10
215.012124
 20
347.948199
 30
0.0
 11
218.012124
 21
350.948199
 31
0.0
  0
LINE
  8
LC-003-005-----0
  6
CONTINUOUS
  5
6D
 10
221.306482
 20
354.242557
 30
0.0
 11
224.306482
 21
357.242557
 31
0.0
  0
LINE
  8
LC-003-005-----0
  6
CONTINUOUS
  5
6E
 10
197.306482
 20
333.070984
 30
0.0
 11
200.306482
 21
336.070984
 31
0.0
  0
LINE
  8
LC-003-005-----0
  6
CONTINUOUS
  5
6F
 10
212.183697
 20
347.948199
 30
0.0
 11
215.183697
 21
350.948199
 31
0.0
  0
LINE
  8
LC-003-005-----0
  6
CONTINUOUS
  5
70
 10
221.183697
 20
356.948199
 30
0.0
 11
224.183697
 21
359.948199
 31
0.0
  0
LINE
  8
LC-003-005-----0
  6
CONTINUOUS
  5
71
 10
197.306482
 20
335.899411
 30
0.0
 11
200.306482
 21
338.899411
 31
0.0
  0
LINE
  8
LC-003-005-----0
  6
CONTINUOUS
  5
72
 10
209.35527
 20
347.948199
 30
0.0
 11
212.35527
 21
350.948199
 31
0.0
  0
LINE
  8
LC-003-005-----0
  6
CONTINUOUS
  5
73
 10
219.306482
 20
357.899411
 30
0.0
 11
222.806482
 21
361.399411
 31
0.0
  0
LINE
  8
LC-003-005-----0
  6
CONTINUOUS
  5
74
 10
197.306482
 20
338.727839
 30
0.0
 11
200.355731
 21
341.777087
 31
0.0
  0
LINE
  8
LC-003-005-----0
  6
CONTINUOUS
  5
75
 10
206.477594
 20
347.89895
 30
0.0
 11
209.526843
 21
350.948199
 31
0.0
  0
LINE
  8
LC-003-005-----0
  6
CONTINUOUS
  5
76
 10
219.306482
 20
360.727839
 30
0.0
 11
222.806482
 21
364.227839
 31
0.0
  0
LINE
  8
LC-003-005-----0
  6
CONTINUOUS
  5
77
 10
197.326208
 20
341.575991
 30
0.0
 11
206.67869
 21
350.928473
 31
0.0
  0
LINE
  8
LC-003-005-----0
  6
CONTINUOUS
  5
78
 10
219.306482
 20
363.556266
 30
0.0
 11
221.698415
 21
365.948199
 31
0.0
  0
LINE
  8
LC-003-005-----0
  6
CONTINUOUS
  5
79
 10
198.382525
 20
345.460736
 30
0.0
 11
202.793946
 21
349.872156
 31
0.0
  0
ENDBLK
  8
0
  5
7A
  0
BLOCK
  8
0
  5
7C
  2
BLK1
 70
    64
 10
0.0
 20
0.0
 30
0.0
  3
BLK1
  0
ENDBLK
  8
0
  5
7D
  0
BLOCK
  8
0
  5
7F
  2
*D3
 70
    65
 10
0.0
 20
0.0
 30
0.0
  3
*D3
  0
LINE
  8
LC-007-003-MTH-0
  6
CONTINUOUS
  5
81
 10
219.306482
 20
356.948199
 30
0.0
 11
140.0
 21
356.948199
 31
0.0
  0
LINE
  8
LC-007-003-MTH-0
  6
CONTINUOUS
  5
82
 10
219.306482
 20
365.948199
 30
0.0
 11
140.0
 21
365.948199
 31
0.0
  0
LINE
  8
LC-006-003-----0
  6
CONTINUOUS
  5
84
 10
160.454733
 20
329.187743
 30
0.0
 11
156.8
 21
356.948199
 31
0.0
  0
LINE
  8
LC-006-003-----0
  6
CONTINUOUS
  5
85
 10
156.8
 20
356.948199
 30
0.0
 11
153.145267
 21
329.187743
 31
0.0
  0
LINE
  8
LC-006-003-----0
  6
CONTINUOUS
  5
86
 10
153.145267
 20
329.187743
 30
0.0
 11
160.454733
 21
329.187743
 31
0.0
  0
LINE
  8
LC-006-003-----0
  6
CONTINUOUS
  5
87
 10
159.504503
 20
329.125461
 30
0.0
 11
156.8
 21
349.668199
 31
0.0
  0
LINE
  8
LC-006-003-----0
  6
CONTINUOUS
  5
88
 10
156.8
 20
349.668199
 30
0.0
 11
154.095497
 21
329.125461
 31
0.0
  0
LINE
  8
LC-006-003-----0
  6
CONTINUOUS
  5
89
 10
158.554272
 20
329.06318
 30
0.0
 11
156.8
 21
342.388199
 31
0.0
  0
LINE
  8
LC-006-003-----0
  6
CONTINUOUS
  5
8A
 10
156.8
 20
342.388199
 30
0.0
 11
155.045728
 21
329.06318
 31
0.0
  0
LINE
  8
LC-006-003-----0
  6
CONTINUOUS
  5
8B
 10
157.604041
 20
329.000899
 30
0.0
 11
156.8
 21
335.108199
 31
0.0
  0
LINE
  8
LC-006-003-----0
  6
CONTINUOUS
  5
8C
 10
156.8
 20
335.108199
 30
0.0
 11
155.995959
 21
329.000899
 31
0.0
  0
LINE
  8
LC-006-003-----0
  6
CONTINUOUS
  5
8D
 10
153.145267
 20
393.708655
 30
0.0
 11
156.8
 21
365.948199
 31
0.0
  0
LINE
  8
LC-006-003-----0
  6
CONTINUOUS
  5
8E
 10
156.8
 20
365.948199
 30
0.0
 11
160.454733
 21
393.708655
 31
0.0
  0
LINE
  8
LC-006-003-----0
  6
CONTINUOUS
  5
8F
 10
160.454733
 20
393.708655
 30
0.0
 11
153.145267
 21
393.708655
 31
0.0
  0
LINE
  8
LC-006-003-----0
  6
CONTINUOUS
  5
90
 10
154.095497
 20
393.770936
 30
0.0
 11
156.8
 21
373.228199
 31
0.0
  0
LINE
  8
LC-006-003-----0
  6
CONTINUOUS
  5
91
 10
156.8
 20
373.228199
 30
0.0
 11
159.504503
 21
393.770936
 31
0.0
  0
LINE
  8
LC-006-003-----0
  6
CONTINUOUS
  5
92
 10
155.045728
 20
393.833218
 30
0.0
 11
156.8
 21
380.508199
 31
0.0
  0
LINE
  8
LC-006-003-----0
  6
CONTINUOUS
  5
93
 10
156.8
 20
380.508199
 30
0.0
 11
158.554272
 21
393.833218
 31
0.0
  0
LINE
  8
LC-006-003-----0
  6
CONTINUOUS
  5
94
 10
155.995959
 20
393.895499
 30
0.0
 11
156.8
 21
387.788199
 31
0.0
  0
LINE
  8
LC-006-003-----0
  6
CONTINUOUS
  5
95
 10
156.8
 20
387.788199
 30
0.0
 11
157.604041
 21
393.895499
 31
0.0
  0
LINE
  8
LC-008-003-MTG-0
  6
CONTINUOUS
  5
97
 10
156.8
 20
291.185999
 30
0.0
 11
156.8
 21
405.148199
 31
0.0
  0
TEXT
  8
LC-006-003-----0
  6
CONTINUOUS
 62
     8
  5
99
 10
148.972446
 20
308.929745
 30
0.0
 40
28.0
  1
9
 50
90.0
 41
0.9
 51
15.0
  7
LC-TXTSTYLE-150-400-0-0-D0
 72
     2
 11
148.972446
 21
323.216359
 31
0.0
  0
ENDBLK
  8
0
  5
9A
  0
BLOCK
  8
0
  5
9C
  2
*D4
 70
    65
 10
0.0
 20
0.0
 30
0.0
  3
*D4
  0
LINE
  8
LC-007-003-MTH-0
  6
CONTINUOUS
  5
9D
 10
219.306725
 20
365.948407
 30
0.0
 11
219.306725
 21
416.8
 31
0.0
  0
LINE
  8
LC-007-003-MTH-0
  6
CONTINUOUS
  5
9E
 10
319.306482
 20
365.948199
 30
0.0
 11
319.306482
 21
416.8
 31
0.0
  0
LINE
  8
LC-008-003-MTG-0
  6
CONTINUOUS
  5
9F
 10
219.306725
 20
400.0
 30
0.0
 11
319.306482
 21
400.0
 31
0.0
  0
LINE
  8
LC-006-003-----0
  6
CONTINUOUS
  5
A0
 10
247.067182
 20
403.654733
 30
0.0
 11
219.306725
 21
400.0
 31
0.0
  0
LINE
  8
LC-006-003-----0
  6
CONTINUOUS
  5
A1
 10
219.306725
 20
400.0
 30
0.0
 11
247.067182
 21
396.345267
 31
0.0
  0
LINE
  8
LC-006-003-----0
  6
CONTINUOUS
  5
A2
 10
247.067182
 20
396.345267
 30
0.0
 11
247.067182
 21
403.654733
 31
0.0
  0
LINE
  8
LC-006-003-----0
  6
CONTINUOUS
  5
A3
 10
247.129463
 20
402.704503
 30
0.0
 11
226.586725
 21
400.0
 31
0.0
  0
LINE
  8
LC-006-003-----0
  6
CONTINUOUS
  5
A4
 10
226.586725
 20
400.0
 30
0.0
 11
247.129463
 21
397.295497
 31
0.0
  0
LINE
  8
LC-006-003-----0
  6
CONTINUOUS
  5
A5
 10
247.191744
 20
401.754272
 30
0.0
 11
233.866725
 21
400.0
 31
0.0
  0
LINE
  8
LC-006-003-----0
  6
CONTINUOUS
  5
A6
 10
233.866725
 20
400.0
 30
0.0
 11
247.191744
 21
398.245728
 31
0.0
  0
LINE
  8
LC-006-003-----0
  6
CONTINUOUS
  5
A7
 10
247.254026
 20
400.804041
 30
0.0
 11
241.146725
 21
400.0
 31
0.0
  0
LINE
  8
LC-006-003-----0
  6
CONTINUOUS
  5
A8
 10
241.146725
 20
400.0
 30
0.0
 11
247.254026
 21
399.195959
 31
0.0
  0
LINE
  8
LC-006-003-----0
  6
CONTINUOUS
  5
A9
 10
291.546026
 20
396.345267
 30
0.0
 11
319.306482
 21
400.0
 31
0.0
  0
LINE
  8
LC-006-003-----0
  6
CONTINUOUS
  5
AA
 10
319.306482
 20
400.0
 30
0.0
 11
291.546026
 21
403.654733
 31
0.0
  0
LINE
  8
LC-006-003-----0
  6
CONTINUOUS
  5
AB
 10
291.546026
 20
403.654733
 30
0.0
 11
291.546026
 21
396.345267
 31
0.0
  0
LINE
  8
LC-006-003-----0
  6
CONTINUOUS
  5
AC
 10
291.483745
 20
397.295497
 30
0.0
 11
312.026482
 21
400.0
 31
0.0
  0
LINE
  8
LC-006-003-----0
  6
CONTINUOUS
  5
AD
 10
312.026482
 20
400.0
 30
0.0
 11
291.483745
 21
402.704503
 31
0.0
  0
LINE
  8
LC-006-003-----0
  6
CONTINUOUS
  5
AE
 10
291.421463
 20
398.245728
 30
0.0
 11
304.746482
 21
400.0
 31
0.0
  0
LINE
  8
LC-006-003-----0
  6
CONTINUOUS
  5
AF
 10
304.746482
 20
400.0
 30
0.0
 11
291.421463
 21
401.754272
 31
0.0
  0
LINE
  8
LC-006-003-----0
  6
CONTINUOUS
  5
B0
 10
291.359182
 20
399.195959
 30
0.0
 11
297.466482
 21
400.0
 31
0.0
  0
LINE
  8
LC-006-003-----0
  6
CONTINUOUS
  5
B1
 10
297.466482
 20
400.0
 30
0.0
 11
291.359182
 21
400.804041
 31
0.0
  0
TEXT
  8
LC-006-003-----0
  6
CONTINUOUS
 62
     8
  5
B2
 10
244.759227
 20
407.827554
 30
0.0
 40
28.0
  1
100
 51
15.0
  7
LC-TXTSTYLE-150-400-0-0-D0
 72
     1
 11
274.523006
 21
407.827554
 31
0.0
  0
ENDBLK
  8
0
  5
B3
  0
BLOCK
  8
0
  5
B5
  2
*D5
 70
    65
 10
0.0
 20
0.0
 30
0.0
  3
*D5
  0
LINE
  8
LC-007-003-MTH-0
  6
CONTINUOUS
  5
B6
 10
197.306667
 20
275.948421
 30
0.0
 11
197.306667
 21
203.200351
 31
0.0
  0
LINE
  8
LC-007-003-MTH-0
  6
CONTINUOUS
  5
B7
 10
341.306482
 20
275.948199
 30
0.0
 11
341.306482
 21
203.200351
 31
0.0
  0
LINE
  8
LC-008-003-MTG-0
  6
CONTINUOUS
  5
B8
 10
197.306667
 20
220.000351
 30
0.0
 11
341.306482
 21
220.000351
 31
0.0
  0
LINE
  8
LC-006-003-----0
  6
CONTINUOUS
  5
B9
 10
225.067123
 20
223.655084
 30
0.0
 11
197.306667
 21
220.000351
 31
0.0
  0
LINE
  8
LC-006-003-----0
  6
CONTINUOUS
  5
BA
 10
197.306667
 20
220.000351
 30
0.0
 11
225.067123
 21
216.345617
 31
0.0
  0
LINE
  8
LC-006-003-----0
  6
CONTINUOUS
  5
BB
 10
225.067123
 20
216.345617
 30
0.0
 11
225.067123
 21
223.655084
 31
0.0
  0
LINE
  8
LC-006-003-----0
  6
CONTINUOUS
  5
BC
 10
225.129404
 20
222.704853
 30
0.0
 11
204.586667
 21
220.000351
 31
0.0
  0
LINE
  8
LC-006-003-----0
  6
CONTINUOUS
  5
BD
 10
204.586667
 20
220.000351
 30
0.0
 11
225.129404
 21
217.295848
 31
0.0
  0
LINE
  8
LC-006-003-----0
  6
CONTINUOUS
  5
BE
 10
225.191686
 20
221.754623
 30
0.0
 11
211.866667
 21
220.000351
 31
0.0
  0
LINE
  8
LC-006-003-----0
  6
CONTINUOUS
  5
BF
 10
211.866667
 20
220.000351
 30
0.0
 11
225.191686
 21
218.246079
 31
0.0
  0
LINE
  8
LC-006-003-----0
  6
CONTINUOUS
  5
C0
 10
225.253967
 20
220.804392
 30
0.0
 11
219.146667
 21
220.000351
 31
0.0
  0
LINE
  8
LC-006-003-----0
  6
CONTINUOUS
  5
C1
 10
219.146667
 20
220.000351
 30
0.0
 11
225.253967
 21
219.196309
 31
0.0
  0
LINE
  8
LC-006-003-----0
  6
CONTINUOUS
  5
C2
 10
313.546026
 20
216.345617
 30
0.0
 11
341.306482
 21
220.000351
 31
0.0
  0
LINE
  8
LC-006-003-----0
  6
CONTINUOUS
  5
C3
 10
341.306482
 20
220.000351
 30
0.0
 11
313.546026
 21
223.655084
 31
0.0
  0
LINE
  8
LC-006-003-----0
  6
CONTINUOUS
  5
C4
 10
313.546026
 20
223.655084
 30
0.0
 11
313.546026
 21
216.345617
 31
0.0
  0
LINE
  8
LC-006-003-----0
  6
CONTINUOUS
  5
C5
 10
313.483745
 20
217.295848
 30
0.0
 11
334.026482
 21
220.000351
 31
0.0
  0
LINE
  8
LC-006-003-----0
  6
CONTINUOUS
  5
C6
 10
334.026482
 20
220.000351
 30
0.0
 11
313.483745
 21
222.704853
 31
0.0
  0
LINE
  8
LC-006-003-----0
  6
CONTINUOUS
  5
C7
 10
313.421463
 20
218.246079
 30
0.0
 11
326.746482
 21
220.000351
 31
0.0
  0
LINE
  8
LC-006-003-----0
  6
CONTINUOUS
  5
C8
 10
326.746482
 20
220.000351
 30
0.0
 11
313.421463
 21
221.754623
 31
0.0
  0
LINE
  8
LC-006-003-----0
  6
CONTINUOUS
  5
C9
 10
313.359182
 20
219.196309
 30
0.0
 11
319.466482
 21
220.000351
 31
0.0
  0
LINE
  8
LC-006-003-----0
  6
CONTINUOUS
  5
CA
 10
319.466482
 20
220.000351
 30
0.0
 11
313.359182
 21
220.804392
 31
0.0
  0
TEXT
  8
LC-006-003-----0
  6
CONTINUOUS
 62
     8
  5
CB
 10
232.951913
 20
227.827905
 30
0.0
 40
28.0
  1
Ø145
 51
15.0
  7
LC-TXTSTYLE-150-400-0-0-D0
 72
     1
 11
271.049551
 21
227.827905
 31
0.0
  0
ENDBLK
  8
0
  5
CC
  0
BLOCK
  8
0
  5
CE
  2
*X6
 70
    65
 10
269.306482
 20
275.948199
 30
0.0
  3
*X6
  0
LINE
  8
LC-003-005-----0
  6
CONTINUOUS
  5
CF
 10
338.173596
 20
275.948199
 30
0.0
 11
338.306482
 21
276.081086
 31
0.0
  0
LINE
  8
LC-003-005-----0
  6
CONTINUOUS
  5
D0
 10
332.516741
 20
275.948199
 30
0.0
 11
338.306482
 21
281.73794
 31
0.0
  0
LINE
  8
LC-003-005-----0
  6
CONTINUOUS
  5
D1
 10
326.859887
 20
275.948199
 30
0.0
 11
338.306482
 21
287.394794
 31
0.0
  0
LINE
  8
LC-003-005-----0
  6
CONTINUOUS
  5
D2
 10
321.203033
 20
275.948199
 30
0.0
 11
338.306482
 21
293.051648
 31
0.0
  0
LINE
  8
LC-003-005-----0
  6
CONTINUOUS
  5
D3
 10
315.546179
 20
275.948199
 30
0.0
 11
338.306482
 21
298.708503
 31
0.0
  0
LINE
  8
LC-003-005-----0
  6
CONTINUOUS
  5
D4
 10
309.889324
 20
275.948199
 30
0.0
 11
332.889324
 21
298.948199
 31
0.0
  0
LINE
  8
LC-003-005-----0
  6
CONTINUOUS
  5
D5
 10
304.23247
 20
275.948199
 30
0.0
 11
327.23247
 21
298.948199
 31
0.0
  0
LINE
  8
LC-003-005-----0
  6
CONTINUOUS
  5
D6
 10
298.575616
 20
275.948199
 30
0.0
 11
321.575616
 21
298.948199
 31
0.0
  0
LINE
  8
LC-003-005-----0
  6
CONTINUOUS
  5
D7
 10
292.918762
 20
275.948199
 30
0.0
 11
315.918762
 21
298.948199
 31
0.0
  0
LINE
  8
LC-003-005-----0
  6
CONTINUOUS
  5
D8
 10
287.261907
 20
275.948199
 30
0.0
 11
310.261907
 21
298.948199
 31
0.0
  0
LINE
  8
LC-003-005-----0
  6
CONTINUOUS
  5
D9
 10
281.605053
 20
275.948199
 30
0.0
 11
304.605053
 21
298.948199
 31
0.0
  0
LINE
  8
LC-003-005-----0
  6
CONTINUOUS
  5
DA
 10
275.948199
 20
275.948199
 30
0.0
 11
298.948199
 21
298.948199
 31
0.0
  0
LINE
  8
LC-003-005-----0
  6
CONTINUOUS
  5
DB
 10
270.291345
 20
275.948199
 30
0.0
 11
293.291345
 21
298.948199
 31
0.0
  0
LINE
  8
LC-003-005-----0
  6
CONTINUOUS
  5
DC
 10
269.306482
 20
280.620191
 30
0.0
 11
287.63449
 21
298.948199
 31
0.0
  0
LINE
  8
LC-003-005-----0
  6
CONTINUOUS
  5
DD
 10
269.306482
 20
286.277045
 30
0.0
 11
281.977636
 21
298.948199
 31
0.0
  0
LINE
  8
LC-003-005-----0
  6
CONTINUOUS
  5
DE
 10
269.306482
 20
291.933899
 30
0.0
 11
276.320782
 21
298.948199
 31
0.0
  0
LINE
  8
LC-003-005-----0
  6
CONTINUOUS
  5
DF
 10
269.306482
 20
297.590754
 30
0.0
 11
270.663928
 21
298.948199
 31
0.0
  0
LINE
  8
LC-003-005-----0
  6
CONTINUOUS
  5
E0
 10
338.306482
 20
295.261194
 30
0.0
 11
334.619477
 21
298.948199
 31
0.0
  0
LINE
  8
LC-003-005-----0
  6
CONTINUOUS
  5
E1
 10
338.306482
 20
289.604339
 30
0.0
 11
328.962623
 21
298.948199
 31
0.0
  0
LINE
  8
LC-003-005-----0
  6
CONTINUOUS
  5
E2
 10
338.306482
 20
283.947485
 30
0.0
 11
323.305769
 21
298.948199
 31
0.0
  0
LINE
  8
LC-003-005-----0
  6
CONTINUOUS
  5
E3
 10
338.306482
 20
278.290631
 30
0.0
 11
317.648914
 21
298.948199
 31
0.0
  0
LINE
  8
LC-003-005-----0
  6
CONTINUOUS
  5
E4
 10
334.99206
 20
275.948199
 30
0.0
 11
311.99206
 21
298.948199
 31
0.0
  0
LINE
  8
LC-003-005-----0
  6
CONTINUOUS
  5
E5
 10
329.335206
 20
275.948199
 30
0.0
 11
306.335206
 21
298.948199
 31
0.0
  0
LINE
  8
LC-003-005-----0
  6
CONTINUOUS
  5
E6
 10
323.678352
 20
275.948199
 30
0.0
 11
300.678352
 21
298.948199
 31
0.0
  0
LINE
  8
LC-003-005-----0
  6
CONTINUOUS
  5
E7
 10
318.021497
 20
275.948199
 30
0.0
 11
295.021497
 21
298.948199
 31
0.0
  0
LINE
  8
LC-003-005-----0
  6
CONTINUOUS
  5
E8
 10
312.364643
 20
275.948199
 30
0.0
 11
289.364643
 21
298.948199
 31
0.0
  0
LINE
  8
LC-003-005-----0
  6
CONTINUOUS
  5
E9
 10
306.707789
 20
275.948199
 30
0.0
 11
283.707789
 21
298.948199
 31
0.0
  0
LINE
  8
LC-003-005-----0
  6
CONTINUOUS
  5
EA
 10
301.050935
 20
275.948199
 30
0.0
 11
278.050935
 21
298.948199
 31
0.0
  0
LINE
  8
LC-003-005-----0
  6
CONTINUOUS
  5
EB
 10
295.39408
 20
275.948199
 30
0.0
 11
272.39408
 21
298.948199
 31
0.0
  0
LINE
  8
LC-003-005-----0
  6
CONTINUOUS
  5
EC
 10
289.737226
 20
275.948199
 30
0.0
 11
269.306482
 21
296.378943
 31
0.0
  0
LINE
  8
LC-003-005-----0
  6
CONTINUOUS
  5
ED
 10
284.080372
 20
275.948199
 30
0.0
 11
269.306482
 21
290.722088
 31
0.0
  0
LINE
  8
LC-003-005-----0
  6
CONTINUOUS
  5
EE
 10
278.423518
 20
275.948199
 30
0.0
 11
269.306482
 21
285.065234
 31
0.0
  0
LINE
  8
LC-003-005-----0
  6
CONTINUOUS
  5
EF
 10
272.766663
 20
275.948199
 30
0.0
 11
269.306482
 21
279.40838
 31
0.0
  0
ENDBLK
  8
0
  5
F0
  0
BLOCK
  8
0
  5
F2
  2
*X7
 70
    65
 10
200.306665
 20
275.948199
 30
0.0
  3
*X7
  0
LINE
  8
LC-003-005-----0
  6
CONTINUOUS
  5
F3
 10
264.63449
 20
275.948199
 30
0.0
 11
269.306482
 21
280.620191
 31
0.0
  0
LINE
  8
LC-003-005-----0
  6
CONTINUOUS
  5
F4
 10
258.977636
 20
275.948199
 30
0.0
 11
269.306482
 21
286.277045
 31
0.0
  0
LINE
  8
LC-003-005-----0
  6
CONTINUOUS
  5
F5
 10
253.320782
 20
275.948199
 30
0.0
 11
269.306482
 21
291.933899
 31
0.0
  0
LINE
  8
LC-003-005-----0
  6
CONTINUOUS
  5
F6
 10
247.663928
 20
275.948199
 30
0.0
 11
269.306482
 21
297.590754
 31
0.0
  0
LINE
  8
LC-003-005-----0
  6
CONTINUOUS
  5
F7
 10
242.007073
 20
275.948199
 30
0.0
 11
265.007073
 21
298.948199
 31
0.0
  0
LINE
  8
LC-003-005-----0
  6
CONTINUOUS
  5
F8
 10
236.350219
 20
275.948199
 30
0.0
 11
259.350219
 21
298.948199
 31
0.0
  0
LINE
  8
LC-003-005-----0
  6
CONTINUOUS
  5
F9
 10
230.693365
 20
275.948199
 30
0.0
 11
253.693365
 21
298.948199
 31
0.0
  0
LINE
  8
LC-003-005-----0
  6
CONTINUOUS
  5
FA
 10
225.036511
 20
275.948199
 30
0.0
 11
248.036511
 21
298.948199
 31
0.0
  0
LINE
  8
LC-003-005-----0
  6
CONTINUOUS
  5
FB
 10
219.379656
 20
275.948199
 30
0.0
 11
242.379656
 21
298.948199
 31
0.0
  0
LINE
  8
LC-003-005-----0
  6
CONTINUOUS
  5
FC
 10
213.722802
 20
275.948199
 30
0.0
 11
236.722802
 21
298.948199
 31
0.0
  0
LINE
  8
LC-003-005-----0
  6
CONTINUOUS
  5
FD
 10
208.065948
 20
275.948199
 30
0.0
 11
231.065948
 21
298.948199
 31
0.0
  0
LINE
  8
LC-003-005-----0
  6
CONTINUOUS
  5
FE
 10
202.409094
 20
275.948199
 30
0.0
 11
225.409094
 21
298.948199
 31
0.0
  0
LINE
  8
LC-003-005-----0
  6
CONTINUOUS
  5
FF
 10
200.306667
 20
279.502627
 30
0.0
 11
219.752239
 21
298.948199
 31
0.0
  0
LINE
  8
LC-003-005-----0
  6
CONTINUOUS
  5
100
 10
200.306671
 20
285.159485
 30
0.0
 11
214.095385
 21
298.948199
 31
0.0
  0
LINE
  8
LC-003-005-----0
  6
CONTINUOUS
  5
101
 10
200.306675
 20
290.816343
 30
0.0
 11
208.438531
 21
298.948199
 31
0.0
  0
LINE
  8
LC-003-005-----0
  6
CONTINUOUS
  5
102
 10
200.306678
 20
296.473201
 30
0.0
 11
202.781677
 21
298.948199
 31
0.0
  0
LINE
  8
LC-003-005-----0
  6
CONTINUOUS
  5
103
 10
269.306482
 20
296.378943
 30
0.0
 11
266.737226
 21
298.948199
 31
0.0
  0
LINE
  8
LC-003-005-----0
  6
CONTINUOUS
  5
104
 10
269.306482
 20
290.722088
 30
0.0
 11
261.080372
 21
298.948199
 31
0.0
  0
LINE
  8
LC-003-005-----0
  6
CONTINUOUS
  5
105
 10
269.306482
 20
285.065234
 30
0.0
 11
255.423518
 21
298.948199
 31
0.0
  0
LINE
  8
LC-003-005-----0
  6
CONTINUOUS
  5
106
 10
269.306482
 20
279.40838
 30
0.0
 11
249.766663
 21
298.948199
 31
0.0
  0
LINE
  8
LC-003-005-----0
  6
CONTINUOUS
  5
107
 10
267.109809
 20
275.948199
 30
0.0
 11
244.109809
 21
298.948199
 31
0.0
  0
LINE
  8
LC-003-005-----0
  6
CONTINUOUS
  5
108
 10
261.452955
 20
275.948199
 30
0.0
 11
238.452955
 21
298.948199
 31
0.0
  0
LINE
  8
LC-003-005-----0
  6
CONTINUOUS
  5
109
 10
255.796101
 20
275.948199
 30
0.0
 11
232.796101
 21
298.948199
 31
0.0
  0
LINE
  8
LC-003-005-----0
  6
CONTINUOUS
  5
10A
 10
250.139246
 20
275.948199
 30
0.0
 11
227.139246
 21
298.948199
 31
0.0
  0
LINE
  8
LC-003-005-----0
  6
CONTINUOUS
  5
10B
 10
244.482392
 20
275.948199
 30
0.0
 11
221.482392
 21
298.948199
 31
0.0
  0
LINE
  8
LC-003-005-----0
  6
CONTINUOUS
  5
10C
 10
238.825538
 20
275.948199
 30
0.0
 11
215.825538
 21
298.948199
 31
0.0
  0
LINE
  8
LC-003-005-----0
  6
CONTINUOUS
  5
10D
 10
233.168684
 20
275.948199
 30
0.0
 11
210.168684
 21
298.948199
 31
0.0
  0
LINE
  8
LC-003-005-----0
  6
CONTINUOUS
  5
10E
 10
227.511829
 20
275.948199
 30
0.0
 11
204.511829
 21
298.948199
 31
0.0
  0
LINE
  8
LC-003-005-----0
  6
CONTINUOUS
  5
10F
 10
221.854975
 20
275.948199
 30
0.0
 11
200.306679
 21
297.496495
 31
0.0
  0
LINE
  8
LC-003-005-----0
  6
CONTINUOUS
  5
110
 10
216.198121
 20
275.948199
 30
0.0
 11
200.306675
 21
291.839644
 31
0.0
  0
LINE
  8
LC-003-005-----0
  6
CONTINUOUS
  5
111
 10
210.541267
 20
275.948199
 30
0.0
 11
200.306672
 21
286.182794
 31
0.0
  0
LINE
  8
LC-003-005-----0
  6
CONTINUOUS
  5
112
 10
204.884412
 20
275.948199
 30
0.0
 11
200.306668
 21
280.525943
 31
0.0
  0
ENDBLK
  8
0
  5
113
  0
BLOCK
  8
0
  5
115
  2
*D8
 70
    65
 10
0.0
 20
0.0
 30
0.0
  3
*D8
  0
LINE
  8
LC-007-003-MTH-0
  6
CONTINUOUS
  5
116
 10
339.96655
 20
275.948199
 30
0.0
 11
408.8
 21
275.948199
 31
0.0
  0
LINE
  8
LC-007-003-MTH-0
  6
CONTINUOUS
  5
117
 10
338.306285
 20
298.948199
 30
0.0
 11
408.8
 21
298.948199
 31
0.0
  0
LINE
  8
LC-006-003-----0
  6
CONTINUOUS
  5
118
 10
395.654733
 20
248.187743
 30
0.0
 11
392.0
 21
275.948199
 31
0.0
  0
LINE
  8
LC-006-003-----0
  6
CONTINUOUS
  5
119
 10
392.0
 20
275.948199
 30
0.0
 11
388.345267
 21
248.187743
 31
0.0
  0
LINE
  8
LC-006-003-----0
  6
CONTINUOUS
  5
11A
 10
388.345267
 20
248.187743
 30
0.0
 11
395.654733
 21
248.187743
 31
0.0
  0
LINE
  8
LC-006-003-----0
  6
CONTINUOUS
  5
11B
 10
394.704503
 20
248.125461
 30
0.0
 11
392.0
 21
268.668199
 31
0.0
  0
LINE
  8
LC-006-003-----0
  6
CONTINUOUS
  5
11C
 10
392.0
 20
268.668199
 30
0.0
 11
389.295497
 21
248.125461
 31
0.0
  0
LINE
  8
LC-006-003-----0
  6
CONTINUOUS
  5
11D
 10
393.754272
 20
248.06318
 30
0.0
 11
392.0
 21
261.388199
 31
0.0
  0
LINE
  8
LC-006-003-----0
  6
CONTINUOUS
  5
11E
 10
392.0
 20
261.388199
 30
0.0
 11
390.245728
 21
248.06318
 31
0.0
  0
LINE
  8
LC-006-003-----0
  6
CONTINUOUS
  5
11F
 10
392.804041
 20
248.000899
 30
0.0
 11
392.0
 21
254.108199
 31
0.0
  0
LINE
  8
LC-006-003-----0
  6
CONTINUOUS
  5
120
 10
392.0
 20
254.108199
 30
0.0
 11
391.195959
 21
248.000899
 31
0.0
  0
LINE
  8
LC-006-003-----0
  6
CONTINUOUS
  5
121
 10
388.345267
 20
326.708655
 30
0.0
 11
392.0
 21
298.948199
 31
0.0
  0
LINE
  8
LC-006-003-----0
  6
CONTINUOUS
  5
122
 10
392.0
 20
298.948199
 30
0.0
 11
395.654733
 21
326.708655
 31
0.0
  0
LINE
  8
LC-006-003-----0
  6
CONTINUOUS
  5
123
 10
395.654733
 20
326.708655
 30
0.0
 11
388.345267
 21
326.708655
 31
0.0
  0
LINE
  8
LC-006-003-----0
  6
CONTINUOUS
  5
124
 10
389.295497
 20
326.770936
 30
0.0
 11
392.0
 21
306.228199
 31
0.0
  0
LINE
  8
LC-006-003-----0
  6
CONTINUOUS
  5
125
 10
392.0
 20
306.228199
 30
0.0
 11
394.704503
 21
326.770936
 31
0.0
  0
LINE
  8
LC-006-003-----0
  6
CONTINUOUS
  5
126
 10
390.245728
 20
326.833218
 30
0.0
 11
392.0
 21
313.508199
 31
0.0
  0
LINE
  8
LC-006-003-----0
  6
CONTINUOUS
  5
127
 10
392.0
 20
313.508199
 30
0.0
 11
393.754272
 21
326.833218
 31
0.0
  0
LINE
  8
LC-006-003-----0
  6
CONTINUOUS
  5
128
 10
391.195959
 20
326.895499
 30
0.0
 11
392.0
 21
320.788199
 31
0.0
  0
LINE
  8
LC-006-003-----0
  6
CONTINUOUS
  5
129
 10
392.0
 20
320.788199
 30
0.0
 11
392.804041
 21
326.895499
 31
0.0
  0
LINE
  8
LC-008-003-MTG-0
  6
CONTINUOUS
  5
12A
 10
392.0
 20
236.748199
 30
0.0
 11
392.0
 21
373.085199
 31
0.0
  0
TEXT
  8
LC-006-003-----0
  6
CONTINUOUS
 62
     8
  5
12B
 10
384.172446
 20
339.696359
 30
0.0
 40
28.0
  1
23
 50
90.0
 51
15.0
  7
LC-TXTSTYLE-150-400-0-0-D0
  0
ENDBLK
  8
0
  5
12C
  0
BLOCK
  8
0
  5
12E
  2
*D9
 70
    65
 10
0.0
 20
0.0
 30
0.0
  3
*D9
  0
LINE
  8
LC-007-003-MTH-0
  6
CONTINUOUS
  5
12F
 10
338.306482
 20
298.948199
 30
0.0
 11
448.0
 21
298.948199
 31
0.0
  0
LINE
  8
LC-007-003-MTH-0
  6
CONTINUOUS
  5
130
 10
319.306482
 20
368.448199
 30
0.0
 11
448.0
 21
368.448199
 31
0.0
  0
LINE
  8
LC-008-003-MTG-0
  6
CONTINUOUS
  5
131
 10
431.2
 20
298.948199
 30
0.0
 11
431.2
 21
368.448199
 31
0.0
  0
LINE
  8
LC-006-003-----0
  6
CONTINUOUS
  5
132
 10
427.545267
 20
326.708655
 30
0.0
 11
431.2
 21
298.948199
 31
0.0
  0
LINE
  8
LC-006-003-----0
  6
CONTINUOUS
  5
133
 10
431.2
 20
298.948199
 30
0.0
 11
434.854733
 21
326.708655
 31
0.0
  0
LINE
  8
LC-006-003-----0
  6
CONTINUOUS
  5
134
 10
434.854733
 20
326.708655
 30
0.0
 11
427.545267
 21
326.708655
 31
0.0
  0
LINE
  8
LC-006-003-----0
  6
CONTINUOUS
  5
135
 10
428.495497
 20
326.770936
 30
0.0
 11
431.2
 21
306.228199
 31
0.0
  0
LINE
  8
LC-006-003-----0
  6
CONTINUOUS
  5
136
 10
431.2
 20
306.228199
 30
0.0
 11
433.904503
 21
326.770936
 31
0.0
  0
LINE
  8
LC-006-003-----0
  6
CONTINUOUS
  5
137
 10
429.445728
 20
326.833218
 30
0.0
 11
431.2
 21
313.508199
 31
0.0
  0
LINE
  8
LC-006-003-----0
  6
CONTINUOUS
  5
138
 10
431.2
 20
313.508199
 30
0.0
 11
432.954272
 21
326.833218
 31
0.0
  0
LINE
  8
LC-006-003-----0
  6
CONTINUOUS
  5
139
 10
430.395959
 20
326.895499
 30
0.0
 11
431.2
 21
320.788199
 31
0.0
  0
LINE
  8
LC-006-003-----0
  6
CONTINUOUS
  5
13A
 10
431.2
 20
320.788199
 30
0.0
 11
432.004041
 21
326.895499
 31
0.0
  0
LINE
  8
LC-006-003-----0
  6
CONTINUOUS
  5
13B
 10
434.854733
 20
340.687743
 30
0.0
 11
431.2
 21
368.448199
 31
0.0
  0
LINE
  8
LC-006-003-----0
  6
CONTINUOUS
  5
13C
 10
431.2
 20
368.448199
 30
0.0
 11
427.545267
 21
340.687743
 31
0.0
  0
LINE
  8
LC-006-003-----0
  6
CONTINUOUS
  5
13D
 10
427.545267
 20
340.687743
 30
0.0
 11
434.854733
 21
340.687743
 31
0.0
  0
LINE
  8
LC-006-003-----0
  6
CONTINUOUS
  5
13E
 10
433.904503
 20
340.625461
 30
0.0
 11
431.2
 21
361.168199
 31
0.0
  0
LINE
  8
LC-006-003-----0
  6
CONTINUOUS
  5
13F
 10
431.2
 20
361.168199
 30
0.0
 11
428.495497
 21
340.625461
 31
0.0
  0
LINE
  8
LC-006-003-----0
  6
CONTINUOUS
  5
140
 10
432.954272
 20
340.56318
 30
0.0
 11
431.2
 21
353.888199
 31
0.0
  0
LINE
  8
LC-006-003-----0
  6
CONTINUOUS
  5
141
 10
431.2
 20
353.888199
 30
0.0
 11
429.445728
 21
340.56318
 31
0.0
  0
LINE
  8
LC-006-003-----0
  6
CONTINUOUS
  5
142
 10
432.004041
 20
340.500899
 30
0.0
 11
431.2
 21
346.608199
 31
0.0
  0
LINE
  8
LC-006-003-----0
  6
CONTINUOUS
  5
143
 10
431.2
 20
346.608199
 30
0.0
 11
430.395959
 21
340.500899
 31
0.0
  0
TEXT
  8
LC-006-003-----0
  6
CONTINUOUS
 62
     8
  5
144
 10
423.372446
 20
305.096753
 30
0.0
 40
28.0
  1
8-69
 50
90.0
 51
15.0
  7
LC-TXTSTYLE-150-400-0-0-D0
 72
     1
 11
423.372446
 21
338.046359
 31
0.0
  0
ENDBLK
  8
0
  5
145
  0
ENDSEC
  0
SECTION
  2
ENTITIES
  0
VIEWPORT
  8
LC-000
  5
195
 67
     1
 68
     1
 10
420.0
 20
297.0
 30
0.0
 40
840.0
 41
594.0
 69
     1
1001
ACAD
1000
MVIEW
1002
{
1070
    16
1010
0.0
1020
0.0
1030
0.0
1010
0.0
1020
0.0
1030
1.0
1040
0.0
1040
594.0
1040
420.0
1040
297.0
1040
50.0
1040
0.0
1040
0.0
1070
     0
1070
   100
1070
     1
1070
     1
1070
     0
1070
     0
1070
     0
1070
     0
1040
0.0
1040
0.0
1040
0.0
1040
1.0
1040
1.0
1040
0.0
1040
0.0
1070
     0
1002
{
1002
}
1002
}
  0
VIEWPORT
  8
0
  5
196
 67
     1
 68
     1
 10
0.0
 20
0.0
 30
0.0
 40
0.0
 41
0.0
 69
     1
1001
ACAD
1000
MVIEW
1002
{
1070
    16
1010
0.0
1020
0.0
1030
0.0
1010
0.0
1020
0.0
1030
1.0
1040
0.0
1040
594.0
1040
0.0
1040
0.0
1040
50.0
1040
0.0
1040
0.0
1070
     0
1070
   100
1070
     0
1070
     1
1070
     0
1070
     0
1070
     0
1070
     0
1040
0.0
1040
0.0
1040
0.0
1040
0.5
1040
0.5
1040
0.5
1040
0.5
1070
     0
1002
{
1002
}
1002
}
  0
INSERT
  8
0
  5
146
  2
*X0
 10
314.306482
 20
275.948199
 30
0.0
  0
INSERT
  8
0
  5
147
  2
*X1
 10
197.306482
 20
275.948199
 30
0.0
  0
INSERT
  8
0
  5
149
  2
BLK1
 10
0.0
 20
0.0
 30
0.0
  0
DIMENSION
  8
0
  5
14A
  2
*D3
 10
156.8
 20
326.7
 30
0.0
 11
156.8
 21
326.7
 31
0.0
 13
219.306482
 23
365.948199
 33
0.0
 14
219.306482
 24
356.948199
 34
0.0
 50
90.0
  3
LC-DIM-L-0140-02-02
  0
DIMENSION
  8
0
  5
14B
  2
*D4
 10
270.174846
 20
400.0
 30
0.0
 11
270.174846
 21
400.0
 31
0.0
 13
219.306725
 23
365.948407
 33
0.0
 14
319.306482
 24
365.948199
 34
0.0
  3
LC-DIM-L-0140-02-02
  0
DIMENSION
  8
0
  5
14C
  2
*D5
 10
266.701391
 20
220.000351
 30
0.0
 11
266.701391
 21
220.000351
 31
0.0
  1
%%c145
 13
197.306667
 23
275.948421
 33
0.0
 14
341.306482
 24
275.948199
 34
0.0
  3
LC-DIM-L-0140-02-02
  0
INSERT
  8
0
  5
14D
  2
*X6
 10
269.306482
 20
275.948199
 30
0.0
  0
INSERT
  8
0
  5
14E
  2
*X7
 10
200.306665
 20
275.948199
 30
0.0
  0
DIMENSION
  8
0
  5
14F
  2
*D8
 10
392.0
 20
287.448199
 30
0.0
 11
392.0
 21
287.448199
 31
0.0
 13
339.96655
 23
275.948199
 33
0.0
 14
338.306285
 24
298.948199
 34
0.0
 50
90.0
  3
LC-DIM-L-0140-02-02
  0
DIMENSION
  8
0
  5
150
  2
*D9
 10
431.2
 20
333.698199
 30
0.0
 11
431.2
 21
333.698199
 31
0.0
  1
8-69
 13
338.306482
 23
298.948199
 33
0.0
 14
319.306482
 24
368.448199
 34
0.0
 50
90.0
  3
LC-DIM-L-0140-02-02
  0
LINE
  8
LC-001-002-----0
  5
153
 10
269.306482
 20
365.948199
 30
0.0
 11
269.306482
 21
275.948199
 31
0.0
  0
LINE
  8
LC-001-002-----0
  6
CONTINUOUS
 62
     1
  5
154
 10
319.306482
 20
365.948199
 30
0.0
 11
319.306482
 21
356.948199
 31
0.0
  0
LINE
  8
LC-001-002-----0
  6
CONTINUOUS
 62
     1
  5
155
 10
319.306482
 20
356.948199
 30
0.0
 11
317.306482
 21
356.948199
 31
0.0
  0
LINE
  8
LC-001-002-----0
  6
CONTINUOUS
 62
     1
  5
156
 10
317.306482
 20
356.948199
 30
0.0
 11
317.306482
 21
350.948199
 31
0.0
  0
LINE
  8
LC-001-002-----0
  6
CONTINUOUS
 62
     1
  5
157
 10
315.806482
 20
365.948199
 30
0.0
 11
315.806482
 21
359.948199
 31
0.0
  0
LINE
  8
LC-001-002-----0
  6
CONTINUOUS
 62
     1
  5
158
 10
315.806482
 20
359.948199
 30
0.0
 11
269.306482
 21
359.948199
 31
0.0
  0
LINE
  8
LC-001-002-----0
  6
CONTINUOUS
 62
     1
  5
159
 10
314.306482
 20
359.948199
 30
0.0
 11
314.306482
 21
347.948199
 31
0.0
  0
LINE
  8
LC-001-002-----0
  6
CONTINUOUS
 62
     1
  5
15A
 10
341.306482
 20
275.948199
 30
0.0
 11
269.306482
 21
275.948199
 31
0.0
  0
LINE
  8
LC-001-002-----0
  6
CONTINUOUS
 62
     1
  5
15B
 10
317.306482
 20
350.948199
 30
0.0
 11
331.306482
 21
350.948199
 31
0.0
  0
ARC
  8
LC-001-002-----0
  6
CONTINUOUS
 62
     1
  5
15C
 10
331.306482
 20
340.948199
 30
0.0
 40
10.0
 50
0.0
 51
90.0
  0
LINE
  8
LC-001-002-----0
  6
CONTINUOUS
 62
     1
  5
15D
 10
341.306482
 20
340.948199
 30
0.0
 11
341.306482
 21
275.255914
 31
0.0
  0
LINE
  8
LC-002-001-----0
  6
CONTINUOUS
  5
15F
 10
269.306482
 20
347.948199
 30
0.0
 11
331.306482
 21
347.948199
 31
0.0
  0
ARC
  8
LC-002-001-----0
  6
CONTINUOUS
  5
160
 10
331.306482
 20
340.948199
 30
0.0
 40
7.0
 50
0.0
 51
90.0
  0
LINE
  8
LC-001-002-----0
  6
CONTINUOUS
 62
     1
  5
161
 10
338.306482
 20
340.948199
 30
0.0
 11
338.306482
 21
275.948199
 31
0.0
  0
LINE
  8
LC-001-002-----0
  6
CONTINUOUS
  5
162
 10
229.036776
 20
426.604746
 30
0.0
 11
244.036776
 21
426.604746
 31
0.0
  0
LINE
  8
LC-001-002-----0
  6
CONTINUOUS
  5
163
 10
244.036776
 20
411.604746
 30
0.0
 11
244.036776
 21
426.604746
 31
0.0
  0
LINE
  8
LC-001-002-----0
  6
CONTINUOUS
 62
     1
  5
164
 10
224.306714
 20
347.948404
 30
0.0
 11
200.306705
 21
335.20339
 31
0.0
  0
ARC
  8
LC-004-002-RND-0
  6
CONTINUOUS
  5
166
 10
226.113348
 20
340.948374
 30
0.0
 40
7.0
 50
136.406436
 51
180.0
  0
LINE
  8
LC-001-002-----0
  6
CONTINUOUS
 62
     1
  5
167
 10
219.113348
 20
334.948374
 30
0.0
 11
219.113348
 21
340.948374
 31
0.0
  0
LINE
  8
LC-001-002-----0
  6
CONTINUOUS
 62
     1
  5
168
 10
219.113348
 20
334.948374
 30
0.0
 11
237.151208
 21
347.948374
 31
0.0
  0
LINE
  8
LC-001-002-----0
  6
CONTINUOUS
 62
     1
  5
169
 10
239.301791
 20
347.948374
 30
0.0
 11
221.234669
 21
334.948374
 31
0.0
  0
LINE
  8
LC-001-002-----0
  6
CONTINUOUS
 62
     1
  5
16A
 10
221.234669
 20
334.948374
 30
0.0
 11
219.113348
 21
334.948374
 31
0.0
  0
LINE
  8
LC-001-002-----0
  6
CONTINUOUS
 62
     1
  5
16B
 10
299.311174
 20
347.948374
 30
0.0
 11
317.378296
 21
334.948374
 31
0.0
  0
ARC
  8
LC-004-002-RND-0
  6
CONTINUOUS
  5
16C
 10
312.499616
 20
340.948374
 30
0.0
 40
7.0
 50
0.0
 51
55.00113
  0
LINE
  8
LC-001-002-----0
  6
CONTINUOUS
 62
     1
  5
16D
 10
317.378296
 20
334.948374
 30
0.0
 11
319.499616
 21
334.948374
 31
0.0
  0
LINE
  8
LC-001-002-----0
  6
CONTINUOUS
 62
     1
  5
16E
 10
319.499616
 20
334.948374
 30
0.0
 11
319.499616
 21
340.948374
 31
0.0
  0
LINE
  8
LC-001-002-----0
  6
CONTINUOUS
 62
     1
  5
16F
 10
315.806482
 20
365.948199
 30
0.0
 11
319.306482
 21
365.948199
 31
0.0
  0
LINE
  8
LC-001-002-----0
  6
CONTINUOUS
 62
     1
  5
170
 10
219.306725
 20
365.948407
 30
0.0
 11
219.30672
 21
356.948407
 31
0.0
  0
LINE
  8
LC-001-002-----0
  6
CONTINUOUS
 62
     1
  5
171
 10
219.30672
 20
356.948407
 30
0.0
 11
221.30672
 21
356.948406
 31
0.0
  0
LINE
  8
LC-001-002-----0
  6
CONTINUOUS
 62
     1
  5
172
 10
221.30672
 20
356.948406
 30
0.0
 11
221.306716
 21
350.948406
 31
0.0
  0
LINE
  8
LC-001-002-----0
  6
CONTINUOUS
 62
     1
  5
173
 10
222.806725
 20
365.948405
 30
0.0
 11
222.806722
 21
359.948405
 31
0.0
  0
LINE
  8
LC-001-002-----0
  6
CONTINUOUS
 62
     1
  5
174
 10
222.806722
 20
359.948405
 30
0.0
 11
269.306722
 21
359.948374
 31
0.0
  0
LINE
  8
LC-001-002-----0
  6
CONTINUOUS
 62
     1
  5
175
 10
224.306722
 20
359.948404
 30
0.0
 11
224.306714
 21
347.948404
 31
0.0
  0
LINE
  8
LC-001-002-----0
  6
CONTINUOUS
 62
     1
  5
176
 10
197.306667
 20
275.948421
 30
0.0
 11
269.306667
 21
275.948374
 31
0.0
  0
LINE
  8
LC-001-002-----0
  6
CONTINUOUS
 62
     1
  5
177
 10
221.306716
 20
350.948406
 30
0.0
 11
207.306716
 21
350.948415
 31
0.0
  0
ARC
  8
LC-001-002-----0
  6
CONTINUOUS
 62
     1
  5
178
 10
207.306709
 20
340.948415
 30
0.0
 40
10.0
 50
89.999963
 51
179.999944
  0
LINE
  8
LC-001-002-----0
  6
CONTINUOUS
 62
     1
  5
179
 10
197.306709
 20
340.948421
 30
0.0
 11
197.306667
 21
275.948421
 31
0.0
  0
LINE
  8
LC-002-001-----0
  6
CONTINUOUS
  5
17A
 10
269.306714
 20
347.948374
 30
0.0
 11
207.306714
 21
347.948415
 31
0.0
  0
ARC
  8
LC-002-001-----0
  6
CONTINUOUS
  5
17B
 10
207.306709
 20
340.948415
 30
0.0
 40
7.0
 50
89.999963
 51
179.999944
  0
LINE
  8
LC-001-002-----0
  6
CONTINUOUS
 62
     1
  5
17C
 10
200.306709
 20
340.948419
 30
0.0
 11
200.306667
 21
275.948419
 31
0.0
  0
ARC
  8
LC-004-002-RND-0
  6
CONTINUOUS
  5
17D
 10
312.499616
 20
340.948374
 30
0.0
 40
7.0
 50
0.0
 51
55.00113
  0
LINE
  8
LC-001-002-----0
  6
CONTINUOUS
 62
     1
  5
17E
 10
314.306251
 20
347.948404
 30
0.0
 11
338.306259
 21
335.20339
 31
0.0
  0
LINE
  8
LC-001-002-----0
  6
CONTINUOUS
 62
     1
  5
17F
 10
319.499616
 20
334.948374
 30
0.0
 11
301.461756
 21
347.948374
 31
0.0
  0
LINE
  8
LC-001-002-----0
  6
CONTINUOUS
 62
     1
  5
180
 10
315.806482
 20
365.948344
 30
0.0
 11
219.306725
 21
365.948407
 31
0.0
  0
LINE
  8
LC-001-002-----0
  6
CONTINUOUS
  5
181
 10
229.036776
 20
411.604746
 30
0.0
 11
229.036776
 21
426.604746
 31
0.0
  0
LINE
  8
LC-001-002-----0
  6
CONTINUOUS
  5
182
 10
229.036776
 20
411.604746
 30
0.0
 11
244.036776
 21
411.604746
 31
0.0
  0
CIRCLE
  8
LC-001-002-----0
  6
CONTINUOUS
 62
     1
  5
183
 10
513.806482
 20
320.950015
 30
0.0
 40
72.5
  0
LINE
  8
LC-001-002-----0
  6
CONTINUOUS
 62
     1
  5
184
 10
563.806482
 20
370.950015
 30
0.0
 11
463.806482
 21
370.950015
 31
0.0
  0
LINE
  8
LC-001-002-----0
  6
CONTINUOUS
 62
     1
  5
185
 10
463.806482
 20
370.950015
 30
0.0
 11
463.806482
 21
270.950015
 31
0.0
  0
LINE
  8
LC-001-002-----0
  6
CONTINUOUS
 62
     1
  5
186
 10
463.806482
 20
270.950015
 30
0.0
 11
563.806482
 21
270.950015
 31
0.0
  0
LINE
  8
LC-001-002-----0
  6
CONTINUOUS
 62
     1
  5
187
 10
563.806482
 20
270.950015
 30
0.0
 11
563.806482
 21
370.950015
 31
0.0
  0
LINE
  8
LC-001-002-----0
  6
CONTINUOUS
 62
     1
  5
188
 10
466.806482
 20
367.950015
 30
0.0
 11
466.806482
 21
273.950015
 31
0.0
  0
LINE
  8
LC-001-002-----0
  6
CONTINUOUS
 62
     1
  5
189
 10
466.806482
 20
273.950015
 30
0.0
 11
560.806482
 21
273.950015
 31
0.0
  0
LINE
  8
LC-001-002-----0
  6
CONTINUOUS
 62
     1
  5
18A
 10
560.806482
 20
273.950015
 30
0.0
 11
560.806482
 21
367.950015
 31
0.0
  0
LINE
  8
LC-001-002-----0
  6
CONTINUOUS
 62
     1
  5
18B
 10
560.806482
 20
367.950015
 30
0.0
 11
466.806482
 21
367.950015
 31
0.0
  0
LINE
  8
LC-001-002-----0
  6
CONTINUOUS
 62
     1
  5
18C
 10
468.806482
 20
365.950015
 30
0.0
 11
468.806482
 21
275.950015
 31
0.0
  0
LINE
  8
LC-001-002-----0
  6
CONTINUOUS
 62
     1
  5
18D
 10
468.806482
 20
275.950015
 30
0.0
 11
558.806482
 21
275.950015
 31
0.0
  0
LINE
  8
LC-001-002-----0
  6
CONTINUOUS
 62
     1
  5
18E
 10
558.806482
 20
275.950015
 30
0.0
 11
558.806482
 21
365.950015
 31
0.0
  0
LINE
  8
LC-001-002-----0
  6
CONTINUOUS
 62
     1
  5
18F
 10
558.806482
 20
365.950015
 30
0.0
 11
468.806482
 21
365.950015
 31
0.0
  0
CIRCLE
  8
LC-001-002-----0
  6
CONTINUOUS
 62
     1
  5
190
 10
513.806482
 20
320.950015
 30
0.0
 40
45.0
  0
CIRCLE
  8
LC-001-002-----0
  6
CONTINUOUS
 62
     1
  5
191
 10
474.562056
 20
360.194441
 30
0.0
 40
2.0
  0
CIRCLE
  8
LC-001-002-----0
  6
CONTINUOUS
 62
     1
  5
192
 10
553.050909
 20
281.705589
 30
0.0
 40
2.0
  0
LINE
  8
LC-001-002-----0
  6
CONTINUOUS
  5
193
 10
200.30668
 20
298.948199
 30
0.0
 11
338.306482
 21
298.948199
 31
0.0
  0
ENDSEC
  0
EOF
