  0
SECTION
  2
HEADER
  9
$ACADVER
  1
AC1015
  9
$ACADMAINTVER
 70
     6
  9
$DWGCODEPAGE
  3
ANSI_1252
  9
$INSBASE
 10
182.441669
 20
233.29
 30
0.0
  9
$EXTMIN
 10
182.441669
 20
233.29
 30
0.0
  9
$EXTMAX
 10
1864.441669
 20
1421.29
 30
0.0
  9
$LIMMIN
 10
182.441669
 20
233.29
  9
$LIMMAX
 10
1864.441669
 20
1421.29
  9
$ORTHOMODE
 70
     0
  9
$REGENMODE
 70
     1
  9
$FILLMODE
 70
     1
  9
$QTEXTMODE
 70
     0
  9
$MIRRTEXT
 70
     1
  9
$LTSCALE
 40
2.0
  9
$ATTMODE
 70
     1
  9
$TEXTSIZE
 40
2.5
  9
$TRACEWID
 40
1.0
  9
$TEXTSTYLE
  7
Standard
  9
$CLAYER
  8
0
  9
$CELTYPE
  6
ByLayer
  9
$CECOLOR
 62
     7
  9
$CELTSCALE
 40
1.0
  9
$DISPSILH
 70
     0
  9
$DIMSCALE
 40
2.0
  9
$DIMASZ
 40
3.5
  9
$DIMEXO
 40
0.625
  9
$DIMDLI
 40
3.75
  9
$DIMRND
 40
0.0
  9
$DIMDLE
 40
0.0
  9
$DIMEXE
 40
1.25
  9
$DIMTP
 40
0.0
  9
$DIMTM
 40
0.0
  9
$DIMTXT
 40
3.5
  9
$DIMCEN
 40
2.5
  9
$DIMTSZ
 40
0.0
  9
$DIMTOL
 70
     0
  9
$DIMLIM
 70
     0
  9
$DIMTIH
 70
     0
  9
$DIMTOH
 70
     0
  9
$DIMSE1
 70
     0
  9
$DIMSE2
 70
     0
  9
$DIMTAD
 70
     1
  9
$DIMZIN
 70
     8
  9
$DIMBLK
  1

  9
$DIMASO
 70
     1
  9
$DIMSHO
 70
     1
  9
$DIMPOST
  1

  9
$DIMAPOST
  1

  9
$DIMALT
 70
     0
  9
$DIMALTD
 70
     3
  9
$DIMALTF
 40
0.03937
  9
$DIMLFAC
 40
1.0
  9
$DIMTOFL
 70
     1
  9
$DIMTVP
 40
0.0
  9
$DIMTIX
 70
     0
  9
$DIMSOXD
 70
     0
  9
$DIMSAH
 70
     0
  9
$DIMBLK1
  1

  9
$DIMBLK2
  1

  9
$DIMSTYLE
  2
ISO-25
  9
$DIMCLRD
 70
     0
  9
$DIMCLRE
 70
     0
  9
$DIMCLRT
 70
     0
  9
$DIMTFAC
 40
1.0
  9
$DIMGAP
 40
0.625
  9
$DIMJUST
 70
     0
  9
$DIMSD1
 70
     0
  9
$DIMSD2
 70
     0
  9
$DIMTOLJ
 70
     0
  9
$DIMTZIN
 70
     8
  9
$DIMALTZ
 70
     0
  9
$DIMALTTZ
 70
     0
  9
$DIMUPT
 70
     0
  9
$DIMDEC
 70
     2
  9
$DIMTDEC
 70
     2
  9
$DIMALTU
 70
     2
  9
$DIMALTTD
 70
     3
  9
$DIMTXSTY
  7
Standard
  9
$DIMAUNIT
 70
     0
  9
$DIMADEC
 70
     0
  9
$DIMALTRND
 40
0.0
  9
$DIMAZIN
 70
     0
  9
$DIMDSEP
 70
    44
  9
$DIMATFIT
 70
     3
  9
$DIMFRAC
 70
     0
  9
$DIMLDRBLK
  1

  9
$DIMLUNIT
 70
     2
  9
$DIMLWD
 70
    -2
  9
$DIMLWE
 70
    -2
  9
$DIMTMOVE
 70
     0
  9
$LUNITS
 70
     2
  9
$LUPREC
 70
     4
  9
$SKETCHINC
 40
1.0
  9
$FILLETRAD
 40
10.0
  9
$AUNITS
 70
     0
  9
$AUPREC
 70
     0
  9
$MENU
  1
.
  9
$ELEVATION
 40
0.0
  9
$PELEVATION
 40
0.0
  9
$THICKNESS
 40
0.0
  9
$LIMCHECK
 70
     0
  9
$CHAMFERA
 40
10.0
  9
$CHAMFERB
 40
10.0
  9
$CHAMFERC
 40
20.0
  9
$CHAMFERD
 40
0.0
  9
$SKPOLY
 70
     0
  9
$TDCREATE
 40
2457029.290608912
  9
$TDUCREATE
 40
2457029.248942245
  9
$TDUPDATE
 40
2457029.290608923
  9
$TDUUPDATE
 40
2457029.248942257
  9
$TDINDWG
 40
0.0000000116
  9
$TDUSRTIMER
 40
0.0000000116
  9
$USRTIMER
 70
     1
  9
$ANGBASE
 50
0.0
  9
$ANGDIR
 70
     0
  9
$PDMODE
 70
     0
  9
$PDSIZE
 40
0.0
  9
$PLINEWID
 40
0.0
  9
$SPLFRAME
 70
     0
  9
$SPLINETYPE
 70
     6
  9
$SPLINESEGS
 70
     8
  9
$HANDSEED
  5
21E
  9
$SURFTAB1
 70
     6
  9
$SURFTAB2
 70
     6
  9
$SURFTYPE
 70
     6
  9
$SURFU
 70
     6
  9
$SURFV
 70
     6
  9
$UCSBASE
  2

  9
$UCSNAME
  2

  9
$UCSORG
 10
0.0
 20
0.0
 30
0.0
  9
$UCSXDIR
 10
1.0
 20
0.0
 30
0.0
  9
$UCSYDIR
 10
0.0
 20
1.0
 30
0.0
  9
$UCSORTHOREF
  2

  9
$UCSORTHOVIEW
 70
     0
  9
$UCSORGTOP
 10
0.0
 20
0.0
 30
0.0
  9
$UCSORGBOTTOM
 10
0.0
 20
0.0
 30
0.0
  9
$UCSORGLEFT
 10
0.0
 20
0.0
 30
0.0
  9
$UCSORGRIGHT
 10
0.0
 20
0.0
 30
0.0
  9
$UCSORGFRONT
 10
0.0
 20
0.0
 30
0.0
  9
$UCSORGBACK
 10
0.0
 20
0.0
 30
0.0
  9
$PUCSBASE
  2

  9
$PUCSNAME
  2

  9
$PUCSORG
 10
0.0
 20
0.0
 30
0.0
  9
$PUCSXDIR
 10
1.0
 20
0.0
 30
0.0
  9
$PUCSYDIR
 10
0.0
 20
1.0
 30
0.0
  9
$PUCSORTHOREF
  2

  9
$PUCSORTHOVIEW
 70
     0
  9
$PUCSORGTOP
 10
0.0
 20
0.0
 30
0.0
  9
$PUCSORGBOTTOM
 10
0.0
 20
0.0
 30
0.0
  9
$PUCSORGLEFT
 10
0.0
 20
0.0
 30
0.0
  9
$PUCSORGRIGHT
 10
0.0
 20
0.0
 30
0.0
  9
$PUCSORGFRONT
 10
0.0
 20
0.0
 30
0.0
  9
$PUCSORGBACK
 10
0.0
 20
0.0
 30
0.0
  9
$USERI1
 70
     0
  9
$USERI2
 70
     0
  9
$USERI3
 70
     0
  9
$USERI4
 70
     0
  9
$USERI5
 70
     0
  9
$USERR1
 40
0.0
  9
$USERR2
 40
0.0
  9
$USERR3
 40
0.0
  9
$USERR4
 40
0.0
  9
$USERR5
 40
0.0
  9
$WORLDVIEW
 70
     1
  9
$SHADEDGE
 70
     3
  9
$SHADEDIF
 70
    70
  9
$TILEMODE
 70
     1
  9
$MAXACTVP
 70
    64
  9
$PINSBASE
 10
0.0
 20
0.0
 30
0.0
  9
$PLIMCHECK
 70
     0
  9
$PEXTMIN
 10
182.441669
 20
233.29
 30
0.0
  9
$PEXTMAX
 10
1864.441669
 20
1421.29
 30
0.0
  9
$PLIMMIN
 10
182.441669
 20
233.29
  9
$PLIMMAX
 10
1864.441669
 20
1421.29
  9
$UNITMODE
 70
     0
  9
$VISRETAIN
 70
     1
  9
$PLINEGEN
 70
     0
  9
$PSLTSCALE
 70
     1
  9
$TREEDEPTH
 70
  3020
  9
$CMLSTYLE
  2
Standard
  9
$CMLJUST
 70
     0
  9
$CMLSCALE
 40
20.0
  9
$PROXYGRAPHICS
 70
     1
  9
$MEASUREMENT
 70
     1
  9
$CELWEIGHT
370
    -1
  9
$ENDCAPS
280
     0
  9
$JOINSTYLE
280
     0
  9
$LWDISPLAY
290
     0
  9
$INSUNITS
 70
     4
  9
$HYPERLINKBASE
  1

  9
$STYLESHEET
  1

  9
$XEDIT
290
     1
  9
$CEPSNTYPE
380
     0
  9
$PSTYLEMODE
290
     1
  9
$FINGERPRINTGUID
  2
{FAEB1C30-E019-11D5-929B-00C0DF256EC4}
  9
$VERSIONGUID
  2
{FAEB1C32-E019-11D5-929B-00C0DF256EC4}
  9
$EXTNAMES
290
     1
  9
$PSVPSCALE
 40
0.0
  9
$OLESTARTUP
290
     0
  0
ENDSEC
  0
SECTION
  2
CLASSES
  0
CLASS
  1
ACDBDICTIONARYWDFLT
  2
AcDbDictionaryWithDefault
  3
ObjectDBX Classes
 90
        0
280
     0
281
     0
  0
CLASS
  1
ACDBPLACEHOLDER
  2
AcDbPlaceHolder
  3
ObjectDBX Classes
 90
        0
280
     0
281
     0
  0
CLASS
  1
LAYOUT
  2
AcDbLayout
  3
ObjectDBX Classes
 90
        0
280
     0
281
     0
  0
ENDSEC
  0
SECTION
  2
TABLES
  0
TABLE
  2
VPORT
  5
8
330
0
100
AcDbSymbolTable
 70
     2
  0
VPORT
  5
29
330
8
100
AcDbSymbolTableRecord
100
AcDbViewportTableRecord
  2
*ACTIVE
 70
     0
 10
0.0
 20
0.0
 11
1.0
 21
1.0
 12
1023.441669
 22
827.29
 13
0.0
 23
0.0
 14
1.0
 24
1.0
 15
0.0
 25
0.0
 16
0.0
 26
0.0
 36
1.0
 17
0.0
 27
0.0
 37
0.0
 40
1188.0
 41
1.415825
 42
50.0
 43
0.0
 44
0.0
 50
0.0
 51
0.0
 71
    16
 72
   100
 73
     1
 74
     0
 75
     0
 76
     0
 77
     0
 78
     0
281
     0
 65
     0
110
0.0
120
0.0
130
0.0
111
1.0
121
0.0
131
0.0
112
0.0
122
1.0
132
0.0
 79
     0
146
0.0
  0
ENDTAB
  0
TABLE
  2
LTYPE
  5
5
330
0
100
AcDbSymbolTable
 70
     3
  0
LTYPE
  5
14
330
5
100
AcDbSymbolTableRecord
100
AcDbLinetypeTableRecord
  2
ByBlock
 70
     0
  3

 72
    65
 73
     0
 40
0.0
  0
LTYPE
  5
15
330
5
100
AcDbSymbolTableRecord
100
AcDbLinetypeTableRecord
  2
ByLayer
 70
     0
  3

 72
    65
 73
     0
 40
0.0
  0
LTYPE
  5
16
330
5
100
AcDbSymbolTableRecord
100
AcDbLinetypeTableRecord
  2
Continuous
 70
     0
  3
Solid line
 72
    65
 73
     0
 40
0.0
  0
LTYPE
  5
2A
330
5
100
AcDbSymbolTableRecord
100
AcDbLinetypeTableRecord
  2
DASHED
 70
     0
  3
__ __ __ __ __
 72
    65
 73
     2
 40
6.25
 49
5.0
 74
     4
 75
     0
340
0
 46
1.0
 50
0.0
 44
0.0
 45
0.0
 49
-1.25
 74
     4
 75
     0
340
0
 46
1.0
 50
0.0
 44
0.0
 45
0.0
  0
LTYPE
  5
37
330
5
100
AcDbSymbolTableRecord
100
AcDbLinetypeTableRecord
  2
DASHDOT
 70
     0
  3
__ . __ . __ . __ . __
 72
    65
 73
     4
 40
7.5
 49
5.0
 74
     4
 75
     0
340
0
 46
1.0
 50
0.0
 44
0.0
 45
0.0
 49
-1.25
 74
     4
 75
     0
340
0
 46
1.0
 50
0.0
 44
0.0
 45
0.0
 49
0.0
 74
     4
 75
     0
340
0
 46
1.0
 50
0.0
 44
0.0
 45
0.0
 49
-1.25
 74
     4
 75
     0
340
0
 46
1.0
 50
0.0
 44
0.0
 45
0.0
  0
ENDTAB
  0
TABLE
  2
LAYER
  5
2
330
0
100
AcDbSymbolTable
 70
    11
  0
LAYER
  5
10
330
2
100
AcDbSymbolTableRecord
100
AcDbLayerTableRecord
  2
0
 70
     0
 62
     7
  6
Continuous
370
    -3
390
F
  0
LAYER
  5
2B
330
2
100
AcDbSymbolTableRecord
100
AcDbLayerTableRecord
  2
LC-INFO-1-2-mm-A1-0
 70
     1
 62
     7
  6
ByBlock
370
    -3
390
F
  0
LAYER
  5
2C
330
2
100
AcDbSymbolTableRecord
100
AcDbLayerTableRecord
  2
LC-CUT-HIDDEN
 70
     0
 62
     7
  6
DASHED
370
    -3
390
F
  0
LAYER
  5
2D
330
2
100
AcDbSymbolTableRecord
100
AcDbLayerTableRecord
  2
LC-VIEWPORT
 70
     0
 62
     7
  6
ByBlock
370
    -3
390
F
  0
LAYER
  5
2E
330
2
100
AcDbSymbolTableRecord
100
AcDbLayerTableRecord
  2
LC-3D-HIDDEN
 70
     0
 62
     9
  6
DASHED
370
    -3
390
F
  0
LAYER
  5
30
330
2
100
AcDbSymbolTableRecord
100
AcDbLayerTableRecord
  2
LC-001-002-----0
 70
     0
 62
     1
  6
ByBlock
370
    -3
390
F
  0
LAYER
  5
38
330
2
100
AcDbSymbolTableRecord
100
AcDbLayerTableRecord
  2
LC-002-006-MLN-0
 70
     0
 62
     2
  6
DASHDOT
370
    -3
390
F
  0
LAYER
  5
49
330
2
100
AcDbSymbolTableRecord
100
AcDbLayerTableRecord
  2
LC-003-003-----0
 70
     0
 62
     2
  6
ByBlock
370
    -3
390
F
  0
LAYER
  5
4B
330
2
100
AcDbSymbolTableRecord
100
AcDbLayerTableRecord
  2
Defpoints
 70
     0
 62
     7
  6
Continuous
290
     0
370
    -3
390
F
  0
LAYER
  5
70
330
2
100
AcDbSymbolTableRecord
100
AcDbLayerTableRecord
  2
LC-004-005-----0
 70
     0
 62
     2
  6
ByBlock
370
    -3
390
F
  0
LAYER
  5
93
330
2
100
AcDbSymbolTableRecord
100
AcDbLayerTableRecord
  2
LC-005-002-RND-0
 70
     0
 62
     1
  6
ByBlock
370
    -3
390
F
  0
ENDTAB
  0
TABLE
  2
STYLE
  5
3
330
0
100
AcDbSymbolTable
 70
     3
  0
STYLE
  5
11
330
3
100
AcDbSymbolTableRecord
100
AcDbTextStyleTableRecord
  2
Standard
 70
     0
 40
0.0
 41
1.0
 50
0.0
 71
     0
 42
2.5
  3
txt
  4

  0
STYLE
  5
2F
330
3
100
AcDbSymbolTableRecord
100
AcDbTextStyleTableRecord
  2
LCTX15-400-0-0-Arial
 70
     0
 40
0.0
 41
0.9
 50
0.0
 71
     0
 42
3.5
  3

  4

1001
ACAD
1000
Arial
1071
 16777218
  0
STYLE
  5
47
330
3
100
AcDbSymbolTableRecord
100
AcDbTextStyleTableRecord
  2
LCTX15-400-0-0pDIN-Schrift
 70
     0
 40
2.5
 41
0.8
 50
15.0
 71
     0
 42
3.5
  3
STANDARD
  4

  0
ENDTAB
  0
TABLE
  2
VIEW
  5
6
330
0
100
AcDbSymbolTable
 70
     0
  0
ENDTAB
  0
TABLE
  2
UCS
  5
7
330
0
100
AcDbSymbolTable
 70
     0
  0
ENDTAB
  0
TABLE
  2
APPID
  5
9
330
0
100
AcDbSymbolTable
 70
     1
  0
APPID
  5
12
330
9
100
AcDbSymbolTableRecord
100
AcDbRegAppTableRecord
  2
ACAD
 70
     0
  0
ENDTAB
  0
TABLE
  2
DIMSTYLE
  5
A
330
0
100
AcDbSymbolTable
 70
     2
100
AcDbDimStyleTable
  0
DIMSTYLE
105
27
330
A
100
AcDbSymbolTableRecord
100
AcDbDimStyleTableRecord
  2
ISO-25
 70
     0
 41
2.5
 42
0.625
 43
3.75
 44
1.25
 73
     0
 74
     0
 77
     1
 78
     8
140
2.5
141
2.5
143
0.03937
147
0.625
171
     3
172
     1
271
     2
272
     2
274
     3
278
    44
283
     0
284
     8
340
11
  0
DIMSTYLE
105
48
102
{ACAD_REACTORS
330
4A
330
58
102
}
330
A
100
AcDbSymbolTableRecord
100
AcDbDimStyleTableRecord
  2
LC-DIM-L-0140-02-02
 70
     0
 40
2.0
 41
14.0
 42
0.0
 43
7.5
 44
1.8
 73
     0
 74
     0
 77
     1
 78
     8
 79
     2
140
14.0
141
0.0
146
0.71
147
1.5
176
     2
177
     2
178
     2
179
     2
271
     2
278
    44
289
     1
340
47
  0
ENDTAB
  0
TABLE
  2
BLOCK_RECORD
  5
1
330
0
100
AcDbSymbolTable
 70
     8
  0
BLOCK_RECORD
  5
1F
330
1
100
AcDbSymbolTableRecord
100
AcDbBlockTableRecord
  2
*Model_Space
340
22
  0
BLOCK_RECORD
  5
1B
330
1
100
AcDbSymbolTableRecord
100
AcDbBlockTableRecord
  2
*Paper_Space
340
1E
  0
BLOCK_RECORD
  5
23
330
1
100
AcDbSymbolTableRecord
100
AcDbBlockTableRecord
  2
*Paper_Space0
340
26
  0
BLOCK_RECORD
  5
4C
330
1
100
AcDbSymbolTableRecord
100
AcDbBlockTableRecord
  2
*D1
340
0
  0
BLOCK_RECORD
  5
59
330
1
100
AcDbSymbolTableRecord
100
AcDbBlockTableRecord
  2
*D2
340
0
  0
BLOCK_RECORD
  5
6D
330
1
100
AcDbSymbolTableRecord
100
AcDbBlockTableRecord
  2
*X13
340
0
102
{BLKREFS
331
85
102
}
  0
BLOCK_RECORD
  5
C1
330
1
100
AcDbSymbolTableRecord
100
AcDbBlockTableRecord
  2
*X24
340
0
102
{BLKREFS
331
E5
102
}
  0
BLOCK_RECORD
  5
F5
330
1
100
AcDbSymbolTableRecord
100
AcDbBlockTableRecord
  2
*X35
340
0
102
{BLKREFS
331
1AF
102
}
  0
BLOCK_RECORD
  5
1B0
330
1
100
AcDbSymbolTableRecord
100
AcDbBlockTableRecord
  2
*X46
340
0
102
{BLKREFS
331
1E6
102
}
  0
BLOCK_RECORD
  5
1E7
330
1
100
AcDbSymbolTableRecord
100
AcDbBlockTableRecord
  2
*X57
340
0
102
{BLKREFS
331
219
102
}
  0
ENDTAB
  0
ENDSEC
  0
SECTION
  2
BLOCKS
  0
BLOCK
  5
20
330
1F
100
AcDbEntity
  8
0
100
AcDbBlockBegin
  2
*Model_Space
 70
     0
 71
     0
 10
0.0
 20
0.0
 30
0.0
  3
*Model_Space
  1

  0
ENDBLK
  5
21
330
1F
100
AcDbEntity
  8
0
100
AcDbBlockEnd
  0
BLOCK
  5
1C
330
1B
100
AcDbEntity
 67
     1
  8
0
100
AcDbBlockBegin
  2
*Paper_Space
 70
     0
 71
     0
 10
0.0
 20
0.0
 30
0.0
  3
*Paper_Space
  1

  0
ENDBLK
  5
1D
330
1B
100
AcDbEntity
 67
     1
  8
0
100
AcDbBlockEnd
  0
BLOCK
  5
24
330
23
100
AcDbEntity
  8
0
100
AcDbBlockBegin
  2
*Paper_Space0
 70
     0
 71
     0
 10
0.0
 20
0.0
 30
0.0
  3
*Paper_Space0
  1

  0
ENDBLK
  5
25
330
23
100
AcDbEntity
  8
0
100
AcDbBlockEnd
  0
BLOCK
  5
56
330
4C
100
AcDbEntity
  8
0
100
AcDbBlockBegin
  2
*D1
 70
     1
 71
     0
 10
0.0
 20
0.0
 30
0.0
  3
*D1
  1

  0
LINE
  5
4D
330
4C
100
AcDbEntity
  8
LC-003-003-----0
 62
     2
370
    -2
100
AcDbLine
 10
719.669019
 20
1216.727311
 30
0.0
 11
719.669019
 21
1269.025311
 31
0.0
  0
LINE
  5
4E
330
4C
100
AcDbEntity
  8
LC-003-003-----0
 62
     2
370
    -2
100
AcDbLine
 10
1619.669019
 20
1216.727311
 30
0.0
 11
1619.669019
 21
1269.025311
 31
0.0
  0
LINE
  5
4F
330
4C
100
AcDbEntity
  8
LC-003-003-----0
 62
     2
370
    -2
100
AcDbLine
 10
747.669019
 20
1265.425311
 30
0.0
 11
1591.669019
 21
1265.425311
 31
0.0
  0
SOLID
  5
50
330
4C
100
AcDbEntity
  8
LC-003-003-----0
 62
     2
100
AcDbTrace
 10
747.669019
 20
1270.091978
 30
0.0
 11
747.669019
 21
1260.758645
 31
0.0
 12
719.669019
 22
1265.425311
 32
0.0
 13
719.669019
 23
1265.425311
 33
0.0
  0
SOLID
  5
51
330
4C
100
AcDbEntity
  8
LC-003-003-----0
 62
     2
100
AcDbTrace
 10
1591.669019
 20
1260.758645
 30
0.0
 11
1591.669019
 21
1270.091978
 31
0.0
 12
1619.669019
 22
1265.425311
 32
0.0
 13
1619.669019
 23
1265.425311
 33
0.0
  0
MTEXT
  5
52
330
4C
100
AcDbEntity
  8
LC-003-003-----0
 62
     2
100
AcDbMText
 10
1171.669173
 20
1296.225311
 30
0.0
 40
28.0
 41
0.0
 71
     5
 72
     1
  1
\A1;900
  7
LCTX15-400-0-0pDIN-Schrift
 73
     1
 44
1.0
  0
POINT
  5
53
330
4C
100
AcDbEntity
  8
Defpoints
 62
     0
100
AcDbPoint
 10
719.669019
 20
1216.727311
 30
0.0
  0
POINT
  5
54
330
4C
100
AcDbEntity
  8
Defpoints
 62
     0
100
AcDbPoint
 10
1619.669019
 20
1216.727311
 30
0.0
  0
POINT
  5
55
330
4C
100
AcDbEntity
  8
Defpoints
 62
     0
100
AcDbPoint
 10
1619.669019
 20
1265.425311
 30
0.0
  0
ENDBLK
  5
57
330
4C
100
AcDbEntity
  8
0
100
AcDbBlockEnd
  0
BLOCK
  5
64
330
59
100
AcDbEntity
  8
0
100
AcDbBlockBegin
  2
*D2
 70
     1
 71
     0
 10
0.0
 20
0.0
 30
0.0
  3
*D2
  1

  0
LINE
  5
5A
330
59
100
AcDbEntity
  8
LC-003-003-----0
 62
     2
370
    -2
100
AcDbLine
 10
719.669019
 20
1360.764233
 30
0.0
 11
674.820855
 21
1360.764233
 31
0.0
  0
LINE
  5
5B
330
59
100
AcDbEntity
  8
LC-003-003-----0
 62
     2
370
    -2
100
AcDbLine
 10
719.669019
 20
1320.764233
 30
0.0
 11
674.820855
 21
1320.764233
 31
0.0
  0
LINE
  5
5C
330
59
100
AcDbEntity
  8
LC-003-003-----0
 62
     2
370
    -2
100
AcDbLine
 10
678.420855
 20
1388.764233
 30
0.0
 11
678.420855
 21
1416.764233
 31
0.0
  0
LINE
  5
5D
330
59
100
AcDbEntity
  8
LC-003-003-----0
 62
     2
370
    -2
100
AcDbLine
 10
678.420855
 20
1292.764233
 30
0.0
 11
678.420855
 21
1280.103672
 31
0.0
  0
SOLID
  5
5E
330
59
100
AcDbEntity
  8
LC-003-003-----0
 62
     2
100
AcDbTrace
 10
673.754189
 20
1388.764233
 30
0.0
 11
683.087522
 21
1388.764233
 31
0.0
 12
678.420855
 22
1360.764233
 32
0.0
 13
678.420855
 23
1360.764233
 33
0.0
  0
SOLID
  5
5F
330
59
100
AcDbEntity
  8
LC-003-003-----0
 62
     2
100
AcDbTrace
 10
683.087522
 20
1292.764233
 30
0.0
 11
673.754189
 21
1292.764233
 31
0.0
 12
678.420855
 22
1320.764233
 32
0.0
 13
678.420855
 23
1320.764233
 33
0.0
  0
MTEXT
  5
60
330
59
100
AcDbEntity
  8
LC-003-003-----0
 62
     2
100
AcDbMText
 10
647.620855
 20
1302.49
 30
0.0
 40
28.0
 41
0.0
 71
     5
 72
     1
  1
\A1;40
  7
LCTX15-400-0-0pDIN-Schrift
 11
6.123031769111886E-17
 21
1.0
 31
0.0
 73
     1
 44
1.0
  0
POINT
  5
61
330
59
100
AcDbEntity
  8
Defpoints
 62
     0
100
AcDbPoint
 10
719.669019
 20
1360.764233
 30
0.0
  0
POINT
  5
62
330
59
100
AcDbEntity
  8
Defpoints
 62
     0
100
AcDbPoint
 10
719.669019
 20
1320.764233
 30
0.0
  0
POINT
  5
63
330
59
100
AcDbEntity
  8
Defpoints
 62
     0
100
AcDbPoint
 10
678.420855
 20
1320.764233
 30
0.0
  0
ENDBLK
  5
65
330
59
100
AcDbEntity
  8
0
100
AcDbBlockEnd
  0
BLOCK
  5
6E
330
6D
100
AcDbEntity
  8
0
100
AcDbBlockBegin
  2
*X13
 70
     1
 71
     0
 10
0.0
 20
0.0
 30
0.0
  3
*X13
  1

  4
*X1
  0
LINE
  5
71
330
6D
100
AcDbEntity
  8
LC-004-005-----0
 62
     7
370
    25
100
AcDbLine
 10
1251.883952
 20
1319.766203
 30
0.0
 11
1252.883952
 21
1320.766203
 31
0.0
  0
LINE
  5
72
330
6D
100
AcDbEntity
  8
LC-004-005-----0
 62
     7
370
    25
100
AcDbLine
 10
1249.055525
 20
1319.766203
 30
0.0
 11
1250.055525
 21
1320.766203
 31
0.0
  0
LINE
  5
73
330
6D
100
AcDbEntity
  8
LC-004-005-----0
 62
     7
370
    25
100
AcDbLine
 10
1246.227098
 20
1319.766203
 30
0.0
 11
1247.227098
 21
1320.766203
 31
0.0
  0
LINE
  5
74
330
6D
100
AcDbEntity
  8
LC-004-005-----0
 62
     7
370
    25
100
AcDbLine
 10
1243.398671
 20
1319.766203
 30
0.0
 11
1244.398671
 21
1320.766203
 31
0.0
  0
LINE
  5
75
330
6D
100
AcDbEntity
  8
LC-004-005-----0
 62
     7
370
    25
100
AcDbLine
 10
1240.570244
 20
1319.766203
 30
0.0
 11
1241.570244
 21
1320.766203
 31
0.0
  0
LINE
  5
76
330
6D
100
AcDbEntity
  8
LC-004-005-----0
 62
     7
370
    25
100
AcDbLine
 10
1237.741817
 20
1319.766203
 30
0.0
 11
1238.741817
 21
1320.766203
 31
0.0
  0
LINE
  5
77
330
6D
100
AcDbEntity
  8
LC-004-005-----0
 62
     7
370
    25
100
AcDbLine
 10
1234.913389
 20
1319.766203
 30
0.0
 11
1235.913389
 21
1320.766203
 31
0.0
  0
LINE
  5
78
330
6D
100
AcDbEntity
  8
LC-004-005-----0
 62
     7
370
    25
100
AcDbLine
 10
1232.084962
 20
1319.766203
 30
0.0
 11
1233.084962
 21
1320.766203
 31
0.0
  0
LINE
  5
79
330
6D
100
AcDbEntity
  8
LC-004-005-----0
 62
     7
370
    25
100
AcDbLine
 10
1229.256535
 20
1319.766203
 30
0.0
 11
1230.256535
 21
1320.766203
 31
0.0
  0
LINE
  5
7A
330
6D
100
AcDbEntity
  8
LC-004-005-----0
 62
     7
370
    25
100
AcDbLine
 10
1226.428108
 20
1319.766203
 30
0.0
 11
1227.428108
 21
1320.766203
 31
0.0
  0
LINE
  5
7B
330
6D
100
AcDbEntity
  8
LC-004-005-----0
 62
     7
370
    25
100
AcDbLine
 10
1110.462596
 20
1319.766203
 30
0.0
 11
1111.462596
 21
1320.766203
 31
0.0
  0
LINE
  5
7C
330
6D
100
AcDbEntity
  8
LC-004-005-----0
 62
     7
370
    25
100
AcDbLine
 10
1107.634169
 20
1319.766203
 30
0.0
 11
1108.634169
 21
1320.766203
 31
0.0
  0
LINE
  5
7D
330
6D
100
AcDbEntity
  8
LC-004-005-----0
 62
     7
370
    25
100
AcDbLine
 10
1104.805742
 20
1319.766203
 30
0.0
 11
1105.805742
 21
1320.766203
 31
0.0
  0
LINE
  5
7E
330
6D
100
AcDbEntity
  8
LC-004-005-----0
 62
     7
370
    25
100
AcDbLine
 10
1101.977315
 20
1319.766203
 30
0.0
 11
1102.977315
 21
1320.766203
 31
0.0
  0
LINE
  5
7F
330
6D
100
AcDbEntity
  8
LC-004-005-----0
 62
     7
370
    25
100
AcDbLine
 10
1099.148887
 20
1319.766203
 30
0.0
 11
1100.148887
 21
1320.766203
 31
0.0
  0
LINE
  5
80
330
6D
100
AcDbEntity
  8
LC-004-005-----0
 62
     7
370
    25
100
AcDbLine
 10
1096.32046
 20
1319.766203
 30
0.0
 11
1097.32046
 21
1320.766203
 31
0.0
  0
LINE
  5
81
330
6D
100
AcDbEntity
  8
LC-004-005-----0
 62
     7
370
    25
100
AcDbLine
 10
1093.492033
 20
1319.766203
 30
0.0
 11
1094.492033
 21
1320.766203
 31
0.0
  0
LINE
  5
82
330
6D
100
AcDbEntity
  8
LC-004-005-----0
 62
     7
370
    25
100
AcDbLine
 10
1090.663606
 20
1319.766203
 30
0.0
 11
1091.663606
 21
1320.766203
 31
0.0
  0
LINE
  5
83
330
6D
100
AcDbEntity
  8
LC-004-005-----0
 62
     7
370
    25
100
AcDbLine
 10
1087.835179
 20
1319.766203
 30
0.0
 11
1088.835179
 21
1320.766203
 31
0.0
  0
LINE
  5
84
330
6D
100
AcDbEntity
  8
LC-004-005-----0
 62
     7
370
    25
100
AcDbLine
 10
1085.669019
 20
1320.428471
 30
0.0
 11
1086.006752
 21
1320.766203
 31
0.0
  0
ENDBLK
  5
6F
330
6D
100
AcDbEntity
  8
0
100
AcDbBlockEnd
  0
BLOCK
  5
C2
330
C1
100
AcDbEntity
  8
0
100
AcDbBlockBegin
  2
*X24
 70
     1
 71
     0
 10
0.0
 20
0.0
 30
0.0
  3
*X24
  1

  4
*X2
  0
LINE
  5
C4
330
C1
100
AcDbEntity
  8
LC-004-005-----0
 62
     7
370
    25
100
AcDbLine
 10
1257.74905
 20
1339.773437
 30
0.0
 11
1259.245792
 21
1341.270179
 31
0.0
  0
LINE
  5
C5
330
C1
100
AcDbEntity
  8
LC-004-005-----0
 62
     7
370
    25
100
AcDbLine
 10
1254.920623
 20
1339.773437
 30
0.0
 11
1256.417365
 21
1341.270179
 31
0.0
  0
LINE
  5
C6
330
C1
100
AcDbEntity
  8
LC-004-005-----0
 62
     7
370
    25
100
AcDbLine
 10
1252.092196
 20
1339.773437
 30
0.0
 11
1253.588938
 21
1341.270179
 31
0.0
  0
LINE
  5
C7
330
C1
100
AcDbEntity
  8
LC-004-005-----0
 62
     7
370
    25
100
AcDbLine
 10
1244.482272
 20
1334.99194
 30
0.0
 11
1244.919019
 21
1335.428687
 31
0.0
  0
LINE
  5
C8
330
C1
100
AcDbEntity
  8
LC-004-005-----0
 62
     7
370
    25
100
AcDbLine
 10
1249.263769
 20
1339.773437
 30
0.0
 11
1250.760511
 21
1341.270179
 31
0.0
  0
LINE
  5
C9
330
C1
100
AcDbEntity
  8
LC-004-005-----0
 62
     7
370
    25
100
AcDbLine
 10
1227.428108
 20
1320.766203
 30
0.0
 11
1227.669019
 21
1321.007114
 31
0.0
  0
LINE
  5
CA
330
C1
100
AcDbEntity
  8
LC-004-005-----0
 62
     7
370
    25
100
AcDbLine
 10
1236.688951
 20
1330.027047
 30
0.0
 11
1244.919019
 21
1338.257114
 31
0.0
  0
LINE
  5
CB
330
C1
100
AcDbEntity
  8
LC-004-005-----0
 62
     7
370
    25
100
AcDbLine
 10
1246.435342
 20
1339.773437
 30
0.0
 11
1247.932083
 21
1341.270179
 31
0.0
  0
LINE
  5
CC
330
C1
100
AcDbEntity
  8
LC-004-005-----0
 62
     7
370
    25
100
AcDbLine
 10
1226.169019
 20
1322.335541
 30
0.0
 11
1227.669019
 21
1323.835541
 31
0.0
  0
LINE
  5
CD
330
C1
100
AcDbEntity
  8
LC-004-005-----0
 62
     7
370
    25
100
AcDbLine
 10
1228.895631
 20
1325.062154
 30
0.0
 11
1239.604671
 21
1335.771193
 31
0.0
  0
LINE
  5
CE
330
C1
100
AcDbEntity
  8
LC-004-005-----0
 62
     7
370
    25
100
AcDbLine
 10
1242.419019
 20
1338.585541
 30
0.0
 11
1245.103656
 21
1341.270179
 31
0.0
  0
LINE
  5
CF
330
C1
100
AcDbEntity
  8
LC-004-005-----0
 62
     7
370
    25
100
AcDbLine
 10
1226.169019
 20
1325.163969
 30
0.0
 11
1230.271522
 21
1329.266471
 31
0.0
  0
LINE
  5
D0
330
C1
100
AcDbEntity
  8
LC-004-005-----0
 62
     7
370
    25
100
AcDbLine
 10
1231.919019
 20
1330.913969
 30
0.0
 11
1233.748921
 21
1332.743871
 31
0.0
  0
LINE
  5
D1
330
C1
100
AcDbEntity
  8
LC-004-005-----0
 62
     7
370
    25
100
AcDbLine
 10
1235.669019
 20
1334.663969
 30
0.0
 11
1236.776244
 21
1335.771193
 31
0.0
  0
LINE
  5
D2
330
C1
100
AcDbEntity
  8
LC-004-005-----0
 62
     7
370
    25
100
AcDbLine
 10
1111.669019
 20
1320.972626
 30
0.0
 11
1113.169019
 21
1322.472626
 31
0.0
  0
LINE
  5
D3
330
C1
100
AcDbEntity
  8
LC-004-005-----0
 62
     7
370
    25
100
AcDbLine
 10
1111.669019
 20
1323.801054
 30
0.0
 11
1113.169019
 21
1325.301054
 31
0.0
  0
LINE
  5
D4
330
C1
100
AcDbEntity
  8
LC-004-005-----0
 62
     7
370
    25
100
AcDbLine
 10
1110.234282
 20
1325.194744
 30
0.0
 11
1112.774945
 21
1327.735406
 31
0.0
  0
LINE
  5
D5
330
C1
100
AcDbEntity
  8
LC-004-005-----0
 62
     7
370
    25
100
AcDbLine
 10
1108.506545
 20
1326.295434
 30
0.0
 11
1111.298014
 21
1329.086903
 31
0.0
  0
LINE
  5
D6
330
C1
100
AcDbEntity
  8
LC-004-005-----0
 62
     7
370
    25
100
AcDbLine
 10
1106.778808
 20
1327.396124
 30
0.0
 11
1108.649155
 21
1329.266471
 31
0.0
  0
LINE
  5
D7
330
C1
100
AcDbEntity
  8
LC-004-005-----0
 62
     7
370
    25
100
AcDbLine
 10
1105.051071
 20
1328.496814
 30
0.0
 11
1107.419019
 21
1330.864762
 31
0.0
  0
LINE
  5
D8
330
C1
100
AcDbEntity
  8
LC-004-005-----0
 62
     7
370
    25
100
AcDbLine
 10
1103.323334
 20
1329.597504
 30
0.0
 11
1106.127019
 21
1332.401189
 31
0.0
  0
LINE
  5
D9
330
C1
100
AcDbEntity
  8
LC-004-005-----0
 62
     7
370
    25
100
AcDbLine
 10
1101.595597
 20
1330.698194
 30
0.0
 11
1104.399282
 21
1333.501879
 31
0.0
  0
LINE
  5
DA
330
C1
100
AcDbEntity
  8
LC-004-005-----0
 62
     7
370
    25
100
AcDbLine
 10
1099.86786
 20
1331.798884
 30
0.0
 11
1103.597635
 21
1335.528659
 31
0.0
  0
LINE
  5
DB
330
C1
100
AcDbEntity
  8
LC-004-005-----0
 62
     7
370
    25
100
AcDbLine
 10
1098.140123
 20
1332.899574
 30
0.0
 11
1101.011742
 21
1335.771193
 31
0.0
  0
LINE
  5
DC
330
C1
100
AcDbEntity
  8
LC-004-005-----0
 62
     7
370
    25
100
AcDbLine
 10
1096.412386
 20
1334.000264
 30
0.0
 11
1098.183314
 21
1335.771193
 31
0.0
  0
LINE
  5
DD
330
C1
100
AcDbEntity
  8
LC-004-005-----0
 62
     7
370
    25
100
AcDbLine
 10
1094.684648
 20
1335.100954
 30
0.0
 11
1096.919019
 21
1337.335325
 31
0.0
  0
LINE
  5
DE
330
C1
100
AcDbEntity
  8
LC-004-005-----0
 62
     7
370
    25
100
AcDbLine
 10
1094.419019
 20
1337.663752
 30
0.0
 11
1096.919019
 21
1340.163752
 31
0.0
  0
LINE
  5
DF
330
C1
100
AcDbEntity
  8
LC-004-005-----0
 62
     7
370
    25
100
AcDbLine
 10
1093.700277
 20
1339.773437
 30
0.0
 11
1095.197019
 21
1341.270179
 31
0.0
  0
LINE
  5
E0
330
C1
100
AcDbEntity
  8
LC-004-005-----0
 62
     7
370
    25
100
AcDbLine
 10
1090.87185
 20
1339.773437
 30
0.0
 11
1092.368592
 21
1341.270179
 31
0.0
  0
LINE
  5
E1
330
C1
100
AcDbEntity
  8
LC-004-005-----0
 62
     7
370
    25
100
AcDbLine
 10
1088.043423
 20
1339.773437
 30
0.0
 11
1089.540164
 21
1341.270179
 31
0.0
  0
LINE
  5
E2
330
C1
100
AcDbEntity
  8
LC-004-005-----0
 62
     7
370
    25
100
AcDbLine
 10
1085.214996
 20
1339.773437
 30
0.0
 11
1086.711737
 21
1341.270179
 31
0.0
  0
LINE
  5
E3
330
C1
100
AcDbEntity
  8
LC-004-005-----0
 62
     7
370
    25
100
AcDbLine
 10
1082.386568
 20
1339.773437
 30
0.0
 11
1083.88331
 21
1341.270179
 31
0.0
  0
LINE
  5
E4
330
C1
100
AcDbEntity
  8
LC-004-005-----0
 62
     7
370
    25
100
AcDbLine
 10
1079.558141
 20
1339.773437
 30
0.0
 11
1081.054883
 21
1341.270179
 31
0.0
  0
ENDBLK
  5
C3
330
C1
100
AcDbEntity
  8
0
100
AcDbBlockEnd
  0
BLOCK
  5
F6
330
F5
100
AcDbEntity
  8
0
100
AcDbBlockBegin
  2
*X35
 70
     1
 71
     0
 10
0.0
 20
0.0
 30
0.0
  3
*X35
  1

  4
*X3
  0
LINE
  5
F8
330
F5
100
AcDbEntity
  8
LC-004-005-----0
 62
     7
370
    25
100
AcDbLine
 10
1617.749081
 20
1320.764233
 30
0.0
 11
1619.669019
 21
1322.684171
 31
0.0
  0
LINE
  5
F9
330
F5
100
AcDbEntity
  8
LC-004-005-----0
 62
     7
370
    25
100
AcDbLine
 10
1609.2638
 20
1320.764233
 30
0.0
 11
1611.7638
 21
1323.264233
 31
0.0
  0
LINE
  5
FA
330
F5
100
AcDbEntity
  8
LC-004-005-----0
 62
     7
370
    25
100
AcDbLine
 10
1600.778519
 20
1320.764233
 30
0.0
 11
1603.278519
 21
1323.264233
 31
0.0
  0
LINE
  5
FB
330
F5
100
AcDbEntity
  8
LC-004-005-----0
 62
     7
370
    25
100
AcDbLine
 10
1592.293237
 20
1320.764233
 30
0.0
 11
1594.793237
 21
1323.264233
 31
0.0
  0
LINE
  5
FC
330
F5
100
AcDbEntity
  8
LC-004-005-----0
 62
     7
370
    25
100
AcDbLine
 10
1583.807956
 20
1320.764233
 30
0.0
 11
1586.307956
 21
1323.264233
 31
0.0
  0
LINE
  5
FD
330
F5
100
AcDbEntity
  8
LC-004-005-----0
 62
     7
370
    25
100
AcDbLine
 10
1575.322674
 20
1320.764233
 30
0.0
 11
1577.822674
 21
1323.264233
 31
0.0
  0
LINE
  5
FE
330
F5
100
AcDbEntity
  8
LC-004-005-----0
 62
     7
370
    25
100
AcDbLine
 10
1612.480281
 20
1357.921839
 30
0.0
 11
1615.107166
 21
1360.548725
 31
0.0
  0
LINE
  5
FF
330
F5
100
AcDbEntity
  8
LC-004-005-----0
 62
     7
370
    25
100
AcDbLine
 10
1566.837393
 20
1320.764233
 30
0.0
 11
1569.337393
 21
1323.264233
 31
0.0
  0
LINE
  5
100
330
F5
100
AcDbEntity
  8
LC-004-005-----0
 62
     7
370
    25
100
AcDbLine
 10
1603.574267
 20
1357.501107
 30
0.0
 11
1606.201153
 21
1360.127993
 31
0.0
  0
LINE
  5
101
330
F5
100
AcDbEntity
  8
LC-004-005-----0
 62
     7
370
    25
100
AcDbLine
 10
1558.352112
 20
1320.764233
 30
0.0
 11
1560.852112
 21
1323.264233
 31
0.0
  0
LINE
  5
102
330
F5
100
AcDbEntity
  8
LC-004-005-----0
 62
     7
370
    25
100
AcDbLine
 10
1594.668254
 20
1357.080375
 30
0.0
 11
1597.29514
 21
1359.707261
 31
0.0
  0
LINE
  5
103
330
F5
100
AcDbEntity
  8
LC-004-005-----0
 62
     7
370
    25
100
AcDbLine
 10
1549.86683
 20
1320.764233
 30
0.0
 11
1552.36683
 21
1323.264233
 31
0.0
  0
LINE
  5
104
330
F5
100
AcDbEntity
  8
LC-004-005-----0
 62
     7
370
    25
100
AcDbLine
 10
1585.76224
 20
1356.659643
 30
0.0
 11
1588.389126
 21
1359.286529
 31
0.0
  0
LINE
  5
105
330
F5
100
AcDbEntity
  8
LC-004-005-----0
 62
     7
370
    25
100
AcDbLine
 10
1541.381549
 20
1320.764233
 30
0.0
 11
1543.881549
 21
1323.264233
 31
0.0
  0
LINE
  5
106
330
F5
100
AcDbEntity
  8
LC-004-005-----0
 62
     7
370
    25
100
AcDbLine
 10
1576.856227
 20
1356.238911
 30
0.0
 11
1579.483113
 21
1358.865797
 31
0.0
  0
LINE
  5
107
330
F5
100
AcDbEntity
  8
LC-004-005-----0
 62
     7
370
    25
100
AcDbLine
 10
1532.896268
 20
1320.764233
 30
0.0
 11
1535.396268
 21
1323.264233
 31
0.0
  0
LINE
  5
108
330
F5
100
AcDbEntity
  8
LC-004-005-----0
 62
     7
370
    25
100
AcDbLine
 10
1567.950214
 20
1355.818179
 30
0.0
 11
1570.577099
 21
1358.445065
 31
0.0
  0
LINE
  5
109
330
F5
100
AcDbEntity
  8
LC-004-005-----0
 62
     7
370
    25
100
AcDbLine
 10
1524.410986
 20
1320.764233
 30
0.0
 11
1526.910986
 21
1323.264233
 31
0.0
  0
LINE
  5
10A
330
F5
100
AcDbEntity
  8
LC-004-005-----0
 62
     7
370
    25
100
AcDbLine
 10
1559.0442
 20
1355.397447
 30
0.0
 11
1561.671086
 21
1358.024333
 31
0.0
  0
LINE
  5
10B
330
F5
100
AcDbEntity
  8
LC-004-005-----0
 62
     7
370
    25
100
AcDbLine
 10
1515.925705
 20
1320.764233
 30
0.0
 11
1518.425705
 21
1323.264233
 31
0.0
  0
LINE
  5
10C
330
F5
100
AcDbEntity
  8
LC-004-005-----0
 62
     7
370
    25
100
AcDbLine
 10
1550.138187
 20
1354.976715
 30
0.0
 11
1552.765073
 21
1357.603601
 31
0.0
  0
LINE
  5
10D
330
F5
100
AcDbEntity
  8
LC-004-005-----0
 62
     7
370
    25
100
AcDbLine
 10
1507.440423
 20
1320.764233
 30
0.0
 11
1509.940423
 21
1323.264233
 31
0.0
  0
LINE
  5
10E
330
F5
100
AcDbEntity
  8
LC-004-005-----0
 62
     7
370
    25
100
AcDbLine
 10
1541.232173
 20
1354.555983
 30
0.0
 11
1543.859059
 21
1357.182869
 31
0.0
  0
LINE
  5
10F
330
F5
100
AcDbEntity
  8
LC-004-005-----0
 62
     7
370
    25
100
AcDbLine
 10
1498.955142
 20
1320.764233
 30
0.0
 11
1501.455142
 21
1323.264233
 31
0.0
  0
LINE
  5
110
330
F5
100
AcDbEntity
  8
LC-004-005-----0
 62
     7
370
    25
100
AcDbLine
 10
1532.32616
 20
1354.135251
 30
0.0
 11
1534.953046
 21
1356.762137
 31
0.0
  0
LINE
  5
111
330
F5
100
AcDbEntity
  8
LC-004-005-----0
 62
     7
370
    25
100
AcDbLine
 10
1490.469861
 20
1320.764233
 30
0.0
 11
1492.969861
 21
1323.264233
 31
0.0
  0
LINE
  5
112
330
F5
100
AcDbEntity
  8
LC-004-005-----0
 62
     7
370
    25
100
AcDbLine
 10
1523.420147
 20
1353.714519
 30
0.0
 11
1526.047032
 21
1356.341405
 31
0.0
  0
LINE
  5
113
330
F5
100
AcDbEntity
  8
LC-004-005-----0
 62
     7
370
    25
100
AcDbLine
 10
1481.984579
 20
1320.764233
 30
0.0
 11
1484.484579
 21
1323.264233
 31
0.0
  0
LINE
  5
114
330
F5
100
AcDbEntity
  8
LC-004-005-----0
 62
     7
370
    25
100
AcDbLine
 10
1514.514133
 20
1353.293787
 30
0.0
 11
1517.141019
 21
1355.920673
 31
0.0
  0
LINE
  5
115
330
F5
100
AcDbEntity
  8
LC-004-005-----0
 62
     7
370
    25
100
AcDbLine
 10
1473.499298
 20
1320.764233
 30
0.0
 11
1475.999298
 21
1323.264233
 31
0.0
  0
LINE
  5
116
330
F5
100
AcDbEntity
  8
LC-004-005-----0
 62
     7
370
    25
100
AcDbLine
 10
1505.60812
 20
1352.873055
 30
0.0
 11
1508.235006
 21
1355.499941
 31
0.0
  0
LINE
  5
117
330
F5
100
AcDbEntity
  8
LC-004-005-----0
 62
     7
370
    25
100
AcDbLine
 10
1465.014017
 20
1320.764233
 30
0.0
 11
1467.514017
 21
1323.264233
 31
0.0
  0
LINE
  5
118
330
F5
100
AcDbEntity
  8
LC-004-005-----0
 62
     7
370
    25
100
AcDbLine
 10
1496.702106
 20
1352.452323
 30
0.0
 11
1499.328992
 21
1355.079209
 31
0.0
  0
LINE
  5
119
330
F5
100
AcDbEntity
  8
LC-004-005-----0
 62
     7
370
    25
100
AcDbLine
 10
1456.528735
 20
1320.764233
 30
0.0
 11
1459.028735
 21
1323.264233
 31
0.0
  0
LINE
  5
11A
330
F5
100
AcDbEntity
  8
LC-004-005-----0
 62
     7
370
    25
100
AcDbLine
 10
1487.796093
 20
1352.031591
 30
0.0
 11
1490.422979
 21
1354.658477
 31
0.0
  0
LINE
  5
11B
330
F5
100
AcDbEntity
  8
LC-004-005-----0
 62
     7
370
    25
100
AcDbLine
 10
1448.043454
 20
1320.764233
 30
0.0
 11
1450.543454
 21
1323.264233
 31
0.0
  0
LINE
  5
11C
330
F5
100
AcDbEntity
  8
LC-004-005-----0
 62
     7
370
    25
100
AcDbLine
 10
1478.89008
 20
1351.610859
 30
0.0
 11
1481.516965
 21
1354.237745
 31
0.0
  0
LINE
  5
11D
330
F5
100
AcDbEntity
  8
LC-004-005-----0
 62
     7
370
    25
100
AcDbLine
 10
1439.558172
 20
1320.764233
 30
0.0
 11
1442.058172
 21
1323.264233
 31
0.0
  0
LINE
  5
11E
330
F5
100
AcDbEntity
  8
LC-004-005-----0
 62
     7
370
    25
100
AcDbLine
 10
1469.984066
 20
1351.190127
 30
0.0
 11
1472.610952
 21
1353.817013
 31
0.0
  0
LINE
  5
11F
330
F5
100
AcDbEntity
  8
LC-004-005-----0
 62
     7
370
    25
100
AcDbLine
 10
1431.072891
 20
1320.764233
 30
0.0
 11
1433.572891
 21
1323.264233
 31
0.0
  0
LINE
  5
120
330
F5
100
AcDbEntity
  8
LC-004-005-----0
 62
     7
370
    25
100
AcDbLine
 10
1461.078053
 20
1350.769395
 30
0.0
 11
1463.704939
 21
1353.396281
 31
0.0
  0
LINE
  5
121
330
F5
100
AcDbEntity
  8
LC-004-005-----0
 62
     7
370
    25
100
AcDbLine
 10
1422.58761
 20
1320.764233
 30
0.0
 11
1425.08761
 21
1323.264233
 31
0.0
  0
LINE
  5
122
330
F5
100
AcDbEntity
  8
LC-004-005-----0
 62
     7
370
    25
100
AcDbLine
 10
1452.17204
 20
1350.348663
 30
0.0
 11
1454.798925
 21
1352.975549
 31
0.0
  0
LINE
  5
123
330
F5
100
AcDbEntity
  8
LC-004-005-----0
 62
     7
370
    25
100
AcDbLine
 10
1414.102328
 20
1320.764233
 30
0.0
 11
1416.602328
 21
1323.264233
 31
0.0
  0
LINE
  5
124
330
F5
100
AcDbEntity
  8
LC-004-005-----0
 62
     7
370
    25
100
AcDbLine
 10
1443.266026
 20
1349.927931
 30
0.0
 11
1445.892912
 21
1352.554817
 31
0.0
  0
LINE
  5
125
330
F5
100
AcDbEntity
  8
LC-004-005-----0
 62
     7
370
    25
100
AcDbLine
 10
1405.617047
 20
1320.764233
 30
0.0
 11
1408.117047
 21
1323.264233
 31
0.0
  0
LINE
  5
126
330
F5
100
AcDbEntity
  8
LC-004-005-----0
 62
     7
370
    25
100
AcDbLine
 10
1434.360013
 20
1349.507199
 30
0.0
 11
1436.986898
 21
1352.134085
 31
0.0
  0
LINE
  5
127
330
F5
100
AcDbEntity
  8
LC-004-005-----0
 62
     7
370
    25
100
AcDbLine
 10
1397.131766
 20
1320.764233
 30
0.0
 11
1399.631766
 21
1323.264233
 31
0.0
  0
LINE
  5
128
330
F5
100
AcDbEntity
  8
LC-004-005-----0
 62
     7
370
    25
100
AcDbLine
 10
1425.453999
 20
1349.086467
 30
0.0
 11
1428.080885
 21
1351.713353
 31
0.0
  0
LINE
  5
129
330
F5
100
AcDbEntity
  8
LC-004-005-----0
 62
     7
370
    25
100
AcDbLine
 10
1388.646484
 20
1320.764233
 30
0.0
 11
1391.146484
 21
1323.264233
 31
0.0
  0
LINE
  5
12A
330
F5
100
AcDbEntity
  8
LC-004-005-----0
 62
     7
370
    25
100
AcDbLine
 10
1416.547986
 20
1348.665735
 30
0.0
 11
1419.174872
 21
1351.292621
 31
0.0
  0
LINE
  5
12B
330
F5
100
AcDbEntity
  8
LC-004-005-----0
 62
     7
370
    25
100
AcDbLine
 10
1380.161203
 20
1320.764233
 30
0.0
 11
1382.661203
 21
1323.264233
 31
0.0
  0
LINE
  5
12C
330
F5
100
AcDbEntity
  8
LC-004-005-----0
 62
     7
370
    25
100
AcDbLine
 10
1407.641973
 20
1348.245003
 30
0.0
 11
1410.268858
 21
1350.871889
 31
0.0
  0
LINE
  5
12D
330
F5
100
AcDbEntity
  8
LC-004-005-----0
 62
     7
370
    25
100
AcDbLine
 10
1371.675921
 20
1320.764233
 30
0.0
 11
1374.175921
 21
1323.264233
 31
0.0
  0
LINE
  5
12E
330
F5
100
AcDbEntity
  8
LC-004-005-----0
 62
     7
370
    25
100
AcDbLine
 10
1398.735959
 20
1347.824271
 30
0.0
 11
1401.362845
 21
1350.451157
 31
0.0
  0
LINE
  5
12F
330
F5
100
AcDbEntity
  8
LC-004-005-----0
 62
     7
370
    25
100
AcDbLine
 10
1363.19064
 20
1320.764233
 30
0.0
 11
1365.69064
 21
1323.264233
 31
0.0
  0
LINE
  5
130
330
F5
100
AcDbEntity
  8
LC-004-005-----0
 62
     7
370
    25
100
AcDbLine
 10
1389.829946
 20
1347.403539
 30
0.0
 11
1392.456831
 21
1350.030425
 31
0.0
  0
LINE
  5
131
330
F5
100
AcDbEntity
  8
LC-004-005-----0
 62
     7
370
    25
100
AcDbLine
 10
1354.705359
 20
1320.764233
 30
0.0
 11
1357.205359
 21
1323.264233
 31
0.0
  0
LINE
  5
132
330
F5
100
AcDbEntity
  8
LC-004-005-----0
 62
     7
370
    25
100
AcDbLine
 10
1380.923932
 20
1346.982807
 30
0.0
 11
1383.550818
 21
1349.609693
 31
0.0
  0
LINE
  5
133
330
F5
100
AcDbEntity
  8
LC-004-005-----0
 62
     7
370
    25
100
AcDbLine
 10
1346.220077
 20
1320.764233
 30
0.0
 11
1348.720077
 21
1323.264233
 31
0.0
  0
LINE
  5
134
330
F5
100
AcDbEntity
  8
LC-004-005-----0
 62
     7
370
    25
100
AcDbLine
 10
1372.017919
 20
1346.562075
 30
0.0
 11
1374.644805
 21
1349.188961
 31
0.0
  0
LINE
  5
135
330
F5
100
AcDbEntity
  8
LC-004-005-----0
 62
     7
370
    25
100
AcDbLine
 10
1337.734796
 20
1320.764233
 30
0.0
 11
1340.234796
 21
1323.264233
 31
0.0
  0
LINE
  5
136
330
F5
100
AcDbEntity
  8
LC-004-005-----0
 62
     7
370
    25
100
AcDbLine
 10
1363.111906
 20
1346.141343
 30
0.0
 11
1365.738791
 21
1348.768229
 31
0.0
  0
LINE
  5
137
330
F5
100
AcDbEntity
  8
LC-004-005-----0
 62
     7
370
    25
100
AcDbLine
 10
1329.249515
 20
1320.764233
 30
0.0
 11
1331.749515
 21
1323.264233
 31
0.0
  0
LINE
  5
138
330
F5
100
AcDbEntity
  8
LC-004-005-----0
 62
     7
370
    25
100
AcDbLine
 10
1354.205892
 20
1345.720611
 30
0.0
 11
1356.832778
 21
1348.347497
 31
0.0
  0
LINE
  5
139
330
F5
100
AcDbEntity
  8
LC-004-005-----0
 62
     7
370
    25
100
AcDbLine
 10
1320.764233
 20
1320.764233
 30
0.0
 11
1323.264233
 21
1323.264233
 31
0.0
  0
LINE
  5
13A
330
F5
100
AcDbEntity
  8
LC-004-005-----0
 62
     7
370
    25
100
AcDbLine
 10
1345.299879
 20
1345.299879
 30
0.0
 11
1347.926764
 21
1347.926764
 31
0.0
  0
LINE
  5
13B
330
F5
100
AcDbEntity
  8
LC-004-005-----0
 62
     7
370
    25
100
AcDbLine
 10
1312.278952
 20
1320.764233
 30
0.0
 11
1314.778952
 21
1323.264233
 31
0.0
  0
LINE
  5
13C
330
F5
100
AcDbEntity
  8
LC-004-005-----0
 62
     7
370
    25
100
AcDbLine
 10
1336.393865
 20
1344.879147
 30
0.0
 11
1339.020751
 21
1347.506032
 31
0.0
  0
LINE
  5
13D
330
F5
100
AcDbEntity
  8
LC-004-005-----0
 62
     7
370
    25
100
AcDbLine
 10
1303.79367
 20
1320.764233
 30
0.0
 11
1306.29367
 21
1323.264233
 31
0.0
  0
LINE
  5
13E
330
F5
100
AcDbEntity
  8
LC-004-005-----0
 62
     7
370
    25
100
AcDbLine
 10
1327.487852
 20
1344.458415
 30
0.0
 11
1330.114738
 21
1347.0853
 31
0.0
  0
LINE
  5
13F
330
F5
100
AcDbEntity
  8
LC-004-005-----0
 62
     7
370
    25
100
AcDbLine
 10
1295.308389
 20
1320.764233
 30
0.0
 11
1297.808389
 21
1323.264233
 31
0.0
  0
LINE
  5
140
330
F5
100
AcDbEntity
  8
LC-004-005-----0
 62
     7
370
    25
100
AcDbLine
 10
1318.581839
 20
1344.037683
 30
0.0
 11
1321.208724
 21
1346.664568
 31
0.0
  0
LINE
  5
141
330
F5
100
AcDbEntity
  8
LC-004-005-----0
 62
     7
370
    25
100
AcDbLine
 10
1286.823108
 20
1320.764233
 30
0.0
 11
1289.323108
 21
1323.264233
 31
0.0
  0
LINE
  5
142
330
F5
100
AcDbEntity
  8
LC-004-005-----0
 62
     7
370
    25
100
AcDbLine
 10
1309.675825
 20
1343.616951
 30
0.0
 11
1312.302711
 21
1346.243836
 31
0.0
  0
LINE
  5
143
330
F5
100
AcDbEntity
  8
LC-004-005-----0
 62
     7
370
    25
100
AcDbLine
 10
1278.337826
 20
1320.764233
 30
0.0
 11
1280.837826
 21
1323.264233
 31
0.0
  0
LINE
  5
144
330
F5
100
AcDbEntity
  8
LC-004-005-----0
 62
     7
370
    25
100
AcDbLine
 10
1300.769812
 20
1343.196219
 30
0.0
 11
1303.396698
 21
1345.823104
 31
0.0
  0
LINE
  5
145
330
F5
100
AcDbEntity
  8
LC-004-005-----0
 62
     7
370
    25
100
AcDbLine
 10
1269.852545
 20
1320.764233
 30
0.0
 11
1272.352545
 21
1323.264233
 31
0.0
  0
LINE
  5
146
330
F5
100
AcDbEntity
  8
LC-004-005-----0
 62
     7
370
    25
100
AcDbLine
 10
1291.863798
 20
1342.775487
 30
0.0
 11
1294.490684
 21
1345.402372
 31
0.0
  0
LINE
  5
147
330
F5
100
AcDbEntity
  8
LC-004-005-----0
 62
     7
370
    25
100
AcDbLine
 10
1261.367264
 20
1320.764233
 30
0.0
 11
1263.867264
 21
1323.264233
 31
0.0
  0
LINE
  5
148
330
F5
100
AcDbEntity
  8
LC-004-005-----0
 62
     7
370
    25
100
AcDbLine
 10
1282.957785
 20
1342.354755
 30
0.0
 11
1285.584671
 21
1344.98164
 31
0.0
  0
LINE
  5
149
330
F5
100
AcDbEntity
  8
LC-004-005-----0
 62
     7
370
    25
100
AcDbLine
 10
1252.883952
 20
1320.766203
 30
0.0
 11
1255.381982
 21
1323.264233
 31
0.0
  0
LINE
  5
14A
330
F5
100
AcDbEntity
  8
LC-004-005-----0
 62
     7
370
    25
100
AcDbLine
 10
1274.051772
 20
1341.934023
 30
0.0
 11
1276.678657
 21
1344.560908
 31
0.0
  0
LINE
  5
14B
330
F5
100
AcDbEntity
  8
LC-004-005-----0
 62
     7
370
    25
100
AcDbLine
 10
1244.398671
 20
1320.766203
 30
0.0
 11
1246.896701
 21
1323.264233
 31
0.0
  0
LINE
  5
14C
330
F5
100
AcDbEntity
  8
LC-004-005-----0
 62
     7
370
    25
100
AcDbLine
 10
1265.145758
 20
1341.513291
 30
0.0
 11
1267.772644
 21
1344.140176
 31
0.0
  0
LINE
  5
14D
330
F5
100
AcDbEntity
  8
LC-004-005-----0
 62
     7
370
    25
100
AcDbLine
 10
1235.913389
 20
1320.766203
 30
0.0
 11
1238.411419
 21
1323.264233
 31
0.0
  0
LINE
  5
14E
330
F5
100
AcDbEntity
  8
LC-004-005-----0
 62
     7
370
    25
100
AcDbLine
 10
1256.417365
 20
1341.270179
 30
0.0
 11
1258.916347
 21
1343.769161
 31
0.0
  0
LINE
  5
14F
330
F5
100
AcDbEntity
  8
LC-004-005-----0
 62
     7
370
    25
100
AcDbLine
 10
1227.669019
 20
1321.007114
 30
0.0
 11
1229.926138
 21
1323.264233
 31
0.0
  0
LINE
  5
150
330
F5
100
AcDbEntity
  8
LC-004-005-----0
 62
     7
370
    25
100
AcDbLine
 10
1247.932083
 20
1341.270179
 30
0.0
 11
1250.431065
 21
1343.769161
 31
0.0
  0
LINE
  5
151
330
F5
100
AcDbEntity
  8
LC-004-005-----0
 62
     7
370
    25
100
AcDbLine
 10
1108.634169
 20
1320.766203
 30
0.0
 11
1111.132199
 21
1323.264233
 31
0.0
  0
LINE
  5
152
330
F5
100
AcDbEntity
  8
LC-004-005-----0
 62
     7
370
    25
100
AcDbLine
 10
1100.148887
 20
1320.766203
 30
0.0
 11
1102.646917
 21
1323.264233
 31
0.0
  0
LINE
  5
153
330
F5
100
AcDbEntity
  8
LC-004-005-----0
 62
     7
370
    25
100
AcDbLine
 10
1091.663606
 20
1320.766203
 30
0.0
 11
1094.161636
 21
1323.264233
 31
0.0
  0
LINE
  5
154
330
F5
100
AcDbEntity
  8
LC-004-005-----0
 62
     7
370
    25
100
AcDbLine
 10
1083.176355
 20
1320.764233
 30
0.0
 11
1085.676355
 21
1323.264233
 31
0.0
  0
LINE
  5
155
330
F5
100
AcDbEntity
  8
LC-004-005-----0
 62
     7
370
    25
100
AcDbLine
 10
1074.691073
 20
1320.764233
 30
0.0
 11
1077.191073
 21
1323.264233
 31
0.0
  0
LINE
  5
156
330
F5
100
AcDbEntity
  8
LC-004-005-----0
 62
     7
370
    25
100
AcDbLine
 10
1095.201214
 20
1341.274374
 30
0.0
 11
1096.422093
 21
1342.495253
 31
0.0
  0
LINE
  5
157
330
F5
100
AcDbEntity
  8
LC-004-005-----0
 62
     7
370
    25
100
AcDbLine
 10
1066.205792
 20
1320.764233
 30
0.0
 11
1068.705792
 21
1323.264233
 31
0.0
  0
LINE
  5
158
330
F5
100
AcDbEntity
  8
LC-004-005-----0
 62
     7
370
    25
100
AcDbLine
 10
1086.715933
 20
1341.274374
 30
0.0
 11
1089.210719
 21
1343.769161
 31
0.0
  0
LINE
  5
159
330
F5
100
AcDbEntity
  8
LC-004-005-----0
 62
     7
370
    25
100
AcDbLine
 10
1057.720511
 20
1320.764233
 30
0.0
 11
1060.220511
 21
1323.264233
 31
0.0
  0
LINE
  5
15A
330
F5
100
AcDbEntity
  8
LC-004-005-----0
 62
     7
370
    25
100
AcDbLine
 10
1078.276618
 20
1341.320341
 30
0.0
 11
1080.725438
 21
1343.769161
 31
0.0
  0
LINE
  5
15B
330
F5
100
AcDbEntity
  8
LC-004-005-----0
 62
     7
370
    25
100
AcDbLine
 10
1049.235229
 20
1320.764233
 30
0.0
 11
1051.735229
 21
1323.264233
 31
0.0
  0
LINE
  5
15C
330
F5
100
AcDbEntity
  8
LC-004-005-----0
 62
     7
370
    25
100
AcDbLine
 10
1070.17411
 20
1341.703114
 30
0.0
 11
1072.563997
 21
1344.093001
 31
0.0
  0
LINE
  5
15D
330
F5
100
AcDbEntity
  8
LC-004-005-----0
 62
     7
370
    25
100
AcDbLine
 10
1040.749948
 20
1320.764233
 30
0.0
 11
1043.249948
 21
1323.264233
 31
0.0
  0
LINE
  5
15E
330
F5
100
AcDbEntity
  8
LC-004-005-----0
 62
     7
370
    25
100
AcDbLine
 10
1062.071602
 20
1342.085888
 30
0.0
 11
1064.461489
 21
1344.475774
 31
0.0
  0
LINE
  5
15F
330
F5
100
AcDbEntity
  8
LC-004-005-----0
 62
     7
370
    25
100
AcDbLine
 10
1032.264666
 20
1320.764233
 30
0.0
 11
1034.764666
 21
1323.264233
 31
0.0
  0
LINE
  5
160
330
F5
100
AcDbEntity
  8
LC-004-005-----0
 62
     7
370
    25
100
AcDbLine
 10
1053.969094
 20
1342.468661
 30
0.0
 11
1056.358981
 21
1344.858548
 31
0.0
  0
LINE
  5
161
330
F5
100
AcDbEntity
  8
LC-004-005-----0
 62
     7
370
    25
100
AcDbLine
 10
1023.779385
 20
1320.764233
 30
0.0
 11
1026.279385
 21
1323.264233
 31
0.0
  0
LINE
  5
162
330
F5
100
AcDbEntity
  8
LC-004-005-----0
 62
     7
370
    25
100
AcDbLine
 10
1045.866586
 20
1342.851434
 30
0.0
 11
1048.256473
 21
1345.241321
 31
0.0
  0
LINE
  5
163
330
F5
100
AcDbEntity
  8
LC-004-005-----0
 62
     7
370
    25
100
AcDbLine
 10
1015.294104
 20
1320.764233
 30
0.0
 11
1017.794104
 21
1323.264233
 31
0.0
  0
LINE
  5
164
330
F5
100
AcDbEntity
  8
LC-004-005-----0
 62
     7
370
    25
100
AcDbLine
 10
1037.764078
 20
1343.234208
 30
0.0
 11
1040.153965
 21
1345.624094
 31
0.0
  0
LINE
  5
165
330
F5
100
AcDbEntity
  8
LC-004-005-----0
 62
     7
370
    25
100
AcDbLine
 10
1006.808822
 20
1320.764233
 30
0.0
 11
1009.308822
 21
1323.264233
 31
0.0
  0
LINE
  5
166
330
F5
100
AcDbEntity
  8
LC-004-005-----0
 62
     7
370
    25
100
AcDbLine
 10
1029.66157
 20
1343.616981
 30
0.0
 11
1032.051457
 21
1346.006868
 31
0.0
  0
LINE
  5
167
330
F5
100
AcDbEntity
  8
LC-004-005-----0
 62
     7
370
    25
100
AcDbLine
 10
998.323541
 20
1320.764233
 30
0.0
 11
1000.823541
 21
1323.264233
 31
0.0
  0
LINE
  5
168
330
F5
100
AcDbEntity
  8
LC-004-005-----0
 62
     7
370
    25
100
AcDbLine
 10
1021.559062
 20
1343.999754
 30
0.0
 11
1023.948949
 21
1346.389641
 31
0.0
  0
LINE
  5
169
330
F5
100
AcDbEntity
  8
LC-004-005-----0
 62
     7
370
    25
100
AcDbLine
 10
989.83826
 20
1320.764233
 30
0.0
 11
992.33826
 21
1323.264233
 31
0.0
  0
LINE
  5
16A
330
F5
100
AcDbEntity
  8
LC-004-005-----0
 62
     7
370
    25
100
AcDbLine
 10
1013.456554
 20
1344.382528
 30
0.0
 11
1015.846441
 21
1346.772414
 31
0.0
  0
LINE
  5
16B
330
F5
100
AcDbEntity
  8
LC-004-005-----0
 62
     7
370
    25
100
AcDbLine
 10
981.352978
 20
1320.764233
 30
0.0
 11
983.852978
 21
1323.264233
 31
0.0
  0
LINE
  5
16C
330
F5
100
AcDbEntity
  8
LC-004-005-----0
 62
     7
370
    25
100
AcDbLine
 10
1005.354046
 20
1344.765301
 30
0.0
 11
1007.743933
 21
1347.155188
 31
0.0
  0
LINE
  5
16D
330
F5
100
AcDbEntity
  8
LC-004-005-----0
 62
     7
370
    25
100
AcDbLine
 10
972.867697
 20
1320.764233
 30
0.0
 11
975.367697
 21
1323.264233
 31
0.0
  0
LINE
  5
16E
330
F5
100
AcDbEntity
  8
LC-004-005-----0
 62
     7
370
    25
100
AcDbLine
 10
997.251538
 20
1345.148074
 30
0.0
 11
999.641425
 21
1347.537961
 31
0.0
  0
LINE
  5
16F
330
F5
100
AcDbEntity
  8
LC-004-005-----0
 62
     7
370
    25
100
AcDbLine
 10
964.382415
 20
1320.764233
 30
0.0
 11
966.882415
 21
1323.264233
 31
0.0
  0
LINE
  5
170
330
F5
100
AcDbEntity
  8
LC-004-005-----0
 62
     7
370
    25
100
AcDbLine
 10
989.14903
 20
1345.530848
 30
0.0
 11
991.538917
 21
1347.920734
 31
0.0
  0
LINE
  5
171
330
F5
100
AcDbEntity
  8
LC-004-005-----0
 62
     7
370
    25
100
AcDbLine
 10
955.897134
 20
1320.764233
 30
0.0
 11
958.397134
 21
1323.264233
 31
0.0
  0
LINE
  5
172
330
F5
100
AcDbEntity
  8
LC-004-005-----0
 62
     7
370
    25
100
AcDbLine
 10
981.046522
 20
1345.913621
 30
0.0
 11
983.436409
 21
1348.303508
 31
0.0
  0
LINE
  5
173
330
F5
100
AcDbEntity
  8
LC-004-005-----0
 62
     7
370
    25
100
AcDbLine
 10
947.411853
 20
1320.764233
 30
0.0
 11
949.911853
 21
1323.264233
 31
0.0
  0
LINE
  5
174
330
F5
100
AcDbEntity
  8
LC-004-005-----0
 62
     7
370
    25
100
AcDbLine
 10
972.944014
 20
1346.296395
 30
0.0
 11
975.333901
 21
1348.686281
 31
0.0
  0
LINE
  5
175
330
F5
100
AcDbEntity
  8
LC-004-005-----0
 62
     7
370
    25
100
AcDbLine
 10
938.926571
 20
1320.764233
 30
0.0
 11
941.426571
 21
1323.264233
 31
0.0
  0
LINE
  5
176
330
F5
100
AcDbEntity
  8
LC-004-005-----0
 62
     7
370
    25
100
AcDbLine
 10
964.841506
 20
1346.679168
 30
0.0
 11
967.231393
 21
1349.069055
 31
0.0
  0
LINE
  5
177
330
F5
100
AcDbEntity
  8
LC-004-005-----0
 62
     7
370
    25
100
AcDbLine
 10
930.44129
 20
1320.764233
 30
0.0
 11
932.94129
 21
1323.264233
 31
0.0
  0
LINE
  5
178
330
F5
100
AcDbEntity
  8
LC-004-005-----0
 62
     7
370
    25
100
AcDbLine
 10
956.738998
 20
1347.061941
 30
0.0
 11
959.128885
 21
1349.451828
 31
0.0
  0
LINE
  5
179
330
F5
100
AcDbEntity
  8
LC-004-005-----0
 62
     7
370
    25
100
AcDbLine
 10
921.956009
 20
1320.764233
 30
0.0
 11
924.456009
 21
1323.264233
 31
0.0
  0
LINE
  5
17A
330
F5
100
AcDbEntity
  8
LC-004-005-----0
 62
     7
370
    25
100
AcDbLine
 10
948.63649
 20
1347.444715
 30
0.0
 11
951.026377
 21
1349.834601
 31
0.0
  0
LINE
  5
17B
330
F5
100
AcDbEntity
  8
LC-004-005-----0
 62
     7
370
    25
100
AcDbLine
 10
913.470727
 20
1320.764233
 30
0.0
 11
915.970727
 21
1323.264233
 31
0.0
  0
LINE
  5
17C
330
F5
100
AcDbEntity
  8
LC-004-005-----0
 62
     7
370
    25
100
AcDbLine
 10
940.533982
 20
1347.827488
 30
0.0
 11
942.923869
 21
1350.217375
 31
0.0
  0
LINE
  5
17D
330
F5
100
AcDbEntity
  8
LC-004-005-----0
 62
     7
370
    25
100
AcDbLine
 10
904.985446
 20
1320.764233
 30
0.0
 11
907.485446
 21
1323.264233
 31
0.0
  0
LINE
  5
17E
330
F5
100
AcDbEntity
  8
LC-004-005-----0
 62
     7
370
    25
100
AcDbLine
 10
932.431474
 20
1348.210261
 30
0.0
 11
934.821361
 21
1350.600148
 31
0.0
  0
LINE
  5
17F
330
F5
100
AcDbEntity
  8
LC-004-005-----0
 62
     7
370
    25
100
AcDbLine
 10
896.500164
 20
1320.764233
 30
0.0
 11
899.000164
 21
1323.264233
 31
0.0
  0
LINE
  5
180
330
F5
100
AcDbEntity
  8
LC-004-005-----0
 62
     7
370
    25
100
AcDbLine
 10
924.328966
 20
1348.593035
 30
0.0
 11
926.718853
 21
1350.982921
 31
0.0
  0
LINE
  5
181
330
F5
100
AcDbEntity
  8
LC-004-005-----0
 62
     7
370
    25
100
AcDbLine
 10
888.014883
 20
1320.764233
 30
0.0
 11
890.514883
 21
1323.264233
 31
0.0
  0
LINE
  5
182
330
F5
100
AcDbEntity
  8
LC-004-005-----0
 62
     7
370
    25
100
AcDbLine
 10
916.226458
 20
1348.975808
 30
0.0
 11
918.616345
 21
1351.365695
 31
0.0
  0
LINE
  5
183
330
F5
100
AcDbEntity
  8
LC-004-005-----0
 62
     7
370
    25
100
AcDbLine
 10
879.529602
 20
1320.764233
 30
0.0
 11
882.029602
 21
1323.264233
 31
0.0
  0
LINE
  5
184
330
F5
100
AcDbEntity
  8
LC-004-005-----0
 62
     7
370
    25
100
AcDbLine
 10
908.12395
 20
1349.358581
 30
0.0
 11
910.513837
 21
1351.748468
 31
0.0
  0
LINE
  5
185
330
F5
100
AcDbEntity
  8
LC-004-005-----0
 62
     7
370
    25
100
AcDbLine
 10
871.04432
 20
1320.764233
 30
0.0
 11
873.54432
 21
1323.264233
 31
0.0
  0
LINE
  5
186
330
F5
100
AcDbEntity
  8
LC-004-005-----0
 62
     7
370
    25
100
AcDbLine
 10
900.021442
 20
1349.741355
 30
0.0
 11
902.411328
 21
1352.131241
 31
0.0
  0
LINE
  5
187
330
F5
100
AcDbEntity
  8
LC-004-005-----0
 62
     7
370
    25
100
AcDbLine
 10
862.559039
 20
1320.764233
 30
0.0
 11
865.059039
 21
1323.264233
 31
0.0
  0
LINE
  5
188
330
F5
100
AcDbEntity
  8
LC-004-005-----0
 62
     7
370
    25
100
AcDbLine
 10
891.918934
 20
1350.124128
 30
0.0
 11
894.30882
 21
1352.514015
 31
0.0
  0
LINE
  5
189
330
F5
100
AcDbEntity
  8
LC-004-005-----0
 62
     7
370
    25
100
AcDbLine
 10
854.073758
 20
1320.764233
 30
0.0
 11
856.573758
 21
1323.264233
 31
0.0
  0
LINE
  5
18A
330
F5
100
AcDbEntity
  8
LC-004-005-----0
 62
     7
370
    25
100
AcDbLine
 10
883.816426
 20
1350.506901
 30
0.0
 11
886.206312
 21
1352.896788
 31
0.0
  0
LINE
  5
18B
330
F5
100
AcDbEntity
  8
LC-004-005-----0
 62
     7
370
    25
100
AcDbLine
 10
845.588476
 20
1320.764233
 30
0.0
 11
848.088476
 21
1323.264233
 31
0.0
  0
LINE
  5
18C
330
F5
100
AcDbEntity
  8
LC-004-005-----0
 62
     7
370
    25
100
AcDbLine
 10
875.713918
 20
1350.889675
 30
0.0
 11
878.103804
 21
1353.279561
 31
0.0
  0
LINE
  5
18D
330
F5
100
AcDbEntity
  8
LC-004-005-----0
 62
     7
370
    25
100
AcDbLine
 10
837.103195
 20
1320.764233
 30
0.0
 11
839.603195
 21
1323.264233
 31
0.0
  0
LINE
  5
18E
330
F5
100
AcDbEntity
  8
LC-004-005-----0
 62
     7
370
    25
100
AcDbLine
 10
867.61141
 20
1351.272448
 30
0.0
 11
870.001296
 21
1353.662335
 31
0.0
  0
LINE
  5
18F
330
F5
100
AcDbEntity
  8
LC-004-005-----0
 62
     7
370
    25
100
AcDbLine
 10
828.617913
 20
1320.764233
 30
0.0
 11
831.117913
 21
1323.264233
 31
0.0
  0
LINE
  5
190
330
F5
100
AcDbEntity
  8
LC-004-005-----0
 62
     7
370
    25
100
AcDbLine
 10
859.508902
 20
1351.655221
 30
0.0
 11
861.898788
 21
1354.045108
 31
0.0
  0
LINE
  5
191
330
F5
100
AcDbEntity
  8
LC-004-005-----0
 62
     7
370
    25
100
AcDbLine
 10
820.132632
 20
1320.764233
 30
0.0
 11
822.632632
 21
1323.264233
 31
0.0
  0
LINE
  5
192
330
F5
100
AcDbEntity
  8
LC-004-005-----0
 62
     7
370
    25
100
AcDbLine
 10
851.406394
 20
1352.037995
 30
0.0
 11
853.79628
 21
1354.427881
 31
0.0
  0
LINE
  5
193
330
F5
100
AcDbEntity
  8
LC-004-005-----0
 62
     7
370
    25
100
AcDbLine
 10
811.647351
 20
1320.764233
 30
0.0
 11
814.147351
 21
1323.264233
 31
0.0
  0
LINE
  5
194
330
F5
100
AcDbEntity
  8
LC-004-005-----0
 62
     7
370
    25
100
AcDbLine
 10
843.303886
 20
1352.420768
 30
0.0
 11
845.693772
 21
1354.810655
 31
0.0
  0
LINE
  5
195
330
F5
100
AcDbEntity
  8
LC-004-005-----0
 62
     7
370
    25
100
AcDbLine
 10
803.162069
 20
1320.764233
 30
0.0
 11
805.662069
 21
1323.264233
 31
0.0
  0
LINE
  5
196
330
F5
100
AcDbEntity
  8
LC-004-005-----0
 62
     7
370
    25
100
AcDbLine
 10
835.201378
 20
1352.803541
 30
0.0
 11
837.591264
 21
1355.193428
 31
0.0
  0
LINE
  5
197
330
F5
100
AcDbEntity
  8
LC-004-005-----0
 62
     7
370
    25
100
AcDbLine
 10
794.676788
 20
1320.764233
 30
0.0
 11
797.176788
 21
1323.264233
 31
0.0
  0
LINE
  5
198
330
F5
100
AcDbEntity
  8
LC-004-005-----0
 62
     7
370
    25
100
AcDbLine
 10
827.09887
 20
1353.186315
 30
0.0
 11
829.488756
 21
1355.576201
 31
0.0
  0
LINE
  5
199
330
F5
100
AcDbEntity
  8
LC-004-005-----0
 62
     7
370
    25
100
AcDbLine
 10
786.191507
 20
1320.764233
 30
0.0
 11
788.691507
 21
1323.264233
 31
0.0
  0
LINE
  5
19A
330
F5
100
AcDbEntity
  8
LC-004-005-----0
 62
     7
370
    25
100
AcDbLine
 10
818.996362
 20
1353.569088
 30
0.0
 11
821.386248
 21
1355.958975
 31
0.0
  0
LINE
  5
19B
330
F5
100
AcDbEntity
  8
LC-004-005-----0
 62
     7
370
    25
100
AcDbLine
 10
777.706225
 20
1320.764233
 30
0.0
 11
780.206225
 21
1323.264233
 31
0.0
  0
LINE
  5
19C
330
F5
100
AcDbEntity
  8
LC-004-005-----0
 62
     7
370
    25
100
AcDbLine
 10
810.893854
 20
1353.951861
 30
0.0
 11
813.28374
 21
1356.341748
 31
0.0
  0
LINE
  5
19D
330
F5
100
AcDbEntity
  8
LC-004-005-----0
 62
     7
370
    25
100
AcDbLine
 10
769.220944
 20
1320.764233
 30
0.0
 11
771.720944
 21
1323.264233
 31
0.0
  0
LINE
  5
19E
330
F5
100
AcDbEntity
  8
LC-004-005-----0
 62
     7
370
    25
100
AcDbLine
 10
802.791346
 20
1354.334635
 30
0.0
 11
805.181232
 21
1356.724522
 31
0.0
  0
LINE
  5
19F
330
F5
100
AcDbEntity
  8
LC-004-005-----0
 62
     7
370
    25
100
AcDbLine
 10
760.735662
 20
1320.764233
 30
0.0
 11
763.235662
 21
1323.264233
 31
0.0
  0
LINE
  5
1A0
330
F5
100
AcDbEntity
  8
LC-004-005-----0
 62
     7
370
    25
100
AcDbLine
 10
794.688837
 20
1354.717408
 30
0.0
 11
797.078724
 21
1357.107295
 31
0.0
  0
LINE
  5
1A1
330
F5
100
AcDbEntity
  8
LC-004-005-----0
 62
     7
370
    25
100
AcDbLine
 10
752.250381
 20
1320.764233
 30
0.0
 11
754.750381
 21
1323.264233
 31
0.0
  0
LINE
  5
1A2
330
F5
100
AcDbEntity
  8
LC-004-005-----0
 62
     7
370
    25
100
AcDbLine
 10
786.586329
 20
1355.100182
 30
0.0
 11
788.976216
 21
1357.490068
 31
0.0
  0
LINE
  5
1A3
330
F5
100
AcDbEntity
  8
LC-004-005-----0
 62
     7
370
    25
100
AcDbLine
 10
743.7651
 20
1320.764233
 30
0.0
 11
746.2651
 21
1323.264233
 31
0.0
  0
LINE
  5
1A4
330
F5
100
AcDbEntity
  8
LC-004-005-----0
 62
     7
370
    25
100
AcDbLine
 10
778.483821
 20
1355.482955
 30
0.0
 11
780.873708
 21
1357.872842
 31
0.0
  0
LINE
  5
1A5
330
F5
100
AcDbEntity
  8
LC-004-005-----0
 62
     7
370
    25
100
AcDbLine
 10
735.279818
 20
1320.764233
 30
0.0
 11
737.779818
 21
1323.264233
 31
0.0
  0
LINE
  5
1A6
330
F5
100
AcDbEntity
  8
LC-004-005-----0
 62
     7
370
    25
100
AcDbLine
 10
770.381313
 20
1355.865728
 30
0.0
 11
772.7712
 21
1358.255615
 31
0.0
  0
LINE
  5
1A7
330
F5
100
AcDbEntity
  8
LC-004-005-----0
 62
     7
370
    25
100
AcDbLine
 10
726.794537
 20
1320.764233
 30
0.0
 11
729.294537
 21
1323.264233
 31
0.0
  0
LINE
  5
1A8
330
F5
100
AcDbEntity
  8
LC-004-005-----0
 62
     7
370
    25
100
AcDbLine
 10
762.278805
 20
1356.248502
 30
0.0
 11
764.668692
 21
1358.638388
 31
0.0
  0
LINE
  5
1A9
330
F5
100
AcDbEntity
  8
LC-004-005-----0
 62
     7
370
    25
100
AcDbLine
 10
719.669019
 20
1322.123997
 30
0.0
 11
720.809256
 21
1323.264233
 31
0.0
  0
LINE
  5
1AA
330
F5
100
AcDbEntity
  8
LC-004-005-----0
 62
     7
370
    25
100
AcDbLine
 10
754.176297
 20
1356.631275
 30
0.0
 11
756.566184
 21
1359.021162
 31
0.0
  0
LINE
  5
1AB
330
F5
100
AcDbEntity
  8
LC-004-005-----0
 62
     7
370
    25
100
AcDbLine
 10
746.073789
 20
1357.014048
 30
0.0
 11
748.463676
 21
1359.403935
 31
0.0
  0
LINE
  5
1AC
330
F5
100
AcDbEntity
  8
LC-004-005-----0
 62
     7
370
    25
100
AcDbLine
 10
737.971281
 20
1357.396822
 30
0.0
 11
740.361168
 21
1359.786708
 31
0.0
  0
LINE
  5
1AD
330
F5
100
AcDbEntity
  8
LC-004-005-----0
 62
     7
370
    25
100
AcDbLine
 10
729.868773
 20
1357.779595
 30
0.0
 11
732.25866
 21
1360.169482
 31
0.0
  0
LINE
  5
1AE
330
F5
100
AcDbEntity
  8
LC-004-005-----0
 62
     7
370
    25
100
AcDbLine
 10
721.766265
 20
1358.162368
 30
0.0
 11
724.156152
 21
1360.552255
 31
0.0
  0
ENDBLK
  5
F7
330
F5
100
AcDbEntity
  8
0
100
AcDbBlockEnd
  0
BLOCK
  5
1B1
330
1B0
100
AcDbEntity
  8
0
100
AcDbBlockBegin
  2
*X46
 70
     1
 71
     0
 10
0.0
 20
0.0
 30
0.0
  3
*X46
  1

  4
*X4
  0
LINE
  5
1B3
330
1B0
100
AcDbEntity
  8
LC-004-005-----0
 62
     7
370
    25
100
AcDbLine
 10
1111.132199
 20
1323.264233
 30
0.0
 11
1111.669019
 21
1323.801054
 31
0.0
  0
LINE
  5
1B4
330
1B0
100
AcDbEntity
  8
LC-004-005-----0
 62
     7
370
    25
100
AcDbLine
 10
1102.646917
 20
1323.264233
 30
0.0
 11
1106.778808
 21
1327.396124
 31
0.0
  0
LINE
  5
1B5
330
1B0
100
AcDbEntity
  8
LC-004-005-----0
 62
     7
370
    25
100
AcDbLine
 10
1094.161636
 20
1323.264233
 30
0.0
 11
1101.595597
 21
1330.698194
 31
0.0
  0
LINE
  5
1B6
330
1B0
100
AcDbEntity
  8
LC-004-005-----0
 62
     7
370
    25
100
AcDbLine
 10
1085.676355
 20
1323.264233
 30
0.0
 11
1096.412386
 21
1334.000264
 31
0.0
  0
LINE
  5
1B7
330
1B0
100
AcDbEntity
  8
LC-004-005-----0
 62
     7
370
    25
100
AcDbLine
 10
1077.191073
 20
1323.264233
 30
0.0
 11
1093.700277
 21
1339.773437
 31
0.0
  0
LINE
  5
1B8
330
1B0
100
AcDbEntity
  8
LC-004-005-----0
 62
     7
370
    25
100
AcDbLine
 10
1068.705792
 20
1323.264233
 30
0.0
 11
1085.214996
 21
1339.773437
 31
0.0
  0
LINE
  5
1B9
330
1B0
100
AcDbEntity
  8
LC-004-005-----0
 62
     7
370
    25
100
AcDbLine
 10
1060.220511
 20
1323.264233
 30
0.0
 11
1078.276618
 21
1341.320341
 31
0.0
  0
LINE
  5
1BA
330
1B0
100
AcDbEntity
  8
LC-004-005-----0
 62
     7
370
    25
100
AcDbLine
 10
1051.735229
 20
1323.264233
 30
0.0
 11
1070.17411
 21
1341.703114
 31
0.0
  0
LINE
  5
1BB
330
1B0
100
AcDbEntity
  8
LC-004-005-----0
 62
     7
370
    25
100
AcDbLine
 10
1043.249948
 20
1323.264233
 30
0.0
 11
1062.071602
 21
1342.085888
 31
0.0
  0
LINE
  5
1BC
330
1B0
100
AcDbEntity
  8
LC-004-005-----0
 62
     7
370
    25
100
AcDbLine
 10
1034.764666
 20
1323.264233
 30
0.0
 11
1053.969094
 21
1342.468661
 31
0.0
  0
LINE
  5
1BD
330
1B0
100
AcDbEntity
  8
LC-004-005-----0
 62
     7
370
    25
100
AcDbLine
 10
1026.279385
 20
1323.264233
 30
0.0
 11
1045.866586
 21
1342.851434
 31
0.0
  0
LINE
  5
1BE
330
1B0
100
AcDbEntity
  8
LC-004-005-----0
 62
     7
370
    25
100
AcDbLine
 10
1017.794104
 20
1323.264233
 30
0.0
 11
1037.764078
 21
1343.234208
 31
0.0
  0
LINE
  5
1BF
330
1B0
100
AcDbEntity
  8
LC-004-005-----0
 62
     7
370
    25
100
AcDbLine
 10
1009.308822
 20
1323.264233
 30
0.0
 11
1029.66157
 21
1343.616981
 31
0.0
  0
LINE
  5
1C0
330
1B0
100
AcDbEntity
  8
LC-004-005-----0
 62
     7
370
    25
100
AcDbLine
 10
1000.823541
 20
1323.264233
 30
0.0
 11
1021.559062
 21
1343.999754
 31
0.0
  0
LINE
  5
1C1
330
1B0
100
AcDbEntity
  8
LC-004-005-----0
 62
     7
370
    25
100
AcDbLine
 10
992.33826
 20
1323.264233
 30
0.0
 11
1013.456554
 21
1344.382528
 31
0.0
  0
LINE
  5
1C2
330
1B0
100
AcDbEntity
  8
LC-004-005-----0
 62
     7
370
    25
100
AcDbLine
 10
983.852978
 20
1323.264233
 30
0.0
 11
1005.354046
 21
1344.765301
 31
0.0
  0
LINE
  5
1C3
330
1B0
100
AcDbEntity
  8
LC-004-005-----0
 62
     7
370
    25
100
AcDbLine
 10
975.367697
 20
1323.264233
 30
0.0
 11
997.251538
 21
1345.148074
 31
0.0
  0
LINE
  5
1C4
330
1B0
100
AcDbEntity
  8
LC-004-005-----0
 62
     7
370
    25
100
AcDbLine
 10
966.882415
 20
1323.264233
 30
0.0
 11
989.14903
 21
1345.530848
 31
0.0
  0
LINE
  5
1C5
330
1B0
100
AcDbEntity
  8
LC-004-005-----0
 62
     7
370
    25
100
AcDbLine
 10
958.397134
 20
1323.264233
 30
0.0
 11
981.046522
 21
1345.913621
 31
0.0
  0
LINE
  5
1C6
330
1B0
100
AcDbEntity
  8
LC-004-005-----0
 62
     7
370
    25
100
AcDbLine
 10
949.911853
 20
1323.264233
 30
0.0
 11
972.944014
 21
1346.296395
 31
0.0
  0
LINE
  5
1C7
330
1B0
100
AcDbEntity
  8
LC-004-005-----0
 62
     7
370
    25
100
AcDbLine
 10
941.426571
 20
1323.264233
 30
0.0
 11
964.841506
 21
1346.679168
 31
0.0
  0
LINE
  5
1C8
330
1B0
100
AcDbEntity
  8
LC-004-005-----0
 62
     7
370
    25
100
AcDbLine
 10
932.94129
 20
1323.264233
 30
0.0
 11
956.738998
 21
1347.061941
 31
0.0
  0
LINE
  5
1C9
330
1B0
100
AcDbEntity
  8
LC-004-005-----0
 62
     7
370
    25
100
AcDbLine
 10
924.456009
 20
1323.264233
 30
0.0
 11
948.63649
 21
1347.444715
 31
0.0
  0
LINE
  5
1CA
330
1B0
100
AcDbEntity
  8
LC-004-005-----0
 62
     7
370
    25
100
AcDbLine
 10
915.970727
 20
1323.264233
 30
0.0
 11
940.533982
 21
1347.827488
 31
0.0
  0
LINE
  5
1CB
330
1B0
100
AcDbEntity
  8
LC-004-005-----0
 62
     7
370
    25
100
AcDbLine
 10
907.485446
 20
1323.264233
 30
0.0
 11
932.431474
 21
1348.210261
 31
0.0
  0
LINE
  5
1CC
330
1B0
100
AcDbEntity
  8
LC-004-005-----0
 62
     7
370
    25
100
AcDbLine
 10
899.000164
 20
1323.264233
 30
0.0
 11
924.328966
 21
1348.593035
 31
0.0
  0
LINE
  5
1CD
330
1B0
100
AcDbEntity
  8
LC-004-005-----0
 62
     7
370
    25
100
AcDbLine
 10
890.514883
 20
1323.264233
 30
0.0
 11
916.226458
 21
1348.975808
 31
0.0
  0
LINE
  5
1CE
330
1B0
100
AcDbEntity
  8
LC-004-005-----0
 62
     7
370
    25
100
AcDbLine
 10
882.029602
 20
1323.264233
 30
0.0
 11
908.12395
 21
1349.358581
 31
0.0
  0
LINE
  5
1CF
330
1B0
100
AcDbEntity
  8
LC-004-005-----0
 62
     7
370
    25
100
AcDbLine
 10
873.54432
 20
1323.264233
 30
0.0
 11
900.021442
 21
1349.741355
 31
0.0
  0
LINE
  5
1D0
330
1B0
100
AcDbEntity
  8
LC-004-005-----0
 62
     7
370
    25
100
AcDbLine
 10
865.059039
 20
1323.264233
 30
0.0
 11
891.918934
 21
1350.124128
 31
0.0
  0
LINE
  5
1D1
330
1B0
100
AcDbEntity
  8
LC-004-005-----0
 62
     7
370
    25
100
AcDbLine
 10
856.573758
 20
1323.264233
 30
0.0
 11
883.816426
 21
1350.506901
 31
0.0
  0
LINE
  5
1D2
330
1B0
100
AcDbEntity
  8
LC-004-005-----0
 62
     7
370
    25
100
AcDbLine
 10
848.088476
 20
1323.264233
 30
0.0
 11
875.713918
 21
1350.889675
 31
0.0
  0
LINE
  5
1D3
330
1B0
100
AcDbEntity
  8
LC-004-005-----0
 62
     7
370
    25
100
AcDbLine
 10
839.603195
 20
1323.264233
 30
0.0
 11
867.61141
 21
1351.272448
 31
0.0
  0
LINE
  5
1D4
330
1B0
100
AcDbEntity
  8
LC-004-005-----0
 62
     7
370
    25
100
AcDbLine
 10
831.117913
 20
1323.264233
 30
0.0
 11
859.508902
 21
1351.655221
 31
0.0
  0
LINE
  5
1D5
330
1B0
100
AcDbEntity
  8
LC-004-005-----0
 62
     7
370
    25
100
AcDbLine
 10
822.632632
 20
1323.264233
 30
0.0
 11
851.406394
 21
1352.037995
 31
0.0
  0
LINE
  5
1D6
330
1B0
100
AcDbEntity
  8
LC-004-005-----0
 62
     7
370
    25
100
AcDbLine
 10
814.147351
 20
1323.264233
 30
0.0
 11
843.303886
 21
1352.420768
 31
0.0
  0
LINE
  5
1D7
330
1B0
100
AcDbEntity
  8
LC-004-005-----0
 62
     7
370
    25
100
AcDbLine
 10
805.662069
 20
1323.264233
 30
0.0
 11
835.201378
 21
1352.803541
 31
0.0
  0
LINE
  5
1D8
330
1B0
100
AcDbEntity
  8
LC-004-005-----0
 62
     7
370
    25
100
AcDbLine
 10
797.176788
 20
1323.264233
 30
0.0
 11
827.09887
 21
1353.186315
 31
0.0
  0
LINE
  5
1D9
330
1B0
100
AcDbEntity
  8
LC-004-005-----0
 62
     7
370
    25
100
AcDbLine
 10
788.691507
 20
1323.264233
 30
0.0
 11
818.996362
 21
1353.569088
 31
0.0
  0
LINE
  5
1DA
330
1B0
100
AcDbEntity
  8
LC-004-005-----0
 62
     7
370
    25
100
AcDbLine
 10
780.206225
 20
1323.264233
 30
0.0
 11
810.893854
 21
1353.951861
 31
0.0
  0
LINE
  5
1DB
330
1B0
100
AcDbEntity
  8
LC-004-005-----0
 62
     7
370
    25
100
AcDbLine
 10
771.720944
 20
1323.264233
 30
0.0
 11
802.791346
 21
1354.334635
 31
0.0
  0
LINE
  5
1DC
330
1B0
100
AcDbEntity
  8
LC-004-005-----0
 62
     7
370
    25
100
AcDbLine
 10
763.235662
 20
1323.264233
 30
0.0
 11
794.688837
 21
1354.717408
 31
0.0
  0
LINE
  5
1DD
330
1B0
100
AcDbEntity
  8
LC-004-005-----0
 62
     7
370
    25
100
AcDbLine
 10
754.750381
 20
1323.264233
 30
0.0
 11
786.586329
 21
1355.100182
 31
0.0
  0
LINE
  5
1DE
330
1B0
100
AcDbEntity
  8
LC-004-005-----0
 62
     7
370
    25
100
AcDbLine
 10
746.2651
 20
1323.264233
 30
0.0
 11
778.483821
 21
1355.482955
 31
0.0
  0
LINE
  5
1DF
330
1B0
100
AcDbEntity
  8
LC-004-005-----0
 62
     7
370
    25
100
AcDbLine
 10
737.779818
 20
1323.264233
 30
0.0
 11
770.381313
 21
1355.865728
 31
0.0
  0
LINE
  5
1E0
330
1B0
100
AcDbEntity
  8
LC-004-005-----0
 62
     7
370
    25
100
AcDbLine
 10
729.294537
 20
1323.264233
 30
0.0
 11
762.278805
 21
1356.248502
 31
0.0
  0
LINE
  5
1E1
330
1B0
100
AcDbEntity
  8
LC-004-005-----0
 62
     7
370
    25
100
AcDbLine
 10
720.809256
 20
1323.264233
 30
0.0
 11
754.176297
 21
1356.631275
 31
0.0
  0
LINE
  5
1E2
330
1B0
100
AcDbEntity
  8
LC-004-005-----0
 62
     7
370
    25
100
AcDbLine
 10
719.669019
 20
1330.609278
 30
0.0
 11
746.073789
 21
1357.014048
 31
0.0
  0
LINE
  5
1E3
330
1B0
100
AcDbEntity
  8
LC-004-005-----0
 62
     7
370
    25
100
AcDbLine
 10
719.669019
 20
1339.09456
 30
0.0
 11
737.971281
 21
1357.396822
 31
0.0
  0
LINE
  5
1E4
330
1B0
100
AcDbEntity
  8
LC-004-005-----0
 62
     7
370
    25
100
AcDbLine
 10
719.669019
 20
1347.579841
 30
0.0
 11
729.868773
 21
1357.779595
 31
0.0
  0
LINE
  5
1E5
330
1B0
100
AcDbEntity
  8
LC-004-005-----0
 62
     7
370
    25
100
AcDbLine
 10
719.669019
 20
1356.065122
 30
0.0
 11
721.766265
 21
1358.162368
 31
0.0
  0
ENDBLK
  5
1B2
330
1B0
100
AcDbEntity
  8
0
100
AcDbBlockEnd
  0
BLOCK
  5
1E8
330
1E7
100
AcDbEntity
  8
0
100
AcDbBlockBegin
  2
*X57
 70
     1
 71
     0
 10
0.0
 20
0.0
 30
0.0
  3
*X57
  1

  4
*X5
  0
LINE
  5
1EA
330
1E7
100
AcDbEntity
  8
LC-004-005-----0
 62
     7
370
    25
100
AcDbLine
 10
1611.7638
 20
1323.264233
 30
0.0
 11
1619.669019
 21
1331.169453
 31
0.0
  0
LINE
  5
1EB
330
1E7
100
AcDbEntity
  8
LC-004-005-----0
 62
     7
370
    25
100
AcDbLine
 10
1603.278519
 20
1323.264233
 30
0.0
 11
1619.669019
 21
1339.654734
 31
0.0
  0
LINE
  5
1EC
330
1E7
100
AcDbEntity
  8
LC-004-005-----0
 62
     7
370
    25
100
AcDbLine
 10
1594.793237
 20
1323.264233
 30
0.0
 11
1619.669019
 21
1348.140015
 31
0.0
  0
LINE
  5
1ED
330
1E7
100
AcDbEntity
  8
LC-004-005-----0
 62
     7
370
    25
100
AcDbLine
 10
1586.307956
 20
1323.264233
 30
0.0
 11
1619.669019
 21
1356.625297
 31
0.0
  0
LINE
  5
1EE
330
1E7
100
AcDbEntity
  8
LC-004-005-----0
 62
     7
370
    25
100
AcDbLine
 10
1577.822674
 20
1323.264233
 30
0.0
 11
1612.480281
 21
1357.921839
 31
0.0
  0
LINE
  5
1EF
330
1E7
100
AcDbEntity
  8
LC-004-005-----0
 62
     7
370
    25
100
AcDbLine
 10
1569.337393
 20
1323.264233
 30
0.0
 11
1603.574267
 21
1357.501107
 31
0.0
  0
LINE
  5
1F0
330
1E7
100
AcDbEntity
  8
LC-004-005-----0
 62
     7
370
    25
100
AcDbLine
 10
1560.852112
 20
1323.264233
 30
0.0
 11
1594.668254
 21
1357.080375
 31
0.0
  0
LINE
  5
1F1
330
1E7
100
AcDbEntity
  8
LC-004-005-----0
 62
     7
370
    25
100
AcDbLine
 10
1552.36683
 20
1323.264233
 30
0.0
 11
1585.76224
 21
1356.659643
 31
0.0
  0
LINE
  5
1F2
330
1E7
100
AcDbEntity
  8
LC-004-005-----0
 62
     7
370
    25
100
AcDbLine
 10
1543.881549
 20
1323.264233
 30
0.0
 11
1576.856227
 21
1356.238911
 31
0.0
  0
LINE
  5
1F3
330
1E7
100
AcDbEntity
  8
LC-004-005-----0
 62
     7
370
    25
100
AcDbLine
 10
1535.396268
 20
1323.264233
 30
0.0
 11
1567.950214
 21
1355.818179
 31
0.0
  0
LINE
  5
1F4
330
1E7
100
AcDbEntity
  8
LC-004-005-----0
 62
     7
370
    25
100
AcDbLine
 10
1526.910986
 20
1323.264233
 30
0.0
 11
1559.0442
 21
1355.397447
 31
0.0
  0
LINE
  5
1F5
330
1E7
100
AcDbEntity
  8
LC-004-005-----0
 62
     7
370
    25
100
AcDbLine
 10
1518.425705
 20
1323.264233
 30
0.0
 11
1550.138187
 21
1354.976715
 31
0.0
  0
LINE
  5
1F6
330
1E7
100
AcDbEntity
  8
LC-004-005-----0
 62
     7
370
    25
100
AcDbLine
 10
1509.940423
 20
1323.264233
 30
0.0
 11
1541.232173
 21
1354.555983
 31
0.0
  0
LINE
  5
1F7
330
1E7
100
AcDbEntity
  8
LC-004-005-----0
 62
     7
370
    25
100
AcDbLine
 10
1501.455142
 20
1323.264233
 30
0.0
 11
1532.32616
 21
1354.135251
 31
0.0
  0
LINE
  5
1F8
330
1E7
100
AcDbEntity
  8
LC-004-005-----0
 62
     7
370
    25
100
AcDbLine
 10
1492.969861
 20
1323.264233
 30
0.0
 11
1523.420147
 21
1353.714519
 31
0.0
  0
LINE
  5
1F9
330
1E7
100
AcDbEntity
  8
LC-004-005-----0
 62
     7
370
    25
100
AcDbLine
 10
1484.484579
 20
1323.264233
 30
0.0
 11
1514.514133
 21
1353.293787
 31
0.0
  0
LINE
  5
1FA
330
1E7
100
AcDbEntity
  8
LC-004-005-----0
 62
     7
370
    25
100
AcDbLine
 10
1475.999298
 20
1323.264233
 30
0.0
 11
1505.60812
 21
1352.873055
 31
0.0
  0
LINE
  5
1FB
330
1E7
100
AcDbEntity
  8
LC-004-005-----0
 62
     7
370
    25
100
AcDbLine
 10
1467.514017
 20
1323.264233
 30
0.0
 11
1496.702106
 21
1352.452323
 31
0.0
  0
LINE
  5
1FC
330
1E7
100
AcDbEntity
  8
LC-004-005-----0
 62
     7
370
    25
100
AcDbLine
 10
1459.028735
 20
1323.264233
 30
0.0
 11
1487.796093
 21
1352.031591
 31
0.0
  0
LINE
  5
1FD
330
1E7
100
AcDbEntity
  8
LC-004-005-----0
 62
     7
370
    25
100
AcDbLine
 10
1450.543454
 20
1323.264233
 30
0.0
 11
1478.89008
 21
1351.610859
 31
0.0
  0
LINE
  5
1FE
330
1E7
100
AcDbEntity
  8
LC-004-005-----0
 62
     7
370
    25
100
AcDbLine
 10
1442.058172
 20
1323.264233
 30
0.0
 11
1469.984066
 21
1351.190127
 31
0.0
  0
LINE
  5
1FF
330
1E7
100
AcDbEntity
  8
LC-004-005-----0
 62
     7
370
    25
100
AcDbLine
 10
1433.572891
 20
1323.264233
 30
0.0
 11
1461.078053
 21
1350.769395
 31
0.0
  0
LINE
  5
200
330
1E7
100
AcDbEntity
  8
LC-004-005-----0
 62
     7
370
    25
100
AcDbLine
 10
1425.08761
 20
1323.264233
 30
0.0
 11
1452.17204
 21
1350.348663
 31
0.0
  0
LINE
  5
201
330
1E7
100
AcDbEntity
  8
LC-004-005-----0
 62
     7
370
    25
100
AcDbLine
 10
1416.602328
 20
1323.264233
 30
0.0
 11
1443.266026
 21
1349.927931
 31
0.0
  0
LINE
  5
202
330
1E7
100
AcDbEntity
  8
LC-004-005-----0
 62
     7
370
    25
100
AcDbLine
 10
1408.117047
 20
1323.264233
 30
0.0
 11
1434.360013
 21
1349.507199
 31
0.0
  0
LINE
  5
203
330
1E7
100
AcDbEntity
  8
LC-004-005-----0
 62
     7
370
    25
100
AcDbLine
 10
1399.631766
 20
1323.264233
 30
0.0
 11
1425.453999
 21
1349.086467
 31
0.0
  0
LINE
  5
204
330
1E7
100
AcDbEntity
  8
LC-004-005-----0
 62
     7
370
    25
100
AcDbLine
 10
1391.146484
 20
1323.264233
 30
0.0
 11
1416.547986
 21
1348.665735
 31
0.0
  0
LINE
  5
205
330
1E7
100
AcDbEntity
  8
LC-004-005-----0
 62
     7
370
    25
100
AcDbLine
 10
1382.661203
 20
1323.264233
 30
0.0
 11
1407.641973
 21
1348.245003
 31
0.0
  0
LINE
  5
206
330
1E7
100
AcDbEntity
  8
LC-004-005-----0
 62
     7
370
    25
100
AcDbLine
 10
1374.175921
 20
1323.264233
 30
0.0
 11
1398.735959
 21
1347.824271
 31
0.0
  0
LINE
  5
207
330
1E7
100
AcDbEntity
  8
LC-004-005-----0
 62
     7
370
    25
100
AcDbLine
 10
1365.69064
 20
1323.264233
 30
0.0
 11
1389.829946
 21
1347.403539
 31
0.0
  0
LINE
  5
208
330
1E7
100
AcDbEntity
  8
LC-004-005-----0
 62
     7
370
    25
100
AcDbLine
 10
1357.205359
 20
1323.264233
 30
0.0
 11
1380.923932
 21
1346.982807
 31
0.0
  0
LINE
  5
209
330
1E7
100
AcDbEntity
  8
LC-004-005-----0
 62
     7
370
    25
100
AcDbLine
 10
1348.720077
 20
1323.264233
 30
0.0
 11
1372.017919
 21
1346.562075
 31
0.0
  0
LINE
  5
20A
330
1E7
100
AcDbEntity
  8
LC-004-005-----0
 62
     7
370
    25
100
AcDbLine
 10
1340.234796
 20
1323.264233
 30
0.0
 11
1363.111906
 21
1346.141343
 31
0.0
  0
LINE
  5
20B
330
1E7
100
AcDbEntity
  8
LC-004-005-----0
 62
     7
370
    25
100
AcDbLine
 10
1331.749515
 20
1323.264233
 30
0.0
 11
1354.205892
 21
1345.720611
 31
0.0
  0
LINE
  5
20C
330
1E7
100
AcDbEntity
  8
LC-004-005-----0
 62
     7
370
    25
100
AcDbLine
 10
1323.264233
 20
1323.264233
 30
0.0
 11
1345.299879
 21
1345.299879
 31
0.0
  0
LINE
  5
20D
330
1E7
100
AcDbEntity
  8
LC-004-005-----0
 62
     7
370
    25
100
AcDbLine
 10
1314.778952
 20
1323.264233
 30
0.0
 11
1336.393865
 21
1344.879147
 31
0.0
  0
LINE
  5
20E
330
1E7
100
AcDbEntity
  8
LC-004-005-----0
 62
     7
370
    25
100
AcDbLine
 10
1306.29367
 20
1323.264233
 30
0.0
 11
1327.487852
 21
1344.458415
 31
0.0
  0
LINE
  5
20F
330
1E7
100
AcDbEntity
  8
LC-004-005-----0
 62
     7
370
    25
100
AcDbLine
 10
1297.808389
 20
1323.264233
 30
0.0
 11
1318.581839
 21
1344.037683
 31
0.0
  0
LINE
  5
210
330
1E7
100
AcDbEntity
  8
LC-004-005-----0
 62
     7
370
    25
100
AcDbLine
 10
1289.323108
 20
1323.264233
 30
0.0
 11
1309.675825
 21
1343.616951
 31
0.0
  0
LINE
  5
211
330
1E7
100
AcDbEntity
  8
LC-004-005-----0
 62
     7
370
    25
100
AcDbLine
 10
1280.837826
 20
1323.264233
 30
0.0
 11
1300.769812
 21
1343.196219
 31
0.0
  0
LINE
  5
212
330
1E7
100
AcDbEntity
  8
LC-004-005-----0
 62
     7
370
    25
100
AcDbLine
 10
1272.352545
 20
1323.264233
 30
0.0
 11
1291.863798
 21
1342.775487
 31
0.0
  0
LINE
  5
213
330
1E7
100
AcDbEntity
  8
LC-004-005-----0
 62
     7
370
    25
100
AcDbLine
 10
1263.867264
 20
1323.264233
 30
0.0
 11
1282.957785
 21
1342.354755
 31
0.0
  0
LINE
  5
214
330
1E7
100
AcDbEntity
  8
LC-004-005-----0
 62
     7
370
    25
100
AcDbLine
 10
1255.381982
 20
1323.264233
 30
0.0
 11
1274.051772
 21
1341.934023
 31
0.0
  0
LINE
  5
215
330
1E7
100
AcDbEntity
  8
LC-004-005-----0
 62
     7
370
    25
100
AcDbLine
 10
1246.896701
 20
1323.264233
 30
0.0
 11
1265.145758
 21
1341.513291
 31
0.0
  0
LINE
  5
216
330
1E7
100
AcDbEntity
  8
LC-004-005-----0
 62
     7
370
    25
100
AcDbLine
 10
1238.411419
 20
1323.264233
 30
0.0
 11
1254.920623
 21
1339.773437
 31
0.0
  0
LINE
  5
217
330
1E7
100
AcDbEntity
  8
LC-004-005-----0
 62
     7
370
    25
100
AcDbLine
 10
1229.926138
 20
1323.264233
 30
0.0
 11
1236.688951
 21
1330.027047
 31
0.0
  0
LINE
  5
218
330
1E7
100
AcDbEntity
  8
LC-004-005-----0
 62
     7
370
    25
100
AcDbLine
 10
1244.919019
 20
1338.257114
 30
0.0
 11
1246.435342
 21
1339.773437
 31
0.0
  0
ENDBLK
  5
1E9
330
1E7
100
AcDbEntity
  8
0
100
AcDbBlockEnd
  0
ENDSEC
  0
SECTION
  2
ENTITIES
  0
LINE
  5
31
330
1F
100
AcDbEntity
  8
LC-001-002-----0
 62
     7
370
    50
100
AcDbLine
 10
719.669019
 20
1216.727311
 30
0.0
 11
1619.669019
 21
1216.727311
 31
0.0
  0
LINE
  5
32
330
1F
100
AcDbEntity
  8
LC-001-002-----0
 62
     7
370
    50
100
AcDbLine
 10
1619.669019
 20
1216.727311
 30
0.0
 11
1619.669019
 21
316.727311
 31
0.0
  0
LINE
  5
33
330
1F
100
AcDbEntity
  8
LC-001-002-----0
 62
     7
370
    50
100
AcDbLine
 10
1619.669019
 20
316.727311
 30
0.0
 11
719.669019
 21
316.727311
 31
0.0
  0
LINE
  5
34
330
1F
100
AcDbEntity
  8
LC-001-002-----0
 62
     7
370
    50
100
AcDbLine
 10
719.669019
 20
316.727311
 30
0.0
 11
719.669019
 21
1216.727311
 31
0.0
  0
LINE
  5
35
330
1F
100
AcDbEntity
  8
LC-001-002-----0
 62
     7
370
    50
100
AcDbLine
 10
719.669019
 20
1216.727311
 30
0.0
 11
1118.227001
 21
818.16933
 31
0.0
  0
LINE
  5
36
330
1F
100
AcDbEntity
  8
LC-001-002-----0
 62
     7
370
    50
100
AcDbLine
 10
1619.669019
 20
1216.727311
 30
0.0
 11
1221.111038
 21
818.16933
 31
0.0
  0
LINE
  5
39
330
1F
100
AcDbEntity
  8
LC-002-006-MLN-0
 62
     7
370
    25
100
AcDbLine
 10
1096.919019
 20
766.727311
 30
0.0
 11
1242.419019
 21
766.727311
 31
0.0
  0
LINE
  5
3A
102
{ACAD_REACTORS
330
21A
102
}
330
1F
100
AcDbEntity
  8
LC-001-002-----0
 62
     7
370
    50
100
AcDbLine
 10
719.669019
 20
1323.264233
 30
0.0
 11
1111.669019
 21
1323.264233
 31
0.0
  0
LINE
  5
3B
330
1F
100
AcDbEntity
  8
LC-001-002-----0
 62
     7
370
    50
100
AcDbLine
 10
1079.419019
 20
1341.270179
 30
0.0
 11
1079.281609
 21
1341.272309
 31
0.0
  0
LINE
  5
3C
330
1F
100
AcDbEntity
  8
LC-001-002-----0
 62
     7
370
    50
100
AcDbLine
 10
1096.422093
 20
1341.274374
 30
0.0
 11
1096.422093
 21
1343.769161
 31
0.0
  0
LINE
  5
3D
330
1F
100
AcDbEntity
  8
LC-001-002-----0
 62
     7
370
    50
100
AcDbLine
 10
1221.111038
 20
715.285293
 30
0.0
 11
1619.669019
 21
316.727311
 31
0.0
  0
LINE
  5
3E
330
1F
100
AcDbEntity
  8
LC-001-002-----0
 62
     7
370
    50
100
AcDbLine
 10
1118.227001
 20
715.285293
 30
0.0
 11
719.669019
 21
316.727311
 31
0.0
  0
LINE
  5
3F
102
{ACAD_REACTORS
330
21A
102
}
330
1F
100
AcDbEntity
  8
LC-001-002-----0
 62
     7
370
    50
100
AcDbLine
 10
719.669019
 20
1320.764233
 30
0.0
 11
1085.669019
 21
1320.764233
 31
0.0
  0
LINE
  5
40
102
{ACAD_REACTORS
330
21A
102
}
330
1F
100
AcDbEntity
  8
LC-001-002-----0
 62
     7
370
    50
100
AcDbLine
 10
1253.669019
 20
1320.764233
 30
0.0
 11
1619.669019
 21
1320.764233
 31
0.0
  0
LINE
  5
41
102
{ACAD_REACTORS
330
21A
102
}
330
1F
100
AcDbEntity
  8
LC-001-002-----0
 62
     7
370
    50
100
AcDbLine
 10
719.669019
 20
1360.764233
 30
0.0
 11
1619.669019
 21
1360.764233
 31
0.0
  0
LINE
  5
42
102
{ACAD_REACTORS
330
21A
102
}
330
1F
100
AcDbEntity
  8
LC-001-002-----0
 62
     7
370
    50
100
AcDbLine
 10
719.669019
 20
1360.764233
 30
0.0
 11
719.669019
 21
1320.764233
 31
0.0
  0
LINE
  5
43
102
{ACAD_REACTORS
330
21A
102
}
330
1F
100
AcDbEntity
  8
LC-001-002-----0
 62
     7
370
    50
100
AcDbLine
 10
1619.669019
 20
1360.764233
 30
0.0
 11
1619.669019
 21
1320.764233
 31
0.0
  0
LINE
  5
44
330
1F
100
AcDbEntity
  8
LC-001-002-----0
 62
     7
370
    50
100
AcDbLine
 10
1079.301047
 20
1341.271946
 30
0.0
 11
719.669019
 21
1358.261445
 31
0.0
  0
LINE
  5
45
330
1F
100
AcDbEntity
  8
LC-001-002-----0
 62
     7
370
    50
100
AcDbLine
 10
1079.419019
 20
1343.769161
 30
0.0
 11
1169.669019
 21
1343.769161
 31
0.0
  0
LINE
  5
46
330
1F
100
AcDbEntity
  8
LC-001-002-----0
 62
     7
370
    50
100
AcDbLine
 10
1079.419019
 20
1343.769161
 30
0.0
 11
719.669019
 21
1360.764233
 31
0.0
  0
DIMENSION
  5
4A
330
1F
100
AcDbEntity
  8
LC-003-003-----0
 62
     7
370
    25
100
AcDbDimension
  2
*D1
 10
1619.669019
 20
1265.425311
 30
0.0
 11
1171.669173
 21
1296.225311
 31
0.0
 70
   160
 71
     5
 42
900.0
  3
LC-DIM-L-0140-02-02
100
AcDbAlignedDimension
 13
719.669019
 23
1216.727311
 33
0.0
 14
1619.669019
 24
1216.727311
 34
0.0
100
AcDbRotatedDimension
  0
DIMENSION
  5
58
330
1F
100
AcDbEntity
  8
LC-003-003-----0
 62
     7
370
    25
100
AcDbDimension
  2
*D2
 10
678.420855
 20
1320.764233
 30
0.0
 11
647.620855
 21
1302.49
 31
0.0
 70
   160
 71
     5
 42
40.0
 53
90.0
  3
LC-DIM-L-0140-02-02
100
AcDbAlignedDimension
 13
719.669019
 23
1360.764233
 33
0.0
 14
719.669019
 24
1320.764233
 34
0.0
 50
90.0
100
AcDbRotatedDimension
  0
LINE
  5
66
102
{ACAD_REACTORS
330
21B
102
}
330
1F
100
AcDbEntity
  8
LC-002-006-MLN-0
 62
     7
370
    25
100
AcDbLine
 10
1169.669019
 20
839.477311
 30
0.0
 11
1169.669019
 21
693.977311
 31
0.0
  0
CIRCLE
  5
67
102
{ACAD_REACTORS
330
21B
102
}
330
1F
100
AcDbEntity
  8
LC-001-002-----0
 62
     7
370
    50
100
AcDbCircle
 10
1169.669019
 20
766.727311
 30
0.0
 40
56.50000000000023
  0
CIRCLE
  5
68
102
{ACAD_REACTORS
330
21B
102
}
330
1F
100
AcDbEntity
  8
LC-001-002-----0
 62
     7
370
    50
100
AcDbCircle
 10
1169.669019
 20
766.727311
 30
0.0
 40
59.75000000000023
  0
CIRCLE
  5
69
102
{ACAD_REACTORS
330
21B
102
}
330
1F
100
AcDbEntity
  8
LC-001-002-----0
 62
     7
370
    50
100
AcDbCircle
 10
1169.669019
 20
766.727311
 30
0.0
 40
62.25000000000023
  0
CIRCLE
  5
6A
102
{ACAD_REACTORS
330
21B
102
}
330
1F
100
AcDbEntity
  8
LC-001-002-----0
 62
     7
370
    50
100
AcDbCircle
 10
1169.669019
 20
766.727311
 30
0.0
 40
66.00000000000023
  0
CIRCLE
  5
6B
102
{ACAD_REACTORS
330
21B
102
}
330
1F
100
AcDbEntity
  8
LC-001-002-----0
 62
     7
370
    50
100
AcDbCircle
 10
1169.669019
 20
766.727311
 30
0.0
 40
67.00000000000023
  0
CIRCLE
  5
6C
102
{ACAD_REACTORS
330
21B
102
}
330
1F
100
AcDbEntity
  8
LC-001-002-----0
 62
     7
370
    50
100
AcDbCircle
 10
1169.669019
 20
766.727311
 30
0.0
 40
72.75000000000023
  0
INSERT
  5
85
102
{ACAD_REACTORS
330
21C
102
}
330
1F
100
AcDbEntity
  8
LC-004-005-----0
 62
     7
370
    25
100
AcDbBlockReference
  2
*X13
 10
0.0
 20
0.0
 30
0.0
  0
LINE
  5
86
102
{ACAD_REACTORS
330
21C
102
}
330
1F
100
AcDbEntity
  8
LC-001-002-----0
 62
     7
370
    50
100
AcDbLine
 10
1085.669019
 20
1320.766203
 30
0.0
 11
1253.669019
 21
1320.766203
 31
0.0
  0
LINE
  5
87
102
{ACAD_REACTORS
330
21C
102
}
330
1F
100
AcDbEntity
  8
LC-001-002-----0
 62
     7
370
    50
100
AcDbLine
 10
1085.669019
 20
1319.766203
 30
0.0
 11
1253.669019
 21
1319.766203
 31
0.0
  0
LINE
  5
88
102
{ACAD_REACTORS
330
21C
102
}
330
1F
100
AcDbEntity
  8
LC-001-002-----0
 62
     7
370
    50
100
AcDbLine
 10
1085.669019
 20
1320.766203
 30
0.0
 11
1085.669019
 21
1319.766203
 31
0.0
  0
LINE
  5
89
102
{ACAD_REACTORS
330
21C
102
}
330
1F
100
AcDbEntity
  8
LC-001-002-----0
 62
     7
370
    50
100
AcDbLine
 10
1253.669019
 20
1320.766203
 30
0.0
 11
1253.669019
 21
1319.766203
 31
0.0
  0
LINE
  5
8A
102
{ACAD_REACTORS
330
21C
102
}
330
1F
100
AcDbEntity
  8
LC-001-002-----0
 62
     7
370
    50
100
AcDbLine
 10
1113.169019
 20
1320.766203
 30
0.0
 11
1113.169019
 21
1319.766203
 31
0.0
  0
LINE
  5
8B
102
{ACAD_REACTORS
330
21C
102
}
330
1F
100
AcDbEntity
  8
LC-001-002-----0
 62
     7
370
    50
100
AcDbLine
 10
1226.169019
 20
1320.766203
 30
0.0
 11
1226.169019
 21
1319.766203
 31
0.0
  0
LINE
  5
8C
102
{ACAD_REACTORS
330
21D
102
}
330
1F
100
AcDbEntity
  8
LC-001-002-----0
 62
     7
370
    50
100
AcDbLine
 10
1103.669019
 20
1334.771193
 30
0.0
 11
1235.669019
 21
1334.771193
 31
0.0
  0
LINE
  5
8D
102
{ACAD_REACTORS
330
21D
102
}
330
1F
100
AcDbEntity
  8
LC-001-002-----0
 62
     7
370
    50
100
AcDbLine
 10
1169.669019
 20
1341.270179
 30
0.0
 11
1079.419019
 21
1341.270179
 31
0.0
  0
LINE
  5
8E
102
{ACAD_REACTORS
330
21D
102
}
330
1F
100
AcDbEntity
  8
LC-001-002-----0
 62
     7
370
    50
100
AcDbLine
 10
1236.669019
 20
1335.771193
 30
0.0
 11
1235.669019
 21
1334.771193
 31
0.0
  0
LINE
  5
8F
102
{ACAD_REACTORS
330
21D
102
}
330
1F
100
AcDbEntity
  8
LC-001-002-----0
 62
     7
370
    50
100
AcDbLine
 10
1107.419019
 20
1331.578094
 30
0.0
 11
1169.669019
 21
1331.578094
 31
0.0
  0
LINE
  5
90
102
{ACAD_REACTORS
330
21D
102
}
330
1F
100
AcDbEntity
  8
LC-001-002-----0
 62
     7
370
    50
100
AcDbLine
 10
1102.669019
 20
1335.771193
 30
0.0
 11
1103.669019
 21
1334.771193
 31
0.0
  0
LINE
  5
91
102
{ACAD_REACTORS
330
21D
102
}
330
1F
100
AcDbEntity
  8
LC-001-002-----0
 62
     7
370
    50
100
AcDbLine
 10
1094.419019
 20
1335.270179
 30
0.0
 11
1111.669019
 21
1324.280715
 31
0.0
  0
LINE
  5
92
102
{ACAD_REACTORS
330
21D
102
}
330
1F
100
AcDbEntity
  8
LC-001-002-----0
 62
     7
370
    50
100
AcDbLine
 10
1103.669019
 20
1334.771193
 30
0.0
 11
1103.669019
 21
1333.967108
 31
0.0
  0
ARC
  5
94
102
{ACAD_REACTORS
330
21D
102
}
330
1F
100
AcDbEntity
  8
LC-005-002-RND-0
 62
     7
370
    50
100
AcDbCircle
 10
1110.169019
 20
1326.249085
 30
0.0
 40
3.0
100
AcDbArc
 50
0.0
 51
57.499998
  0
LINE
  5
95
102
{ACAD_REACTORS
330
21D
102
}
330
1F
100
AcDbEntity
  8
LC-001-002-----0
 62
     7
370
    50
100
AcDbLine
 10
1111.669019
 20
1324.280715
 30
0.0
 11
1111.669019
 21
1320.766203
 31
0.0
  0
LINE
  5
96
102
{ACAD_REACTORS
330
21D
102
}
330
1F
100
AcDbEntity
  8
LC-001-002-----0
 62
     7
370
    50
100
AcDbLine
 10
1096.123937
 20
1341.270179
 30
0.0
 11
1096.422093
 21
1341.270179
 31
0.0
  0
LINE
  5
97
102
{ACAD_REACTORS
330
21D
102
}
330
1F
100
AcDbEntity
  8
LC-001-002-----0
 62
     7
370
    50
100
AcDbLine
 10
1109.919019
 20
1329.965419
 30
0.0
 11
1111.780918
 21
1328.779259
 31
0.0
  0
LINE
  5
98
102
{ACAD_REACTORS
330
21D
102
}
330
1F
100
AcDbEntity
  8
LC-001-002-----0
 62
     7
370
    50
100
AcDbLine
 10
1103.669019
 20
1333.967108
 30
0.0
 11
1107.419019
 21
1331.578094
 31
0.0
  0
LINE
  5
99
102
{ACAD_REACTORS
330
21D
102
}
330
1F
100
AcDbEntity
  8
LC-001-002-----0
 62
     7
370
    50
100
AcDbLine
 10
1096.919019
 20
1335.771193
 30
0.0
 11
1102.669019
 21
1335.771193
 31
0.0
  0
LINE
  5
9A
102
{ACAD_REACTORS
330
21D
102
}
330
1F
100
AcDbEntity
  8
LC-001-002-----0
 62
     7
370
    50
100
AcDbLine
 10
1103.669019
 20
1333.967108
 30
0.0
 11
1169.669019
 21
1333.967108
 31
0.0
  0
LINE
  5
9B
102
{ACAD_REACTORS
330
21D
102
}
330
1F
100
AcDbEntity
  8
LC-001-002-----0
 62
     7
370
    50
100
AcDbLine
 10
1096.919019
 20
1335.771193
 30
0.0
 11
1096.919019
 21
1340.773252
 31
0.0
  0
LINE
  5
9C
102
{ACAD_REACTORS
330
21D
102
}
330
1F
100
AcDbEntity
  8
LC-001-002-----0
 62
     7
370
    50
100
AcDbLine
 10
1109.919019
 20
1329.965419
 30
0.0
 11
1109.919019
 21
1329.266471
 31
0.0
  0
LINE
  5
9D
102
{ACAD_REACTORS
330
21D
102
}
330
1F
100
AcDbEntity
  8
LC-001-002-----0
 62
     7
370
    50
100
AcDbLine
 10
1109.919019
 20
1329.266471
 30
0.0
 11
1107.419019
 21
1329.266471
 31
0.0
  0
ARC
  5
9E
102
{ACAD_REACTORS
330
21D
102
}
330
1F
100
AcDbEntity
  8
LC-001-002-----0
 62
     7
370
    50
100
AcDbCircle
 10
1096.422093
 20
1340.773252
 30
0.0
 40
0.4969262295080625
100
AcDbArc
 50
0.0
 51
90.0
  0
LINE
  5
9F
102
{ACAD_REACTORS
330
21D
102
}
330
1F
100
AcDbEntity
  8
LC-001-002-----0
 62
     7
370
    50
100
AcDbLine
 10
1107.419019
 20
1331.578094
 30
0.0
 11
1107.419019
 21
1329.266471
 31
0.0
  0
LINE
  5
A0
102
{ACAD_REACTORS
330
21D
102
}
330
1F
100
AcDbEntity
  8
LC-001-002-----0
 62
     7
370
    50
100
AcDbLine
 10
1079.419019
 20
1339.773437
 30
0.0
 11
1094.419019
 21
1339.773437
 31
0.0
  0
LINE
  5
A1
102
{ACAD_REACTORS
330
21D
102
}
330
1F
100
AcDbEntity
  8
LC-001-002-----0
 62
     7
370
    50
100
AcDbLine
 10
1094.419019
 20
1339.773437
 30
0.0
 11
1094.419019
 21
1335.270179
 31
0.0
  0
LINE
  5
A2
102
{ACAD_REACTORS
330
21D
102
}
330
1F
100
AcDbEntity
  8
LC-001-002-----0
 62
     7
370
    50
100
AcDbLine
 10
1113.169019
 20
1326.249085
 30
0.0
 11
1113.169019
 21
1320.766203
 31
0.0
  0
LINE
  5
A3
102
{ACAD_REACTORS
330
21D
102
}
330
1F
100
AcDbEntity
  8
LC-001-002-----0
 62
     7
370
    50
100
AcDbLine
 10
1169.669019
 20
1360.766203
 30
0.0
 11
1111.669019
 21
1360.766203
 31
0.0
  0
LINE
  5
A4
102
{ACAD_REACTORS
330
21D
102
}
330
1F
100
AcDbEntity
  8
LC-001-002-----0
 62
     7
370
    50
100
AcDbLine
 10
1109.919019
 20
1329.965419
 30
0.0
 11
1169.669019
 21
1329.965419
 31
0.0
  0
LINE
  5
A5
102
{ACAD_REACTORS
330
21D
102
}
330
1F
100
AcDbEntity
  8
LC-004-005-----0
 62
     7
370
    25
100
AcDbLine
 10
1114.985994
 20
1327.894941
 30
0.0
 11
1169.669019
 21
1327.894941
 31
0.0
  0
LINE
  5
A6
102
{ACAD_REACTORS
330
21D
102
}
330
1F
100
AcDbEntity
  8
LC-002-006-MLN-0
 62
     7
370
    25
100
AcDbLine
 10
1169.669019
 20
1341.270179
 30
0.0
 11
1169.669019
 21
1320.766203
 31
0.0
  0
LINE
  5
A7
102
{ACAD_REACTORS
330
21D
102
}
330
1F
100
AcDbEntity
  8
LC-001-002-----0
 62
     7
370
    50
100
AcDbLine
 10
1079.419019
 20
1341.270179
 30
0.0
 11
1079.419019
 21
1339.773437
 31
0.0
  0
LINE
  5
A8
102
{ACAD_REACTORS
330
21D
102
}
330
1F
100
AcDbEntity
  8
LC-001-002-----0
 62
     7
370
    50
100
AcDbLine
 10
1102.669019
 20
1335.771193
 30
0.0
 11
1169.669019
 21
1335.771193
 31
0.0
  0
LINE
  5
A9
102
{ACAD_REACTORS
330
21D
102
}
330
1F
100
AcDbEntity
  8
LC-001-002-----0
 62
     7
370
    50
100
AcDbLine
 10
1244.919019
 20
1335.270179
 30
0.0
 11
1227.669019
 21
1324.280715
 31
0.0
  0
LINE
  5
AA
102
{ACAD_REACTORS
330
21D
102
}
330
1F
100
AcDbEntity
  8
LC-001-002-----0
 62
     7
370
    50
100
AcDbLine
 10
1235.669019
 20
1334.771193
 30
0.0
 11
1235.669019
 21
1333.967108
 31
0.0
  0
ARC
  5
AB
102
{ACAD_REACTORS
330
21D
102
}
330
1F
100
AcDbEntity
  8
LC-005-002-RND-0
 62
     7
370
    50
100
AcDbCircle
 10
1229.169019
 20
1326.249085
 30
0.0
 40
2.999999999999981
100
AcDbArc
 50
122.500002
 51
180.0
  0
LINE
  5
AC
102
{ACAD_REACTORS
330
21D
102
}
330
1F
100
AcDbEntity
  8
LC-001-002-----0
 62
     7
370
    50
100
AcDbLine
 10
1227.669019
 20
1324.280715
 30
0.0
 11
1227.669019
 21
1320.766203
 31
0.0
  0
LINE
  5
AD
102
{ACAD_REACTORS
330
21D
102
}
330
1F
100
AcDbEntity
  8
LC-001-002-----0
 62
     7
370
    50
100
AcDbLine
 10
1243.214101
 20
1341.270179
 30
0.0
 11
1242.915945
 21
1341.270179
 31
0.0
  0
LINE
  5
AE
102
{ACAD_REACTORS
330
21D
102
}
330
1F
100
AcDbEntity
  8
LC-001-002-----0
 62
     7
370
    50
100
AcDbLine
 10
1229.419019
 20
1329.965419
 30
0.0
 11
1227.55712
 21
1328.779259
 31
0.0
  0
LINE
  5
AF
102
{ACAD_REACTORS
330
21D
102
}
330
1F
100
AcDbEntity
  8
LC-001-002-----0
 62
     7
370
    50
100
AcDbLine
 10
1235.669019
 20
1333.967108
 30
0.0
 11
1231.919019
 21
1331.578094
 31
0.0
  0
LINE
  5
B0
102
{ACAD_REACTORS
330
21D
102
}
330
1F
100
AcDbEntity
  8
LC-001-002-----0
 62
     7
370
    50
100
AcDbLine
 10
1242.419019
 20
1335.771193
 30
0.0
 11
1236.669019
 21
1335.771193
 31
0.0
  0
LINE
  5
B1
102
{ACAD_REACTORS
330
21D
102
}
330
1F
100
AcDbEntity
  8
LC-001-002-----0
 62
     7
370
    50
100
AcDbLine
 10
1242.419019
 20
1335.771193
 30
0.0
 11
1242.419019
 21
1340.773252
 31
0.0
  0
LINE
  5
B2
102
{ACAD_REACTORS
330
21D
102
}
330
1F
100
AcDbEntity
  8
LC-001-002-----0
 62
     7
370
    50
100
AcDbLine
 10
1229.419019
 20
1329.965419
 30
0.0
 11
1229.419019
 21
1329.266471
 31
0.0
  0
LINE
  5
B3
102
{ACAD_REACTORS
330
21D
102
}
330
1F
100
AcDbEntity
  8
LC-001-002-----0
 62
     7
370
    50
100
AcDbLine
 10
1229.419019
 20
1329.266471
 30
0.0
 11
1231.919019
 21
1329.266471
 31
0.0
  0
ARC
  5
B4
102
{ACAD_REACTORS
330
21D
102
}
330
1F
100
AcDbEntity
  8
LC-001-002-----0
 62
     7
370
    50
100
AcDbCircle
 10
1242.915945
 20
1340.773252
 30
0.0
 40
0.4969262295082899
100
AcDbArc
 50
90.0
 51
180.0
  0
LINE
  5
B5
102
{ACAD_REACTORS
330
21D
102
}
330
1F
100
AcDbEntity
  8
LC-001-002-----0
 62
     7
370
    50
100
AcDbLine
 10
1231.919019
 20
1331.578094
 30
0.0
 11
1231.919019
 21
1329.266471
 31
0.0
  0
LINE
  5
B6
102
{ACAD_REACTORS
330
21D
102
}
330
1F
100
AcDbEntity
  8
LC-001-002-----0
 62
     7
370
    50
100
AcDbLine
 10
1259.919019
 20
1339.773437
 30
0.0
 11
1244.919019
 21
1339.773437
 31
0.0
  0
LINE
  5
B7
102
{ACAD_REACTORS
330
21D
102
}
330
1F
100
AcDbEntity
  8
LC-001-002-----0
 62
     7
370
    50
100
AcDbLine
 10
1244.919019
 20
1339.773437
 30
0.0
 11
1244.919019
 21
1335.270179
 31
0.0
  0
LINE
  5
B8
102
{ACAD_REACTORS
330
21D
102
}
330
1F
100
AcDbEntity
  8
LC-001-002-----0
 62
     7
370
    50
100
AcDbLine
 10
1226.169019
 20
1326.249085
 30
0.0
 11
1226.169019
 21
1320.766203
 31
0.0
  0
LINE
  5
B9
102
{ACAD_REACTORS
330
21D
102
}
330
1F
100
AcDbEntity
  8
LC-001-002-----0
 62
     7
370
    50
100
AcDbLine
 10
1259.919019
 20
1341.270179
 30
0.0
 11
1259.919019
 21
1339.773437
 31
0.0
  0
LINE
  5
BA
102
{ACAD_REACTORS
330
21D
102
}
330
1F
100
AcDbEntity
  8
LC-001-002-----0
 62
     7
370
    50
100
AcDbLine
 10
1236.669019
 20
1335.771193
 30
0.0
 11
1169.669019
 21
1335.771193
 31
0.0
  0
LINE
  5
BB
102
{ACAD_REACTORS
330
21D
102
}
330
1F
100
AcDbEntity
  8
LC-001-002-----0
 62
     7
370
    50
100
AcDbLine
 10
1235.669019
 20
1333.967108
 30
0.0
 11
1169.669019
 21
1333.967108
 31
0.0
  0
LINE
  5
BC
102
{ACAD_REACTORS
330
21D
102
}
330
1F
100
AcDbEntity
  8
LC-001-002-----0
 62
     7
370
    50
100
AcDbLine
 10
1231.919019
 20
1331.578094
 30
0.0
 11
1169.669019
 21
1331.578094
 31
0.0
  0
LINE
  5
BD
102
{ACAD_REACTORS
330
21D
102
}
330
1F
100
AcDbEntity
  8
LC-001-002-----0
 62
     7
370
    50
100
AcDbLine
 10
1229.419019
 20
1329.965419
 30
0.0
 11
1169.669019
 21
1329.965419
 31
0.0
  0
LINE
  5
BE
102
{ACAD_REACTORS
330
21D
102
}
330
1F
100
AcDbEntity
  8
LC-004-005-----0
 62
     7
370
    25
100
AcDbLine
 10
1224.352045
 20
1327.894941
 30
0.0
 11
1169.669019
 21
1327.894941
 31
0.0
  0
LINE
  5
BF
102
{ACAD_REACTORS
330
21D
102
}
330
1F
100
AcDbEntity
  8
LC-001-002-----0
 62
     7
370
    50
100
AcDbLine
 10
1169.669019
 20
1320.766203
 30
0.0
 11
1227.669019
 21
1320.766203
 31
0.0
  0
LINE
  5
C0
102
{ACAD_REACTORS
330
21D
102
}
330
1F
100
AcDbEntity
  8
LC-001-002-----0
 62
     7
370
    50
100
AcDbLine
 10
1169.669019
 20
1341.270179
 30
0.0
 11
1259.919019
 21
1341.270179
 31
0.0
  0
INSERT
  5
E5
102
{ACAD_REACTORS
330
21D
102
}
330
1F
100
AcDbEntity
  8
LC-004-005-----0
 62
     7
370
    25
100
AcDbBlockReference
  2
*X24
 10
0.0
 20
0.0
 30
0.0
  0
LINE
  5
E6
102
{ACAD_REACTORS
330
21A
102
}
330
1F
100
AcDbEntity
  8
LC-001-002-----0
 62
     7
370
    50
100
AcDbLine
 10
1111.669019
 20
1324.280715
 30
0.0
 11
1111.669019
 21
1320.766203
 31
0.0
  0
LINE
  5
E7
102
{ACAD_REACTORS
330
21A
102
}
330
1F
100
AcDbEntity
  8
LC-001-002-----0
 62
     7
370
    50
100
AcDbLine
 10
1094.419019
 20
1339.773437
 30
0.0
 11
1094.419019
 21
1335.270179
 31
0.0
  0
LINE
  5
E8
102
{ACAD_REACTORS
330
21A
102
}
330
1F
100
AcDbEntity
  8
LC-001-002-----0
 62
     7
370
    50
100
AcDbLine
 10
1079.419019
 20
1339.773437
 30
0.0
 11
1094.419019
 21
1339.773437
 31
0.0
  0
LINE
  5
E9
102
{ACAD_REACTORS
330
21A
102
}
330
1F
100
AcDbEntity
  8
LC-001-002-----0
 62
     7
370
    50
100
AcDbLine
 10
1079.419019
 20
1341.274374
 30
0.0
 11
1079.419019
 21
1339.773437
 31
0.0
  0
LINE
  5
EA
102
{ACAD_REACTORS
330
21A
102
}
330
1F
100
AcDbEntity
  8
LC-001-002-----0
 62
     7
370
    50
100
AcDbLine
 10
1259.919019
 20
1341.270179
 30
0.0
 11
1259.919019
 21
1339.773437
 31
0.0
  0
LINE
  5
EB
102
{ACAD_REACTORS
330
21A
102
}
330
1F
100
AcDbEntity
  8
LC-001-002-----0
 62
     7
370
    50
100
AcDbLine
 10
1259.919019
 20
1339.773437
 30
0.0
 11
1244.919019
 21
1339.773437
 31
0.0
  0
LINE
  5
EC
102
{ACAD_REACTORS
330
21A
102
}
330
1F
100
AcDbEntity
  8
LC-001-002-----0
 62
     7
370
    50
100
AcDbLine
 10
1244.919019
 20
1339.773437
 30
0.0
 11
1244.919019
 21
1335.270179
 31
0.0
  0
LINE
  5
ED
102
{ACAD_REACTORS
330
21A
102
}
330
1F
100
AcDbEntity
  8
LC-001-002-----0
 62
     7
370
    50
100
AcDbLine
 10
1244.919019
 20
1335.270179
 30
0.0
 11
1227.669019
 21
1324.280715
 31
0.0
  0
LINE
  5
EE
102
{ACAD_REACTORS
330
21A
102
}
330
1F
100
AcDbEntity
  8
LC-001-002-----0
 62
     7
370
    50
100
AcDbLine
 10
1227.669019
 20
1324.280715
 30
0.0
 11
1227.669019
 21
1320.766203
 31
0.0
  0
LINE
  5
EF
330
1F
100
AcDbEntity
  8
LC-001-002-----0
 62
     7
370
    50
100
AcDbLine
 10
1096.422093
 20
1341.274374
 30
0.0
 11
1079.419019
 21
1341.274374
 31
0.0
  0
LINE
  5
F0
330
1F
100
AcDbEntity
  8
LC-001-002-----0
 62
     7
370
    50
100
AcDbLine
 10
1619.669019
 20
1323.264233
 30
0.0
 11
1227.669019
 21
1323.264233
 31
0.0
  0
LINE
  5
F1
330
1F
100
AcDbEntity
  8
LC-001-002-----0
 62
     7
370
    50
100
AcDbLine
 10
1259.919019
 20
1343.769161
 30
0.0
 11
1619.669019
 21
1360.764233
 31
0.0
  0
LINE
  5
F2
330
1F
100
AcDbEntity
  8
LC-001-002-----0
 62
     7
370
    50
100
AcDbLine
 10
1260.036991
 20
1341.271946
 30
0.0
 11
1619.669019
 21
1358.261445
 31
0.0
  0
LINE
  5
F3
330
1F
100
AcDbEntity
  8
LC-001-002-----0
 62
     7
370
    50
100
AcDbLine
 10
1242.915945
 20
1341.274374
 30
0.0
 11
1242.915945
 21
1343.769161
 31
0.0
  0
LINE
  5
F4
330
1F
100
AcDbEntity
  8
LC-001-002-----0
 62
     7
370
    50
100
AcDbLine
 10
1259.919019
 20
1343.769161
 30
0.0
 11
1169.669019
 21
1343.769161
 31
0.0
  0
INSERT
  5
1AF
330
1F
100
AcDbEntity
  8
LC-004-005-----0
 62
     7
370
    25
100
AcDbBlockReference
  2
*X35
 10
0.0
 20
0.0
 30
0.0
  0
INSERT
  5
1E6
330
1F
100
AcDbEntity
  8
LC-004-005-----0
 62
     7
370
    25
100
AcDbBlockReference
  2
*X46
 10
0.0
 20
0.0
 30
0.0
  0
INSERT
  5
219
330
1F
100
AcDbEntity
  8
LC-004-005-----0
 62
     7
370
    25
100
AcDbBlockReference
  2
*X57
 10
0.0
 20
0.0
 30
0.0
  0
ENDSEC
  0
SECTION
  2
OBJECTS
  0
DICTIONARY
  5
C
330
0
100
AcDbDictionary
281
     1
  3
ACAD_GROUP
350
D
  3
ACAD_LAYOUT
350
1A
  3
ACAD_MLINESTYLE
350
17
  3
ACAD_PLOTSETTINGS
350
19
  3
ACAD_PLOTSTYLENAME
350
E
  0
DICTIONARY
  5
D
102
{ACAD_REACTORS
330
C
102
}
330
C
100
AcDbDictionary
281
     1
  3
LCGROUP110
350
21B
  3
LCGROUP120
350
21C
  3
LCGROUP132
350
21D
  3
LCGROUP39
350
21A
  0
DICTIONARY
  5
1A
102
{ACAD_REACTORS
330
C
102
}
330
C
100
AcDbDictionary
281
     1
  3
Layout1
350
1E
  3
Layout2
350
26
  3
Model
350
22
  0
DICTIONARY
  5
17
102
{ACAD_REACTORS
330
C
102
}
330
C
100
AcDbDictionary
281
     1
  3
Standard
350
18
  0
DICTIONARY
  5
19
102
{ACAD_REACTORS
330
C
102
}
330
C
100
AcDbDictionary
281
     1
  0
ACDBDICTIONARYWDFLT
  5
E
102
{ACAD_REACTORS
330
C
102
}
330
C
100
AcDbDictionary
281
     1
  3
Normal
350
F
100
AcDbDictionaryWithDefault
340
F
  0
GROUP
  5
21B
102
{ACAD_REACTORS
330
D
102
}
330
D
100
AcDbGroup
300
GRP110
 70
     1
 71
     1
340
66
340
67
340
68
340
69
340
6A
340
6B
340
6C
  0
GROUP
  5
21C
102
{ACAD_REACTORS
330
D
102
}
330
D
100
AcDbGroup
300
GRP120-LCMaster-LCGROUP39
 70
     1
 71
     1
340
85
340
86
340
87
340
88
340
89
340
8A
340
8B
  0
GROUP
  5
21D
102
{ACAD_REACTORS
330
D
102
}
330
D
100
AcDbGroup
300
GRP132
 70
     1
 71
     1
340
8C
340
8D
340
8E
340
8F
340
90
340
91
340
92
340
94
340
95
340
96
340
97
340
98
340
99
340
9A
340
9B
340
9C
340
9D
340
9E
340
9F
340
A0
340
A1
340
A2
340
A3
340
A4
340
A5
340
A6
340
A7
340
A8
340
A9
340
AA
340
AB
340
AC
340
AD
340
AE
340
AF
340
B0
340
B1
340
B2
340
B3
340
B4
340
B5
340
B6
340
B7
340
B8
340
B9
340
BA
340
BB
340
BC
340
BD
340
BE
340
BF
340
C0
340
E5
  0
GROUP
  5
21A
102
{ACAD_REACTORS
330
D
102
}
330
D
100
AcDbGroup
300
GRP39
 70
     1
 71
     1
340
3A
340
3F
340
40
340
41
340
42
340
43
340
E6
340
E7
340
E8
340
E9
340
EA
340
EB
340
EC
340
ED
340
EE
  0
LAYOUT
  5
1E
102
{ACAD_REACTORS
330
1A
102
}
330
1A
100
AcDbPlotSettings
  1

  2

  4

  6

 40
0.0
 41
0.0
 42
0.0
 43
0.0
 44
0.0
 45
0.0
 46
0.0
 47
0.0
 48
0.0
 49
0.0
140
0.0
141
0.0
142
1.0
143
1.0
 70
   688
 72
     0
 73
     0
 74
     5
  7

 75
    16
147
1.0
148
0.0
149
0.0
100
AcDbLayout
  1
Layout1
 70
     1
 71
     1
 10
182.441669
 20
233.29
 11
1864.441669
 21
1421.29
 12
0.0
 22
0.0
 32
0.0
 14
182.441669
 24
233.29
 34
0.0
 15
1864.441669
 25
1421.29
 35
0.0
146
0.0
 13
0.0
 23
0.0
 33
0.0
 16
1.0
 26
0.0
 36
0.0
 17
0.0
 27
1.0
 37
0.0
 76
     0
330
1B
  0
LAYOUT
  5
26
102
{ACAD_REACTORS
330
1A
102
}
330
1A
100
AcDbPlotSettings
  1

  2

  4

  6

 40
0.0
 41
0.0
 42
0.0
 43
0.0
 44
0.0
 45
0.0
 46
0.0
 47
0.0
 48
0.0
 49
0.0
140
0.0
141
0.0
142
1.0
143
1.0
 70
   688
 72
     0
 73
     0
 74
     5
  7

 75
    16
147
1.0
148
0.0
149
0.0
100
AcDbLayout
  1
Layout2
 70
     1
 71
     2
 10
0.0
 20
0.0
 11
0.0
 21
0.0
 12
0.0
 22
0.0
 32
0.0
 14
0.0
 24
0.0
 34
0.0
 15
0.0
 25
0.0
 35
0.0
146
0.0
 13
0.0
 23
0.0
 33
0.0
 16
1.0
 26
0.0
 36
0.0
 17
0.0
 27
1.0
 37
0.0
 76
     0
330
23
  0
LAYOUT
  5
22
102
{ACAD_REACTORS
330
1A
102
}
330
1A
100
AcDbPlotSettings
  1

  2

  4

  6

 40
0.0
 41
0.0
 42
0.0
 43
0.0
 44
0.0
 45
0.0
 46
0.0
 47
0.0
 48
0.0
 49
0.0
140
0.0
141
0.0
142
1.0
143
1.0
 70
  1776
 72
     0
 73
     0
 74
     0
  7

 75
     0
147
1.0
148
0.0
149
0.0
100
AcDbLayout
  1
Model
 70
     1
 71
     0
 10
182.441669
 20
233.29
 11
1864.441669
 21
1421.29
 12
182.441669
 22
233.29
 32
0.0
 14
182.441669
 24
233.29
 34
0.0
 15
1864.441669
 25
1421.29
 35
0.0
146
0.0
 13
0.0
 23
0.0
 33
0.0
 16
1.0
 26
0.0
 36
0.0
 17
0.0
 27
1.0
 37
0.0
 76
     0
330
1F
  0
MLINESTYLE
  5
18
102
{ACAD_REACTORS
330
17
102
}
330
17
100
AcDbMlineStyle
  2
Standard
 70
     0
  3

 62
   256
 51
90.0
 52
90.0
 71
     2
 49
0.5
 62
   256
  6
BYLAYER
 49
-0.5
 62
   256
  6
BYLAYER
  0
ACDBPLACEHOLDER
  5
F
102
{ACAD_REACTORS
330
E
102
}
330
E
  0
ENDSEC
  0
EOF
