  0
SECTION
  2
HEADER
  9
$ACADVER
  1
AC1009
  9
$INSBASE
 10
0.0
 20
0.0
 30
0.0
  9
$EXTMIN
 10
0.0
 20
0.0
 30
0.0
  9
$EXTMAX
 10
840.0
 20
594.0
 30
0.0
  9
$LIMMIN
 10
0.0
 20
0.0
  9
$LIMMAX
 10
840.0
 20
594.0
  9
$ORTHOMODE
 70
     0
  9
$REGENMODE
 70
     1
  9
$FILLMODE
 70
     1
  9
$QTEXTMODE
 70
     0
  9
$MIRRTEXT
 70
     1
  9
$DRAGMODE
 70
     2
  9
$LTSCALE
 40
2.0
  9
$OSMODE
 70
     0
  9
$ATTMODE
 70
     1
  9
$TEXTSIZE
 40
0.2
  9
$TRACEWID
 40
0.05
  9
$TEXTSTYLE
  7
STANDARD
  9
$CLAYER
  8
0
  9
$CELTYPE
  6
BYLAYER
  9
$CECOLOR
 62
     7
  9
$DIMSCALE
 40
2.0
  9
$DIMASZ
 40
3.5
  9
$DIMEXO
 40
0.0625
  9
$DIMDLI
 40
0.38
  9
$DIMRND
 40
0.0
  9
$DIMDLE
 40
0.0
  9
$DIMEXE
 40
0.18
  9
$DIMTP
 40
0.0
  9
$DIMTM
 40
0.0
  9
$DIMTXT
 40
3.5
  9
$DIMCEN
 40
0.09
  9
$DIMTSZ
 40
0.0
  9
$DIMTOL
 70
     0
  9
$DIMLIM
 70
     0
  9
$DIMTIH
 70
     1
  9
$DIMTOH
 70
     1
  9
$DIMSE1
 70
     0
  9
$DIMSE2
 70
     0
  9
$DIMTAD
 70
     1
  9
$DIMZIN
 70
     0
  9
$DIMBLK
  1

  9
$DIMASO
 70
     1
  9
$DIMSHO
 70
     1
  9
$DIMPOST
  1

  9
$DIMAPOST
  1

  9
$DIMALT
 70
     0
  9
$DIMALTD
 70
     2
  9
$DIMALTF
 40
25.4
  9
$DIMLFAC
 40
1.0
  9
$DIMTOFL
 70
     0
  9
$DIMTVP
 40
0.0
  9
$DIMTIX
 70
     0
  9
$DIMSOXD
 70
     0
  9
$DIMSAH
 70
     0
  9
$DIMBLK1
  1

  9
$DIMBLK2
  1

  9
$DIMSTYLE
  2
STANDARD
  9
$DIMCLRD
 70
     0
  9
$DIMCLRE
 70
     0
  9
$DIMCLRT
 70
     0
  9
$DIMTFAC
 40
1.0
  9
$DIMGAP
 40
0.09
  9
$LUNITS
 70
     2
  9
$LUPREC
 70
     2
  9
$AXISMODE
 70
     0
  9
$AXISUNIT
 10
0.0
 20
0.0
  9
$SKETCHINC
 40
0.1
  9
$FILLETRAD
 40
0.0
  9
$AUNITS
 70
     0
  9
$AUPREC
 70
     0
  9
$MENU
  1
acad
  9
$ELEVATION
 40
0.0
  9
$PELEVATION
 40
0.0
  9
$THICKNESS
 40
0.0
  9
$LIMCHECK
 70
     0
  9
$BLIPMODE
 70
     1
  9
$CHAMFERA
 40
0.0
  9
$CHAMFERB
 40
0.0
  9
$SKPOLY
 70
     0
  9
$TDCREATE
 40
0.000000000
  9
$TDUPDATE
 40
0.000000000
  9
$TDINDWG
 40
0.0000000000
  9
$TDUSRTIMER
 40
0.0000000000
  9
$USRTIMER
 70
     1
  9
$ANGBASE
 50
0.0
  9
$ANGDIR
 70
     0
  9
$PDMODE
 70
     0
  9
$PDSIZE
 40
0.0
  9
$PLINEWID
 40
0.0
  9
$COORDS
 70
     0
  9
$SPLFRAME
 70
     0
  9
$SPLINETYPE
 70
     6
  9
$SPLINESEGS
 70
     8
  9
$ATTDIA
 70
     0
  9
$ATTREQ
 70
     1
  9
$HANDLING
 70
     1
  9
$HANDSEED
  5
4F7
  9
$SURFTAB1
 70
     6
  9
$SURFTAB2
 70
     6
  9
$SURFTYPE
 70
     6
  9
$SURFU
 70
     6
  9
$SURFV
 70
     6
  9
$UCSNAME
  2

  9
$UCSORG
 10
0.0
 20
0.0
 30
0.0
  9
$UCSXDIR
 10
1.0
 20
0.0
 30
0.0
  9
$UCSYDIR
 10
0.0
 20
1.0
 30
0.0
  9
$PUCSNAME
  2

  9
$PUCSORG
 10
0.0
 20
0.0
 30
0.0
  9
$PUCSXDIR
 10
1.0
 20
0.0
 30
0.0
  9
$PUCSYDIR
 10
0.0
 20
1.0
 30
0.0
  9
$USERI1
 70
     0
  9
$USERI2
 70
     0
  9
$USERI3
 70
     0
  9
$USERI4
 70
     0
  9
$USERI5
 70
     0
  9
$USERR1
 40
0.0
  9
$USERR2
 40
0.0
  9
$USERR3
 40
0.0
  9
$USERR4
 40
0.0
  9
$USERR5
 40
0.0
  9
$WORLDVIEW
 70
     1
  9
$SHADEDGE
 70
     3
  9
$SHADEDIF
 70
    70
  9
$TILEMODE
 70
     1
  9
$MAXACTVP
 70
    16
  9
$PINSBASE
 10
0.0
 20
0.0
 30
0.0
  9
$PLIMCHECK
 70
     0
  9
$PEXTMIN
 10
1.000000E+20
 20
1.000000E+20
 30
1.000000E+20
  9
$PEXTMAX
 10
-1.000000E+20
 20
-1.000000E+20
 30
-1.000000E+20
  9
$PLIMMIN
 10
0.0
 20
0.0
  9
$PLIMMAX
 10
840.0
 20
594.0
  9
$UNITMODE
 70
     0
  9
$VISRETAIN
 70
     0
  9
$PLINEGEN
 70
     1
  9
$PSLTSCALE
 70
     0
  9
$TREEDEPTH
 70
  3020
  9
$DWGCODEPAGE
  3
dos850
  0
ENDSEC
  0
SECTION
  2
TABLES
  0
TABLE
  2
VPORT
 70
     1
  0
VPORT
  2
*ACTIVE
 70
     0
 10
0.0
 20
0.0
 11
1.0
 21
1.0
 12
420.0
 22
297.0
 13
0.0
 23
0.0
 14
1.0
 24
1.0
 15
0.0
 25
0.0
 16
0.0
 26
0.0
 36
1.0
 17
0.0
 27
0.0
 37
0.0
 40
594.0
 41
1.604229
 42
50.0
 43
0.0
 44
0.0
 50
0.0
 51
0.0
 71
     0
 72
   100
 73
     1
 74
     1
 75
     0
 76
     0
 77
     0
 78
     0
  0
ENDTAB
  0
TABLE
  2
LTYPE
 70
     2
  0
LTYPE
  2
CONTINUOUS
 70
    64
  3
Solid line
 72
    65
 73
     0
 40
0.0
  0
LTYPE
  2
DASHDOT
 70
    64
  3
__ . __ . __ . __ . __
 72
    65
 73
     4
 40
7.5
 49
5.0
 49
-1.25
 49
0.0
 49
-1.25
  0
ENDTAB
  0
TABLE
  2
LAYER
 70
    12
  0
LAYER
  2
0
 70
     0
 62
     7
  6
CONTINUOUS
  0
LAYER
  2
LC-INFO-1-2-MM-A3-0
 70
     1
 62
    -1
  6
CONTINUOUS
  0
LAYER
  2
LC-008-003-MTH-0
 70
     0
 62
     2
  6
CONTINUOUS
  0
LAYER
  2
LC-009-003-MTG-0
 70
     0
 62
     2
  6
CONTINUOUS
  0
LAYER
  2
LC-007-003-----0
 70
     0
 62
     2
  6
CONTINUOUS
  0
LAYER
  2
LC-005-001-----0
 70
     0
 62
     1
  6
CONTINUOUS
  0
LAYER
  2
LC-003-005-----0
 70
     0
 62
     2
  6
CONTINUOUS
  0
LAYER
  2
LC-002-000-----0
 70
     0
 62
     7
  6
CONTINUOUS
  0
LAYER
  2
LC-006-000-----0
 70
     0
 62
     7
  6
CONTINUOUS
  0
LAYER
  2
LC-001-002-----0
 70
     0
 62
     1
  6
CONTINUOUS
  0
LAYER
  2
LC-010-002-RND-0
 70
     0
 62
     1
  6
CONTINUOUS
  0
LAYER
  2
LC-000
 70
     0
 62
     7
  6
CONTINUOUS
  0
ENDTAB
  0
TABLE
  2
STYLE
 70
     5
  0
STYLE
  2
STANDARD
 70
     0
 40
0.0
 41
1.0
 50
0.0
 71
     0
 42
0.0
  3
txt
  4

  0
STYLE
  2
LC-STANDARD
 70
    64
 40
0.0
 41
1.0
 50
0.0
 71
     0
 42
3.5
  3
MONOTXT
  4

  0
STYLE
  2
LC-TXTSTYLE-0-400-0-0-DIN2
 70
    64
 40
0.0
 41
1.0
 50
0.0
 71
     0
 42
3.5
  3
MONOTXT
  4

  0
STYLE
  2
LC-TXTSTYLE-150-400-0-0-A3
 70
    64
 40
0.0
 41
1.0
 50
15.0
 71
     0
 42
3.5
  3
MONOTXT
  4

  0
STYLE
  2
LC-TXTSTYLE-150-400-0-0-D4
 70
    64
 40
0.0
 41
1.0
 50
15.0
 71
     0
 42
3.5
  3
LC-STANDARD
  4

  0
ENDTAB
  0
TABLE
  2
VIEW
 70
     0
  0
ENDTAB
  0
TABLE
  2
UCS
 70
     0
  0
ENDTAB
  0
TABLE
  2
APPID
 70
     1
  0
APPID
  2
ACAD
 70
     0
  0
ENDTAB
  0
TABLE
  2
DIMSTYLE
 70
     3
  0
DIMSTYLE
  2
STANDARD
 70
     0
  3

  4

  5

  6

  7

 40
1.0
 41
0.18
 42
0.0625
 43
0.38
 44
0.18
 45
0.0
 46
0.0
 47
0.0
 48
0.0
 71
     0
 72
     0
 73
     1
 74
     1
 75
     0
 76
     0
 77
     0
 78
     0
140
0.18
141
0.09
142
0.0
143
25.4
144
1.0
145
0.0
146
1.0
147
0.09
170
     0
171
     2
172
     0
173
     0
174
     0
175
     0
176
     0
177
     0
178
     0
  0
DIMSTYLE
  2
LC-STANDARD
 70
     0
  3

  4

  5

  6

  7

 40
1.0
 41
3.5
 42
0.0
 43
7.5
 44
1.8
 45
0.0
 46
0.0
 47
0.0
 48
0.0
 71
     0
 72
     0
 73
     0
 74
     0
 75
     0
 76
     0
 77
     1
 78
     8
140
3.5
141
0.0
142
0.0
143
25.4
144
1.0
145
0.0
146
0.71
147
1.5
170
     0
171
     2
172
     1
173
     0
174
     0
175
     0
176
     0
177
     0
178
     3
  0
DIMSTYLE
  2
LC-DIM-L-0140-02-02
 70
     0
  3

  4

  5

  6

  7

 40
2.0
 41
3.5
 42
0.0
 43
7.5
 44
1.8
 45
0.0
 46
0.0
 47
0.0
 48
0.0
 71
     0
 72
     0
 73
     0
 74
     0
 75
     0
 76
     0
 77
     1
 78
     8
140
14.0
141
0.0
142
0.0
143
25.4
144
1.0
145
0.0
146
0.71
147
1.5
170
     0
171
     2
172
     0
173
     0
174
     0
175
     0
176
     2
177
     2
178
     8
  0
ENDTAB
  0
ENDSEC
  0
SECTION
  2
BLOCKS
  0
BLOCK
  8
0
  5
24
  2
BLK1
 70
    64
 10
0.0
 20
0.0
 30
0.0
  3
BLK1
  0
ENDBLK
  8
0
  5
25
  0
BLOCK
  8
0
  5
27
  2
BLK2
 70
    64
 10
0.0
 20
0.0
 30
0.0
  3
BLK2
  0
ENDBLK
  8
0
  5
28
  0
BLOCK
  8
0
  5
2A
  2
BLK3
 70
    64
 10
0.0
 20
0.0
 30
0.0
  3
BLK3
  0
ENDBLK
  8
0
  5
2B
  0
BLOCK
  8
0
  5
2D
  2
BLK4
 70
    64
 10
0.0
 20
0.0
 30
0.0
  3
BLK4
  0
ENDBLK
  8
0
  5
2E
  0
BLOCK
  8
0
  5
30
  2
*D4
 70
    65
 10
0.0
 20
0.0
 30
0.0
  3
*D4
  0
LINE
  8
LC-008-003-MTH-0
  6
CONTINUOUS
  5
32
 10
183.568257
 20
408.428214
 30
0.0
 11
183.568257
 21
448.0
 31
0.0
  0
LINE
  8
LC-008-003-MTH-0
  6
CONTINUOUS
  5
33
 10
485.071743
 20
408.550513
 30
0.0
 11
485.071743
 21
448.0
 31
0.0
  0
LINE
  8
LC-009-003-MTG-0
  6
CONTINUOUS
  5
35
 10
183.568257
 20
431.2
 30
0.0
 11
485.071743
 21
431.2
 31
0.0
  0
LINE
  8
LC-007-003-----0
  6
CONTINUOUS
  5
37
 10
211.328713
 20
434.854733
 30
0.0
 11
183.568257
 21
431.2
 31
0.0
  0
LINE
  8
LC-007-003-----0
  6
CONTINUOUS
  5
38
 10
183.568257
 20
431.2
 30
0.0
 11
211.328713
 21
427.545267
 31
0.0
  0
LINE
  8
LC-007-003-----0
  6
CONTINUOUS
  5
39
 10
211.328713
 20
427.545267
 30
0.0
 11
211.328713
 21
434.854733
 31
0.0
  0
LINE
  8
LC-007-003-----0
  6
CONTINUOUS
  5
3A
 10
211.390995
 20
433.904503
 30
0.0
 11
190.848257
 21
431.2
 31
0.0
  0
LINE
  8
LC-007-003-----0
  6
CONTINUOUS
  5
3B
 10
190.848257
 20
431.2
 30
0.0
 11
211.390995
 21
428.495497
 31
0.0
  0
LINE
  8
LC-007-003-----0
  6
CONTINUOUS
  5
3C
 10
211.453276
 20
432.954272
 30
0.0
 11
198.128257
 21
431.2
 31
0.0
  0
LINE
  8
LC-007-003-----0
  6
CONTINUOUS
  5
3D
 10
198.128257
 20
431.2
 30
0.0
 11
211.453276
 21
429.445728
 31
0.0
  0
LINE
  8
LC-007-003-----0
  6
CONTINUOUS
  5
3E
 10
211.515557
 20
432.004041
 30
0.0
 11
205.408257
 21
431.2
 31
0.0
  0
LINE
  8
LC-007-003-----0
  6
CONTINUOUS
  5
3F
 10
205.408257
 20
431.2
 30
0.0
 11
211.515557
 21
430.395959
 31
0.0
  0
LINE
  8
LC-007-003-----0
  6
CONTINUOUS
  5
40
 10
457.311287
 20
427.545267
 30
0.0
 11
485.071743
 21
431.2
 31
0.0
  0
LINE
  8
LC-007-003-----0
  6
CONTINUOUS
  5
41
 10
485.071743
 20
431.2
 30
0.0
 11
457.311287
 21
434.854733
 31
0.0
  0
LINE
  8
LC-007-003-----0
  6
CONTINUOUS
  5
42
 10
457.311287
 20
434.854733
 30
0.0
 11
457.311287
 21
427.545267
 31
0.0
  0
LINE
  8
LC-007-003-----0
  6
CONTINUOUS
  5
43
 10
457.249005
 20
428.495497
 30
0.0
 11
477.791743
 21
431.2
 31
0.0
  0
LINE
  8
LC-007-003-----0
  6
CONTINUOUS
  5
44
 10
477.791743
 20
431.2
 30
0.0
 11
457.249005
 21
433.904503
 31
0.0
  0
LINE
  8
LC-007-003-----0
  6
CONTINUOUS
  5
45
 10
457.186724
 20
429.445728
 30
0.0
 11
470.511743
 21
431.2
 31
0.0
  0
LINE
  8
LC-007-003-----0
  6
CONTINUOUS
  5
46
 10
470.511743
 20
431.2
 30
0.0
 11
457.186724
 21
432.954272
 31
0.0
  0
LINE
  8
LC-007-003-----0
  6
CONTINUOUS
  5
47
 10
457.124443
 20
430.395959
 30
0.0
 11
463.231743
 21
431.2
 31
0.0
  0
LINE
  8
LC-007-003-----0
  6
CONTINUOUS
  5
48
 10
463.231743
 20
431.2
 30
0.0
 11
457.124443
 21
432.004041
 31
0.0
  0
TEXT
  8
LC-007-003-----0
  6
CONTINUOUS
 62
     8
  5
4A
 10
300.570522
 20
439.027554
 30
0.0
 40
28.0
  1
Ø300
 41
0.9
 51
15.0
  7
LC-TXTSTYLE-150-400-0-0-D0
 72
     1
 11
338.66816
 21
439.027554
 31
0.0
  0
ENDBLK
  8
0
  5
4B
  0
BLOCK
  8
0
  5
4D
  2
*D5
 70
    65
 10
0.0
 20
0.0
 30
0.0
  3
*D5
  0
LINE
  8
LC-008-003-MTH-0
  6
CONTINUOUS
  5
4E
 10
274.92
 20
186.463716
 30
0.0
 11
183.2
 21
186.463716
 31
0.0
  0
LINE
  8
LC-008-003-MTH-0
  6
CONTINUOUS
  5
4F
 10
260.397699
 20
366.463716
 30
0.0
 11
183.2
 21
366.463716
 31
0.0
  0
LINE
  8
LC-009-003-MTG-0
  6
CONTINUOUS
  5
50
 10
200.0
 20
186.463716
 30
0.0
 11
200.0
 21
366.463716
 31
0.0
  0
LINE
  8
LC-007-003-----0
  6
CONTINUOUS
  5
51
 10
196.345267
 20
214.224172
 30
0.0
 11
200.0
 21
186.463716
 31
0.0
  0
LINE
  8
LC-007-003-----0
  6
CONTINUOUS
  5
52
 10
200.0
 20
186.463716
 30
0.0
 11
203.654733
 21
214.224172
 31
0.0
  0
LINE
  8
LC-007-003-----0
  6
CONTINUOUS
  5
53
 10
203.654733
 20
214.224172
 30
0.0
 11
196.345267
 21
214.224172
 31
0.0
  0
LINE
  8
LC-007-003-----0
  6
CONTINUOUS
  5
54
 10
197.295497
 20
214.286454
 30
0.0
 11
200.0
 21
193.743716
 31
0.0
  0
LINE
  8
LC-007-003-----0
  6
CONTINUOUS
  5
55
 10
200.0
 20
193.743716
 30
0.0
 11
202.704503
 21
214.286454
 31
0.0
  0
LINE
  8
LC-007-003-----0
  6
CONTINUOUS
  5
56
 10
198.245728
 20
214.348735
 30
0.0
 11
200.0
 21
201.023716
 31
0.0
  0
LINE
  8
LC-007-003-----0
  6
CONTINUOUS
  5
57
 10
200.0
 20
201.023716
 30
0.0
 11
201.754272
 21
214.348735
 31
0.0
  0
LINE
  8
LC-007-003-----0
  6
CONTINUOUS
  5
58
 10
199.195959
 20
214.411016
 30
0.0
 11
200.0
 21
208.303716
 31
0.0
  0
LINE
  8
LC-007-003-----0
  6
CONTINUOUS
  5
59
 10
200.0
 20
208.303716
 30
0.0
 11
200.804041
 21
214.411016
 31
0.0
  0
LINE
  8
LC-007-003-----0
  6
CONTINUOUS
  5
5A
 10
203.654733
 20
338.70326
 30
0.0
 11
200.0
 21
366.463716
 31
0.0
  0
LINE
  8
LC-007-003-----0
  6
CONTINUOUS
  5
5B
 10
200.0
 20
366.463716
 30
0.0
 11
196.345267
 21
338.70326
 31
0.0
  0
LINE
  8
LC-007-003-----0
  6
CONTINUOUS
  5
5C
 10
196.345267
 20
338.70326
 30
0.0
 11
203.654733
 21
338.70326
 31
0.0
  0
LINE
  8
LC-007-003-----0
  6
CONTINUOUS
  5
5D
 10
202.704503
 20
338.640979
 30
0.0
 11
200.0
 21
359.183716
 31
0.0
  0
LINE
  8
LC-007-003-----0
  6
CONTINUOUS
  5
5E
 10
200.0
 20
359.183716
 30
0.0
 11
197.295497
 21
338.640979
 31
0.0
  0
LINE
  8
LC-007-003-----0
  6
CONTINUOUS
  5
5F
 10
201.754272
 20
338.578697
 30
0.0
 11
200.0
 21
351.903716
 31
0.0
  0
LINE
  8
LC-007-003-----0
  6
CONTINUOUS
  5
60
 10
200.0
 20
351.903716
 30
0.0
 11
198.245728
 21
338.578697
 31
0.0
  0
LINE
  8
LC-007-003-----0
  6
CONTINUOUS
  5
61
 10
200.804041
 20
338.516416
 30
0.0
 11
200.0
 21
344.623716
 31
0.0
  0
LINE
  8
LC-007-003-----0
  6
CONTINUOUS
  5
62
 10
200.0
 20
344.623716
 30
0.0
 11
199.195959
 21
338.516416
 31
0.0
  0
TEXT
  8
LC-007-003-----0
  6
CONTINUOUS
 62
     8
  5
63
 10
192.172446
 20
253.128524
 30
0.0
 40
28.0
  1
180
 50
90.0
 51
15.0
  7
LC-TXTSTYLE-150-400-0-0-D0
 72
     1
 11
192.172446
 21
282.892304
 31
0.0
  0
ENDBLK
  8
0
  5
64
  0
BLOCK
  8
0
  5
66
  2
*X6
 70
    65
 10
183.568257
 20
405.454458
 30
0.0
  3
*X6
  0
LINE
  8
LC-005-001-----0
  6
CONTINUOUS
 62
     2
  5
68
 10
184.837142
 20
405.454458
 30
0.0
 11
187.647919
 21
408.265235
 31
0.0
  0
LINE
  8
LC-005-001-----0
  6
CONTINUOUS
 62
     2
  5
69
 10
187.647919
 20
408.265235
 30
0.0
 11
183.682563
 21
408.542519
 31
0.0
  0
LINE
  8
LC-005-001-----0
  6
CONTINUOUS
 62
     2
  5
6A
 10
183.682563
 20
408.542519
 30
0.0
 11
183.568257
 21
408.428214
 31
0.0
  0
LINE
  8
LC-005-001-----0
  6
CONTINUOUS
 62
     2
  5
6B
 10
183.568257
 20
408.428214
 30
0.0
 11
183.568257
 21
405.543187
 31
0.0
  0
LINE
  8
LC-005-001-----0
  6
CONTINUOUS
 62
     2
  5
6C
 10
183.568257
 20
405.543187
 30
0.0
 11
184.837142
 21
405.454458
 31
0.0
  0
ENDBLK
  8
0
  5
6D
  0
BLOCK
  8
0
  5
6F
  2
*D7
 70
    65
 10
0.0
 20
0.0
 30
0.0
  3
*D7
  0
LINE
  8
LC-008-003-MTH-0
  6
CONTINUOUS
  5
70
 10
261.82
 20
191.463716
 30
0.0
 11
261.82
 21
127.2
 31
0.0
  0
LINE
  8
LC-008-003-MTH-0
  6
CONTINUOUS
  5
71
 10
406.82
 20
191.463716
 30
0.0
 11
406.82
 21
127.2
 31
0.0
  0
LINE
  8
LC-009-003-MTG-0
  6
CONTINUOUS
  5
72
 10
261.82
 20
144.0
 30
0.0
 11
406.82
 21
144.0
 31
0.0
  0
LINE
  8
LC-007-003-----0
  6
CONTINUOUS
  5
73
 10
289.580456
 20
147.654733
 30
0.0
 11
261.82
 21
144.0
 31
0.0
  0
LINE
  8
LC-007-003-----0
  6
CONTINUOUS
  5
74
 10
261.82
 20
144.0
 30
0.0
 11
289.580456
 21
140.345267
 31
0.0
  0
LINE
  8
LC-007-003-----0
  6
CONTINUOUS
  5
75
 10
289.580456
 20
140.345267
 30
0.0
 11
289.580456
 21
147.654733
 31
0.0
  0
LINE
  8
LC-007-003-----0
  6
CONTINUOUS
  5
76
 10
289.642738
 20
146.704503
 30
0.0
 11
269.1
 21
144.0
 31
0.0
  0
LINE
  8
LC-007-003-----0
  6
CONTINUOUS
  5
77
 10
269.1
 20
144.0
 30
0.0
 11
289.642738
 21
141.295497
 31
0.0
  0
LINE
  8
LC-007-003-----0
  6
CONTINUOUS
  5
78
 10
289.705019
 20
145.754272
 30
0.0
 11
276.38
 21
144.0
 31
0.0
  0
LINE
  8
LC-007-003-----0
  6
CONTINUOUS
  5
79
 10
276.38
 20
144.0
 30
0.0
 11
289.705019
 21
142.245728
 31
0.0
  0
LINE
  8
LC-007-003-----0
  6
CONTINUOUS
  5
7A
 10
289.7673
 20
144.804041
 30
0.0
 11
283.66
 21
144.0
 31
0.0
  0
LINE
  8
LC-007-003-----0
  6
CONTINUOUS
  5
7B
 10
283.66
 20
144.0
 30
0.0
 11
289.7673
 21
143.195959
 31
0.0
  0
LINE
  8
LC-007-003-----0
  6
CONTINUOUS
  5
7C
 10
379.059544
 20
140.345267
 30
0.0
 11
406.82
 21
144.0
 31
0.0
  0
LINE
  8
LC-007-003-----0
  6
CONTINUOUS
  5
7D
 10
406.82
 20
144.0
 30
0.0
 11
379.059544
 21
147.654733
 31
0.0
  0
LINE
  8
LC-007-003-----0
  6
CONTINUOUS
  5
7E
 10
379.059544
 20
147.654733
 30
0.0
 11
379.059544
 21
140.345267
 31
0.0
  0
LINE
  8
LC-007-003-----0
  6
CONTINUOUS
  5
7F
 10
378.997262
 20
141.295497
 30
0.0
 11
399.54
 21
144.0
 31
0.0
  0
LINE
  8
LC-007-003-----0
  6
CONTINUOUS
  5
80
 10
399.54
 20
144.0
 30
0.0
 11
378.997262
 21
146.704503
 31
0.0
  0
LINE
  8
LC-007-003-----0
  6
CONTINUOUS
  5
81
 10
378.934981
 20
142.245728
 30
0.0
 11
392.26
 21
144.0
 31
0.0
  0
LINE
  8
LC-007-003-----0
  6
CONTINUOUS
  5
82
 10
392.26
 20
144.0
 30
0.0
 11
378.934981
 21
145.754272
 31
0.0
  0
LINE
  8
LC-007-003-----0
  6
CONTINUOUS
  5
83
 10
378.8727
 20
143.195959
 30
0.0
 11
384.98
 21
144.0
 31
0.0
  0
LINE
  8
LC-007-003-----0
  6
CONTINUOUS
  5
84
 10
384.98
 20
144.0
 30
0.0
 11
378.8727
 21
144.804041
 31
0.0
  0
TEXT
  8
LC-007-003-----0
  6
CONTINUOUS
 62
     8
  5
85
 10
293.925941
 20
151.827554
 30
0.0
 40
28.0
  1
Ø145
 51
15.0
  7
LC-TXTSTYLE-150-400-0-0-D0
 72
     1
 11
332.023578
 21
151.827554
 31
0.0
  0
ENDBLK
  8
0
  5
86
  0
BLOCK
  8
0
  5
88
  2
*D8
 70
    65
 10
0.0
 20
0.0
 30
0.0
  3
*D8
  0
LINE
  8
LC-008-003-MTH-0
  6
CONTINUOUS
  5
89
 10
263.159746
 20
186.463716
 30
0.0
 11
137.2
 21
186.463716
 31
0.0
  0
LINE
  8
LC-008-003-MTH-0
  6
CONTINUOUS
  5
8A
 10
183.568257
 20
405.543187
 30
0.0
 11
137.2
 21
405.543187
 31
0.0
  0
LINE
  8
LC-009-003-MTG-0
  6
CONTINUOUS
  5
8B
 10
154.0
 20
186.463716
 30
0.0
 11
154.0
 21
405.543187
 31
0.0
  0
LINE
  8
LC-007-003-----0
  6
CONTINUOUS
  5
8C
 10
150.345267
 20
214.224172
 30
0.0
 11
154.0
 21
186.463716
 31
0.0
  0
LINE
  8
LC-007-003-----0
  6
CONTINUOUS
  5
8D
 10
154.0
 20
186.463716
 30
0.0
 11
157.654733
 21
214.224172
 31
0.0
  0
LINE
  8
LC-007-003-----0
  6
CONTINUOUS
  5
8E
 10
157.654733
 20
214.224172
 30
0.0
 11
150.345267
 21
214.224172
 31
0.0
  0
LINE
  8
LC-007-003-----0
  6
CONTINUOUS
  5
8F
 10
151.295497
 20
214.286454
 30
0.0
 11
154.0
 21
193.743716
 31
0.0
  0
LINE
  8
LC-007-003-----0
  6
CONTINUOUS
  5
90
 10
154.0
 20
193.743716
 30
0.0
 11
156.704503
 21
214.286454
 31
0.0
  0
LINE
  8
LC-007-003-----0
  6
CONTINUOUS
  5
91
 10
152.245728
 20
214.348735
 30
0.0
 11
154.0
 21
201.023716
 31
0.0
  0
LINE
  8
LC-007-003-----0
  6
CONTINUOUS
  5
92
 10
154.0
 20
201.023716
 30
0.0
 11
155.754272
 21
214.348735
 31
0.0
  0
LINE
  8
LC-007-003-----0
  6
CONTINUOUS
  5
93
 10
153.195959
 20
214.411016
 30
0.0
 11
154.0
 21
208.303716
 31
0.0
  0
LINE
  8
LC-007-003-----0
  6
CONTINUOUS
  5
94
 10
154.0
 20
208.303716
 30
0.0
 11
154.804041
 21
214.411016
 31
0.0
  0
LINE
  8
LC-007-003-----0
  6
CONTINUOUS
  5
95
 10
157.654733
 20
377.782731
 30
0.0
 11
154.0
 21
405.543187
 31
0.0
  0
LINE
  8
LC-007-003-----0
  6
CONTINUOUS
  5
96
 10
154.0
 20
405.543187
 30
0.0
 11
150.345267
 21
377.782731
 31
0.0
  0
LINE
  8
LC-007-003-----0
  6
CONTINUOUS
  5
97
 10
150.345267
 20
377.782731
 30
0.0
 11
157.654733
 21
377.782731
 31
0.0
  0
LINE
  8
LC-007-003-----0
  6
CONTINUOUS
  5
98
 10
156.704503
 20
377.720449
 30
0.0
 11
154.0
 21
398.263187
 31
0.0
  0
LINE
  8
LC-007-003-----0
  6
CONTINUOUS
  5
99
 10
154.0
 20
398.263187
 30
0.0
 11
151.295497
 21
377.720449
 31
0.0
  0
LINE
  8
LC-007-003-----0
  6
CONTINUOUS
  5
9A
 10
155.754272
 20
377.658168
 30
0.0
 11
154.0
 21
390.983187
 31
0.0
  0
LINE
  8
LC-007-003-----0
  6
CONTINUOUS
  5
9B
 10
154.0
 20
390.983187
 30
0.0
 11
152.245728
 21
377.658168
 31
0.0
  0
LINE
  8
LC-007-003-----0
  6
CONTINUOUS
  5
9C
 10
154.804041
 20
377.595886
 30
0.0
 11
154.0
 21
383.703187
 31
0.0
  0
LINE
  8
LC-007-003-----0
  6
CONTINUOUS
  5
9D
 10
154.0
 20
383.703187
 30
0.0
 11
153.195959
 21
377.595886
 31
0.0
  0
TEXT
  8
LC-007-003-----0
  6
CONTINUOUS
 62
     8
  5
9E
 10
146.172446
 20
270.587832
 30
0.0
 40
28.0
  1
220
 50
90.0
 51
15.0
  7
LC-TXTSTYLE-150-400-0-0-D0
 72
     1
 11
146.172446
 21
300.351611
 31
0.0
  0
ENDBLK
  8
0
  5
9F
  0
BLOCK
  8
0
  5
A1
  2
*X9
 70
    65
 10
255.571677
 20
101.584445
 30
0.0
  3
*X9
  0
LINE
  8
LC-003-005-----0
  6
CONTINUOUS
  5
A3
 10
262.80622
 20
101.585874
 30
0.0
 11
263.321438
 21
102.101092
 31
0.0
  0
LINE
  8
LC-003-005-----0
  6
CONTINUOUS
  5
A4
 10
259.977052
 20
101.585133
 30
0.0
 11
260.073146
 21
101.681227
 31
0.0
  0
LINE
  8
LC-003-005-----0
  6
CONTINUOUS
  5
A5
 10
261.296062
 20
102.904143
 30
0.0
 11
262.452362
 21
104.060443
 31
0.0
  0
LINE
  8
LC-003-005-----0
  6
CONTINUOUS
  5
A6
 10
257.148126
 20
101.584634
 30
0.0
 11
261.55288
 21
105.989388
 31
0.0
  0
LINE
  8
LC-003-005-----0
  6
CONTINUOUS
  5
A7
 10
256.072854
 20
103.337789
 30
0.0
 11
260.653398
 21
107.918333
 31
0.0
  0
LINE
  8
LC-003-005-----0
  6
CONTINUOUS
  5
A8
 10
261.717449
 20
108.982384
 30
0.0
 11
262.720381
 21
109.985316
 31
0.0
  0
LINE
  8
LC-003-005-----0
  6
CONTINUOUS
  5
A9
 10
256.072355
 20
106.165718
 30
0.0
 11
261.820899
 21
111.914261
 31
0.0
  0
LINE
  8
LC-003-005-----0
  6
CONTINUOUS
  5
AA
 10
255.739261
 20
108.661051
 30
0.0
 11
260.921417
 21
113.843206
 31
0.0
  0
LINE
  8
LC-003-005-----0
  6
CONTINUOUS
  5
AB
 10
261.889022
 20
114.810812
 30
0.0
 11
262.829502
 21
115.751291
 31
0.0
  0
LINE
  8
LC-003-005-----0
  6
CONTINUOUS
  5
AC
 10
255.684371
 20
111.434588
 30
0.0
 11
261.93002
 21
117.680237
 31
0.0
  0
LINE
  8
LC-003-005-----0
  6
CONTINUOUS
  5
AD
 10
255.927457
 20
114.506101
 30
0.0
 11
261.030538
 21
119.609182
 31
0.0
  0
LINE
  8
LC-003-005-----0
  6
CONTINUOUS
  5
AE
 10
255.641313
 20
117.048384
 30
0.0
 11
258.677791
 21
120.084862
 31
0.0
  0
ENDBLK
  8
0
  5
AF
  0
BLOCK
  8
0
  5
B1
  2
*X10
 70
    65
 10
399.068323
 20
101.584445
 30
0.0
  3
*X10
  0
LINE
  8
LC-003-005-----0
  6
CONTINUOUS
  5
B2
 10
409.883474
 20
101.584918
 30
0.0
 11
412.56731
 21
104.268754
 31
0.0
  0
LINE
  8
LC-003-005-----0
  6
CONTINUOUS
  5
B3
 10
408.534037
 20
103.063908
 30
0.0
 11
412.567809
 21
107.09768
 31
0.0
  0
LINE
  8
LC-003-005-----0
  6
CONTINUOUS
  5
B4
 10
405.738094
 20
103.096391
 30
0.0
 11
413.064243
 21
110.422541
 31
0.0
  0
LINE
  8
LC-003-005-----0
  6
CONTINUOUS
  5
B5
 10
408.2094
 20
108.396125
 30
0.0
 11
412.575898
 21
112.762623
 31
0.0
  0
LINE
  8
LC-003-005-----0
  6
CONTINUOUS
  5
B6
 10
405.363162
 20
108.378314
 30
0.0
 11
413.064725
 21
116.079877
 31
0.0
  0
LINE
  8
LC-003-005-----0
  6
CONTINUOUS
  5
B7
 10
407.473024
 20
113.316603
 30
0.0
 11
412.537154
 21
118.380733
 31
0.0
  0
LINE
  8
LC-003-005-----0
  6
CONTINUOUS
  5
B8
 10
405.515438
 20
114.187444
 30
0.0
 11
411.22204
 21
119.894046
 31
0.0
  0
LINE
  8
LC-003-005-----0
  6
CONTINUOUS
  5
B9
 10
407.173216
 20
118.673649
 30
0.0
 11
408.584672
 21
120.085105
 31
0.0
  0
ENDBLK
  8
0
  5
BA
  0
BLOCK
  8
0
  5
BC
  2
BLK5
 70
    64
 10
0.0
 20
0.0
 30
0.0
  3
BLK5
  0
ENDBLK
  8
0
  5
BD
  0
BLOCK
  8
0
  5
BF
  2
*X12
 70
    65
 10
415.202178
 20
386.915074
 30
0.0
  3
*X12
  0
LINE
  8
LC-003-005-----0
  6
CONTINUOUS
  5
C0
 10
420.856199
 20
386.915074
 30
0.0
 11
422.47528
 21
388.534155
 31
0.0
  0
LINE
  8
LC-003-005-----0
  6
CONTINUOUS
  5
C1
 10
420.218686
 20
389.105988
 30
0.0
 11
422.47528
 21
391.362582
 31
0.0
  0
LINE
  8
LC-003-005-----0
  6
CONTINUOUS
  5
C2
 10
424.953819
 20
393.84112
 30
0.0
 11
427.334605
 21
396.221907
 31
0.0
  0
LINE
  8
LC-003-005-----0
  6
CONTINUOUS
  5
C3
 10
418.493597
 20
390.209325
 30
0.0
 11
422.47528
 21
394.191009
 31
0.0
  0
LINE
  8
LC-003-005-----0
  6
CONTINUOUS
  5
C4
 10
424.193224
 20
395.908952
 30
0.0
 11
427.334605
 21
399.050334
 31
0.0
  0
LINE
  8
LC-003-005-----0
  6
CONTINUOUS
  5
C5
 10
417.889554
 20
392.43371
 30
0.0
 11
422.47528
 21
397.019436
 31
0.0
  0
LINE
  8
LC-003-005-----0
  6
CONTINUOUS
  5
C6
 10
424.193224
 20
398.737379
 30
0.0
 11
427.334605
 21
401.878761
 31
0.0
  0
LINE
  8
LC-003-005-----0
  6
CONTINUOUS
  5
C7
 10
419.844004
 20
397.216587
 30
0.0
 11
425.099512
 21
402.472095
 31
0.0
  0
LINE
  8
LC-003-005-----0
  6
CONTINUOUS
  5
C8
 10
416.183208
 20
396.384218
 30
0.0
 11
422.058503
 21
402.259513
 31
0.0
  0
ENDBLK
  8
0
  5
C9
  0
BLOCK
  8
0
  5
CB
  2
*X13
 70
    65
 10
241.305395
 20
386.915074
 30
0.0
  3
*X13
  0
LINE
  8
LC-003-005-----0
  6
CONTINUOUS
  5
CC
 10
248.322145
 20
386.915074
 30
0.0
 11
248.421378
 21
387.014307
 31
0.0
  0
LINE
  8
LC-003-005-----0
  6
CONTINUOUS
  5
CD
 10
251.224152
 20
389.817082
 30
0.0
 11
252.241686
 21
390.834615
 31
0.0
  0
LINE
  8
LC-003-005-----0
  6
CONTINUOUS
  5
CE
 10
246.16472
 20
387.586076
 30
0.0
 11
250.876829
 21
392.298186
 31
0.0
  0
LINE
  8
LC-003-005-----0
  6
CONTINUOUS
  5
CF
 10
246.16472
 20
390.414503
 30
0.0
 11
249.511973
 21
393.761756
 31
0.0
  0
LINE
  8
LC-003-005-----0
  6
CONTINUOUS
  5
D0
 10
252.220451
 20
396.470234
 30
0.0
 11
252.897368
 21
397.147151
 31
0.0
  0
LINE
  8
LC-003-005-----0
  6
CONTINUOUS
  5
D1
 10
246.16472
 20
393.24293
 30
0.0
 11
248.421167
 21
395.499378
 31
0.0
  0
LINE
  8
LC-003-005-----0
  6
CONTINUOUS
  5
D2
 10
250.146744
 20
397.224954
 30
0.0
 11
251.532511
 21
398.610722
 31
0.0
  0
LINE
  8
LC-003-005-----0
  6
CONTINUOUS
  5
D3
 10
243.918255
 20
393.824892
 30
0.0
 11
244.446776
 21
394.353414
 31
0.0
  0
LINE
  8
LC-003-005-----0
  6
CONTINUOUS
  5
D4
 10
246.16472
 20
396.071357
 30
0.0
 11
250.167654
 21
400.074292
 31
0.0
  0
LINE
  8
LC-003-005-----0
  6
CONTINUOUS
  5
D5
 10
241.570642
 20
394.305706
 30
0.0
 11
244.446776
 21
397.181841
 31
0.0
  0
LINE
  8
LC-003-005-----0
  6
CONTINUOUS
  5
D6
 10
246.16472
 20
398.899784
 30
0.0
 11
248.802798
 21
401.537862
 31
0.0
  0
LINE
  8
LC-003-005-----0
  6
CONTINUOUS
  5
D7
 10
241.305395
 20
396.868886
 30
0.0
 11
246.688538
 21
402.25203
 31
0.0
  0
LINE
  8
LC-003-005-----0
  6
CONTINUOUS
  5
D8
 10
241.305395
 20
399.697314
 30
0.0
 11
244.044914
 21
402.436833
 31
0.0
  0
LINE
  8
LC-003-005-----0
  6
CONTINUOUS
  5
D9
 10
241.305395
 20
402.525741
 30
0.0
 11
241.40129
 21
402.621636
 31
0.0
  0
ENDBLK
  8
0
  5
DA
  0
BLOCK
  8
0
  5
DC
  2
*X14
 70
    65
 10
224.958107
 20
377.340029
 30
0.0
  3
*X14
  0
LINE
  8
LC-003-005-----0
  6
CONTINUOUS
  5
DD
 10
258.546134
 20
377.340073
 30
0.0
 11
259.24609
 21
378.040029
 31
0.0
  0
LINE
  8
LC-003-005-----0
  6
CONTINUOUS
  5
DE
 10
257.065358
 20
378.687724
 30
0.0
 11
259.557606
 21
381.179972
 31
0.0
  0
LINE
  8
LC-003-005-----0
  6
CONTINUOUS
  5
DF
 10
258.733111
 20
383.183905
 30
0.0
 11
259.230027
 21
383.68082
 31
0.0
  0
LINE
  8
LC-003-005-----0
  6
CONTINUOUS
  5
E0
 10
256.575885
 20
383.855106
 30
0.0
 11
257.081499
 21
384.36072
 31
0.0
  0
LINE
  8
LC-003-005-----0
  6
CONTINUOUS
  5
E1
 10
255.314998
 20
385.422646
 30
0.0
 11
255.864855
 21
385.972503
 31
0.0
  0
LINE
  8
LC-003-005-----0
  6
CONTINUOUS
  5
E2
 10
255.057606
 20
387.99368
 30
0.0
 11
255.757606
 21
388.69368
 31
0.0
  0
LINE
  8
LC-003-005-----0
  6
CONTINUOUS
  5
E3
 10
255.057606
 20
390.822108
 30
0.0
 11
255.757606
 21
391.522108
 31
0.0
  0
LINE
  8
LC-003-005-----0
  6
CONTINUOUS
  5
E4
 10
255.057606
 20
393.650535
 30
0.0
 11
255.757606
 21
394.350535
 31
0.0
  0
LINE
  8
LC-003-005-----0
  6
CONTINUOUS
  5
E5
 10
255.057606
 20
396.478962
 30
0.0
 11
255.757606
 21
397.178962
 31
0.0
  0
LINE
  8
LC-003-005-----0
  6
CONTINUOUS
  5
E6
 10
255.057606
 20
399.307389
 30
0.0
 11
255.757606
 21
400.007389
 31
0.0
  0
LINE
  8
LC-003-005-----0
  6
CONTINUOUS
  5
E7
 10
254.871167
 20
401.949377
 30
0.0
 11
255.436161
 21
402.514371
 31
0.0
  0
LINE
  8
LC-003-005-----0
  6
CONTINUOUS
  5
E8
 10
254.006124
 20
403.912761
 30
0.0
 11
254.505732
 21
404.41237
 31
0.0
  0
LINE
  8
LC-003-005-----0
  6
CONTINUOUS
  5
E9
 10
252.648163
 20
405.383228
 30
0.0
 11
253.140484
 21
405.875549
 31
0.0
  0
LINE
  8
LC-003-005-----0
  6
CONTINUOUS
  5
EA
 10
250.818098
 20
406.38159
 30
0.0
 11
251.354481
 21
406.917972
 31
0.0
  0
LINE
  8
LC-003-005-----0
  6
CONTINUOUS
  5
EB
 10
248.378077
 20
406.769996
 30
0.0
 11
249.024036
 21
407.415955
 31
0.0
  0
LINE
  8
LC-003-005-----0
  6
CONTINUOUS
  5
EC
 10
245.734506
 20
406.954852
 30
0.0
 11
246.380465
 21
407.600812
 31
0.0
  0
LINE
  8
LC-003-005-----0
  6
CONTINUOUS
  5
ED
 10
243.090935
 20
407.139709
 30
0.0
 11
243.736895
 21
407.785668
 31
0.0
  0
LINE
  8
LC-003-005-----0
  6
CONTINUOUS
  5
EE
 10
240.447365
 20
407.324565
 30
0.0
 11
241.093324
 21
407.970524
 31
0.0
  0
LINE
  8
LC-003-005-----0
  6
CONTINUOUS
  5
EF
 10
237.803794
 20
407.509422
 30
0.0
 11
238.449753
 21
408.155381
 31
0.0
  0
LINE
  8
LC-003-005-----0
  6
CONTINUOUS
  5
F0
 10
235.160223
 20
407.694278
 30
0.0
 11
235.806183
 21
408.340237
 31
0.0
  0
LINE
  8
LC-003-005-----0
  6
CONTINUOUS
  5
F1
 10
232.516653
 20
407.879135
 30
0.0
 11
233.162612
 21
408.525094
 31
0.0
  0
LINE
  8
LC-003-005-----0
  6
CONTINUOUS
  5
F2
 10
230.01847
 20
408.209379
 30
0.0
 11
230.593861
 21
408.78477
 31
0.0
  0
LINE
  8
LC-003-005-----0
  6
CONTINUOUS
  5
F3
 10
228.085048
 20
409.104384
 30
0.0
 11
228.591144
 21
409.61048
 31
0.0
  0
LINE
  8
LC-003-005-----0
  6
CONTINUOUS
  5
F4
 10
226.592245
 20
410.440008
 30
0.0
 11
226.681624
 21
410.529387
 31
0.0
  0
ENDBLK
  8
0
  5
F5
  0
BLOCK
  8
0
  5
F7
  2
*X15
 70
    65
 10
84.510393
 20
408.550513
 30
0.0
  3
*X15
  0
LINE
  8
LC-003-005-----0
  6
CONTINUOUS
  5
F8
 10
94.029416
 20
408.550513
 30
0.0
 11
94.510393
 21
409.031489
 31
0.0
  0
LINE
  8
LC-003-005-----0
  6
CONTINUOUS
  5
F9
 10
93.463731
 20
408.550513
 30
0.0
 11
94.510393
 21
409.597174
 31
0.0
  0
LINE
  8
LC-003-005-----0
  6
CONTINUOUS
  5
FA
 10
92.898045
 20
408.550513
 30
0.0
 11
94.510393
 21
410.16286
 31
0.0
  0
LINE
  8
LC-003-005-----0
  6
CONTINUOUS
  5
FB
 10
92.33236
 20
408.550513
 30
0.0
 11
94.510393
 21
410.728545
 31
0.0
  0
LINE
  8
LC-003-005-----0
  6
CONTINUOUS
  5
FC
 10
91.766675
 20
408.550513
 30
0.0
 11
94.510393
 21
411.294231
 31
0.0
  0
LINE
  8
LC-003-005-----0
  6
CONTINUOUS
  5
FD
 10
91.200989
 20
408.550513
 30
0.0
 11
94.510393
 21
411.859916
 31
0.0
  0
LINE
  8
LC-003-005-----0
  6
CONTINUOUS
  5
FE
 10
90.635304
 20
408.550513
 30
0.0
 11
94.510393
 21
412.425601
 31
0.0
  0
LINE
  8
LC-003-005-----0
  6
CONTINUOUS
  5
FF
 10
90.069618
 20
408.550513
 30
0.0
 11
94.510393
 21
412.991287
 31
0.0
  0
LINE
  8
LC-003-005-----0
  6
CONTINUOUS
  5
100
 10
89.503933
 20
408.550513
 30
0.0
 11
94.203933
 21
413.250513
 31
0.0
  0
LINE
  8
LC-003-005-----0
  6
CONTINUOUS
  5
101
 10
88.938247
 20
408.550513
 30
0.0
 11
93.638247
 21
413.250513
 31
0.0
  0
LINE
  8
LC-003-005-----0
  6
CONTINUOUS
  5
102
 10
88.372562
 20
408.550513
 30
0.0
 11
93.072562
 21
413.250513
 31
0.0
  0
LINE
  8
LC-003-005-----0
  6
CONTINUOUS
  5
103
 10
87.806877
 20
408.550513
 30
0.0
 11
92.506877
 21
413.250513
 31
0.0
  0
LINE
  8
LC-003-005-----0
  6
CONTINUOUS
  5
104
 10
87.241191
 20
408.550513
 30
0.0
 11
91.941191
 21
413.250513
 31
0.0
  0
LINE
  8
LC-003-005-----0
  6
CONTINUOUS
  5
105
 10
86.675506
 20
408.550513
 30
0.0
 11
91.375506
 21
413.250513
 31
0.0
  0
LINE
  8
LC-003-005-----0
  6
CONTINUOUS
  5
106
 10
86.10982
 20
408.550513
 30
0.0
 11
90.80982
 21
413.250513
 31
0.0
  0
LINE
  8
LC-003-005-----0
  6
CONTINUOUS
  5
107
 10
85.544135
 20
408.550513
 30
0.0
 11
90.244135
 21
413.250513
 31
0.0
  0
LINE
  8
LC-003-005-----0
  6
CONTINUOUS
  5
108
 10
84.978449
 20
408.550513
 30
0.0
 11
89.678449
 21
413.250513
 31
0.0
  0
LINE
  8
LC-003-005-----0
  6
CONTINUOUS
  5
109
 10
84.510393
 20
408.648141
 30
0.0
 11
89.112764
 21
413.250513
 31
0.0
  0
LINE
  8
LC-003-005-----0
  6
CONTINUOUS
  5
10A
 10
84.510393
 20
409.213827
 30
0.0
 11
88.547079
 21
413.250513
 31
0.0
  0
LINE
  8
LC-003-005-----0
  6
CONTINUOUS
  5
10B
 10
84.510393
 20
409.779512
 30
0.0
 11
87.981393
 21
413.250513
 31
0.0
  0
LINE
  8
LC-003-005-----0
  6
CONTINUOUS
  5
10C
 10
84.510393
 20
410.345197
 30
0.0
 11
87.415708
 21
413.250513
 31
0.0
  0
LINE
  8
LC-003-005-----0
  6
CONTINUOUS
  5
10D
 10
84.510393
 20
410.910883
 30
0.0
 11
86.850022
 21
413.250513
 31
0.0
  0
LINE
  8
LC-003-005-----0
  6
CONTINUOUS
  5
10E
 10
84.510393
 20
411.476568
 30
0.0
 11
86.284337
 21
413.250513
 31
0.0
  0
LINE
  8
LC-003-005-----0
  6
CONTINUOUS
  5
10F
 10
84.510393
 20
412.042254
 30
0.0
 11
85.718651
 21
413.250513
 31
0.0
  0
LINE
  8
LC-003-005-----0
  6
CONTINUOUS
  5
110
 10
84.510393
 20
412.607939
 30
0.0
 11
85.152966
 21
413.250513
 31
0.0
  0
LINE
  8
LC-003-005-----0
  6
CONTINUOUS
  5
111
 10
84.510393
 20
413.173625
 30
0.0
 11
84.587281
 21
413.250513
 31
0.0
  0
ENDBLK
  8
0
  5
112
  0
BLOCK
  8
0
  5
114
  2
*X16
 70
    65
 10
104.510393
 20
408.550513
 30
0.0
  3
*X16
  0
LINE
  8
LC-003-005-----0
  6
CONTINUOUS
  5
115
 10
114.394092
 20
408.550513
 30
0.0
 11
114.510393
 21
408.666814
 31
0.0
  0
LINE
  8
LC-003-005-----0
  6
CONTINUOUS
  5
116
 10
113.828406
 20
408.550513
 30
0.0
 11
114.510393
 21
409.232499
 31
0.0
  0
LINE
  8
LC-003-005-----0
  6
CONTINUOUS
  5
117
 10
113.262721
 20
408.550513
 30
0.0
 11
114.510393
 21
409.798184
 31
0.0
  0
LINE
  8
LC-003-005-----0
  6
CONTINUOUS
  5
118
 10
112.697035
 20
408.550513
 30
0.0
 11
114.510393
 21
410.36387
 31
0.0
  0
LINE
  8
LC-003-005-----0
  6
CONTINUOUS
  5
119
 10
112.13135
 20
408.550513
 30
0.0
 11
114.510393
 21
410.929555
 31
0.0
  0
LINE
  8
LC-003-005-----0
  6
CONTINUOUS
  5
11A
 10
111.565664
 20
408.550513
 30
0.0
 11
114.510393
 21
411.495241
 31
0.0
  0
LINE
  8
LC-003-005-----0
  6
CONTINUOUS
  5
11B
 10
110.999979
 20
408.550513
 30
0.0
 11
114.510393
 21
412.060926
 31
0.0
  0
LINE
  8
LC-003-005-----0
  6
CONTINUOUS
  5
11C
 10
110.434294
 20
408.550513
 30
0.0
 11
114.510393
 21
412.626612
 31
0.0
  0
LINE
  8
LC-003-005-----0
  6
CONTINUOUS
  5
11D
 10
109.868608
 20
408.550513
 30
0.0
 11
114.510393
 21
413.192297
 31
0.0
  0
LINE
  8
LC-003-005-----0
  6
CONTINUOUS
  5
11E
 10
109.302923
 20
408.550513
 30
0.0
 11
114.002923
 21
413.250513
 31
0.0
  0
LINE
  8
LC-003-005-----0
  6
CONTINUOUS
  5
11F
 10
108.737237
 20
408.550513
 30
0.0
 11
113.437237
 21
413.250513
 31
0.0
  0
LINE
  8
LC-003-005-----0
  6
CONTINUOUS
  5
120
 10
108.171552
 20
408.550513
 30
0.0
 11
112.871552
 21
413.250513
 31
0.0
  0
LINE
  8
LC-003-005-----0
  6
CONTINUOUS
  5
121
 10
107.605866
 20
408.550513
 30
0.0
 11
112.305866
 21
413.250513
 31
0.0
  0
LINE
  8
LC-003-005-----0
  6
CONTINUOUS
  5
122
 10
107.040181
 20
408.550513
 30
0.0
 11
111.740181
 21
413.250513
 31
0.0
  0
LINE
  8
LC-003-005-----0
  6
CONTINUOUS
  5
123
 10
106.474496
 20
408.550513
 30
0.0
 11
111.174496
 21
413.250513
 31
0.0
  0
LINE
  8
LC-003-005-----0
  6
CONTINUOUS
  5
124
 10
105.90881
 20
408.550513
 30
0.0
 11
110.60881
 21
413.250513
 31
0.0
  0
LINE
  8
LC-003-005-----0
  6
CONTINUOUS
  5
125
 10
105.343125
 20
408.550513
 30
0.0
 11
110.043125
 21
413.250513
 31
0.0
  0
LINE
  8
LC-003-005-----0
  6
CONTINUOUS
  5
126
 10
104.777439
 20
408.550513
 30
0.0
 11
109.477439
 21
413.250513
 31
0.0
  0
LINE
  8
LC-003-005-----0
  6
CONTINUOUS
  5
127
 10
104.510393
 20
408.849151
 30
0.0
 11
108.911754
 21
413.250513
 31
0.0
  0
LINE
  8
LC-003-005-----0
  6
CONTINUOUS
  5
128
 10
104.510393
 20
409.414837
 30
0.0
 11
108.346068
 21
413.250513
 31
0.0
  0
LINE
  8
LC-003-005-----0
  6
CONTINUOUS
  5
129
 10
104.510393
 20
409.980522
 30
0.0
 11
107.780383
 21
413.250513
 31
0.0
  0
LINE
  8
LC-003-005-----0
  6
CONTINUOUS
  5
12A
 10
104.510393
 20
410.546208
 30
0.0
 11
107.214698
 21
413.250513
 31
0.0
  0
LINE
  8
LC-003-005-----0
  6
CONTINUOUS
  5
12B
 10
104.510393
 20
411.111893
 30
0.0
 11
106.649012
 21
413.250513
 31
0.0
  0
LINE
  8
LC-003-005-----0
  6
CONTINUOUS
  5
12C
 10
104.510393
 20
411.677578
 30
0.0
 11
106.083327
 21
413.250513
 31
0.0
  0
LINE
  8
LC-003-005-----0
  6
CONTINUOUS
  5
12D
 10
104.510393
 20
412.243264
 30
0.0
 11
105.517641
 21
413.250513
 31
0.0
  0
LINE
  8
LC-003-005-----0
  6
CONTINUOUS
  5
12E
 10
104.510393
 20
412.808949
 30
0.0
 11
104.951956
 21
413.250513
 31
0.0
  0
ENDBLK
  8
0
  5
12F
  0
BLOCK
  8
0
  5
131
  2
*X17
 70
    65
 10
124.510393
 20
408.550513
 30
0.0
  3
*X17
  0
LINE
  8
LC-003-005-----0
  6
CONTINUOUS
  5
132
 10
134.193081
 20
408.550513
 30
0.0
 11
134.510393
 21
408.867824
 31
0.0
  0
LINE
  8
LC-003-005-----0
  6
CONTINUOUS
  5
133
 10
133.627396
 20
408.550513
 30
0.0
 11
134.510393
 21
409.433509
 31
0.0
  0
LINE
  8
LC-003-005-----0
  6
CONTINUOUS
  5
134
 10
133.061711
 20
408.550513
 30
0.0
 11
134.510393
 21
409.999195
 31
0.0
  0
LINE
  8
LC-003-005-----0
  6
CONTINUOUS
  5
135
 10
132.496025
 20
408.550513
 30
0.0
 11
134.510393
 21
410.56488
 31
0.0
  0
LINE
  8
LC-003-005-----0
  6
CONTINUOUS
  5
136
 10
131.93034
 20
408.550513
 30
0.0
 11
134.510393
 21
411.130565
 31
0.0
  0
LINE
  8
LC-003-005-----0
  6
CONTINUOUS
  5
137
 10
131.364654
 20
408.550513
 30
0.0
 11
134.510393
 21
411.696251
 31
0.0
  0
LINE
  8
LC-003-005-----0
  6
CONTINUOUS
  5
138
 10
130.798969
 20
408.550513
 30
0.0
 11
134.510393
 21
412.261936
 31
0.0
  0
LINE
  8
LC-003-005-----0
  6
CONTINUOUS
  5
139
 10
130.233283
 20
408.550513
 30
0.0
 11
134.510393
 21
412.827622
 31
0.0
  0
LINE
  8
LC-003-005-----0
  6
CONTINUOUS
  5
13A
 10
129.667598
 20
408.550513
 30
0.0
 11
134.367598
 21
413.250513
 31
0.0
  0
LINE
  8
LC-003-005-----0
  6
CONTINUOUS
  5
13B
 10
129.101913
 20
408.550513
 30
0.0
 11
133.801913
 21
413.250513
 31
0.0
  0
LINE
  8
LC-003-005-----0
  6
CONTINUOUS
  5
13C
 10
128.536227
 20
408.550513
 30
0.0
 11
133.236227
 21
413.250513
 31
0.0
  0
LINE
  8
LC-003-005-----0
  6
CONTINUOUS
  5
13D
 10
127.970542
 20
408.550513
 30
0.0
 11
132.670542
 21
413.250513
 31
0.0
  0
LINE
  8
LC-003-005-----0
  6
CONTINUOUS
  5
13E
 10
127.404856
 20
408.550513
 30
0.0
 11
132.104856
 21
413.250513
 31
0.0
  0
LINE
  8
LC-003-005-----0
  6
CONTINUOUS
  5
13F
 10
126.839171
 20
408.550513
 30
0.0
 11
131.539171
 21
413.250513
 31
0.0
  0
LINE
  8
LC-003-005-----0
  6
CONTINUOUS
  5
140
 10
126.273485
 20
408.550513
 30
0.0
 11
130.973485
 21
413.250513
 31
0.0
  0
LINE
  8
LC-003-005-----0
  6
CONTINUOUS
  5
141
 10
125.7078
 20
408.550513
 30
0.0
 11
130.4078
 21
413.250513
 31
0.0
  0
LINE
  8
LC-003-005-----0
  6
CONTINUOUS
  5
142
 10
125.142115
 20
408.550513
 30
0.0
 11
129.842115
 21
413.250513
 31
0.0
  0
LINE
  8
LC-003-005-----0
  6
CONTINUOUS
  5
143
 10
124.576429
 20
408.550513
 30
0.0
 11
129.276429
 21
413.250513
 31
0.0
  0
LINE
  8
LC-003-005-----0
  6
CONTINUOUS
  5
144
 10
124.510393
 20
409.050161
 30
0.0
 11
128.710744
 21
413.250513
 31
0.0
  0
LINE
  8
LC-003-005-----0
  6
CONTINUOUS
  5
145
 10
124.510393
 20
409.615847
 30
0.0
 11
128.145058
 21
413.250513
 31
0.0
  0
LINE
  8
LC-003-005-----0
  6
CONTINUOUS
  5
146
 10
124.510393
 20
410.181532
 30
0.0
 11
127.579373
 21
413.250513
 31
0.0
  0
LINE
  8
LC-003-005-----0
  6
CONTINUOUS
  5
147
 10
124.510393
 20
410.747218
 30
0.0
 11
127.013687
 21
413.250513
 31
0.0
  0
LINE
  8
LC-003-005-----0
  6
CONTINUOUS
  5
148
 10
124.510393
 20
411.312903
 30
0.0
 11
126.448002
 21
413.250513
 31
0.0
  0
LINE
  8
LC-003-005-----0
  6
CONTINUOUS
  5
149
 10
124.510393
 20
411.878589
 30
0.0
 11
125.882317
 21
413.250513
 31
0.0
  0
LINE
  8
LC-003-005-----0
  6
CONTINUOUS
  5
14A
 10
124.510393
 20
412.444274
 30
0.0
 11
125.316631
 21
413.250513
 31
0.0
  0
LINE
  8
LC-003-005-----0
  6
CONTINUOUS
  5
14B
 10
124.510393
 20
413.009959
 30
0.0
 11
124.750946
 21
413.250513
 31
0.0
  0
ENDBLK
  8
0
  5
14C
  0
BLOCK
  8
0
  5
14E
  2
*X18
 70
    65
 10
144.510393
 20
408.550513
 30
0.0
  3
*X18
  0
LINE
  8
LC-003-005-----0
  6
CONTINUOUS
  5
14F
 10
153.992071
 20
408.550513
 30
0.0
 11
154.510393
 21
409.068834
 31
0.0
  0
LINE
  8
LC-003-005-----0
  6
CONTINUOUS
  5
150
 10
153.426386
 20
408.550513
 30
0.0
 11
154.510393
 21
409.634519
 31
0.0
  0
LINE
  8
LC-003-005-----0
  6
CONTINUOUS
  5
151
 10
152.8607
 20
408.550513
 30
0.0
 11
154.510393
 21
410.200205
 31
0.0
  0
LINE
  8
LC-003-005-----0
  6
CONTINUOUS
  5
152
 10
152.295015
 20
408.550513
 30
0.0
 11
154.510393
 21
410.76589
 31
0.0
  0
LINE
  8
LC-003-005-----0
  6
CONTINUOUS
  5
153
 10
151.72933
 20
408.550513
 30
0.0
 11
154.510393
 21
411.331576
 31
0.0
  0
LINE
  8
LC-003-005-----0
  6
CONTINUOUS
  5
154
 10
151.163644
 20
408.550513
 30
0.0
 11
154.510393
 21
411.897261
 31
0.0
  0
LINE
  8
LC-003-005-----0
  6
CONTINUOUS
  5
155
 10
150.597959
 20
408.550513
 30
0.0
 11
154.510393
 21
412.462946
 31
0.0
  0
LINE
  8
LC-003-005-----0
  6
CONTINUOUS
  5
156
 10
150.032273
 20
408.550513
 30
0.0
 11
154.510393
 21
413.028632
 31
0.0
  0
LINE
  8
LC-003-005-----0
  6
CONTINUOUS
  5
157
 10
149.466588
 20
408.550513
 30
0.0
 11
154.166588
 21
413.250513
 31
0.0
  0
LINE
  8
LC-003-005-----0
  6
CONTINUOUS
  5
158
 10
148.900902
 20
408.550513
 30
0.0
 11
153.600902
 21
413.250513
 31
0.0
  0
LINE
  8
LC-003-005-----0
  6
CONTINUOUS
  5
159
 10
148.335217
 20
408.550513
 30
0.0
 11
153.035217
 21
413.250513
 31
0.0
  0
LINE
  8
LC-003-005-----0
  6
CONTINUOUS
  5
15A
 10
147.769532
 20
408.550513
 30
0.0
 11
152.469532
 21
413.250513
 31
0.0
  0
LINE
  8
LC-003-005-----0
  6
CONTINUOUS
  5
15B
 10
147.203846
 20
408.550513
 30
0.0
 11
151.903846
 21
413.250513
 31
0.0
  0
LINE
  8
LC-003-005-----0
  6
CONTINUOUS
  5
15C
 10
146.638161
 20
408.550513
 30
0.0
 11
151.338161
 21
413.250513
 31
0.0
  0
LINE
  8
LC-003-005-----0
  6
CONTINUOUS
  5
15D
 10
146.072475
 20
408.550513
 30
0.0
 11
150.772475
 21
413.250513
 31
0.0
  0
LINE
  8
LC-003-005-----0
  6
CONTINUOUS
  5
15E
 10
145.50679
 20
408.550513
 30
0.0
 11
150.20679
 21
413.250513
 31
0.0
  0
LINE
  8
LC-003-005-----0
  6
CONTINUOUS
  5
15F
 10
144.941104
 20
408.550513
 30
0.0
 11
149.641104
 21
413.250513
 31
0.0
  0
LINE
  8
LC-003-005-----0
  6
CONTINUOUS
  5
160
 10
144.510393
 20
408.685486
 30
0.0
 11
149.075419
 21
413.250513
 31
0.0
  0
LINE
  8
LC-003-005-----0
  6
CONTINUOUS
  5
161
 10
144.510393
 20
409.251172
 30
0.0
 11
148.509734
 21
413.250513
 31
0.0
  0
LINE
  8
LC-003-005-----0
  6
CONTINUOUS
  5
162
 10
144.510393
 20
409.816857
 30
0.0
 11
147.944048
 21
413.250513
 31
0.0
  0
LINE
  8
LC-003-005-----0
  6
CONTINUOUS
  5
163
 10
144.510393
 20
410.382542
 30
0.0
 11
147.378363
 21
413.250513
 31
0.0
  0
LINE
  8
LC-003-005-----0
  6
CONTINUOUS
  5
164
 10
144.510393
 20
410.948228
 30
0.0
 11
146.812677
 21
413.250513
 31
0.0
  0
LINE
  8
LC-003-005-----0
  6
CONTINUOUS
  5
165
 10
144.510393
 20
411.513913
 30
0.0
 11
146.246992
 21
413.250513
 31
0.0
  0
LINE
  8
LC-003-005-----0
  6
CONTINUOUS
  5
166
 10
144.510393
 20
412.079599
 30
0.0
 11
145.681306
 21
413.250513
 31
0.0
  0
LINE
  8
LC-003-005-----0
  6
CONTINUOUS
  5
167
 10
144.510393
 20
412.645284
 30
0.0
 11
145.115621
 21
413.250513
 31
0.0
  0
LINE
  8
LC-003-005-----0
  6
CONTINUOUS
  5
168
 10
144.510393
 20
413.21097
 30
0.0
 11
144.549936
 21
413.250513
 31
0.0
  0
ENDBLK
  8
0
  5
169
  0
BLOCK
  8
0
  5
16B
  2
*X19
 70
    65
 10
164.510393
 20
408.550513
 30
0.0
  3
*X19
  0
LINE
  8
LC-003-005-----0
  6
CONTINUOUS
  5
16C
 10
174.356747
 20
408.550513
 30
0.0
 11
174.510393
 21
408.704159
 31
0.0
  0
LINE
  8
LC-003-005-----0
  6
CONTINUOUS
  5
16D
 10
173.791061
 20
408.550513
 30
0.0
 11
174.510393
 21
409.269844
 31
0.0
  0
LINE
  8
LC-003-005-----0
  6
CONTINUOUS
  5
16E
 10
173.225376
 20
408.550513
 30
0.0
 11
174.510393
 21
409.835529
 31
0.0
  0
LINE
  8
LC-003-005-----0
  6
CONTINUOUS
  5
16F
 10
172.65969
 20
408.550513
 30
0.0
 11
174.510393
 21
410.401215
 31
0.0
  0
LINE
  8
LC-003-005-----0
  6
CONTINUOUS
  5
170
 10
172.094005
 20
408.550513
 30
0.0
 11
174.510393
 21
410.9669
 31
0.0
  0
LINE
  8
LC-003-005-----0
  6
CONTINUOUS
  5
171
 10
171.528319
 20
408.550513
 30
0.0
 11
174.510393
 21
411.532586
 31
0.0
  0
LINE
  8
LC-003-005-----0
  6
CONTINUOUS
  5
172
 10
170.962634
 20
408.550513
 30
0.0
 11
174.510393
 21
412.098271
 31
0.0
  0
LINE
  8
LC-003-005-----0
  6
CONTINUOUS
  5
173
 10
170.396949
 20
408.550513
 30
0.0
 11
174.510393
 21
412.663957
 31
0.0
  0
LINE
  8
LC-003-005-----0
  6
CONTINUOUS
  5
174
 10
169.831263
 20
408.550513
 30
0.0
 11
174.510393
 21
413.229642
 31
0.0
  0
LINE
  8
LC-003-005-----0
  6
CONTINUOUS
  5
175
 10
169.265578
 20
408.550513
 30
0.0
 11
173.965578
 21
413.250513
 31
0.0
  0
LINE
  8
LC-003-005-----0
  6
CONTINUOUS
  5
176
 10
168.699892
 20
408.550513
 30
0.0
 11
173.399892
 21
413.250513
 31
0.0
  0
LINE
  8
LC-003-005-----0
  6
CONTINUOUS
  5
177
 10
168.134207
 20
408.550513
 30
0.0
 11
172.834207
 21
413.250513
 31
0.0
  0
LINE
  8
LC-003-005-----0
  6
CONTINUOUS
  5
178
 10
167.568521
 20
408.550513
 30
0.0
 11
172.268521
 21
413.250513
 31
0.0
  0
LINE
  8
LC-003-005-----0
  6
CONTINUOUS
  5
179
 10
167.002836
 20
408.550513
 30
0.0
 11
171.702836
 21
413.250513
 31
0.0
  0
LINE
  8
LC-003-005-----0
  6
CONTINUOUS
  5
17A
 10
166.437151
 20
408.550513
 30
0.0
 11
171.137151
 21
413.250513
 31
0.0
  0
LINE
  8
LC-003-005-----0
  6
CONTINUOUS
  5
17B
 10
165.871465
 20
408.550513
 30
0.0
 11
170.571465
 21
413.250513
 31
0.0
  0
LINE
  8
LC-003-005-----0
  6
CONTINUOUS
  5
17C
 10
165.30578
 20
408.550513
 30
0.0
 11
170.00578
 21
413.250513
 31
0.0
  0
LINE
  8
LC-003-005-----0
  6
CONTINUOUS
  5
17D
 10
164.740094
 20
408.550513
 30
0.0
 11
169.440094
 21
413.250513
 31
0.0
  0
LINE
  8
LC-003-005-----0
  6
CONTINUOUS
  5
17E
 10
164.510393
 20
408.886496
 30
0.0
 11
168.874409
 21
413.250513
 31
0.0
  0
LINE
  8
LC-003-005-----0
  6
CONTINUOUS
  5
17F
 10
164.510393
 20
409.452182
 30
0.0
 11
168.308723
 21
413.250513
 31
0.0
  0
LINE
  8
LC-003-005-----0
  6
CONTINUOUS
  5
180
 10
164.510393
 20
410.017867
 30
0.0
 11
167.743038
 21
413.250513
 31
0.0
  0
LINE
  8
LC-003-005-----0
  6
CONTINUOUS
  5
181
 10
164.510393
 20
410.583553
 30
0.0
 11
167.177353
 21
413.250513
 31
0.0
  0
LINE
  8
LC-003-005-----0
  6
CONTINUOUS
  5
182
 10
164.510393
 20
411.149238
 30
0.0
 11
166.611667
 21
413.250513
 31
0.0
  0
LINE
  8
LC-003-005-----0
  6
CONTINUOUS
  5
183
 10
164.510393
 20
411.714923
 30
0.0
 11
166.045982
 21
413.250513
 31
0.0
  0
LINE
  8
LC-003-005-----0
  6
CONTINUOUS
  5
184
 10
164.510393
 20
412.280609
 30
0.0
 11
165.480296
 21
413.250513
 31
0.0
  0
LINE
  8
LC-003-005-----0
  6
CONTINUOUS
  5
185
 10
164.510393
 20
412.846294
 30
0.0
 11
164.914611
 21
413.250513
 31
0.0
  0
ENDBLK
  8
0
  5
186
  0
BLOCK
  8
0
  5
188
  2
*X20
 70
    65
 10
184.510393
 20
407.775
 30
0.0
  3
*X20
  0
LINE
  8
LC-003-005-----0
  6
CONTINUOUS
  5
189
 10
193.982363
 20
407.811454
 30
0.0
 11
194.510393
 21
408.339483
 31
0.0
  0
LINE
  8
LC-003-005-----0
  6
CONTINUOUS
  5
18A
 10
193.453347
 20
407.848123
 30
0.0
 11
194.510393
 21
408.905169
 31
0.0
  0
LINE
  8
LC-003-005-----0
  6
CONTINUOUS
  5
18B
 10
192.92433
 20
407.884791
 30
0.0
 11
194.510393
 21
409.470854
 31
0.0
  0
LINE
  8
LC-003-005-----0
  6
CONTINUOUS
  5
18C
 10
192.395313
 20
407.92146
 30
0.0
 11
194.510393
 21
410.03654
 31
0.0
  0
LINE
  8
LC-003-005-----0
  6
CONTINUOUS
  5
18D
 10
191.866296
 20
407.958128
 30
0.0
 11
194.510393
 21
410.602225
 31
0.0
  0
LINE
  8
LC-003-005-----0
  6
CONTINUOUS
  5
18E
 10
191.337279
 20
407.994797
 30
0.0
 11
194.510393
 21
411.16791
 31
0.0
  0
LINE
  8
LC-003-005-----0
  6
CONTINUOUS
  5
18F
 10
190.808263
 20
408.031466
 30
0.0
 11
194.510393
 21
411.733596
 31
0.0
  0
LINE
  8
LC-003-005-----0
  6
CONTINUOUS
  5
190
 10
190.279246
 20
408.068134
 30
0.0
 11
194.510393
 21
412.299281
 31
0.0
  0
LINE
  8
LC-003-005-----0
  6
CONTINUOUS
  5
191
 10
189.750229
 20
408.104803
 30
0.0
 11
194.156114
 21
412.510688
 31
0.0
  0
LINE
  8
LC-003-005-----0
  6
CONTINUOUS
  5
192
 10
189.221212
 20
408.141472
 30
0.0
 11
193.627097
 21
412.547356
 31
0.0
  0
LINE
  8
LC-003-005-----0
  6
CONTINUOUS
  5
193
 10
188.692195
 20
408.17814
 30
0.0
 11
193.09808
 21
412.584025
 31
0.0
  0
LINE
  8
LC-003-005-----0
  6
CONTINUOUS
  5
194
 10
188.163179
 20
408.214809
 30
0.0
 11
192.569063
 21
412.620694
 31
0.0
  0
LINE
  8
LC-003-005-----0
  6
CONTINUOUS
  5
195
 10
187.634162
 20
408.251478
 30
0.0
 11
192.040046
 21
412.657362
 31
0.0
  0
LINE
  8
LC-003-005-----0
  6
CONTINUOUS
  5
196
 10
187.105145
 20
408.288146
 30
0.0
 11
191.51103
 21
412.694031
 31
0.0
  0
LINE
  8
LC-003-005-----0
  6
CONTINUOUS
  5
197
 10
186.576128
 20
408.324815
 30
0.0
 11
190.982013
 21
412.730699
 31
0.0
  0
LINE
  8
LC-003-005-----0
  6
CONTINUOUS
  5
198
 10
186.047112
 20
408.361484
 30
0.0
 11
190.452996
 21
412.767368
 31
0.0
  0
LINE
  8
LC-003-005-----0
  6
CONTINUOUS
  5
199
 10
185.518095
 20
408.398152
 30
0.0
 11
189.923979
 21
412.804037
 31
0.0
  0
LINE
  8
LC-003-005-----0
  6
CONTINUOUS
  5
19A
 10
184.989078
 20
408.434821
 30
0.0
 11
189.394963
 21
412.840705
 31
0.0
  0
LINE
  8
LC-003-005-----0
  6
CONTINUOUS
  5
19B
 10
184.510393
 20
408.521821
 30
0.0
 11
188.865946
 21
412.877374
 31
0.0
  0
LINE
  8
LC-003-005-----0
  6
CONTINUOUS
  5
19C
 10
184.510393
 20
409.087506
 30
0.0
 11
188.336929
 21
412.914043
 31
0.0
  0
LINE
  8
LC-003-005-----0
  6
CONTINUOUS
  5
19D
 10
184.510393
 20
409.653192
 30
0.0
 11
187.807912
 21
412.950711
 31
0.0
  0
LINE
  8
LC-003-005-----0
  6
CONTINUOUS
  5
19E
 10
184.510393
 20
410.218877
 30
0.0
 11
187.278895
 21
412.98738
 31
0.0
  0
LINE
  8
LC-003-005-----0
  6
CONTINUOUS
  5
19F
 10
184.510393
 20
410.784563
 30
0.0
 11
186.749879
 21
413.024049
 31
0.0
  0
LINE
  8
LC-003-005-----0
  6
CONTINUOUS
  5
1A0
 10
184.510393
 20
411.350248
 30
0.0
 11
186.220862
 21
413.060717
 31
0.0
  0
LINE
  8
LC-003-005-----0
  6
CONTINUOUS
  5
1A1
 10
184.510393
 20
411.915933
 30
0.0
 11
185.691845
 21
413.097386
 31
0.0
  0
LINE
  8
LC-003-005-----0
  6
CONTINUOUS
  5
1A2
 10
184.510393
 20
412.481619
 30
0.0
 11
185.162828
 21
413.134055
 31
0.0
  0
LINE
  8
LC-003-005-----0
  6
CONTINUOUS
  5
1A3
 10
184.510393
 20
413.047304
 30
0.0
 11
184.633811
 21
413.170723
 31
0.0
  0
ENDBLK
  8
0
  5
1A4
  0
BLOCK
  8
0
  5
1A6
  2
*X21
 70
    65
 10
204.510393
 20
406.388706
 30
0.0
  3
*X21
  0
LINE
  8
LC-003-005-----0
  6
CONTINUOUS
  5
1A7
 10
214.085001
 20
406.418046
 30
0.0
 11
214.510393
 21
406.843437
 31
0.0
  0
LINE
  8
LC-003-005-----0
  6
CONTINUOUS
  5
1A8
 10
213.555984
 20
406.454714
 30
0.0
 11
214.510393
 21
407.409123
 31
0.0
  0
LINE
  8
LC-003-005-----0
  6
CONTINUOUS
  5
1A9
 10
213.026967
 20
406.491383
 30
0.0
 11
214.510393
 21
407.974808
 31
0.0
  0
LINE
  8
LC-003-005-----0
  6
CONTINUOUS
  5
1AA
 10
212.497951
 20
406.528051
 30
0.0
 11
214.510393
 21
408.540493
 31
0.0
  0
LINE
  8
LC-003-005-----0
  6
CONTINUOUS
  5
1AB
 10
211.968934
 20
406.56472
 30
0.0
 11
214.510393
 21
409.106179
 31
0.0
  0
LINE
  8
LC-003-005-----0
  6
CONTINUOUS
  5
1AC
 10
211.439917
 20
406.601389
 30
0.0
 11
214.510393
 21
409.671864
 31
0.0
  0
LINE
  8
LC-003-005-----0
  6
CONTINUOUS
  5
1AD
 10
210.9109
 20
406.638057
 30
0.0
 11
214.510393
 21
410.23755
 31
0.0
  0
LINE
  8
LC-003-005-----0
  6
CONTINUOUS
  5
1AE
 10
210.381884
 20
406.674726
 30
0.0
 11
214.510393
 21
410.803235
 31
0.0
  0
LINE
  8
LC-003-005-----0
  6
CONTINUOUS
  5
1AF
 10
209.852867
 20
406.711395
 30
0.0
 11
214.258751
 21
411.117279
 31
0.0
  0
LINE
  8
LC-003-005-----0
  6
CONTINUOUS
  5
1B0
 10
209.32385
 20
406.748063
 30
0.0
 11
213.729735
 21
411.153948
 31
0.0
  0
LINE
  8
LC-003-005-----0
  6
CONTINUOUS
  5
1B1
 10
208.794833
 20
406.784732
 30
0.0
 11
213.200718
 21
411.190616
 31
0.0
  0
LINE
  8
LC-003-005-----0
  6
CONTINUOUS
  5
1B2
 10
208.265816
 20
406.821401
 30
0.0
 11
212.671701
 21
411.227285
 31
0.0
  0
LINE
  8
LC-003-005-----0
  6
CONTINUOUS
  5
1B3
 10
207.7368
 20
406.858069
 30
0.0
 11
212.142684
 21
411.263954
 31
0.0
  0
LINE
  8
LC-003-005-----0
  6
CONTINUOUS
  5
1B4
 10
207.207783
 20
406.894738
 30
0.0
 11
211.613667
 21
411.300622
 31
0.0
  0
LINE
  8
LC-003-005-----0
  6
CONTINUOUS
  5
1B5
 10
206.678766
 20
406.931407
 30
0.0
 11
211.084651
 21
411.337291
 31
0.0
  0
LINE
  8
LC-003-005-----0
  6
CONTINUOUS
  5
1B6
 10
206.149749
 20
406.968075
 30
0.0
 11
210.555634
 21
411.37396
 31
0.0
  0
LINE
  8
LC-003-005-----0
  6
CONTINUOUS
  5
1B7
 10
205.620733
 20
407.004744
 30
0.0
 11
210.026617
 21
411.410628
 31
0.0
  0
LINE
  8
LC-003-005-----0
  6
CONTINUOUS
  5
1B8
 10
205.091716
 20
407.041412
 30
0.0
 11
209.4976
 21
411.447297
 31
0.0
  0
LINE
  8
LC-003-005-----0
  6
CONTINUOUS
  5
1B9
 10
204.562699
 20
407.078081
 30
0.0
 11
208.968583
 21
411.483966
 31
0.0
  0
LINE
  8
LC-003-005-----0
  6
CONTINUOUS
  5
1BA
 10
204.510393
 20
407.59146
 30
0.0
 11
208.439567
 21
411.520634
 31
0.0
  0
LINE
  8
LC-003-005-----0
  6
CONTINUOUS
  5
1BB
 10
204.510393
 20
408.157146
 30
0.0
 11
207.91055
 21
411.557303
 31
0.0
  0
LINE
  8
LC-003-005-----0
  6
CONTINUOUS
  5
1BC
 10
204.510393
 20
408.722831
 30
0.0
 11
207.381533
 21
411.593972
 31
0.0
  0
LINE
  8
LC-003-005-----0
  6
CONTINUOUS
  5
1BD
 10
204.510393
 20
409.288516
 30
0.0
 11
206.852516
 21
411.63064
 31
0.0
  0
LINE
  8
LC-003-005-----0
  6
CONTINUOUS
  5
1BE
 10
204.510393
 20
409.854202
 30
0.0
 11
206.3235
 21
411.667309
 31
0.0
  0
LINE
  8
LC-003-005-----0
  6
CONTINUOUS
  5
1BF
 10
204.510393
 20
410.419887
 30
0.0
 11
205.794483
 21
411.703977
 31
0.0
  0
LINE
  8
LC-003-005-----0
  6
CONTINUOUS
  5
1C0
 10
204.510393
 20
410.985573
 30
0.0
 11
205.265466
 21
411.740646
 31
0.0
  0
LINE
  8
LC-003-005-----0
  6
CONTINUOUS
  5
1C1
 10
204.510393
 20
411.551258
 30
0.0
 11
204.736449
 21
411.777315
 31
0.0
  0
ENDBLK
  8
0
  5
1C2
  0
BLOCK
  8
0
  5
1C4
  2
*X22
 70
    65
 10
210.698171
 20
402.931058
 30
0.0
  3
*X22
  0
LINE
  8
LC-003-005-----0
  6
CONTINUOUS
  5
1C5
 10
234.413036
 20
402.987292
 30
0.0
 11
234.510393
 21
403.084649
 31
0.0
  0
LINE
  8
LC-003-005-----0
  6
CONTINUOUS
  5
1C6
 10
233.885673
 20
403.025615
 30
0.0
 11
234.510393
 21
403.650335
 31
0.0
  0
LINE
  8
LC-003-005-----0
  6
CONTINUOUS
  5
1C7
 10
233.358311
 20
403.063938
 30
0.0
 11
234.510393
 21
404.21602
 31
0.0
  0
LINE
  8
LC-003-005-----0
  6
CONTINUOUS
  5
1C8
 10
232.830948
 20
403.102261
 30
0.0
 11
234.510393
 21
404.781706
 31
0.0
  0
LINE
  8
LC-003-005-----0
  6
CONTINUOUS
  5
1C9
 10
232.303586
 20
403.140584
 30
0.0
 11
234.510393
 21
405.347391
 31
0.0
  0
LINE
  8
LC-003-005-----0
  6
CONTINUOUS
  5
1CA
 10
231.776224
 20
403.178908
 30
0.0
 11
234.510393
 21
405.913076
 31
0.0
  0
LINE
  8
LC-003-005-----0
  6
CONTINUOUS
  5
1CB
 10
231.248861
 20
403.217231
 30
0.0
 11
234.510393
 21
406.478762
 31
0.0
  0
LINE
  8
LC-003-005-----0
  6
CONTINUOUS
  5
1CC
 10
230.721499
 20
403.255554
 30
0.0
 11
234.510393
 21
407.044447
 31
0.0
  0
LINE
  8
LC-003-005-----0
  6
CONTINUOUS
  5
1CD
 10
230.194137
 20
403.293877
 30
0.0
 11
234.510393
 21
407.610133
 31
0.0
  0
LINE
  8
LC-003-005-----0
  6
CONTINUOUS
  5
1CE
 10
229.679867
 20
403.345293
 30
0.0
 11
234.0582
 21
407.723626
 31
0.0
  0
LINE
  8
LC-003-005-----0
  6
CONTINUOUS
  5
1CF
 10
229.209066
 20
403.440177
 30
0.0
 11
233.530838
 21
407.761949
 31
0.0
  0
LINE
  8
LC-003-005-----0
  6
CONTINUOUS
  5
1D0
 10
228.746483
 20
403.543279
 30
0.0
 11
233.003475
 21
407.800272
 31
0.0
  0
LINE
  8
LC-003-005-----0
  6
CONTINUOUS
  5
1D1
 10
228.291804
 20
403.654286
 30
0.0
 11
232.476113
 21
407.838595
 31
0.0
  0
LINE
  8
LC-003-005-----0
  6
CONTINUOUS
  5
1D2
 10
227.844747
 20
403.772914
 30
0.0
 11
231.948751
 21
407.876918
 31
0.0
  0
LINE
  8
LC-003-005-----0
  6
CONTINUOUS
  5
1D3
 10
227.405052
 20
403.898905
 30
0.0
 11
231.421388
 21
407.915241
 31
0.0
  0
LINE
  8
LC-003-005-----0
  6
CONTINUOUS
  5
1D4
 10
226.972484
 20
404.032022
 30
0.0
 11
230.894026
 21
407.953564
 31
0.0
  0
LINE
  8
LC-003-005-----0
  6
CONTINUOUS
  5
1D5
 10
226.546827
 20
404.172051
 30
0.0
 11
230.374792
 21
408.000015
 31
0.0
  0
LINE
  8
LC-003-005-----0
  6
CONTINUOUS
  5
1D6
 10
226.127883
 20
404.318792
 30
0.0
 11
229.909114
 21
408.100023
 31
0.0
  0
LINE
  8
LC-003-005-----0
  6
CONTINUOUS
  5
1D7
 10
225.71547
 20
404.472064
 30
0.0
 11
229.453431
 21
408.210025
 31
0.0
  0
LINE
  8
LC-003-005-----0
  6
CONTINUOUS
  5
1D8
 10
225.30942
 20
404.6317
 30
0.0
 11
229.007291
 21
408.329571
 31
0.0
  0
LINE
  8
LC-003-005-----0
  6
CONTINUOUS
  5
1D9
 10
224.909582
 20
404.797547
 30
0.0
 11
228.570295
 21
408.45826
 31
0.0
  0
LINE
  8
LC-003-005-----0
  6
CONTINUOUS
  5
1DA
 10
224.515812
 20
404.969463
 30
0.0
 11
228.142083
 21
408.595734
 31
0.0
  0
LINE
  8
LC-003-005-----0
  6
CONTINUOUS
  5
1DB
 10
224.510393
 20
405.529729
 30
0.0
 11
227.722336
 21
408.741672
 31
0.0
  0
LINE
  8
LC-003-005-----0
  6
CONTINUOUS
  5
1DC
 10
224.510393
 20
406.095414
 30
0.0
 11
227.310764
 21
408.895786
 31
0.0
  0
LINE
  8
LC-003-005-----0
  6
CONTINUOUS
  5
1DD
 10
224.510393
 20
406.661099
 30
0.0
 11
226.90711
 21
409.057817
 31
0.0
  0
LINE
  8
LC-003-005-----0
  6
CONTINUOUS
  5
1DE
 10
224.510393
 20
407.226785
 30
0.0
 11
226.51114
 21
409.227532
 31
0.0
  0
LINE
  8
LC-003-005-----0
  6
CONTINUOUS
  5
1DF
 10
224.510393
 20
407.79247
 30
0.0
 11
226.122644
 21
409.404721
 31
0.0
  0
LINE
  8
LC-003-005-----0
  6
CONTINUOUS
  5
1E0
 10
224.510393
 20
408.358156
 30
0.0
 11
225.741432
 21
409.589195
 31
0.0
  0
LINE
  8
LC-003-005-----0
  6
CONTINUOUS
  5
1E1
 10
224.510393
 20
408.923841
 30
0.0
 11
225.367335
 21
409.780783
 31
0.0
  0
LINE
  8
LC-003-005-----0
  6
CONTINUOUS
  5
1E2
 10
224.510393
 20
409.489527
 30
0.0
 11
225.000197
 21
409.979331
 31
0.0
  0
LINE
  8
LC-003-005-----0
  6
CONTINUOUS
  5
1E3
 10
224.510393
 20
410.055212
 30
0.0
 11
224.639883
 21
410.184702
 31
0.0
  0
ENDBLK
  8
0
  5
1E4
  0
BLOCK
  8
0
  5
1E6
  2
*X23
 70
    65
 10
402.82
 20
383.940696
 30
0.0
  3
*X23
  0
LINE
  8
LC-003-005-----0
  6
CONTINUOUS
  5
1E7
 10
409.39654
 20
383.940696
 30
0.0
 11
412.82
 21
387.364156
 31
0.0
  0
LINE
  8
LC-003-005-----0
  6
CONTINUOUS
  5
1E8
 10
406.568113
 20
383.940696
 30
0.0
 11
409.068113
 21
386.440696
 31
0.0
  0
LINE
  8
LC-003-005-----0
  6
CONTINUOUS
  5
1E9
 10
410.32
 20
387.692583
 30
0.0
 11
412.82
 21
390.192583
 31
0.0
  0
LINE
  8
LC-003-005-----0
  6
CONTINUOUS
  5
1EA
 10
403.739686
 20
383.940696
 30
0.0
 11
406.239686
 21
386.440696
 31
0.0
  0
LINE
  8
LC-003-005-----0
  6
CONTINUOUS
  5
1EB
 10
410.32
 20
390.52101
 30
0.0
 11
412.82
 21
393.02101
 31
0.0
  0
LINE
  8
LC-003-005-----0
  6
CONTINUOUS
  5
1EC
 10
402.82
 20
385.849437
 30
0.0
 11
403.411259
 21
386.440696
 31
0.0
  0
LINE
  8
LC-003-005-----0
  6
CONTINUOUS
  5
1ED
 10
410.32
 20
393.349437
 30
0.0
 11
412.82
 21
395.849437
 31
0.0
  0
LINE
  8
LC-003-005-----0
  6
CONTINUOUS
  5
1EE
 10
410.32
 20
396.177864
 30
0.0
 11
412.82
 21
398.677864
 31
0.0
  0
LINE
  8
LC-003-005-----0
  6
CONTINUOUS
  5
1EF
 10
410.32
 20
399.006292
 30
0.0
 11
412.82
 21
401.506292
 31
0.0
  0
LINE
  8
LC-003-005-----0
  6
CONTINUOUS
  5
1F0
 10
410.32
 20
401.834719
 30
0.0
 11
412.425622
 21
403.94034
 31
0.0
  0
ENDBLK
  8
0
  5
1F1
  0
BLOCK
  8
0
  5
1F3
  2
*X24
 70
    65
 10
255.82
 20
383.940696
 30
0.0
  3
*X24
  0
LINE
  8
LC-003-005-----0
  6
CONTINUOUS
  5
1F4
 10
265.146757
 20
383.940696
 30
0.0
 11
265.82
 21
384.613939
 31
0.0
  0
LINE
  8
LC-003-005-----0
  6
CONTINUOUS
  5
1F5
 10
262.31833
 20
383.940696
 30
0.0
 11
264.81833
 21
386.440696
 31
0.0
  0
LINE
  8
LC-003-005-----0
  6
CONTINUOUS
  5
1F6
 10
259.489903
 20
383.940696
 30
0.0
 11
261.989903
 21
386.440696
 31
0.0
  0
LINE
  8
LC-003-005-----0
  6
CONTINUOUS
  5
1F7
 10
257.740738
 20
385.019958
 30
0.0
 11
259.161475
 21
386.440696
 31
0.0
  0
LINE
  8
LC-003-005-----0
  6
CONTINUOUS
  5
1F8
 10
256.326524
 20
386.434172
 30
0.0
 11
258.32
 21
388.427648
 31
0.0
  0
LINE
  8
LC-003-005-----0
  6
CONTINUOUS
  5
1F9
 10
255.82
 20
388.756075
 30
0.0
 11
258.32
 21
391.256075
 31
0.0
  0
LINE
  8
LC-003-005-----0
  6
CONTINUOUS
  5
1FA
 10
255.82
 20
391.584502
 30
0.0
 11
258.32
 21
394.084502
 31
0.0
  0
LINE
  8
LC-003-005-----0
  6
CONTINUOUS
  5
1FB
 10
255.82
 20
394.412929
 30
0.0
 11
258.32
 21
396.912929
 31
0.0
  0
LINE
  8
LC-003-005-----0
  6
CONTINUOUS
  5
1FC
 10
255.82
 20
397.241356
 30
0.0
 11
258.32
 21
399.741356
 31
0.0
  0
LINE
  8
LC-003-005-----0
  6
CONTINUOUS
  5
1FD
 10
255.82
 20
400.069783
 30
0.0
 11
258.32
 21
402.569783
 31
0.0
  0
LINE
  8
LC-003-005-----0
  6
CONTINUOUS
  5
1FE
 10
255.82
 20
402.89821
 30
0.0
 11
256.86213
 21
403.94034
 31
0.0
  0
ENDBLK
  8
0
  5
1FF
  0
BLOCK
  8
0
  5
201
  2
*X25
 70
    65
 10
574.129607
 20
408.550513
 30
0.0
  3
*X25
  0
LINE
  8
LC-003-005-----0
  6
CONTINUOUS
  5
202
 10
583.912994
 20
408.550513
 30
0.0
 11
584.129607
 21
408.767126
 31
0.0
  0
LINE
  8
LC-003-005-----0
  6
CONTINUOUS
  5
203
 10
583.347309
 20
408.550513
 30
0.0
 11
584.129607
 21
409.332811
 31
0.0
  0
LINE
  8
LC-003-005-----0
  6
CONTINUOUS
  5
204
 10
582.781623
 20
408.550513
 30
0.0
 11
584.129607
 21
409.898496
 31
0.0
  0
LINE
  8
LC-003-005-----0
  6
CONTINUOUS
  5
205
 10
582.215938
 20
408.550513
 30
0.0
 11
584.129607
 21
410.464182
 31
0.0
  0
LINE
  8
LC-003-005-----0
  6
CONTINUOUS
  5
206
 10
581.650253
 20
408.550513
 30
0.0
 11
584.129607
 21
411.029867
 31
0.0
  0
LINE
  8
LC-003-005-----0
  6
CONTINUOUS
  5
207
 10
581.084567
 20
408.550513
 30
0.0
 11
584.129607
 21
411.595553
 31
0.0
  0
LINE
  8
LC-003-005-----0
  6
CONTINUOUS
  5
208
 10
580.518882
 20
408.550513
 30
0.0
 11
584.129607
 21
412.161238
 31
0.0
  0
LINE
  8
LC-003-005-----0
  6
CONTINUOUS
  5
209
 10
579.953196
 20
408.550513
 30
0.0
 11
584.129607
 21
412.726924
 31
0.0
  0
LINE
  8
LC-003-005-----0
  6
CONTINUOUS
  5
20A
 10
579.387511
 20
408.550513
 30
0.0
 11
584.087511
 21
413.250513
 31
0.0
  0
LINE
  8
LC-003-005-----0
  6
CONTINUOUS
  5
20B
 10
578.821825
 20
408.550513
 30
0.0
 11
583.521825
 21
413.250513
 31
0.0
  0
LINE
  8
LC-003-005-----0
  6
CONTINUOUS
  5
20C
 10
578.25614
 20
408.550513
 30
0.0
 11
582.95614
 21
413.250513
 31
0.0
  0
LINE
  8
LC-003-005-----0
  6
CONTINUOUS
  5
20D
 10
577.690455
 20
408.550513
 30
0.0
 11
582.390455
 21
413.250513
 31
0.0
  0
LINE
  8
LC-003-005-----0
  6
CONTINUOUS
  5
20E
 10
577.124769
 20
408.550513
 30
0.0
 11
581.824769
 21
413.250513
 31
0.0
  0
LINE
  8
LC-003-005-----0
  6
CONTINUOUS
  5
20F
 10
576.559084
 20
408.550513
 30
0.0
 11
581.259084
 21
413.250513
 31
0.0
  0
LINE
  8
LC-003-005-----0
  6
CONTINUOUS
  5
210
 10
575.993398
 20
408.550513
 30
0.0
 11
580.693398
 21
413.250513
 31
0.0
  0
LINE
  8
LC-003-005-----0
  6
CONTINUOUS
  5
211
 10
575.427713
 20
408.550513
 30
0.0
 11
580.127713
 21
413.250513
 31
0.0
  0
LINE
  8
LC-003-005-----0
  6
CONTINUOUS
  5
212
 10
574.862027
 20
408.550513
 30
0.0
 11
579.562027
 21
413.250513
 31
0.0
  0
LINE
  8
LC-003-005-----0
  6
CONTINUOUS
  5
213
 10
574.296342
 20
408.550513
 30
0.0
 11
578.996342
 21
413.250513
 31
0.0
  0
LINE
  8
LC-003-005-----0
  6
CONTINUOUS
  5
214
 10
574.129607
 20
408.949463
 30
0.0
 11
578.430657
 21
413.250513
 31
0.0
  0
LINE
  8
LC-003-005-----0
  6
CONTINUOUS
  5
215
 10
574.129607
 20
409.515149
 30
0.0
 11
577.864971
 21
413.250513
 31
0.0
  0
LINE
  8
LC-003-005-----0
  6
CONTINUOUS
  5
216
 10
574.129607
 20
410.080834
 30
0.0
 11
577.299286
 21
413.250513
 31
0.0
  0
LINE
  8
LC-003-005-----0
  6
CONTINUOUS
  5
217
 10
574.129607
 20
410.64652
 30
0.0
 11
576.7336
 21
413.250513
 31
0.0
  0
LINE
  8
LC-003-005-----0
  6
CONTINUOUS
  5
218
 10
574.129607
 20
411.212205
 30
0.0
 11
576.167915
 21
413.250513
 31
0.0
  0
LINE
  8
LC-003-005-----0
  6
CONTINUOUS
  5
219
 10
574.129607
 20
411.77789
 30
0.0
 11
575.602229
 21
413.250513
 31
0.0
  0
LINE
  8
LC-003-005-----0
  6
CONTINUOUS
  5
21A
 10
574.129607
 20
412.343576
 30
0.0
 11
575.036544
 21
413.250513
 31
0.0
  0
LINE
  8
LC-003-005-----0
  6
CONTINUOUS
  5
21B
 10
574.129607
 20
412.909261
 30
0.0
 11
574.470859
 21
413.250513
 31
0.0
  0
ENDBLK
  8
0
  5
21C
  0
BLOCK
  8
0
  5
21E
  2
*X26
 70
    65
 10
554.129607
 20
408.550513
 30
0.0
  3
*X26
  0
LINE
  8
LC-003-005-----0
  6
CONTINUOUS
  5
21F
 10
564.114004
 20
408.550513
 30
0.0
 11
564.129607
 21
408.566115
 31
0.0
  0
LINE
  8
LC-003-005-----0
  6
CONTINUOUS
  5
220
 10
563.548319
 20
408.550513
 30
0.0
 11
564.129607
 21
409.131801
 31
0.0
  0
LINE
  8
LC-003-005-----0
  6
CONTINUOUS
  5
221
 10
562.982634
 20
408.550513
 30
0.0
 11
564.129607
 21
409.697486
 31
0.0
  0
LINE
  8
LC-003-005-----0
  6
CONTINUOUS
  5
222
 10
562.416948
 20
408.550513
 30
0.0
 11
564.129607
 21
410.263172
 31
0.0
  0
LINE
  8
LC-003-005-----0
  6
CONTINUOUS
  5
223
 10
561.851263
 20
408.550513
 30
0.0
 11
564.129607
 21
410.828857
 31
0.0
  0
LINE
  8
LC-003-005-----0
  6
CONTINUOUS
  5
224
 10
561.285577
 20
408.550513
 30
0.0
 11
564.129607
 21
411.394543
 31
0.0
  0
LINE
  8
LC-003-005-----0
  6
CONTINUOUS
  5
225
 10
560.719892
 20
408.550513
 30
0.0
 11
564.129607
 21
411.960228
 31
0.0
  0
LINE
  8
LC-003-005-----0
  6
CONTINUOUS
  5
226
 10
560.154206
 20
408.550513
 30
0.0
 11
564.129607
 21
412.525913
 31
0.0
  0
LINE
  8
LC-003-005-----0
  6
CONTINUOUS
  5
227
 10
559.588521
 20
408.550513
 30
0.0
 11
564.129607
 21
413.091599
 31
0.0
  0
LINE
  8
LC-003-005-----0
  6
CONTINUOUS
  5
228
 10
559.022836
 20
408.550513
 30
0.0
 11
563.722836
 21
413.250513
 31
0.0
  0
LINE
  8
LC-003-005-----0
  6
CONTINUOUS
  5
229
 10
558.45715
 20
408.550513
 30
0.0
 11
563.15715
 21
413.250513
 31
0.0
  0
LINE
  8
LC-003-005-----0
  6
CONTINUOUS
  5
22A
 10
557.891465
 20
408.550513
 30
0.0
 11
562.591465
 21
413.250513
 31
0.0
  0
LINE
  8
LC-003-005-----0
  6
CONTINUOUS
  5
22B
 10
557.325779
 20
408.550513
 30
0.0
 11
562.025779
 21
413.250513
 31
0.0
  0
LINE
  8
LC-003-005-----0
  6
CONTINUOUS
  5
22C
 10
556.760094
 20
408.550513
 30
0.0
 11
561.460094
 21
413.250513
 31
0.0
  0
LINE
  8
LC-003-005-----0
  6
CONTINUOUS
  5
22D
 10
556.194408
 20
408.550513
 30
0.0
 11
560.894408
 21
413.250513
 31
0.0
  0
LINE
  8
LC-003-005-----0
  6
CONTINUOUS
  5
22E
 10
555.628723
 20
408.550513
 30
0.0
 11
560.328723
 21
413.250513
 31
0.0
  0
LINE
  8
LC-003-005-----0
  6
CONTINUOUS
  5
22F
 10
555.063038
 20
408.550513
 30
0.0
 11
559.763038
 21
413.250513
 31
0.0
  0
LINE
  8
LC-003-005-----0
  6
CONTINUOUS
  5
230
 10
554.497352
 20
408.550513
 30
0.0
 11
559.197352
 21
413.250513
 31
0.0
  0
LINE
  8
LC-003-005-----0
  6
CONTINUOUS
  5
231
 10
554.129607
 20
408.748453
 30
0.0
 11
558.631667
 21
413.250513
 31
0.0
  0
LINE
  8
LC-003-005-----0
  6
CONTINUOUS
  5
232
 10
554.129607
 20
409.314139
 30
0.0
 11
558.065981
 21
413.250513
 31
0.0
  0
LINE
  8
LC-003-005-----0
  6
CONTINUOUS
  5
233
 10
554.129607
 20
409.879824
 30
0.0
 11
557.500296
 21
413.250513
 31
0.0
  0
LINE
  8
LC-003-005-----0
  6
CONTINUOUS
  5
234
 10
554.129607
 20
410.445509
 30
0.0
 11
556.93461
 21
413.250513
 31
0.0
  0
LINE
  8
LC-003-005-----0
  6
CONTINUOUS
  5
235
 10
554.129607
 20
411.011195
 30
0.0
 11
556.368925
 21
413.250513
 31
0.0
  0
LINE
  8
LC-003-005-----0
  6
CONTINUOUS
  5
236
 10
554.129607
 20
411.57688
 30
0.0
 11
555.80324
 21
413.250513
 31
0.0
  0
LINE
  8
LC-003-005-----0
  6
CONTINUOUS
  5
237
 10
554.129607
 20
412.142566
 30
0.0
 11
555.237554
 21
413.250513
 31
0.0
  0
LINE
  8
LC-003-005-----0
  6
CONTINUOUS
  5
238
 10
554.129607
 20
412.708251
 30
0.0
 11
554.671869
 21
413.250513
 31
0.0
  0
ENDBLK
  8
0
  5
239
  0
BLOCK
  8
0
  5
23B
  2
*X27
 70
    65
 10
534.129607
 20
408.550513
 30
0.0
  3
*X27
  0
LINE
  8
LC-003-005-----0
  6
CONTINUOUS
  5
23C
 10
543.749329
 20
408.550513
 30
0.0
 11
544.129607
 21
408.930791
 31
0.0
  0
LINE
  8
LC-003-005-----0
  6
CONTINUOUS
  5
23D
 10
543.183644
 20
408.550513
 30
0.0
 11
544.129607
 21
409.496476
 31
0.0
  0
LINE
  8
LC-003-005-----0
  6
CONTINUOUS
  5
23E
 10
542.617958
 20
408.550513
 30
0.0
 11
544.129607
 21
410.062162
 31
0.0
  0
LINE
  8
LC-003-005-----0
  6
CONTINUOUS
  5
23F
 10
542.052273
 20
408.550513
 30
0.0
 11
544.129607
 21
410.627847
 31
0.0
  0
LINE
  8
LC-003-005-----0
  6
CONTINUOUS
  5
240
 10
541.486587
 20
408.550513
 30
0.0
 11
544.129607
 21
411.193532
 31
0.0
  0
LINE
  8
LC-003-005-----0
  6
CONTINUOUS
  5
241
 10
540.920902
 20
408.550513
 30
0.0
 11
544.129607
 21
411.759218
 31
0.0
  0
LINE
  8
LC-003-005-----0
  6
CONTINUOUS
  5
242
 10
540.355217
 20
408.550513
 30
0.0
 11
544.129607
 21
412.324903
 31
0.0
  0
LINE
  8
LC-003-005-----0
  6
CONTINUOUS
  5
243
 10
539.789531
 20
408.550513
 30
0.0
 11
544.129607
 21
412.890589
 31
0.0
  0
LINE
  8
LC-003-005-----0
  6
CONTINUOUS
  5
244
 10
539.223846
 20
408.550513
 30
0.0
 11
543.923846
 21
413.250513
 31
0.0
  0
LINE
  8
LC-003-005-----0
  6
CONTINUOUS
  5
245
 10
538.65816
 20
408.550513
 30
0.0
 11
543.35816
 21
413.250513
 31
0.0
  0
LINE
  8
LC-003-005-----0
  6
CONTINUOUS
  5
246
 10
538.092475
 20
408.550513
 30
0.0
 11
542.792475
 21
413.250513
 31
0.0
  0
LINE
  8
LC-003-005-----0
  6
CONTINUOUS
  5
247
 10
537.526789
 20
408.550513
 30
0.0
 11
542.226789
 21
413.250513
 31
0.0
  0
LINE
  8
LC-003-005-----0
  6
CONTINUOUS
  5
248
 10
536.961104
 20
408.550513
 30
0.0
 11
541.661104
 21
413.250513
 31
0.0
  0
LINE
  8
LC-003-005-----0
  6
CONTINUOUS
  5
249
 10
536.395419
 20
408.550513
 30
0.0
 11
541.095419
 21
413.250513
 31
0.0
  0
LINE
  8
LC-003-005-----0
  6
CONTINUOUS
  5
24A
 10
535.829733
 20
408.550513
 30
0.0
 11
540.529733
 21
413.250513
 31
0.0
  0
LINE
  8
LC-003-005-----0
  6
CONTINUOUS
  5
24B
 10
535.264048
 20
408.550513
 30
0.0
 11
539.964048
 21
413.250513
 31
0.0
  0
LINE
  8
LC-003-005-----0
  6
CONTINUOUS
  5
24C
 10
534.698362
 20
408.550513
 30
0.0
 11
539.398362
 21
413.250513
 31
0.0
  0
LINE
  8
LC-003-005-----0
  6
CONTINUOUS
  5
24D
 10
534.132677
 20
408.550513
 30
0.0
 11
538.832677
 21
413.250513
 31
0.0
  0
LINE
  8
LC-003-005-----0
  6
CONTINUOUS
  5
24E
 10
534.129607
 20
409.113128
 30
0.0
 11
538.266991
 21
413.250513
 31
0.0
  0
LINE
  8
LC-003-005-----0
  6
CONTINUOUS
  5
24F
 10
534.129607
 20
409.678814
 30
0.0
 11
537.701306
 21
413.250513
 31
0.0
  0
LINE
  8
LC-003-005-----0
  6
CONTINUOUS
  5
250
 10
534.129607
 20
410.244499
 30
0.0
 11
537.135621
 21
413.250513
 31
0.0
  0
LINE
  8
LC-003-005-----0
  6
CONTINUOUS
  5
251
 10
534.129607
 20
410.810185
 30
0.0
 11
536.569935
 21
413.250513
 31
0.0
  0
LINE
  8
LC-003-005-----0
  6
CONTINUOUS
  5
252
 10
534.129607
 20
411.37587
 30
0.0
 11
536.00425
 21
413.250513
 31
0.0
  0
LINE
  8
LC-003-005-----0
  6
CONTINUOUS
  5
253
 10
534.129607
 20
411.941556
 30
0.0
 11
535.438564
 21
413.250513
 31
0.0
  0
LINE
  8
LC-003-005-----0
  6
CONTINUOUS
  5
254
 10
534.129607
 20
412.507241
 30
0.0
 11
534.872879
 21
413.250513
 31
0.0
  0
LINE
  8
LC-003-005-----0
  6
CONTINUOUS
  5
255
 10
534.129607
 20
413.072926
 30
0.0
 11
534.307193
 21
413.250513
 31
0.0
  0
ENDBLK
  8
0
  5
256
  0
BLOCK
  8
0
  5
258
  2
*X28
 70
    65
 10
514.129607
 20
408.550513
 30
0.0
  3
*X28
  0
LINE
  8
LC-003-005-----0
  6
CONTINUOUS
  5
259
 10
523.950339
 20
408.550513
 30
0.0
 11
524.129607
 21
408.729781
 31
0.0
  0
LINE
  8
LC-003-005-----0
  6
CONTINUOUS
  5
25A
 10
523.384654
 20
408.550513
 30
0.0
 11
524.129607
 21
409.295466
 31
0.0
  0
LINE
  8
LC-003-005-----0
  6
CONTINUOUS
  5
25B
 10
522.818968
 20
408.550513
 30
0.0
 11
524.129607
 21
409.861152
 31
0.0
  0
LINE
  8
LC-003-005-----0
  6
CONTINUOUS
  5
25C
 10
522.253283
 20
408.550513
 30
0.0
 11
524.129607
 21
410.426837
 31
0.0
  0
LINE
  8
LC-003-005-----0
  6
CONTINUOUS
  5
25D
 10
521.687597
 20
408.550513
 30
0.0
 11
524.129607
 21
410.992522
 31
0.0
  0
LINE
  8
LC-003-005-----0
  6
CONTINUOUS
  5
25E
 10
521.121912
 20
408.550513
 30
0.0
 11
524.129607
 21
411.558208
 31
0.0
  0
LINE
  8
LC-003-005-----0
  6
CONTINUOUS
  5
25F
 10
520.556227
 20
408.550513
 30
0.0
 11
524.129607
 21
412.123893
 31
0.0
  0
LINE
  8
LC-003-005-----0
  6
CONTINUOUS
  5
260
 10
519.990541
 20
408.550513
 30
0.0
 11
524.129607
 21
412.689579
 31
0.0
  0
LINE
  8
LC-003-005-----0
  6
CONTINUOUS
  5
261
 10
519.424856
 20
408.550513
 30
0.0
 11
524.124856
 21
413.250513
 31
0.0
  0
LINE
  8
LC-003-005-----0
  6
CONTINUOUS
  5
262
 10
518.85917
 20
408.550513
 30
0.0
 11
523.55917
 21
413.250513
 31
0.0
  0
LINE
  8
LC-003-005-----0
  6
CONTINUOUS
  5
263
 10
518.293485
 20
408.550513
 30
0.0
 11
522.993485
 21
413.250513
 31
0.0
  0
LINE
  8
LC-003-005-----0
  6
CONTINUOUS
  5
264
 10
517.7278
 20
408.550513
 30
0.0
 11
522.4278
 21
413.250513
 31
0.0
  0
LINE
  8
LC-003-005-----0
  6
CONTINUOUS
  5
265
 10
517.162114
 20
408.550513
 30
0.0
 11
521.862114
 21
413.250513
 31
0.0
  0
LINE
  8
LC-003-005-----0
  6
CONTINUOUS
  5
266
 10
516.596429
 20
408.550513
 30
0.0
 11
521.296429
 21
413.250513
 31
0.0
  0
LINE
  8
LC-003-005-----0
  6
CONTINUOUS
  5
267
 10
516.030743
 20
408.550513
 30
0.0
 11
520.730743
 21
413.250513
 31
0.0
  0
LINE
  8
LC-003-005-----0
  6
CONTINUOUS
  5
268
 10
515.465058
 20
408.550513
 30
0.0
 11
520.165058
 21
413.250513
 31
0.0
  0
LINE
  8
LC-003-005-----0
  6
CONTINUOUS
  5
269
 10
514.899372
 20
408.550513
 30
0.0
 11
519.599372
 21
413.250513
 31
0.0
  0
LINE
  8
LC-003-005-----0
  6
CONTINUOUS
  5
26A
 10
514.333687
 20
408.550513
 30
0.0
 11
519.033687
 21
413.250513
 31
0.0
  0
LINE
  8
LC-003-005-----0
  6
CONTINUOUS
  5
26B
 10
514.129607
 20
408.912118
 30
0.0
 11
518.468002
 21
413.250513
 31
0.0
  0
LINE
  8
LC-003-005-----0
  6
CONTINUOUS
  5
26C
 10
514.129607
 20
409.477804
 30
0.0
 11
517.902316
 21
413.250513
 31
0.0
  0
LINE
  8
LC-003-005-----0
  6
CONTINUOUS
  5
26D
 10
514.129607
 20
410.043489
 30
0.0
 11
517.336631
 21
413.250513
 31
0.0
  0
LINE
  8
LC-003-005-----0
  6
CONTINUOUS
  5
26E
 10
514.129607
 20
410.609175
 30
0.0
 11
516.770945
 21
413.250513
 31
0.0
  0
LINE
  8
LC-003-005-----0
  6
CONTINUOUS
  5
26F
 10
514.129607
 20
411.17486
 30
0.0
 11
516.20526
 21
413.250513
 31
0.0
  0
LINE
  8
LC-003-005-----0
  6
CONTINUOUS
  5
270
 10
514.129607
 20
411.740545
 30
0.0
 11
515.639574
 21
413.250513
 31
0.0
  0
LINE
  8
LC-003-005-----0
  6
CONTINUOUS
  5
271
 10
514.129607
 20
412.306231
 30
0.0
 11
515.073889
 21
413.250513
 31
0.0
  0
LINE
  8
LC-003-005-----0
  6
CONTINUOUS
  5
272
 10
514.129607
 20
412.871916
 30
0.0
 11
514.508204
 21
413.250513
 31
0.0
  0
ENDBLK
  8
0
  5
273
  0
BLOCK
  8
0
  5
275
  2
*X29
 70
    65
 10
494.129607
 20
408.550513
 30
0.0
  3
*X29
  0
LINE
  8
LC-003-005-----0
  6
CONTINUOUS
  5
276
 10
503.585664
 20
408.550513
 30
0.0
 11
504.129607
 21
409.094456
 31
0.0
  0
LINE
  8
LC-003-005-----0
  6
CONTINUOUS
  5
277
 10
503.019978
 20
408.550513
 30
0.0
 11
504.129607
 21
409.660141
 31
0.0
  0
LINE
  8
LC-003-005-----0
  6
CONTINUOUS
  5
278
 10
502.454293
 20
408.550513
 30
0.0
 11
504.129607
 21
410.225827
 31
0.0
  0
LINE
  8
LC-003-005-----0
  6
CONTINUOUS
  5
279
 10
501.888608
 20
408.550513
 30
0.0
 11
504.129607
 21
410.791512
 31
0.0
  0
LINE
  8
LC-003-005-----0
  6
CONTINUOUS
  5
27A
 10
501.322922
 20
408.550513
 30
0.0
 11
504.129607
 21
411.357198
 31
0.0
  0
LINE
  8
LC-003-005-----0
  6
CONTINUOUS
  5
27B
 10
500.757237
 20
408.550513
 30
0.0
 11
504.129607
 21
411.922883
 31
0.0
  0
LINE
  8
LC-003-005-----0
  6
CONTINUOUS
  5
27C
 10
500.191551
 20
408.550513
 30
0.0
 11
504.129607
 21
412.488569
 31
0.0
  0
LINE
  8
LC-003-005-----0
  6
CONTINUOUS
  5
27D
 10
499.625866
 20
408.550513
 30
0.0
 11
504.129607
 21
413.054254
 31
0.0
  0
LINE
  8
LC-003-005-----0
  6
CONTINUOUS
  5
27E
 10
499.06018
 20
408.550513
 30
0.0
 11
503.76018
 21
413.250513
 31
0.0
  0
LINE
  8
LC-003-005-----0
  6
CONTINUOUS
  5
27F
 10
498.494495
 20
408.550513
 30
0.0
 11
503.194495
 21
413.250513
 31
0.0
  0
LINE
  8
LC-003-005-----0
  6
CONTINUOUS
  5
280
 10
497.92881
 20
408.550513
 30
0.0
 11
502.62881
 21
413.250513
 31
0.0
  0
LINE
  8
LC-003-005-----0
  6
CONTINUOUS
  5
281
 10
497.363124
 20
408.550513
 30
0.0
 11
502.063124
 21
413.250513
 31
0.0
  0
LINE
  8
LC-003-005-----0
  6
CONTINUOUS
  5
282
 10
496.797439
 20
408.550513
 30
0.0
 11
501.497439
 21
413.250513
 31
0.0
  0
LINE
  8
LC-003-005-----0
  6
CONTINUOUS
  5
283
 10
496.231753
 20
408.550513
 30
0.0
 11
500.931753
 21
413.250513
 31
0.0
  0
LINE
  8
LC-003-005-----0
  6
CONTINUOUS
  5
284
 10
495.666068
 20
408.550513
 30
0.0
 11
500.366068
 21
413.250513
 31
0.0
  0
LINE
  8
LC-003-005-----0
  6
CONTINUOUS
  5
285
 10
495.100383
 20
408.550513
 30
0.0
 11
499.800383
 21
413.250513
 31
0.0
  0
LINE
  8
LC-003-005-----0
  6
CONTINUOUS
  5
286
 10
494.534697
 20
408.550513
 30
0.0
 11
499.234697
 21
413.250513
 31
0.0
  0
LINE
  8
LC-003-005-----0
  6
CONTINUOUS
  5
287
 10
494.129607
 20
408.711108
 30
0.0
 11
498.669012
 21
413.250513
 31
0.0
  0
LINE
  8
LC-003-005-----0
  6
CONTINUOUS
  5
288
 10
494.129607
 20
409.276794
 30
0.0
 11
498.103326
 21
413.250513
 31
0.0
  0
LINE
  8
LC-003-005-----0
  6
CONTINUOUS
  5
289
 10
494.129607
 20
409.842479
 30
0.0
 11
497.537641
 21
413.250513
 31
0.0
  0
LINE
  8
LC-003-005-----0
  6
CONTINUOUS
  5
28A
 10
494.129607
 20
410.408164
 30
0.0
 11
496.971955
 21
413.250513
 31
0.0
  0
LINE
  8
LC-003-005-----0
  6
CONTINUOUS
  5
28B
 10
494.129607
 20
410.97385
 30
0.0
 11
496.40627
 21
413.250513
 31
0.0
  0
LINE
  8
LC-003-005-----0
  6
CONTINUOUS
  5
28C
 10
494.129607
 20
411.539535
 30
0.0
 11
495.840585
 21
413.250513
 31
0.0
  0
LINE
  8
LC-003-005-----0
  6
CONTINUOUS
  5
28D
 10
494.129607
 20
412.105221
 30
0.0
 11
495.274899
 21
413.250513
 31
0.0
  0
LINE
  8
LC-003-005-----0
  6
CONTINUOUS
  5
28E
 10
494.129607
 20
412.670906
 30
0.0
 11
494.709214
 21
413.250513
 31
0.0
  0
LINE
  8
LC-003-005-----0
  6
CONTINUOUS
  5
28F
 10
494.129607
 20
413.236592
 30
0.0
 11
494.143528
 21
413.250513
 31
0.0
  0
ENDBLK
  8
0
  5
290
  0
BLOCK
  8
0
  5
292
  2
*X30
 70
    65
 10
474.129607
 20
407.775
 30
0.0
  3
*X30
  0
LINE
  8
LC-003-005-----0
  6
CONTINUOUS
  5
293
 10
483.672476
 20
408.436315
 30
0.0
 11
484.129607
 21
408.893446
 31
0.0
  0
LINE
  8
LC-003-005-----0
  6
CONTINUOUS
  5
294
 10
483.06466
 20
408.394184
 30
0.0
 11
484.129607
 21
409.459131
 31
0.0
  0
LINE
  8
LC-003-005-----0
  6
CONTINUOUS
  5
295
 10
482.456844
 20
408.352054
 30
0.0
 11
484.129607
 21
410.024817
 31
0.0
  0
LINE
  8
LC-003-005-----0
  6
CONTINUOUS
  5
296
 10
481.849028
 20
408.309923
 30
0.0
 11
484.129607
 21
410.590502
 31
0.0
  0
LINE
  8
LC-003-005-----0
  6
CONTINUOUS
  5
297
 10
481.241212
 20
408.267793
 30
0.0
 11
484.129607
 21
411.156188
 31
0.0
  0
LINE
  8
LC-003-005-----0
  6
CONTINUOUS
  5
298
 10
480.633396
 20
408.225662
 30
0.0
 11
484.129607
 21
411.721873
 31
0.0
  0
LINE
  8
LC-003-005-----0
  6
CONTINUOUS
  5
299
 10
480.02558
 20
408.183531
 30
0.0
 11
484.129607
 21
412.287558
 31
0.0
  0
LINE
  8
LC-003-005-----0
  6
CONTINUOUS
  5
29A
 10
479.417764
 20
408.141401
 30
0.0
 11
484.129607
 21
412.853244
 31
0.0
  0
LINE
  8
LC-003-005-----0
  6
CONTINUOUS
  5
29B
 10
478.809948
 20
408.09927
 30
0.0
 11
483.872107
 21
413.161429
 31
0.0
  0
LINE
  8
LC-003-005-----0
  6
CONTINUOUS
  5
29C
 10
478.202132
 20
408.05714
 30
0.0
 11
483.264291
 21
413.119299
 31
0.0
  0
LINE
  8
LC-003-005-----0
  6
CONTINUOUS
  5
29D
 10
477.594316
 20
408.015009
 30
0.0
 11
482.656475
 21
413.077168
 31
0.0
  0
LINE
  8
LC-003-005-----0
  6
CONTINUOUS
  5
29E
 10
476.9865
 20
407.972878
 30
0.0
 11
482.048659
 21
413.035038
 31
0.0
  0
LINE
  8
LC-003-005-----0
  6
CONTINUOUS
  5
29F
 10
476.378684
 20
407.930748
 30
0.0
 11
481.440843
 21
412.992907
 31
0.0
  0
LINE
  8
LC-003-005-----0
  6
CONTINUOUS
  5
2A0
 10
475.770868
 20
407.888617
 30
0.0
 11
480.833027
 21
412.950776
 31
0.0
  0
LINE
  8
LC-003-005-----0
  6
CONTINUOUS
  5
2A1
 10
475.163052
 20
407.846487
 30
0.0
 11
480.225211
 21
412.908646
 31
0.0
  0
LINE
  8
LC-003-005-----0
  6
CONTINUOUS
  5
2A2
 10
474.555236
 20
407.804356
 30
0.0
 11
479.617395
 21
412.866515
 31
0.0
  0
LINE
  8
LC-003-005-----0
  6
CONTINUOUS
  5
2A3
 10
474.129607
 20
407.944413
 30
0.0
 11
479.009579
 21
412.824385
 31
0.0
  0
LINE
  8
LC-003-005-----0
  6
CONTINUOUS
  5
2A4
 10
474.129607
 20
408.510098
 30
0.0
 11
478.401763
 21
412.782254
 31
0.0
  0
LINE
  8
LC-003-005-----0
  6
CONTINUOUS
  5
2A5
 10
474.129607
 20
409.075783
 30
0.0
 11
477.793947
 21
412.740123
 31
0.0
  0
LINE
  8
LC-003-005-----0
  6
CONTINUOUS
  5
2A6
 10
474.129607
 20
409.641469
 30
0.0
 11
477.186131
 21
412.697993
 31
0.0
  0
LINE
  8
LC-003-005-----0
  6
CONTINUOUS
  5
2A7
 10
474.129607
 20
410.207154
 30
0.0
 11
476.578315
 21
412.655862
 31
0.0
  0
LINE
  8
LC-003-005-----0
  6
CONTINUOUS
  5
2A8
 10
474.129607
 20
410.77284
 30
0.0
 11
475.970499
 21
412.613732
 31
0.0
  0
LINE
  8
LC-003-005-----0
  6
CONTINUOUS
  5
2A9
 10
474.129607
 20
411.338525
 30
0.0
 11
475.362683
 21
412.571601
 31
0.0
  0
LINE
  8
LC-003-005-----0
  6
CONTINUOUS
  5
2AA
 10
474.129607
 20
411.904211
 30
0.0
 11
474.754867
 21
412.529471
 31
0.0
  0
LINE
  8
LC-003-005-----0
  6
CONTINUOUS
  5
2AB
 10
474.129607
 20
412.469896
 30
0.0
 11
474.147051
 21
412.48734
 31
0.0
  0
ENDBLK
  8
0
  5
2AC
  0
BLOCK
  8
0
  5
2AE
  2
*X31
 70
    65
 10
454.129607
 20
406.388706
 30
0.0
  3
*X31
  0
LINE
  8
LC-003-005-----0
  6
CONTINUOUS
  5
2AF
 10
463.614548
 20
407.046005
 30
0.0
 11
464.129607
 21
407.561065
 31
0.0
  0
LINE
  8
LC-003-005-----0
  6
CONTINUOUS
  5
2B0
 10
463.006732
 20
407.003875
 30
0.0
 11
464.129607
 21
408.12675
 31
0.0
  0
LINE
  8
LC-003-005-----0
  6
CONTINUOUS
  5
2B1
 10
462.398916
 20
406.961744
 30
0.0
 11
464.129607
 21
408.692436
 31
0.0
  0
LINE
  8
LC-003-005-----0
  6
CONTINUOUS
  5
2B2
 10
461.7911
 20
406.919614
 30
0.0
 11
464.129607
 21
409.258121
 31
0.0
  0
LINE
  8
LC-003-005-----0
  6
CONTINUOUS
  5
2B3
 10
461.183284
 20
406.877483
 30
0.0
 11
464.129607
 21
409.823807
 31
0.0
  0
LINE
  8
LC-003-005-----0
  6
CONTINUOUS
  5
2B4
 10
460.575468
 20
406.835353
 30
0.0
 11
464.129607
 21
410.389492
 31
0.0
  0
LINE
  8
LC-003-005-----0
  6
CONTINUOUS
  5
2B5
 10
459.967652
 20
406.793222
 30
0.0
 11
464.129607
 21
410.955177
 31
0.0
  0
LINE
  8
LC-003-005-----0
  6
CONTINUOUS
  5
2B6
 10
459.359836
 20
406.751091
 30
0.0
 11
464.129607
 21
411.520863
 31
0.0
  0
LINE
  8
LC-003-005-----0
  6
CONTINUOUS
  5
2B7
 10
458.75202
 20
406.708961
 30
0.0
 11
463.814179
 21
411.77112
 31
0.0
  0
LINE
  8
LC-003-005-----0
  6
CONTINUOUS
  5
2B8
 10
458.144204
 20
406.66683
 30
0.0
 11
463.206363
 21
411.728989
 31
0.0
  0
LINE
  8
LC-003-005-----0
  6
CONTINUOUS
  5
2B9
 10
457.536388
 20
406.6247
 30
0.0
 11
462.598547
 21
411.686859
 31
0.0
  0
LINE
  8
LC-003-005-----0
  6
CONTINUOUS
  5
2BA
 10
456.928572
 20
406.582569
 30
0.0
 11
461.990731
 21
411.644728
 31
0.0
  0
LINE
  8
LC-003-005-----0
  6
CONTINUOUS
  5
2BB
 10
456.320756
 20
406.540438
 30
0.0
 11
461.382915
 21
411.602598
 31
0.0
  0
LINE
  8
LC-003-005-----0
  6
CONTINUOUS
  5
2BC
 10
455.71294
 20
406.498308
 30
0.0
 11
460.775099
 21
411.560467
 31
0.0
  0
LINE
  8
LC-003-005-----0
  6
CONTINUOUS
  5
2BD
 10
455.105124
 20
406.456177
 30
0.0
 11
460.167283
 21
411.518336
 31
0.0
  0
LINE
  8
LC-003-005-----0
  6
CONTINUOUS
  5
2BE
 10
454.497308
 20
406.414047
 30
0.0
 11
459.559467
 21
411.476206
 31
0.0
  0
LINE
  8
LC-003-005-----0
  6
CONTINUOUS
  5
2BF
 10
454.129607
 20
406.612032
 30
0.0
 11
458.951651
 21
411.434075
 31
0.0
  0
LINE
  8
LC-003-005-----0
  6
CONTINUOUS
  5
2C0
 10
454.129607
 20
407.177717
 30
0.0
 11
458.343835
 21
411.391945
 31
0.0
  0
LINE
  8
LC-003-005-----0
  6
CONTINUOUS
  5
2C1
 10
454.129607
 20
407.743402
 30
0.0
 11
457.736019
 21
411.349814
 31
0.0
  0
LINE
  8
LC-003-005-----0
  6
CONTINUOUS
  5
2C2
 10
454.129607
 20
408.309088
 30
0.0
 11
457.128203
 21
411.307684
 31
0.0
  0
LINE
  8
LC-003-005-----0
  6
CONTINUOUS
  5
2C3
 10
454.129607
 20
408.874773
 30
0.0
 11
456.520387
 21
411.265553
 31
0.0
  0
LINE
  8
LC-003-005-----0
  6
CONTINUOUS
  5
2C4
 10
454.129607
 20
409.440459
 30
0.0
 11
455.912571
 21
411.223422
 31
0.0
  0
LINE
  8
LC-003-005-----0
  6
CONTINUOUS
  5
2C5
 10
454.129607
 20
410.006144
 30
0.0
 11
455.304755
 21
411.181292
 31
0.0
  0
LINE
  8
LC-003-005-----0
  6
CONTINUOUS
  5
2C6
 10
454.129607
 20
410.57183
 30
0.0
 11
454.696939
 21
411.139161
 31
0.0
  0
ENDBLK
  8
0
  5
2C7
  0
BLOCK
  8
0
  5
2C9
  2
*X32
 70
    65
 10
411.218821
 20
402.931058
 30
0.0
  3
*X32
  0
LINE
  8
LC-003-005-----0
  6
CONTINUOUS
  5
2CA
 10
443.904997
 20
404.872702
 30
0.0
 11
444.129607
 21
405.097313
 31
0.0
  0
LINE
  8
LC-003-005-----0
  6
CONTINUOUS
  5
2CB
 10
442.947452
 20
404.480843
 30
0.0
 11
444.129607
 21
405.662998
 31
0.0
  0
LINE
  8
LC-003-005-----0
  6
CONTINUOUS
  5
2CC
 10
442.062622
 20
404.161698
 30
0.0
 11
444.129607
 21
406.228684
 31
0.0
  0
LINE
  8
LC-003-005-----0
  6
CONTINUOUS
  5
2CD
 10
441.233802
 20
403.898564
 30
0.0
 11
444.129607
 21
406.794369
 31
0.0
  0
LINE
  8
LC-003-005-----0
  6
CONTINUOUS
  5
2CE
 10
440.450028
 20
403.680475
 30
0.0
 11
444.129607
 21
407.360055
 31
0.0
  0
LINE
  8
LC-003-005-----0
  6
CONTINUOUS
  5
2CF
 10
439.703632
 20
403.499764
 30
0.0
 11
444.129607
 21
407.92574
 31
0.0
  0
LINE
  8
LC-003-005-----0
  6
CONTINUOUS
  5
2D0
 10
438.989004
 20
403.350822
 30
0.0
 11
444.129607
 21
408.491426
 31
0.0
  0
LINE
  8
LC-003-005-----0
  6
CONTINUOUS
  5
2D1
 10
438.360144
 20
403.287648
 30
0.0
 11
444.129607
 21
409.057111
 31
0.0
  0
LINE
  8
LC-003-005-----0
  6
CONTINUOUS
  5
2D2
 10
437.750129
 20
403.243318
 30
0.0
 11
444.129607
 21
409.622796
 31
0.0
  0
LINE
  8
LC-003-005-----0
  6
CONTINUOUS
  5
2D3
 10
437.140114
 20
403.198989
 30
0.0
 11
444.129607
 21
410.188482
 31
0.0
  0
LINE
  8
LC-003-005-----0
  6
CONTINUOUS
  5
2D4
 10
436.5301
 20
403.15466
 30
0.0
 11
443.031496
 21
409.656056
 31
0.0
  0
LINE
  8
LC-003-005-----0
  6
CONTINUOUS
  5
2D5
 10
435.920085
 20
403.11033
 30
0.0
 11
441.966303
 21
409.156549
 31
0.0
  0
LINE
  8
LC-003-005-----0
  6
CONTINUOUS
  5
2D6
 10
435.31007
 20
403.066001
 30
0.0
 11
441.024794
 21
408.780725
 31
0.0
  0
LINE
  8
LC-003-005-----0
  6
CONTINUOUS
  5
2D7
 10
434.700055
 20
403.021671
 30
0.0
 11
440.166828
 21
408.488444
 31
0.0
  0
LINE
  8
LC-003-005-----0
  6
CONTINUOUS
  5
2D8
 10
434.129607
 20
403.016909
 30
0.0
 11
439.370603
 21
408.257905
 31
0.0
  0
LINE
  8
LC-003-005-----0
  6
CONTINUOUS
  5
2D9
 10
434.129607
 20
403.582594
 30
0.0
 11
438.62269
 21
408.075677
 31
0.0
  0
LINE
  8
LC-003-005-----0
  6
CONTINUOUS
  5
2DA
 10
434.129607
 20
404.14828
 30
0.0
 11
437.949696
 21
407.968368
 31
0.0
  0
LINE
  8
LC-003-005-----0
  6
CONTINUOUS
  5
2DB
 10
434.129607
 20
404.713965
 30
0.0
 11
437.339681
 21
407.924039
 31
0.0
  0
LINE
  8
LC-003-005-----0
  6
CONTINUOUS
  5
2DC
 10
434.129607
 20
405.279651
 30
0.0
 11
436.729666
 21
407.87971
 31
0.0
  0
LINE
  8
LC-003-005-----0
  6
CONTINUOUS
  5
2DD
 10
434.129607
 20
405.845336
 30
0.0
 11
436.119652
 21
407.83538
 31
0.0
  0
LINE
  8
LC-003-005-----0
  6
CONTINUOUS
  5
2DE
 10
434.129607
 20
406.411022
 30
0.0
 11
435.509637
 21
407.791051
 31
0.0
  0
LINE
  8
LC-003-005-----0
  6
CONTINUOUS
  5
2DF
 10
434.129607
 20
406.976707
 30
0.0
 11
434.899622
 21
407.746722
 31
0.0
  0
LINE
  8
LC-003-005-----0
  6
CONTINUOUS
  5
2E0
 10
434.129607
 20
407.542392
 30
0.0
 11
434.289607
 21
407.702392
 31
0.0
  0
ENDBLK
  8
0
  5
2E1
  0
BLOCK
  8
0
  5
2E3
  2
*X33
 70
    65
 10
406.582394
 20
377.340029
 30
0.0
  3
*X33
  0
LINE
  8
LC-003-005-----0
  6
CONTINUOUS
  5
2E4
 10
408.452727
 20
377.340029
 30
0.0
 11
409.152727
 21
378.040029
 31
0.0
  0
LINE
  8
LC-003-005-----0
  6
CONTINUOUS
  5
2E5
 10
410.579519
 20
379.46682
 30
0.0
 11
411.076238
 21
379.963539
 31
0.0
  0
LINE
  8
LC-003-005-----0
  6
CONTINUOUS
  5
2E6
 10
439.762101
 20
408.649403
 30
0.0
 11
441.642085
 21
410.529387
 31
0.0
  0
LINE
  8
LC-003-005-----0
  6
CONTINUOUS
  5
2E7
 10
409.082394
 20
380.798123
 30
0.0
 11
409.782394
 21
381.498123
 31
0.0
  0
LINE
  8
LC-003-005-----0
  6
CONTINUOUS
  5
2E8
 10
412.414093
 20
384.129822
 30
0.0
 11
412.692601
 21
384.40833
 31
0.0
  0
LINE
  8
LC-003-005-----0
  6
CONTINUOUS
  5
2E9
 10
436.166418
 20
407.882146
 30
0.0
 11
436.909509
 21
408.625238
 31
0.0
  0
LINE
  8
LC-003-005-----0
  6
CONTINUOUS
  5
2EA
 10
412.882394
 20
387.42655
 30
0.0
 11
413.582394
 21
388.12655
 31
0.0
  0
LINE
  8
LC-003-005-----0
  6
CONTINUOUS
  5
2EB
 10
433.125337
 20
407.669493
 30
0.0
 11
433.868429
 21
408.412584
 31
0.0
  0
LINE
  8
LC-003-005-----0
  6
CONTINUOUS
  5
2EC
 10
412.882394
 20
390.254977
 30
0.0
 11
413.582394
 21
390.954977
 31
0.0
  0
LINE
  8
LC-003-005-----0
  6
CONTINUOUS
  5
2ED
 10
430.084257
 20
407.45684
 30
0.0
 11
430.827348
 21
408.199931
 31
0.0
  0
LINE
  8
LC-003-005-----0
  6
CONTINUOUS
  5
2EE
 10
412.882394
 20
393.083405
 30
0.0
 11
413.582394
 21
393.783405
 31
0.0
  0
LINE
  8
LC-003-005-----0
  6
CONTINUOUS
  5
2EF
 10
427.043177
 20
407.244187
 30
0.0
 11
427.786268
 21
407.987278
 31
0.0
  0
LINE
  8
LC-003-005-----0
  6
CONTINUOUS
  5
2F0
 10
412.882394
 20
395.911832
 30
0.0
 11
413.582394
 21
396.611832
 31
0.0
  0
LINE
  8
LC-003-005-----0
  6
CONTINUOUS
  5
2F1
 10
424.002097
 20
407.031534
 30
0.0
 11
424.745188
 21
407.774625
 31
0.0
  0
LINE
  8
LC-003-005-----0
  6
CONTINUOUS
  5
2F2
 10
412.882394
 20
398.740259
 30
0.0
 11
413.582394
 21
399.440259
 31
0.0
  0
LINE
  8
LC-003-005-----0
  6
CONTINUOUS
  5
2F3
 10
420.961017
 20
406.818881
 30
0.0
 11
421.704108
 21
407.561972
 31
0.0
  0
LINE
  8
LC-003-005-----0
  6
CONTINUOUS
  5
2F4
 10
412.99797
 20
401.684262
 30
0.0
 11
414.001672
 21
402.687964
 31
0.0
  0
LINE
  8
LC-003-005-----0
  6
CONTINUOUS
  5
2F5
 10
417.622503
 20
406.308795
 30
0.0
 11
418.615625
 21
407.301917
 31
0.0
  0
ENDBLK
  8
0
  5
2F6
  0
BLOCK
  8
0
  5
2F8
  2
BLK6
 70
    64
 10
0.0
 20
0.0
 30
0.0
  3
BLK6
  0
ENDBLK
  8
0
  5
2F9
  0
BLOCK
  8
0
  5
2FB
  2
*D35
 70
    65
 10
0.0
 20
0.0
 30
0.0
  3
*D35
  0
LINE
  8
LC-008-003-MTH-0
  6
CONTINUOUS
  5
2FC
 10
84.510393
 20
413.250513
 30
0.0
 11
84.510393
 21
487.2
 31
0.0
  0
LINE
  8
LC-008-003-MTH-0
  6
CONTINUOUS
  5
2FD
 10
584.129607
 20
413.250513
 30
0.0
 11
584.129607
 21
487.2
 31
0.0
  0
LINE
  8
LC-009-003-MTG-0
  6
CONTINUOUS
  5
2FE
 10
84.510393
 20
470.4
 30
0.0
 11
584.129607
 21
470.4
 31
0.0
  0
LINE
  8
LC-007-003-----0
  6
CONTINUOUS
  5
2FF
 10
112.270849
 20
474.054733
 30
0.0
 11
84.510393
 21
470.4
 31
0.0
  0
LINE
  8
LC-007-003-----0
  6
CONTINUOUS
  5
300
 10
84.510393
 20
470.4
 30
0.0
 11
112.270849
 21
466.745267
 31
0.0
  0
LINE
  8
LC-007-003-----0
  6
CONTINUOUS
  5
301
 10
112.270849
 20
466.745267
 30
0.0
 11
112.270849
 21
474.054733
 31
0.0
  0
LINE
  8
LC-007-003-----0
  6
CONTINUOUS
  5
302
 10
112.33313
 20
473.104503
 30
0.0
 11
91.790393
 21
470.4
 31
0.0
  0
LINE
  8
LC-007-003-----0
  6
CONTINUOUS
  5
303
 10
91.790393
 20
470.4
 30
0.0
 11
112.33313
 21
467.695497
 31
0.0
  0
LINE
  8
LC-007-003-----0
  6
CONTINUOUS
  5
304
 10
112.395412
 20
472.154272
 30
0.0
 11
99.070393
 21
470.4
 31
0.0
  0
LINE
  8
LC-007-003-----0
  6
CONTINUOUS
  5
305
 10
99.070393
 20
470.4
 30
0.0
 11
112.395412
 21
468.645728
 31
0.0
  0
LINE
  8
LC-007-003-----0
  6
CONTINUOUS
  5
306
 10
112.457693
 20
471.204041
 30
0.0
 11
106.350393
 21
470.4
 31
0.0
  0
LINE
  8
LC-007-003-----0
  6
CONTINUOUS
  5
307
 10
106.350393
 20
470.4
 30
0.0
 11
112.457693
 21
469.595959
 31
0.0
  0
LINE
  8
LC-007-003-----0
  6
CONTINUOUS
  5
308
 10
556.369151
 20
466.745267
 30
0.0
 11
584.129607
 21
470.4
 31
0.0
  0
LINE
  8
LC-007-003-----0
  6
CONTINUOUS
  5
309
 10
584.129607
 20
470.4
 30
0.0
 11
556.369151
 21
474.054733
 31
0.0
  0
LINE
  8
LC-007-003-----0
  6
CONTINUOUS
  5
30A
 10
556.369151
 20
474.054733
 30
0.0
 11
556.369151
 21
466.745267
 31
0.0
  0
LINE
  8
LC-007-003-----0
  6
CONTINUOUS
  5
30B
 10
556.30687
 20
467.695497
 30
0.0
 11
576.849607
 21
470.4
 31
0.0
  0
LINE
  8
LC-007-003-----0
  6
CONTINUOUS
  5
30C
 10
576.849607
 20
470.4
 30
0.0
 11
556.30687
 21
473.104503
 31
0.0
  0
LINE
  8
LC-007-003-----0
  6
CONTINUOUS
  5
30D
 10
556.244588
 20
468.645728
 30
0.0
 11
569.569607
 21
470.4
 31
0.0
  0
LINE
  8
LC-007-003-----0
  6
CONTINUOUS
  5
30E
 10
569.569607
 20
470.4
 30
0.0
 11
556.244588
 21
472.154272
 31
0.0
  0
LINE
  8
LC-007-003-----0
  6
CONTINUOUS
  5
30F
 10
556.182307
 20
469.595959
 30
0.0
 11
562.289607
 21
470.4
 31
0.0
  0
LINE
  8
LC-007-003-----0
  6
CONTINUOUS
  5
310
 10
562.289607
 20
470.4
 30
0.0
 11
556.182307
 21
471.204041
 31
0.0
  0
TEXT
  8
LC-007-003-----0
  6
CONTINUOUS
 62
     8
  5
311
 10
300.570522
 20
478.227554
 30
0.0
 40
28.0
  1
Ø500
 51
15.0
  7
LC-TXTSTYLE-150-400-0-0-D0
 72
     1
 11
338.66816
 21
478.227554
 31
0.0
  0
ENDBLK
  8
0
  5
312
  0
ENDSEC
  0
SECTION
  2
ENTITIES
  0
VIEWPORT
  8
LC-000
  5
4ED
 67
     1
 68
     1
 10
420.0
 20
297.0
 30
0.0
 40
840.0
 41
594.0
 69
     1
1001
ACAD
1000
MVIEW
1002
{
1070
    16
1010
0.0
1020
0.0
1030
0.0
1010
0.0
1020
0.0
1030
1.0
1040
0.0
1040
594.0
1040
420.0
1040
297.0
1040
50.0
1040
0.0
1040
0.0
1070
     0
1070
   100
1070
     1
1070
     1
1070
     0
1070
     0
1070
     0
1070
     0
1040
0.0
1040
0.0
1040
0.0
1040
1.0
1040
1.0
1040
0.0
1040
0.0
1070
     0
1002
{
1002
}
1002
}
  0
VIEWPORT
  8
0
  5
4EE
 67
     1
 68
     1
 10
0.0
 20
0.0
 30
0.0
 40
0.0
 41
0.0
 69
     1
1001
ACAD
1000
MVIEW
1002
{
1070
    16
1010
0.0
1020
0.0
1030
0.0
1010
0.0
1020
0.0
1030
1.0
1040
0.0
1040
594.0
1040
0.0
1040
0.0
1040
50.0
1040
0.0
1040
0.0
1070
     0
1070
   100
1070
     0
1070
     1
1070
     0
1070
     0
1070
     0
1070
     0
1040
0.0
1040
0.0
1040
0.0
1040
0.5
1040
0.5
1040
0.5
1040
0.5
1070
     0
1002
{
1002
}
1002
}
  0
INSERT
  8
0
  5
314
  2
BLK1
 10
0.0
 20
0.0
 30
0.0
  0
INSERT
  8
0
  5
315
  2
BLK2
 10
0.0
 20
0.0
 30
0.0
  0
INSERT
  8
0
  5
317
  2
BLK3
 10
0.0
 20
0.0
 30
0.0
  0
INSERT
  8
0
  5
318
  2
BLK4
 10
0.0
 20
0.0
 30
0.0
  0
DIMENSION
  8
0
  5
319
  2
*D4
 10
334.32
 20
431.2
 30
0.0
 11
334.32
 21
431.2
 31
0.0
  1
%%c300
 13
183.568257
 23
408.428214
 33
0.0
 14
485.071743
 24
408.550513
 34
0.0
  3
LC-DIM-L-0140-02-02
  0
DIMENSION
  8
0
  5
31A
  2
*D5
 10
200.0
 20
278.544144
 30
0.0
 11
200.0
 21
278.544144
 31
0.0
 13
260.397699
 23
366.463716
 33
0.0
 14
274.92
 24
186.463716
 34
0.0
 50
90.0
  3
LC-DIM-L-0140-02-02
  0
INSERT
  8
0
  5
31B
  2
*X6
 10
183.568257
 20
405.454458
 30
0.0
  0
DIMENSION
  8
0
  5
31C
  2
*D7
 10
327.675419
 20
144.0
 30
0.0
 11
327.675419
 21
144.0
 31
0.0
  1
%%c<>
 13
261.82
 23
191.463716
 33
0.0
 14
406.82
 24
191.463716
 34
0.0
  3
LC-DIM-L-0140-02-02
  0
DIMENSION
  8
0
  5
31D
  2
*D8
 10
154.0
 20
296.003451
 30
0.0
 11
154.0
 21
296.003451
 31
0.0
  1
220
 13
183.568257
 23
405.543187
 33
0.0
 14
263.159746
 24
186.463716
 34
0.0
 50
90.0
  3
LC-DIM-L-0140-02-02
  0
INSERT
  8
0
  5
31E
  2
*X9
 10
255.571677
 20
101.584445
 30
0.0
  0
INSERT
  8
0
  5
31F
  2
*X10
 10
399.068323
 20
101.584445
 30
0.0
  0
INSERT
  8
0
  5
320
  2
BLK5
 10
0.0
 20
0.0
 30
0.0
  0
INSERT
  8
0
  5
321
  2
*X12
 10
415.202178
 20
386.915074
 30
0.0
  0
INSERT
  8
0
  5
322
  2
*X13
 10
241.305395
 20
386.915074
 30
0.0
  0
INSERT
  8
0
  5
323
  2
*X14
 10
224.958107
 20
377.340029
 30
0.0
  0
INSERT
  8
0
  5
324
  2
*X15
 10
84.510393
 20
408.550513
 30
0.0
  0
INSERT
  8
0
  5
325
  2
*X16
 10
104.510393
 20
408.550513
 30
0.0
  0
INSERT
  8
0
  5
326
  2
*X17
 10
124.510393
 20
408.550513
 30
0.0
  0
INSERT
  8
0
  5
327
  2
*X18
 10
144.510393
 20
408.550513
 30
0.0
  0
INSERT
  8
0
  5
328
  2
*X19
 10
164.510393
 20
408.550513
 30
0.0
  0
INSERT
  8
0
  5
329
  2
*X20
 10
184.510393
 20
407.775
 30
0.0
  0
INSERT
  8
0
  5
32A
  2
*X21
 10
204.510393
 20
406.388706
 30
0.0
  0
INSERT
  8
0
  5
32B
  2
*X22
 10
210.698171
 20
402.931058
 30
0.0
  0
INSERT
  8
0
  5
32C
  2
*X23
 10
402.82
 20
383.940696
 30
0.0
  0
INSERT
  8
0
  5
32D
  2
*X24
 10
255.82
 20
383.940696
 30
0.0
  0
INSERT
  8
0
  5
32E
  2
*X25
 10
574.129607
 20
408.550513
 30
0.0
  0
INSERT
  8
0
  5
32F
  2
*X26
 10
554.129607
 20
408.550513
 30
0.0
  0
INSERT
  8
0
  5
330
  2
*X27
 10
534.129607
 20
408.550513
 30
0.0
  0
INSERT
  8
0
  5
331
  2
*X28
 10
514.129607
 20
408.550513
 30
0.0
  0
INSERT
  8
0
  5
332
  2
*X29
 10
494.129607
 20
408.550513
 30
0.0
  0
INSERT
  8
0
  5
333
  2
*X30
 10
474.129607
 20
407.775
 30
0.0
  0
INSERT
  8
0
  5
334
  2
*X31
 10
454.129607
 20
406.388706
 30
0.0
  0
INSERT
  8
0
  5
335
  2
*X32
 10
411.218821
 20
402.931058
 30
0.0
  0
INSERT
  8
0
  5
336
  2
*X33
 10
406.582394
 20
377.340029
 30
0.0
  0
INSERT
  8
0
  5
337
  2
BLK6
 10
0.0
 20
0.0
 30
0.0
  0
DIMENSION
  8
0
  5
338
  2
*D35
 10
334.32
 20
470.4
 30
0.0
 11
334.32
 21
470.4
 31
0.0
  1
%%c500
 13
84.510393
 23
413.250513
 33
0.0
 14
584.129607
 24
413.250513
 34
0.0
  3
LC-DIM-L-0140-02-02
  0
LINE
  8
LC-001-002-----0
  6
CONTINUOUS
  5
33A
 10
222.277662
 20
403.891312
 30
0.0
 11
241.3575
 21
402.504792
 31
0.0
  0
LINE
  8
LC-003-005-----0
  6
CONTINUOUS
  5
33B
 10
262.492609
 20
188.953504
 30
0.0
 11
264.92
 21
191.380895
 31
0.0
  0
LINE
  8
LC-003-005-----0
  6
CONTINUOUS
  5
33C
 10
261.82
 20
193.937749
 30
0.0
 11
264.92
 21
197.037749
 31
0.0
  0
LINE
  8
LC-003-005-----0
  6
CONTINUOUS
  5
33D
 10
261.82
 20
199.594603
 30
0.0
 11
264.92
 21
202.694603
 31
0.0
  0
LINE
  8
LC-003-005-----0
  6
CONTINUOUS
  5
33E
 10
261.82
 20
205.251458
 30
0.0
 11
264.92
 21
208.351458
 31
0.0
  0
LINE
  8
LC-003-005-----0
  6
CONTINUOUS
  5
33F
 10
261.82
 20
210.908312
 30
0.0
 11
264.92
 21
214.008312
 31
0.0
  0
LINE
  8
LC-003-005-----0
  6
CONTINUOUS
  5
340
 10
261.82
 20
216.565166
 30
0.0
 11
264.92
 21
219.665166
 31
0.0
  0
LINE
  8
LC-001-002-----0
  6
CONTINUOUS
  5
341
 10
215.244103
 20
403.328198
 30
0.0
 11
221.320949
 21
400.89901
 31
0.0
  0
LINE
  8
LC-001-002-----0
  6
CONTINUOUS
  5
342
 10
216.358102
 20
406.257625
 30
0.0
 11
222.277662
 21
403.891312
 31
0.0
  0
LINE
  8
LC-003-005-----0
  6
CONTINUOUS
  5
343
 10
261.82
 20
222.22202
 30
0.0
 11
264.92
 21
225.32202
 31
0.0
  0
LINE
  8
LC-001-002-----0
  6
CONTINUOUS
  5
344
 10
241.3575
 20
402.624696
 30
0.0
 11
241.3575
 21
394.894653
 31
0.0
  0
LINE
  8
LC-003-005-----0
  6
CONTINUOUS
  5
345
 10
261.82
 20
227.878875
 30
0.0
 11
264.92
 21
230.978875
 31
0.0
  0
LINE
  8
LC-003-005-----0
  6
CONTINUOUS
  5
346
 10
261.82
 20
233.535729
 30
0.0
 11
264.92
 21
236.635729
 31
0.0
  0
LINE
  8
LC-003-005-----0
  6
CONTINUOUS
  5
347
 10
261.82
 20
239.192583
 30
0.0
 11
264.92
 21
242.292583
 31
0.0
  0
LINE
  8
LC-003-005-----0
  6
CONTINUOUS
  5
348
 10
261.82
 20
244.849437
 30
0.0
 11
264.92
 21
247.949437
 31
0.0
  0
LINE
  8
LC-003-005-----0
  6
CONTINUOUS
  5
349
 10
261.82
 20
250.506292
 30
0.0
 11
264.92
 21
253.606292
 31
0.0
  0
LINE
  8
LC-003-005-----0
  6
CONTINUOUS
  5
34A
 10
261.82
 20
256.163146
 30
0.0
 11
264.92
 21
259.263146
 31
0.0
  0
LINE
  8
LC-003-005-----0
  6
CONTINUOUS
  5
34B
 10
261.82
 20
261.82
 30
0.0
 11
264.92
 21
264.92
 31
0.0
  0
LINE
  8
LC-003-005-----0
  6
CONTINUOUS
  5
34C
 10
261.82
 20
267.476854
 30
0.0
 11
264.92
 21
270.576854
 31
0.0
  0
LINE
  8
LC-003-005-----0
  6
CONTINUOUS
  5
34D
 10
261.82
 20
273.133708
 30
0.0
 11
264.92
 21
276.233708
 31
0.0
  0
LINE
  8
LC-003-005-----0
  6
CONTINUOUS
  5
34E
 10
261.82
 20
278.790563
 30
0.0
 11
264.92
 21
281.890563
 31
0.0
  0
LINE
  8
LC-003-005-----0
  6
CONTINUOUS
  5
34F
 10
261.82
 20
284.447417
 30
0.0
 11
264.92
 21
287.547417
 31
0.0
  0
LINE
  8
LC-003-005-----0
  6
CONTINUOUS
  5
350
 10
261.82
 20
290.104271
 30
0.0
 11
264.92
 21
293.204271
 31
0.0
  0
LINE
  8
LC-003-005-----0
  6
CONTINUOUS
  5
351
 10
261.82
 20
295.761125
 30
0.0
 11
264.92
 21
298.861125
 31
0.0
  0
LINE
  8
LC-003-005-----0
  6
CONTINUOUS
  5
352
 10
261.82
 20
301.41798
 30
0.0
 11
264.92
 21
304.51798
 31
0.0
  0
LINE
  8
LC-003-005-----0
  6
CONTINUOUS
  5
353
 10
261.82
 20
307.074834
 30
0.0
 11
264.92
 21
310.174834
 31
0.0
  0
LINE
  8
LC-003-005-----0
  6
CONTINUOUS
  5
354
 10
261.82
 20
312.731688
 30
0.0
 11
264.92
 21
315.831688
 31
0.0
  0
LINE
  8
LC-003-005-----0
  6
CONTINUOUS
  5
355
 10
261.82
 20
318.388542
 30
0.0
 11
264.92
 21
321.488542
 31
0.0
  0
LINE
  8
LC-003-005-----0
  6
CONTINUOUS
  5
356
 10
261.82
 20
324.045397
 30
0.0
 11
264.92
 21
327.145397
 31
0.0
  0
LINE
  8
LC-003-005-----0
  6
CONTINUOUS
  5
357
 10
261.82
 20
329.702251
 30
0.0
 11
264.92
 21
332.802251
 31
0.0
  0
LINE
  8
LC-003-005-----0
  6
CONTINUOUS
  5
358
 10
261.82
 20
335.359105
 30
0.0
 11
264.92
 21
338.459105
 31
0.0
  0
LINE
  8
LC-003-005-----0
  6
CONTINUOUS
  5
359
 10
261.82
 20
341.015959
 30
0.0
 11
264.92
 21
344.115959
 31
0.0
  0
LINE
  8
LC-003-005-----0
  6
CONTINUOUS
  5
35A
 10
403.72
 20
188.759539
 30
0.0
 11
406.82
 21
191.859539
 31
0.0
  0
LINE
  8
LC-003-005-----0
  6
CONTINUOUS
  5
35B
 10
403.72
 20
194.416393
 30
0.0
 11
406.82
 21
197.516393
 31
0.0
  0
LINE
  8
LC-003-005-----0
  6
CONTINUOUS
  5
35C
 10
403.72
 20
200.073247
 30
0.0
 11
406.82
 21
203.173247
 31
0.0
  0
LINE
  8
LC-003-005-----0
  6
CONTINUOUS
  5
35D
 10
403.72
 20
205.730101
 30
0.0
 11
406.82
 21
208.830101
 31
0.0
  0
LINE
  8
LC-001-002-----0
  6
CONTINUOUS
  5
35E
 10
427.2825
 20
402.624696
 30
0.0
 11
427.2825
 21
402.506877
 31
0.0
  0
LINE
  8
LC-003-005-----0
  6
CONTINUOUS
  5
35F
 10
403.72
 20
211.386956
 30
0.0
 11
406.82
 21
214.486956
 31
0.0
  0
LINE
  8
LC-003-005-----0
  6
CONTINUOUS
  5
360
 10
403.72
 20
217.04381
 30
0.0
 11
406.82
 21
220.14381
 31
0.0
  0
LINE
  8
LC-003-005-----0
  6
CONTINUOUS
  5
361
 10
403.72
 20
222.700664
 30
0.0
 11
406.82
 21
225.800664
 31
0.0
  0
LINE
  8
LC-003-005-----0
  6
CONTINUOUS
  5
362
 10
403.72
 20
228.357518
 30
0.0
 11
406.82
 21
231.457518
 31
0.0
  0
LINE
  8
LC-003-005-----0
  6
CONTINUOUS
  5
363
 10
403.72
 20
234.014373
 30
0.0
 11
406.82
 21
237.114373
 31
0.0
  0
LINE
  8
LC-003-005-----0
  6
CONTINUOUS
  5
364
 10
403.72
 20
239.671227
 30
0.0
 11
406.82
 21
242.771227
 31
0.0
  0
LINE
  8
LC-003-005-----0
  6
CONTINUOUS
  5
365
 10
403.72
 20
245.328081
 30
0.0
 11
406.82
 21
248.428081
 31
0.0
  0
LINE
  8
LC-003-005-----0
  6
CONTINUOUS
  5
366
 10
403.72
 20
250.984935
 30
0.0
 11
406.82
 21
254.084935
 31
0.0
  0
LINE
  8
LC-003-005-----0
  6
CONTINUOUS
  5
367
 10
403.72
 20
256.64179
 30
0.0
 11
406.82
 21
259.74179
 31
0.0
  0
LINE
  8
LC-003-005-----0
  6
CONTINUOUS
  5
368
 10
403.72
 20
262.298644
 30
0.0
 11
406.82
 21
265.398644
 31
0.0
  0
LINE
  8
LC-003-005-----0
  6
CONTINUOUS
  5
369
 10
403.72
 20
267.955498
 30
0.0
 11
406.82
 21
271.055498
 31
0.0
  0
LINE
  8
LC-003-005-----0
  6
CONTINUOUS
  5
36A
 10
403.72
 20
273.612352
 30
0.0
 11
406.82
 21
276.712352
 31
0.0
  0
LINE
  8
LC-003-005-----0
  6
CONTINUOUS
  5
36B
 10
403.72
 20
279.269207
 30
0.0
 11
406.82
 21
282.369207
 31
0.0
  0
LINE
  8
LC-003-005-----0
  6
CONTINUOUS
  5
36C
 10
403.72
 20
284.926061
 30
0.0
 11
406.82
 21
288.026061
 31
0.0
  0
LINE
  8
LC-003-005-----0
  6
CONTINUOUS
  5
36D
 10
403.72
 20
290.582915
 30
0.0
 11
406.82
 21
293.682915
 31
0.0
  0
LINE
  8
LC-003-005-----0
  6
CONTINUOUS
  5
36E
 10
403.72
 20
296.239769
 30
0.0
 11
406.82
 21
299.339769
 31
0.0
  0
LINE
  8
LC-003-005-----0
  6
CONTINUOUS
  5
36F
 10
261.82
 20
346.672814
 30
0.0
 11
264.92
 21
349.772814
 31
0.0
  0
LINE
  8
LC-003-005-----0
  6
CONTINUOUS
  5
370
 10
261.82
 20
352.329668
 30
0.0
 11
264.92
 21
355.429668
 31
0.0
  0
LINE
  8
LC-003-005-----0
  6
CONTINUOUS
  5
371
 10
261.82
 20
357.986522
 30
0.0
 11
264.92
 21
361.086522
 31
0.0
  0
LINE
  8
LC-003-005-----0
  6
CONTINUOUS
  5
372
 10
261.82
 20
363.643376
 30
0.0
 11
264.543594
 21
366.366971
 31
0.0
  0
LINE
  8
LC-001-002-----0
  6
CONTINUOUS
  5
373
 10
183.568257
 20
408.550513
 30
0.0
 11
216.358102
 21
406.257625
 31
0.0
  0
LINE
  8
LC-003-005-----0
  6
CONTINUOUS
  5
374
 10
258.997577
 20
366.477808
 30
0.0
 11
261.667986
 21
369.148217
 31
0.0
  0
LINE
  8
LC-003-005-----0
  6
CONTINUOUS
  5
375
 10
255.353034
 20
368.490119
 30
0.0
 11
257.535728
 21
370.672812
 31
0.0
  0
LINE
  8
LC-005-001-----0
  6
CONTINUOUS
  5
376
 10
221.322861
 20
400.898246
 30
0.0
 11
238.357563
 21
399.707065
 31
0.0
  0
LINE
  8
LC-003-005-----0
  6
CONTINUOUS
  5
377
 10
254.372693
 20
373.166632
 30
0.0
 11
257.372678
 21
376.166617
 31
0.0
  0
LINE
  8
LC-001-002-----0
  6
CONTINUOUS
  5
378
 10
183.568257
 20
405.543187
 30
0.0
 11
215.244103
 21
403.328198
 31
0.0
  0
LINE
  8
LC-001-002-----0
  6
CONTINUOUS
  5
379
 10
183.568257
 20
408.550513
 30
0.0
 11
183.568257
 21
405.543187
 31
0.0
  0
LINE
  8
LC-001-002-----0
  6
CONTINUOUS
  5
37A
 10
485.071743
 20
408.550513
 30
0.0
 11
452.275578
 21
406.257183
 31
0.0
  0
LINE
  8
LC-003-005-----0
  6
CONTINUOUS
  5
37B
 10
403.72
 20
301.896624
 30
0.0
 11
406.82
 21
304.996624
 31
0.0
  0
LINE
  8
LC-005-001-----0
  6
CONTINUOUS
  5
37C
 10
447.310819
 20
400.897804
 30
0.0
 11
430.282437
 21
399.707065
 31
0.0
  0
LINE
  8
LC-003-005-----0
  6
CONTINUOUS
  5
37D
 10
403.72
 20
307.553478
 30
0.0
 11
406.82
 21
310.653478
 31
0.0
  0
LINE
  8
LC-001-002-----0
  6
CONTINUOUS
  5
37E
 10
485.071743
 20
405.543187
 30
0.0
 11
453.389577
 21
403.327756
 31
0.0
  0
LINE
  8
LC-001-002-----0
  6
CONTINUOUS
  5
37F
 10
485.071743
 20
408.550513
 30
0.0
 11
485.071743
 21
405.543187
 31
0.0
  0
ARC
  8
LC-001-002-----0
  6
CONTINUOUS
  5
380
 10
408.82
 20
364.463716
 30
0.0
 40
2.0
 50
90.0
 51
180.0
  0
LINE
  8
LC-001-002-----0
  6
CONTINUOUS
  5
381
 10
406.82
 20
364.463716
 30
0.0
 11
406.82
 21
346.463716
 31
0.0
  0
LINE
  8
LC-001-002-----0
  6
CONTINUOUS
  5
382
 10
263.159746
 20
186.463716
 30
0.0
 11
405.480254
 21
186.463716
 31
0.0
  0
LINE
  8
LC-001-002-----0
  6
CONTINUOUS
  5
383
 10
403.72
 20
346.463716
 30
0.0
 11
403.72
 21
186.463716
 31
0.0
  0
LINE
  8
LC-001-002-----0
  6
CONTINUOUS
  5
384
 10
406.82
 20
346.463716
 30
0.0
 11
406.82
 21
191.463716
 31
0.0
  0
LINE
  8
LC-001-002-----0
  6
CONTINUOUS
  5
385
 10
406.82
 20
191.463716
 30
0.0
 11
405.480254
 21
186.463716
 31
0.0
  0
LINE
  8
LC-001-002-----0
  6
DASHDOT
 62
     2
  5
387
 10
334.32
 20
410.529387
 30
0.0
 11
334.32
 21
265.261852
 31
0.0
  0
LINE
  8
LC-003-005-----0
  6
CONTINUOUS
  5
388
 10
254.336104
 20
378.786897
 30
0.0
 11
257.335722
 21
381.786516
 31
0.0
  0
LINE
  8
LC-003-005-----0
  6
CONTINUOUS
  5
389
 10
248.679249
 20
378.786897
 30
0.0
 11
251.678868
 21
381.786516
 31
0.0
  0
LINE
  8
LC-003-005-----0
  6
CONTINUOUS
  5
38A
 10
243.595133
 20
379.359635
 30
0.0
 11
246.595052
 21
382.359554
 31
0.0
  0
LINE
  8
LC-003-005-----0
  6
CONTINUOUS
  5
38B
 10
243.594901
 20
385.016257
 30
0.0
 11
246.59482
 21
388.016176
 31
0.0
  0
LINE
  8
LC-003-005-----0
  6
CONTINUOUS
  5
38C
 10
242.675493
 20
389.753704
 30
0.0
 11
246.594587
 21
393.672797
 31
0.0
  0
LINE
  8
LC-003-005-----0
  6
CONTINUOUS
  5
38D
 10
238.357758
 20
391.092823
 30
0.0
 11
241.354988
 21
394.090053
 31
0.0
  0
LINE
  8
LC-003-005-----0
  6
CONTINUOUS
  5
38E
 10
244.238379
 20
396.973443
 30
0.0
 11
246.594354
 21
399.329419
 31
0.0
  0
LINE
  8
LC-003-005-----0
  6
CONTINUOUS
  5
38F
 10
238.35763
 20
396.749549
 30
0.0
 11
241.356677
 21
399.748596
 31
0.0
  0
LINE
  8
LC-003-005-----0
  6
CONTINUOUS
  5
390
 10
235.836821
 20
399.885594
 30
0.0
 11
238.652584
 21
402.701357
 31
0.0
  0
LINE
  8
LC-003-005-----0
  6
CONTINUOUS
  5
391
 10
230.549679
 20
400.255307
 30
0.0
 11
233.37896
 21
403.084588
 31
0.0
  0
LINE
  8
LC-003-005-----0
  6
CONTINUOUS
  5
392
 10
225.262538
 20
400.62502
 30
0.0
 11
228.105337
 21
403.467819
 31
0.0
  0
LINE
  8
LC-003-005-----0
  6
CONTINUOUS
  5
393
 10
220.291279
 20
401.310615
 30
0.0
 11
222.831713
 21
403.851049
 31
0.0
  0
LINE
  8
LC-003-005-----0
  6
CONTINUOUS
  5
394
 10
216.249932
 20
402.926123
 30
0.0
 11
218.660902
 21
405.337093
 31
0.0
  0
LINE
  8
LC-003-005-----0
  6
CONTINUOUS
  5
395
 10
211.27285
 20
403.605895
 30
0.0
 11
214.083627
 21
406.416672
 31
0.0
  0
LINE
  8
LC-003-005-----0
  6
CONTINUOUS
  5
396
 10
205.985709
 20
403.975607
 30
0.0
 11
208.796486
 21
406.786384
 31
0.0
  0
LINE
  8
LC-001-002-----0
  6
DASHDOT
 62
     2
  5
397
 10
334.32
 20
265.261852
 30
0.0
 11
334.32
 21
186.463716
 31
0.0
  0
LINE
  8
LC-001-002-----0
  6
CONTINUOUS
  5
398
 10
446.203679
 20
403.829973
 30
0.0
 11
427.2825
 21
402.506877
 31
0.0
  0
LINE
  8
LC-001-002-----0
  6
CONTINUOUS
  5
399
 10
414.281626
 20
378.786897
 30
0.0
 11
425.045017
 21
378.786897
 31
0.0
  0
LINE
  8
LC-001-002-----0
  6
CONTINUOUS
  5
39A
 10
424.193224
 20
399.767492
 30
0.0
 11
422.045657
 21
399.617369
 31
0.0
  0
LINE
  8
LC-001-002-----0
  6
CONTINUOUS
  5
39B
 10
424.193249
 20
399.767147
 30
0.0
 11
424.716352
 21
392.753759
 31
0.0
  0
LINE
  8
LC-001-002-----0
  6
CONTINUOUS
  5
39C
 10
426.349295
 20
392.867909
 30
0.0
 11
424.716352
 21
392.753759
 31
0.0
  0
ARC
  8
LC-001-002-----0
  6
CONTINUOUS
  5
39D
 10
426.279148
 20
393.871389
 30
0.0
 40
1.005929
 50
273.998698
 51
359.998449
  0
LINE
  8
LC-001-002-----0
  6
CONTINUOUS
  5
39E
 10
411.26735
 20
381.786516
 30
0.0
 11
422.044968
 21
381.786516
 31
0.0
  0
LINE
  8
LC-001-002-----0
  6
CONTINUOUS
  5
39F
 10
430.282437
 20
399.707179
 30
0.0
 11
430.282212
 21
389.753606
 31
0.0
  0
LINE
  8
LC-001-002-----0
  6
CONTINUOUS
  5
3A0
 10
427.2825
 20
402.504792
 30
0.0
 11
427.282305
 21
393.871362
 31
0.0
  0
LINE
  8
LC-001-002-----0
  6
CONTINUOUS
  5
3A1
 10
427.2825
 20
402.504792
 30
0.0
 11
427.282305
 21
393.871366
 31
0.0
  0
LINE
  8
LC-001-002-----0
  6
CONTINUOUS
  5
3A2
 10
430.282212
 20
389.753606
 30
0.0
 11
425.045294
 21
389.753725
 31
0.0
  0
LINE
  8
LC-001-002-----0
  6
CONTINUOUS
  5
3A3
 10
425.045294
 20
389.753725
 30
0.0
 11
425.044843
 21
378.786897
 31
0.0
  0
LINE
  8
LC-001-002-----0
  6
CONTINUOUS
  5
3A4
 10
422.045657
 20
399.617369
 30
0.0
 11
422.044924
 21
381.786897
 31
0.0
  0
LINE
  8
LC-003-005-----0
  6
CONTINUOUS
  5
3A5
 10
200.698567
 20
404.34532
 30
0.0
 11
203.509344
 21
407.156097
 31
0.0
  0
LINE
  8
LC-001-002-----0
  6
CONTINUOUS
  5
3A6
 10
410.267345
 20
380.78652
 30
0.0
 11
410.267342
 21
380.28652
 31
0.0
  0
LINE
  8
LC-003-005-----0
  6
CONTINUOUS
  5
3A7
 10
195.411425
 20
404.715033
 30
0.0
 11
198.222202
 21
407.52581
 31
0.0
  0
ARC
  8
LC-001-002-----0
  6
CONTINUOUS
  5
3A8
 10
408.72
 20
364.463716
 30
0.0
 40
5.0
 50
90.0
 51
180.0
  0
LINE
  8
LC-001-002-----0
  6
CONTINUOUS
  5
3A9
 10
403.72
 20
364.463716
 30
0.0
 11
403.72
 21
346.463716
 31
0.0
  0
LINE
  8
LC-001-002-----0
  6
CONTINUOUS
  5
3AA
 10
414.267335
 20
378.786897
 30
0.0
 11
414.267299
 21
371.463692
 31
0.0
  0
ARC
  8
LC-001-002-----0
  6
CONTINUOUS
  5
3AB
 10
409.267299
 20
371.463716
 30
0.0
 40
5.0
 50
270.0
 51
359.99972
  0
LINE
  8
LC-001-002-----0
  6
CONTINUOUS
  5
3AC
 10
334.32
 20
369.463716
 30
0.0
 11
409.267299
 21
369.463716
 31
0.0
  0
ARC
  8
LC-001-002-----0
  6
CONTINUOUS
  5
3AD
 10
409.267299
 20
371.463716
 30
0.0
 40
2.0
 50
270.0
 51
359.99972
  0
LINE
  8
LC-001-002-----0
  6
CONTINUOUS
  5
3AE
 10
411.267337
 20
379.286516
 30
0.0
 11
411.267299
 21
371.463706
 31
0.0
  0
LINE
  8
LC-001-002-----0
  6
CONTINUOUS
  5
3AF
 10
254.358374
 20
378.786897
 30
0.0
 11
243.594983
 21
378.786897
 31
0.0
  0
LINE
  8
LC-003-005-----0
  6
CONTINUOUS
  5
3B0
 10
190.124284
 20
405.084745
 30
0.0
 11
192.935061
 21
407.895522
 31
0.0
  0
LINE
  8
LC-001-002-----0
  6
CONTINUOUS
  5
3B1
 10
244.446751
 20
399.767147
 30
0.0
 11
243.923648
 21
392.753759
 31
0.0
  0
LINE
  8
LC-001-002-----0
  6
CONTINUOUS
  5
3B2
 10
242.290705
 20
392.867909
 30
0.0
 11
243.923648
 21
392.753759
 31
0.0
  0
ARC
  8
LC-001-002-----0
  6
CONTINUOUS
  5
3B3
 10
242.360852
 20
393.871389
 30
0.0
 40
1.005929
 50
180.001551
 51
266.001302
  0
LINE
  8
LC-003-005-----0
  6
CONTINUOUS
  5
3B4
 10
184.837142
 20
405.454458
 30
0.0
 11
187.647919
 21
408.265235
 31
0.0
  0
LINE
  8
LC-003-005-----0
  6
CONTINUOUS
  5
3B5
 10
403.72
 20
313.210332
 30
0.0
 11
406.82
 21
316.310332
 31
0.0
  0
LINE
  8
LC-003-005-----0
  6
CONTINUOUS
  5
3B6
 10
403.72
 20
318.867186
 30
0.0
 11
406.82
 21
321.967186
 31
0.0
  0
LINE
  8
LC-003-005-----0
  6
CONTINUOUS
  5
3B7
 10
403.72
 20
324.524041
 30
0.0
 11
406.82
 21
327.624041
 31
0.0
  0
LINE
  8
LC-003-005-----0
  6
CONTINUOUS
  5
3B8
 10
484.71414
 20
405.518181
 30
0.0
 11
485.071743
 21
405.875783
 31
0.0
  0
LINE
  8
LC-003-005-----0
  6
CONTINUOUS
  5
3B9
 10
403.72
 20
330.180895
 30
0.0
 11
406.82
 21
333.280895
 31
0.0
  0
LINE
  8
LC-003-005-----0
  6
CONTINUOUS
  5
3BA
 10
478.63198
 20
405.092875
 30
0.0
 11
481.865409
 21
408.326304
 31
0.0
  0
LINE
  8
LC-003-005-----0
  6
CONTINUOUS
  5
3BB
 10
403.72
 20
335.837749
 30
0.0
 11
406.82
 21
338.937749
 31
0.0
  0
LINE
  8
LC-003-005-----0
  6
CONTINUOUS
  5
3BC
 10
472.54982
 20
404.667569
 30
0.0
 11
475.783249
 21
407.900998
 31
0.0
  0
LINE
  8
LC-003-005-----0
  6
CONTINUOUS
  5
3BD
 10
403.72
 20
341.494603
 30
0.0
 11
406.82
 21
344.594603
 31
0.0
  0
LINE
  8
LC-001-002-----0
  6
CONTINUOUS
  5
3BE
 10
238.357563
 20
399.707179
 30
0.0
 11
238.357788
 21
389.753606
 31
0.0
  0
LINE
  8
LC-001-002-----0
  6
CONTINUOUS
  5
3BF
 10
241.3575
 20
402.504792
 30
0.0
 11
241.357695
 21
393.871362
 31
0.0
  0
LINE
  8
LC-001-002-----0
  6
CONTINUOUS
  5
3C0
 10
241.3575
 20
402.504792
 30
0.0
 11
241.357695
 21
393.871366
 31
0.0
  0
LINE
  8
LC-001-002-----0
  6
CONTINUOUS
  5
3C1
 10
238.357788
 20
389.753606
 30
0.0
 11
243.594706
 21
389.753725
 31
0.0
  0
LINE
  8
LC-001-002-----0
  6
CONTINUOUS
  5
3C2
 10
243.594706
 20
389.753725
 30
0.0
 11
243.595157
 21
378.786897
 31
0.0
  0
LINE
  8
LC-001-002-----0
  6
CONTINUOUS
  5
3C3
 10
246.594343
 20
399.617369
 30
0.0
 11
246.595076
 21
381.786897
 31
0.0
  0
LINE
  8
LC-003-005-----0
  6
CONTINUOUS
  5
3C4
 10
466.46766
 20
404.242264
 30
0.0
 11
469.701089
 21
407.475693
 31
0.0
  0
LINE
  8
LC-001-002-----0
  6
CONTINUOUS
  5
3C5
 10
244.446776
 20
399.767492
 30
0.0
 11
246.594343
 21
399.617369
 31
0.0
  0
LINE
  8
LC-003-005-----0
  6
CONTINUOUS
  5
3C6
 10
403.72
 20
347.151458
 30
0.0
 11
406.82
 21
350.251458
 31
0.0
  0
LINE
  8
LC-003-005-----0
  6
CONTINUOUS
  5
3C7
 10
460.385501
 20
403.816958
 30
0.0
 11
463.618929
 21
407.050387
 31
0.0
  0
LINE
  8
LC-001-002-----0
  6
CONTINUOUS
  5
3C8
 10
254.358374
 20
378.786897
 30
0.0
 11
243.594983
 21
378.786897
 31
0.0
  0
LINE
  8
LC-003-005-----0
  6
CONTINUOUS
  5
3C9
 10
183.568257
 20
408.428214
 30
0.0
 11
183.682563
 21
408.542519
 31
0.0
  0
LINE
  8
LC-001-002-----0
  6
CONTINUOUS
  5
3CA
 10
257.372655
 20
381.786516
 30
0.0
 11
246.595032
 21
381.786516
 31
0.0
  0
ARC
  8
LC-001-002-----0
  6
CONTINUOUS
  5
3CB
 10
257.372655
 20
380.786516
 30
0.0
 40
1.0
 50
0.00028
 51
90.00028
  0
LINE
  8
LC-001-002-----0
  6
CONTINUOUS
  5
3CC
 10
258.372655
 20
380.78652
 30
0.0
 11
258.372658
 21
380.28652
 31
0.0
  0
ARC
  8
LC-001-002-----0
  6
CONTINUOUS
  5
3CD
 10
257.372658
 20
380.286516
 30
0.0
 40
1.0
 50
270.00028
 51
0.00028
  0
LINE
  8
LC-001-002-----0
  6
CONTINUOUS
  5
3CE
 10
254.372665
 20
378.786897
 30
0.0
 11
254.372701
 21
371.463692
 31
0.0
  0
LINE
  8
LC-001-002-----0
  6
CONTINUOUS
  5
3CF
 10
334.32
 20
369.463716
 30
0.0
 11
259.372701
 21
369.463716
 31
0.0
  0
ARC
  8
LC-001-002-----0
  6
CONTINUOUS
  5
3D0
 10
259.372701
 20
371.463716
 30
0.0
 40
2.0
 50
180.00028
 51
270.0
  0
LINE
  8
LC-001-002-----0
  6
CONTINUOUS
  5
3D1
 10
257.372663
 20
379.286516
 30
0.0
 11
257.372701
 21
371.463706
 31
0.0
  0
LINE
  8
LC-003-005-----0
  6
CONTINUOUS
  5
3D2
 10
403.72
 20
352.808312
 30
0.0
 11
406.82
 21
355.908312
 31
0.0
  0
LINE
  8
LC-003-005-----0
  6
CONTINUOUS
  5
3D3
 10
454.303341
 20
403.391652
 30
0.0
 11
457.536769
 21
406.625081
 31
0.0
  0
LINE
  8
LC-003-005-----0
  6
CONTINUOUS
  5
3D4
 10
403.72
 20
358.465166
 30
0.0
 11
406.82
 21
361.565166
 31
0.0
  0
LINE
  8
LC-003-005-----0
  6
CONTINUOUS
  5
3D5
 10
424.041731
 20
378.786897
 30
0.0
 11
425.044884
 21
379.79005
 31
0.0
  0
ARC
  8
LC-001-002-----0
  6
CONTINUOUS
  5
3D6
 10
259.372701
 20
371.463716
 30
0.0
 40
5.0
 50
180.00028
 51
270.0
  0
LINE
  8
LC-003-005-----0
  6
CONTINUOUS
  5
3D7
 10
446.065561
 20
400.810727
 30
0.0
 11
451.003518
 21
405.748684
 31
0.0
  0
LINE
  8
LC-003-005-----0
  6
CONTINUOUS
  5
3D8
 10
403.72
 20
364.12202
 30
0.0
 11
409.061696
 21
369.463716
 31
0.0
  0
LINE
  8
LC-001-002-----0
  6
CONTINUOUS
  5
3D9
 10
408.82
 20
366.463716
 30
0.0
 11
409.267299
 21
366.463716
 31
0.0
  0
ARC
  8
LC-001-002-----0
  6
CONTINUOUS
  5
3DA
 10
411.267345
 20
380.786516
 30
0.0
 40
1.0
 50
89.99972
 51
179.99972
  0
ARC
  8
LC-001-002-----0
  6
CONTINUOUS
  5
3DB
 10
411.267342
 20
380.286516
 30
0.0
 40
1.0
 50
179.99972
 51
269.99972
  0
LINE
  8
LC-001-002-----0
  6
CONTINUOUS
 62
     2
  5
3DC
 10
262.821677
 20
114.085263
 30
0.0
 11
405.318323
 21
114.085263
 31
0.0
  0
LINE
  8
LC-001-002-----0
  6
CONTINUOUS
  5
3DD
 10
261.82
 20
346.463716
 30
0.0
 11
261.82
 21
191.463716
 31
0.0
  0
LINE
  8
LC-001-002-----0
  6
CONTINUOUS
  5
3DE
 10
264.92
 20
346.463716
 30
0.0
 11
264.92
 21
186.463716
 31
0.0
  0
LINE
  8
LC-001-002-----0
  6
CONTINUOUS
  5
3DF
 10
261.82
 20
364.463716
 30
0.0
 11
261.82
 21
346.463716
 31
0.0
  0
LINE
  8
LC-001-002-----0
  6
CONTINUOUS
  5
3E0
 10
264.92
 20
364.463716
 30
0.0
 11
264.92
 21
346.463716
 31
0.0
  0
LINE
  8
LC-001-002-----0
  6
CONTINUOUS
  5
3E1
 10
261.82
 20
191.463716
 30
0.0
 11
263.159746
 21
186.463716
 31
0.0
  0
ARC
  8
LC-001-002-----0
  6
CONTINUOUS
  5
3E2
 10
259.92
 20
364.463716
 30
0.0
 40
5.0
 50
0.0
 51
90.0
  0
ARC
  8
LC-001-002-----0
  6
CONTINUOUS
  5
3E3
 10
259.82
 20
364.463716
 30
0.0
 40
2.0
 50
0.0
 51
90.0
  0
LINE
  8
LC-003-005-----0
  6
CONTINUOUS
  5
3E4
 10
411.2673
 20
371.66932
 30
0.0
 11
414.267315
 21
374.669335
 31
0.0
  0
LINE
  8
LC-001-002-----0
  6
CONTINUOUS
  5
3E5
 10
259.372701
 20
366.463716
 30
0.0
 11
259.82
 21
366.463716
 31
0.0
  0
LINE
  8
LC-003-005-----0
  6
CONTINUOUS
  5
3E6
 10
418.384877
 20
378.786897
 30
0.0
 11
421.384495
 21
381.786516
 31
0.0
  0
LINE
  8
LC-003-005-----0
  6
CONTINUOUS
  5
3E7
 10
422.044951
 20
382.446972
 30
0.0
 11
425.045117
 21
385.447137
 31
0.0
  0
LINE
  8
LC-003-005-----0
  6
CONTINUOUS
  5
3E8
 10
429.351607
 20
389.753627
 30
0.0
 11
430.282233
 21
390.684253
 31
0.0
  0
LINE
  8
LC-003-005-----0
  6
CONTINUOUS
  5
3E9
 10
439.985834
 20
400.387854
 30
0.0
 11
443.219263
 21
403.621283
 31
0.0
  0
LINE
  8
LC-003-005-----0
  6
CONTINUOUS
  5
3EA
 10
411.267328
 20
377.326202
 30
0.0
 11
415.727641
 21
381.786516
 31
0.0
  0
LINE
  8
LC-001-002-----0
  6
CONTINUOUS
  5
3EB
 10
452.275578
 20
406.257183
 30
0.0
 11
446.203679
 21
403.829973
 31
0.0
  0
LINE
  8
LC-001-002-----0
  6
CONTINUOUS
  5
3EC
 10
453.389577
 20
403.327756
 30
0.0
 11
447.310819
 21
400.897804
 31
0.0
  0
LINE
  8
LC-003-005-----0
  6
CONTINUOUS
  5
3ED
 10
422.045184
 20
388.104059
 30
0.0
 11
430.282361
 21
396.341235
 31
0.0
  0
LINE
  8
LC-003-005-----0
  6
CONTINUOUS
  5
3EE
 10
433.903674
 20
399.962548
 30
0.0
 11
437.137103
 21
403.195977
 31
0.0
  0
LINE
  8
LC-003-005-----0
  6
CONTINUOUS
  5
3EF
 10
422.045417
 20
393.761145
 30
0.0
 11
424.461042
 21
396.176771
 31
0.0
  0
LINE
  8
LC-003-005-----0
  6
CONTINUOUS
  5
3F0
 10
427.283547
 20
398.999276
 30
0.0
 11
431.054943
 21
402.770672
 31
0.0
  0
LINE
  8
LC-003-005-----0
  6
CONTINUOUS
  5
3F1
 10
422.045649
 20
399.418232
 30
0.0
 11
422.259752
 21
399.632335
 31
0.0
  0
LINE
  8
LC-001-002-----0
  6
CONTINUOUS
 62
     2
  5
3F2
 10
262.821677
 20
108.085263
 30
0.0
 11
405.818323
 21
108.085263
 31
0.0
  0
LINE
  8
LC-001-002-----0
  6
CONTINUOUS
  5
3F3
 10
260.073163
 20
101.58515
 30
0.0
 11
256.073163
 21
101.584445
 31
0.0
  0
ARC
  8
LC-001-002-----0
  6
CONTINUOUS
  5
3F4
 10
262.821677
 20
102.085635
 30
0.0
 40
0.5
 50
225.0
 51
23.726263
  0
ARC
  8
LC-010-002-RND-0
  6
CONTINUOUS
  5
3F6
 10
260.572934
 20
102.885196
 30
0.0
 40
0.5
 50
90.010108
 51
180.010108
  0
ARC
  8
LC-010-002-RND-0
  6
CONTINUOUS
  5
3F7
 10
260.607896
 20
102.885202
 30
0.0
 40
0.5
 50
45.0
 51
90.010108
  0
ARC
  8
LC-001-002-----0
  6
CONTINUOUS
  5
3F8
 10
262.821677
 20
108.585263
 30
0.0
 40
0.5
 50
225.0
 51
23.726263
  0
LINE
  8
LC-001-002-----0
  6
CONTINUOUS
  5
3F9
 10
260.961449
 20
103.238756
 30
0.0
 11
262.468124
 21
101.732082
 31
0.0
  0
LINE
  8
LC-001-002-----0
  6
CONTINUOUS
  5
3FA
 10
260.607808
 20
103.385202
 30
0.0
 11
260.572846
 21
103.385196
 31
0.0
  0
ARC
  8
LC-001-002-----0
  6
CONTINUOUS
  5
3FB
 10
262.821677
 20
114.585263
 30
0.0
 40
0.5
 50
225.0
 51
23.726263
  0
ARC
  8
LC-001-002-----0
  6
CONTINUOUS
  5
3FC
 10
262.571677
 20
110.183581
 30
0.0
 40
7.0
 50
150.932725
 51
201.796223
  0
LINE
  8
LC-001-002-----0
  6
CONTINUOUS
  5
3FD
 10
260.92024
 20
120.085258
 30
0.0
 11
257.700987
 21
120.08469
 31
0.0
  0
LINE
  8
LC-001-002-----0
  6
CONTINUOUS
  5
3FE
 10
256.072105
 20
107.584434
 30
0.0
 11
256.073163
 21
101.584402
 31
0.0
  0
LINE
  8
LC-001-002-----0
  6
CONTINUOUS
  5
3FF
 10
260.920282
 20
120.085162
 30
0.0
 11
407.825034
 21
120.085162
 31
0.0
  0
LINE
  8
LC-001-002-----0
  6
DASHDOT
 62
     2
  5
400
 10
334.32
 20
120.085162
 30
0.0
 11
334.32
 21
101.58515
 31
0.0
  0
LINE
  8
LC-001-002-----0
  6
CONTINUOUS
  5
401
 10
260.073163
 20
101.58515
 30
0.0
 11
408.566837
 21
101.58515
 31
0.0
  0
LINE
  8
LC-001-002-----0
  6
CONTINUOUS
  5
402
 10
263.279421
 20
108.786449
 30
0.0
 11
260.445371
 21
114.86409
 31
0.0
  0
ARC
  8
LC-001-002-----0
  6
CONTINUOUS
  5
403
 10
260.904737
 20
115.078296
 30
0.0
 40
0.506855
 50
45.0
 51
205.0
  0
LINE
  8
LC-001-002-----0
  6
CONTINUOUS
  5
404
 10
261.263138
 20
115.436696
 30
0.0
 11
262.468124
 21
114.23171
 31
0.0
  0
LINE
  8
LC-001-002-----0
  6
CONTINUOUS
  5
405
 10
263.279416
 20
114.786447
 30
0.0
 11
260.808549
 21
120.085238
 31
0.0
  0
ARC
  8
LC-001-002-----0
  6
CONTINUOUS
  5
406
 10
260.071677
 20
116.259794
 30
0.0
 40
4.5
 50
121.790849
 51
216.478736
  0
LINE
  8
LC-001-002-----0
  6
CONTINUOUS
  5
407
 10
408.566837
 20
101.58515
 30
0.0
 11
412.566837
 21
101.584445
 31
0.0
  0
LINE
  8
LC-001-002-----0
  6
CONTINUOUS
  5
408
 10
408.567066
 20
102.885108
 30
0.0
 11
408.566837
 21
101.585108
 31
0.0
  0
LINE
  8
LC-001-002-----0
  6
CONTINUOUS
  5
409
 10
405.360584
 20
102.286819
 30
0.0
 11
408.516213
 21
109.054087
 31
0.0
  0
LINE
  8
LC-001-002-----0
  6
CONTINUOUS
  5
40A
 10
405.360579
 20
108.786449
 30
0.0
 11
408.194629
 21
114.86409
 31
0.0
  0
ARC
  8
LC-001-002-----0
  6
CONTINUOUS
  5
40B
 10
405.818323
 20
102.085635
 30
0.0
 40
0.5
 50
156.273737
 51
315.0
  0
ARC
  8
LC-010-002-RND-0
  6
CONTINUOUS
  5
40C
 10
408.067066
 20
102.885196
 30
0.0
 40
0.5
 50
359.989892
 51
89.989892
  0
ARC
  8
LC-001-002-----0
  6
CONTINUOUS
  5
40D
 10
408.013372
 20
109.288566
 30
0.0
 40
0.554824
 50
335.0
 51
135.0
  0
ARC
  8
LC-010-002-RND-0
  6
CONTINUOUS
  5
40E
 10
408.032104
 20
102.885202
 30
0.0
 40
0.5
 50
89.989892
 51
135.0
  0
ARC
  8
LC-001-002-----0
  6
CONTINUOUS
  5
40F
 10
408.568323
 20
116.259794
 30
0.0
 40
4.5
 50
323.521264
 51
58.209151
  0
LINE
  8
LC-001-002-----0
  6
CONTINUOUS
  5
410
 10
407.621052
 20
109.680886
 30
0.0
 11
406.171876
 21
108.23171
 31
0.0
  0
ARC
  8
LC-001-002-----0
  6
CONTINUOUS
  5
411
 10
405.818323
 20
108.585263
 30
0.0
 40
0.5
 50
156.273737
 51
315.0
  0
LINE
  8
LC-001-002-----0
  6
CONTINUOUS
  5
412
 10
407.678551
 20
103.238756
 30
0.0
 11
406.171876
 21
101.732082
 31
0.0
  0
ARC
  8
LC-001-002-----0
  6
CONTINUOUS
  5
413
 10
407.735263
 20
115.078296
 30
0.0
 40
0.506855
 50
335.0
 51
135.0
  0
LINE
  8
LC-001-002-----0
  6
CONTINUOUS
  5
414
 10
408.032192
 20
103.385202
 30
0.0
 11
408.067154
 21
103.385196
 31
0.0
  0
ARC
  8
LC-001-002-----0
  6
CONTINUOUS
  5
415
 10
405.818323
 20
114.585263
 30
0.0
 40
0.5
 50
156.273737
 51
315.0
  0
LINE
  8
LC-001-002-----0
  6
CONTINUOUS
  5
416
 10
405.360584
 20
114.786447
 30
0.0
 11
407.831451
 21
120.085238
 31
0.0
  0
LINE
  8
LC-001-002-----0
  6
CONTINUOUS
  5
417
 10
407.376862
 20
115.436696
 30
0.0
 11
406.171876
 21
114.23171
 31
0.0
  0
ARC
  8
LC-001-002-----0
  6
CONTINUOUS
  5
418
 10
406.068323
 20
110.183581
 30
0.0
 40
7.0
 50
338.203777
 51
29.067275
  0
LINE
  8
LC-001-002-----0
  6
CONTINUOUS
  5
419
 10
407.71976
 20
120.085258
 30
0.0
 11
410.939013
 21
120.08469
 31
0.0
  0
LINE
  8
LC-001-002-----0
  6
CONTINUOUS
  5
41A
 10
412.567895
 20
107.584434
 30
0.0
 11
412.566837
 21
101.584402
 31
0.0
  0
LINE
  8
LC-001-002-----0
  6
CONTINUOUS
  5
41B
 10
261.018948
 20
109.680886
 30
0.0
 11
262.468124
 21
108.23171
 31
0.0
  0
LINE
  8
LC-001-002-----0
  6
CONTINUOUS
  5
41C
 10
260.072934
 20
102.885196
 30
0.0
 11
260.073163
 21
101.585108
 31
0.0
  0
ARC
  8
LC-001-002-----0
  6
CONTINUOUS
  5
41D
 10
260.626628
 20
109.288566
 30
0.0
 40
0.554824
 50
45.0
 51
205.0
  0
LINE
  8
LC-001-002-----0
  6
CONTINUOUS
  5
41E
 10
263.279416
 20
102.286819
 30
0.0
 11
260.123787
 21
109.054087
 31
0.0
  0
LINE
  8
LC-001-002-----0
  6
CONTINUOUS
  5
41F
 10
427.334353
 20
402.628322
 30
0.0
 11
421.398701
 21
402.213261
 31
0.0
  0
LINE
  8
LC-001-002-----0
  6
CONTINUOUS
  5
420
 10
241.305647
 20
402.628322
 30
0.0
 11
247.241299
 21
402.213261
 31
0.0
  0
ARC
  8
LC-001-002-----0
  6
CONTINUOUS
  5
421
 10
246.960628
 20
398.199475
 30
0.0
 40
4.023715
 50
68.753688
 51
86.001164
  0
LINE
  8
LC-001-002-----0
  6
CONTINUOUS
  5
422
 10
253.358609
 20
396.652552
 30
0.0
 11
248.418734
 21
401.949703
 31
0.0
  0
ARC
  8
LC-001-002-----0
  6
CONTINUOUS
  5
423
 10
253.14138
 20
396.452175
 30
0.0
 40
0.296443
 50
249.999864
 51
42.999864
  0
LINE
  8
LC-001-002-----0
  6
CONTINUOUS
  5
424
 10
253.040424
 20
396.171807
 30
0.0
 11
249.747234
 21
397.370355
 31
0.0
  0
ARC
  8
LC-001-002-----0
  6
CONTINUOUS
  5
425
 10
249.409288
 20
396.441798
 30
0.0
 40
0.988142
 50
70.001161
 51
180.001414
  0
LINE
  8
LC-001-002-----0
  6
CONTINUOUS
  5
426
 10
248.421146
 20
396.441798
 30
0.0
 11
248.421176
 21
395.126059
 31
0.0
  0
LINE
  8
LC-001-002-----0
  6
CONTINUOUS
  5
427
 10
253.358767
 20
389.636741
 30
0.0
 11
248.553913
 21
394.789107
 31
0.0
  0
ARC
  8
LC-001-002-----0
  6
CONTINUOUS
  5
428
 10
253.14138
 20
389.436364
 30
0.0
 40
0.296443
 50
249.999864
 51
42.999864
  0
LINE
  8
LC-001-002-----0
  6
CONTINUOUS
  5
429
 10
253.040583
 20
389.155997
 30
0.0
 11
249.747392
 21
390.354544
 31
0.0
  0
ARC
  8
LC-001-002-----0
  6
CONTINUOUS
  5
42A
 10
249.409447
 20
389.425987
 30
0.0
 40
0.988142
 50
70.001161
 51
180.001414
  0
LINE
  8
LC-001-002-----0
  6
CONTINUOUS
  5
42B
 10
248.421319
 20
389.425965
 30
0.0
 11
248.421381
 21
386.913166
 31
0.0
  0
LINE
  8
LC-001-002-----0
  6
CONTINUOUS
  5
42C
 10
241.305395
 20
402.624717
 30
0.0
 11
241.305395
 21
395.014578
 31
0.0
  0
LINE
  8
LC-001-002-----0
  6
CONTINUOUS
  5
42D
 10
246.16472
 20
399.767492
 30
0.0
 11
246.16472
 21
386.915074
 31
0.0
  0
ARC
  8
LC-010-002-RND-0
  6
CONTINUOUS
  5
42E
 10
242.385245
 20
395.014578
 30
0.0
 40
1.07985
 50
180.0
 51
266.000003
  0
LINE
  8
LC-001-002-----0
  6
CONTINUOUS
  5
42F
 10
242.309918
 20
393.937358
 30
0.0
 11
244.446776
 21
393.787934
 31
0.0
  0
LINE
  8
LC-001-002-----0
  6
CONTINUOUS
  5
430
 10
244.446776
 20
393.787934
 30
0.0
 11
244.446776
 21
399.767492
 31
0.0
  0
LINE
  8
LC-001-002-----0
  6
CONTINUOUS
  5
431
 10
246.16472
 20
399.767492
 30
0.0
 11
244.446776
 21
399.767492
 31
0.0
  0
LINE
  8
LC-001-002-----0
  6
CONTINUOUS
  5
432
 10
422.47528
 20
399.767492
 30
0.0
 11
422.47528
 21
386.915074
 31
0.0
  0
LINE
  8
LC-001-002-----0
  6
CONTINUOUS
  5
433
 10
422.47528
 20
399.767492
 30
0.0
 11
424.193224
 21
399.767492
 31
0.0
  0
LINE
  8
LC-001-002-----0
  6
CONTINUOUS
  5
434
 10
246.165248
 20
386.915074
 30
0.0
 11
248.421381
 21
386.915074
 31
0.0
  0
LINE
  8
LC-001-002-----0
  6
CONTINUOUS
  5
435
 10
427.334605
 20
402.624717
 30
0.0
 11
427.334605
 21
395.001744
 31
0.0
  0
ARC
  8
LC-010-002-RND-0
  6
CONTINUOUS
  5
436
 10
426.254755
 20
395.014578
 30
0.0
 40
1.07985
 50
273.999997
 51
0.0
  0
LINE
  8
LC-001-002-----0
  6
CONTINUOUS
  5
437
 10
426.330082
 20
393.937358
 30
0.0
 11
424.193224
 21
393.787934
 31
0.0
  0
LINE
  8
LC-001-002-----0
  6
CONTINUOUS
  5
438
 10
424.193224
 20
393.787934
 30
0.0
 11
424.193224
 21
399.767492
 31
0.0
  0
ARC
  8
LC-001-002-----0
  6
CONTINUOUS
  5
439
 10
421.679372
 20
398.199475
 30
0.0
 40
4.023715
 50
93.998836
 51
111.246312
  0
LINE
  8
LC-001-002-----0
  6
CONTINUOUS
  5
43A
 10
415.281391
 20
396.652552
 30
0.0
 11
420.221266
 21
401.949703
 31
0.0
  0
ARC
  8
LC-001-002-----0
  6
CONTINUOUS
  5
43B
 10
415.49862
 20
396.452175
 30
0.0
 40
0.296443
 50
137.000136
 51
290.000136
  0
LINE
  8
LC-001-002-----0
  6
CONTINUOUS
  5
43C
 10
415.599576
 20
396.171807
 30
0.0
 11
418.892766
 21
397.370355
 31
0.0
  0
ARC
  8
LC-001-002-----0
  6
CONTINUOUS
  5
43D
 10
419.230712
 20
396.441798
 30
0.0
 40
0.988142
 50
359.998586
 51
109.998839
  0
LINE
  8
LC-001-002-----0
  6
CONTINUOUS
  5
43E
 10
420.218854
 20
396.441798
 30
0.0
 11
420.218824
 21
395.126059
 31
0.0
  0
ARC
  8
LC-001-002-----0
  6
CONTINUOUS
  5
43F
 10
419.724753
 20
395.12607
 30
0.0
 40
0.494071
 50
316.998839
 51
359.998703
  0
LINE
  8
LC-001-002-----0
  6
CONTINUOUS
  5
440
 10
415.281233
 20
389.636741
 30
0.0
 11
420.086087
 21
394.789107
 31
0.0
  0
ARC
  8
LC-001-002-----0
  6
CONTINUOUS
  5
441
 10
415.49862
 20
389.436364
 30
0.0
 40
0.296443
 50
137.000136
 51
290.000136
  0
LINE
  8
LC-001-002-----0
  6
CONTINUOUS
  5
442
 10
415.599417
 20
389.155997
 30
0.0
 11
418.892608
 21
390.354544
 31
0.0
  0
ARC
  8
LC-001-002-----0
  6
CONTINUOUS
  5
443
 10
419.230553
 20
389.425987
 30
0.0
 40
0.988142
 50
359.998586
 51
109.998839
  0
LINE
  8
LC-001-002-----0
  6
CONTINUOUS
  5
444
 10
420.218681
 20
389.425965
 30
0.0
 11
420.218619
 21
386.913166
 31
0.0
  0
LINE
  8
LC-001-002-----0
  6
CONTINUOUS
  5
445
 10
422.474752
 20
386.915074
 30
0.0
 11
420.218619
 21
386.915074
 31
0.0
  0
ARC
  8
LC-001-002-----0
  6
CONTINUOUS
  5
446
 10
248.915247
 20
395.12607
 30
0.0
 40
0.494071
 50
180.001297
 51
223.001161
  0
LINE
  8
LC-001-002-----0
  6
CONTINUOUS
  5
447
 10
183.85356
 20
408.513529
 30
0.0
 11
194.508279
 21
407.775
 31
0.0
  0
LINE
  8
LC-001-002-----0
  6
CONTINUOUS
  5
448
 10
242.472089
 20
402.401646
 30
0.0
 11
234.510393
 21
402.980217
 31
0.0
  0
LINE
  8
LC-001-002-----0
  6
CONTINUOUS
  5
449
 10
485.32
 20
408.550513
 30
0.0
 11
456.956483
 21
406.584504
 31
0.0
  0
LINE
  8
LC-001-002-----0
  6
CONTINUOUS
  5
44A
 10
426.167911
 20
402.401646
 30
0.0
 11
438.838486
 21
403.322408
 31
0.0
  0
LINE
  8
LC-003-005-----0
  6
CONTINUOUS
  5
44B
 10
257.133097
 20
379.099621
 30
0.0
 11
257.311123
 21
379.277647
 31
0.0
  0
LINE
  8
LC-001-002-----0
  6
CONTINUOUS
  5
44C
 10
84.510393
 20
413.250513
 30
0.0
 11
84.510393
 21
408.550513
 31
0.0
  0
LINE
  8
LC-001-002-----0
  6
CONTINUOUS
  5
44D
 10
94.510393
 20
413.250513
 30
0.0
 11
94.510393
 21
408.550513
 31
0.0
  0
LINE
  8
LC-001-002-----0
  6
CONTINUOUS
  5
44E
 10
104.510393
 20
413.250513
 30
0.0
 11
104.510393
 21
408.550513
 31
0.0
  0
LINE
  8
LC-001-002-----0
  6
CONTINUOUS
  5
44F
 10
114.510393
 20
413.250513
 30
0.0
 11
114.510393
 21
408.550513
 31
0.0
  0
LINE
  8
LC-001-002-----0
  6
CONTINUOUS
  5
450
 10
124.510393
 20
413.250513
 30
0.0
 11
124.510393
 21
408.550513
 31
0.0
  0
LINE
  8
LC-001-002-----0
  6
CONTINUOUS
  5
451
 10
134.510393
 20
413.250513
 30
0.0
 11
134.510393
 21
408.550513
 31
0.0
  0
LINE
  8
LC-001-002-----0
  6
CONTINUOUS
  5
452
 10
144.510393
 20
413.250513
 30
0.0
 11
144.510393
 21
408.550513
 31
0.0
  0
LINE
  8
LC-001-002-----0
  6
CONTINUOUS
  5
453
 10
154.510393
 20
413.250513
 30
0.0
 11
154.510393
 21
408.550513
 31
0.0
  0
LINE
  8
LC-001-002-----0
  6
CONTINUOUS
  5
454
 10
164.510393
 20
413.250513
 30
0.0
 11
164.510393
 21
408.550513
 31
0.0
  0
LINE
  8
LC-001-002-----0
  6
CONTINUOUS
  5
455
 10
174.510393
 20
413.250513
 30
0.0
 11
174.510393
 21
408.550513
 31
0.0
  0
LINE
  8
LC-001-002-----0
  6
CONTINUOUS
  5
456
 10
183.856124
 20
408.550513
 30
0.0
 11
84.510393
 21
408.550513
 31
0.0
  0
LINE
  8
LC-001-002-----0
  6
CONTINUOUS
  5
457
 10
184.510393
 20
413.179278
 30
0.0
 11
184.510393
 21
408.504762
 31
0.0
  0
LINE
  8
LC-001-002-----0
  6
CONTINUOUS
  5
458
 10
194.510393
 20
412.486131
 30
0.0
 11
194.510393
 21
407.805494
 31
0.0
  0
LINE
  8
LC-001-002-----0
  6
CONTINUOUS
  5
459
 10
204.510393
 20
411.792984
 30
0.0
 11
204.510393
 21
407.106227
 31
0.0
  0
LINE
  8
LC-001-002-----0
  6
CONTINUOUS
  5
45A
 10
214.510393
 20
411.099837
 30
0.0
 11
214.510393
 21
406.406959
 31
0.0
  0
LINE
  8
LC-001-002-----0
  6
CONTINUOUS
  5
45B
 10
234.510393
 20
407.690765
 30
0.0
 11
234.510393
 21
402.980217
 31
0.0
  0
LINE
  8
LC-001-002-----0
  6
CONTINUOUS
  5
45C
 10
226.518617
 20
410.529387
 30
0.0
 11
442.121383
 21
410.529387
 31
0.0
  0
ARC
  8
LC-001-002-----0
  6
CONTINUOUS
  5
45D
 10
231.958107
 20
414.935285
 30
0.0
 40
7.0
 50
219.006904
 51
266.0
  0
ARC
  8
LC-001-002-----0
  6
CONTINUOUS
  5
45E
 10
231.958107
 20
414.935285
 30
0.0
 40
6.3
 50
224.378071
 51
266.0
  0
LINE
  8
LC-001-002-----0
  6
CONTINUOUS
  5
45F
 10
231.469812
 20
407.952337
 30
0.0
 11
249.197071
 21
406.712726
 31
0.0
  0
LINE
  8
LC-001-002-----0
  6
CONTINUOUS
  5
460
 10
231.516426
 20
408.640206
 30
0.0
 11
249.245901
 21
407.400441
 31
0.0
  0
ARC
  8
LC-010-002-RND-0
  6
CONTINUOUS
  5
461
 10
248.757606
 20
400.417492
 30
0.0
 40
7.0
 50
0.0
 51
86.0
  0
ARC
  8
LC-010-002-RND-0
  6
CONTINUOUS
  5
462
 10
248.757606
 20
400.428073
 30
0.0
 40
6.3
 50
0.0
 51
86.0
  0
LINE
  8
LC-001-002-----0
  6
CONTINUOUS
  5
463
 10
255.057606
 20
400.428073
 30
0.0
 11
255.057606
 21
386.740029
 31
0.0
  0
ARC
  8
LC-001-002-----0
  6
CONTINUOUS
  5
464
 10
258.557606
 20
386.740029
 30
0.0
 40
3.5
 50
180.0
 51
270.0
  0
ARC
  8
LC-001-002-----0
  6
CONTINUOUS
  5
465
 10
258.557606
 20
386.740029
 30
0.0
 40
2.8
 50
180.0
 51
270.0
  0
ARC
  8
LC-001-002-----0
  6
CONTINUOUS
  5
466
 10
258.557886
 20
382.940397
 30
0.0
 40
1.0
 50
359.99972
 51
89.99972
  0
ARC
  8
LC-001-002-----0
  6
CONTINUOUS
  5
467
 10
258.557886
 20
382.940397
 30
0.0
 40
0.3
 50
359.99972
 51
89.99972
  0
LINE
  8
LC-001-002-----0
  6
CONTINUOUS
  5
468
 10
258.857606
 20
382.940029
 30
0.0
 11
258.857606
 21
380.640029
 31
0.0
  0
LINE
  8
LC-001-002-----0
  6
CONTINUOUS
  5
469
 10
259.557606
 20
382.940029
 30
0.0
 11
259.557606
 21
380.640029
 31
0.0
  0
ARC
  8
LC-001-002-----0
  6
CONTINUOUS
  5
46A
 10
258.558128
 20
380.640029
 30
0.0
 40
0.3
 50
270.0
 51
0.0
  0
ARC
  8
LC-001-002-----0
  6
CONTINUOUS
  5
46B
 10
258.557606
 20
380.640029
 30
0.0
 40
1.0
 50
270.0
 51
0.0
  0
ARC
  8
LC-001-002-----0
  6
CONTINUOUS
  5
46C
 10
258.557606
 20
378.840029
 30
0.0
 40
1.5
 50
90.0
 51
180.0
  0
ARC
  8
LC-001-002-----0
  6
CONTINUOUS
  5
46D
 10
258.557606
 20
378.840029
 30
0.0
 40
0.8
 50
90.0
 51
180.0
  0
ARC
  8
LC-001-002-----0
  6
CONTINUOUS
  5
46E
 10
258.557606
 20
378.840029
 30
0.0
 40
1.5
 50
180.0
 51
270.0
  0
ARC
  8
LC-001-002-----0
  6
CONTINUOUS
  5
46F
 10
258.557606
 20
378.840029
 30
0.0
 40
0.8
 50
180.0
 51
270.0
  0
LINE
  8
LC-001-002-----0
  6
CONTINUOUS
  5
470
 10
258.557606
 20
378.040029
 30
0.0
 11
261.357606
 21
378.040029
 31
0.0
  0
LINE
  8
LC-001-002-----0
  6
CONTINUOUS
  5
471
 10
258.557606
 20
377.340029
 30
0.0
 11
261.357606
 21
377.340029
 31
0.0
  0
LINE
  8
LC-001-002-----0
  6
CONTINUOUS
  5
472
 10
261.357606
 20
377.340029
 30
0.0
 11
261.357606
 21
378.040029
 31
0.0
  0
LINE
  8
LC-001-002-----0
  6
CONTINUOUS
  5
473
 10
243.066432
 20
407.069003
 30
0.0
 11
234.510393
 21
407.690765
 31
0.0
  0
LINE
  8
LC-001-002-----0
  6
CONTINUOUS
  5
474
 10
224.510393
 20
410.261129
 30
0.0
 11
224.510393
 21
403.729061
 31
0.0
  0
LINE
  8
LC-001-002-----0
  6
CONTINUOUS
  5
475
 10
234.510393
 20
407.690765
 30
0.0
 11
230.443543
 21
407.9863
 31
0.0
  0
LINE
  8
LC-001-002-----0
  6
CONTINUOUS
  5
476
 10
234.510393
 20
402.980217
 30
0.0
 11
229.801514
 21
403.322408
 31
0.0
  0
LINE
  8
LC-001-002-----0
  6
CONTINUOUS
  5
477
 10
183.482694
 20
413.250513
 30
0.0
 11
84.510393
 21
413.250513
 31
0.0
  0
LINE
  8
LC-001-002-----0
  6
CONTINUOUS
  5
478
 10
183.482694
 20
413.250513
 30
0.0
 11
194.510393
 21
412.486131
 31
0.0
  0
ARC
  8
LC-001-002-----0
  6
CONTINUOUS
  5
479
 10
234.059675
 20
426.292561
 30
0.0
 40
18.66
 50
238.247327
 51
258.82592
  0
LINE
  8
LC-001-002-----0
  6
CONTINUOUS
  5
47A
 10
194.510393
 20
412.486131
 30
0.0
 11
224.239783
 21
410.425447
 31
0.0
  0
LINE
  8
LC-001-002-----0
  6
CONTINUOUS
  5
47B
 10
194.508279
 20
407.775
 30
0.0
 11
211.683517
 21
406.584504
 31
0.0
  0
LINE
  8
LC-001-002-----0
  6
CONTINUOUS
  5
47C
 10
412.82
 20
386.940696
 30
0.0
 11
409.82
 21
383.940696
 31
0.0
  0
LINE
  8
LC-001-002-----0
  6
CONTINUOUS
  5
47D
 10
402.82
 20
383.940696
 30
0.0
 11
402.82
 21
386.440696
 31
0.0
  0
LINE
  8
LC-001-002-----0
  6
CONTINUOUS
  5
47E
 10
410.32
 20
402.94034
 30
0.0
 11
408.82
 21
402.94034
 31
0.0
  0
LINE
  8
LC-001-002-----0
  6
CONTINUOUS
  5
47F
 10
410.32
 20
386.440696
 30
0.0
 11
410.32
 21
403.94034
 31
0.0
  0
ARC
  8
LC-010-002-RND-0
  6
CONTINUOUS
  5
480
 10
408.82
 20
400.94034
 30
0.0
 40
2.0
 50
90.0
 51
180.0
  0
LINE
  8
LC-001-002-----0
  6
CONTINUOUS
  5
481
 10
397.39274
 20
383.940696
 30
0.0
 11
397.39274
 21
386.440696
 31
0.0
  0
LINE
  8
LC-001-002-----0
  6
CONTINUOUS
  5
482
 10
389.892783
 20
386.440696
 30
0.0
 11
410.32
 21
386.440696
 31
0.0
  0
LINE
  8
LC-001-002-----0
  6
CONTINUOUS
  5
483
 10
255.82
 20
386.940696
 30
0.0
 11
258.82
 21
383.940696
 31
0.0
  0
LINE
  8
LC-001-002-----0
  6
CONTINUOUS
  5
484
 10
265.82
 20
383.940696
 30
0.0
 11
265.82
 21
386.440696
 31
0.0
  0
LINE
  8
LC-001-002-----0
  6
CONTINUOUS
  5
485
 10
258.32
 20
402.94034
 30
0.0
 11
259.82
 21
402.94034
 31
0.0
  0
LINE
  8
LC-001-002-----0
  6
CONTINUOUS
  5
486
 10
258.32
 20
402.94034
 30
0.0
 11
258.32
 21
403.94034
 31
0.0
  0
ARC
  8
LC-010-002-RND-0
  6
CONTINUOUS
  5
487
 10
259.82
 20
400.94034
 30
0.0
 40
2.0
 50
0.0
 51
90.0
  0
LINE
  8
LC-001-002-----0
  6
CONTINUOUS
  5
488
 10
271.24726
 20
383.940696
 30
0.0
 11
271.24726
 21
386.440696
 31
0.0
  0
LINE
  8
LC-001-002-----0
  6
CONTINUOUS
  5
489
 10
278.74726
 20
383.940696
 30
0.0
 11
278.74726
 21
386.440696
 31
0.0
  0
LINE
  8
LC-001-002-----0
  6
CONTINUOUS
  5
48A
 10
293.574809
 20
383.940696
 30
0.0
 11
293.574809
 21
386.440696
 31
0.0
  0
LINE
  8
LC-001-002-----0
  6
CONTINUOUS
  5
48B
 10
290.010295
 20
383.940696
 30
0.0
 11
290.010295
 21
386.440696
 31
0.0
  0
LINE
  8
LC-001-002-----0
  6
CONTINUOUS
  5
48C
 10
306.565191
 20
383.940696
 30
0.0
 11
306.565191
 21
386.440696
 31
0.0
  0
LINE
  8
LC-001-002-----0
  6
CONTINUOUS
  5
48D
 10
306.565191
 20
386.440696
 30
0.0
 11
290.010295
 21
386.440696
 31
0.0
  0
LINE
  8
LC-001-002-----0
  6
CONTINUOUS
  5
48E
 10
278.74726
 20
386.440696
 30
0.0
 11
258.557606
 21
386.440696
 31
0.0
  0
LINE
  8
LC-001-002-----0
  6
CONTINUOUS
  5
48F
 10
261.82
 20
400.94034
 30
0.0
 11
261.82
 21
386.440696
 31
0.0
  0
LINE
  8
LC-001-002-----0
  6
CONTINUOUS
  5
490
 10
255.82
 20
403.94034
 30
0.0
 11
255.82
 21
386.940696
 31
0.0
  0
LINE
  8
LC-001-002-----0
  6
CONTINUOUS
  5
491
 10
264.07
 20
383.940696
 30
0.0
 11
334.320025
 21
383.940696
 31
0.0
  0
LINE
  8
LC-001-002-----0
  6
CONTINUOUS
  5
492
 10
255.82
 20
403.94034
 30
0.0
 11
334.32
 21
403.94034
 31
0.0
  0
LINE
  8
LC-001-002-----0
  6
CONTINUOUS
  5
493
 10
264.07
 20
383.940696
 30
0.0
 11
258.82
 21
383.940696
 31
0.0
  0
LINE
  8
LC-001-002-----0
  6
CONTINUOUS
  5
494
 10
406.82
 20
400.94034
 30
0.0
 11
406.82
 21
386.440696
 31
0.0
  0
LINE
  8
LC-001-002-----0
  6
CONTINUOUS
  5
495
 10
412.82
 20
403.94034
 30
0.0
 11
412.82
 21
386.940696
 31
0.0
  0
LINE
  8
LC-001-002-----0
  6
CONTINUOUS
  5
496
 10
404.57
 20
383.940696
 30
0.0
 11
334.320025
 21
383.940696
 31
0.0
  0
LINE
  8
LC-001-002-----0
  6
CONTINUOUS
  5
497
 10
412.82
 20
403.94034
 30
0.0
 11
334.32
 21
403.94034
 31
0.0
  0
LINE
  8
LC-001-002-----0
  6
CONTINUOUS
  5
498
 10
404.57
 20
383.940696
 30
0.0
 11
409.82
 21
383.940696
 31
0.0
  0
LINE
  8
LC-001-002-----0
  6
CONTINUOUS
  5
499
 10
255.757606
 20
400.417492
 30
0.0
 11
255.757606
 21
386.740029
 31
0.0
  0
LINE
  8
LC-001-002-----0
  6
CONTINUOUS
  5
49A
 10
258.32
 20
386.440696
 30
0.0
 11
258.32
 21
403.94034
 31
0.0
  0
LINE
  8
LC-001-002-----0
  6
CONTINUOUS
  5
49B
 10
584.129607
 20
413.250513
 30
0.0
 11
584.129607
 21
408.550513
 31
0.0
  0
LINE
  8
LC-001-002-----0
  6
CONTINUOUS
  5
49C
 10
574.129607
 20
413.250513
 30
0.0
 11
574.129607
 21
408.550513
 31
0.0
  0
LINE
  8
LC-001-002-----0
  6
CONTINUOUS
  5
49D
 10
564.129607
 20
413.250513
 30
0.0
 11
564.129607
 21
408.550513
 31
0.0
  0
LINE
  8
LC-001-002-----0
  6
CONTINUOUS
  5
49E
 10
554.129607
 20
413.250513
 30
0.0
 11
554.129607
 21
408.550513
 31
0.0
  0
LINE
  8
LC-001-002-----0
  6
CONTINUOUS
  5
49F
 10
544.129607
 20
413.250513
 30
0.0
 11
544.129607
 21
408.550513
 31
0.0
  0
LINE
  8
LC-001-002-----0
  6
CONTINUOUS
  5
4A0
 10
534.129607
 20
413.250513
 30
0.0
 11
534.129607
 21
408.550513
 31
0.0
  0
LINE
  8
LC-001-002-----0
  6
CONTINUOUS
  5
4A1
 10
524.129607
 20
413.250513
 30
0.0
 11
524.129607
 21
408.550513
 31
0.0
  0
LINE
  8
LC-001-002-----0
  6
CONTINUOUS
  5
4A2
 10
514.129607
 20
413.250513
 30
0.0
 11
514.129607
 21
408.550513
 31
0.0
  0
LINE
  8
LC-001-002-----0
  6
CONTINUOUS
  5
4A3
 10
504.129607
 20
413.250513
 30
0.0
 11
504.129607
 21
408.550513
 31
0.0
  0
LINE
  8
LC-001-002-----0
  6
CONTINUOUS
  5
4A4
 10
494.129607
 20
413.250513
 30
0.0
 11
494.129607
 21
408.550513
 31
0.0
  0
LINE
  8
LC-001-002-----0
  6
CONTINUOUS
  5
4A5
 10
484.783876
 20
408.550513
 30
0.0
 11
584.129607
 21
408.550513
 31
0.0
  0
LINE
  8
LC-001-002-----0
  6
CONTINUOUS
  5
4A6
 10
485.157306
 20
413.250513
 30
0.0
 11
584.129607
 21
413.250513
 31
0.0
  0
LINE
  8
LC-001-002-----0
  6
CONTINUOUS
  5
4A7
 10
484.129607
 20
413.179278
 30
0.0
 11
484.129607
 21
408.504762
 31
0.0
  0
LINE
  8
LC-001-002-----0
  6
CONTINUOUS
  5
4A8
 10
474.129607
 20
412.486131
 30
0.0
 11
474.129607
 21
407.805494
 31
0.0
  0
LINE
  8
LC-001-002-----0
  6
CONTINUOUS
  5
4A9
 10
464.129607
 20
411.792984
 30
0.0
 11
464.129607
 21
407.106227
 31
0.0
  0
LINE
  8
LC-001-002-----0
  6
CONTINUOUS
  5
4AA
 10
485.157306
 20
413.250513
 30
0.0
 11
444.400217
 21
410.425447
 31
0.0
  0
LINE
  8
LC-001-002-----0
  6
CONTINUOUS
  5
4AB
 10
454.129607
 20
411.099837
 30
0.0
 11
454.129607
 21
406.406959
 31
0.0
  0
LINE
  8
LC-001-002-----0
  6
CONTINUOUS
  5
4AC
 10
444.129607
 20
410.261129
 30
0.0
 11
444.129607
 21
403.68494
 31
0.0
  0
LINE
  8
LC-001-002-----0
  6
CONTINUOUS
  5
4AD
 10
434.129607
 20
407.690765
 30
0.0
 11
434.129607
 21
402.980217
 31
0.0
  0
ARC
  8
LC-001-002-----0
  6
CONTINUOUS
  5
4AE
 10
434.580325
 20
426.292561
 30
0.0
 40
18.66
 50
281.17408
 51
301.752673
  0
LINE
  8
LC-001-002-----0
  6
CONTINUOUS
  5
4AF
 10
425.573535
 20
407.069001
 30
0.0
 11
434.129607
 21
407.690765
 31
0.0
  0
ARC
  8
LC-001-002-----0
  6
CONTINUOUS
  5
4B0
 10
436.681893
 20
414.935285
 30
0.0
 40
6.3
 50
274.0
 51
315.621929
  0
ARC
  8
LC-001-002-----0
  6
CONTINUOUS
  5
4B1
 10
436.681893
 20
414.935285
 30
0.0
 40
7.0
 50
274.0
 51
320.993096
  0
LINE
  8
LC-001-002-----0
  6
CONTINUOUS
  5
4B2
 10
437.123574
 20
408.640206
 30
0.0
 11
419.394099
 21
407.400441
 31
0.0
  0
LINE
  8
LC-001-002-----0
  6
CONTINUOUS
  5
4B3
 10
437.170188
 20
407.952337
 30
0.0
 11
419.442929
 21
406.712726
 31
0.0
  0
ARC
  8
LC-010-002-RND-0
  6
CONTINUOUS
  5
4B4
 10
419.882394
 20
400.417492
 30
0.0
 40
7.0
 50
94.0
 51
180.0
  0
ARC
  8
LC-010-002-RND-0
  6
CONTINUOUS
  5
4B5
 10
419.882394
 20
400.428073
 30
0.0
 40
6.3
 50
94.0
 51
180.0
  0
LINE
  8
LC-001-002-----0
  6
CONTINUOUS
  5
4B6
 10
413.582394
 20
400.428073
 30
0.0
 11
413.582394
 21
386.740029
 31
0.0
  0
LINE
  8
LC-001-002-----0
  6
CONTINUOUS
  5
4B7
 10
412.882394
 20
400.417492
 30
0.0
 11
412.882394
 21
386.740029
 31
0.0
  0
ARC
  8
LC-001-002-----0
  6
CONTINUOUS
  5
4B8
 10
410.082394
 20
386.740029
 30
0.0
 40
2.8
 50
270.0
 51
0.0
  0
ARC
  8
LC-001-002-----0
  6
CONTINUOUS
  5
4B9
 10
410.082394
 20
386.740029
 30
0.0
 40
3.5
 50
270.0
 51
0.0
  0
ARC
  8
LC-001-002-----0
  6
CONTINUOUS
  5
4BA
 10
410.082114
 20
382.940397
 30
0.0
 40
1.0
 50
90.00028
 51
180.00028
  0
ARC
  8
LC-001-002-----0
  6
CONTINUOUS
  5
4BB
 10
410.082114
 20
382.940397
 30
0.0
 40
0.3
 50
90.00028
 51
180.00028
  0
LINE
  8
LC-001-002-----0
  6
CONTINUOUS
  5
4BC
 10
409.082394
 20
382.940029
 30
0.0
 11
409.082394
 21
380.640029
 31
0.0
  0
LINE
  8
LC-001-002-----0
  6
CONTINUOUS
  5
4BD
 10
409.782394
 20
382.940029
 30
0.0
 11
409.782394
 21
380.640029
 31
0.0
  0
ARC
  8
LC-001-002-----0
  6
CONTINUOUS
  5
4BE
 10
410.082394
 20
380.640029
 30
0.0
 40
1.0
 50
180.0
 51
270.0
  0
ARC
  8
LC-001-002-----0
  6
CONTINUOUS
  5
4BF
 10
410.081872
 20
380.640029
 30
0.0
 40
0.3
 50
180.0
 51
270.0
  0
ARC
  8
LC-001-002-----0
  6
CONTINUOUS
  5
4C0
 10
410.082394
 20
378.840029
 30
0.0
 40
1.5
 50
0.0
 51
90.0
  0
ARC
  8
LC-001-002-----0
  6
CONTINUOUS
  5
4C1
 10
410.082394
 20
378.840029
 30
0.0
 40
1.5
 50
270.0
 51
0.0
  0
ARC
  8
LC-001-002-----0
  6
CONTINUOUS
  5
4C2
 10
410.082394
 20
378.840029
 30
0.0
 40
0.8
 50
0.0
 51
90.0
  0
ARC
  8
LC-001-002-----0
  6
CONTINUOUS
  5
4C3
 10
410.082394
 20
378.840029
 30
0.0
 40
0.8
 50
270.0
 51
0.0
  0
LINE
  8
LC-001-002-----0
  6
CONTINUOUS
  5
4C4
 10
410.082394
 20
378.040029
 30
0.0
 11
407.282394
 21
378.040029
 31
0.0
  0
LINE
  8
LC-001-002-----0
  6
CONTINUOUS
  5
4C5
 10
410.082394
 20
377.340029
 30
0.0
 11
407.282394
 21
377.340029
 31
0.0
  0
LINE
  8
LC-001-002-----0
  6
CONTINUOUS
  5
4C6
 10
407.282394
 20
377.340029
 30
0.0
 11
407.282394
 21
378.040029
 31
0.0
  0
LINE
  8
LC-001-002-----0
  6
CONTINUOUS
  5
4C7
 10
336.82
 20
402.94034
 30
0.0
 11
334.32
 21
402.94034
 31
0.0
  0
ARC
  8
LC-001-002-----0
  6
CONTINUOUS
  5
4C8
 10
397.819502
 20
400.94034
 30
0.0
 40
2.0
 50
90.0
 51
180.0
  0
LINE
  8
LC-001-002-----0
  6
CONTINUOUS
  5
4C9
 10
401.352311
 20
402.94034
 30
0.0
 11
397.819502
 21
402.94034
 31
0.0
  0
LINE
  8
LC-001-002-----0
  6
CONTINUOUS
  5
4CA
 10
401.352311
 20
386.440696
 30
0.0
 11
401.352311
 21
402.94034
 31
0.0
  0
LINE
  8
LC-001-002-----0
  6
CONTINUOUS
  5
4CB
 10
336.82
 20
386.440696
 30
0.0
 11
336.82
 21
402.94034
 31
0.0
  0
LINE
  8
LC-001-002-----0
  6
CONTINUOUS
  5
4CC
 10
398.319502
 20
386.440696
 30
0.0
 11
398.319502
 21
400.94034
 31
0.0
  0
LINE
  8
LC-001-002-----0
  6
CONTINUOUS
  5
4CD
 10
395.819502
 20
386.440696
 30
0.0
 11
395.819502
 21
400.94034
 31
0.0
  0
ARC
  8
LC-001-002-----0
  6
CONTINUOUS
  5
4CE
 10
400.319502
 20
400.94034
 30
0.0
 40
2.0
 50
90.0
 51
180.0
  0
LINE
  8
LC-001-002-----0
  6
CONTINUOUS
  5
4CF
 10
372.713505
 20
386.4408
 30
0.0
 11
372.713505
 21
400.94034
 31
0.0
  0
LINE
  8
LC-001-002-----0
  6
CONTINUOUS
  5
4D0
 10
368.383378
 20
386.440788
 30
0.0
 11
368.383378
 21
400.94034
 31
0.0
  0
LINE
  8
LC-001-002-----0
  6
CONTINUOUS
  5
4D1
 10
374.464499
 20
402.94034
 30
0.0
 11
370.383378
 21
402.94034
 31
0.0
  0
ARC
  8
LC-001-002-----0
  6
CONTINUOUS
  5
4D2
 10
370.383378
 20
400.94034
 30
0.0
 40
2.0
 50
90.0
 51
180.0
  0
ARC
  8
LC-001-002-----0
  6
CONTINUOUS
  5
4D3
 10
374.713505
 20
400.94034
 30
0.0
 40
2.0
 50
97.096995
 51
180.0
  0
LINE
  8
LC-001-002-----0
  6
CONTINUOUS
  5
4D4
 10
374.464499
 20
386.440804
 30
0.0
 11
374.464499
 21
402.94034
 31
0.0
  0
LINE
  8
LC-001-002-----0
  6
CONTINUOUS
  5
4D5
 10
331.82
 20
402.94034
 30
0.0
 11
334.32
 21
402.94034
 31
0.0
  0
ARC
  8
LC-001-002-----0
  6
CONTINUOUS
  5
4D6
 10
270.820498
 20
400.94034
 30
0.0
 40
2.0
 50
0.0
 51
90.0
  0
LINE
  8
LC-001-002-----0
  6
CONTINUOUS
  5
4D7
 10
267.287689
 20
402.94034
 30
0.0
 11
270.820498
 21
402.94034
 31
0.0
  0
LINE
  8
LC-001-002-----0
  6
CONTINUOUS
  5
4D8
 10
267.287689
 20
386.440696
 30
0.0
 11
267.287689
 21
402.94034
 31
0.0
  0
LINE
  8
LC-001-002-----0
  6
CONTINUOUS
  5
4D9
 10
331.82
 20
386.440696
 30
0.0
 11
331.82
 21
402.94034
 31
0.0
  0
LINE
  8
LC-001-002-----0
  6
CONTINUOUS
  5
4DA
 10
270.320498
 20
386.440696
 30
0.0
 11
270.320498
 21
400.94034
 31
0.0
  0
LINE
  8
LC-001-002-----0
  6
CONTINUOUS
  5
4DB
 10
272.820498
 20
386.440696
 30
0.0
 11
272.820498
 21
400.94034
 31
0.0
  0
ARC
  8
LC-001-002-----0
  6
CONTINUOUS
  5
4DC
 10
268.320498
 20
400.94034
 30
0.0
 40
2.0
 50
0.0
 51
90.0
  0
LINE
  8
LC-001-002-----0
  6
CONTINUOUS
  5
4DD
 10
295.926495
 20
386.440696
 30
0.0
 11
295.926495
 21
400.94034
 31
0.0
  0
LINE
  8
LC-001-002-----0
  6
CONTINUOUS
  5
4DE
 10
300.256622
 20
386.440696
 30
0.0
 11
300.256622
 21
400.94034
 31
0.0
  0
LINE
  8
LC-001-002-----0
  6
CONTINUOUS
  5
4DF
 10
294.175501
 20
402.94034
 30
0.0
 11
298.256622
 21
402.94034
 31
0.0
  0
ARC
  8
LC-001-002-----0
  6
CONTINUOUS
  5
4E0
 10
298.256622
 20
400.94034
 30
0.0
 40
2.0
 50
0.0
 51
90.0
  0
ARC
  8
LC-001-002-----0
  6
CONTINUOUS
  5
4E1
 10
293.926495
 20
400.94034
 30
0.0
 40
2.0
 50
0.0
 51
82.903005
  0
LINE
  8
LC-001-002-----0
  6
CONTINUOUS
  5
4E2
 10
294.175501
 20
386.440696
 30
0.0
 11
294.175501
 21
402.94034
 31
0.0
  0
ARC
  8
LC-001-002-----0
  6
CONTINUOUS
  5
4E3
 10
234.059675
 20
426.292561
 30
0.0
 40
23.361504
 50
259.025168
 51
259.497843
  0
LINE
  8
LC-001-002-----0
  6
CONTINUOUS
  5
4E4
 10
378.629705
 20
383.940696
 30
0.0
 11
378.629705
 21
386.440696
 31
0.0
  0
LINE
  8
LC-001-002-----0
  6
CONTINUOUS
  5
4E5
 10
362.074809
 20
386.440696
 30
0.0
 11
378.629705
 21
386.440696
 31
0.0
  0
LINE
  8
LC-001-002-----0
  6
CONTINUOUS
  5
4E6
 10
375.065191
 20
383.940696
 30
0.0
 11
375.065191
 21
386.440696
 31
0.0
  0
LINE
  8
LC-001-002-----0
  6
CONTINUOUS
  5
4E7
 10
362.074809
 20
383.940696
 30
0.0
 11
362.074809
 21
386.440696
 31
0.0
  0
LINE
  8
LC-001-002-----0
  6
CONTINUOUS
  5
4E8
 10
389.89274
 20
383.940696
 30
0.0
 11
389.89274
 21
386.440696
 31
0.0
  0
LINE
  8
LC-001-002-----0
  6
CONTINUOUS
  5
4E9
 10
326.82
 20
386.440696
 30
0.0
 11
341.82
 21
386.440696
 31
0.0
  0
LINE
  8
LC-001-002-----0
  6
CONTINUOUS
  5
4EA
 10
341.82
 20
386.440696
 30
0.0
 11
341.82
 21
383.940696
 31
0.0
  0
LINE
  8
LC-001-002-----0
  6
CONTINUOUS
  5
4EB
 10
326.82
 20
386.440696
 30
0.0
 11
326.82
 21
383.940696
 31
0.0
  0
ENDSEC
  0
EOF
