  0
SECTION
  2
HEADER
  9
$ACADVER
  1
AC1009
  9
$INSBASE
 10
0.0
 20
0.0
 30
0.0
  9
$EXTMIN
 10
0.0
 20
0.0
 30
0.0
  9
$EXTMAX
 10
840.0
 20
594.0
 30
0.0
  9
$LIMMIN
 10
0.0
 20
0.0
  9
$LIMMAX
 10
840.0
 20
594.0
  9
$ORTHOMODE
 70
     0
  9
$REGENMODE
 70
     1
  9
$FILLMODE
 70
     1
  9
$QTEXTMODE
 70
     0
  9
$MIRRTEXT
 70
     1
  9
$DRAGMODE
 70
     2
  9
$LTSCALE
 40
2.0
  9
$OSMODE
 70
     0
  9
$ATTMODE
 70
     1
  9
$TEXTSIZE
 40
0.2
  9
$TRACEWID
 40
0.05
  9
$TEXTSTYLE
  7
STANDARD
  9
$CLAYER
  8
0
  9
$CELTYPE
  6
BYLAYER
  9
$CECOLOR
 62
     7
  9
$DIMSCALE
 40
2.0
  9
$DIMASZ
 40
3.5
  9
$DIMEXO
 40
0.0625
  9
$DIMDLI
 40
0.38
  9
$DIMRND
 40
0.0
  9
$DIMDLE
 40
0.0
  9
$DIMEXE
 40
0.18
  9
$DIMTP
 40
0.0
  9
$DIMTM
 40
0.0
  9
$DIMTXT
 40
3.5
  9
$DIMCEN
 40
0.09
  9
$DIMTSZ
 40
0.0
  9
$DIMTOL
 70
     0
  9
$DIMLIM
 70
     0
  9
$DIMTIH
 70
     1
  9
$DIMTOH
 70
     1
  9
$DIMSE1
 70
     0
  9
$DIMSE2
 70
     0
  9
$DIMTAD
 70
     1
  9
$DIMZIN
 70
     0
  9
$DIMBLK
  1

  9
$DIMASO
 70
     1
  9
$DIMSHO
 70
     1
  9
$DIMPOST
  1

  9
$DIMAPOST
  1

  9
$DIMALT
 70
     0
  9
$DIMALTD
 70
     2
  9
$DIMALTF
 40
25.4
  9
$DIMLFAC
 40
1.0
  9
$DIMTOFL
 70
     0
  9
$DIMTVP
 40
0.0
  9
$DIMTIX
 70
     0
  9
$DIMSOXD
 70
     0
  9
$DIMSAH
 70
     0
  9
$DIMBLK1
  1

  9
$DIMBLK2
  1

  9
$DIMSTYLE
  2
STANDARD
  9
$DIMCLRD
 70
     0
  9
$DIMCLRE
 70
     0
  9
$DIMCLRT
 70
     0
  9
$DIMTFAC
 40
1.0
  9
$DIMGAP
 40
0.09
  9
$LUNITS
 70
     2
  9
$LUPREC
 70
     2
  9
$AXISMODE
 70
     0
  9
$AXISUNIT
 10
0.0
 20
0.0
  9
$SKETCHINC
 40
0.1
  9
$FILLETRAD
 40
0.0
  9
$AUNITS
 70
     0
  9
$AUPREC
 70
     0
  9
$MENU
  1
acad
  9
$ELEVATION
 40
0.0
  9
$PELEVATION
 40
0.0
  9
$THICKNESS
 40
0.0
  9
$LIMCHECK
 70
     0
  9
$BLIPMODE
 70
     1
  9
$CHAMFERA
 40
0.0
  9
$CHAMFERB
 40
0.0
  9
$SKPOLY
 70
     0
  9
$TDCREATE
 40
0.000000000
  9
$TDUPDATE
 40
0.000000000
  9
$TDINDWG
 40
0.0000000000
  9
$TDUSRTIMER
 40
0.0000000000
  9
$USRTIMER
 70
     1
  9
$ANGBASE
 50
0.0
  9
$ANGDIR
 70
     0
  9
$PDMODE
 70
     0
  9
$PDSIZE
 40
0.0
  9
$PLINEWID
 40
0.0
  9
$COORDS
 70
     0
  9
$SPLFRAME
 70
     0
  9
$SPLINETYPE
 70
     6
  9
$SPLINESEGS
 70
     8
  9
$ATTDIA
 70
     0
  9
$ATTREQ
 70
     1
  9
$HANDLING
 70
     1
  9
$HANDSEED
  5
63D
  9
$SURFTAB1
 70
     6
  9
$SURFTAB2
 70
     6
  9
$SURFTYPE
 70
     6
  9
$SURFU
 70
     6
  9
$SURFV
 70
     6
  9
$UCSNAME
  2

  9
$UCSORG
 10
0.0
 20
0.0
 30
0.0
  9
$UCSXDIR
 10
1.0
 20
0.0
 30
0.0
  9
$UCSYDIR
 10
0.0
 20
1.0
 30
0.0
  9
$PUCSNAME
  2

  9
$PUCSORG
 10
0.0
 20
0.0
 30
0.0
  9
$PUCSXDIR
 10
1.0
 20
0.0
 30
0.0
  9
$PUCSYDIR
 10
0.0
 20
1.0
 30
0.0
  9
$USERI1
 70
     0
  9
$USERI2
 70
     0
  9
$USERI3
 70
     0
  9
$USERI4
 70
     0
  9
$USERI5
 70
     0
  9
$USERR1
 40
0.0
  9
$USERR2
 40
0.0
  9
$USERR3
 40
0.0
  9
$USERR4
 40
0.0
  9
$USERR5
 40
0.0
  9
$WORLDVIEW
 70
     1
  9
$SHADEDGE
 70
     3
  9
$SHADEDIF
 70
    70
  9
$TILEMODE
 70
     1
  9
$MAXACTVP
 70
    16
  9
$PINSBASE
 10
0.0
 20
0.0
 30
0.0
  9
$PLIMCHECK
 70
     0
  9
$PEXTMIN
 10
1.000000E+20
 20
1.000000E+20
 30
1.000000E+20
  9
$PEXTMAX
 10
-1.000000E+20
 20
-1.000000E+20
 30
-1.000000E+20
  9
$PLIMMIN
 10
0.0
 20
0.0
  9
$PLIMMAX
 10
840.0
 20
594.0
  9
$UNITMODE
 70
     0
  9
$VISRETAIN
 70
     0
  9
$PLINEGEN
 70
     1
  9
$PSLTSCALE
 70
     0
  9
$TREEDEPTH
 70
  3020
  9
$DWGCODEPAGE
  3
dos850
  0
ENDSEC
  0
SECTION
  2
TABLES
  0
TABLE
  2
VPORT
 70
     1
  0
VPORT
  2
*ACTIVE
 70
     0
 10
0.0
 20
0.0
 11
1.0
 21
1.0
 12
420.0
 22
297.0
 13
0.0
 23
0.0
 14
1.0
 24
1.0
 15
0.0
 25
0.0
 16
0.0
 26
0.0
 36
1.0
 17
0.0
 27
0.0
 37
0.0
 40
594.0
 41
1.604229
 42
50.0
 43
0.0
 44
0.0
 50
0.0
 51
0.0
 71
     0
 72
   100
 73
     1
 74
     1
 75
     0
 76
     0
 77
     0
 78
     0
  0
ENDTAB
  0
TABLE
  2
LTYPE
 70
     2
  0
LTYPE
  2
CONTINUOUS
 70
    64
  3
Solid line
 72
    65
 73
     0
 40
0.0
  0
LTYPE
  2
DASHDOT
 70
    64
  3
__ . __ . __ . __ . __
 72
    65
 73
     4
 40
7.5
 49
5.0
 49
-1.25
 49
0.0
 49
-1.25
  0
ENDTAB
  0
TABLE
  2
LAYER
 70
    13
  0
LAYER
  2
0
 70
     0
 62
     7
  6
CONTINUOUS
  0
LAYER
  2
LC-INFO-1-2-MM-A3-0
 70
     1
 62
    -1
  6
CONTINUOUS
  0
LAYER
  2
LC-007-005-----0
 70
     0
 62
     2
  6
CONTINUOUS
  0
LAYER
  2
LC-009-003-MTH-0
 70
     0
 62
     2
  6
CONTINUOUS
  0
LAYER
  2
LC-010-003-MTG-0
 70
     0
 62
     2
  6
CONTINUOUS
  0
LAYER
  2
LC-008-003-----0
 70
     0
 62
     2
  6
CONTINUOUS
  0
LAYER
  2
LC-006-000-----0
 70
     0
 62
     7
  6
CONTINUOUS
  0
LAYER
  2
LC-001-103-D00-1
 70
     0
 62
     1
  6
CONTINUOUS
  0
LAYER
  2
LC-002-002-----0
 70
     0
 62
     1
  6
CONTINUOUS
  0
LAYER
  2
LC-003-002-RND-0
 70
     0
 62
     1
  6
CONTINUOUS
  0
LAYER
  2
LC-004-001-RND-0
 70
     0
 62
     1
  6
CONTINUOUS
  0
LAYER
  2
LC-005-001-----0
 70
     0
 62
     1
  6
CONTINUOUS
  0
LAYER
  2
LC-000
 70
     0
 62
     7
  6
CONTINUOUS
  0
ENDTAB
  0
TABLE
  2
STYLE
 70
     4
  0
STYLE
  2
STANDARD
 70
     0
 40
0.0
 41
1.0
 50
0.0
 71
     0
 42
0.0
  3
txt
  4

  0
STYLE
  2
LC-STANDARD
 70
    64
 40
0.0
 41
1.0
 50
0.0
 71
     0
 42
3.5
  3
MONOTXT
  4

  0
STYLE
  2
LC-TXTSTYLE-150-400-0-0-A2
 70
    64
 40
0.0
 41
1.0
 50
15.0
 71
     0
 42
3.5
  3
MONOTXT
  4

  0
STYLE
  2
LC-TXTSTYLE-150-400-0-0-D3
 70
    64
 40
0.0
 41
1.0
 50
15.0
 71
     0
 42
3.5
  3
LC-STANDARD
  4

  0
ENDTAB
  0
TABLE
  2
VIEW
 70
     0
  0
ENDTAB
  0
TABLE
  2
UCS
 70
     0
  0
ENDTAB
  0
TABLE
  2
APPID
 70
     1
  0
APPID
  2
ACAD
 70
     0
  0
ENDTAB
  0
TABLE
  2
DIMSTYLE
 70
     3
  0
DIMSTYLE
  2
STANDARD
 70
     0
  3

  4

  5

  6

  7

 40
1.0
 41
0.18
 42
0.0625
 43
0.38
 44
0.18
 45
0.0
 46
0.0
 47
0.0
 48
0.0
 71
     0
 72
     0
 73
     1
 74
     1
 75
     0
 76
     0
 77
     0
 78
     0
140
0.18
141
0.09
142
0.0
143
25.4
144
1.0
145
0.0
146
1.0
147
0.09
170
     0
171
     2
172
     0
173
     0
174
     0
175
     0
176
     0
177
     0
178
     0
  0
DIMSTYLE
  2
LC-STANDARD
 70
     0
  3

  4

  5

  6

  7

 40
1.0
 41
3.5
 42
0.0
 43
7.5
 44
1.8
 45
0.0
 46
0.0
 47
0.0
 48
0.0
 71
     0
 72
     0
 73
     0
 74
     0
 75
     0
 76
     0
 77
     1
 78
     8
140
3.5
141
0.0
142
0.0
143
25.4
144
1.0
145
0.0
146
0.71
147
1.5
170
     0
171
     2
172
     1
173
     0
174
     0
175
     0
176
     0
177
     0
178
     3
  0
DIMSTYLE
  2
LC-DIM-L-0140-02-02
 70
     0
  3

  4

  5

  6

  7

 40
2.0
 41
3.5
 42
0.0
 43
7.5
 44
1.8
 45
0.0
 46
0.0
 47
0.0
 48
0.0
 71
     0
 72
     0
 73
     0
 74
     0
 75
     0
 76
     0
 77
     1
 78
     8
140
14.0
141
0.0
142
0.0
143
25.4
144
1.0
145
0.0
146
0.71
147
1.5
170
     0
171
     2
172
     0
173
     0
174
     0
175
     0
176
     2
177
     2
178
     8
  0
ENDTAB
  0
ENDSEC
  0
SECTION
  2
BLOCKS
  0
BLOCK
  8
0
  5
23
  2
BLK1
 70
    64
 10
0.0
 20
0.0
 30
0.0
  3
BLK1
  0
ENDBLK
  8
0
  5
24
  0
BLOCK
  8
0
  5
26
  2
*X1
 70
    65
 10
350.270438
 20
325.246189
 30
0.0
  3
*X1
  0
LINE
  8
LC-007-005-----0
  6
CONTINUOUS
  5
28
 10
432.726676
 20
325.246446
 30
0.0
 11
433.270608
 21
325.790378
 31
0.0
  0
LINE
  8
LC-007-005-----0
  6
CONTINUOUS
  5
29
 10
432.270768
 20
327.618964
 30
0.0
 11
433.27061
 21
328.618807
 31
0.0
  0
LINE
  8
LC-007-005-----0
  6
CONTINUOUS
  5
2A
 10
432.270762
 20
330.447386
 30
0.0
 11
433.270612
 21
331.447236
 31
0.0
  0
LINE
  8
LC-007-005-----0
  6
CONTINUOUS
  5
2B
 10
432.270756
 20
333.275807
 30
0.0
 11
433.270614
 21
334.275665
 31
0.0
  0
LINE
  8
LC-007-005-----0
  6
CONTINUOUS
  5
2C
 10
432.27075
 20
336.104228
 30
0.0
 11
433.270616
 21
337.104094
 31
0.0
  0
LINE
  8
LC-007-005-----0
  6
CONTINUOUS
  5
2D
 10
432.270745
 20
338.932649
 30
0.0
 11
433.270618
 21
339.932523
 31
0.0
  0
LINE
  8
LC-007-005-----0
  6
CONTINUOUS
  5
2E
 10
432.270739
 20
341.761071
 30
0.0
 11
433.27062
 21
342.760952
 31
0.0
  0
LINE
  8
LC-007-005-----0
  6
CONTINUOUS
  5
2F
 10
432.270733
 20
344.589492
 30
0.0
 11
433.270621
 21
345.589381
 31
0.0
  0
LINE
  8
LC-007-005-----0
  6
CONTINUOUS
  5
30
 10
432.270727
 20
347.417913
 30
0.0
 11
433.270623
 21
348.417809
 31
0.0
  0
LINE
  8
LC-007-005-----0
  6
CONTINUOUS
  5
31
 10
432.270721
 20
350.246334
 30
0.0
 11
433.270625
 21
351.246238
 31
0.0
  0
LINE
  8
LC-007-005-----0
  6
CONTINUOUS
  5
32
 10
432.270715
 20
353.074756
 30
0.0
 11
433.270627
 21
354.074667
 31
0.0
  0
LINE
  8
LC-007-005-----0
  6
CONTINUOUS
  5
33
 10
432.270709
 20
355.903177
 30
0.0
 11
433.270629
 21
356.903096
 31
0.0
  0
LINE
  8
LC-007-005-----0
  6
CONTINUOUS
  5
34
 10
432.270704
 20
358.731598
 30
0.0
 11
433.270631
 21
359.731525
 31
0.0
  0
LINE
  8
LC-007-005-----0
  6
CONTINUOUS
  5
35
 10
432.270698
 20
361.56002
 30
0.0
 11
433.270632
 21
362.559954
 31
0.0
  0
LINE
  8
LC-007-005-----0
  6
CONTINUOUS
  5
36
 10
432.270692
 20
364.388441
 30
0.0
 11
433.270634
 21
365.388383
 31
0.0
  0
LINE
  8
LC-007-005-----0
  6
CONTINUOUS
  5
37
 10
432.270686
 20
367.216862
 30
0.0
 11
433.270636
 21
368.216812
 31
0.0
  0
LINE
  8
LC-007-005-----0
  6
CONTINUOUS
  5
38
 10
432.27068
 20
370.045283
 30
0.0
 11
433.270638
 21
371.045241
 31
0.0
  0
LINE
  8
LC-007-005-----0
  6
CONTINUOUS
  5
39
 10
432.270674
 20
372.873705
 30
0.0
 11
433.27064
 21
373.87367
 31
0.0
  0
LINE
  8
LC-007-005-----0
  6
CONTINUOUS
  5
3A
 10
432.270668
 20
375.702126
 30
0.0
 11
433.270642
 21
376.702099
 31
0.0
  0
LINE
  8
LC-007-005-----0
  6
CONTINUOUS
  5
3B
 10
432.270663
 20
378.530547
 30
0.0
 11
433.270644
 21
379.530528
 31
0.0
  0
LINE
  8
LC-007-005-----0
  6
CONTINUOUS
  5
3C
 10
432.270657
 20
381.358968
 30
0.0
 11
433.270645
 21
382.358957
 31
0.0
  0
LINE
  8
LC-007-005-----0
  6
CONTINUOUS
  5
3D
 10
432.270651
 20
384.18739
 30
0.0
 11
433.270647
 21
385.187386
 31
0.0
  0
LINE
  8
LC-007-005-----0
  6
CONTINUOUS
  5
3E
 10
432.136098
 20
386.881264
 30
0.0
 11
433.006263
 21
387.751429
 31
0.0
  0
LINE
  8
LC-007-005-----0
  6
CONTINUOUS
  5
3F
 10
431.50656
 20
389.080153
 30
0.0
 11
432.33003
 21
389.903624
 31
0.0
  0
LINE
  8
LC-007-005-----0
  6
CONTINUOUS
  5
40
 10
430.510482
 20
390.912503
 30
0.0
 11
431.352505
 21
391.754525
 31
0.0
  0
LINE
  8
LC-007-005-----0
  6
CONTINUOUS
  5
41
 10
429.213203
 20
392.44365
 30
0.0
 11
430.120377
 21
393.350825
 31
0.0
  0
LINE
  8
LC-007-005-----0
  6
CONTINUOUS
  5
42
 10
427.630049
 20
393.688924
 30
0.0
 11
428.65018
 21
394.709054
 31
0.0
  0
LINE
  8
LC-007-005-----0
  6
CONTINUOUS
  5
43
 10
425.738505
 20
394.625807
 30
0.0
 11
426.93699
 21
395.824292
 31
0.0
  0
LINE
  8
LC-007-005-----0
  6
CONTINUOUS
  5
44
 10
423.459692
 20
395.17542
 30
0.0
 11
424.952002
 21
396.667731
 31
0.0
  0
LINE
  8
LC-007-005-----0
  6
CONTINUOUS
  5
45
 10
350.702106
 20
325.246261
 30
0.0
 11
351.270606
 21
325.814762
 31
0.0
  0
LINE
  8
LC-007-005-----0
  6
CONTINUOUS
  5
46
 10
392.202036
 20
366.746192
 30
0.0
 11
393.206371
 21
367.750527
 31
0.0
  0
LINE
  8
LC-007-005-----0
  6
CONTINUOUS
  5
47
 10
420.702207
 20
395.246363
 30
0.0
 11
422.62548
 21
397.169636
 31
0.0
  0
LINE
  8
LC-007-005-----0
  6
CONTINUOUS
  5
48
 10
350.270601
 20
327.643184
 30
0.0
 11
351.270598
 21
328.643181
 31
0.0
  0
LINE
  8
LC-007-005-----0
  6
CONTINUOUS
  5
49
 10
389.373609
 20
366.746192
 30
0.0
 11
393.207137
 21
370.57972
 31
0.0
  0
LINE
  8
LC-007-005-----0
  6
CONTINUOUS
  5
4A
 10
417.87378
 20
395.246363
 30
0.0
 11
419.873781
 21
397.246364
 31
0.0
  0
LINE
  8
LC-007-005-----0
  6
CONTINUOUS
  5
4B
 10
350.270593
 20
330.471603
 30
0.0
 11
351.27059
 21
331.471601
 31
0.0
  0
LINE
  8
LC-007-005-----0
  6
CONTINUOUS
  5
4C
 10
386.545182
 20
366.746192
 30
0.0
 11
393.207903
 21
373.408913
 31
0.0
  0
LINE
  8
LC-007-005-----0
  6
CONTINUOUS
  5
4D
 10
415.045353
 20
395.246363
 30
0.0
 11
417.045356
 21
397.246366
 31
0.0
  0
LINE
  8
LC-007-005-----0
  6
CONTINUOUS
  5
4E
 10
350.270585
 20
333.300023
 30
0.0
 11
351.270582
 21
334.30002
 31
0.0
  0
LINE
  8
LC-007-005-----0
  6
CONTINUOUS
  5
4F
 10
383.716755
 20
366.746192
 30
0.0
 11
393.208669
 21
376.238106
 31
0.0
  0
LINE
  8
LC-007-005-----0
  6
CONTINUOUS
  5
50
 10
412.216926
 20
395.246363
 30
0.0
 11
414.216931
 21
397.246368
 31
0.0
  0
LINE
  8
LC-007-005-----0
  6
CONTINUOUS
  5
51
 10
350.270577
 20
336.128442
 30
0.0
 11
351.270574
 21
337.128439
 31
0.0
  0
LINE
  8
LC-007-005-----0
  6
CONTINUOUS
  5
52
 10
380.888327
 20
366.746192
 30
0.0
 11
393.209434
 21
379.067299
 31
0.0
  0
LINE
  8
LC-007-005-----0
  6
CONTINUOUS
  5
53
 10
409.388499
 20
395.246363
 30
0.0
 11
411.388506
 21
397.24637
 31
0.0
  0
LINE
  8
LC-007-005-----0
  6
CONTINUOUS
  5
54
 10
350.270569
 20
338.956861
 30
0.0
 11
351.270566
 21
339.956858
 31
0.0
  0
LINE
  8
LC-007-005-----0
  6
CONTINUOUS
  5
55
 10
378.0599
 20
366.746192
 30
0.0
 11
393.2102
 21
381.896492
 31
0.0
  0
LINE
  8
LC-007-005-----0
  6
CONTINUOUS
  5
56
 10
406.560072
 20
395.246363
 30
0.0
 11
408.560081
 21
397.246372
 31
0.0
  0
LINE
  8
LC-007-005-----0
  6
CONTINUOUS
  5
57
 10
350.270561
 20
341.78528
 30
0.0
 11
351.270558
 21
342.785277
 31
0.0
  0
LINE
  8
LC-007-005-----0
  6
CONTINUOUS
  5
58
 10
375.231473
 20
366.746192
 30
0.0
 11
393.210966
 21
384.725685
 31
0.0
  0
LINE
  8
LC-007-005-----0
  6
CONTINUOUS
  5
59
 10
403.731644
 20
395.246363
 30
0.0
 11
405.731655
 21
397.246374
 31
0.0
  0
LINE
  8
LC-007-005-----0
  6
CONTINUOUS
  5
5A
 10
350.270553
 20
344.613699
 30
0.0
 11
351.27055
 21
345.613696
 31
0.0
  0
LINE
  8
LC-007-005-----0
  6
CONTINUOUS
  5
5B
 10
372.403046
 20
366.746192
 30
0.0
 11
393.211732
 21
387.554878
 31
0.0
  0
LINE
  8
LC-007-005-----0
  6
CONTINUOUS
  5
5C
 10
400.903217
 20
395.246363
 30
0.0
 11
405.395781
 21
399.738927
 31
0.0
  0
LINE
  8
LC-007-005-----0
  6
CONTINUOUS
  5
5D
 10
350.270545
 20
347.442118
 30
0.0
 11
351.270542
 21
348.442115
 31
0.0
  0
LINE
  8
LC-007-005-----0
  6
CONTINUOUS
  5
5E
 10
369.574619
 20
366.746192
 30
0.0
 11
393.212498
 21
390.38407
 31
0.0
  0
LINE
  8
LC-007-005-----0
  6
CONTINUOUS
  5
5F
 10
398.07479
 20
395.246363
 30
0.0
 11
400.074805
 21
397.246378
 31
0.0
  0
LINE
  8
LC-007-005-----0
  6
CONTINUOUS
  5
60
 10
401.502127
 20
398.6737
 30
0.0
 11
404.740158
 21
401.911731
 31
0.0
  0
LINE
  8
LC-007-005-----0
  6
CONTINUOUS
  5
61
 10
350.270537
 20
350.270537
 30
0.0
 11
351.270534
 21
351.270534
 31
0.0
  0
LINE
  8
LC-007-005-----0
  6
CONTINUOUS
  5
62
 10
366.746192
 20
366.746192
 30
0.0
 11
393.213263
 21
393.213263
 31
0.0
  0
LINE
  8
LC-007-005-----0
  6
CONTINUOUS
  5
63
 10
395.246363
 20
395.246363
 30
0.0
 11
397.24638
 21
397.24638
 31
0.0
  0
LINE
  8
LC-007-005-----0
  6
CONTINUOUS
  5
64
 10
400.811935
 20
400.811935
 30
0.0
 11
403.688506
 21
403.688506
 31
0.0
  0
LINE
  8
LC-007-005-----0
  6
CONTINUOUS
  5
65
 10
350.270529
 20
353.098956
 30
0.0
 11
351.270526
 21
354.098953
 31
0.0
  0
LINE
  8
LC-007-005-----0
  6
CONTINUOUS
  5
66
 10
364.732296
 20
367.560724
 30
0.0
 11
394.417955
 21
397.246382
 31
0.0
  0
LINE
  8
LC-007-005-----0
  6
CONTINUOUS
  5
67
 10
399.461382
 20
402.289809
 30
0.0
 11
402.309135
 21
405.137562
 31
0.0
  0
LINE
  8
LC-007-005-----0
  6
CONTINUOUS
  5
68
 10
350.270521
 20
355.927375
 30
0.0
 11
351.270518
 21
356.927373
 31
0.0
  0
LINE
  8
LC-007-005-----0
  6
CONTINUOUS
  5
69
 10
364.134579
 20
369.791434
 30
0.0
 11
391.589338
 21
397.246192
 31
0.0
  0
LINE
  8
LC-007-005-----0
  6
CONTINUOUS
  5
6A
 10
397.493699
 20
403.150554
 30
0.0
 11
400.607706
 21
406.26456
 31
0.0
  0
LINE
  8
LC-007-005-----0
  6
CONTINUOUS
  5
6B
 10
350.270513
 20
358.755795
 30
0.0
 11
351.27051
 21
359.755792
 31
0.0
  0
LINE
  8
LC-007-005-----0
  6
CONTINUOUS
  5
6C
 10
364.012727
 20
372.498009
 30
0.0
 11
388.76091
 21
397.246192
 31
0.0
  0
LINE
  8
LC-007-005-----0
  6
CONTINUOUS
  5
6D
 10
394.760911
 20
403.246192
 30
0.0
 11
398.533002
 21
407.018283
 31
0.0
  0
LINE
  8
LC-007-005-----0
  6
CONTINUOUS
  5
6E
 10
350.270505
 20
361.584214
 30
0.0
 11
351.270502
 21
362.584211
 31
0.0
  0
LINE
  8
LC-007-005-----0
  6
CONTINUOUS
  5
6F
 10
363.432483
 20
374.746192
 30
0.0
 11
385.932483
 21
397.246192
 31
0.0
  0
LINE
  8
LC-007-005-----0
  6
CONTINUOUS
  5
70
 10
391.932483
 20
403.246192
 30
0.0
 11
395.932484
 21
407.246192
 31
0.0
  0
LINE
  8
LC-007-005-----0
  6
CONTINUOUS
  5
71
 10
350.270497
 20
364.412633
 30
0.0
 11
351.270494
 21
365.41263
 31
0.0
  0
LINE
  8
LC-007-005-----0
  6
CONTINUOUS
  5
72
 10
360.604056
 20
374.746192
 30
0.0
 11
383.104056
 21
397.246192
 31
0.0
  0
LINE
  8
LC-007-005-----0
  6
CONTINUOUS
  5
73
 10
389.104056
 20
403.246192
 30
0.0
 11
393.104056
 21
407.246192
 31
0.0
  0
LINE
  8
LC-007-005-----0
  6
CONTINUOUS
  5
74
 10
350.270489
 20
367.241052
 30
0.0
 11
351.270486
 21
368.241049
 31
0.0
  0
LINE
  8
LC-007-005-----0
  6
CONTINUOUS
  5
75
 10
360.513465
 20
377.484028
 30
0.0
 11
382.086654
 21
399.057217
 31
0.0
  0
LINE
  8
LC-007-005-----0
  6
CONTINUOUS
  5
76
 10
386.209414
 20
403.179977
 30
0.0
 11
390.275629
 21
407.246192
 31
0.0
  0
LINE
  8
LC-007-005-----0
  6
CONTINUOUS
  5
77
 10
350.270481
 20
370.069471
 30
0.0
 11
351.270478
 21
371.069468
 31
0.0
  0
LINE
  8
LC-007-005-----0
  6
CONTINUOUS
  5
78
 10
360.514231
 20
380.31322
 30
0.0
 11
377.447202
 21
397.246192
 31
0.0
  0
LINE
  8
LC-007-005-----0
  6
CONTINUOUS
  5
79
 10
378.02044
 20
397.81943
 30
0.0
 11
387.447202
 21
407.246192
 31
0.0
  0
LINE
  8
LC-007-005-----0
  6
CONTINUOUS
  5
7A
 10
350.270473
 20
372.89789
 30
0.0
 11
351.27047
 21
373.897887
 31
0.0
  0
LINE
  8
LC-007-005-----0
  6
CONTINUOUS
  5
7B
 10
360.514996
 20
383.142413
 30
0.0
 11
374.618775
 21
397.246192
 31
0.0
  0
LINE
  8
LC-007-005-----0
  6
CONTINUOUS
  5
7C
 10
378.49109
 20
401.118507
 30
0.0
 11
384.148124
 21
406.775541
 31
0.0
  0
LINE
  8
LC-007-005-----0
  6
CONTINUOUS
  5
7D
 10
350.270465
 20
375.726309
 30
0.0
 11
351.270462
 21
376.726306
 31
0.0
  0
LINE
  8
LC-007-005-----0
  6
CONTINUOUS
  5
7E
 10
360.515762
 20
385.971606
 30
0.0
 11
371.790348
 21
397.246192
 31
0.0
  0
LINE
  8
LC-007-005-----0
  6
CONTINUOUS
  5
7F
 10
350.270457
 20
378.554728
 30
0.0
 11
351.270454
 21
379.554725
 31
0.0
  0
LINE
  8
LC-007-005-----0
  6
CONTINUOUS
  5
80
 10
360.516528
 20
388.800799
 30
0.0
 11
368.961921
 21
397.246192
 31
0.0
  0
LINE
  8
LC-007-005-----0
  6
CONTINUOUS
  5
81
 10
350.270449
 20
381.383147
 30
0.0
 11
351.270446
 21
382.383145
 31
0.0
  0
LINE
  8
LC-007-005-----0
  6
CONTINUOUS
  5
82
 10
360.517294
 20
391.629992
 30
0.0
 11
366.133493
 21
397.246192
 31
0.0
  0
LINE
  8
LC-007-005-----0
  6
CONTINUOUS
  5
83
 10
350.270441
 20
384.211567
 30
0.0
 11
351.270438
 21
385.211564
 31
0.0
  0
LINE
  8
LC-007-005-----0
  6
CONTINUOUS
  5
84
 10
360.51806
 20
394.459185
 30
0.0
 11
363.305066
 21
397.246192
 31
0.0
  0
LINE
  8
LC-007-005-----0
  6
CONTINUOUS
  5
85
 10
350.430586
 20
387.200139
 30
0.0
 11
351.860288
 21
388.629841
 31
0.0
  0
LINE
  8
LC-007-005-----0
  6
CONTINUOUS
  5
86
 10
357.886789
 20
394.656342
 30
0.0
 11
360.316491
 21
397.086044
 31
0.0
  0
LINE
  8
LC-007-005-----0
  6
CONTINUOUS
  5
87
 10
352.248945
 20
391.846925
 30
0.0
 11
355.669705
 21
395.267685
 31
0.0
  0
ENDBLK
  8
0
  5
88
  0
BLOCK
  8
0
  5
8A
  2
BLK2
 70
    64
 10
0.0
 20
0.0
 30
0.0
  3
BLK2
  0
ENDBLK
  8
0
  5
8B
  0
BLOCK
  8
0
  5
8D
  2
*D3
 70
    65
 10
0.0
 20
0.0
 30
0.0
  3
*D3
  0
LINE
  8
LC-009-003-MTH-0
  6
CONTINUOUS
  5
8F
 10
241.617077
 20
413.543407
 30
0.0
 11
241.617077
 21
487.2
 31
0.0
  0
LINE
  8
LC-009-003-MTH-0
  6
CONTINUOUS
  5
90
 10
541.917925
 20
413.543407
 30
0.0
 11
541.917925
 21
487.2
 31
0.0
  0
LINE
  8
LC-010-003-MTG-0
  6
CONTINUOUS
  5
92
 10
241.617077
 20
470.4
 30
0.0
 11
541.917925
 21
470.4
 31
0.0
  0
LINE
  8
LC-008-003-----0
  6
CONTINUOUS
  5
94
 10
269.377533
 20
474.054733
 30
0.0
 11
241.617077
 21
470.4
 31
0.0
  0
LINE
  8
LC-008-003-----0
  6
CONTINUOUS
  5
95
 10
241.617077
 20
470.4
 30
0.0
 11
269.377533
 21
466.745267
 31
0.0
  0
LINE
  8
LC-008-003-----0
  6
CONTINUOUS
  5
96
 10
269.377533
 20
466.745267
 30
0.0
 11
269.377533
 21
474.054733
 31
0.0
  0
LINE
  8
LC-008-003-----0
  6
CONTINUOUS
  5
97
 10
269.439814
 20
473.104503
 30
0.0
 11
248.897077
 21
470.4
 31
0.0
  0
LINE
  8
LC-008-003-----0
  6
CONTINUOUS
  5
98
 10
248.897077
 20
470.4
 30
0.0
 11
269.439814
 21
467.695497
 31
0.0
  0
LINE
  8
LC-008-003-----0
  6
CONTINUOUS
  5
99
 10
269.502096
 20
472.154272
 30
0.0
 11
256.177077
 21
470.4
 31
0.0
  0
LINE
  8
LC-008-003-----0
  6
CONTINUOUS
  5
9A
 10
256.177077
 20
470.4
 30
0.0
 11
269.502096
 21
468.645728
 31
0.0
  0
LINE
  8
LC-008-003-----0
  6
CONTINUOUS
  5
9B
 10
269.564377
 20
471.204041
 30
0.0
 11
263.457077
 21
470.4
 31
0.0
  0
LINE
  8
LC-008-003-----0
  6
CONTINUOUS
  5
9C
 10
263.457077
 20
470.4
 30
0.0
 11
269.564377
 21
469.595959
 31
0.0
  0
LINE
  8
LC-008-003-----0
  6
CONTINUOUS
  5
9D
 10
514.157469
 20
466.745267
 30
0.0
 11
541.917925
 21
470.4
 31
0.0
  0
LINE
  8
LC-008-003-----0
  6
CONTINUOUS
  5
9E
 10
541.917925
 20
470.4
 30
0.0
 11
514.157469
 21
474.054733
 31
0.0
  0
LINE
  8
LC-008-003-----0
  6
CONTINUOUS
  5
9F
 10
514.157469
 20
474.054733
 30
0.0
 11
514.157469
 21
466.745267
 31
0.0
  0
LINE
  8
LC-008-003-----0
  6
CONTINUOUS
  5
A0
 10
514.095188
 20
467.695497
 30
0.0
 11
534.637925
 21
470.4
 31
0.0
  0
LINE
  8
LC-008-003-----0
  6
CONTINUOUS
  5
A1
 10
534.637925
 20
470.4
 30
0.0
 11
514.095188
 21
473.104503
 31
0.0
  0
LINE
  8
LC-008-003-----0
  6
CONTINUOUS
  5
A2
 10
514.032906
 20
468.645728
 30
0.0
 11
527.357925
 21
470.4
 31
0.0
  0
LINE
  8
LC-008-003-----0
  6
CONTINUOUS
  5
A3
 10
527.357925
 20
470.4
 30
0.0
 11
514.032906
 21
472.154272
 31
0.0
  0
LINE
  8
LC-008-003-----0
  6
CONTINUOUS
  5
A4
 10
513.970625
 20
469.595959
 30
0.0
 11
520.077925
 21
470.4
 31
0.0
  0
LINE
  8
LC-008-003-----0
  6
CONTINUOUS
  5
A5
 10
520.077925
 20
470.4
 30
0.0
 11
513.970625
 21
471.204041
 31
0.0
  0
TEXT
  8
LC-008-003-----0
  6
CONTINUOUS
 62
     8
  5
A7
 10
358.018023
 20
478.227554
 30
0.0
 40
28.0
  1
Ø300
 41
0.9
 51
15.0
  7
LC-TXTSTYLE-150-400-0-0-D0
 72
     1
 11
396.115661
 21
478.227554
 31
0.0
  0
ENDBLK
  8
0
  5
A8
  0
BLOCK
  8
0
  5
AA
  2
*D4
 70
    65
 10
0.0
 20
0.0
 30
0.0
  3
*D4
  0
LINE
  8
LC-009-003-MTH-0
  6
CONTINUOUS
  5
AB
 10
366.771364
 20
254.159634
 30
0.0
 11
366.771364
 21
223.2
 31
0.0
  0
LINE
  8
LC-009-003-MTH-0
  6
CONTINUOUS
  5
AC
 10
416.771365
 20
254.159634
 30
0.0
 11
416.771365
 21
223.2
 31
0.0
  0
LINE
  8
LC-008-003-----0
  6
CONTINUOUS
  5
AD
 10
339.010908
 20
236.345267
 30
0.0
 11
366.771364
 21
240.0
 31
0.0
  0
LINE
  8
LC-008-003-----0
  6
CONTINUOUS
  5
AE
 10
366.771364
 20
240.0
 30
0.0
 11
339.010908
 21
243.654733
 31
0.0
  0
LINE
  8
LC-008-003-----0
  6
CONTINUOUS
  5
AF
 10
339.010908
 20
243.654733
 30
0.0
 11
339.010908
 21
236.345267
 31
0.0
  0
LINE
  8
LC-008-003-----0
  6
CONTINUOUS
  5
B0
 10
338.948626
 20
237.295497
 30
0.0
 11
359.491364
 21
240.0
 31
0.0
  0
LINE
  8
LC-008-003-----0
  6
CONTINUOUS
  5
B1
 10
359.491364
 20
240.0
 30
0.0
 11
338.948626
 21
242.704503
 31
0.0
  0
LINE
  8
LC-008-003-----0
  6
CONTINUOUS
  5
B2
 10
338.886345
 20
238.245728
 30
0.0
 11
352.211364
 21
240.0
 31
0.0
  0
LINE
  8
LC-008-003-----0
  6
CONTINUOUS
  5
B3
 10
352.211364
 20
240.0
 30
0.0
 11
338.886345
 21
241.754272
 31
0.0
  0
LINE
  8
LC-008-003-----0
  6
CONTINUOUS
  5
B4
 10
338.824063
 20
239.195959
 30
0.0
 11
344.931364
 21
240.0
 31
0.0
  0
LINE
  8
LC-008-003-----0
  6
CONTINUOUS
  5
B5
 10
344.931364
 20
240.0
 30
0.0
 11
338.824063
 21
240.804041
 31
0.0
  0
LINE
  8
LC-008-003-----0
  6
CONTINUOUS
  5
B6
 10
444.531821
 20
243.654733
 30
0.0
 11
416.771365
 21
240.0
 31
0.0
  0
LINE
  8
LC-008-003-----0
  6
CONTINUOUS
  5
B7
 10
416.771365
 20
240.0
 30
0.0
 11
444.531821
 21
236.345267
 31
0.0
  0
LINE
  8
LC-008-003-----0
  6
CONTINUOUS
  5
B8
 10
444.531821
 20
236.345267
 30
0.0
 11
444.531821
 21
243.654733
 31
0.0
  0
LINE
  8
LC-008-003-----0
  6
CONTINUOUS
  5
B9
 10
444.594102
 20
242.704503
 30
0.0
 11
424.051365
 21
240.0
 31
0.0
  0
LINE
  8
LC-008-003-----0
  6
CONTINUOUS
  5
BA
 10
424.051365
 20
240.0
 30
0.0
 11
444.594102
 21
237.295497
 31
0.0
  0
LINE
  8
LC-008-003-----0
  6
CONTINUOUS
  5
BB
 10
444.656384
 20
241.754272
 30
0.0
 11
431.331365
 21
240.0
 31
0.0
  0
LINE
  8
LC-008-003-----0
  6
CONTINUOUS
  5
BC
 10
431.331365
 20
240.0
 30
0.0
 11
444.656384
 21
238.245728
 31
0.0
  0
LINE
  8
LC-008-003-----0
  6
CONTINUOUS
  5
BD
 10
444.718665
 20
240.804041
 30
0.0
 11
438.611365
 21
240.0
 31
0.0
  0
LINE
  8
LC-008-003-----0
  6
CONTINUOUS
  5
BE
 10
438.611365
 20
240.0
 30
0.0
 11
444.718665
 21
239.195959
 31
0.0
  0
LINE
  8
LC-010-003-MTG-0
  6
CONTINUOUS
  5
BF
 10
327.571364
 20
240.0
 30
0.0
 11
545.741465
 21
240.0
 31
0.0
  0
TEXT
  8
LC-008-003-----0
  6
CONTINUOUS
 62
     8
  5
C0
 10
459.199525
 20
247.827554
 30
0.0
 40
28.0
  1
DN50
 51
15.0
  7
LC-TXTSTYLE-150-400-0-0-D0
  0
ENDBLK
  8
0
  5
C1
  0
BLOCK
  8
0
  5
C3
  2
*D5
 70
    65
 10
0.0
 20
0.0
 30
0.0
  3
*D5
  0
LINE
  8
LC-009-003-MTH-0
  6
CONTINUOUS
  5
C4
 10
323.790441
 20
303.75816
 30
0.0
 11
218.4
 21
303.75816
 31
0.0
  0
LINE
  8
LC-009-003-MTH-0
  6
CONTINUOUS
  5
C5
 10
241.617077
 20
413.543407
 30
0.0
 11
218.4
 21
413.543407
 31
0.0
  0
LINE
  8
LC-010-003-MTG-0
  6
CONTINUOUS
  5
C6
 10
235.2
 20
303.75816
 30
0.0
 11
235.2
 21
413.543407
 31
0.0
  0
LINE
  8
LC-008-003-----0
  6
CONTINUOUS
  5
C7
 10
231.545267
 20
331.518616
 30
0.0
 11
235.2
 21
303.75816
 31
0.0
  0
LINE
  8
LC-008-003-----0
  6
CONTINUOUS
  5
C8
 10
235.2
 20
303.75816
 30
0.0
 11
238.854733
 21
331.518616
 31
0.0
  0
LINE
  8
LC-008-003-----0
  6
CONTINUOUS
  5
C9
 10
238.854733
 20
331.518616
 30
0.0
 11
231.545267
 21
331.518616
 31
0.0
  0
LINE
  8
LC-008-003-----0
  6
CONTINUOUS
  5
CA
 10
232.495497
 20
331.580897
 30
0.0
 11
235.2
 21
311.03816
 31
0.0
  0
LINE
  8
LC-008-003-----0
  6
CONTINUOUS
  5
CB
 10
235.2
 20
311.03816
 30
0.0
 11
237.904503
 21
331.580897
 31
0.0
  0
LINE
  8
LC-008-003-----0
  6
CONTINUOUS
  5
CC
 10
233.445728
 20
331.643179
 30
0.0
 11
235.2
 21
318.31816
 31
0.0
  0
LINE
  8
LC-008-003-----0
  6
CONTINUOUS
  5
CD
 10
235.2
 20
318.31816
 30
0.0
 11
236.954272
 21
331.643179
 31
0.0
  0
LINE
  8
LC-008-003-----0
  6
CONTINUOUS
  5
CE
 10
234.395959
 20
331.70546
 30
0.0
 11
235.2
 21
325.59816
 31
0.0
  0
LINE
  8
LC-008-003-----0
  6
CONTINUOUS
  5
CF
 10
235.2
 20
325.59816
 30
0.0
 11
236.004041
 21
331.70546
 31
0.0
  0
LINE
  8
LC-008-003-----0
  6
CONTINUOUS
  5
D0
 10
238.854733
 20
385.782951
 30
0.0
 11
235.2
 21
413.543407
 31
0.0
  0
LINE
  8
LC-008-003-----0
  6
CONTINUOUS
  5
D1
 10
235.2
 20
413.543407
 30
0.0
 11
231.545267
 21
385.782951
 31
0.0
  0
LINE
  8
LC-008-003-----0
  6
CONTINUOUS
  5
D2
 10
231.545267
 20
385.782951
 30
0.0
 11
238.854733
 21
385.782951
 31
0.0
  0
LINE
  8
LC-008-003-----0
  6
CONTINUOUS
  5
D3
 10
237.904503
 20
385.720669
 30
0.0
 11
235.2
 21
406.263407
 31
0.0
  0
LINE
  8
LC-008-003-----0
  6
CONTINUOUS
  5
D4
 10
235.2
 20
406.263407
 30
0.0
 11
232.495497
 21
385.720669
 31
0.0
  0
LINE
  8
LC-008-003-----0
  6
CONTINUOUS
  5
D5
 10
236.954272
 20
385.658388
 30
0.0
 11
235.2
 21
398.983407
 31
0.0
  0
LINE
  8
LC-008-003-----0
  6
CONTINUOUS
  5
D6
 10
235.2
 20
398.983407
 30
0.0
 11
233.445728
 21
385.658388
 31
0.0
  0
LINE
  8
LC-008-003-----0
  6
CONTINUOUS
  5
D7
 10
236.004041
 20
385.596106
 30
0.0
 11
235.2
 21
391.703407
 31
0.0
  0
LINE
  8
LC-008-003-----0
  6
CONTINUOUS
  5
D8
 10
235.2
 20
391.703407
 30
0.0
 11
234.395959
 21
385.596106
 31
0.0
  0
TEXT
  8
LC-008-003-----0
  6
CONTINUOUS
 62
     8
  5
D9
 10
227.372446
 20
333.235164
 30
0.0
 40
28.0
  1
110
 50
90.0
 51
15.0
  7
LC-TXTSTYLE-150-400-0-0-D0
 72
     1
 11
227.372446
 21
362.998943
 31
0.0
  0
ENDBLK
  8
0
  5
DA
  0
BLOCK
  8
0
  5
DC
  2
*D6
 70
    65
 10
0.0
 20
0.0
 30
0.0
  3
*D6
  0
LINE
  8
LC-009-003-MTH-0
  6
CONTINUOUS
  5
DD
 10
350.270442
 20
325.246189
 30
0.0
 11
263.2
 21
325.246189
 31
0.0
  0
LINE
  8
LC-009-003-MTH-0
  6
CONTINUOUS
  5
DE
 10
360.512724
 20
374.746192
 30
0.0
 11
263.2
 21
374.746192
 31
0.0
  0
LINE
  8
LC-008-003-----0
  6
CONTINUOUS
  5
DF
 10
283.654733
 20
297.485733
 30
0.0
 11
280.0
 21
325.246189
 31
0.0
  0
LINE
  8
LC-008-003-----0
  6
CONTINUOUS
  5
E0
 10
280.0
 20
325.246189
 30
0.0
 11
276.345267
 21
297.485733
 31
0.0
  0
LINE
  8
LC-008-003-----0
  6
CONTINUOUS
  5
E1
 10
276.345267
 20
297.485733
 30
0.0
 11
283.654733
 21
297.485733
 31
0.0
  0
LINE
  8
LC-008-003-----0
  6
CONTINUOUS
  5
E2
 10
282.704503
 20
297.423452
 30
0.0
 11
280.0
 21
317.966189
 31
0.0
  0
LINE
  8
LC-008-003-----0
  6
CONTINUOUS
  5
E3
 10
280.0
 20
317.966189
 30
0.0
 11
277.295497
 21
297.423452
 31
0.0
  0
LINE
  8
LC-008-003-----0
  6
CONTINUOUS
  5
E4
 10
281.754272
 20
297.36117
 30
0.0
 11
280.0
 21
310.686189
 31
0.0
  0
LINE
  8
LC-008-003-----0
  6
CONTINUOUS
  5
E5
 10
280.0
 20
310.686189
 30
0.0
 11
278.245728
 21
297.36117
 31
0.0
  0
LINE
  8
LC-008-003-----0
  6
CONTINUOUS
  5
E6
 10
280.804041
 20
297.298889
 30
0.0
 11
280.0
 21
303.406189
 31
0.0
  0
LINE
  8
LC-008-003-----0
  6
CONTINUOUS
  5
E7
 10
280.0
 20
303.406189
 30
0.0
 11
279.195959
 21
297.298889
 31
0.0
  0
LINE
  8
LC-008-003-----0
  6
CONTINUOUS
  5
E8
 10
276.345267
 20
402.506648
 30
0.0
 11
280.0
 21
374.746192
 31
0.0
  0
LINE
  8
LC-008-003-----0
  6
CONTINUOUS
  5
E9
 10
280.0
 20
374.746192
 30
0.0
 11
283.654733
 21
402.506648
 31
0.0
  0
LINE
  8
LC-008-003-----0
  6
CONTINUOUS
  5
EA
 10
283.654733
 20
402.506648
 30
0.0
 11
276.345267
 21
402.506648
 31
0.0
  0
LINE
  8
LC-008-003-----0
  6
CONTINUOUS
  5
EB
 10
277.295497
 20
402.568929
 30
0.0
 11
280.0
 21
382.026192
 31
0.0
  0
LINE
  8
LC-008-003-----0
  6
CONTINUOUS
  5
EC
 10
280.0
 20
382.026192
 30
0.0
 11
282.704503
 21
402.568929
 31
0.0
  0
LINE
  8
LC-008-003-----0
  6
CONTINUOUS
  5
ED
 10
278.245728
 20
402.631211
 30
0.0
 11
280.0
 21
389.306192
 31
0.0
  0
LINE
  8
LC-008-003-----0
  6
CONTINUOUS
  5
EE
 10
280.0
 20
389.306192
 30
0.0
 11
281.754272
 21
402.631211
 31
0.0
  0
LINE
  8
LC-008-003-----0
  6
CONTINUOUS
  5
EF
 10
279.195959
 20
402.693492
 30
0.0
 11
280.0
 21
396.586192
 31
0.0
  0
LINE
  8
LC-008-003-----0
  6
CONTINUOUS
  5
F0
 10
280.0
 20
396.586192
 30
0.0
 11
280.804041
 21
402.693492
 31
0.0
  0
LINE
  8
LC-010-003-MTG-0
  6
CONTINUOUS
  5
F1
 10
280.0
 20
286.046189
 30
0.0
 11
280.0
 21
413.946192
 31
0.0
  0
TEXT
  8
LC-008-003-----0
  6
CONTINUOUS
 62
     8
  5
F2
 10
272.172446
 20
337.941201
 30
0.0
 40
28.0
  1
50
 50
90.0
 51
15.0
  7
LC-TXTSTYLE-150-400-0-0-D0
 72
     1
 11
272.172446
 21
354.34435
 31
0.0
  0
ENDBLK
  8
0
  5
F3
  0
BLOCK
  8
0
  5
F5
  2
BLK3
 70
    64
 10
0.0
 20
0.0
 30
0.0
  3
BLK3
  0
ENDBLK
  8
0
  5
F6
  0
BLOCK
  8
0
  5
F8
  2
BLK4
 70
    64
 10
0.0
 20
0.0
 30
0.0
  3
BLK4
  0
ENDBLK
  8
0
  5
F9
  0
BLOCK
  8
0
  5
FB
  2
*D9
 70
    65
 10
0.0
 20
0.0
 30
0.0
  3
*D9
  0
LINE
  8
LC-009-003-MTH-0
  6
CONTINUOUS
  5
FC
 10
311.880342
 20
314.708769
 30
0.0
 11
311.880342
 21
179.2
 31
0.0
  0
LINE
  8
LC-009-003-MTH-0
  6
CONTINUOUS
  5
FD
 10
471.700159
 20
232.848
 30
0.0
 11
471.700159
 21
179.2
 31
0.0
  0
LINE
  8
LC-010-003-MTG-0
  6
CONTINUOUS
  5
FE
 10
311.880342
 20
196.0
 30
0.0
 11
471.700159
 21
196.0
 31
0.0
  0
LINE
  8
LC-008-003-----0
  6
CONTINUOUS
  5
FF
 10
339.640798
 20
199.654733
 30
0.0
 11
311.880342
 21
196.0
 31
0.0
  0
LINE
  8
LC-008-003-----0
  6
CONTINUOUS
  5
100
 10
311.880342
 20
196.0
 30
0.0
 11
339.640798
 21
192.345267
 31
0.0
  0
LINE
  8
LC-008-003-----0
  6
CONTINUOUS
  5
101
 10
339.640798
 20
192.345267
 30
0.0
 11
339.640798
 21
199.654733
 31
0.0
  0
LINE
  8
LC-008-003-----0
  6
CONTINUOUS
  5
102
 10
339.703079
 20
198.704503
 30
0.0
 11
319.160342
 21
196.0
 31
0.0
  0
LINE
  8
LC-008-003-----0
  6
CONTINUOUS
  5
103
 10
319.160342
 20
196.0
 30
0.0
 11
339.703079
 21
193.295497
 31
0.0
  0
LINE
  8
LC-008-003-----0
  6
CONTINUOUS
  5
104
 10
339.765361
 20
197.754272
 30
0.0
 11
326.440342
 21
196.0
 31
0.0
  0
LINE
  8
LC-008-003-----0
  6
CONTINUOUS
  5
105
 10
326.440342
 20
196.0
 30
0.0
 11
339.765361
 21
194.245728
 31
0.0
  0
LINE
  8
LC-008-003-----0
  6
CONTINUOUS
  5
106
 10
339.827642
 20
196.804041
 30
0.0
 11
333.720342
 21
196.0
 31
0.0
  0
LINE
  8
LC-008-003-----0
  6
CONTINUOUS
  5
107
 10
333.720342
 20
196.0
 30
0.0
 11
339.827642
 21
195.195959
 31
0.0
  0
LINE
  8
LC-008-003-----0
  6
CONTINUOUS
  5
108
 10
443.939703
 20
192.345267
 30
0.0
 11
471.700159
 21
196.0
 31
0.0
  0
LINE
  8
LC-008-003-----0
  6
CONTINUOUS
  5
109
 10
471.700159
 20
196.0
 30
0.0
 11
443.939703
 21
199.654733
 31
0.0
  0
LINE
  8
LC-008-003-----0
  6
CONTINUOUS
  5
10A
 10
443.939703
 20
199.654733
 30
0.0
 11
443.939703
 21
192.345267
 31
0.0
  0
LINE
  8
LC-008-003-----0
  6
CONTINUOUS
  5
10B
 10
443.877421
 20
193.295497
 30
0.0
 11
464.420159
 21
196.0
 31
0.0
  0
LINE
  8
LC-008-003-----0
  6
CONTINUOUS
  5
10C
 10
464.420159
 20
196.0
 30
0.0
 11
443.877421
 21
198.704503
 31
0.0
  0
LINE
  8
LC-008-003-----0
  6
CONTINUOUS
  5
10D
 10
443.81514
 20
194.245728
 30
0.0
 11
457.140159
 21
196.0
 31
0.0
  0
LINE
  8
LC-008-003-----0
  6
CONTINUOUS
  5
10E
 10
457.140159
 20
196.0
 30
0.0
 11
443.81514
 21
197.754272
 31
0.0
  0
LINE
  8
LC-008-003-----0
  6
CONTINUOUS
  5
10F
 10
443.752859
 20
195.195959
 30
0.0
 11
449.860159
 21
196.0
 31
0.0
  0
LINE
  8
LC-008-003-----0
  6
CONTINUOUS
  5
110
 10
449.860159
 20
196.0
 30
0.0
 11
443.752859
 21
196.804041
 31
0.0
  0
TEXT
  8
LC-008-003-----0
  6
CONTINUOUS
 62
     8
  5
111
 10
358.040773
 20
203.827554
 30
0.0
 40
28.0
  1
Ø160
 51
15.0
  7
LC-TXTSTYLE-150-400-0-0-D0
 72
     1
 11
396.13841
 21
203.827554
 31
0.0
  0
ENDBLK
  8
0
  5
112
  0
BLOCK
  8
0
  5
114
  2
*D10
 70
    65
 10
0.0
 20
0.0
 30
0.0
  3
*D10
  0
LINE
  8
LC-009-003-MTH-0
  6
CONTINUOUS
  5
115
 10
297.266463
 20
404.292919
 30
0.0
 11
297.27655
 21
447.931298
 31
0.0
  0
LINE
  8
LC-009-003-MTH-0
  6
CONTINUOUS
  5
116
 10
486.273617
 20
404.249231
 30
0.0
 11
486.283704
 21
447.88761
 31
0.0
  0
LINE
  8
LC-010-003-MTG-0
  6
CONTINUOUS
  5
117
 10
297.272666
 20
431.131298
 30
0.0
 11
486.279821
 21
431.08761
 31
0.0
  0
LINE
  8
LC-008-003-----0
  6
CONTINUOUS
  5
118
 10
325.033966
 20
434.779615
 30
0.0
 11
297.272666
 21
431.131298
 31
0.0
  0
LINE
  8
LC-008-003-----0
  6
CONTINUOUS
  5
119
 10
297.272666
 20
431.131298
 30
0.0
 11
325.032277
 21
427.470148
 31
0.0
  0
LINE
  8
LC-008-003-----0
  6
CONTINUOUS
  5
11A
 10
325.032277
 20
427.470148
 30
0.0
 11
325.033966
 21
434.779615
 31
0.0
  0
LINE
  8
LC-008-003-----0
  6
CONTINUOUS
  5
11B
 10
325.096028
 20
433.82937
 30
0.0
 11
304.552666
 21
431.129615
 31
0.0
  0
LINE
  8
LC-008-003-----0
  6
CONTINUOUS
  5
11C
 10
304.552666
 20
431.129615
 30
0.0
 11
325.094778
 21
428.420364
 31
0.0
  0
LINE
  8
LC-008-003-----0
  6
CONTINUOUS
  5
11D
 10
325.15809
 20
432.879125
 30
0.0
 11
311.832666
 21
431.127933
 31
0.0
  0
LINE
  8
LC-008-003-----0
  6
CONTINUOUS
  5
11E
 10
311.832666
 20
431.127933
 30
0.0
 11
325.157279
 21
429.370581
 31
0.0
  0
LINE
  8
LC-008-003-----0
  6
CONTINUOUS
  5
11F
 10
325.220152
 20
431.92888
 30
0.0
 11
319.112666
 21
431.12625
 31
0.0
  0
LINE
  8
LC-008-003-----0
  6
CONTINUOUS
  5
120
 10
319.112666
 20
431.12625
 30
0.0
 11
325.21978
 21
430.320797
 31
0.0
  0
LINE
  8
LC-008-003-----0
  6
CONTINUOUS
  5
121
 10
458.518521
 20
427.439293
 30
0.0
 11
486.279821
 21
431.08761
 31
0.0
  0
LINE
  8
LC-008-003-----0
  6
CONTINUOUS
  5
122
 10
486.279821
 20
431.08761
 30
0.0
 11
458.52021
 21
434.74876
 31
0.0
  0
LINE
  8
LC-008-003-----0
  6
CONTINUOUS
  5
123
 10
458.52021
 20
434.74876
 30
0.0
 11
458.518521
 21
427.439293
 31
0.0
  0
LINE
  8
LC-008-003-----0
  6
CONTINUOUS
  5
124
 10
458.456459
 20
428.389539
 30
0.0
 11
478.999821
 21
431.089293
 31
0.0
  0
LINE
  8
LC-008-003-----0
  6
CONTINUOUS
  5
125
 10
478.999821
 20
431.089293
 30
0.0
 11
458.457709
 21
433.798544
 31
0.0
  0
LINE
  8
LC-008-003-----0
  6
CONTINUOUS
  5
126
 10
458.394397
 20
429.339784
 30
0.0
 11
471.719821
 21
431.090976
 31
0.0
  0
LINE
  8
LC-008-003-----0
  6
CONTINUOUS
  5
127
 10
471.719821
 20
431.090976
 30
0.0
 11
458.395208
 21
432.848328
 31
0.0
  0
LINE
  8
LC-008-003-----0
  6
CONTINUOUS
  5
128
 10
458.332336
 20
430.290029
 30
0.0
 11
464.439822
 21
431.092658
 31
0.0
  0
LINE
  8
LC-008-003-----0
  6
CONTINUOUS
  5
129
 10
464.439822
 20
431.092658
 30
0.0
 11
458.332707
 21
431.898111
 31
0.0
  0
TEXT
  8
LC-008-003-----0
  6
CONTINUOUS
 62
     8
  5
12A
 10
358.024824
 20
438.937008
 30
0.0
 40
28.0
  1
Ø190
 50
360.0
 51
15.0
  7
LC-TXTSTYLE-150-400-0-0-D0
 72
     1
 11
396.122462
 21
438.937008
 31
0.0
  0
ENDBLK
  8
0
  5
12B
  0
BLOCK
  8
0
  5
12D
  2
*X11
 70
    65
 10
282.421211
 20
385.402237
 30
0.0
  3
*X11
  0
LINE
  8
LC-007-005-----0
  6
CONTINUOUS
  5
12E
 10
317.519986
 20
385.402237
 30
0.0
 11
318.219986
 21
386.102237
 31
0.0
  0
LINE
  8
LC-007-005-----0
  6
CONTINUOUS
  5
12F
 10
315.048919
 20
385.759597
 30
0.0
 11
315.546936
 21
386.257614
 31
0.0
  0
LINE
  8
LC-007-005-----0
  6
CONTINUOUS
  5
130
 10
316.320709
 20
389.859814
 30
0.0
 11
317.020709
 21
390.559814
 31
0.0
  0
LINE
  8
LC-007-005-----0
  6
CONTINUOUS
  5
131
 10
315.067115
 20
391.434647
 30
0.0
 11
315.658262
 21
392.025794
 31
0.0
  0
LINE
  8
LC-007-005-----0
  6
CONTINUOUS
  5
132
 10
313.347309
 20
392.543269
 30
0.0
 11
313.844468
 21
393.040427
 31
0.0
  0
LINE
  8
LC-007-005-----0
  6
CONTINUOUS
  5
133
 10
312.529529
 20
394.553916
 30
0.0
 11
313.220709
 21
395.245096
 31
0.0
  0
LINE
  8
LC-007-005-----0
  6
CONTINUOUS
  5
134
 10
312.520709
 20
397.373523
 30
0.0
 11
313.220709
 21
398.073523
 31
0.0
  0
LINE
  8
LC-007-005-----0
  6
CONTINUOUS
  5
135
 10
312.520709
 20
400.20195
 30
0.0
 11
313.220709
 21
400.90195
 31
0.0
  0
LINE
  8
LC-007-005-----0
  6
CONTINUOUS
  5
136
 10
312.520709
 20
403.030377
 30
0.0
 11
313.220709
 21
403.730377
 31
0.0
  0
LINE
  8
LC-007-005-----0
  6
CONTINUOUS
  5
137
 10
312.520709
 20
405.858804
 30
0.0
 11
313.220709
 21
406.558804
 31
0.0
  0
LINE
  8
LC-007-005-----0
  6
CONTINUOUS
  5
138
 10
312.517722
 20
408.684245
 30
0.0
 11
313.168284
 21
409.334806
 31
0.0
  0
LINE
  8
LC-007-005-----0
  6
CONTINUOUS
  5
139
 10
312.000991
 20
410.995941
 30
0.0
 11
312.525685
 21
411.520634
 31
0.0
  0
LINE
  8
LC-007-005-----0
  6
CONTINUOUS
  5
13A
 10
310.892989
 20
412.716366
 30
0.0
 11
311.383469
 21
413.206846
 31
0.0
  0
LINE
  8
LC-007-005-----0
  6
CONTINUOUS
  5
13B
 10
309.322173
 20
413.973976
 30
0.0
 11
309.827282
 21
414.479086
 31
0.0
  0
LINE
  8
LC-007-005-----0
  6
CONTINUOUS
  5
13C
 10
307.228862
 20
414.709093
 30
0.0
 11
307.815403
 21
415.295634
 31
0.0
  0
LINE
  8
LC-007-005-----0
  6
CONTINUOUS
  5
13D
 10
304.609662
 20
414.91832
 30
0.0
 11
305.255621
 21
415.564279
 31
0.0
  0
LINE
  8
LC-007-005-----0
  6
CONTINUOUS
  5
13E
 10
301.966091
 20
415.103176
 30
0.0
 11
302.61205
 21
415.749135
 31
0.0
  0
LINE
  8
LC-007-005-----0
  6
CONTINUOUS
  5
13F
 10
299.32252
 20
415.288033
 30
0.0
 11
299.96848
 21
415.933992
 31
0.0
  0
LINE
  8
LC-007-005-----0
  6
CONTINUOUS
  5
140
 10
296.67895
 20
415.472889
 30
0.0
 11
297.324909
 21
416.118848
 31
0.0
  0
LINE
  8
LC-007-005-----0
  6
CONTINUOUS
  5
141
 10
294.035379
 20
415.657745
 30
0.0
 11
294.681338
 21
416.303705
 31
0.0
  0
LINE
  8
LC-007-005-----0
  6
CONTINUOUS
  5
142
 10
291.391808
 20
415.842602
 30
0.0
 11
292.037768
 21
416.488561
 31
0.0
  0
LINE
  8
LC-007-005-----0
  6
CONTINUOUS
  5
143
 10
288.750481
 20
416.029701
 30
0.0
 11
289.394197
 21
416.673418
 31
0.0
  0
LINE
  8
LC-007-005-----0
  6
CONTINUOUS
  5
144
 10
286.519566
 20
416.627214
 30
0.0
 11
287.052219
 21
417.159867
 31
0.0
  0
LINE
  8
LC-007-005-----0
  6
CONTINUOUS
  5
145
 10
284.801928
 20
417.738003
 30
0.0
 11
285.298057
 21
418.234132
 31
0.0
  0
ENDBLK
  8
0
  5
146
  0
BLOCK
  8
0
  5
148
  2
*X12
 70
    65
 10
141.973496
 20
416.61272
 30
0.0
  3
*X12
  0
LINE
  8
LC-007-005-----0
  6
CONTINUOUS
  5
149
 10
151.871941
 20
416.61272
 30
0.0
 11
151.973496
 21
416.714275
 31
0.0
  0
LINE
  8
LC-007-005-----0
  6
CONTINUOUS
  5
14A
 10
151.306256
 20
416.61272
 30
0.0
 11
151.973496
 21
417.27996
 31
0.0
  0
LINE
  8
LC-007-005-----0
  6
CONTINUOUS
  5
14B
 10
150.74057
 20
416.61272
 30
0.0
 11
151.973496
 21
417.845646
 31
0.0
  0
LINE
  8
LC-007-005-----0
  6
CONTINUOUS
  5
14C
 10
150.174885
 20
416.61272
 30
0.0
 11
151.973496
 21
418.411331
 31
0.0
  0
LINE
  8
LC-007-005-----0
  6
CONTINUOUS
  5
14D
 10
149.6092
 20
416.61272
 30
0.0
 11
151.973496
 21
418.977017
 31
0.0
  0
LINE
  8
LC-007-005-----0
  6
CONTINUOUS
  5
14E
 10
149.043514
 20
416.61272
 30
0.0
 11
151.973496
 21
419.542702
 31
0.0
  0
LINE
  8
LC-007-005-----0
  6
CONTINUOUS
  5
14F
 10
148.477829
 20
416.61272
 30
0.0
 11
151.973496
 21
420.108387
 31
0.0
  0
LINE
  8
LC-007-005-----0
  6
CONTINUOUS
  5
150
 10
147.912143
 20
416.61272
 30
0.0
 11
151.973496
 21
420.674073
 31
0.0
  0
LINE
  8
LC-007-005-----0
  6
CONTINUOUS
  5
151
 10
147.346458
 20
416.61272
 30
0.0
 11
151.973496
 21
421.239758
 31
0.0
  0
LINE
  8
LC-007-005-----0
  6
CONTINUOUS
  5
152
 10
146.780773
 20
416.61272
 30
0.0
 11
151.480773
 21
421.31272
 31
0.0
  0
LINE
  8
LC-007-005-----0
  6
CONTINUOUS
  5
153
 10
146.215087
 20
416.61272
 30
0.0
 11
150.915087
 21
421.31272
 31
0.0
  0
LINE
  8
LC-007-005-----0
  6
CONTINUOUS
  5
154
 10
145.649402
 20
416.61272
 30
0.0
 11
150.349402
 21
421.31272
 31
0.0
  0
LINE
  8
LC-007-005-----0
  6
CONTINUOUS
  5
155
 10
145.083716
 20
416.61272
 30
0.0
 11
149.783716
 21
421.31272
 31
0.0
  0
LINE
  8
LC-007-005-----0
  6
CONTINUOUS
  5
156
 10
144.518031
 20
416.61272
 30
0.0
 11
149.218031
 21
421.31272
 31
0.0
  0
LINE
  8
LC-007-005-----0
  6
CONTINUOUS
  5
157
 10
143.952345
 20
416.61272
 30
0.0
 11
148.652345
 21
421.31272
 31
0.0
  0
LINE
  8
LC-007-005-----0
  6
CONTINUOUS
  5
158
 10
143.38666
 20
416.61272
 30
0.0
 11
148.08666
 21
421.31272
 31
0.0
  0
LINE
  8
LC-007-005-----0
  6
CONTINUOUS
  5
159
 10
142.820975
 20
416.61272
 30
0.0
 11
147.520975
 21
421.31272
 31
0.0
  0
LINE
  8
LC-007-005-----0
  6
CONTINUOUS
  5
15A
 10
142.255289
 20
416.61272
 30
0.0
 11
146.955289
 21
421.31272
 31
0.0
  0
LINE
  8
LC-007-005-----0
  6
CONTINUOUS
  5
15B
 10
141.973496
 20
416.896613
 30
0.0
 11
146.389604
 21
421.31272
 31
0.0
  0
LINE
  8
LC-007-005-----0
  6
CONTINUOUS
  5
15C
 10
141.973496
 20
417.462298
 30
0.0
 11
145.823918
 21
421.31272
 31
0.0
  0
LINE
  8
LC-007-005-----0
  6
CONTINUOUS
  5
15D
 10
141.973496
 20
418.027983
 30
0.0
 11
145.258233
 21
421.31272
 31
0.0
  0
LINE
  8
LC-007-005-----0
  6
CONTINUOUS
  5
15E
 10
141.973496
 20
418.593669
 30
0.0
 11
144.692547
 21
421.31272
 31
0.0
  0
LINE
  8
LC-007-005-----0
  6
CONTINUOUS
  5
15F
 10
141.973496
 20
419.159354
 30
0.0
 11
144.126862
 21
421.31272
 31
0.0
  0
LINE
  8
LC-007-005-----0
  6
CONTINUOUS
  5
160
 10
141.973496
 20
419.72504
 30
0.0
 11
143.561177
 21
421.31272
 31
0.0
  0
LINE
  8
LC-007-005-----0
  6
CONTINUOUS
  5
161
 10
141.973496
 20
420.290725
 30
0.0
 11
142.995491
 21
421.31272
 31
0.0
  0
LINE
  8
LC-007-005-----0
  6
CONTINUOUS
  5
162
 10
141.973496
 20
420.85641
 30
0.0
 11
142.429806
 21
421.31272
 31
0.0
  0
ENDBLK
  8
0
  5
163
  0
BLOCK
  8
0
  5
165
  2
*X13
 70
    65
 10
161.973496
 20
416.61272
 30
0.0
  3
*X13
  0
LINE
  8
LC-007-005-----0
  6
CONTINUOUS
  5
166
 10
171.670931
 20
416.61272
 30
0.0
 11
171.973496
 21
416.915285
 31
0.0
  0
LINE
  8
LC-007-005-----0
  6
CONTINUOUS
  5
167
 10
171.105246
 20
416.61272
 30
0.0
 11
171.973496
 21
417.48097
 31
0.0
  0
LINE
  8
LC-007-005-----0
  6
CONTINUOUS
  5
168
 10
170.53956
 20
416.61272
 30
0.0
 11
171.973496
 21
418.046656
 31
0.0
  0
LINE
  8
LC-007-005-----0
  6
CONTINUOUS
  5
169
 10
169.973875
 20
416.61272
 30
0.0
 11
171.973496
 21
418.612341
 31
0.0
  0
LINE
  8
LC-007-005-----0
  6
CONTINUOUS
  5
16A
 10
169.40819
 20
416.61272
 30
0.0
 11
171.973496
 21
419.178027
 31
0.0
  0
LINE
  8
LC-007-005-----0
  6
CONTINUOUS
  5
16B
 10
168.842504
 20
416.61272
 30
0.0
 11
171.973496
 21
419.743712
 31
0.0
  0
LINE
  8
LC-007-005-----0
  6
CONTINUOUS
  5
16C
 10
168.276819
 20
416.61272
 30
0.0
 11
171.973496
 21
420.309398
 31
0.0
  0
LINE
  8
LC-007-005-----0
  6
CONTINUOUS
  5
16D
 10
167.711133
 20
416.61272
 30
0.0
 11
171.973496
 21
420.875083
 31
0.0
  0
LINE
  8
LC-007-005-----0
  6
CONTINUOUS
  5
16E
 10
167.145448
 20
416.61272
 30
0.0
 11
171.845448
 21
421.31272
 31
0.0
  0
LINE
  8
LC-007-005-----0
  6
CONTINUOUS
  5
16F
 10
166.579762
 20
416.61272
 30
0.0
 11
171.279762
 21
421.31272
 31
0.0
  0
LINE
  8
LC-007-005-----0
  6
CONTINUOUS
  5
170
 10
166.014077
 20
416.61272
 30
0.0
 11
170.714077
 21
421.31272
 31
0.0
  0
LINE
  8
LC-007-005-----0
  6
CONTINUOUS
  5
171
 10
165.448392
 20
416.61272
 30
0.0
 11
170.148392
 21
421.31272
 31
0.0
  0
LINE
  8
LC-007-005-----0
  6
CONTINUOUS
  5
172
 10
164.882706
 20
416.61272
 30
0.0
 11
169.582706
 21
421.31272
 31
0.0
  0
LINE
  8
LC-007-005-----0
  6
CONTINUOUS
  5
173
 10
164.317021
 20
416.61272
 30
0.0
 11
169.017021
 21
421.31272
 31
0.0
  0
LINE
  8
LC-007-005-----0
  6
CONTINUOUS
  5
174
 10
163.751335
 20
416.61272
 30
0.0
 11
168.451335
 21
421.31272
 31
0.0
  0
LINE
  8
LC-007-005-----0
  6
CONTINUOUS
  5
175
 10
163.18565
 20
416.61272
 30
0.0
 11
167.88565
 21
421.31272
 31
0.0
  0
LINE
  8
LC-007-005-----0
  6
CONTINUOUS
  5
176
 10
162.619964
 20
416.61272
 30
0.0
 11
167.319964
 21
421.31272
 31
0.0
  0
LINE
  8
LC-007-005-----0
  6
CONTINUOUS
  5
177
 10
162.054279
 20
416.61272
 30
0.0
 11
166.754279
 21
421.31272
 31
0.0
  0
LINE
  8
LC-007-005-----0
  6
CONTINUOUS
  5
178
 10
161.973496
 20
417.097623
 30
0.0
 11
166.188594
 21
421.31272
 31
0.0
  0
LINE
  8
LC-007-005-----0
  6
CONTINUOUS
  5
179
 10
161.973496
 20
417.663308
 30
0.0
 11
165.622908
 21
421.31272
 31
0.0
  0
LINE
  8
LC-007-005-----0
  6
CONTINUOUS
  5
17A
 10
161.973496
 20
418.228993
 30
0.0
 11
165.057223
 21
421.31272
 31
0.0
  0
LINE
  8
LC-007-005-----0
  6
CONTINUOUS
  5
17B
 10
161.973496
 20
418.794679
 30
0.0
 11
164.491537
 21
421.31272
 31
0.0
  0
LINE
  8
LC-007-005-----0
  6
CONTINUOUS
  5
17C
 10
161.973496
 20
419.360364
 30
0.0
 11
163.925852
 21
421.31272
 31
0.0
  0
LINE
  8
LC-007-005-----0
  6
CONTINUOUS
  5
17D
 10
161.973496
 20
419.92605
 30
0.0
 11
163.360166
 21
421.31272
 31
0.0
  0
LINE
  8
LC-007-005-----0
  6
CONTINUOUS
  5
17E
 10
161.973496
 20
420.491735
 30
0.0
 11
162.794481
 21
421.31272
 31
0.0
  0
LINE
  8
LC-007-005-----0
  6
CONTINUOUS
  5
17F
 10
161.973496
 20
421.057421
 30
0.0
 11
162.228796
 21
421.31272
 31
0.0
  0
ENDBLK
  8
0
  5
180
  0
BLOCK
  8
0
  5
182
  2
*X14
 70
    65
 10
181.973496
 20
416.61272
 30
0.0
  3
*X14
  0
LINE
  8
LC-007-005-----0
  6
CONTINUOUS
  5
183
 10
191.469921
 20
416.61272
 30
0.0
 11
191.973496
 21
417.116295
 31
0.0
  0
LINE
  8
LC-007-005-----0
  6
CONTINUOUS
  5
184
 10
190.904236
 20
416.61272
 30
0.0
 11
191.973496
 21
417.681981
 31
0.0
  0
LINE
  8
LC-007-005-----0
  6
CONTINUOUS
  5
185
 10
190.33855
 20
416.61272
 30
0.0
 11
191.973496
 21
418.247666
 31
0.0
  0
LINE
  8
LC-007-005-----0
  6
CONTINUOUS
  5
186
 10
189.772865
 20
416.61272
 30
0.0
 11
191.973496
 21
418.813351
 31
0.0
  0
LINE
  8
LC-007-005-----0
  6
CONTINUOUS
  5
187
 10
189.207179
 20
416.61272
 30
0.0
 11
191.973496
 21
419.379037
 31
0.0
  0
LINE
  8
LC-007-005-----0
  6
CONTINUOUS
  5
188
 10
188.641494
 20
416.61272
 30
0.0
 11
191.973496
 21
419.944722
 31
0.0
  0
LINE
  8
LC-007-005-----0
  6
CONTINUOUS
  5
189
 10
188.075809
 20
416.61272
 30
0.0
 11
191.973496
 21
420.510408
 31
0.0
  0
LINE
  8
LC-007-005-----0
  6
CONTINUOUS
  5
18A
 10
187.510123
 20
416.61272
 30
0.0
 11
191.973496
 21
421.076093
 31
0.0
  0
LINE
  8
LC-007-005-----0
  6
CONTINUOUS
  5
18B
 10
186.944438
 20
416.61272
 30
0.0
 11
191.644438
 21
421.31272
 31
0.0
  0
LINE
  8
LC-007-005-----0
  6
CONTINUOUS
  5
18C
 10
186.378752
 20
416.61272
 30
0.0
 11
191.078752
 21
421.31272
 31
0.0
  0
LINE
  8
LC-007-005-----0
  6
CONTINUOUS
  5
18D
 10
185.813067
 20
416.61272
 30
0.0
 11
190.513067
 21
421.31272
 31
0.0
  0
LINE
  8
LC-007-005-----0
  6
CONTINUOUS
  5
18E
 10
185.247381
 20
416.61272
 30
0.0
 11
189.947381
 21
421.31272
 31
0.0
  0
LINE
  8
LC-007-005-----0
  6
CONTINUOUS
  5
18F
 10
184.681696
 20
416.61272
 30
0.0
 11
189.381696
 21
421.31272
 31
0.0
  0
LINE
  8
LC-007-005-----0
  6
CONTINUOUS
  5
190
 10
184.116011
 20
416.61272
 30
0.0
 11
188.816011
 21
421.31272
 31
0.0
  0
LINE
  8
LC-007-005-----0
  6
CONTINUOUS
  5
191
 10
183.550325
 20
416.61272
 30
0.0
 11
188.250325
 21
421.31272
 31
0.0
  0
LINE
  8
LC-007-005-----0
  6
CONTINUOUS
  5
192
 10
182.98464
 20
416.61272
 30
0.0
 11
187.68464
 21
421.31272
 31
0.0
  0
LINE
  8
LC-007-005-----0
  6
CONTINUOUS
  5
193
 10
182.418954
 20
416.61272
 30
0.0
 11
187.118954
 21
421.31272
 31
0.0
  0
LINE
  8
LC-007-005-----0
  6
CONTINUOUS
  5
194
 10
181.973496
 20
416.732947
 30
0.0
 11
186.553269
 21
421.31272
 31
0.0
  0
LINE
  8
LC-007-005-----0
  6
CONTINUOUS
  5
195
 10
181.973496
 20
417.298633
 30
0.0
 11
185.987583
 21
421.31272
 31
0.0
  0
LINE
  8
LC-007-005-----0
  6
CONTINUOUS
  5
196
 10
181.973496
 20
417.864318
 30
0.0
 11
185.421898
 21
421.31272
 31
0.0
  0
LINE
  8
LC-007-005-----0
  6
CONTINUOUS
  5
197
 10
181.973496
 20
418.430004
 30
0.0
 11
184.856213
 21
421.31272
 31
0.0
  0
LINE
  8
LC-007-005-----0
  6
CONTINUOUS
  5
198
 10
181.973496
 20
418.995689
 30
0.0
 11
184.290527
 21
421.31272
 31
0.0
  0
LINE
  8
LC-007-005-----0
  6
CONTINUOUS
  5
199
 10
181.973496
 20
419.561374
 30
0.0
 11
183.724842
 21
421.31272
 31
0.0
  0
LINE
  8
LC-007-005-----0
  6
CONTINUOUS
  5
19A
 10
181.973496
 20
420.12706
 30
0.0
 11
183.159156
 21
421.31272
 31
0.0
  0
LINE
  8
LC-007-005-----0
  6
CONTINUOUS
  5
19B
 10
181.973496
 20
420.692745
 30
0.0
 11
182.593471
 21
421.31272
 31
0.0
  0
LINE
  8
LC-007-005-----0
  6
CONTINUOUS
  5
19C
 10
181.973496
 20
421.258431
 30
0.0
 11
182.027785
 21
421.31272
 31
0.0
  0
ENDBLK
  8
0
  5
19D
  0
BLOCK
  8
0
  5
19F
  2
*X15
 70
    65
 10
201.973496
 20
416.61272
 30
0.0
  3
*X15
  0
LINE
  8
LC-007-005-----0
  6
CONTINUOUS
  5
1A0
 10
211.834596
 20
416.61272
 30
0.0
 11
211.973496
 21
416.75162
 31
0.0
  0
LINE
  8
LC-007-005-----0
  6
CONTINUOUS
  5
1A1
 10
211.268911
 20
416.61272
 30
0.0
 11
211.973496
 21
417.317305
 31
0.0
  0
LINE
  8
LC-007-005-----0
  6
CONTINUOUS
  5
1A2
 10
210.703226
 20
416.61272
 30
0.0
 11
211.973496
 21
417.882991
 31
0.0
  0
LINE
  8
LC-007-005-----0
  6
CONTINUOUS
  5
1A3
 10
210.13754
 20
416.61272
 30
0.0
 11
211.973496
 21
418.448676
 31
0.0
  0
LINE
  8
LC-007-005-----0
  6
CONTINUOUS
  5
1A4
 10
209.571855
 20
416.61272
 30
0.0
 11
211.973496
 21
419.014362
 31
0.0
  0
LINE
  8
LC-007-005-----0
  6
CONTINUOUS
  5
1A5
 10
209.006169
 20
416.61272
 30
0.0
 11
211.973496
 21
419.580047
 31
0.0
  0
LINE
  8
LC-007-005-----0
  6
CONTINUOUS
  5
1A6
 10
208.440484
 20
416.61272
 30
0.0
 11
211.973496
 21
420.145732
 31
0.0
  0
LINE
  8
LC-007-005-----0
  6
CONTINUOUS
  5
1A7
 10
207.874798
 20
416.61272
 30
0.0
 11
211.973496
 21
420.711418
 31
0.0
  0
LINE
  8
LC-007-005-----0
  6
CONTINUOUS
  5
1A8
 10
207.309113
 20
416.61272
 30
0.0
 11
211.973496
 21
421.277103
 31
0.0
  0
LINE
  8
LC-007-005-----0
  6
CONTINUOUS
  5
1A9
 10
206.743428
 20
416.61272
 30
0.0
 11
211.443428
 21
421.31272
 31
0.0
  0
LINE
  8
LC-007-005-----0
  6
CONTINUOUS
  5
1AA
 10
206.177742
 20
416.61272
 30
0.0
 11
210.877742
 21
421.31272
 31
0.0
  0
LINE
  8
LC-007-005-----0
  6
CONTINUOUS
  5
1AB
 10
205.612057
 20
416.61272
 30
0.0
 11
210.312057
 21
421.31272
 31
0.0
  0
LINE
  8
LC-007-005-----0
  6
CONTINUOUS
  5
1AC
 10
205.046371
 20
416.61272
 30
0.0
 11
209.746371
 21
421.31272
 31
0.0
  0
LINE
  8
LC-007-005-----0
  6
CONTINUOUS
  5
1AD
 10
204.480686
 20
416.61272
 30
0.0
 11
209.180686
 21
421.31272
 31
0.0
  0
LINE
  8
LC-007-005-----0
  6
CONTINUOUS
  5
1AE
 10
203.915
 20
416.61272
 30
0.0
 11
208.615
 21
421.31272
 31
0.0
  0
LINE
  8
LC-007-005-----0
  6
CONTINUOUS
  5
1AF
 10
203.349315
 20
416.61272
 30
0.0
 11
208.049315
 21
421.31272
 31
0.0
  0
LINE
  8
LC-007-005-----0
  6
CONTINUOUS
  5
1B0
 10
202.78363
 20
416.61272
 30
0.0
 11
207.48363
 21
421.31272
 31
0.0
  0
LINE
  8
LC-007-005-----0
  6
CONTINUOUS
  5
1B1
 10
202.217944
 20
416.61272
 30
0.0
 11
206.917944
 21
421.31272
 31
0.0
  0
LINE
  8
LC-007-005-----0
  6
CONTINUOUS
  5
1B2
 10
201.973496
 20
416.933957
 30
0.0
 11
206.352259
 21
421.31272
 31
0.0
  0
LINE
  8
LC-007-005-----0
  6
CONTINUOUS
  5
1B3
 10
201.973496
 20
417.499643
 30
0.0
 11
205.786573
 21
421.31272
 31
0.0
  0
LINE
  8
LC-007-005-----0
  6
CONTINUOUS
  5
1B4
 10
201.973496
 20
418.065328
 30
0.0
 11
205.220888
 21
421.31272
 31
0.0
  0
LINE
  8
LC-007-005-----0
  6
CONTINUOUS
  5
1B5
 10
201.973496
 20
418.631014
 30
0.0
 11
204.655202
 21
421.31272
 31
0.0
  0
LINE
  8
LC-007-005-----0
  6
CONTINUOUS
  5
1B6
 10
201.973496
 20
419.196699
 30
0.0
 11
204.089517
 21
421.31272
 31
0.0
  0
LINE
  8
LC-007-005-----0
  6
CONTINUOUS
  5
1B7
 10
201.973496
 20
419.762385
 30
0.0
 11
203.523832
 21
421.31272
 31
0.0
  0
LINE
  8
LC-007-005-----0
  6
CONTINUOUS
  5
1B8
 10
201.973496
 20
420.32807
 30
0.0
 11
202.958146
 21
421.31272
 31
0.0
  0
LINE
  8
LC-007-005-----0
  6
CONTINUOUS
  5
1B9
 10
201.973496
 20
420.893755
 30
0.0
 11
202.392461
 21
421.31272
 31
0.0
  0
ENDBLK
  8
0
  5
1BA
  0
BLOCK
  8
0
  5
1BC
  2
*X16
 70
    65
 10
221.973496
 20
416.61272
 30
0.0
  3
*X16
  0
LINE
  8
LC-007-005-----0
  6
CONTINUOUS
  5
1BD
 10
231.633586
 20
416.61272
 30
0.0
 11
231.973496
 21
416.95263
 31
0.0
  0
LINE
  8
LC-007-005-----0
  6
CONTINUOUS
  5
1BE
 10
231.067901
 20
416.61272
 30
0.0
 11
231.973496
 21
417.518315
 31
0.0
  0
LINE
  8
LC-007-005-----0
  6
CONTINUOUS
  5
1BF
 10
230.502215
 20
416.61272
 30
0.0
 11
231.973496
 21
418.084001
 31
0.0
  0
LINE
  8
LC-007-005-----0
  6
CONTINUOUS
  5
1C0
 10
229.93653
 20
416.61272
 30
0.0
 11
231.973496
 21
418.649686
 31
0.0
  0
LINE
  8
LC-007-005-----0
  6
CONTINUOUS
  5
1C1
 10
229.370845
 20
416.61272
 30
0.0
 11
231.973496
 21
419.215372
 31
0.0
  0
LINE
  8
LC-007-005-----0
  6
CONTINUOUS
  5
1C2
 10
228.805159
 20
416.61272
 30
0.0
 11
231.973496
 21
419.781057
 31
0.0
  0
LINE
  8
LC-007-005-----0
  6
CONTINUOUS
  5
1C3
 10
228.239474
 20
416.61272
 30
0.0
 11
231.973496
 21
420.346742
 31
0.0
  0
LINE
  8
LC-007-005-----0
  6
CONTINUOUS
  5
1C4
 10
227.673788
 20
416.61272
 30
0.0
 11
231.973496
 21
420.912428
 31
0.0
  0
LINE
  8
LC-007-005-----0
  6
CONTINUOUS
  5
1C5
 10
227.108103
 20
416.61272
 30
0.0
 11
231.808103
 21
421.31272
 31
0.0
  0
LINE
  8
LC-007-005-----0
  6
CONTINUOUS
  5
1C6
 10
226.542417
 20
416.61272
 30
0.0
 11
231.242417
 21
421.31272
 31
0.0
  0
LINE
  8
LC-007-005-----0
  6
CONTINUOUS
  5
1C7
 10
225.976732
 20
416.61272
 30
0.0
 11
230.676732
 21
421.31272
 31
0.0
  0
LINE
  8
LC-007-005-----0
  6
CONTINUOUS
  5
1C8
 10
225.411047
 20
416.61272
 30
0.0
 11
230.111047
 21
421.31272
 31
0.0
  0
LINE
  8
LC-007-005-----0
  6
CONTINUOUS
  5
1C9
 10
224.845361
 20
416.61272
 30
0.0
 11
229.545361
 21
421.31272
 31
0.0
  0
LINE
  8
LC-007-005-----0
  6
CONTINUOUS
  5
1CA
 10
224.279676
 20
416.61272
 30
0.0
 11
228.979676
 21
421.31272
 31
0.0
  0
LINE
  8
LC-007-005-----0
  6
CONTINUOUS
  5
1CB
 10
223.71399
 20
416.61272
 30
0.0
 11
228.41399
 21
421.31272
 31
0.0
  0
LINE
  8
LC-007-005-----0
  6
CONTINUOUS
  5
1CC
 10
223.148305
 20
416.61272
 30
0.0
 11
227.848305
 21
421.31272
 31
0.0
  0
LINE
  8
LC-007-005-----0
  6
CONTINUOUS
  5
1CD
 10
222.582619
 20
416.61272
 30
0.0
 11
227.282619
 21
421.31272
 31
0.0
  0
LINE
  8
LC-007-005-----0
  6
CONTINUOUS
  5
1CE
 10
222.016934
 20
416.61272
 30
0.0
 11
226.716934
 21
421.31272
 31
0.0
  0
LINE
  8
LC-007-005-----0
  6
CONTINUOUS
  5
1CF
 10
221.973496
 20
417.134968
 30
0.0
 11
226.151249
 21
421.31272
 31
0.0
  0
LINE
  8
LC-007-005-----0
  6
CONTINUOUS
  5
1D0
 10
221.973496
 20
417.700653
 30
0.0
 11
225.585563
 21
421.31272
 31
0.0
  0
LINE
  8
LC-007-005-----0
  6
CONTINUOUS
  5
1D1
 10
221.973496
 20
418.266338
 30
0.0
 11
225.019878
 21
421.31272
 31
0.0
  0
LINE
  8
LC-007-005-----0
  6
CONTINUOUS
  5
1D2
 10
221.973496
 20
418.832024
 30
0.0
 11
224.454192
 21
421.31272
 31
0.0
  0
LINE
  8
LC-007-005-----0
  6
CONTINUOUS
  5
1D3
 10
221.973496
 20
419.397709
 30
0.0
 11
223.888507
 21
421.31272
 31
0.0
  0
LINE
  8
LC-007-005-----0
  6
CONTINUOUS
  5
1D4
 10
221.973496
 20
419.963395
 30
0.0
 11
223.322821
 21
421.31272
 31
0.0
  0
LINE
  8
LC-007-005-----0
  6
CONTINUOUS
  5
1D5
 10
221.973496
 20
420.52908
 30
0.0
 11
222.757136
 21
421.31272
 31
0.0
  0
LINE
  8
LC-007-005-----0
  6
CONTINUOUS
  5
1D6
 10
221.973496
 20
421.094766
 30
0.0
 11
222.191451
 21
421.31272
 31
0.0
  0
ENDBLK
  8
0
  5
1D7
  0
BLOCK
  8
0
  5
1D9
  2
*X17
 70
    65
 10
241.973496
 20
415.837208
 30
0.0
  3
*X17
  0
LINE
  8
LC-007-005-----0
  6
CONTINUOUS
  5
1DA
 10
251.800294
 20
415.849067
 30
0.0
 11
251.973496
 21
416.022269
 31
0.0
  0
LINE
  8
LC-007-005-----0
  6
CONTINUOUS
  5
1DB
 10
251.271277
 20
415.885736
 30
0.0
 11
251.973496
 21
416.587955
 31
0.0
  0
LINE
  8
LC-007-005-----0
  6
CONTINUOUS
  5
1DC
 10
250.74226
 20
415.922404
 30
0.0
 11
251.973496
 21
417.15364
 31
0.0
  0
LINE
  8
LC-007-005-----0
  6
CONTINUOUS
  5
1DD
 10
250.213243
 20
415.959073
 30
0.0
 11
251.973496
 21
417.719325
 31
0.0
  0
LINE
  8
LC-007-005-----0
  6
CONTINUOUS
  5
1DE
 10
249.684227
 20
415.995741
 30
0.0
 11
251.973496
 21
418.285011
 31
0.0
  0
LINE
  8
LC-007-005-----0
  6
CONTINUOUS
  5
1DF
 10
249.15521
 20
416.03241
 30
0.0
 11
251.973496
 21
418.850696
 31
0.0
  0
LINE
  8
LC-007-005-----0
  6
CONTINUOUS
  5
1E0
 10
248.626193
 20
416.069079
 30
0.0
 11
251.973496
 21
419.416382
 31
0.0
  0
LINE
  8
LC-007-005-----0
  6
CONTINUOUS
  5
1E1
 10
248.097176
 20
416.105747
 30
0.0
 11
251.973496
 21
419.982067
 31
0.0
  0
LINE
  8
LC-007-005-----0
  6
CONTINUOUS
  5
1E2
 10
247.568159
 20
416.142416
 30
0.0
 11
251.973496
 21
420.547753
 31
0.0
  0
LINE
  8
LC-007-005-----0
  6
CONTINUOUS
  5
1E3
 10
247.039143
 20
416.179085
 30
0.0
 11
251.445027
 21
420.584969
 31
0.0
  0
LINE
  8
LC-007-005-----0
  6
CONTINUOUS
  5
1E4
 10
246.510126
 20
416.215753
 30
0.0
 11
250.91601
 21
420.621638
 31
0.0
  0
LINE
  8
LC-007-005-----0
  6
CONTINUOUS
  5
1E5
 10
245.981109
 20
416.252422
 30
0.0
 11
250.386994
 21
420.658307
 31
0.0
  0
LINE
  8
LC-007-005-----0
  6
CONTINUOUS
  5
1E6
 10
245.452092
 20
416.289091
 30
0.0
 11
249.857977
 21
420.694975
 31
0.0
  0
LINE
  8
LC-007-005-----0
  6
CONTINUOUS
  5
1E7
 10
244.923076
 20
416.325759
 30
0.0
 11
249.32896
 21
420.731644
 31
0.0
  0
LINE
  8
LC-007-005-----0
  6
CONTINUOUS
  5
1E8
 10
244.394059
 20
416.362428
 30
0.0
 11
248.799943
 21
420.768312
 31
0.0
  0
LINE
  8
LC-007-005-----0
  6
CONTINUOUS
  5
1E9
 10
243.865042
 20
416.399097
 30
0.0
 11
248.270926
 21
420.804981
 31
0.0
  0
LINE
  8
LC-007-005-----0
  6
CONTINUOUS
  5
1EA
 10
243.336025
 20
416.435765
 30
0.0
 11
247.74191
 21
420.84165
 31
0.0
  0
LINE
  8
LC-007-005-----0
  6
CONTINUOUS
  5
1EB
 10
242.807008
 20
416.472434
 30
0.0
 11
247.212893
 21
420.878318
 31
0.0
  0
LINE
  8
LC-007-005-----0
  6
CONTINUOUS
  5
1EC
 10
242.277992
 20
416.509102
 30
0.0
 11
246.683876
 21
420.914987
 31
0.0
  0
LINE
  8
LC-007-005-----0
  6
CONTINUOUS
  5
1ED
 10
241.973496
 20
416.770292
 30
0.0
 11
246.154859
 21
420.951656
 31
0.0
  0
LINE
  8
LC-007-005-----0
  6
CONTINUOUS
  5
1EE
 10
241.973496
 20
417.335978
 30
0.0
 11
245.625843
 21
420.988324
 31
0.0
  0
LINE
  8
LC-007-005-----0
  6
CONTINUOUS
  5
1EF
 10
241.973496
 20
417.901663
 30
0.0
 11
245.096826
 21
421.024993
 31
0.0
  0
LINE
  8
LC-007-005-----0
  6
CONTINUOUS
  5
1F0
 10
241.973496
 20
418.467349
 30
0.0
 11
244.567809
 21
421.061662
 31
0.0
  0
LINE
  8
LC-007-005-----0
  6
CONTINUOUS
  5
1F1
 10
241.973496
 20
419.033034
 30
0.0
 11
244.038792
 21
421.09833
 31
0.0
  0
LINE
  8
LC-007-005-----0
  6
CONTINUOUS
  5
1F2
 10
241.973496
 20
419.598719
 30
0.0
 11
243.509775
 21
421.134999
 31
0.0
  0
LINE
  8
LC-007-005-----0
  6
CONTINUOUS
  5
1F3
 10
241.973496
 20
420.164405
 30
0.0
 11
242.980759
 21
421.171668
 31
0.0
  0
LINE
  8
LC-007-005-----0
  6
CONTINUOUS
  5
1F4
 10
241.973496
 20
420.73009
 30
0.0
 11
242.451742
 21
421.208336
 31
0.0
  0
ENDBLK
  8
0
  5
1F5
  0
BLOCK
  8
0
  5
1F7
  2
*X18
 70
    65
 10
261.973496
 20
414.450914
 30
0.0
  3
*X18
  0
LINE
  8
LC-007-005-----0
  6
CONTINUOUS
  5
1F8
 10
271.902931
 20
414.455659
 30
0.0
 11
271.973496
 21
414.526223
 31
0.0
  0
LINE
  8
LC-007-005-----0
  6
CONTINUOUS
  5
1F9
 10
271.373915
 20
414.492327
 30
0.0
 11
271.973496
 21
415.091908
 31
0.0
  0
LINE
  8
LC-007-005-----0
  6
CONTINUOUS
  5
1FA
 10
270.844898
 20
414.528996
 30
0.0
 11
271.973496
 21
415.657594
 31
0.0
  0
LINE
  8
LC-007-005-----0
  6
CONTINUOUS
  5
1FB
 10
270.315881
 20
414.565664
 30
0.0
 11
271.973496
 21
416.223279
 31
0.0
  0
LINE
  8
LC-007-005-----0
  6
CONTINUOUS
  5
1FC
 10
269.786864
 20
414.602333
 30
0.0
 11
271.973496
 21
416.788965
 31
0.0
  0
LINE
  8
LC-007-005-----0
  6
CONTINUOUS
  5
1FD
 10
269.257848
 20
414.639002
 30
0.0
 11
271.973496
 21
417.35465
 31
0.0
  0
LINE
  8
LC-007-005-----0
  6
CONTINUOUS
  5
1FE
 10
268.728831
 20
414.67567
 30
0.0
 11
271.973496
 21
417.920336
 31
0.0
  0
LINE
  8
LC-007-005-----0
  6
CONTINUOUS
  5
1FF
 10
268.199814
 20
414.712339
 30
0.0
 11
271.973496
 21
418.486021
 31
0.0
  0
LINE
  8
LC-007-005-----0
  6
CONTINUOUS
  5
200
 10
267.670797
 20
414.749008
 30
0.0
 11
271.973496
 21
419.051706
 31
0.0
  0
LINE
  8
LC-007-005-----0
  6
CONTINUOUS
  5
201
 10
267.14178
 20
414.785676
 30
0.0
 11
271.547665
 21
419.191561
 31
0.0
  0
LINE
  8
LC-007-005-----0
  6
CONTINUOUS
  5
202
 10
266.612764
 20
414.822345
 30
0.0
 11
271.018648
 21
419.228229
 31
0.0
  0
LINE
  8
LC-007-005-----0
  6
CONTINUOUS
  5
203
 10
266.083747
 20
414.859014
 30
0.0
 11
270.489631
 21
419.264898
 31
0.0
  0
LINE
  8
LC-007-005-----0
  6
CONTINUOUS
  5
204
 10
265.55473
 20
414.895682
 30
0.0
 11
269.960615
 21
419.301567
 31
0.0
  0
LINE
  8
LC-007-005-----0
  6
CONTINUOUS
  5
205
 10
265.025713
 20
414.932351
 30
0.0
 11
269.431598
 21
419.338235
 31
0.0
  0
LINE
  8
LC-007-005-----0
  6
CONTINUOUS
  5
206
 10
264.496696
 20
414.969019
 30
0.0
 11
268.902581
 21
419.374904
 31
0.0
  0
LINE
  8
LC-007-005-----0
  6
CONTINUOUS
  5
207
 10
263.96768
 20
415.005688
 30
0.0
 11
268.373564
 21
419.411573
 31
0.0
  0
LINE
  8
LC-007-005-----0
  6
CONTINUOUS
  5
208
 10
263.438663
 20
415.042357
 30
0.0
 11
267.844547
 21
419.448241
 31
0.0
  0
LINE
  8
LC-007-005-----0
  6
CONTINUOUS
  5
209
 10
262.909646
 20
415.079025
 30
0.0
 11
267.315531
 21
419.48491
 31
0.0
  0
LINE
  8
LC-007-005-----0
  6
CONTINUOUS
  5
20A
 10
262.380629
 20
415.115694
 30
0.0
 11
266.786514
 21
419.521579
 31
0.0
  0
LINE
  8
LC-007-005-----0
  6
CONTINUOUS
  5
20B
 10
261.973496
 20
415.274246
 30
0.0
 11
266.257497
 21
419.558247
 31
0.0
  0
LINE
  8
LC-007-005-----0
  6
CONTINUOUS
  5
20C
 10
261.973496
 20
415.839932
 30
0.0
 11
265.72848
 21
419.594916
 31
0.0
  0
LINE
  8
LC-007-005-----0
  6
CONTINUOUS
  5
20D
 10
261.973496
 20
416.405617
 30
0.0
 11
265.199464
 21
419.631585
 31
0.0
  0
LINE
  8
LC-007-005-----0
  6
CONTINUOUS
  5
20E
 10
261.973496
 20
416.971302
 30
0.0
 11
264.670447
 21
419.668253
 31
0.0
  0
LINE
  8
LC-007-005-----0
  6
CONTINUOUS
  5
20F
 10
261.973496
 20
417.536988
 30
0.0
 11
264.14143
 21
419.704922
 31
0.0
  0
LINE
  8
LC-007-005-----0
  6
CONTINUOUS
  5
210
 10
261.973496
 20
418.102673
 30
0.0
 11
263.612413
 21
419.74159
 31
0.0
  0
LINE
  8
LC-007-005-----0
  6
CONTINUOUS
  5
211
 10
261.973496
 20
418.668359
 30
0.0
 11
263.083396
 21
419.778259
 31
0.0
  0
LINE
  8
LC-007-005-----0
  6
CONTINUOUS
  5
212
 10
261.973496
 20
419.234044
 30
0.0
 11
262.55438
 21
419.814928
 31
0.0
  0
LINE
  8
LC-007-005-----0
  6
CONTINUOUS
  5
213
 10
261.973496
 20
419.79973
 30
0.0
 11
262.025363
 21
419.851596
 31
0.0
  0
ENDBLK
  8
0
  5
214
  0
BLOCK
  8
0
  5
216
  2
*X19
 70
    65
 10
268.161274
 20
410.993265
 30
0.0
  3
*X19
  0
LINE
  8
LC-007-005-----0
  6
CONTINUOUS
  5
217
 10
291.702494
 20
411.062119
 30
0.0
 11
291.973496
 21
411.333121
 31
0.0
  0
LINE
  8
LC-007-005-----0
  6
CONTINUOUS
  5
218
 10
291.175132
 20
411.100442
 30
0.0
 11
291.973496
 21
411.898806
 31
0.0
  0
LINE
  8
LC-007-005-----0
  6
CONTINUOUS
  5
219
 10
290.647769
 20
411.138765
 30
0.0
 11
291.973496
 21
412.464491
 31
0.0
  0
LINE
  8
LC-007-005-----0
  6
CONTINUOUS
  5
21A
 10
290.120407
 20
411.177088
 30
0.0
 11
291.973496
 21
413.030177
 31
0.0
  0
LINE
  8
LC-007-005-----0
  6
CONTINUOUS
  5
21B
 10
289.593045
 20
411.215411
 30
0.0
 11
291.973496
 21
413.595862
 31
0.0
  0
LINE
  8
LC-007-005-----0
  6
CONTINUOUS
  5
21C
 10
289.065682
 20
411.253734
 30
0.0
 11
291.973496
 21
414.161548
 31
0.0
  0
LINE
  8
LC-007-005-----0
  6
CONTINUOUS
  5
21D
 10
288.53832
 20
411.292057
 30
0.0
 11
291.973496
 21
414.727233
 31
0.0
  0
LINE
  8
LC-007-005-----0
  6
CONTINUOUS
  5
21E
 10
288.010957
 20
411.33038
 30
0.0
 11
291.973496
 21
415.292919
 31
0.0
  0
LINE
  8
LC-007-005-----0
  6
CONTINUOUS
  5
21F
 10
287.483595
 20
411.368703
 30
0.0
 11
291.875021
 21
415.760129
 31
0.0
  0
LINE
  8
LC-007-005-----0
  6
CONTINUOUS
  5
220
 10
286.987022
 20
411.437815
 30
0.0
 11
291.347658
 21
415.798452
 31
0.0
  0
LINE
  8
LC-007-005-----0
  6
CONTINUOUS
  5
221
 10
286.518963
 20
411.535442
 30
0.0
 11
290.820296
 21
415.836775
 31
0.0
  0
LINE
  8
LC-007-005-----0
  6
CONTINUOUS
  5
222
 10
286.059015
 20
411.641179
 30
0.0
 11
290.292934
 21
415.875098
 31
0.0
  0
LINE
  8
LC-007-005-----0
  6
CONTINUOUS
  5
223
 10
285.606876
 20
411.754726
 30
0.0
 11
289.765571
 21
415.913421
 31
0.0
  0
LINE
  8
LC-007-005-----0
  6
CONTINUOUS
  5
224
 10
285.16227
 20
411.875806
 30
0.0
 11
289.238209
 21
415.951744
 31
0.0
  0
LINE
  8
LC-007-005-----0
  6
CONTINUOUS
  5
225
 10
284.724948
 20
412.004168
 30
0.0
 11
288.710847
 21
415.990067
 31
0.0
  0
LINE
  8
LC-007-005-----0
  6
CONTINUOUS
  5
226
 10
284.294678
 20
412.139584
 30
0.0
 11
288.183484
 21
416.02839
 31
0.0
  0
LINE
  8
LC-007-005-----0
  6
CONTINUOUS
  5
227
 10
283.871253
 20
412.281844
 30
0.0
 11
287.683428
 21
416.094019
 31
0.0
  0
LINE
  8
LC-007-005-----0
  6
CONTINUOUS
  5
228
 10
283.454478
 20
412.430755
 30
0.0
 11
287.221094
 21
416.197371
 31
0.0
  0
LINE
  8
LC-007-005-----0
  6
CONTINUOUS
  5
229
 10
283.044178
 20
412.58614
 30
0.0
 11
286.7686
 21
416.310562
 31
0.0
  0
LINE
  8
LC-007-005-----0
  6
CONTINUOUS
  5
22A
 10
282.64019
 20
412.747838
 30
0.0
 11
286.325513
 21
416.433161
 31
0.0
  0
LINE
  8
LC-007-005-----0
  6
CONTINUOUS
  5
22B
 10
282.242365
 20
412.915698
 30
0.0
 11
285.891447
 21
416.56478
 31
0.0
  0
LINE
  8
LC-007-005-----0
  6
CONTINUOUS
  5
22C
 10
281.973496
 20
413.212515
 30
0.0
 11
285.466056
 21
416.705075
 31
0.0
  0
LINE
  8
LC-007-005-----0
  6
CONTINUOUS
  5
22D
 10
281.973496
 20
413.7782
 30
0.0
 11
285.049031
 21
416.853735
 31
0.0
  0
LINE
  8
LC-007-005-----0
  6
CONTINUOUS
  5
22E
 10
281.973496
 20
414.343885
 30
0.0
 11
284.640094
 21
417.010483
 31
0.0
  0
LINE
  8
LC-007-005-----0
  6
CONTINUOUS
  5
22F
 10
281.973496
 20
414.909571
 30
0.0
 11
284.238994
 21
417.175069
 31
0.0
  0
LINE
  8
LC-007-005-----0
  6
CONTINUOUS
  5
230
 10
281.973496
 20
415.475256
 30
0.0
 11
283.845507
 21
417.347267
 31
0.0
  0
LINE
  8
LC-007-005-----0
  6
CONTINUOUS
  5
231
 10
281.973496
 20
416.040942
 30
0.0
 11
283.45943
 21
417.526875
 31
0.0
  0
LINE
  8
LC-007-005-----0
  6
CONTINUOUS
  5
232
 10
281.973496
 20
416.606627
 30
0.0
 11
283.080578
 21
417.71371
 31
0.0
  0
LINE
  8
LC-007-005-----0
  6
CONTINUOUS
  5
233
 10
281.973496
 20
417.172313
 30
0.0
 11
282.708789
 21
417.907605
 31
0.0
  0
LINE
  8
LC-007-005-----0
  6
CONTINUOUS
  5
234
 10
281.973496
 20
417.737998
 30
0.0
 11
282.343913
 21
418.108415
 31
0.0
  0
LINE
  8
LC-007-005-----0
  6
CONTINUOUS
  5
235
 10
281.973496
 20
418.303683
 30
0.0
 11
281.985817
 21
418.316004
 31
0.0
  0
ENDBLK
  8
0
  5
236
  0
BLOCK
  8
0
  5
238
  2
*X20
 70
    65
 10
460.283103
 20
392.002904
 30
0.0
  3
*X20
  0
LINE
  8
LC-007-005-----0
  6
CONTINUOUS
  5
239
 10
465.542009
 20
392.002904
 30
0.0
 11
470.283103
 21
396.743998
 31
0.0
  0
LINE
  8
LC-007-005-----0
  6
CONTINUOUS
  5
23A
 10
462.713582
 20
392.002904
 30
0.0
 11
465.213582
 21
394.502904
 31
0.0
  0
LINE
  8
LC-007-005-----0
  6
CONTINUOUS
  5
23B
 10
467.783103
 20
397.072425
 30
0.0
 11
470.283103
 21
399.572425
 31
0.0
  0
LINE
  8
LC-007-005-----0
  6
CONTINUOUS
  5
23C
 10
460.283103
 20
392.400852
 30
0.0
 11
462.385155
 21
394.502904
 31
0.0
  0
LINE
  8
LC-007-005-----0
  6
CONTINUOUS
  5
23D
 10
467.783103
 20
399.900852
 30
0.0
 11
470.283103
 21
402.400852
 31
0.0
  0
LINE
  8
LC-007-005-----0
  6
CONTINUOUS
  5
23E
 10
467.783103
 20
402.729279
 30
0.0
 11
470.283103
 21
405.229279
 31
0.0
  0
LINE
  8
LC-007-005-----0
  6
CONTINUOUS
  5
23F
 10
467.783103
 20
405.557707
 30
0.0
 11
470.283103
 21
408.057707
 31
0.0
  0
LINE
  8
LC-007-005-----0
  6
CONTINUOUS
  5
240
 10
467.783103
 20
408.386134
 30
0.0
 11
470.283103
 21
410.886134
 31
0.0
  0
LINE
  8
LC-007-005-----0
  6
CONTINUOUS
  5
241
 10
467.783103
 20
411.214561
 30
0.0
 11
468.571091
 21
412.002548
 31
0.0
  0
ENDBLK
  8
0
  5
242
  0
BLOCK
  8
0
  5
244
  2
*X21
 70
    65
 10
313.283103
 20
392.002904
 30
0.0
  3
*X21
  0
LINE
  8
LC-007-005-----0
  6
CONTINUOUS
  5
245
 10
321.292226
 20
392.002904
 30
0.0
 11
323.283103
 21
393.993781
 31
0.0
  0
LINE
  8
LC-007-005-----0
  6
CONTINUOUS
  5
246
 10
318.463798
 20
392.002904
 30
0.0
 11
320.963798
 21
394.502904
 31
0.0
  0
LINE
  8
LC-007-005-----0
  6
CONTINUOUS
  5
247
 10
315.959237
 20
392.32677
 30
0.0
 11
318.135371
 21
394.502904
 31
0.0
  0
LINE
  8
LC-007-005-----0
  6
CONTINUOUS
  5
248
 10
314.545024
 20
393.740983
 30
0.0
 11
315.783103
 21
394.979063
 31
0.0
  0
LINE
  8
LC-007-005-----0
  6
CONTINUOUS
  5
249
 10
313.283103
 20
395.30749
 30
0.0
 11
315.783103
 21
397.80749
 31
0.0
  0
LINE
  8
LC-007-005-----0
  6
CONTINUOUS
  5
24A
 10
313.283103
 20
398.135917
 30
0.0
 11
315.783103
 21
400.635917
 31
0.0
  0
LINE
  8
LC-007-005-----0
  6
CONTINUOUS
  5
24B
 10
313.283103
 20
400.964344
 30
0.0
 11
315.783103
 21
403.464344
 31
0.0
  0
LINE
  8
LC-007-005-----0
  6
CONTINUOUS
  5
24C
 10
313.283103
 20
403.792771
 30
0.0
 11
315.783103
 21
406.292771
 31
0.0
  0
LINE
  8
LC-007-005-----0
  6
CONTINUOUS
  5
24D
 10
313.283103
 20
406.621198
 30
0.0
 11
315.783103
 21
409.121198
 31
0.0
  0
LINE
  8
LC-007-005-----0
  6
CONTINUOUS
  5
24E
 10
313.283103
 20
409.449626
 30
0.0
 11
315.783103
 21
411.949626
 31
0.0
  0
ENDBLK
  8
0
  5
24F
  0
BLOCK
  8
0
  5
251
  2
*X22
 70
    65
 10
631.592711
 20
416.61272
 30
0.0
  3
*X22
  0
LINE
  8
LC-007-005-----0
  6
CONTINUOUS
  5
252
 10
641.189834
 20
416.61272
 30
0.0
 11
641.592711
 21
417.015597
 31
0.0
  0
LINE
  8
LC-007-005-----0
  6
CONTINUOUS
  5
253
 10
640.624148
 20
416.61272
 30
0.0
 11
641.592711
 21
417.581282
 31
0.0
  0
LINE
  8
LC-007-005-----0
  6
CONTINUOUS
  5
254
 10
640.058463
 20
416.61272
 30
0.0
 11
641.592711
 21
418.146968
 31
0.0
  0
LINE
  8
LC-007-005-----0
  6
CONTINUOUS
  5
255
 10
639.492778
 20
416.61272
 30
0.0
 11
641.592711
 21
418.712653
 31
0.0
  0
LINE
  8
LC-007-005-----0
  6
CONTINUOUS
  5
256
 10
638.927092
 20
416.61272
 30
0.0
 11
641.592711
 21
419.278339
 31
0.0
  0
LINE
  8
LC-007-005-----0
  6
CONTINUOUS
  5
257
 10
638.361407
 20
416.61272
 30
0.0
 11
641.592711
 21
419.844024
 31
0.0
  0
LINE
  8
LC-007-005-----0
  6
CONTINUOUS
  5
258
 10
637.795721
 20
416.61272
 30
0.0
 11
641.592711
 21
420.40971
 31
0.0
  0
LINE
  8
LC-007-005-----0
  6
CONTINUOUS
  5
259
 10
637.230036
 20
416.61272
 30
0.0
 11
641.592711
 21
420.975395
 31
0.0
  0
LINE
  8
LC-007-005-----0
  6
CONTINUOUS
  5
25A
 10
636.664351
 20
416.61272
 30
0.0
 11
641.364351
 21
421.31272
 31
0.0
  0
LINE
  8
LC-007-005-----0
  6
CONTINUOUS
  5
25B
 10
636.098665
 20
416.61272
 30
0.0
 11
640.798665
 21
421.31272
 31
0.0
  0
LINE
  8
LC-007-005-----0
  6
CONTINUOUS
  5
25C
 10
635.53298
 20
416.61272
 30
0.0
 11
640.23298
 21
421.31272
 31
0.0
  0
LINE
  8
LC-007-005-----0
  6
CONTINUOUS
  5
25D
 10
634.967294
 20
416.61272
 30
0.0
 11
639.667294
 21
421.31272
 31
0.0
  0
LINE
  8
LC-007-005-----0
  6
CONTINUOUS
  5
25E
 10
634.401609
 20
416.61272
 30
0.0
 11
639.101609
 21
421.31272
 31
0.0
  0
LINE
  8
LC-007-005-----0
  6
CONTINUOUS
  5
25F
 10
633.835923
 20
416.61272
 30
0.0
 11
638.535923
 21
421.31272
 31
0.0
  0
LINE
  8
LC-007-005-----0
  6
CONTINUOUS
  5
260
 10
633.270238
 20
416.61272
 30
0.0
 11
637.970238
 21
421.31272
 31
0.0
  0
LINE
  8
LC-007-005-----0
  6
CONTINUOUS
  5
261
 10
632.704553
 20
416.61272
 30
0.0
 11
637.404553
 21
421.31272
 31
0.0
  0
LINE
  8
LC-007-005-----0
  6
CONTINUOUS
  5
262
 10
632.138867
 20
416.61272
 30
0.0
 11
636.838867
 21
421.31272
 31
0.0
  0
LINE
  8
LC-007-005-----0
  6
CONTINUOUS
  5
263
 10
631.592711
 20
416.632249
 30
0.0
 11
636.273182
 21
421.31272
 31
0.0
  0
LINE
  8
LC-007-005-----0
  6
CONTINUOUS
  5
264
 10
631.592711
 20
417.197935
 30
0.0
 11
635.707496
 21
421.31272
 31
0.0
  0
LINE
  8
LC-007-005-----0
  6
CONTINUOUS
  5
265
 10
631.592711
 20
417.76362
 30
0.0
 11
635.141811
 21
421.31272
 31
0.0
  0
LINE
  8
LC-007-005-----0
  6
CONTINUOUS
  5
266
 10
631.592711
 20
418.329305
 30
0.0
 11
634.576125
 21
421.31272
 31
0.0
  0
LINE
  8
LC-007-005-----0
  6
CONTINUOUS
  5
267
 10
631.592711
 20
418.894991
 30
0.0
 11
634.01044
 21
421.31272
 31
0.0
  0
LINE
  8
LC-007-005-----0
  6
CONTINUOUS
  5
268
 10
631.592711
 20
419.460676
 30
0.0
 11
633.444755
 21
421.31272
 31
0.0
  0
LINE
  8
LC-007-005-----0
  6
CONTINUOUS
  5
269
 10
631.592711
 20
420.026362
 30
0.0
 11
632.879069
 21
421.31272
 31
0.0
  0
LINE
  8
LC-007-005-----0
  6
CONTINUOUS
  5
26A
 10
631.592711
 20
420.592047
 30
0.0
 11
632.313384
 21
421.31272
 31
0.0
  0
LINE
  8
LC-007-005-----0
  6
CONTINUOUS
  5
26B
 10
631.592711
 20
421.157733
 30
0.0
 11
631.747698
 21
421.31272
 31
0.0
  0
ENDBLK
  8
0
  5
26C
  0
BLOCK
  8
0
  5
26E
  2
*X23
 70
    65
 10
611.592711
 20
416.61272
 30
0.0
  3
*X23
  0
LINE
  8
LC-007-005-----0
  6
CONTINUOUS
  5
26F
 10
621.390844
 20
416.61272
 30
0.0
 11
621.592711
 21
416.814587
 31
0.0
  0
LINE
  8
LC-007-005-----0
  6
CONTINUOUS
  5
270
 10
620.825159
 20
416.61272
 30
0.0
 11
621.592711
 21
417.380272
 31
0.0
  0
LINE
  8
LC-007-005-----0
  6
CONTINUOUS
  5
271
 10
620.259473
 20
416.61272
 30
0.0
 11
621.592711
 21
417.945958
 31
0.0
  0
LINE
  8
LC-007-005-----0
  6
CONTINUOUS
  5
272
 10
619.693788
 20
416.61272
 30
0.0
 11
621.592711
 21
418.511643
 31
0.0
  0
LINE
  8
LC-007-005-----0
  6
CONTINUOUS
  5
273
 10
619.128102
 20
416.61272
 30
0.0
 11
621.592711
 21
419.077329
 31
0.0
  0
LINE
  8
LC-007-005-----0
  6
CONTINUOUS
  5
274
 10
618.562417
 20
416.61272
 30
0.0
 11
621.592711
 21
419.643014
 31
0.0
  0
LINE
  8
LC-007-005-----0
  6
CONTINUOUS
  5
275
 10
617.996732
 20
416.61272
 30
0.0
 11
621.592711
 21
420.208699
 31
0.0
  0
LINE
  8
LC-007-005-----0
  6
CONTINUOUS
  5
276
 10
617.431046
 20
416.61272
 30
0.0
 11
621.592711
 21
420.774385
 31
0.0
  0
LINE
  8
LC-007-005-----0
  6
CONTINUOUS
  5
277
 10
616.865361
 20
416.61272
 30
0.0
 11
621.565361
 21
421.31272
 31
0.0
  0
LINE
  8
LC-007-005-----0
  6
CONTINUOUS
  5
278
 10
616.299675
 20
416.61272
 30
0.0
 11
620.999675
 21
421.31272
 31
0.0
  0
LINE
  8
LC-007-005-----0
  6
CONTINUOUS
  5
279
 10
615.73399
 20
416.61272
 30
0.0
 11
620.43399
 21
421.31272
 31
0.0
  0
LINE
  8
LC-007-005-----0
  6
CONTINUOUS
  5
27A
 10
615.168304
 20
416.61272
 30
0.0
 11
619.868304
 21
421.31272
 31
0.0
  0
LINE
  8
LC-007-005-----0
  6
CONTINUOUS
  5
27B
 10
614.602619
 20
416.61272
 30
0.0
 11
619.302619
 21
421.31272
 31
0.0
  0
LINE
  8
LC-007-005-----0
  6
CONTINUOUS
  5
27C
 10
614.036934
 20
416.61272
 30
0.0
 11
618.736934
 21
421.31272
 31
0.0
  0
LINE
  8
LC-007-005-----0
  6
CONTINUOUS
  5
27D
 10
613.471248
 20
416.61272
 30
0.0
 11
618.171248
 21
421.31272
 31
0.0
  0
LINE
  8
LC-007-005-----0
  6
CONTINUOUS
  5
27E
 10
612.905563
 20
416.61272
 30
0.0
 11
617.605563
 21
421.31272
 31
0.0
  0
LINE
  8
LC-007-005-----0
  6
CONTINUOUS
  5
27F
 10
612.339877
 20
416.61272
 30
0.0
 11
617.039877
 21
421.31272
 31
0.0
  0
LINE
  8
LC-007-005-----0
  6
CONTINUOUS
  5
280
 10
611.774192
 20
416.61272
 30
0.0
 11
616.474192
 21
421.31272
 31
0.0
  0
LINE
  8
LC-007-005-----0
  6
CONTINUOUS
  5
281
 10
611.592711
 20
416.996924
 30
0.0
 11
615.908506
 21
421.31272
 31
0.0
  0
LINE
  8
LC-007-005-----0
  6
CONTINUOUS
  5
282
 10
611.592711
 20
417.56261
 30
0.0
 11
615.342821
 21
421.31272
 31
0.0
  0
LINE
  8
LC-007-005-----0
  6
CONTINUOUS
  5
283
 10
611.592711
 20
418.128295
 30
0.0
 11
614.777136
 21
421.31272
 31
0.0
  0
LINE
  8
LC-007-005-----0
  6
CONTINUOUS
  5
284
 10
611.592711
 20
418.693981
 30
0.0
 11
614.21145
 21
421.31272
 31
0.0
  0
LINE
  8
LC-007-005-----0
  6
CONTINUOUS
  5
285
 10
611.592711
 20
419.259666
 30
0.0
 11
613.645765
 21
421.31272
 31
0.0
  0
LINE
  8
LC-007-005-----0
  6
CONTINUOUS
  5
286
 10
611.592711
 20
419.825352
 30
0.0
 11
613.080079
 21
421.31272
 31
0.0
  0
LINE
  8
LC-007-005-----0
  6
CONTINUOUS
  5
287
 10
611.592711
 20
420.391037
 30
0.0
 11
612.514394
 21
421.31272
 31
0.0
  0
LINE
  8
LC-007-005-----0
  6
CONTINUOUS
  5
288
 10
611.592711
 20
420.956722
 30
0.0
 11
611.948708
 21
421.31272
 31
0.0
  0
ENDBLK
  8
0
  5
289
  0
BLOCK
  8
0
  5
28B
  2
*X24
 70
    65
 10
591.592711
 20
416.61272
 30
0.0
  3
*X24
  0
LINE
  8
LC-007-005-----0
  6
CONTINUOUS
  5
28C
 10
601.591854
 20
416.61272
 30
0.0
 11
601.592711
 21
416.613577
 31
0.0
  0
LINE
  8
LC-007-005-----0
  6
CONTINUOUS
  5
28D
 10
601.026169
 20
416.61272
 30
0.0
 11
601.592711
 21
417.179262
 31
0.0
  0
LINE
  8
LC-007-005-----0
  6
CONTINUOUS
  5
28E
 10
600.460483
 20
416.61272
 30
0.0
 11
601.592711
 21
417.744948
 31
0.0
  0
LINE
  8
LC-007-005-----0
  6
CONTINUOUS
  5
28F
 10
599.894798
 20
416.61272
 30
0.0
 11
601.592711
 21
418.310633
 31
0.0
  0
LINE
  8
LC-007-005-----0
  6
CONTINUOUS
  5
290
 10
599.329112
 20
416.61272
 30
0.0
 11
601.592711
 21
418.876318
 31
0.0
  0
LINE
  8
LC-007-005-----0
  6
CONTINUOUS
  5
291
 10
598.763427
 20
416.61272
 30
0.0
 11
601.592711
 21
419.442004
 31
0.0
  0
LINE
  8
LC-007-005-----0
  6
CONTINUOUS
  5
292
 10
598.197742
 20
416.61272
 30
0.0
 11
601.592711
 21
420.007689
 31
0.0
  0
LINE
  8
LC-007-005-----0
  6
CONTINUOUS
  5
293
 10
597.632056
 20
416.61272
 30
0.0
 11
601.592711
 21
420.573375
 31
0.0
  0
LINE
  8
LC-007-005-----0
  6
CONTINUOUS
  5
294
 10
597.066371
 20
416.61272
 30
0.0
 11
601.592711
 21
421.13906
 31
0.0
  0
LINE
  8
LC-007-005-----0
  6
CONTINUOUS
  5
295
 10
596.500685
 20
416.61272
 30
0.0
 11
601.200685
 21
421.31272
 31
0.0
  0
LINE
  8
LC-007-005-----0
  6
CONTINUOUS
  5
296
 10
595.935
 20
416.61272
 30
0.0
 11
600.635
 21
421.31272
 31
0.0
  0
LINE
  8
LC-007-005-----0
  6
CONTINUOUS
  5
297
 10
595.369315
 20
416.61272
 30
0.0
 11
600.069315
 21
421.31272
 31
0.0
  0
LINE
  8
LC-007-005-----0
  6
CONTINUOUS
  5
298
 10
594.803629
 20
416.61272
 30
0.0
 11
599.503629
 21
421.31272
 31
0.0
  0
LINE
  8
LC-007-005-----0
  6
CONTINUOUS
  5
299
 10
594.237944
 20
416.61272
 30
0.0
 11
598.937944
 21
421.31272
 31
0.0
  0
LINE
  8
LC-007-005-----0
  6
CONTINUOUS
  5
29A
 10
593.672258
 20
416.61272
 30
0.0
 11
598.372258
 21
421.31272
 31
0.0
  0
LINE
  8
LC-007-005-----0
  6
CONTINUOUS
  5
29B
 10
593.106573
 20
416.61272
 30
0.0
 11
597.806573
 21
421.31272
 31
0.0
  0
LINE
  8
LC-007-005-----0
  6
CONTINUOUS
  5
29C
 10
592.540887
 20
416.61272
 30
0.0
 11
597.240887
 21
421.31272
 31
0.0
  0
LINE
  8
LC-007-005-----0
  6
CONTINUOUS
  5
29D
 10
591.975202
 20
416.61272
 30
0.0
 11
596.675202
 21
421.31272
 31
0.0
  0
LINE
  8
LC-007-005-----0
  6
CONTINUOUS
  5
29E
 10
591.592711
 20
416.795914
 30
0.0
 11
596.109517
 21
421.31272
 31
0.0
  0
LINE
  8
LC-007-005-----0
  6
CONTINUOUS
  5
29F
 10
591.592711
 20
417.3616
 30
0.0
 11
595.543831
 21
421.31272
 31
0.0
  0
LINE
  8
LC-007-005-----0
  6
CONTINUOUS
  5
2A0
 10
591.592711
 20
417.927285
 30
0.0
 11
594.978146
 21
421.31272
 31
0.0
  0
LINE
  8
LC-007-005-----0
  6
CONTINUOUS
  5
2A1
 10
591.592711
 20
418.492971
 30
0.0
 11
594.41246
 21
421.31272
 31
0.0
  0
LINE
  8
LC-007-005-----0
  6
CONTINUOUS
  5
2A2
 10
591.592711
 20
419.058656
 30
0.0
 11
593.846775
 21
421.31272
 31
0.0
  0
LINE
  8
LC-007-005-----0
  6
CONTINUOUS
  5
2A3
 10
591.592711
 20
419.624341
 30
0.0
 11
593.281089
 21
421.31272
 31
0.0
  0
LINE
  8
LC-007-005-----0
  6
CONTINUOUS
  5
2A4
 10
591.592711
 20
420.190027
 30
0.0
 11
592.715404
 21
421.31272
 31
0.0
  0
LINE
  8
LC-007-005-----0
  6
CONTINUOUS
  5
2A5
 10
591.592711
 20
420.755712
 30
0.0
 11
592.149719
 21
421.31272
 31
0.0
  0
ENDBLK
  8
0
  5
2A6
  0
BLOCK
  8
0
  5
2A8
  2
*X25
 70
    65
 10
571.592711
 20
416.61272
 30
0.0
  3
*X25
  0
LINE
  8
LC-007-005-----0
  6
CONTINUOUS
  5
2A9
 10
581.227179
 20
416.61272
 30
0.0
 11
581.592711
 21
416.978252
 31
0.0
  0
LINE
  8
LC-007-005-----0
  6
CONTINUOUS
  5
2AA
 10
580.661493
 20
416.61272
 30
0.0
 11
581.592711
 21
417.543937
 31
0.0
  0
LINE
  8
LC-007-005-----0
  6
CONTINUOUS
  5
2AB
 10
580.095808
 20
416.61272
 30
0.0
 11
581.592711
 21
418.109623
 31
0.0
  0
LINE
  8
LC-007-005-----0
  6
CONTINUOUS
  5
2AC
 10
579.530123
 20
416.61272
 30
0.0
 11
581.592711
 21
418.675308
 31
0.0
  0
LINE
  8
LC-007-005-----0
  6
CONTINUOUS
  5
2AD
 10
578.964437
 20
416.61272
 30
0.0
 11
581.592711
 21
419.240994
 31
0.0
  0
LINE
  8
LC-007-005-----0
  6
CONTINUOUS
  5
2AE
 10
578.398752
 20
416.61272
 30
0.0
 11
581.592711
 21
419.806679
 31
0.0
  0
LINE
  8
LC-007-005-----0
  6
CONTINUOUS
  5
2AF
 10
577.833066
 20
416.61272
 30
0.0
 11
581.592711
 21
420.372365
 31
0.0
  0
LINE
  8
LC-007-005-----0
  6
CONTINUOUS
  5
2B0
 10
577.267381
 20
416.61272
 30
0.0
 11
581.592711
 21
420.93805
 31
0.0
  0
LINE
  8
LC-007-005-----0
  6
CONTINUOUS
  5
2B1
 10
576.701695
 20
416.61272
 30
0.0
 11
581.401695
 21
421.31272
 31
0.0
  0
LINE
  8
LC-007-005-----0
  6
CONTINUOUS
  5
2B2
 10
576.13601
 20
416.61272
 30
0.0
 11
580.83601
 21
421.31272
 31
0.0
  0
LINE
  8
LC-007-005-----0
  6
CONTINUOUS
  5
2B3
 10
575.570325
 20
416.61272
 30
0.0
 11
580.270325
 21
421.31272
 31
0.0
  0
LINE
  8
LC-007-005-----0
  6
CONTINUOUS
  5
2B4
 10
575.004639
 20
416.61272
 30
0.0
 11
579.704639
 21
421.31272
 31
0.0
  0
LINE
  8
LC-007-005-----0
  6
CONTINUOUS
  5
2B5
 10
574.438954
 20
416.61272
 30
0.0
 11
579.138954
 21
421.31272
 31
0.0
  0
LINE
  8
LC-007-005-----0
  6
CONTINUOUS
  5
2B6
 10
573.873268
 20
416.61272
 30
0.0
 11
578.573268
 21
421.31272
 31
0.0
  0
LINE
  8
LC-007-005-----0
  6
CONTINUOUS
  5
2B7
 10
573.307583
 20
416.61272
 30
0.0
 11
578.007583
 21
421.31272
 31
0.0
  0
LINE
  8
LC-007-005-----0
  6
CONTINUOUS
  5
2B8
 10
572.741898
 20
416.61272
 30
0.0
 11
577.441898
 21
421.31272
 31
0.0
  0
LINE
  8
LC-007-005-----0
  6
CONTINUOUS
  5
2B9
 10
572.176212
 20
416.61272
 30
0.0
 11
576.876212
 21
421.31272
 31
0.0
  0
LINE
  8
LC-007-005-----0
  6
CONTINUOUS
  5
2BA
 10
571.610527
 20
416.61272
 30
0.0
 11
576.310527
 21
421.31272
 31
0.0
  0
LINE
  8
LC-007-005-----0
  6
CONTINUOUS
  5
2BB
 10
571.592711
 20
417.16059
 30
0.0
 11
575.744841
 21
421.31272
 31
0.0
  0
LINE
  8
LC-007-005-----0
  6
CONTINUOUS
  5
2BC
 10
571.592711
 20
417.726275
 30
0.0
 11
575.179156
 21
421.31272
 31
0.0
  0
LINE
  8
LC-007-005-----0
  6
CONTINUOUS
  5
2BD
 10
571.592711
 20
418.291961
 30
0.0
 11
574.61347
 21
421.31272
 31
0.0
  0
LINE
  8
LC-007-005-----0
  6
CONTINUOUS
  5
2BE
 10
571.592711
 20
418.857646
 30
0.0
 11
574.047785
 21
421.31272
 31
0.0
  0
LINE
  8
LC-007-005-----0
  6
CONTINUOUS
  5
2BF
 10
571.592711
 20
419.423331
 30
0.0
 11
573.4821
 21
421.31272
 31
0.0
  0
LINE
  8
LC-007-005-----0
  6
CONTINUOUS
  5
2C0
 10
571.592711
 20
419.989017
 30
0.0
 11
572.916414
 21
421.31272
 31
0.0
  0
LINE
  8
LC-007-005-----0
  6
CONTINUOUS
  5
2C1
 10
571.592711
 20
420.554702
 30
0.0
 11
572.350729
 21
421.31272
 31
0.0
  0
LINE
  8
LC-007-005-----0
  6
CONTINUOUS
  5
2C2
 10
571.592711
 20
421.120388
 30
0.0
 11
571.785043
 21
421.31272
 31
0.0
  0
ENDBLK
  8
0
  5
2C3
  0
BLOCK
  8
0
  5
2C5
  2
*X26
 70
    65
 10
551.592711
 20
416.61272
 30
0.0
  3
*X26
  0
LINE
  8
LC-007-005-----0
  6
CONTINUOUS
  5
2C6
 10
561.428189
 20
416.61272
 30
0.0
 11
561.592711
 21
416.777242
 31
0.0
  0
LINE
  8
LC-007-005-----0
  6
CONTINUOUS
  5
2C7
 10
560.862504
 20
416.61272
 30
0.0
 11
561.592711
 21
417.342927
 31
0.0
  0
LINE
  8
LC-007-005-----0
  6
CONTINUOUS
  5
2C8
 10
560.296818
 20
416.61272
 30
0.0
 11
561.592711
 21
417.908613
 31
0.0
  0
LINE
  8
LC-007-005-----0
  6
CONTINUOUS
  5
2C9
 10
559.731133
 20
416.61272
 30
0.0
 11
561.592711
 21
418.474298
 31
0.0
  0
LINE
  8
LC-007-005-----0
  6
CONTINUOUS
  5
2CA
 10
559.165447
 20
416.61272
 30
0.0
 11
561.592711
 21
419.039984
 31
0.0
  0
LINE
  8
LC-007-005-----0
  6
CONTINUOUS
  5
2CB
 10
558.599762
 20
416.61272
 30
0.0
 11
561.592711
 21
419.605669
 31
0.0
  0
LINE
  8
LC-007-005-----0
  6
CONTINUOUS
  5
2CC
 10
558.034076
 20
416.61272
 30
0.0
 11
561.592711
 21
420.171354
 31
0.0
  0
LINE
  8
LC-007-005-----0
  6
CONTINUOUS
  5
2CD
 10
557.468391
 20
416.61272
 30
0.0
 11
561.592711
 21
420.73704
 31
0.0
  0
LINE
  8
LC-007-005-----0
  6
CONTINUOUS
  5
2CE
 10
556.902706
 20
416.61272
 30
0.0
 11
561.592711
 21
421.302725
 31
0.0
  0
LINE
  8
LC-007-005-----0
  6
CONTINUOUS
  5
2CF
 10
556.33702
 20
416.61272
 30
0.0
 11
561.03702
 21
421.31272
 31
0.0
  0
LINE
  8
LC-007-005-----0
  6
CONTINUOUS
  5
2D0
 10
555.771335
 20
416.61272
 30
0.0
 11
560.471335
 21
421.31272
 31
0.0
  0
LINE
  8
LC-007-005-----0
  6
CONTINUOUS
  5
2D1
 10
555.205649
 20
416.61272
 30
0.0
 11
559.905649
 21
421.31272
 31
0.0
  0
LINE
  8
LC-007-005-----0
  6
CONTINUOUS
  5
2D2
 10
554.639964
 20
416.61272
 30
0.0
 11
559.339964
 21
421.31272
 31
0.0
  0
LINE
  8
LC-007-005-----0
  6
CONTINUOUS
  5
2D3
 10
554.074278
 20
416.61272
 30
0.0
 11
558.774278
 21
421.31272
 31
0.0
  0
LINE
  8
LC-007-005-----0
  6
CONTINUOUS
  5
2D4
 10
553.508593
 20
416.61272
 30
0.0
 11
558.208593
 21
421.31272
 31
0.0
  0
LINE
  8
LC-007-005-----0
  6
CONTINUOUS
  5
2D5
 10
552.942908
 20
416.61272
 30
0.0
 11
557.642908
 21
421.31272
 31
0.0
  0
LINE
  8
LC-007-005-----0
  6
CONTINUOUS
  5
2D6
 10
552.377222
 20
416.61272
 30
0.0
 11
557.077222
 21
421.31272
 31
0.0
  0
LINE
  8
LC-007-005-----0
  6
CONTINUOUS
  5
2D7
 10
551.811537
 20
416.61272
 30
0.0
 11
556.511537
 21
421.31272
 31
0.0
  0
LINE
  8
LC-007-005-----0
  6
CONTINUOUS
  5
2D8
 10
551.592711
 20
416.95958
 30
0.0
 11
555.945851
 21
421.31272
 31
0.0
  0
LINE
  8
LC-007-005-----0
  6
CONTINUOUS
  5
2D9
 10
551.592711
 20
417.525265
 30
0.0
 11
555.380166
 21
421.31272
 31
0.0
  0
LINE
  8
LC-007-005-----0
  6
CONTINUOUS
  5
2DA
 10
551.592711
 20
418.09095
 30
0.0
 11
554.814481
 21
421.31272
 31
0.0
  0
LINE
  8
LC-007-005-----0
  6
CONTINUOUS
  5
2DB
 10
551.592711
 20
418.656636
 30
0.0
 11
554.248795
 21
421.31272
 31
0.0
  0
LINE
  8
LC-007-005-----0
  6
CONTINUOUS
  5
2DC
 10
551.592711
 20
419.222321
 30
0.0
 11
553.68311
 21
421.31272
 31
0.0
  0
LINE
  8
LC-007-005-----0
  6
CONTINUOUS
  5
2DD
 10
551.592711
 20
419.788007
 30
0.0
 11
553.117424
 21
421.31272
 31
0.0
  0
LINE
  8
LC-007-005-----0
  6
CONTINUOUS
  5
2DE
 10
551.592711
 20
420.353692
 30
0.0
 11
552.551739
 21
421.31272
 31
0.0
  0
LINE
  8
LC-007-005-----0
  6
CONTINUOUS
  5
2DF
 10
551.592711
 20
420.919378
 30
0.0
 11
551.986053
 21
421.31272
 31
0.0
  0
ENDBLK
  8
0
  5
2E0
  0
BLOCK
  8
0
  5
2E2
  2
*X27
 70
    65
 10
531.592711
 20
415.837208
 30
0.0
  3
*X27
  0
LINE
  8
LC-007-005-----0
  6
CONTINUOUS
  5
2E3
 10
541.54326
 20
416.526781
 30
0.0
 11
541.592711
 21
416.576232
 31
0.0
  0
LINE
  8
LC-007-005-----0
  6
CONTINUOUS
  5
2E4
 10
540.935444
 20
416.48465
 30
0.0
 11
541.592711
 21
417.141917
 31
0.0
  0
LINE
  8
LC-007-005-----0
  6
CONTINUOUS
  5
2E5
 10
540.327628
 20
416.44252
 30
0.0
 11
541.592711
 21
417.707603
 31
0.0
  0
LINE
  8
LC-007-005-----0
  6
CONTINUOUS
  5
2E6
 10
539.719812
 20
416.400389
 30
0.0
 11
541.592711
 21
418.273288
 31
0.0
  0
LINE
  8
LC-007-005-----0
  6
CONTINUOUS
  5
2E7
 10
539.111996
 20
416.358258
 30
0.0
 11
541.592711
 21
418.838973
 31
0.0
  0
LINE
  8
LC-007-005-----0
  6
CONTINUOUS
  5
2E8
 10
538.50418
 20
416.316128
 30
0.0
 11
541.592711
 21
419.404659
 31
0.0
  0
LINE
  8
LC-007-005-----0
  6
CONTINUOUS
  5
2E9
 10
537.896364
 20
416.273997
 30
0.0
 11
541.592711
 21
419.970344
 31
0.0
  0
LINE
  8
LC-007-005-----0
  6
CONTINUOUS
  5
2EA
 10
537.288548
 20
416.231867
 30
0.0
 11
541.592711
 21
420.53603
 31
0.0
  0
LINE
  8
LC-007-005-----0
  6
CONTINUOUS
  5
2EB
 10
536.680732
 20
416.189736
 30
0.0
 11
541.592711
 21
421.101715
 31
0.0
  0
LINE
  8
LC-007-005-----0
  6
CONTINUOUS
  5
2EC
 10
536.072916
 20
416.147606
 30
0.0
 11
541.135075
 21
421.209765
 31
0.0
  0
LINE
  8
LC-007-005-----0
  6
CONTINUOUS
  5
2ED
 10
535.4651
 20
416.105475
 30
0.0
 11
540.527259
 21
421.167634
 31
0.0
  0
LINE
  8
LC-007-005-----0
  6
CONTINUOUS
  5
2EE
 10
534.857284
 20
416.063344
 30
0.0
 11
539.919443
 21
421.125504
 31
0.0
  0
LINE
  8
LC-007-005-----0
  6
CONTINUOUS
  5
2EF
 10
534.249468
 20
416.021214
 30
0.0
 11
539.311627
 21
421.083373
 31
0.0
  0
LINE
  8
LC-007-005-----0
  6
CONTINUOUS
  5
2F0
 10
533.641652
 20
415.979083
 30
0.0
 11
538.703811
 21
421.041242
 31
0.0
  0
LINE
  8
LC-007-005-----0
  6
CONTINUOUS
  5
2F1
 10
533.033836
 20
415.936953
 30
0.0
 11
538.095995
 21
420.999112
 31
0.0
  0
LINE
  8
LC-007-005-----0
  6
CONTINUOUS
  5
2F2
 10
532.42602
 20
415.894822
 30
0.0
 11
537.488179
 21
420.956981
 31
0.0
  0
LINE
  8
LC-007-005-----0
  6
CONTINUOUS
  5
2F3
 10
531.818204
 20
415.852691
 30
0.0
 11
536.880363
 21
420.914851
 31
0.0
  0
LINE
  8
LC-007-005-----0
  6
CONTINUOUS
  5
2F4
 10
531.592711
 20
416.192884
 30
0.0
 11
536.272547
 21
420.87272
 31
0.0
  0
LINE
  8
LC-007-005-----0
  6
CONTINUOUS
  5
2F5
 10
531.592711
 20
416.758569
 30
0.0
 11
535.664731
 21
420.830589
 31
0.0
  0
LINE
  8
LC-007-005-----0
  6
CONTINUOUS
  5
2F6
 10
531.592711
 20
417.324255
 30
0.0
 11
535.056915
 21
420.788459
 31
0.0
  0
LINE
  8
LC-007-005-----0
  6
CONTINUOUS
  5
2F7
 10
531.592711
 20
417.88994
 30
0.0
 11
534.449099
 21
420.746328
 31
0.0
  0
LINE
  8
LC-007-005-----0
  6
CONTINUOUS
  5
2F8
 10
531.592711
 20
418.455626
 30
0.0
 11
533.841283
 21
420.704198
 31
0.0
  0
LINE
  8
LC-007-005-----0
  6
CONTINUOUS
  5
2F9
 10
531.592711
 20
419.021311
 30
0.0
 11
533.233467
 21
420.662067
 31
0.0
  0
LINE
  8
LC-007-005-----0
  6
CONTINUOUS
  5
2FA
 10
531.592711
 20
419.586997
 30
0.0
 11
532.625651
 21
420.619936
 31
0.0
  0
LINE
  8
LC-007-005-----0
  6
CONTINUOUS
  5
2FB
 10
531.592711
 20
420.152682
 30
0.0
 11
532.017835
 21
420.577806
 31
0.0
  0
ENDBLK
  8
0
  5
2FC
  0
BLOCK
  8
0
  5
2FE
  2
*X28
 70
    65
 10
511.592711
 20
414.450914
 30
0.0
  3
*X28
  0
LINE
  8
LC-007-005-----0
  6
CONTINUOUS
  5
2FF
 10
521.485331
 20
415.136471
 30
0.0
 11
521.592711
 21
415.243851
 31
0.0
  0
LINE
  8
LC-007-005-----0
  6
CONTINUOUS
  5
300
 10
520.877515
 20
415.094341
 30
0.0
 11
521.592711
 21
415.809536
 31
0.0
  0
LINE
  8
LC-007-005-----0
  6
CONTINUOUS
  5
301
 10
520.269699
 20
415.05221
 30
0.0
 11
521.592711
 21
416.375222
 31
0.0
  0
LINE
  8
LC-007-005-----0
  6
CONTINUOUS
  5
302
 10
519.661883
 20
415.01008
 30
0.0
 11
521.592711
 21
416.940907
 31
0.0
  0
LINE
  8
LC-007-005-----0
  6
CONTINUOUS
  5
303
 10
519.054067
 20
414.967949
 30
0.0
 11
521.592711
 21
417.506592
 31
0.0
  0
LINE
  8
LC-007-005-----0
  6
CONTINUOUS
  5
304
 10
518.446251
 20
414.925818
 30
0.0
 11
521.592711
 21
418.072278
 31
0.0
  0
LINE
  8
LC-007-005-----0
  6
CONTINUOUS
  5
305
 10
517.838435
 20
414.883688
 30
0.0
 11
521.592711
 21
418.637963
 31
0.0
  0
LINE
  8
LC-007-005-----0
  6
CONTINUOUS
  5
306
 10
517.230619
 20
414.841557
 30
0.0
 11
521.592711
 21
419.203649
 31
0.0
  0
LINE
  8
LC-007-005-----0
  6
CONTINUOUS
  5
307
 10
516.622803
 20
414.799427
 30
0.0
 11
521.592711
 21
419.769334
 31
0.0
  0
LINE
  8
LC-007-005-----0
  6
CONTINUOUS
  5
308
 10
516.014987
 20
414.757296
 30
0.0
 11
521.077146
 21
419.819455
 31
0.0
  0
LINE
  8
LC-007-005-----0
  6
CONTINUOUS
  5
309
 10
515.407171
 20
414.715166
 30
0.0
 11
520.46933
 21
419.777325
 31
0.0
  0
LINE
  8
LC-007-005-----0
  6
CONTINUOUS
  5
30A
 10
514.799355
 20
414.673035
 30
0.0
 11
519.861514
 21
419.735194
 31
0.0
  0
LINE
  8
LC-007-005-----0
  6
CONTINUOUS
  5
30B
 10
514.191539
 20
414.630904
 30
0.0
 11
519.253698
 21
419.693064
 31
0.0
  0
LINE
  8
LC-007-005-----0
  6
CONTINUOUS
  5
30C
 10
513.583723
 20
414.588774
 30
0.0
 11
518.645882
 21
419.650933
 31
0.0
  0
LINE
  8
LC-007-005-----0
  6
CONTINUOUS
  5
30D
 10
512.975907
 20
414.546643
 30
0.0
 11
518.038066
 21
419.608802
 31
0.0
  0
LINE
  8
LC-007-005-----0
  6
CONTINUOUS
  5
30E
 10
512.368091
 20
414.504513
 30
0.0
 11
517.43025
 21
419.566672
 31
0.0
  0
LINE
  8
LC-007-005-----0
  6
CONTINUOUS
  5
30F
 10
511.760275
 20
414.462382
 30
0.0
 11
516.822434
 21
419.524541
 31
0.0
  0
LINE
  8
LC-007-005-----0
  6
CONTINUOUS
  5
310
 10
511.592711
 20
414.860503
 30
0.0
 11
516.214618
 21
419.482411
 31
0.0
  0
LINE
  8
LC-007-005-----0
  6
CONTINUOUS
  5
311
 10
511.592711
 20
415.426188
 30
0.0
 11
515.606802
 21
419.44028
 31
0.0
  0
LINE
  8
LC-007-005-----0
  6
CONTINUOUS
  5
312
 10
511.592711
 20
415.991874
 30
0.0
 11
514.998986
 21
419.398149
 31
0.0
  0
LINE
  8
LC-007-005-----0
  6
CONTINUOUS
  5
313
 10
511.592711
 20
416.557559
 30
0.0
 11
514.39117
 21
419.356019
 31
0.0
  0
LINE
  8
LC-007-005-----0
  6
CONTINUOUS
  5
314
 10
511.592711
 20
417.123245
 30
0.0
 11
513.783354
 21
419.313888
 31
0.0
  0
LINE
  8
LC-007-005-----0
  6
CONTINUOUS
  5
315
 10
511.592711
 20
417.68893
 30
0.0
 11
513.175538
 21
419.271758
 31
0.0
  0
LINE
  8
LC-007-005-----0
  6
CONTINUOUS
  5
316
 10
511.592711
 20
418.254616
 30
0.0
 11
512.567722
 21
419.229627
 31
0.0
  0
LINE
  8
LC-007-005-----0
  6
CONTINUOUS
  5
317
 10
511.592711
 20
418.820301
 30
0.0
 11
511.959906
 21
419.187497
 31
0.0
  0
ENDBLK
  8
0
  5
318
  0
BLOCK
  8
0
  5
31A
  2
*X29
 70
    65
 10
468.681925
 20
410.993265
 30
0.0
  3
*X29
  0
LINE
  8
LC-007-005-----0
  6
CONTINUOUS
  5
31B
 10
501.043389
 20
412.796463
 30
0.0
 11
501.592711
 21
413.345784
 31
0.0
  0
LINE
  8
LC-007-005-----0
  6
CONTINUOUS
  5
31C
 10
500.112152
 20
412.430911
 30
0.0
 11
501.592711
 21
413.91147
 31
0.0
  0
LINE
  8
LC-007-005-----0
  6
CONTINUOUS
  5
31D
 10
499.247258
 20
412.131702
 30
0.0
 11
501.592711
 21
414.477155
 31
0.0
  0
LINE
  8
LC-007-005-----0
  6
CONTINUOUS
  5
31E
 10
498.434285
 20
411.884415
 30
0.0
 11
501.592711
 21
415.042841
 31
0.0
  0
LINE
  8
LC-007-005-----0
  6
CONTINUOUS
  5
31F
 10
497.663545
 20
411.679361
 30
0.0
 11
501.592711
 21
415.608526
 31
0.0
  0
LINE
  8
LC-007-005-----0
  6
CONTINUOUS
  5
320
 10
496.928152
 20
411.509653
 30
0.0
 11
501.592711
 21
416.174212
 31
0.0
  0
LINE
  8
LC-007-005-----0
  6
CONTINUOUS
  5
321
 10
496.232402
 20
411.379588
 30
0.0
 11
501.592711
 21
416.739897
 31
0.0
  0
LINE
  8
LC-007-005-----0
  6
CONTINUOUS
  5
322
 10
495.622387
 20
411.335259
 30
0.0
 11
501.592711
 21
417.305582
 31
0.0
  0
LINE
  8
LC-007-005-----0
  6
CONTINUOUS
  5
323
 10
495.012373
 20
411.29093
 30
0.0
 11
501.592711
 21
417.871268
 31
0.0
  0
LINE
  8
LC-007-005-----0
  6
CONTINUOUS
  5
324
 10
494.402358
 20
411.2466
 30
0.0
 11
501.319445
 21
418.163688
 31
0.0
  0
LINE
  8
LC-007-005-----0
  6
CONTINUOUS
  5
325
 10
493.792343
 20
411.202271
 30
0.0
 11
500.126331
 21
417.536259
 31
0.0
  0
LINE
  8
LC-007-005-----0
  6
CONTINUOUS
  5
326
 10
493.182328
 20
411.157941
 30
0.0
 11
499.108264
 21
417.083877
 31
0.0
  0
LINE
  8
LC-007-005-----0
  6
CONTINUOUS
  5
327
 10
492.572313
 20
411.113612
 30
0.0
 11
498.197474
 21
416.738773
 31
0.0
  0
LINE
  8
LC-007-005-----0
  6
CONTINUOUS
  5
328
 10
491.962298
 20
411.069283
 30
0.0
 11
497.361718
 21
416.468702
 31
0.0
  0
LINE
  8
LC-007-005-----0
  6
CONTINUOUS
  5
329
 10
491.592711
 20
411.26538
 30
0.0
 11
496.582613
 21
416.255283
 31
0.0
  0
LINE
  8
LC-007-005-----0
  6
CONTINUOUS
  5
32A
 10
491.592711
 20
411.831066
 30
0.0
 11
495.848488
 21
416.086843
 31
0.0
  0
LINE
  8
LC-007-005-----0
  6
CONTINUOUS
  5
32B
 10
491.592711
 20
412.396751
 30
0.0
 11
495.211939
 21
416.01598
 31
0.0
  0
LINE
  8
LC-007-005-----0
  6
CONTINUOUS
  5
32C
 10
491.592711
 20
412.962437
 30
0.0
 11
494.601924
 21
415.97165
 31
0.0
  0
LINE
  8
LC-007-005-----0
  6
CONTINUOUS
  5
32D
 10
491.592711
 20
413.528122
 30
0.0
 11
493.99191
 21
415.927321
 31
0.0
  0
LINE
  8
LC-007-005-----0
  6
CONTINUOUS
  5
32E
 10
491.592711
 20
414.093807
 30
0.0
 11
493.381895
 21
415.882992
 31
0.0
  0
LINE
  8
LC-007-005-----0
  6
CONTINUOUS
  5
32F
 10
491.592711
 20
414.659493
 30
0.0
 11
492.77188
 21
415.838662
 31
0.0
  0
LINE
  8
LC-007-005-----0
  6
CONTINUOUS
  5
330
 10
491.592711
 20
415.225178
 30
0.0
 11
492.161865
 21
415.794333
 31
0.0
  0
ENDBLK
  8
0
  5
331
  0
BLOCK
  8
0
  5
333
  2
*X30
 70
    65
 10
464.045498
 20
385.402237
 30
0.0
  3
*X30
  0
LINE
  8
LC-007-005-----0
  6
CONTINUOUS
  5
334
 10
467.426623
 20
385.402237
 30
0.0
 11
469.041121
 21
387.016735
 31
0.0
  0
LINE
  8
LC-007-005-----0
  6
CONTINUOUS
  5
335
 10
464.745498
 20
385.549538
 30
0.0
 11
465.298196
 21
386.102237
 31
0.0
  0
LINE
  8
LC-007-005-----0
  6
CONTINUOUS
  5
336
 10
467.037084
 20
387.841124
 30
0.0
 11
467.597301
 21
388.401342
 31
0.0
  0
LINE
  8
LC-007-005-----0
  6
CONTINUOUS
  5
337
 10
495.287283
 20
416.091323
 30
0.0
 11
496.258573
 21
417.062614
 31
0.0
  0
LINE
  8
LC-007-005-----0
  6
CONTINUOUS
  5
338
 10
466.545498
 20
390.177965
 30
0.0
 11
467.245498
 21
390.877965
 31
0.0
  0
LINE
  8
LC-007-005-----0
  6
CONTINUOUS
  5
339
 10
467.672058
 20
391.304526
 30
0.0
 11
468.560034
 21
392.192502
 31
0.0
  0
LINE
  8
LC-007-005-----0
  6
CONTINUOUS
  5
33A
 10
470.155232
 20
393.7877
 30
0.0
 11
471.043209
 21
394.675676
 31
0.0
  0
LINE
  8
LC-007-005-----0
  6
CONTINUOUS
  5
33B
 10
492.212821
 20
415.845289
 30
0.0
 11
492.955912
 21
416.58838
 31
0.0
  0
LINE
  8
LC-007-005-----0
  6
CONTINUOUS
  5
33C
 10
470.345498
 20
396.806392
 30
0.0
 11
471.045498
 21
397.506392
 31
0.0
  0
LINE
  8
LC-007-005-----0
  6
CONTINUOUS
  5
33D
 10
489.171741
 20
415.632636
 30
0.0
 11
489.914832
 21
416.375727
 31
0.0
  0
LINE
  8
LC-007-005-----0
  6
CONTINUOUS
  5
33E
 10
470.345498
 20
399.63482
 30
0.0
 11
471.045498
 21
400.33482
 31
0.0
  0
LINE
  8
LC-007-005-----0
  6
CONTINUOUS
  5
33F
 10
486.130661
 20
415.419983
 30
0.0
 11
486.873752
 21
416.163074
 31
0.0
  0
LINE
  8
LC-007-005-----0
  6
CONTINUOUS
  5
340
 10
470.345498
 20
402.463247
 30
0.0
 11
471.045498
 21
403.163247
 31
0.0
  0
LINE
  8
LC-007-005-----0
  6
CONTINUOUS
  5
341
 10
483.089581
 20
415.20733
 30
0.0
 11
483.832672
 21
415.950421
 31
0.0
  0
LINE
  8
LC-007-005-----0
  6
CONTINUOUS
  5
342
 10
470.345498
 20
405.291674
 30
0.0
 11
471.045498
 21
405.991674
 31
0.0
  0
LINE
  8
LC-007-005-----0
  6
CONTINUOUS
  5
343
 10
480.0485
 20
414.994677
 30
0.0
 11
480.791592
 21
415.737768
 31
0.0
  0
LINE
  8
LC-007-005-----0
  6
CONTINUOUS
  5
344
 10
470.345498
 20
408.120101
 30
0.0
 11
471.054622
 21
408.829225
 31
0.0
  0
LINE
  8
LC-007-005-----0
  6
CONTINUOUS
  5
345
 10
477.00742
 20
414.782024
 30
0.0
 11
477.750511
 21
415.525115
 31
0.0
  0
LINE
  8
LC-007-005-----0
  6
CONTINUOUS
  5
346
 10
471.167019
 20
411.770049
 30
0.0
 11
474.055149
 21
414.658179
 31
0.0
  0
ENDBLK
  8
0
  5
347
  0
BLOCK
  8
0
  5
349
  2
BLK5
 70
    64
 10
0.0
 20
0.0
 30
0.0
  3
BLK5
  0
ENDBLK
  8
0
  5
34A
  0
BLOCK
  8
0
  5
34C
  2
*D32
 70
    65
 10
0.0
 20
0.0
 30
0.0
  3
*D32
  0
LINE
  8
LC-009-003-MTH-0
  6
CONTINUOUS
  5
34D
 10
141.973496
 20
421.31272
 30
0.0
 11
141.973496
 21
526.4
 31
0.0
  0
LINE
  8
LC-009-003-MTH-0
  6
CONTINUOUS
  5
34E
 10
641.592711
 20
421.31272
 30
0.0
 11
641.592711
 21
526.4
 31
0.0
  0
LINE
  8
LC-010-003-MTG-0
  6
CONTINUOUS
  5
34F
 10
141.973496
 20
509.6
 30
0.0
 11
641.592711
 21
509.6
 31
0.0
  0
LINE
  8
LC-008-003-----0
  6
CONTINUOUS
  5
350
 10
169.733952
 20
513.254733
 30
0.0
 11
141.973496
 21
509.6
 31
0.0
  0
LINE
  8
LC-008-003-----0
  6
CONTINUOUS
  5
351
 10
141.973496
 20
509.6
 30
0.0
 11
169.733952
 21
505.945267
 31
0.0
  0
LINE
  8
LC-008-003-----0
  6
CONTINUOUS
  5
352
 10
169.733952
 20
505.945267
 30
0.0
 11
169.733952
 21
513.254733
 31
0.0
  0
LINE
  8
LC-008-003-----0
  6
CONTINUOUS
  5
353
 10
169.796234
 20
512.304503
 30
0.0
 11
149.253496
 21
509.6
 31
0.0
  0
LINE
  8
LC-008-003-----0
  6
CONTINUOUS
  5
354
 10
149.253496
 20
509.6
 30
0.0
 11
169.796234
 21
506.895497
 31
0.0
  0
LINE
  8
LC-008-003-----0
  6
CONTINUOUS
  5
355
 10
169.858515
 20
511.354272
 30
0.0
 11
156.533496
 21
509.6
 31
0.0
  0
LINE
  8
LC-008-003-----0
  6
CONTINUOUS
  5
356
 10
156.533496
 20
509.6
 30
0.0
 11
169.858515
 21
507.845728
 31
0.0
  0
LINE
  8
LC-008-003-----0
  6
CONTINUOUS
  5
357
 10
169.920796
 20
510.404041
 30
0.0
 11
163.813496
 21
509.6
 31
0.0
  0
LINE
  8
LC-008-003-----0
  6
CONTINUOUS
  5
358
 10
163.813496
 20
509.6
 30
0.0
 11
169.920796
 21
508.795959
 31
0.0
  0
LINE
  8
LC-008-003-----0
  6
CONTINUOUS
  5
359
 10
613.832255
 20
505.945267
 30
0.0
 11
641.592711
 21
509.6
 31
0.0
  0
LINE
  8
LC-008-003-----0
  6
CONTINUOUS
  5
35A
 10
641.592711
 20
509.6
 30
0.0
 11
613.832255
 21
513.254733
 31
0.0
  0
LINE
  8
LC-008-003-----0
  6
CONTINUOUS
  5
35B
 10
613.832255
 20
513.254733
 30
0.0
 11
613.832255
 21
505.945267
 31
0.0
  0
LINE
  8
LC-008-003-----0
  6
CONTINUOUS
  5
35C
 10
613.769973
 20
506.895497
 30
0.0
 11
634.312711
 21
509.6
 31
0.0
  0
LINE
  8
LC-008-003-----0
  6
CONTINUOUS
  5
35D
 10
634.312711
 20
509.6
 30
0.0
 11
613.769973
 21
512.304503
 31
0.0
  0
LINE
  8
LC-008-003-----0
  6
CONTINUOUS
  5
35E
 10
613.707692
 20
507.845728
 30
0.0
 11
627.032711
 21
509.6
 31
0.0
  0
LINE
  8
LC-008-003-----0
  6
CONTINUOUS
  5
35F
 10
627.032711
 20
509.6
 30
0.0
 11
613.707692
 21
511.354272
 31
0.0
  0
LINE
  8
LC-008-003-----0
  6
CONTINUOUS
  5
360
 10
613.64541
 20
508.795959
 30
0.0
 11
619.752711
 21
509.6
 31
0.0
  0
LINE
  8
LC-008-003-----0
  6
CONTINUOUS
  5
361
 10
619.752711
 20
509.6
 30
0.0
 11
613.64541
 21
510.404041
 31
0.0
  0
TEXT
  8
LC-008-003-----0
  6
CONTINUOUS
 62
     8
  5
362
 10
358.033625
 20
517.427554
 30
0.0
 40
28.0
  1
Ø500
 51
15.0
  7
LC-TXTSTYLE-150-400-0-0-D0
 72
     1
 11
396.131263
 21
517.427554
 31
0.0
  0
ENDBLK
  8
0
  5
363
  0
BLOCK
  8
0
  5
365
  2
*X33
 70
    65
 10
471.170369
 20
395.023893
 30
0.0
  3
*X33
  0
LINE
  8
LC-007-005-----0
  6
CONTINUOUS
  5
366
 10
477.04828
 20
395.023893
 30
0.0
 11
478.443472
 21
396.419085
 31
0.0
  0
LINE
  8
LC-007-005-----0
  6
CONTINUOUS
  5
367
 10
476.186871
 20
396.990911
 30
0.0
 11
478.443472
 21
399.247512
 31
0.0
  0
LINE
  8
LC-007-005-----0
  6
CONTINUOUS
  5
368
 10
481.162732
 20
401.966772
 30
0.0
 11
483.302797
 21
404.106837
 31
0.0
  0
LINE
  8
LC-007-005-----0
  6
CONTINUOUS
  5
369
 10
474.813785
 20
398.446253
 30
0.0
 11
478.443472
 21
402.075939
 31
0.0
  0
LINE
  8
LC-007-005-----0
  6
CONTINUOUS
  5
36A
 10
480.161415
 20
403.793883
 30
0.0
 11
483.302797
 21
406.935264
 31
0.0
  0
LINE
  8
LC-007-005-----0
  6
CONTINUOUS
  5
36B
 10
471.189771
 20
397.650665
 30
0.0
 11
478.443472
 21
404.904367
 31
0.0
  0
LINE
  8
LC-007-005-----0
  6
CONTINUOUS
  5
36C
 10
480.161415
 20
406.62231
 30
0.0
 11
483.302797
 21
409.763692
 31
0.0
  0
LINE
  8
LC-007-005-----0
  6
CONTINUOUS
  5
36D
 10
475.928125
 20
405.217446
 30
0.0
 11
478.443472
 21
407.732794
 31
0.0
  0
LINE
  8
LC-007-005-----0
  6
CONTINUOUS
  5
36E
 10
478.58699
 20
407.876311
 30
0.0
 11
481.308419
 21
410.597741
 31
0.0
  0
LINE
  8
LC-007-005-----0
  6
CONTINUOUS
  5
36F
 10
472.503397
 20
404.621146
 30
0.0
 11
478.26741
 21
410.385159
 31
0.0
  0
ENDBLK
  8
0
  5
370
  0
BLOCK
  8
0
  5
372
  2
*X34
 70
    65
 10
300.232205
 20
395.020339
 30
0.0
  3
*X34
  0
LINE
  8
LC-007-005-----0
  6
CONTINUOUS
  5
373
 10
307.339098
 20
395.020339
 30
0.0
 11
307.348191
 21
395.029432
 31
0.0
  0
LINE
  8
LC-007-005-----0
  6
CONTINUOUS
  5
374
 10
310.217053
 20
397.898294
 30
0.0
 11
311.211995
 21
398.893236
 31
0.0
  0
LINE
  8
LC-007-005-----0
  6
CONTINUOUS
  5
375
 10
305.09153
 20
395.601198
 30
0.0
 11
307.442021
 21
397.951689
 31
0.0
  0
LINE
  8
LC-007-005-----0
  6
CONTINUOUS
  5
376
 10
307.915821
 20
398.425489
 30
0.0
 11
309.847139
 21
400.356807
 31
0.0
  0
LINE
  8
LC-007-005-----0
  6
CONTINUOUS
  5
377
 10
305.09153
 20
398.429625
 30
0.0
 11
308.482282
 21
401.820377
 31
0.0
  0
LINE
  8
LC-007-005-----0
  6
CONTINUOUS
  5
378
 10
311.213351
 20
404.551446
 30
0.0
 11
311.867677
 21
405.205772
 31
0.0
  0
LINE
  8
LC-007-005-----0
  6
CONTINUOUS
  5
379
 10
305.09153
 20
401.258053
 30
0.0
 11
307.34798
 21
403.514502
 31
0.0
  0
LINE
  8
LC-007-005-----0
  6
CONTINUOUS
  5
37A
 10
309.139644
 20
405.306166
 30
0.0
 11
310.50282
 21
406.669343
 31
0.0
  0
LINE
  8
LC-007-005-----0
  6
CONTINUOUS
  5
37B
 10
302.929317
 20
401.924266
 30
0.0
 11
303.373587
 21
402.368536
 31
0.0
  0
LINE
  8
LC-007-005-----0
  6
CONTINUOUS
  5
37C
 10
305.09153
 20
404.08648
 30
0.0
 11
309.137964
 21
408.132913
 31
0.0
  0
LINE
  8
LC-007-005-----0
  6
CONTINUOUS
  5
37D
 10
300.540731
 20
402.364108
 30
0.0
 11
303.373587
 21
405.196964
 31
0.0
  0
LINE
  8
LC-007-005-----0
  6
CONTINUOUS
  5
37E
 10
305.09153
 20
406.914907
 30
0.0
 11
307.773107
 21
409.596483
 31
0.0
  0
LINE
  8
LC-007-005-----0
  6
CONTINUOUS
  5
37F
 10
300.232205
 20
404.884009
 30
0.0
 11
305.699602
 21
410.351406
 31
0.0
  0
LINE
  8
LC-007-005-----0
  6
CONTINUOUS
  5
380
 10
300.232205
 20
407.712436
 30
0.0
 11
303.055978
 21
410.536209
 31
0.0
  0
LINE
  8
LC-007-005-----0
  6
CONTINUOUS
  5
381
 10
300.232205
 20
410.540863
 30
0.0
 11
300.412354
 21
410.721012
 31
0.0
  0
ENDBLK
  8
0
  5
382
  0
BLOCK
  8
0
  5
384
  2
BLK6
 70
    64
 10
0.0
 20
0.0
 30
0.0
  3
BLK6
  0
ENDBLK
  8
0
  5
385
  0
ENDSEC
  0
SECTION
  2
ENTITIES
  0
VIEWPORT
  8
LC-000
  5
633
 67
     1
 68
     1
 10
420.0
 20
297.0
 30
0.0
 40
840.0
 41
594.0
 69
     1
1001
ACAD
1000
MVIEW
1002
{
1070
    16
1010
0.0
1020
0.0
1030
0.0
1010
0.0
1020
0.0
1030
1.0
1040
0.0
1040
594.0
1040
420.0
1040
297.0
1040
50.0
1040
0.0
1040
0.0
1070
     0
1070
   100
1070
     1
1070
     1
1070
     0
1070
     0
1070
     0
1070
     0
1040
0.0
1040
0.0
1040
0.0
1040
1.0
1040
1.0
1040
0.0
1040
0.0
1070
     0
1002
{
1002
}
1002
}
  0
VIEWPORT
  8
0
  5
634
 67
     1
 68
     1
 10
0.0
 20
0.0
 30
0.0
 40
0.0
 41
0.0
 69
     1
1001
ACAD
1000
MVIEW
1002
{
1070
    16
1010
0.0
1020
0.0
1030
0.0
1010
0.0
1020
0.0
1030
1.0
1040
0.0
1040
594.0
1040
0.0
1040
0.0
1040
50.0
1040
0.0
1040
0.0
1070
     0
1070
   100
1070
     0
1070
     1
1070
     0
1070
     0
1070
     0
1070
     0
1040
0.0
1040
0.0
1040
0.0
1040
0.5
1040
0.5
1040
0.5
1040
0.5
1070
     0
1002
{
1002
}
1002
}
  0
INSERT
  8
0
  5
387
  2
BLK1
 10
0.0
 20
0.0
 30
0.0
  0
INSERT
  8
0
  5
388
  2
*X1
 10
350.270438
 20
325.246189
 30
0.0
  0
INSERT
  8
0
  5
389
  2
BLK2
 10
0.0
 20
0.0
 30
0.0
  0
DIMENSION
  8
0
  5
38A
  2
*D3
 10
391.767501
 20
470.4
 30
0.0
 11
391.767501
 21
470.4
 31
0.0
  1
%%c300
 13
241.617077
 23
413.543407
 33
0.0
 14
541.917925
 24
413.543407
 34
0.0
  3
LC-DIM-L-0140-02-02
  0
DIMENSION
  8
0
  5
38B
  2
*D4
 10
391.771364
 20
240.0
 30
0.0
 11
391.771364
 21
240.0
 31
0.0
  1
DN50
 13
366.771364
 23
254.159634
 33
0.0
 14
416.771365
 24
254.159634
 34
0.0
  3
LC-DIM-L-0140-02-02
  0
DIMENSION
  8
0
  5
38C
  2
*D5
 10
235.2
 20
358.650783
 30
0.0
 11
235.2
 21
358.650783
 31
0.0
  1
110
 13
241.617077
 23
413.543407
 33
0.0
 14
323.790441
 24
303.75816
 34
0.0
 50
90.0
  3
LC-DIM-L-0140-02-02
  0
DIMENSION
  8
0
  5
38D
  2
*D6
 10
280.0
 20
349.99619
 30
0.0
 11
280.0
 21
349.99619
 31
0.0
  1
50
 13
350.270442
 23
325.246189
 33
0.0
 14
360.512724
 24
374.746192
 34
0.0
 50
90.0
  3
LC-DIM-L-0140-02-02
  0
INSERT
  8
0
  5
38E
  2
BLK3
 10
0.0
 20
0.0
 30
0.0
  0
INSERT
  8
0
  5
38F
  2
BLK4
 10
0.0
 20
0.0
 30
0.0
  0
DIMENSION
  8
0
  5
390
  2
*D9
 10
391.79025
 20
196.0
 30
0.0
 11
391.79025
 21
196.0
 31
0.0
  1
%%c160
 13
311.880342
 23
314.708769
 33
0.0
 14
471.700159
 24
232.848
 34
0.0
  3
LC-DIM-L-0140-02-02
  0
DIMENSION
  8
0
  5
391
  2
*D10
 10
391.776244
 20
431.109454
 30
0.0
 11
391.776244
 21
431.109454
 31
0.0
 70
     1
  1
%%c190
 13
297.266463
 23
404.292919
 33
0.0
 14
486.273617
 24
404.249231
 34
0.0
  3
LC-DIM-L-0140-02-02
  0
INSERT
  8
0
  5
392
  2
*X11
 10
282.421211
 20
385.402237
 30
0.0
  0
INSERT
  8
0
  5
393
  2
*X12
 10
141.973496
 20
416.61272
 30
0.0
  0
INSERT
  8
0
  5
394
  2
*X13
 10
161.973496
 20
416.61272
 30
0.0
  0
INSERT
  8
0
  5
395
  2
*X14
 10
181.973496
 20
416.61272
 30
0.0
  0
INSERT
  8
0
  5
396
  2
*X15
 10
201.973496
 20
416.61272
 30
0.0
  0
INSERT
  8
0
  5
397
  2
*X16
 10
221.973496
 20
416.61272
 30
0.0
  0
INSERT
  8
0
  5
398
  2
*X17
 10
241.973496
 20
415.837208
 30
0.0
  0
INSERT
  8
0
  5
399
  2
*X18
 10
261.973496
 20
414.450914
 30
0.0
  0
INSERT
  8
0
  5
39A
  2
*X19
 10
268.161274
 20
410.993265
 30
0.0
  0
INSERT
  8
0
  5
39B
  2
*X20
 10
460.283103
 20
392.002904
 30
0.0
  0
INSERT
  8
0
  5
39C
  2
*X21
 10
313.283103
 20
392.002904
 30
0.0
  0
INSERT
  8
0
  5
39D
  2
*X22
 10
631.592711
 20
416.61272
 30
0.0
  0
INSERT
  8
0
  5
39E
  2
*X23
 10
611.592711
 20
416.61272
 30
0.0
  0
INSERT
  8
0
  5
39F
  2
*X24
 10
591.592711
 20
416.61272
 30
0.0
  0
INSERT
  8
0
  5
3A0
  2
*X25
 10
571.592711
 20
416.61272
 30
0.0
  0
INSERT
  8
0
  5
3A1
  2
*X26
 10
551.592711
 20
416.61272
 30
0.0
  0
INSERT
  8
0
  5
3A2
  2
*X27
 10
531.592711
 20
415.837208
 30
0.0
  0
INSERT
  8
0
  5
3A3
  2
*X28
 10
511.592711
 20
414.450914
 30
0.0
  0
INSERT
  8
0
  5
3A4
  2
*X29
 10
468.681925
 20
410.993265
 30
0.0
  0
INSERT
  8
0
  5
3A5
  2
*X30
 10
464.045498
 20
385.402237
 30
0.0
  0
INSERT
  8
0
  5
3A6
  2
BLK5
 10
0.0
 20
0.0
 30
0.0
  0
DIMENSION
  8
0
  5
3A7
  2
*D32
 10
391.783103
 20
509.6
 30
0.0
 11
391.783103
 21
509.6
 31
0.0
  1
%%c500
 13
141.973496
 23
421.31272
 33
0.0
 14
641.592711
 24
421.31272
 34
0.0
  3
LC-DIM-L-0140-02-02
  0
INSERT
  8
0
  5
3A8
  2
*X33
 10
471.170369
 20
395.023893
 30
0.0
  0
INSERT
  8
0
  5
3A9
  2
*X34
 10
300.232205
 20
395.020339
 30
0.0
  0
INSERT
  8
0
  5
3AA
  2
BLK6
 10
0.0
 20
0.0
 30
0.0
  0
LINE
  8
LC-001-103-D00-1
  6
CONTINUOUS
  5
3AC
 10
416.771365
 20
254.159634
 30
0.0
 11
415.837271
 21
250.673593
 31
0.0
  0
ARC
  8
LC-002-002-----0
  6
CONTINUOUS
  5
3AE
 10
459.752245
 20
315.710441
 30
0.0
 40
11.952134
 50
269.999963
 51
0.0
  0
LINE
  8
LC-002-002-----0
  6
CONTINUOUS
  5
3AF
 10
426.179906
 20
303.758346
 30
0.0
 11
426.179906
 21
303.811049
 31
0.0
  0
ARC
  8
LC-003-002-RND-0
  6
CONTINUOUS
  5
3B1
 10
243.617077
 20
414.394
 30
0.0
 40
2.0
 50
86.000003
 51
180.0
  0
LINE
  8
LC-002-002-----0
  6
CONTINUOUS
  5
3B2
 10
357.355255
 20
306.746193
 30
0.0
 11
358.401067
 21
306.746193
 31
0.0
  0
LINE
  8
LC-002-002-----0
  6
CONTINUOUS
  5
3B3
 10
426.179908
 20
306.746193
 30
0.0
 11
426.179908
 21
306.746193
 31
0.0
  0
LINE
  8
LC-002-002-----0
  6
CONTINUOUS
  5
3B4
 10
305.36561
 20
401.402239
 30
0.0
 11
305.36561
 21
407.876311
 31
0.0
  0
LINE
  8
LC-002-002-----0
  6
CONTINUOUS
  5
3B5
 10
303.373587
 20
407.876311
 30
0.0
 11
305.36561
 21
407.876311
 31
0.0
  0
LINE
  8
LC-002-002-----0
  6
CONTINUOUS
  5
3B6
 10
478.169393
 20
401.402239
 30
0.0
 11
478.169393
 21
407.876311
 31
0.0
  0
LINE
  8
LC-002-002-----0
  6
CONTINUOUS
  5
3B7
 10
480.161415
 20
407.876311
 30
0.0
 11
478.169393
 21
407.876311
 31
0.0
  0
LINE
  8
LC-002-002-----0
  6
CONTINUOUS
  5
3B8
 10
480.161415
 20
401.900244
 30
0.0
 11
480.161415
 21
407.876311
 31
0.0
  0
LINE
  8
LC-002-002-----0
  6
CONTINUOUS
  5
3B9
 10
303.373587
 20
401.900244
 30
0.0
 11
303.373587
 21
407.876311
 31
0.0
  0
LINE
  8
LC-002-002-----0
  6
CONTINUOUS
  5
3BA
 10
301.381565
 20
401.900244
 30
0.0
 11
303.373587
 21
401.900244
 31
0.0
  0
LINE
  8
LC-002-002-----0
  6
CONTINUOUS
  5
3BB
 10
314.577337
 20
315.710294
 30
0.0
 11
314.577337
 21
381.229458
 31
0.0
  0
ARC
  8
LC-002-002-----0
  6
CONTINUOUS
  5
3BC
 10
323.790441
 20
315.710294
 30
0.0
 40
11.952134
 50
180.0
 51
270.0
  0
LINE
  8
LC-002-002-----0
  6
CONTINUOUS
  5
3BD
 10
314.029531
 20
389.645753
 30
0.0
 11
314.228734
 21
389.645753
 31
0.0
  0
LINE
  8
LC-002-002-----0
  6
CONTINUOUS
  5
3BE
 10
305.364234
 20
390.940568
 30
0.0
 11
305.364234
 21
407.872758
 31
0.0
  0
LINE
  8
LC-002-002-----0
  6
CONTINUOUS
  5
3BF
 10
482.153437
 20
401.900244
 30
0.0
 11
480.161415
 21
401.900244
 31
0.0
  0
LINE
  8
LC-002-002-----0
  6
CONTINUOUS
  5
3C0
 10
314.029531
 20
386.159714
 30
0.0
 11
314.029531
 21
387.653731
 31
0.0
  0
LINE
  8
LC-002-002-----0
  6
CONTINUOUS
  5
3C1
 10
314.029531
 20
382.723475
 30
0.0
 11
314.029531
 21
383.221481
 31
0.0
  0
LINE
  8
LC-002-002-----0
  6
CONTINUOUS
  5
3C2
 10
314.029531
 20
381.229458
 30
0.0
 11
314.029531
 21
384.167691
 31
0.0
  0
LINE
  8
LC-002-002-----0
  6
CONTINUOUS
  5
3C3
 10
314.029531
 20
381.229458
 30
0.0
 11
314.577337
 21
381.229458
 31
0.0
  0
LINE
  8
LC-002-002-----0
  6
CONTINUOUS
  5
3C4
 10
314.029531
 20
384.167691
 30
0.0
 11
314.228734
 21
384.167691
 31
0.0
  0
LINE
  8
LC-002-002-----0
  6
CONTINUOUS
  5
3C5
 10
315.025543
 20
384.9645
 30
0.0
 11
315.025543
 21
385.362905
 31
0.0
  0
LINE
  8
LC-002-002-----0
  6
CONTINUOUS
  5
3C6
 10
315.025543
 20
388.45054
 30
0.0
 11
315.025543
 21
388.848944
 31
0.0
  0
LINE
  8
LC-002-002-----0
  6
CONTINUOUS
  5
3C7
 10
314.029531
 20
387.653731
 30
0.0
 11
314.228734
 21
387.653731
 31
0.0
  0
ARC
  8
LC-002-002-----0
  6
CONTINUOUS
  5
3C8
 10
314.228734
 20
388.848944
 30
0.0
 40
0.796809
 50
0.0
 51
90.0
  0
ARC
  8
LC-002-002-----0
  6
CONTINUOUS
  5
3C9
 10
314.228734
 20
385.362905
 30
0.0
 40
0.796809
 50
0.0
 51
90.0
  0
LINE
  8
LC-002-002-----0
  6
CONTINUOUS
  5
3CA
 10
281.827975
 20
411.790864
 30
0.0
 11
299.935192
 21
410.463854
 31
0.0
  0
LINE
  8
LC-002-002-----0
  6
CONTINUOUS
  5
3CB
 10
301.329357
 20
401.896691
 30
0.0
 11
303.372211
 21
401.896691
 31
0.0
  0
ARC
  8
LC-002-002-----0
  6
CONTINUOUS
  5
3CC
 10
314.228734
 20
384.9645
 30
0.0
 40
0.796809
 50
270.0
 51
0.0
  0
ARC
  8
LC-002-002-----0
  6
CONTINUOUS
  5
3CD
 10
314.228734
 20
388.45054
 30
0.0
 40
0.796809
 50
270.0
 51
0.0
  0
LINE
  8
LC-002-002-----0
  6
CONTINUOUS
  5
3CE
 10
468.957665
 20
315.710294
 30
0.0
 11
468.957665
 21
381.229458
 31
0.0
  0
ARC
  8
LC-002-002-----0
  6
CONTINUOUS
  5
3CF
 10
305.862239
 20
390.940568
 30
0.0
 40
0.498006
 50
180.0
 51
270.0
  0
LINE
  8
LC-002-002-----0
  6
CONTINUOUS
  5
3D0
 10
303.372211
 20
401.896691
 30
0.0
 11
303.372211
 21
407.872758
 31
0.0
  0
LINE
  8
LC-002-002-----0
  6
CONTINUOUS
  5
3D1
 10
243.75659
 20
416.389128
 30
0.0
 11
275.957901
 21
414.137395
 31
0.0
  0
ARC
  8
LC-002-002-----0
  6
CONTINUOUS
  5
3D2
 10
301.329357
 20
402.892702
 30
0.0
 40
0.996011
 50
183.0
 51
270.0
  0
LINE
  8
LC-002-002-----0
  6
CONTINUOUS
  5
3D3
 10
241.617077
 20
413.543407
 30
0.0
 11
274.807532
 21
411.222507
 31
0.0
  0
LINE
  8
LC-002-002-----0
  6
CONTINUOUS
  5
3D4
 10
299.935192
 20
410.463854
 30
0.0
 11
300.334711
 21
402.840575
 31
0.0
  0
LINE
  8
LC-002-002-----0
  6
CONTINUOUS
  5
3D5
 10
241.617077
 20
414.394
 30
0.0
 11
241.617077
 21
413.543407
 31
0.0
  0
LINE
  8
LC-002-002-----0
  6
CONTINUOUS
  5
3D6
 10
469.505471
 20
389.645753
 30
0.0
 11
469.306269
 21
389.645753
 31
0.0
  0
LINE
  8
LC-002-002-----0
  6
CONTINUOUS
  5
3D7
 10
297.158785
 20
406.347523
 30
0.0
 11
297.37414
 21
402.238315
 31
0.0
  0
LINE
  8
LC-002-002-----0
  6
CONTINUOUS
  5
3D8
 10
274.807532
 20
411.222507
 30
0.0
 11
280.677606
 21
408.875975
 31
0.0
  0
ARC
  8
LC-003-002-RND-0
  6
CONTINUOUS
  5
3D9
 10
539.917925
 20
414.394
 30
0.0
 40
2.0
 50
0.0
 51
93.999996
  0
LINE
  8
LC-002-002-----0
  6
CONTINUOUS
  5
3DA
 10
314.029531
 20
386.159714
 30
0.0
 11
314.228734
 21
386.159714
 31
0.0
  0
LINE
  8
LC-002-002-----0
  6
CONTINUOUS
  5
3DB
 10
478.170768
 20
390.940568
 30
0.0
 11
478.170768
 21
407.872758
 31
0.0
  0
LINE
  8
LC-002-002-----0
  6
CONTINUOUS
  5
3DC
 10
469.505471
 20
386.159714
 30
0.0
 11
469.505471
 21
387.653731
 31
0.0
  0
LINE
  8
LC-002-002-----0
  6
CONTINUOUS
  5
3DD
 10
469.505471
 20
382.723475
 30
0.0
 11
469.505471
 21
383.221481
 31
0.0
  0
LINE
  8
LC-002-002-----0
  6
CONTINUOUS
  5
3DE
 10
469.505471
 20
381.229458
 30
0.0
 11
469.505471
 21
384.167691
 31
0.0
  0
ARC
  8
LC-002-002-----0
  6
CONTINUOUS
  5
3DF
 10
323.541438
 20
315.710294
 30
0.0
 40
8.964101
 50
180.0
 51
270.0
  0
ARC
  8
LC-004-001-RND-0
  6
CONTINUOUS
  5
3E1
 10
295.666815
 20
406.269333
 30
0.0
 40
1.494017
 50
3.0
 51
86.000003
  0
LINE
  8
LC-002-002-----0
  6
CONTINUOUS
  5
3E2
 10
469.505471
 20
381.229458
 30
0.0
 11
468.957665
 21
381.229458
 31
0.0
  0
LINE
  8
LC-002-002-----0
  6
CONTINUOUS
  5
3E3
 10
469.505471
 20
384.167691
 30
0.0
 11
469.306269
 21
384.167691
 31
0.0
  0
LINE
  8
LC-002-002-----0
  6
CONTINUOUS
  5
3E4
 10
468.50946
 20
384.9645
 30
0.0
 11
468.50946
 21
385.362905
 31
0.0
  0
LINE
  8
LC-002-002-----0
  6
CONTINUOUS
  5
3E5
 10
468.50946
 20
388.45054
 30
0.0
 11
468.50946
 21
388.848944
 31
0.0
  0
LINE
  8
LC-002-002-----0
  6
CONTINUOUS
  5
3E6
 10
469.505471
 20
387.653731
 30
0.0
 11
469.306269
 21
387.653731
 31
0.0
  0
LINE
  8
LC-002-002-----0
  6
CONTINUOUS
  5
3E7
 10
501.12783
 20
411.7479
 30
0.0
 11
483.599811
 21
410.463854
 31
0.0
  0
ARC
  8
LC-002-002-----0
  6
CONTINUOUS
  5
3E8
 10
469.306269
 20
388.848944
 30
0.0
 40
0.796809
 50
90.0
 51
180.0
  0
ARC
  8
LC-002-002-----0
  6
CONTINUOUS
  5
3E9
 10
469.306269
 20
385.362905
 30
0.0
 40
0.796809
 50
90.0
 51
180.0
  0
LINE
  8
LC-002-002-----0
  6
CONTINUOUS
  5
3EA
 10
482.205646
 20
401.896691
 30
0.0
 11
480.162791
 21
401.896691
 31
0.0
  0
LINE
  8
LC-002-002-----0
  6
CONTINUOUS
  5
3EB
 10
480.162791
 20
401.896691
 30
0.0
 11
480.162791
 21
407.872758
 31
0.0
  0
ARC
  8
LC-002-002-----0
  6
CONTINUOUS
  5
3EC
 10
469.306269
 20
384.9645
 30
0.0
 40
0.796809
 50
180.0
 51
270.0
  0
ARC
  8
LC-002-002-----0
  6
CONTINUOUS
  5
3ED
 10
469.306269
 20
388.45054
 30
0.0
 40
0.796809
 50
180.0
 51
270.0
  0
LINE
  8
LC-002-002-----0
  6
CONTINUOUS
  5
3EE
 10
539.778412
 20
416.389128
 30
0.0
 11
508.300692
 21
414.187993
 31
0.0
  0
ARC
  8
LC-002-002-----0
  6
CONTINUOUS
  5
3EF
 10
477.672763
 20
390.940568
 30
0.0
 40
0.498006
 50
270.0
 51
0.0
  0
LINE
  8
LC-002-002-----0
  6
CONTINUOUS
  5
3F0
 10
541.917925
 20
413.543407
 30
0.0
 11
509.451062
 21
411.273105
 31
0.0
  0
LINE
  8
LC-002-002-----0
  6
CONTINUOUS
  5
3F1
 10
483.599811
 20
410.463854
 30
0.0
 11
483.200291
 21
402.840575
 31
0.0
  0
ARC
  8
LC-002-002-----0
  6
CONTINUOUS
  5
3F2
 10
482.205646
 20
402.892702
 30
0.0
 40
0.996011
 50
270.0
 51
357.0
  0
LINE
  8
LC-002-002-----0
  6
CONTINUOUS
  5
3F3
 10
541.917925
 20
414.394
 30
0.0
 11
541.917925
 21
413.543407
 31
0.0
  0
LINE
  8
LC-002-002-----0
  6
CONTINUOUS
  5
3F4
 10
486.376217
 20
406.347523
 30
0.0
 11
486.160863
 21
402.238315
 31
0.0
  0
LINE
  8
LC-002-002-----0
  6
CONTINUOUS
  5
3F5
 10
509.451062
 20
411.273105
 30
0.0
 11
503.597343
 21
408.927209
 31
0.0
  0
LINE
  8
LC-002-002-----0
  6
CONTINUOUS
  5
3F6
 10
469.505471
 20
386.159714
 30
0.0
 11
469.306269
 21
386.159714
 31
0.0
  0
LINE
  8
LC-002-002-----0
  6
CONTINUOUS
  5
3F7
 10
480.909799
 20
391.438573
 30
0.0
 11
471.70438
 21
378.291871
 31
0.0
  0
LINE
  8
LC-002-002-----0
  6
CONTINUOUS
  5
3F8
 10
483.176924
 20
399.406663
 30
0.0
 11
482.901821
 21
399.406663
 31
0.0
  0
LINE
  8
LC-002-002-----0
  6
CONTINUOUS
  5
3F9
 10
302.625203
 20
391.438573
 30
0.0
 11
311.838307
 21
378.280898
 31
0.0
  0
LINE
  8
LC-005-001-----0
  6
CONTINUOUS
  5
3FB
 10
503.597343
 20
408.927209
 30
0.0
 11
487.763969
 21
407.75971
 31
0.0
  0
ARC
  8
LC-002-002-----0
  6
CONTINUOUS
  5
3FC
 10
459.993564
 20
315.710294
 30
0.0
 40
8.964101
 50
270.0
 51
0.0
  0
ARC
  8
LC-004-001-RND-0
  6
CONTINUOUS
  5
3FD
 10
487.868187
 20
406.269333
 30
0.0
 40
1.494017
 50
93.999997
 51
177.0
  0
LINE
  8
LC-002-002-----0
  6
CONTINUOUS
  5
3FE
 10
300.358078
 20
399.406663
 30
0.0
 11
300.633181
 21
399.406663
 31
0.0
  0
LINE
  8
LC-005-001-----0
  6
CONTINUOUS
  5
3FF
 10
280.677606
 20
408.875975
 30
0.0
 11
295.771034
 21
407.75971
 31
0.0
  0
LINE
  8
LC-002-002-----0
  6
CONTINUOUS
  5
400
 10
302.625203
 20
391.438573
 30
0.0
 11
302.625203
 21
397.41464
 31
0.0
  0
LINE
  8
LC-002-002-----0
  6
CONTINUOUS
  5
401
 10
305.862239
 20
390.442562
 30
0.0
 11
313.232722
 21
390.442562
 31
0.0
  0
LINE
  8
LC-002-002-----0
  6
CONTINUOUS
  5
402
 10
305.364234
 20
391.936579
 30
0.0
 11
305.364234
 21
393.230778
 31
0.0
  0
LINE
  8
LC-002-002-----0
  6
CONTINUOUS
  5
403
 10
480.909799
 20
391.438573
 30
0.0
 11
480.909799
 21
397.41464
 31
0.0
  0
ARC
  8
LC-002-002-----0
  6
CONTINUOUS
  5
404
 10
300.358078
 20
402.394696
 30
0.0
 40
2.988034
 50
183.0
 51
270.0
  0
ARC
  8
LC-002-002-----0
  6
CONTINUOUS
  5
405
 10
300.633181
 20
397.41464
 30
0.0
 40
1.992022
 50
0.0
 51
90.0
  0
LINE
  8
LC-002-002-----0
  6
CONTINUOUS
  5
406
 10
303.372211
 20
407.872758
 30
0.0
 11
305.364234
 21
407.872758
 31
0.0
  0
LINE
  8
LC-002-002-----0
  6
CONTINUOUS
  5
407
 10
314.029531
 20
382.474472
 30
0.0
 11
314.029531
 21
382.972478
 31
0.0
  0
LINE
  8
LC-002-002-----0
  6
CONTINUOUS
  5
408
 10
305.364234
 20
391.936579
 30
0.0
 11
305.364234
 21
393.230778
 31
0.0
  0
ARC
  8
LC-002-002-----0
  6
CONTINUOUS
  5
409
 10
483.176924
 20
402.394696
 30
0.0
 40
2.988034
 50
270.0
 51
357.0
  0
LINE
  8
LC-002-002-----0
  6
CONTINUOUS
  5
40A
 10
477.672763
 20
390.442562
 30
0.0
 11
470.30228
 21
390.442562
 31
0.0
  0
ARC
  8
LC-002-002-----0
  6
CONTINUOUS
  5
40B
 10
482.901821
 20
397.41464
 30
0.0
 40
1.992022
 50
90.0
 51
180.0
  0
LINE
  8
LC-002-002-----0
  6
CONTINUOUS
  5
40C
 10
314.029531
 20
382.673675
 30
0.0
 11
314.029531
 21
383.17168
 31
0.0
  0
LINE
  8
LC-002-002-----0
  6
CONTINUOUS
  5
40D
 10
478.170768
 20
391.936579
 30
0.0
 11
478.170768
 21
393.230778
 31
0.0
  0
LINE
  8
LC-002-002-----0
  6
CONTINUOUS
  5
40E
 10
480.162791
 20
407.872758
 30
0.0
 11
478.170768
 21
407.872758
 31
0.0
  0
LINE
  8
LC-002-002-----0
  6
CONTINUOUS
  5
40F
 10
469.505471
 20
382.474472
 30
0.0
 11
469.505471
 21
382.972478
 31
0.0
  0
LINE
  8
LC-002-002-----0
  6
CONTINUOUS
  5
410
 10
275.957901
 20
414.137395
 30
0.0
 11
281.827975
 21
411.790864
 31
0.0
  0
LINE
  8
LC-002-002-----0
  6
CONTINUOUS
  5
411
 10
478.170768
 20
391.936579
 30
0.0
 11
478.170768
 21
393.230778
 31
0.0
  0
LINE
  8
LC-002-002-----0
  6
CONTINUOUS
  5
412
 10
469.505471
 20
382.673675
 30
0.0
 11
469.505471
 21
383.17168
 31
0.0
  0
LINE
  8
LC-002-002-----0
  6
CONTINUOUS
  5
413
 10
508.300692
 20
414.187993
 30
0.0
 11
501.12783
 21
411.7479
 31
0.0
  0
LINE
  8
LC-002-002-----0
  6
CONTINUOUS
  5
414
 10
459.752238
 20
303.758307
 30
0.0
 11
423.178115
 21
303.758342
 31
0.0
  0
LINE
  8
LC-002-002-----0
  6
CONTINUOUS
  5
415
 10
360.364601
 20
303.75816
 30
0.0
 11
323.790441
 21
303.75816
 31
0.0
  0
ARC
  8
LC-002-002-----0
  6
CONTINUOUS
  5
416
 10
313.232722
 20
389.645753
 30
0.0
 40
0.796809
 50
0.0
 51
90.0
  0
LINE
  8
LC-002-002-----0
  6
CONTINUOUS
  5
417
 10
323.541438
 20
306.746193
 30
0.0
 11
357.355255
 21
306.746193
 31
0.0
  0
ARC
  8
LC-002-002-----0
  6
CONTINUOUS
  5
418
 10
470.30228
 20
389.645753
 30
0.0
 40
0.796809
 50
90.0
 51
180.0
  0
LINE
  8
LC-002-002-----0
  6
CONTINUOUS
  5
419
 10
459.993564
 20
306.746193
 30
0.0
 11
425.134064
 21
306.746193
 31
0.0
  0
LINE
  8
LC-001-103-D00-1
  6
CONTINUOUS
  5
41A
 10
415.837271
 20
250.673593
 30
0.0
 11
413.67999
 21
250.673593
 31
0.0
  0
LINE
  8
LC-001-103-D00-1
  6
CONTINUOUS
  5
41B
 10
413.67999
 20
250.673593
 30
0.0
 11
413.680072
 21
302.746193
 31
0.0
  0
LINE
  8
LC-002-002-----0
  6
CONTINUOUS
  5
41C
 10
413.67999
 20
250.673593
 30
0.0
 11
369.862741
 21
250.673593
 31
0.0
  0
LINE
  8
LC-002-002-----0
  6
CONTINUOUS
  5
41D
 10
350.270449
 20
381.229458
 30
0.0
 11
314.577337
 21
381.229458
 31
0.0
  0
LINE
  8
LC-002-002-----0
  6
CONTINUOUS
  5
41E
 10
413.680072
 20
302.746193
 30
0.0
 11
369.855195
 21
302.746179
 31
0.0
  0
LINE
  8
LC-002-002-----0
  6
CONTINUOUS
  5
41F
 10
411.768941
 20
305.453142
 30
0.0
 11
416.974656
 21
306.84801
 31
0.0
  0
LINE
  8
LC-001-103-D00-1
  6
CONTINUOUS
  5
420
 10
366.771364
 20
254.159634
 30
0.0
 11
367.705459
 21
250.673593
 31
0.0
  0
LINE
  8
LC-001-103-D00-1
  6
CONTINUOUS
  5
421
 10
367.705459
 20
250.673593
 30
0.0
 11
369.862741
 21
250.673593
 31
0.0
  0
LINE
  8
LC-001-103-D00-1
  6
CONTINUOUS
  5
422
 10
369.862741
 20
250.673593
 30
0.0
 11
369.862643
 21
302.746179
 31
0.0
  0
LINE
  8
LC-002-002-----0
  6
CONTINUOUS
  5
423
 10
471.70438
 20
315.710441
 30
0.0
 11
471.70438
 21
378.291871
 31
0.0
  0
LINE
  8
LC-002-002-----0
  6
CONTINUOUS
  5
424
 10
366.568056
 20
306.847994
 30
0.0
 11
371.768941
 21
305.454421
 31
0.0
  0
LINE
  8
LC-002-002-----0
  6
CONTINUOUS
  5
425
 10
371.768941
 20
305.454421
 30
0.0
 11
411.768941
 21
305.454421
 31
0.0
  0
LINE
  8
LC-002-002-----0
  6
CONTINUOUS
  5
426
 10
408.481827
 20
374.746193
 30
0.0
 11
419.929692
 21
374.746193
 31
0.0
  0
ARC
  8
LC-001-103-D00-1
  6
CONTINUOUS
  5
427
 10
425.134064
 20
309.734239
 30
0.0
 40
2.988044
 50
180.0
 51
270.000071
  0
ARC
  8
LC-001-103-D00-1
  6
CONTINUOUS
  5
428
 10
358.401067
 20
309.734239
 30
0.0
 40
2.988046
 50
270.0
 51
0.0
  0
LINE
  8
LC-001-103-D00-1
  6
CONTINUOUS
 62
     4
  5
429
 10
413.680041
 20
303.758357
 30
0.0
 11
413.680057
 21
303.758357
 31
0.0
  0
ARC
  8
LC-001-103-D00-1
  6
CONTINUOUS
  5
42A
 10
416.201293
 20
309.734239
 30
0.0
 40
2.988045
 50
285.0
 51
359.394775
  0
LINE
  8
LC-002-002-----0
  6
CONTINUOUS
  5
42B
 10
411.773713
 20
305.454421
 30
0.0
 11
411.773713
 21
302.746192
 31
0.0
  0
LINE
  8
LC-002-002-----0
  6
CONTINUOUS
  5
42C
 10
371.768941
 20
305.454421
 30
0.0
 11
371.768941
 21
302.74618
 31
0.0
  0
LINE
  8
LC-002-002-----0
  6
CONTINUOUS
  5
42D
 10
416.771365
 20
304.205347
 30
0.0
 11
420.126748
 21
305.10442
 31
0.0
  0
LINE
  8
LC-002-002-----0
  6
CONTINUOUS
  5
42E
 10
363.415964
 20
305.104404
 30
0.0
 11
366.771351
 21
304.205331
 31
0.0
  0
LINE
  8
LC-002-002-----0
  6
CONTINUOUS
  5
42F
 10
357.355255
 20
303.75816
 30
0.0
 11
357.355255
 21
303.75816
 31
0.0
  0
LINE
  8
LC-002-002-----0
  6
CONTINUOUS
  5
430
 10
426.179897
 20
303.758336
 30
0.0
 11
426.179906
 21
303.758346
 31
0.0
  0
LINE
  8
LC-002-002-----0
  6
CONTINUOUS
  5
431
 10
406.731825
 20
372.246193
 30
0.0
 11
419.90123
 21
372.246193
 31
0.0
  0
ARC
  8
LC-002-002-----0
  6
CONTINUOUS
  5
432
 10
421.228078
 20
373.481249
 30
0.0
 40
1.812703
 50
135.74746
 51
222.947976
  0
LINE
  8
LC-002-002-----0
  6
CONTINUOUS
  5
433
 10
419.929692
 20
374.746193
 30
0.0
 11
422.146003
 21
374.746193
 31
0.0
  0
ARC
  8
LC-002-002-----0
  6
CONTINUOUS
  5
434
 10
362.438781
 20
373.483849
 30
0.0
 40
1.812638
 50
316.937765
 51
44.139908
  0
LINE
  8
LC-001-103-D00-1
  6
CONTINUOUS
  5
435
 10
416.771365
 20
304.205347
 30
0.0
 11
416.771365
 21
254.159634
 31
0.0
  0
ARC
  8
LC-001-103-D00-1
  6
CONTINUOUS
  5
436
 10
421.221307
 20
305.864337
 30
0.0
 40
0.489202
 50
33.69001
 51
146.309906
  0
LINE
  8
LC-001-103-D00-1
  6
CONTINUOUS
  5
437
 10
420.126748
 20
305.10442
 30
0.0
 11
420.814267
 21
306.135699
 31
0.0
  0
LINE
  8
LC-001-103-D00-1
  6
CONTINUOUS
  5
438
 10
423.178115
 20
303.811049
 30
0.0
 11
421.628349
 21
306.135699
 31
0.0
  0
ARC
  8
LC-001-103-D00-1
  6
CONTINUOUS
  5
439
 10
367.341419
 20
309.734224
 30
0.0
 40
2.988045
 50
180.605255
 51
255.0
  0
ARC
  8
LC-001-103-D00-1
  6
CONTINUOUS
  5
43A
 10
362.321407
 20
305.864315
 30
0.0
 40
0.489202
 50
33.69014
 51
146.310028
  0
LINE
  8
LC-001-103-D00-1
  6
CONTINUOUS
  5
43B
 10
363.415964
 20
305.104404
 30
0.0
 11
362.728447
 21
306.135676
 31
0.0
  0
LINE
  8
LC-001-103-D00-1
  6
CONTINUOUS
  5
43C
 10
360.364601
 20
303.811027
 30
0.0
 11
361.914365
 21
306.135676
 31
0.0
  0
LINE
  8
LC-001-103-D00-1
  6
CONTINUOUS
  5
43D
 10
366.771351
 20
304.205331
 30
0.0
 11
366.771364
 21
254.159634
 31
0.0
  0
LINE
  8
LC-001-103-D00-1
  6
CONTINUOUS
  5
43E
 10
419.90123
 20
372.246193
 30
0.0
 11
419.189175
 21
309.702708
 31
0.0
  0
LINE
  8
LC-001-103-D00-1
  6
CONTINUOUS
  5
43F
 10
422.146003
 20
374.746193
 30
0.0
 11
422.146003
 21
309.734239
 31
0.0
  0
LINE
  8
LC-001-103-D00-1
  6
CONTINUOUS
  5
440
 10
361.389069
 20
374.746193
 30
0.0
 11
361.389069
 21
309.734239
 31
0.0
  0
LINE
  8
LC-001-103-D00-1
  6
CONTINUOUS
  5
441
 10
363.763117
 20
372.246193
 30
0.0
 11
364.351271
 21
309.708202
 31
0.0
  0
LINE
  8
LC-002-002-----0
  6
CONTINUOUS
  5
442
 10
425.771343
 20
306.746193
 30
0.0
 11
426.179908
 21
306.746193
 31
0.0
  0
LINE
  8
LC-002-002-----0
  6
CONTINUOUS
  5
443
 10
350.270438
 20
385.246192
 30
0.0
 11
350.270608
 21
325.246357
 31
0.0
  0
LINE
  8
LC-002-002-----0
  6
CONTINUOUS
  5
444
 10
351.270438
 20
385.246192
 30
0.0
 11
351.270608
 21
325.246357
 31
0.0
  0
LINE
  8
LC-002-002-----0
  6
CONTINUOUS
  5
445
 10
351.270608
 20
325.246357
 30
0.0
 11
350.270442
 21
325.246189
 31
0.0
  0
LINE
  8
LC-002-002-----0
  6
CONTINUOUS
  5
446
 10
351.270608
 20
325.246357
 30
0.0
 11
361.389069
 21
325.246357
 31
0.0
  0
ARC
  8
LC-002-002-----0
  6
CONTINUOUS
  5
447
 10
361.270438
 20
385.246192
 30
0.0
 40
10.0
 50
94.313709
 51
179.999848
  0
ARC
  8
LC-003-002-RND-0
  6
CONTINUOUS
  5
448
 10
362.270438
 20
385.246192
 30
0.0
 40
12.0
 50
90.0
 51
180.0
  0
LINE
  8
LC-002-002-----0
  6
CONTINUOUS
  5
449
 10
421.270656
 20
397.246363
 30
0.0
 11
405.520437
 21
397.246374
 31
0.0
  0
LINE
  8
LC-002-002-----0
  6
CONTINUOUS
  5
44A
 10
422.270655
 20
395.246363
 30
0.0
 11
393.213814
 21
395.246363
 31
0.0
  0
LINE
  8
LC-002-002-----0
  6
CONTINUOUS
  5
44B
 10
362.270438
 20
397.246192
 30
0.0
 11
378.02044
 21
397.246192
 31
0.0
  0
ARC
  8
LC-003-002-RND-0
  6
CONTINUOUS
  5
44C
 10
396.520436
 20
398.246192
 30
0.0
 40
9.0
 50
0.000006
 51
90.000006
  0
ARC
  8
LC-002-002-----0
  6
CONTINUOUS
  5
44D
 10
422.270649
 20
385.246363
 30
0.0
 40
10.0
 50
0.000096
 51
89.999963
  0
ARC
  8
LC-002-002-----0
  6
CONTINUOUS
  5
44E
 10
421.270649
 20
385.246363
 30
0.0
 40
12.0
 50
0.000096
 51
89.999963
  0
LINE
  8
LC-002-002-----0
  6
CONTINUOUS
  5
44F
 10
433.270647
 20
385.246355
 30
0.0
 11
433.270608
 21
325.246355
 31
0.0
  0
LINE
  8
LC-002-002-----0
  6
CONTINUOUS
  5
450
 10
432.270647
 20
385.246357
 30
0.0
 11
432.270773
 21
325.246521
 31
0.0
  0
LINE
  8
LC-002-002-----0
  6
CONTINUOUS
  5
451
 10
432.270773
 20
325.246521
 30
0.0
 11
433.270608
 21
325.246355
 31
0.0
  0
LINE
  8
LC-002-002-----0
  6
CONTINUOUS
  5
452
 10
360.512724
 20
374.746192
 30
0.0
 11
360.518275
 21
395.255213
 31
0.0
  0
LINE
  8
LC-002-002-----0
  6
CONTINUOUS
  5
453
 10
393.206099
 20
366.746192
 30
0.0
 11
364.95055
 21
366.746192
 31
0.0
  0
LINE
  8
LC-002-002-----0
  6
CONTINUOUS
  5
454
 10
364.012727
 20
370.246192
 30
0.0
 11
364.95055
 21
366.746192
 31
0.0
  0
LINE
  8
LC-002-002-----0
  6
CONTINUOUS
  5
455
 10
364.012727
 20
373.331979
 30
0.0
 11
364.012727
 21
370.246192
 31
0.0
  0
ARC
  8
LC-002-002-----0
  6
CONTINUOUS
  5
456
 10
363.762724
 20
374.039085
 30
0.0
 40
0.75
 50
289.471622
 51
70.528779
  0
LINE
  8
LC-002-002-----0
  6
CONTINUOUS
  5
457
 10
360.512724
 20
374.746192
 30
0.0
 11
364.012724
 21
374.746192
 31
0.0
  0
LINE
  8
LC-002-002-----0
  6
CONTINUOUS
  5
458
 10
396.520436
 20
403.246192
 30
0.0
 11
391.770437
 21
403.246192
 31
0.0
  0
LINE
  8
LC-002-002-----0
  6
CONTINUOUS
  5
459
 10
401.520437
 20
397.246193
 30
0.0
 11
401.520436
 21
398.246193
 31
0.0
  0
ARC
  8
LC-002-002-----0
  6
CONTINUOUS
  5
45A
 10
396.520436
 20
398.246192
 30
0.0
 40
5.0
 50
0.000005
 51
90.000006
  0
ARC
  8
LC-003-002-RND-0
  6
CONTINUOUS
  5
45B
 10
387.02044
 20
398.246192
 30
0.0
 40
9.0
 50
90.0
 51
180.000001
  0
LINE
  8
LC-002-002-----0
  6
CONTINUOUS
  5
45C
 10
387.02044
 20
403.246192
 30
0.0
 11
391.770438
 21
403.246192
 31
0.0
  0
LINE
  8
LC-002-002-----0
  6
CONTINUOUS
  5
45D
 10
382.02044
 20
397.246192
 30
0.0
 11
382.02044
 21
398.246192
 31
0.0
  0
LINE
  8
LC-002-002-----0
  6
CONTINUOUS
  5
45E
 10
396.520436
 20
407.246192
 30
0.0
 11
391.770437
 21
407.246192
 31
0.0
  0
LINE
  8
LC-002-002-----0
  6
CONTINUOUS
  5
45F
 10
405.520437
 20
397.246193
 30
0.0
 11
405.520436
 21
398.246193
 31
0.0
  0
ARC
  8
LC-002-002-----0
  6
CONTINUOUS
  5
460
 10
387.02044
 20
398.246192
 30
0.0
 40
5.0
 50
90.0
 51
180.000001
  0
LINE
  8
LC-002-002-----0
  6
CONTINUOUS
  5
461
 10
387.02044
 20
407.246192
 30
0.0
 11
391.770438
 21
407.246192
 31
0.0
  0
LINE
  8
LC-002-002-----0
  6
CONTINUOUS
  5
462
 10
378.02044
 20
397.246192
 30
0.0
 11
378.02044
 21
398.246192
 31
0.0
  0
LINE
  8
LC-002-002-----0
  6
CONTINUOUS
  5
463
 10
393.206099
 20
366.746192
 30
0.0
 11
393.213814
 21
395.246363
 31
0.0
  0
LINE
  8
LC-002-002-----0
  6
CONTINUOUS
  5
464
 10
382.02044
 20
397.246192
 30
0.0
 11
391.770438
 21
397.246192
 31
0.0
  0
LINE
  8
LC-002-002-----0
  6
CONTINUOUS
  5
465
 10
401.520437
 20
397.246377
 30
0.0
 11
391.770438
 21
397.246384
 31
0.0
  0
LINE
  8
LC-002-002-----0
  6
CONTINUOUS
  5
466
 10
393.206099
 20
366.746192
 30
0.0
 11
406.262914
 21
366.746192
 31
0.0
  0
LINE
  8
LC-002-002-----0
  6
CONTINUOUS
  5
467
 10
406.262914
 20
366.746192
 30
0.0
 11
406.731825
 21
370.246192
 31
0.0
  0
LINE
  8
LC-002-002-----0
  6
CONTINUOUS
  5
468
 10
406.731825
 20
370.246192
 30
0.0
 11
406.731825
 21
373.331979
 31
0.0
  0
LINE
  8
LC-002-002-----0
  6
CONTINUOUS
  5
469
 10
406.731825
 20
374.746192
 30
0.0
 11
408.481827
 21
374.746192
 31
0.0
  0
LINE
  8
LC-002-002-----0
  6
CONTINUOUS
  5
46A
 10
408.481827
 20
374.746192
 30
0.0
 11
408.481827
 21
395.246363
 31
0.0
  0
ARC
  8
LC-002-002-----0
  6
CONTINUOUS
  5
46B
 10
407.030519
 20
374.039086
 30
0.0
 40
0.767605
 50
112.900021
 51
247.099979
  0
LINE
  8
LC-002-002-----0
  6
CONTINUOUS
  5
46C
 10
422.146003
 20
325.246357
 30
0.0
 11
432.270773
 21
325.246357
 31
0.0
  0
LINE
  8
LC-007-005-----0
  6
CONTINUOUS
  5
46D
 10
369.467532
 20
250.673593
 30
0.0
 11
369.86274
 21
251.068801
 31
0.0
  0
LINE
  8
LC-007-005-----0
  6
CONTINUOUS
  5
46E
 10
367.48011
 20
251.514597
 30
0.0
 11
369.862735
 21
253.897223
 31
0.0
  0
LINE
  8
LC-007-005-----0
  6
CONTINUOUS
  5
46F
 10
366.882386
 20
253.745301
 30
0.0
 11
369.862729
 21
256.725644
 31
0.0
  0
LINE
  8
LC-007-005-----0
  6
CONTINUOUS
  5
470
 10
366.771363
 20
256.462705
 30
0.0
 11
369.862724
 21
259.554066
 31
0.0
  0
LINE
  8
LC-007-005-----0
  6
CONTINUOUS
  5
471
 10
366.771362
 20
259.291132
 30
0.0
 11
369.862719
 21
262.382488
 31
0.0
  0
LINE
  8
LC-007-005-----0
  6
CONTINUOUS
  5
472
 10
366.771362
 20
262.119558
 30
0.0
 11
369.862714
 21
265.21091
 31
0.0
  0
LINE
  8
LC-007-005-----0
  6
CONTINUOUS
  5
473
 10
366.771361
 20
264.947984
 30
0.0
 11
369.862708
 21
268.039332
 31
0.0
  0
LINE
  8
LC-007-005-----0
  6
CONTINUOUS
  5
474
 10
366.77136
 20
267.776411
 30
0.0
 11
369.862703
 21
270.867754
 31
0.0
  0
LINE
  8
LC-007-005-----0
  6
CONTINUOUS
  5
475
 10
366.771359
 20
270.604837
 30
0.0
 11
369.862698
 21
273.696175
 31
0.0
  0
LINE
  8
LC-007-005-----0
  6
CONTINUOUS
  5
476
 10
366.771359
 20
273.433264
 30
0.0
 11
369.862692
 21
276.524597
 31
0.0
  0
LINE
  8
LC-007-005-----0
  6
CONTINUOUS
  5
477
 10
366.771358
 20
276.26169
 30
0.0
 11
369.862687
 21
279.353019
 31
0.0
  0
LINE
  8
LC-007-005-----0
  6
CONTINUOUS
  5
478
 10
366.771357
 20
279.090116
 30
0.0
 11
369.862682
 21
282.181441
 31
0.0
  0
LINE
  8
LC-007-005-----0
  6
CONTINUOUS
  5
479
 10
366.771357
 20
281.918543
 30
0.0
 11
369.862677
 21
285.009863
 31
0.0
  0
LINE
  8
LC-007-005-----0
  6
CONTINUOUS
  5
47A
 10
366.771356
 20
284.746969
 30
0.0
 11
369.862671
 21
287.838285
 31
0.0
  0
LINE
  8
LC-007-005-----0
  6
CONTINUOUS
  5
47B
 10
366.771355
 20
287.575396
 30
0.0
 11
369.862666
 21
290.666706
 31
0.0
  0
LINE
  8
LC-007-005-----0
  6
CONTINUOUS
  5
47C
 10
366.771354
 20
290.403822
 30
0.0
 11
369.862661
 21
293.495128
 31
0.0
  0
LINE
  8
LC-007-005-----0
  6
CONTINUOUS
  5
47D
 10
366.771354
 20
293.232248
 30
0.0
 11
369.862655
 21
296.32355
 31
0.0
  0
LINE
  8
LC-007-005-----0
  6
CONTINUOUS
  5
47E
 10
366.771353
 20
296.060675
 30
0.0
 11
369.86265
 21
299.151972
 31
0.0
  0
LINE
  8
LC-007-005-----0
  6
CONTINUOUS
  5
47F
 10
366.771352
 20
298.889101
 30
0.0
 11
369.862645
 21
301.980394
 31
0.0
  0
LINE
  8
LC-007-005-----0
  6
CONTINUOUS
  5
480
 10
370.628431
 20
302.74618
 30
0.0
 11
371.768941
 21
303.88669
 31
0.0
  0
LINE
  8
LC-007-005-----0
  6
CONTINUOUS
  5
481
 10
366.771351
 20
301.717528
 30
0.0
 11
370.774661
 21
305.720837
 31
0.0
  0
LINE
  8
LC-007-005-----0
  6
CONTINUOUS
  5
482
 10
366.50271
 20
304.277313
 30
0.0
 11
368.543951
 21
306.318554
 31
0.0
  0
LINE
  8
LC-007-005-----0
  6
CONTINUOUS
  5
483
 10
364.272
 20
304.87503
 30
0.0
 11
366.322309
 21
306.92534
 31
0.0
  0
LINE
  8
LC-007-005-----0
  6
CONTINUOUS
  5
484
 10
362.718532
 20
306.149989
 30
0.0
 11
364.774043
 21
308.205501
 31
0.0
  0
LINE
  8
LC-007-005-----0
  6
CONTINUOUS
  5
485
 10
357.551143
 20
303.811027
 30
0.0
 11
364.342858
 21
310.602743
 31
0.0
  0
LINE
  8
LC-007-005-----0
  6
CONTINUOUS
  5
486
 10
354.271462
 20
303.359774
 30
0.0
 11
357.657882
 21
306.746193
 31
0.0
  0
LINE
  8
LC-007-005-----0
  6
CONTINUOUS
  5
487
 10
361.389113
 20
310.477424
 30
0.0
 11
364.316506
 21
313.404817
 31
0.0
  0
LINE
  8
LC-007-005-----0
  6
CONTINUOUS
  5
488
 10
351.841421
 20
303.75816
 30
0.0
 11
354.829455
 21
306.746193
 31
0.0
  0
LINE
  8
LC-007-005-----0
  6
CONTINUOUS
  5
489
 10
361.389111
 20
313.305849
 30
0.0
 11
364.290153
 21
316.206892
 31
0.0
  0
LINE
  8
LC-007-005-----0
  6
CONTINUOUS
  5
48A
 10
349.012994
 20
303.75816
 30
0.0
 11
352.001027
 21
306.746193
 31
0.0
  0
LINE
  8
LC-007-005-----0
  6
CONTINUOUS
  5
48B
 10
361.389109
 20
316.134275
 30
0.0
 11
364.2638
 21
319.008966
 31
0.0
  0
LINE
  8
LC-007-005-----0
  6
CONTINUOUS
  5
48C
 10
346.184567
 20
303.75816
 30
0.0
 11
349.1726
 21
306.746193
 31
0.0
  0
LINE
  8
LC-007-005-----0
  6
CONTINUOUS
  5
48D
 10
361.389107
 20
318.9627
 30
0.0
 11
364.237447
 21
321.81104
 31
0.0
  0
LINE
  8
LC-007-005-----0
  6
CONTINUOUS
  5
48E
 10
343.35614
 20
303.75816
 30
0.0
 11
346.344173
 21
306.746193
 31
0.0
  0
LINE
  8
LC-007-005-----0
  6
CONTINUOUS
  5
48F
 10
361.389105
 20
321.791125
 30
0.0
 11
364.211094
 21
324.613115
 31
0.0
  0
LINE
  8
LC-007-005-----0
  6
CONTINUOUS
  5
490
 10
340.527712
 20
303.75816
 30
0.0
 11
343.515746
 21
306.746193
 31
0.0
  0
LINE
  8
LC-007-005-----0
  6
CONTINUOUS
  5
491
 10
361.389103
 20
324.61955
 30
0.0
 11
364.184742
 21
327.415189
 31
0.0
  0
LINE
  8
LC-007-005-----0
  6
CONTINUOUS
  5
492
 10
337.699285
 20
303.75816
 30
0.0
 11
340.687319
 21
306.746193
 31
0.0
  0
LINE
  8
LC-007-005-----0
  6
CONTINUOUS
  5
493
 10
361.389101
 20
327.447976
 30
0.0
 11
364.158389
 21
330.217263
 31
0.0
  0
LINE
  8
LC-007-005-----0
  6
CONTINUOUS
  5
494
 10
334.870858
 20
303.75816
 30
0.0
 11
337.858892
 21
306.746193
 31
0.0
  0
LINE
  8
LC-007-005-----0
  6
CONTINUOUS
  5
495
 10
361.389099
 20
330.276401
 30
0.0
 11
364.132036
 21
333.019338
 31
0.0
  0
LINE
  8
LC-007-005-----0
  6
CONTINUOUS
  5
496
 10
332.042431
 20
303.75816
 30
0.0
 11
335.030465
 21
306.746193
 31
0.0
  0
LINE
  8
LC-007-005-----0
  6
CONTINUOUS
  5
497
 10
361.389097
 20
333.104826
 30
0.0
 11
364.105683
 21
335.821412
 31
0.0
  0
LINE
  8
LC-007-005-----0
  6
CONTINUOUS
  5
498
 10
329.214004
 20
303.75816
 30
0.0
 11
332.202038
 21
306.746193
 31
0.0
  0
LINE
  8
LC-007-005-----0
  6
CONTINUOUS
  5
499
 10
361.389095
 20
335.933251
 30
0.0
 11
364.07933
 21
338.623486
 31
0.0
  0
LINE
  8
LC-007-005-----0
  6
CONTINUOUS
  5
49A
 10
326.385577
 20
303.75816
 30
0.0
 11
329.37361
 21
306.746193
 31
0.0
  0
LINE
  8
LC-007-005-----0
  6
CONTINUOUS
  5
49B
 10
361.389093
 20
338.761676
 30
0.0
 11
364.052978
 21
341.425561
 31
0.0
  0
LINE
  8
LC-007-005-----0
  6
CONTINUOUS
  5
49C
 10
323.559383
 20
303.760393
 30
0.0
 11
326.545183
 21
306.746193
 31
0.0
  0
LINE
  8
LC-007-005-----0
  6
CONTINUOUS
  5
49D
 10
361.389091
 20
341.590102
 30
0.0
 11
364.026625
 21
344.227635
 31
0.0
  0
LINE
  8
LC-007-005-----0
  6
CONTINUOUS
  5
49E
 10
321.047681
 20
304.077118
 30
0.0
 11
323.716756
 21
306.746193
 31
0.0
  0
LINE
  8
LC-007-005-----0
  6
CONTINUOUS
  5
49F
 10
361.38909
 20
344.418527
 30
0.0
 11
364.000272
 21
347.029709
 31
0.0
  0
LINE
  8
LC-007-005-----0
  6
CONTINUOUS
  5
4A0
 10
318.932213
 20
304.790077
 30
0.0
 11
321.199626
 21
307.05749
 31
0.0
  0
LINE
  8
LC-007-005-----0
  6
CONTINUOUS
  5
4A1
 10
361.389088
 20
347.246952
 30
0.0
 11
363.973919
 21
349.831784
 31
0.0
  0
LINE
  8
LC-007-005-----0
  6
CONTINUOUS
  5
4A2
 10
317.111875
 20
305.798167
 30
0.0
 11
319.188011
 21
307.874302
 31
0.0
  0
LINE
  8
LC-007-005-----0
  6
CONTINUOUS
  5
4A3
 10
361.389086
 20
350.075377
 30
0.0
 11
363.947566
 21
352.633858
 31
0.0
  0
LINE
  8
LC-007-005-----0
  6
CONTINUOUS
  5
4A4
 10
315.544001
 20
307.05872
 30
0.0
 11
317.538374
 21
309.053093
 31
0.0
  0
LINE
  8
LC-007-005-----0
  6
CONTINUOUS
  5
4A5
 10
361.389084
 20
352.903802
 30
0.0
 11
363.921214
 21
355.435932
 31
0.0
  0
LINE
  8
LC-007-005-----0
  6
CONTINUOUS
  5
4A6
 10
314.214665
 20
308.55781
 30
0.0
 11
316.209642
 21
310.552788
 31
0.0
  0
LINE
  8
LC-007-005-----0
  6
CONTINUOUS
  5
4A7
 10
361.389082
 20
355.732228
 30
0.0
 11
363.894861
 21
358.238007
 31
0.0
  0
LINE
  8
LC-007-005-----0
  6
CONTINUOUS
  5
4A8
 10
313.131424
 20
310.302997
 30
0.0
 11
315.215927
 21
312.3875
 31
0.0
  0
LINE
  8
LC-007-005-----0
  6
CONTINUOUS
  5
4A9
 10
361.38908
 20
358.560653
 30
0.0
 11
363.868508
 21
361.040081
 31
0.0
  0
LINE
  8
LC-007-005-----0
  6
CONTINUOUS
  5
4AA
 10
312.327123
 20
312.327123
 30
0.0
 11
314.641305
 21
314.641305
 31
0.0
  0
LINE
  8
LC-007-005-----0
  6
CONTINUOUS
  5
4AB
 10
361.389078
 20
361.389078
 30
0.0
 11
363.842155
 21
363.842155
 31
0.0
  0
LINE
  8
LC-007-005-----0
  6
CONTINUOUS
  5
4AC
 10
311.880342
 20
314.708769
 30
0.0
 11
314.577337
 21
317.405765
 31
0.0
  0
LINE
  8
LC-007-005-----0
  6
CONTINUOUS
  5
4AD
 10
361.389076
 20
364.217503
 30
0.0
 11
363.815803
 21
366.64423
 31
0.0
  0
LINE
  8
LC-007-005-----0
  6
CONTINUOUS
  5
4AE
 10
311.838307
 20
317.495161
 30
0.0
 11
314.577337
 21
320.234192
 31
0.0
  0
LINE
  8
LC-007-005-----0
  6
CONTINUOUS
  5
4AF
 10
361.389074
 20
367.045928
 30
0.0
 11
363.78945
 21
369.446304
 31
0.0
  0
LINE
  8
LC-007-005-----0
  6
CONTINUOUS
  5
4B0
 10
311.838307
 20
320.323588
 30
0.0
 11
314.577337
 21
323.062619
 31
0.0
  0
LINE
  8
LC-007-005-----0
  6
CONTINUOUS
  5
4B1
 10
361.389072
 20
369.874354
 30
0.0
 11
363.787248
 21
372.272529
 31
0.0
  0
LINE
  8
LC-007-005-----0
  6
CONTINUOUS
  5
4B2
 10
311.838307
 20
323.152015
 30
0.0
 11
314.577337
 21
325.891046
 31
0.0
  0
LINE
  8
LC-007-005-----0
  6
CONTINUOUS
  5
4B3
 10
361.38907
 20
372.702779
 30
0.0
 11
363.432485
 21
374.746193
 31
0.0
  0
LINE
  8
LC-007-005-----0
  6
CONTINUOUS
  5
4B4
 10
311.838307
 20
325.980442
 30
0.0
 11
314.577337
 21
328.719473
 31
0.0
  0
LINE
  8
LC-007-005-----0
  6
CONTINUOUS
  5
4B5
 10
311.838307
 20
328.808869
 30
0.0
 11
314.577337
 21
331.5479
 31
0.0
  0
LINE
  8
LC-007-005-----0
  6
CONTINUOUS
  5
4B6
 10
311.838307
 20
331.637297
 30
0.0
 11
314.577337
 21
334.376327
 31
0.0
  0
LINE
  8
LC-007-005-----0
  6
CONTINUOUS
  5
4B7
 10
311.838307
 20
334.465724
 30
0.0
 11
314.577337
 21
337.204754
 31
0.0
  0
LINE
  8
LC-007-005-----0
  6
CONTINUOUS
  5
4B8
 10
311.838307
 20
337.294151
 30
0.0
 11
314.577337
 21
340.033182
 31
0.0
  0
LINE
  8
LC-007-005-----0
  6
CONTINUOUS
  5
4B9
 10
311.838307
 20
340.122578
 30
0.0
 11
314.577337
 21
342.861609
 31
0.0
  0
LINE
  8
LC-007-005-----0
  6
CONTINUOUS
  5
4BA
 10
311.838307
 20
342.951005
 30
0.0
 11
314.577337
 21
345.690036
 31
0.0
  0
LINE
  8
LC-007-005-----0
  6
CONTINUOUS
  5
4BB
 10
311.838307
 20
345.779432
 30
0.0
 11
314.577337
 21
348.518463
 31
0.0
  0
LINE
  8
LC-007-005-----0
  6
CONTINUOUS
  5
4BC
 10
311.838307
 20
348.607859
 30
0.0
 11
314.577337
 21
351.34689
 31
0.0
  0
LINE
  8
LC-007-005-----0
  6
CONTINUOUS
  5
4BD
 10
311.838307
 20
351.436286
 30
0.0
 11
314.577337
 21
354.175317
 31
0.0
  0
LINE
  8
LC-007-005-----0
  6
CONTINUOUS
  5
4BE
 10
311.838307
 20
354.264714
 30
0.0
 11
314.577337
 21
357.003744
 31
0.0
  0
LINE
  8
LC-007-005-----0
  6
CONTINUOUS
  5
4BF
 10
311.838307
 20
357.093141
 30
0.0
 11
314.577337
 21
359.832171
 31
0.0
  0
LINE
  8
LC-007-005-----0
  6
CONTINUOUS
  5
4C0
 10
311.838307
 20
359.921568
 30
0.0
 11
314.577337
 21
362.660599
 31
0.0
  0
LINE
  8
LC-007-005-----0
  6
CONTINUOUS
  5
4C1
 10
311.838307
 20
362.749995
 30
0.0
 11
314.577337
 21
365.489026
 31
0.0
  0
LINE
  8
LC-007-005-----0
  6
CONTINUOUS
  5
4C2
 10
311.838307
 20
365.578422
 30
0.0
 11
314.577337
 21
368.317453
 31
0.0
  0
LINE
  8
LC-007-005-----0
  6
CONTINUOUS
  5
4C3
 10
311.838307
 20
368.406849
 30
0.0
 11
314.577337
 21
371.14588
 31
0.0
  0
LINE
  8
LC-007-005-----0
  6
CONTINUOUS
  5
4C4
 10
311.838307
 20
371.235276
 30
0.0
 11
314.577337
 21
373.974307
 31
0.0
  0
LINE
  8
LC-007-005-----0
  6
CONTINUOUS
  5
4C5
 10
311.838307
 20
374.063703
 30
0.0
 11
314.577337
 21
376.802734
 31
0.0
  0
LINE
  8
LC-007-005-----0
  6
CONTINUOUS
  5
4C6
 10
311.838307
 20
376.892131
 30
0.0
 11
314.577337
 21
379.631161
 31
0.0
  0
LINE
  8
LC-007-005-----0
  6
CONTINUOUS
  5
4C7
 10
311.245402
 20
379.127653
 30
0.0
 11
314.029531
 21
381.911782
 31
0.0
  0
LINE
  8
LC-007-005-----0
  6
CONTINUOUS
  5
4C8
 10
310.080553
 20
380.791231
 30
0.0
 11
314.962606
 21
385.673284
 31
0.0
  0
LINE
  8
LC-007-005-----0
  6
CONTINUOUS
  5
4C9
 10
308.915703
 20
382.454808
 30
0.0
 11
314.029531
 21
387.568637
 31
0.0
  0
LINE
  8
LC-007-005-----0
  6
CONTINUOUS
  5
4CA
 10
314.114625
 20
387.653731
 30
0.0
 11
315.025543
 21
388.564648
 31
0.0
  0
LINE
  8
LC-007-005-----0
  6
CONTINUOUS
  5
4CB
 10
307.750854
 20
384.118386
 30
0.0
 11
313.818441
 21
390.185973
 31
0.0
  0
LINE
  8
LC-007-005-----0
  6
CONTINUOUS
  5
4CC
 10
306.586004
 20
385.781963
 30
0.0
 11
311.246602
 21
390.442562
 31
0.0
  0
LINE
  8
LC-007-005-----0
  6
CONTINUOUS
  5
4CD
 10
305.421154
 20
387.445541
 30
0.0
 11
308.418175
 21
390.442562
 31
0.0
  0
LINE
  8
LC-007-005-----0
  6
CONTINUOUS
  5
4CE
 10
304.256305
 20
389.109119
 30
0.0
 11
305.641394
 21
390.494208
 31
0.0
  0
LINE
  8
LC-007-005-----0
  6
CONTINUOUS
  5
4CF
 10
303.091455
 20
390.772696
 30
0.0
 11
305.364234
 21
393.045475
 31
0.0
  0
LINE
  8
LC-007-005-----0
  6
CONTINUOUS
  5
4D0
 10
302.625203
 20
393.134871
 30
0.0
 11
305.364234
 21
395.873902
 31
0.0
  0
LINE
  8
LC-007-005-----0
  6
CONTINUOUS
  5
4D1
 10
302.625203
 20
395.963298
 30
0.0
 11
305.364234
 21
398.702329
 31
0.0
  0
LINE
  8
LC-007-005-----0
  6
CONTINUOUS
  5
4D2
 10
302.315255
 20
398.481777
 30
0.0
 11
305.364234
 21
401.530756
 31
0.0
  0
LINE
  8
LC-007-005-----0
  6
CONTINUOUS
  5
4D3
 10
300.411713
 20
399.406663
 30
0.0
 11
302.901741
 21
401.896691
 31
0.0
  0
LINE
  8
LC-007-005-----0
  6
CONTINUOUS
  5
4D4
 10
303.373587
 20
402.368536
 30
0.0
 11
305.364234
 21
404.359183
 31
0.0
  0
LINE
  8
LC-007-005-----0
  6
CONTINUOUS
  5
4D5
 10
298.354532
 20
400.177909
 30
0.0
 11
300.50716
 21
402.330537
 31
0.0
  0
LINE
  8
LC-007-005-----0
  6
CONTINUOUS
  5
4D6
 10
303.373587
 20
405.196964
 30
0.0
 11
305.364234
 21
407.18761
 31
0.0
  0
LINE
  8
LC-007-005-----0
  6
CONTINUOUS
  5
4D7
 10
297.390855
 20
402.042658
 30
0.0
 11
300.227848
 21
404.879651
 31
0.0
  0
LINE
  8
LC-007-005-----0
  6
CONTINUOUS
  5
4D8
 10
297.243865
 20
404.724096
 30
0.0
 11
300.086998
 21
407.567228
 31
0.0
  0
LINE
  8
LC-007-005-----0
  6
CONTINUOUS
  5
4D9
 10
296.859907
 20
407.168565
 30
0.0
 11
299.946148
 21
410.254806
 31
0.0
  0
LINE
  8
LC-007-005-----0
  6
CONTINUOUS
  5
4DA
 10
294.701719
 20
407.838804
 30
0.0
 11
297.504877
 21
410.641962
 31
0.0
  0
LINE
  8
LC-007-005-----0
  6
CONTINUOUS
  5
4DB
 10
292.068067
 20
408.033579
 30
0.0
 11
294.869581
 21
410.835093
 31
0.0
  0
LINE
  8
LC-007-005-----0
  6
CONTINUOUS
  5
4DC
 10
289.434415
 20
408.228354
 30
0.0
 11
292.234285
 21
411.028224
 31
0.0
  0
LINE
  8
LC-007-005-----0
  6
CONTINUOUS
  5
4DD
 10
286.800763
 20
408.423129
 30
0.0
 11
289.598989
 21
411.221355
 31
0.0
  0
LINE
  8
LC-007-005-----0
  6
CONTINUOUS
  5
4DE
 10
284.167111
 20
408.617904
 30
0.0
 11
286.963693
 21
411.414486
 31
0.0
  0
LINE
  8
LC-007-005-----0
  6
CONTINUOUS
  5
4DF
 10
281.533459
 20
408.81268
 30
0.0
 11
284.328397
 21
411.607617
 31
0.0
  0
LINE
  8
LC-007-005-----0
  6
CONTINUOUS
  5
4E0
 10
279.313587
 20
409.421235
 30
0.0
 11
281.724557
 21
411.832205
 31
0.0
  0
LINE
  8
LC-007-005-----0
  6
CONTINUOUS
  5
4E1
 10
277.292913
 20
410.228988
 30
0.0
 11
279.703883
 21
412.639958
 31
0.0
  0
LINE
  8
LC-007-005-----0
  6
CONTINUOUS
  5
4E2
 10
275.27224
 20
411.036742
 30
0.0
 11
277.68321
 21
413.447712
 31
0.0
  0
LINE
  8
LC-007-005-----0
  6
CONTINUOUS
  5
4E3
 10
272.771921
 20
411.36485
 30
0.0
 11
275.571487
 21
414.164416
 31
0.0
  0
LINE
  8
LC-007-005-----0
  6
CONTINUOUS
  5
4E4
 10
270.12835
 20
411.549706
 30
0.0
 11
272.927916
 21
414.349272
 31
0.0
  0
LINE
  8
LC-007-005-----0
  6
CONTINUOUS
  5
4E5
 10
267.484779
 20
411.734563
 30
0.0
 11
270.284345
 21
414.534128
 31
0.0
  0
LINE
  8
LC-007-005-----0
  6
CONTINUOUS
  5
4E6
 10
264.841209
 20
411.919419
 30
0.0
 11
267.640774
 21
414.718985
 31
0.0
  0
LINE
  8
LC-007-005-----0
  6
CONTINUOUS
  5
4E7
 10
262.197638
 20
412.104275
 30
0.0
 11
264.997203
 21
414.903841
 31
0.0
  0
LINE
  8
LC-007-005-----0
  6
CONTINUOUS
  5
4E8
 10
259.554067
 20
412.289132
 30
0.0
 11
262.353633
 21
415.088697
 31
0.0
  0
LINE
  8
LC-007-005-----0
  6
CONTINUOUS
  5
4E9
 10
256.910496
 20
412.473988
 30
0.0
 11
259.710062
 21
415.273554
 31
0.0
  0
LINE
  8
LC-007-005-----0
  6
CONTINUOUS
  5
4EA
 10
254.266925
 20
412.658844
 30
0.0
 11
257.066491
 21
415.45841
 31
0.0
  0
LINE
  8
LC-007-005-----0
  6
CONTINUOUS
  5
4EB
 10
251.623354
 20
412.8437
 30
0.0
 11
254.42292
 21
415.643266
 31
0.0
  0
LINE
  8
LC-007-005-----0
  6
CONTINUOUS
  5
4EC
 10
248.979784
 20
413.028557
 30
0.0
 11
251.779349
 21
415.828123
 31
0.0
  0
LINE
  8
LC-007-005-----0
  6
CONTINUOUS
  5
4ED
 10
246.336213
 20
413.213413
 30
0.0
 11
249.135779
 21
416.012979
 31
0.0
  0
LINE
  8
LC-007-005-----0
  6
CONTINUOUS
  5
4EE
 10
243.692642
 20
413.398269
 30
0.0
 11
246.492208
 21
416.197835
 31
0.0
  0
LINE
  8
LC-007-005-----0
  6
CONTINUOUS
  5
4EF
 10
241.617077
 20
414.151132
 30
0.0
 11
243.848637
 21
416.382692
 31
0.0
  0
LINE
  8
LC-007-005-----0
  6
CONTINUOUS
  5
4F0
 10
414.721373
 20
250.6726
 30
0.0
 11
416.235978
 21
252.187205
 31
0.0
  0
LINE
  8
LC-007-005-----0
  6
CONTINUOUS
  5
4F1
 10
413.672851
 20
252.452505
 30
0.0
 11
416.764359
 21
255.544013
 31
0.0
  0
LINE
  8
LC-007-005-----0
  6
CONTINUOUS
  5
4F2
 10
413.672979
 20
255.28106
 30
0.0
 11
416.764482
 21
258.372563
 31
0.0
  0
LINE
  8
LC-007-005-----0
  6
CONTINUOUS
  5
4F3
 10
462.458585
 20
304.066666
 30
0.0
 11
471.388572
 21
312.996653
 31
0.0
  0
LINE
  8
LC-007-005-----0
  6
CONTINUOUS
  5
4F4
 10
413.673106
 20
258.109615
 30
0.0
 11
416.764605
 21
261.201113
 31
0.0
  0
LINE
  8
LC-007-005-----0
  6
CONTINUOUS
  5
4F5
 10
459.31873
 20
303.755238
 30
0.0
 11
462.735227
 21
307.171736
 31
0.0
  0
LINE
  8
LC-007-005-----0
  6
CONTINUOUS
  5
4F6
 10
468.532494
 20
312.969002
 30
0.0
 11
471.700037
 21
316.136545
 31
0.0
  0
LINE
  8
LC-007-005-----0
  6
CONTINUOUS
  5
4F7
 10
413.673234
 20
260.938169
 30
0.0
 11
416.764728
 21
264.029663
 31
0.0
  0
LINE
  8
LC-007-005-----0
  6
CONTINUOUS
  5
4F8
 10
456.490425
 20
303.75536
 30
0.0
 11
459.478329
 21
306.743264
 31
0.0
  0
LINE
  8
LC-007-005-----0
  6
CONTINUOUS
  5
4F9
 10
468.96101
 20
316.225945
 30
0.0
 11
471.700159
 21
318.965094
 31
0.0
  0
LINE
  8
LC-007-005-----0
  6
CONTINUOUS
  5
4FA
 10
413.673362
 20
263.766724
 30
0.0
 11
416.764851
 21
266.858214
 31
0.0
  0
LINE
  8
LC-007-005-----0
  6
CONTINUOUS
  5
4FB
 10
453.66212
 20
303.755482
 30
0.0
 11
456.650024
 21
306.743387
 31
0.0
  0
LINE
  8
LC-007-005-----0
  6
CONTINUOUS
  5
4FC
 10
468.961132
 20
319.054494
 30
0.0
 11
471.700281
 21
321.793644
 31
0.0
  0
LINE
  8
LC-007-005-----0
  6
CONTINUOUS
  5
4FD
 10
413.673489
 20
266.595279
 30
0.0
 11
416.764974
 21
269.686764
 31
0.0
  0
LINE
  8
LC-007-005-----0
  6
CONTINUOUS
  5
4FE
 10
450.833815
 20
303.755605
 30
0.0
 11
453.82172
 21
306.743509
 31
0.0
  0
LINE
  8
LC-007-005-----0
  6
CONTINUOUS
  5
4FF
 10
468.961254
 20
321.883044
 30
0.0
 11
471.700404
 21
324.622193
 31
0.0
  0
LINE
  8
LC-007-005-----0
  6
CONTINUOUS
  5
500
 10
413.673617
 20
269.423834
 30
0.0
 11
416.765097
 21
272.515314
 31
0.0
  0
LINE
  8
LC-007-005-----0
  6
CONTINUOUS
  5
501
 10
448.005511
 20
303.755727
 30
0.0
 11
450.993415
 21
306.743632
 31
0.0
  0
LINE
  8
LC-007-005-----0
  6
CONTINUOUS
  5
502
 10
468.961377
 20
324.711593
 30
0.0
 11
471.700526
 21
327.450743
 31
0.0
  0
LINE
  8
LC-007-005-----0
  6
CONTINUOUS
  5
503
 10
413.673745
 20
272.252388
 30
0.0
 11
416.76522
 21
275.343864
 31
0.0
  0
LINE
  8
LC-007-005-----0
  6
CONTINUOUS
  5
504
 10
445.177206
 20
303.75585
 30
0.0
 11
448.16511
 21
306.743754
 31
0.0
  0
LINE
  8
LC-007-005-----0
  6
CONTINUOUS
  5
505
 10
468.961499
 20
327.540143
 30
0.0
 11
471.700648
 21
330.279292
 31
0.0
  0
LINE
  8
LC-007-005-----0
  6
CONTINUOUS
  5
506
 10
413.673872
 20
275.080943
 30
0.0
 11
416.765344
 21
278.172414
 31
0.0
  0
LINE
  8
LC-007-005-----0
  6
CONTINUOUS
  5
507
 10
442.348901
 20
303.755972
 30
0.0
 11
445.336805
 21
306.743876
 31
0.0
  0
LINE
  8
LC-007-005-----0
  6
CONTINUOUS
  5
508
 10
468.961621
 20
330.368692
 30
0.0
 11
471.700771
 21
333.107842
 31
0.0
  0
LINE
  8
LC-007-005-----0
  6
CONTINUOUS
  5
509
 10
413.674
 20
277.909498
 30
0.0
 11
416.765467
 21
281.000965
 31
0.0
  0
LINE
  8
LC-007-005-----0
  6
CONTINUOUS
  5
50A
 10
439.520596
 20
303.756094
 30
0.0
 11
442.508501
 21
306.743999
 31
0.0
  0
LINE
  8
LC-007-005-----0
  6
CONTINUOUS
  5
50B
 10
468.961744
 20
333.197242
 30
0.0
 11
471.700893
 21
335.936391
 31
0.0
  0
LINE
  8
LC-007-005-----0
  6
CONTINUOUS
  5
50C
 10
413.674128
 20
280.738053
 30
0.0
 11
416.76559
 21
283.829515
 31
0.0
  0
LINE
  8
LC-007-005-----0
  6
CONTINUOUS
  5
50D
 10
436.692291
 20
303.756217
 30
0.0
 11
439.680196
 21
306.744121
 31
0.0
  0
LINE
  8
LC-007-005-----0
  6
CONTINUOUS
  5
50E
 10
468.961866
 20
336.025791
 30
0.0
 11
471.701015
 21
338.764941
 31
0.0
  0
LINE
  8
LC-007-005-----0
  6
CONTINUOUS
  5
50F
 10
413.674255
 20
283.566607
 30
0.0
 11
416.765713
 21
286.658065
 31
0.0
  0
LINE
  8
LC-007-005-----0
  6
CONTINUOUS
  5
510
 10
433.863987
 20
303.756339
 30
0.0
 11
436.851891
 21
306.744243
 31
0.0
  0
LINE
  8
LC-007-005-----0
  6
CONTINUOUS
  5
511
 10
468.961989
 20
338.854341
 30
0.0
 11
471.701138
 21
341.59349
 31
0.0
  0
LINE
  8
LC-007-005-----0
  6
CONTINUOUS
  5
512
 10
413.674383
 20
286.395162
 30
0.0
 11
416.765836
 21
289.486615
 31
0.0
  0
LINE
  8
LC-007-005-----0
  6
CONTINUOUS
  5
513
 10
431.035682
 20
303.756461
 30
0.0
 11
434.023586
 21
306.744366
 31
0.0
  0
LINE
  8
LC-007-005-----0
  6
CONTINUOUS
  5
514
 10
468.962111
 20
341.68289
 30
0.0
 11
471.70126
 21
344.42204
 31
0.0
  0
LINE
  8
LC-007-005-----0
  6
CONTINUOUS
  5
515
 10
540.732782
 20
413.453562
 30
0.0
 11
541.910602
 21
414.631382
 31
0.0
  0
LINE
  8
LC-007-005-----0
  6
CONTINUOUS
  5
516
 10
413.67451
 20
289.223717
 30
0.0
 11
416.765959
 21
292.315165
 31
0.0
  0
LINE
  8
LC-007-005-----0
  6
CONTINUOUS
  5
517
 10
428.20913
 20
303.758337
 30
0.0
 11
431.195281
 21
306.744488
 31
0.0
  0
LINE
  8
LC-007-005-----0
  6
CONTINUOUS
  5
518
 10
468.962233
 20
344.51144
 30
0.0
 11
471.701383
 21
347.250589
 31
0.0
  0
LINE
  8
LC-007-005-----0
  6
CONTINUOUS
  5
519
 10
537.691845
 20
413.241051
 30
0.0
 11
540.687529
 21
416.236736
 31
0.0
  0
LINE
  8
LC-007-005-----0
  6
CONTINUOUS
  5
51A
 10
413.674638
 20
292.052272
 30
0.0
 11
416.766082
 21
295.143716
 31
0.0
  0
LINE
  8
LC-007-005-----0
  6
CONTINUOUS
  5
51B
 10
425.431938
 20
303.809571
 30
0.0
 11
428.366977
 21
306.74461
 31
0.0
  0
LINE
  8
LC-007-005-----0
  6
CONTINUOUS
  5
51C
 10
468.962356
 20
347.339989
 30
0.0
 11
471.701505
 21
350.079139
 31
0.0
  0
LINE
  8
LC-007-005-----0
  6
CONTINUOUS
  5
51D
 10
534.650907
 20
413.028541
 30
0.0
 11
537.871278
 21
416.248912
 31
0.0
  0
LINE
  8
LC-007-005-----0
  6
CONTINUOUS
  5
51E
 10
413.674766
 20
294.880826
 30
0.0
 11
416.766205
 21
297.972266
 31
0.0
  0
LINE
  8
LC-007-005-----0
  6
CONTINUOUS
  5
51F
 10
422.945381
 20
304.151442
 30
0.0
 11
425.538672
 21
306.744733
 31
0.0
  0
LINE
  8
LC-007-005-----0
  6
CONTINUOUS
  5
520
 10
468.962478
 20
350.168539
 30
0.0
 11
471.701627
 21
352.907688
 31
0.0
  0
LINE
  8
LC-007-005-----0
  6
CONTINUOUS
  5
521
 10
531.609969
 20
412.81603
 30
0.0
 11
534.830341
 21
416.036401
 31
0.0
  0
LINE
  8
LC-007-005-----0
  6
CONTINUOUS
  5
522
 10
413.674893
 20
297.709381
 30
0.0
 11
416.766328
 21
300.800816
 31
0.0
  0
LINE
  8
LC-007-005-----0
  6
CONTINUOUS
  5
523
 10
421.814074
 20
305.848562
 30
0.0
 11
423.323509
 21
307.357997
 31
0.0
  0
LINE
  8
LC-007-005-----0
  6
CONTINUOUS
  5
524
 10
468.9626
 20
352.997088
 30
0.0
 11
471.70175
 21
355.736238
 31
0.0
  0
LINE
  8
LC-007-005-----0
  6
CONTINUOUS
  5
525
 10
528.569031
 20
412.603519
 30
0.0
 11
531.789403
 21
415.823891
 31
0.0
  0
LINE
  8
LC-007-005-----0
  6
CONTINUOUS
  5
526
 10
413.675021
 20
300.537936
 30
0.0
 11
416.766451
 21
303.629366
 31
0.0
  0
LINE
  8
LC-007-005-----0
  6
CONTINUOUS
  5
527
 10
417.551697
 20
304.414612
 30
0.0
 11
422.220394
 21
309.083309
 31
0.0
  0
LINE
  8
LC-007-005-----0
  6
CONTINUOUS
  5
528
 10
468.962723
 20
355.825638
 30
0.0
 11
471.701872
 21
358.564787
 31
0.0
  0
LINE
  8
LC-007-005-----0
  6
CONTINUOUS
  5
529
 10
525.528093
 20
412.391009
 30
0.0
 11
528.748465
 21
415.61138
 31
0.0
  0
LINE
  8
LC-007-005-----0
  6
CONTINUOUS
  5
52A
 10
413.053917
 20
302.745259
 30
0.0
 11
417.242961
 21
306.934303
 31
0.0
  0
LINE
  8
LC-007-005-----0
  6
CONTINUOUS
  5
52B
 10
418.995512
 20
308.686854
 30
0.0
 11
422.149046
 21
311.840388
 31
0.0
  0
LINE
  8
LC-007-005-----0
  6
CONTINUOUS
  5
52C
 10
468.962845
 20
358.654187
 30
0.0
 11
471.701994
 21
361.393336
 31
0.0
  0
LINE
  8
LC-007-005-----0
  6
CONTINUOUS
  5
52D
 10
522.487156
 20
412.178498
 30
0.0
 11
525.707527
 21
415.398869
 31
0.0
  0
LINE
  8
LC-007-005-----0
  6
CONTINUOUS
  5
52E
 10
411.76889
 20
304.288659
 30
0.0
 11
413.360049
 21
305.879818
 31
0.0
  0
LINE
  8
LC-007-005-----0
  6
CONTINUOUS
  5
52F
 10
419.205866
 20
311.725635
 30
0.0
 11
422.14917
 21
314.668939
 31
0.0
  0
LINE
  8
LC-007-005-----0
  6
CONTINUOUS
  5
530
 10
468.962967
 20
361.482737
 30
0.0
 11
471.702117
 21
364.221886
 31
0.0
  0
LINE
  8
LC-007-005-----0
  6
CONTINUOUS
  5
531
 10
519.446218
 20
411.965987
 30
0.0
 11
522.666589
 21
415.186358
 31
0.0
  0
LINE
  8
LC-007-005-----0
  6
CONTINUOUS
  5
532
 10
419.232844
 20
314.58104
 30
0.0
 11
422.149294
 21
317.497491
 31
0.0
  0
LINE
  8
LC-007-005-----0
  6
CONTINUOUS
  5
533
 10
468.96309
 20
364.311286
 30
0.0
 11
471.702239
 21
367.050435
 31
0.0
  0
LINE
  8
LC-007-005-----0
  6
CONTINUOUS
  5
534
 10
516.40528
 20
411.753477
 30
0.0
 11
519.625651
 21
414.973848
 31
0.0
  0
LINE
  8
LC-007-005-----0
  6
CONTINUOUS
  5
535
 10
419.259822
 20
317.436445
 30
0.0
 11
422.149419
 21
320.326042
 31
0.0
  0
LINE
  8
LC-007-005-----0
  6
CONTINUOUS
  5
536
 10
468.963212
 20
367.139836
 30
0.0
 11
471.702361
 21
369.878985
 31
0.0
  0
LINE
  8
LC-007-005-----0
  6
CONTINUOUS
  5
537
 10
513.364342
 20
411.540966
 30
0.0
 11
516.584713
 21
414.761337
 31
0.0
  0
LINE
  8
LC-007-005-----0
  6
CONTINUOUS
  5
538
 10
419.286799
 20
320.29185
 30
0.0
 11
422.149543
 21
323.154594
 31
0.0
  0
LINE
  8
LC-007-005-----0
  6
CONTINUOUS
  5
539
 10
468.963334
 20
369.968385
 30
0.0
 11
471.702484
 21
372.707534
 31
0.0
  0
LINE
  8
LC-007-005-----0
  6
CONTINUOUS
  5
53A
 10
510.323405
 20
411.328455
 30
0.0
 11
513.543776
 21
414.548826
 31
0.0
  0
LINE
  8
LC-007-005-----0
  6
CONTINUOUS
  5
53B
 10
419.313777
 20
323.147255
 30
0.0
 11
422.149667
 21
325.983145
 31
0.0
  0
LINE
  8
LC-007-005-----0
  6
CONTINUOUS
  5
53C
 10
468.963457
 20
372.796935
 30
0.0
 11
471.702606
 21
375.536084
 31
0.0
  0
LINE
  8
LC-007-005-----0
  6
CONTINUOUS
  5
53D
 10
506.484478
 20
410.317956
 30
0.0
 11
510.502838
 21
414.336316
 31
0.0
  0
LINE
  8
LC-007-005-----0
  6
CONTINUOUS
  5
53E
 10
419.340755
 20
326.00266
 30
0.0
 11
422.149791
 21
328.811696
 31
0.0
  0
LINE
  8
LC-007-005-----0
  6
CONTINUOUS
  5
53F
 10
468.963579
 20
375.625484
 30
0.0
 11
471.90643
 21
378.568335
 31
0.0
  0
LINE
  8
LC-007-005-----0
  6
CONTINUOUS
  5
540
 10
502.156949
 20
408.818854
 30
0.0
 11
507.394443
 21
414.056348
 31
0.0
  0
LINE
  8
LC-007-005-----0
  6
CONTINUOUS
  5
541
 10
419.367733
 20
328.858065
 30
0.0
 11
422.149916
 21
331.640248
 31
0.0
  0
LINE
  8
LC-007-005-----0
  6
CONTINUOUS
  5
542
 10
468.963702
 20
378.454034
 30
0.0
 11
478.51465
 21
388.004982
 31
0.0
  0
LINE
  8
LC-007-005-----0
  6
CONTINUOUS
  5
543
 10
499.10278
 20
408.593112
 30
0.0
 11
502.682796
 21
412.173128
 31
0.0
  0
LINE
  8
LC-007-005-----0
  6
CONTINUOUS
  5
544
 10
419.394711
 20
331.71347
 30
0.0
 11
422.15004
 21
334.468799
 31
0.0
  0
LINE
  8
LC-007-005-----0
  6
CONTINUOUS
  5
545
 10
469.511654
 20
381.830413
 30
0.0
 11
480.916475
 21
393.235235
 31
0.0
  0
LINE
  8
LC-007-005-----0
  6
CONTINUOUS
  5
546
 10
496.048611
 20
408.36737
 30
0.0
 11
499.289753
 21
411.608512
 31
0.0
  0
LINE
  8
LC-007-005-----0
  6
CONTINUOUS
  5
547
 10
419.421689
 20
334.568875
 30
0.0
 11
422.150164
 21
337.297351
 31
0.0
  0
LINE
  8
LC-007-005-----0
  6
CONTINUOUS
  5
548
 10
469.058686
 20
384.205872
 30
0.0
 11
475.291763
 21
390.438949
 31
0.0
  0
LINE
  8
LC-007-005-----0
  6
CONTINUOUS
  5
549
 10
478.177448
 20
393.324635
 30
0.0
 11
480.916598
 21
396.063784
 31
0.0
  0
LINE
  8
LC-007-005-----0
  6
CONTINUOUS
  5
54A
 10
492.994442
 20
408.141628
 30
0.0
 11
496.237792
 21
411.384978
 31
0.0
  0
LINE
  8
LC-007-005-----0
  6
CONTINUOUS
  5
54B
 10
419.448667
 20
337.42428
 30
0.0
 11
422.150289
 21
340.125902
 31
0.0
  0
LINE
  8
LC-007-005-----0
  6
CONTINUOUS
  5
54C
 10
469.511898
 20
387.487512
 30
0.0
 11
472.463458
 21
390.439071
 31
0.0
  0
LINE
  8
LC-007-005-----0
  6
CONTINUOUS
  5
54D
 10
478.177571
 20
396.153184
 30
0.0
 11
486.273617
 21
404.249231
 31
0.0
  0
LINE
  8
LC-007-005-----0
  6
CONTINUOUS
  5
54E
 10
489.940273
 20
407.915886
 30
0.0
 11
493.185831
 21
411.161444
 31
0.0
  0
LINE
  8
LC-007-005-----0
  6
CONTINUOUS
  5
54F
 10
419.475645
 20
340.279685
 30
0.0
 11
422.150413
 21
342.954453
 31
0.0
  0
LINE
  8
LC-007-005-----0
  6
CONTINUOUS
  5
550
 10
478.177693
 20
398.981734
 30
0.0
 11
481.088787
 21
401.892827
 31
0.0
  0
LINE
  8
LC-007-005-----0
  6
CONTINUOUS
  5
551
 10
483.272413
 20
404.076454
 30
0.0
 11
490.13387
 21
410.93791
 31
0.0
  0
LINE
  8
LC-007-005-----0
  6
CONTINUOUS
  5
552
 10
419.502622
 20
343.13509
 30
0.0
 11
422.150537
 21
345.783005
 31
0.0
  0
LINE
  8
LC-007-005-----0
  6
CONTINUOUS
  5
553
 10
478.177816
 20
401.810283
 30
0.0
 11
480.168548
 21
403.801016
 31
0.0
  0
LINE
  8
LC-007-005-----0
  6
CONTINUOUS
  5
554
 10
483.42898
 20
407.061447
 30
0.0
 11
487.081908
 21
410.714376
 31
0.0
  0
LINE
  8
LC-007-005-----0
  6
CONTINUOUS
  5
555
 10
419.5296
 20
345.990495
 30
0.0
 11
422.150661
 21
348.611556
 31
0.0
  0
LINE
  8
LC-007-005-----0
  6
CONTINUOUS
  5
556
 10
478.177938
 20
404.638833
 30
0.0
 11
480.168671
 21
406.629566
 31
0.0
  0
LINE
  8
LC-007-005-----0
  6
CONTINUOUS
  5
557
 10
483.585546
 20
410.046441
 30
0.0
 11
484.029947
 21
410.490842
 31
0.0
  0
LINE
  8
LC-007-005-----0
  6
CONTINUOUS
  5
558
 10
419.556578
 20
348.8459
 30
0.0
 11
422.150786
 21
351.440108
 31
0.0
  0
LINE
  8
LC-007-005-----0
  6
CONTINUOUS
  5
559
 10
478.17806
 20
407.467382
 30
0.0
 11
478.579681
 21
407.869003
 31
0.0
  0
LINE
  8
LC-007-005-----0
  6
CONTINUOUS
  5
55A
 10
419.583556
 20
351.701305
 30
0.0
 11
422.15091
 21
354.268659
 31
0.0
  0
LINE
  8
LC-007-005-----0
  6
CONTINUOUS
  5
55B
 10
419.610534
 20
354.55671
 30
0.0
 11
422.151034
 21
357.09721
 31
0.0
  0
LINE
  8
LC-007-005-----0
  6
CONTINUOUS
  5
55C
 10
419.637512
 20
357.412115
 30
0.0
 11
422.151158
 21
359.925762
 31
0.0
  0
LINE
  8
LC-007-005-----0
  6
CONTINUOUS
  5
55D
 10
419.66449
 20
360.26752
 30
0.0
 11
422.151283
 21
362.754313
 31
0.0
  0
LINE
  8
LC-007-005-----0
  6
CONTINUOUS
  5
55E
 10
419.691468
 20
363.122925
 30
0.0
 11
422.151407
 21
365.582865
 31
0.0
  0
LINE
  8
LC-007-005-----0
  6
CONTINUOUS
  5
55F
 10
419.718446
 20
365.97833
 30
0.0
 11
422.151531
 21
368.411416
 31
0.0
  0
LINE
  8
LC-007-005-----0
  6
CONTINUOUS
  5
560
 10
419.745423
 20
368.833735
 30
0.0
 11
422.151656
 21
371.239967
 31
0.0
  0
LINE
  8
LC-007-005-----0
  6
CONTINUOUS
  5
561
 10
419.772401
 20
371.68914
 30
0.0
 11
422.15178
 21
374.068519
 31
0.0
  0
LINE
  8
LC-007-005-----0
  6
CONTINUOUS
  5
562
 10
419.424792
 20
374.169958
 30
0.0
 11
419.999806
 21
374.744972
 31
0.0
  0
LINE
  8
LC-002-002-----0
  6
CONTINUOUS
  5
563
 10
311.838307
 20
317.495161
 30
0.0
 11
311.838307
 21
378.280898
 31
0.0
  0
LINE
  8
LC-002-002-----0
  6
CONTINUOUS
 62
     2
  5
564
 10
471.700159
 20
318.965094
 30
0.0
 11
471.700159
 21
282.744
 31
0.0
  0
LINE
  8
LC-002-002-----0
  6
DASHDOT
 62
     2
  5
566
 10
391.771365
 20
250.673593
 30
0.0
 11
391.771365
 21
418.591595
 31
0.0
  0
ARC
  8
LC-002-002-----0
  6
CONTINUOUS
  5
567
 10
291.522778
 20
434.354769
 30
0.0
 40
23.361504
 50
241.241457
 51
244.207797
  0
LINE
  8
LC-002-002-----0
  6
CONTINUOUS
  5
568
 10
241.316664
 20
416.575737
 30
0.0
 11
251.971382
 21
415.837208
 31
0.0
  0
LINE
  8
LC-002-002-----0
  6
CONTINUOUS
  5
569
 10
299.935192
 20
410.463854
 30
0.0
 11
291.973496
 21
411.042425
 31
0.0
  0
LINE
  8
LC-002-002-----0
  6
CONTINUOUS
  5
56A
 10
542.783103
 20
416.61272
 30
0.0
 11
503.283103
 21
413.874789
 31
0.0
  0
ARC
  8
LC-002-002-----0
  6
CONTINUOUS
  5
56B
 10
492.043429
 20
434.354769
 30
0.0
 40
23.361504
 50
280.502157
 51
298.758543
  0
LINE
  8
LC-002-002-----0
  6
CONTINUOUS
  5
56C
 10
483.631015
 20
410.463854
 30
0.0
 11
496.301589
 21
411.384616
 31
0.0
  0
LINE
  8
LC-007-005-----0
  6
CONTINUOUS
  5
56D
 10
314.596201
 20
387.161829
 30
0.0
 11
314.774226
 21
387.339854
 31
0.0
  0
LINE
  8
LC-002-002-----0
  6
CONTINUOUS
  5
56E
 10
141.973496
 20
421.31272
 30
0.0
 11
141.973496
 21
416.61272
 31
0.0
  0
LINE
  8
LC-002-002-----0
  6
CONTINUOUS
  5
56F
 10
151.973496
 20
421.31272
 30
0.0
 11
151.973496
 21
416.61272
 31
0.0
  0
LINE
  8
LC-002-002-----0
  6
CONTINUOUS
  5
570
 10
161.973496
 20
421.31272
 30
0.0
 11
161.973496
 21
416.61272
 31
0.0
  0
LINE
  8
LC-002-002-----0
  6
CONTINUOUS
  5
571
 10
171.973496
 20
421.31272
 30
0.0
 11
171.973496
 21
416.61272
 31
0.0
  0
LINE
  8
LC-002-002-----0
  6
CONTINUOUS
  5
572
 10
181.973496
 20
421.31272
 30
0.0
 11
181.973496
 21
416.61272
 31
0.0
  0
LINE
  8
LC-002-002-----0
  6
CONTINUOUS
  5
573
 10
191.973496
 20
421.31272
 30
0.0
 11
191.973496
 21
416.61272
 31
0.0
  0
LINE
  8
LC-002-002-----0
  6
CONTINUOUS
  5
574
 10
201.973496
 20
421.31272
 30
0.0
 11
201.973496
 21
416.61272
 31
0.0
  0
LINE
  8
LC-002-002-----0
  6
CONTINUOUS
  5
575
 10
211.973496
 20
421.31272
 30
0.0
 11
211.973496
 21
416.61272
 31
0.0
  0
LINE
  8
LC-002-002-----0
  6
CONTINUOUS
  5
576
 10
221.973496
 20
421.31272
 30
0.0
 11
221.973496
 21
416.61272
 31
0.0
  0
LINE
  8
LC-002-002-----0
  6
CONTINUOUS
  5
577
 10
231.973496
 20
421.31272
 30
0.0
 11
231.973496
 21
416.61272
 31
0.0
  0
LINE
  8
LC-002-002-----0
  6
CONTINUOUS
  5
578
 10
241.319227
 20
416.61272
 30
0.0
 11
141.973496
 21
416.61272
 31
0.0
  0
LINE
  8
LC-002-002-----0
  6
CONTINUOUS
  5
579
 10
241.973496
 20
421.241486
 30
0.0
 11
241.973496
 21
416.566969
 31
0.0
  0
LINE
  8
LC-002-002-----0
  6
CONTINUOUS
  5
57A
 10
251.973496
 20
420.548339
 30
0.0
 11
251.973496
 21
415.867702
 31
0.0
  0
LINE
  8
LC-002-002-----0
  6
CONTINUOUS
  5
57B
 10
261.973496
 20
419.855192
 30
0.0
 11
261.973496
 21
415.168434
 31
0.0
  0
LINE
  8
LC-002-002-----0
  6
CONTINUOUS
  5
57C
 10
271.973496
 20
419.162044
 30
0.0
 11
271.973496
 21
414.469167
 31
0.0
  0
LINE
  8
LC-002-002-----0
  6
CONTINUOUS
  5
57D
 10
291.973496
 20
415.752973
 30
0.0
 11
291.973496
 21
411.042425
 31
0.0
  0
LINE
  8
LC-002-002-----0
  6
CONTINUOUS
  5
57E
 10
283.98172
 20
418.591595
 30
0.0
 11
499.584487
 21
418.591595
 31
0.0
  0
ARC
  8
LC-002-002-----0
  6
CONTINUOUS
  5
57F
 10
289.421211
 20
422.997493
 30
0.0
 40
7.0
 50
219.006904
 51
266.0
  0
ARC
  8
LC-002-002-----0
  6
CONTINUOUS
  5
580
 10
289.421211
 20
422.997493
 30
0.0
 40
6.3
 50
224.378071
 51
266.0
  0
LINE
  8
LC-002-002-----0
  6
CONTINUOUS
  5
581
 10
288.932915
 20
416.014544
 30
0.0
 11
306.660175
 21
414.774934
 31
0.0
  0
LINE
  8
LC-002-002-----0
  6
CONTINUOUS
  5
582
 10
288.979529
 20
416.702414
 30
0.0
 11
306.709004
 21
415.462648
 31
0.0
  0
ARC
  8
LC-003-002-RND-0
  6
CONTINUOUS
  5
583
 10
306.220709
 20
408.4797
 30
0.0
 40
7.0
 50
0.0
 51
86.0
  0
ARC
  8
LC-003-002-RND-0
  6
CONTINUOUS
  5
584
 10
306.220709
 20
408.49028
 30
0.0
 40
6.3
 50
0.0
 51
86.0
  0
LINE
  8
LC-002-002-----0
  6
CONTINUOUS
  5
585
 10
312.520709
 20
408.49028
 30
0.0
 11
312.520709
 21
394.802237
 31
0.0
  0
ARC
  8
LC-002-002-----0
  6
CONTINUOUS
  5
586
 10
316.020709
 20
394.802237
 30
0.0
 40
3.5
 50
180.0
 51
270.0
  0
ARC
  8
LC-002-002-----0
  6
CONTINUOUS
  5
587
 10
316.020709
 20
394.802237
 30
0.0
 40
2.8
 50
180.0
 51
270.0
  0
ARC
  8
LC-002-002-----0
  6
CONTINUOUS
  5
588
 10
316.020989
 20
391.002605
 30
0.0
 40
1.0
 50
359.99972
 51
89.99972
  0
ARC
  8
LC-002-002-----0
  6
CONTINUOUS
  5
589
 10
316.020989
 20
391.002605
 30
0.0
 40
0.3
 50
359.99972
 51
89.99972
  0
LINE
  8
LC-002-002-----0
  6
CONTINUOUS
  5
58A
 10
316.320709
 20
391.002237
 30
0.0
 11
316.320709
 21
388.702237
 31
0.0
  0
LINE
  8
LC-002-002-----0
  6
CONTINUOUS
  5
58B
 10
317.020709
 20
391.002237
 30
0.0
 11
317.020709
 21
388.702237
 31
0.0
  0
ARC
  8
LC-002-002-----0
  6
CONTINUOUS
  5
58C
 10
316.021231
 20
388.702237
 30
0.0
 40
0.3
 50
270.0
 51
0.0
  0
ARC
  8
LC-002-002-----0
  6
CONTINUOUS
  5
58D
 10
316.020709
 20
388.702237
 30
0.0
 40
1.0
 50
270.0
 51
0.0
  0
ARC
  8
LC-002-002-----0
  6
CONTINUOUS
  5
58E
 10
316.020709
 20
386.902237
 30
0.0
 40
1.5
 50
90.0
 51
180.0
  0
ARC
  8
LC-002-002-----0
  6
CONTINUOUS
  5
58F
 10
316.020709
 20
386.902237
 30
0.0
 40
0.8
 50
90.0
 51
180.0
  0
ARC
  8
LC-002-002-----0
  6
CONTINUOUS
  5
590
 10
316.020709
 20
386.902237
 30
0.0
 40
1.5
 50
180.0
 51
270.0
  0
ARC
  8
LC-002-002-----0
  6
CONTINUOUS
  5
591
 10
316.020709
 20
386.902237
 30
0.0
 40
0.8
 50
180.0
 51
270.0
  0
LINE
  8
LC-002-002-----0
  6
CONTINUOUS
  5
592
 10
316.020709
 20
386.102237
 30
0.0
 11
318.820709
 21
386.102237
 31
0.0
  0
LINE
  8
LC-002-002-----0
  6
CONTINUOUS
  5
593
 10
316.020709
 20
385.402237
 30
0.0
 11
318.820709
 21
385.402237
 31
0.0
  0
LINE
  8
LC-002-002-----0
  6
CONTINUOUS
  5
594
 10
318.820709
 20
385.402237
 30
0.0
 11
318.820709
 21
386.102237
 31
0.0
  0
LINE
  8
LC-002-002-----0
  6
CONTINUOUS
  5
595
 10
300.029622
 20
415.167539
 30
0.0
 11
291.973496
 21
415.752973
 31
0.0
  0
LINE
  8
LC-002-002-----0
  6
CONTINUOUS
  5
596
 10
281.973496
 20
418.323337
 30
0.0
 11
281.973496
 21
413.034097
 31
0.0
  0
ARC
  8
LC-002-002-----0
  6
CONTINUOUS
  5
597
 10
291.522778
 20
434.354769
 30
0.0
 40
23.361504
 50
244.207797
 51
259.497843
  0
LINE
  8
LC-002-002-----0
  6
CONTINUOUS
  5
598
 10
291.973496
 20
415.752973
 30
0.0
 11
287.906646
 21
416.048508
 31
0.0
  0
LINE
  8
LC-002-002-----0
  6
CONTINUOUS
  5
599
 10
291.973496
 20
411.042425
 30
0.0
 11
287.264617
 21
411.384616
 31
0.0
  0
LINE
  8
LC-002-002-----0
  6
CONTINUOUS
  5
59A
 10
240.945798
 20
421.31272
 30
0.0
 11
141.973496
 21
421.31272
 31
0.0
  0
LINE
  8
LC-002-002-----0
  6
CONTINUOUS
  5
59B
 10
240.945798
 20
421.31272
 30
0.0
 11
251.973496
 21
420.548339
 31
0.0
  0
ARC
  8
LC-002-002-----0
  6
CONTINUOUS
  5
59C
 10
291.522778
 20
434.354769
 30
0.0
 40
18.66
 50
238.247327
 51
258.82592
  0
LINE
  8
LC-002-002-----0
  6
CONTINUOUS
  5
59D
 10
251.973496
 20
420.548339
 30
0.0
 11
281.702886
 21
418.487655
 31
0.0
  0
LINE
  8
LC-002-002-----0
  6
CONTINUOUS
  5
59E
 10
251.971382
 20
415.837208
 30
0.0
 11
280.283103
 21
413.874789
 31
0.0
  0
LINE
  8
LC-002-002-----0
  6
CONTINUOUS
  5
59F
 10
470.283103
 20
395.002904
 30
0.0
 11
467.283103
 21
392.002904
 31
0.0
  0
LINE
  8
LC-002-002-----0
  6
CONTINUOUS
  5
5A0
 10
460.283103
 20
392.002904
 30
0.0
 11
460.283103
 21
394.502904
 31
0.0
  0
LINE
  8
LC-002-002-----0
  6
CONTINUOUS
  5
5A1
 10
467.783103
 20
411.002548
 30
0.0
 11
466.283103
 21
411.002548
 31
0.0
  0
LINE
  8
LC-002-002-----0
  6
CONTINUOUS
  5
5A2
 10
467.783103
 20
394.502904
 30
0.0
 11
467.783103
 21
412.002548
 31
0.0
  0
ARC
  8
LC-003-002-RND-0
  6
CONTINUOUS
  5
5A3
 10
466.283103
 20
409.002548
 30
0.0
 40
2.0
 50
90.0
 51
180.0
  0
LINE
  8
LC-002-002-----0
  6
CONTINUOUS
  5
5A4
 10
454.855843
 20
392.002904
 30
0.0
 11
454.855843
 21
394.502904
 31
0.0
  0
LINE
  8
LC-002-002-----0
  6
CONTINUOUS
  5
5A5
 10
447.355887
 20
394.502904
 30
0.0
 11
467.783103
 21
394.502904
 31
0.0
  0
LINE
  8
LC-002-002-----0
  6
CONTINUOUS
  5
5A6
 10
313.283103
 20
395.002904
 30
0.0
 11
316.283103
 21
392.002904
 31
0.0
  0
LINE
  8
LC-002-002-----0
  6
CONTINUOUS
  5
5A7
 10
323.283103
 20
392.002904
 30
0.0
 11
323.283103
 21
394.502904
 31
0.0
  0
LINE
  8
LC-002-002-----0
  6
CONTINUOUS
  5
5A8
 10
315.783103
 20
411.002548
 30
0.0
 11
317.283103
 21
411.002548
 31
0.0
  0
LINE
  8
LC-002-002-----0
  6
CONTINUOUS
  5
5A9
 10
315.783103
 20
411.002548
 30
0.0
 11
315.783103
 21
412.002548
 31
0.0
  0
ARC
  8
LC-003-002-RND-0
  6
CONTINUOUS
  5
5AA
 10
317.283103
 20
409.002548
 30
0.0
 40
2.0
 50
0.0
 51
90.0
  0
LINE
  8
LC-002-002-----0
  6
CONTINUOUS
  5
5AB
 10
328.710363
 20
392.002904
 30
0.0
 11
328.710363
 21
394.502904
 31
0.0
  0
LINE
  8
LC-002-002-----0
  6
CONTINUOUS
  5
5AC
 10
336.210363
 20
392.002904
 30
0.0
 11
336.210363
 21
394.502904
 31
0.0
  0
LINE
  8
LC-002-002-----0
  6
CONTINUOUS
  5
5AD
 10
351.037913
 20
392.002904
 30
0.0
 11
351.037913
 21
394.502904
 31
0.0
  0
LINE
  8
LC-002-002-----0
  6
CONTINUOUS
  5
5AE
 10
347.473398
 20
392.002904
 30
0.0
 11
347.473398
 21
394.502904
 31
0.0
  0
LINE
  8
LC-002-002-----0
  6
CONTINUOUS
  5
5AF
 10
354.634125
 20
394.502904
 30
0.0
 11
347.473398
 21
394.502904
 31
0.0
  0
LINE
  8
LC-002-002-----0
  6
CONTINUOUS
  5
5B0
 10
336.210363
 20
394.502904
 30
0.0
 11
316.020709
 21
394.502904
 31
0.0
  0
LINE
  8
LC-002-002-----0
  6
CONTINUOUS
  5
5B1
 10
319.283103
 20
409.002548
 30
0.0
 11
319.283103
 21
394.502904
 31
0.0
  0
LINE
  8
LC-002-002-----0
  6
CONTINUOUS
  5
5B2
 10
313.283103
 20
412.002548
 30
0.0
 11
313.283103
 21
395.002904
 31
0.0
  0
LINE
  8
LC-002-002-----0
  6
CONTINUOUS
  5
5B3
 10
321.533103
 20
392.002904
 30
0.0
 11
352.35344
 21
392.002904
 31
0.0
  0
LINE
  8
LC-002-002-----0
  6
CONTINUOUS
  5
5B4
 10
313.283103
 20
412.002548
 30
0.0
 11
391.783103
 21
412.002548
 31
0.0
  0
LINE
  8
LC-002-002-----0
  6
CONTINUOUS
  5
5B5
 10
321.533103
 20
392.002904
 30
0.0
 11
316.283103
 21
392.002904
 31
0.0
  0
LINE
  8
LC-002-002-----0
  6
CONTINUOUS
  5
5B6
 10
464.283103
 20
409.002548
 30
0.0
 11
464.283103
 21
394.502904
 31
0.0
  0
LINE
  8
LC-002-002-----0
  6
CONTINUOUS
  5
5B7
 10
470.283103
 20
412.002548
 30
0.0
 11
470.283103
 21
395.002904
 31
0.0
  0
LINE
  8
LC-002-002-----0
  6
CONTINUOUS
  5
5B8
 10
462.033103
 20
392.002904
 30
0.0
 11
431.187763
 21
392.002904
 31
0.0
  0
LINE
  8
LC-002-002-----0
  6
CONTINUOUS
  5
5B9
 10
470.283103
 20
412.002548
 30
0.0
 11
391.783103
 21
412.002548
 31
0.0
  0
LINE
  8
LC-002-002-----0
  6
CONTINUOUS
  5
5BA
 10
462.033103
 20
392.002904
 30
0.0
 11
467.283103
 21
392.002904
 31
0.0
  0
LINE
  8
LC-002-002-----0
  6
CONTINUOUS
  5
5BB
 10
313.220709
 20
408.4797
 30
0.0
 11
313.220709
 21
394.802237
 31
0.0
  0
LINE
  8
LC-002-002-----0
  6
CONTINUOUS
  5
5BC
 10
315.783103
 20
394.502904
 30
0.0
 11
315.783103
 21
412.002548
 31
0.0
  0
LINE
  8
LC-002-002-----0
  6
CONTINUOUS
  5
5BD
 10
641.592711
 20
421.31272
 30
0.0
 11
641.592711
 21
416.61272
 31
0.0
  0
LINE
  8
LC-002-002-----0
  6
CONTINUOUS
  5
5BE
 10
631.592711
 20
421.31272
 30
0.0
 11
631.592711
 21
416.61272
 31
0.0
  0
LINE
  8
LC-002-002-----0
  6
CONTINUOUS
  5
5BF
 10
621.592711
 20
421.31272
 30
0.0
 11
621.592711
 21
416.61272
 31
0.0
  0
LINE
  8
LC-002-002-----0
  6
CONTINUOUS
  5
5C0
 10
611.592711
 20
421.31272
 30
0.0
 11
611.592711
 21
416.61272
 31
0.0
  0
LINE
  8
LC-002-002-----0
  6
CONTINUOUS
  5
5C1
 10
601.592711
 20
421.31272
 30
0.0
 11
601.592711
 21
416.61272
 31
0.0
  0
LINE
  8
LC-002-002-----0
  6
CONTINUOUS
  5
5C2
 10
591.592711
 20
421.31272
 30
0.0
 11
591.592711
 21
416.61272
 31
0.0
  0
LINE
  8
LC-002-002-----0
  6
CONTINUOUS
  5
5C3
 10
581.592711
 20
421.31272
 30
0.0
 11
581.592711
 21
416.61272
 31
0.0
  0
LINE
  8
LC-002-002-----0
  6
CONTINUOUS
  5
5C4
 10
571.592711
 20
421.31272
 30
0.0
 11
571.592711
 21
416.61272
 31
0.0
  0
LINE
  8
LC-002-002-----0
  6
CONTINUOUS
  5
5C5
 10
561.592711
 20
421.31272
 30
0.0
 11
561.592711
 21
416.61272
 31
0.0
  0
LINE
  8
LC-002-002-----0
  6
CONTINUOUS
  5
5C6
 10
551.592711
 20
421.31272
 30
0.0
 11
551.592711
 21
416.61272
 31
0.0
  0
LINE
  8
LC-002-002-----0
  6
CONTINUOUS
  5
5C7
 10
542.246979
 20
416.61272
 30
0.0
 11
641.592711
 21
416.61272
 31
0.0
  0
LINE
  8
LC-002-002-----0
  6
CONTINUOUS
  5
5C8
 10
542.620409
 20
421.31272
 30
0.0
 11
641.592711
 21
421.31272
 31
0.0
  0
LINE
  8
LC-002-002-----0
  6
CONTINUOUS
  5
5C9
 10
541.592711
 20
421.241486
 30
0.0
 11
541.592711
 21
416.566969
 31
0.0
  0
LINE
  8
LC-002-002-----0
  6
CONTINUOUS
  5
5CA
 10
531.592711
 20
420.548339
 30
0.0
 11
531.592711
 21
415.867702
 31
0.0
  0
LINE
  8
LC-002-002-----0
  6
CONTINUOUS
  5
5CB
 10
521.592711
 20
419.855192
 30
0.0
 11
521.592711
 21
415.168434
 31
0.0
  0
LINE
  8
LC-002-002-----0
  6
CONTINUOUS
  5
5CC
 10
542.620409
 20
421.31272
 30
0.0
 11
501.863321
 21
418.487655
 31
0.0
  0
LINE
  8
LC-002-002-----0
  6
CONTINUOUS
  5
5CD
 10
511.592711
 20
419.162044
 30
0.0
 11
511.592711
 21
414.469167
 31
0.0
  0
LINE
  8
LC-002-002-----0
  6
CONTINUOUS
  5
5CE
 10
501.592711
 20
418.323337
 30
0.0
 11
501.592711
 21
413.034097
 31
0.0
  0
LINE
  8
LC-002-002-----0
  6
CONTINUOUS
  5
5CF
 10
491.592711
 20
415.752973
 30
0.0
 11
491.592711
 21
411.042425
 31
0.0
  0
ARC
  8
LC-002-002-----0
  6
CONTINUOUS
  5
5D0
 10
492.043429
 20
434.354769
 30
0.0
 40
18.66
 50
281.17408
 51
301.752673
  0
LINE
  8
LC-002-002-----0
  6
CONTINUOUS
  5
5D1
 10
483.526965
 20
415.16684
 30
0.0
 11
495.65956
 21
416.048508
 31
0.0
  0
ARC
  8
LC-002-002-----0
  6
CONTINUOUS
  5
5D2
 10
494.144996
 20
422.997493
 30
0.0
 40
6.3
 50
274.0
 51
315.621929
  0
ARC
  8
LC-002-002-----0
  6
CONTINUOUS
  5
5D3
 10
494.144996
 20
422.997493
 30
0.0
 40
7.0
 50
274.0
 51
320.993096
  0
LINE
  8
LC-002-002-----0
  6
CONTINUOUS
  5
5D4
 10
494.586678
 20
416.702414
 30
0.0
 11
476.857202
 21
415.462648
 31
0.0
  0
LINE
  8
LC-002-002-----0
  6
CONTINUOUS
  5
5D5
 10
494.633291
 20
416.014544
 30
0.0
 11
476.906032
 21
414.774934
 31
0.0
  0
ARC
  8
LC-003-002-RND-0
  6
CONTINUOUS
  5
5D6
 10
477.345498
 20
408.4797
 30
0.0
 40
7.0
 50
94.0
 51
180.0
  0
ARC
  8
LC-003-002-RND-0
  6
CONTINUOUS
  5
5D7
 10
477.345498
 20
408.49028
 30
0.0
 40
6.3
 50
94.0
 51
180.0
  0
LINE
  8
LC-002-002-----0
  6
CONTINUOUS
  5
5D8
 10
471.045498
 20
408.49028
 30
0.0
 11
471.045498
 21
394.802237
 31
0.0
  0
LINE
  8
LC-002-002-----0
  6
CONTINUOUS
  5
5D9
 10
470.345498
 20
408.4797
 30
0.0
 11
470.345498
 21
394.802237
 31
0.0
  0
ARC
  8
LC-002-002-----0
  6
CONTINUOUS
  5
5DA
 10
467.545498
 20
394.802237
 30
0.0
 40
2.8
 50
270.0
 51
0.0
  0
ARC
  8
LC-002-002-----0
  6
CONTINUOUS
  5
5DB
 10
467.545498
 20
394.802237
 30
0.0
 40
3.5
 50
270.0
 51
0.0
  0
ARC
  8
LC-002-002-----0
  6
CONTINUOUS
  5
5DC
 10
467.545218
 20
391.002605
 30
0.0
 40
1.0
 50
90.00028
 51
180.00028
  0
ARC
  8
LC-002-002-----0
  6
CONTINUOUS
  5
5DD
 10
467.545218
 20
391.002605
 30
0.0
 40
0.3
 50
90.00028
 51
180.00028
  0
LINE
  8
LC-002-002-----0
  6
CONTINUOUS
  5
5DE
 10
466.545498
 20
391.002237
 30
0.0
 11
466.545498
 21
388.702237
 31
0.0
  0
LINE
  8
LC-002-002-----0
  6
CONTINUOUS
  5
5DF
 10
467.245498
 20
391.002237
 30
0.0
 11
467.245498
 21
388.702237
 31
0.0
  0
ARC
  8
LC-002-002-----0
  6
CONTINUOUS
  5
5E0
 10
467.545498
 20
388.702237
 30
0.0
 40
1.0
 50
180.0
 51
270.0
  0
ARC
  8
LC-002-002-----0
  6
CONTINUOUS
  5
5E1
 10
467.544975
 20
388.702237
 30
0.0
 40
0.3
 50
180.0
 51
270.0
  0
ARC
  8
LC-002-002-----0
  6
CONTINUOUS
  5
5E2
 10
467.545498
 20
386.902237
 30
0.0
 40
1.5
 50
0.0
 51
90.0
  0
ARC
  8
LC-002-002-----0
  6
CONTINUOUS
  5
5E3
 10
467.545498
 20
386.902237
 30
0.0
 40
1.5
 50
270.0
 51
0.0
  0
ARC
  8
LC-002-002-----0
  6
CONTINUOUS
  5
5E4
 10
467.545498
 20
386.902237
 30
0.0
 40
0.8
 50
0.0
 51
90.0
  0
ARC
  8
LC-002-002-----0
  6
CONTINUOUS
  5
5E5
 10
467.545498
 20
386.902237
 30
0.0
 40
0.8
 50
270.0
 51
0.0
  0
LINE
  8
LC-002-002-----0
  6
CONTINUOUS
  5
5E6
 10
467.545498
 20
386.102237
 30
0.0
 11
464.745498
 21
386.102237
 31
0.0
  0
LINE
  8
LC-002-002-----0
  6
CONTINUOUS
  5
5E7
 10
467.545498
 20
385.402237
 30
0.0
 11
464.745498
 21
385.402237
 31
0.0
  0
LINE
  8
LC-002-002-----0
  6
CONTINUOUS
  5
5E8
 10
464.745498
 20
385.402237
 30
0.0
 11
464.745498
 21
386.102237
 31
0.0
  0
LINE
  8
LC-002-002-----0
  6
CONTINUOUS
  5
5E9
 10
394.283103
 20
411.002548
 30
0.0
 11
391.783103
 21
411.002548
 31
0.0
  0
ARC
  8
LC-002-002-----0
  6
CONTINUOUS
  5
5EA
 10
455.282605
 20
409.002548
 30
0.0
 40
2.0
 50
90.0
 51
180.0
  0
LINE
  8
LC-002-002-----0
  6
CONTINUOUS
  5
5EB
 10
458.815415
 20
411.002548
 30
0.0
 11
455.282605
 21
411.002548
 31
0.0
  0
LINE
  8
LC-002-002-----0
  6
CONTINUOUS
  5
5EC
 10
458.815415
 20
394.502904
 30
0.0
 11
458.815415
 21
411.002548
 31
0.0
  0
LINE
  8
LC-002-002-----0
  6
CONTINUOUS
  5
5ED
 10
394.283103
 20
407.246192
 30
0.0
 11
394.283103
 21
411.002548
 31
0.0
  0
LINE
  8
LC-002-002-----0
  6
CONTINUOUS
  5
5EE
 10
455.782605
 20
394.502904
 30
0.0
 11
455.782605
 21
409.002548
 31
0.0
  0
LINE
  8
LC-002-002-----0
  6
CONTINUOUS
  5
5EF
 10
453.282605
 20
394.502904
 30
0.0
 11
453.282605
 21
409.002548
 31
0.0
  0
ARC
  8
LC-002-002-----0
  6
CONTINUOUS
  5
5F0
 10
457.782605
 20
409.002548
 30
0.0
 40
2.0
 50
90.0
 51
180.0
  0
LINE
  8
LC-002-002-----0
  6
CONTINUOUS
  5
5F1
 10
430.176609
 20
394.503007
 30
0.0
 11
430.176609
 21
409.002548
 31
0.0
  0
LINE
  8
LC-002-002-----0
  6
CONTINUOUS
  5
5F2
 10
425.846482
 20
396.339683
 30
0.0
 11
425.846482
 21
409.002548
 31
0.0
  0
LINE
  8
LC-002-002-----0
  6
CONTINUOUS
  5
5F3
 10
431.927602
 20
411.002548
 30
0.0
 11
427.846482
 21
411.002548
 31
0.0
  0
ARC
  8
LC-002-002-----0
  6
CONTINUOUS
  5
5F4
 10
427.846482
 20
409.002548
 30
0.0
 40
2.0
 50
90.0
 51
180.0
  0
ARC
  8
LC-002-002-----0
  6
CONTINUOUS
  5
5F5
 10
432.176609
 20
409.002548
 30
0.0
 40
2.0
 50
97.096995
 51
180.0
  0
LINE
  8
LC-002-002-----0
  6
CONTINUOUS
  5
5F6
 10
431.927602
 20
394.503012
 30
0.0
 11
431.927602
 21
411.002548
 31
0.0
  0
LINE
  8
LC-002-002-----0
  6
CONTINUOUS
  5
5F7
 10
389.283103
 20
411.002548
 30
0.0
 11
391.783103
 21
411.002548
 31
0.0
  0
ARC
  8
LC-002-002-----0
  6
CONTINUOUS
  5
5F8
 10
328.283601
 20
409.002548
 30
0.0
 40
2.0
 50
0.0
 51
90.0
  0
LINE
  8
LC-002-002-----0
  6
CONTINUOUS
  5
5F9
 10
324.750792
 20
411.002548
 30
0.0
 11
328.283601
 21
411.002548
 31
0.0
  0
LINE
  8
LC-002-002-----0
  6
CONTINUOUS
  5
5FA
 10
324.750792
 20
394.502904
 30
0.0
 11
324.750792
 21
411.002548
 31
0.0
  0
LINE
  8
LC-002-002-----0
  6
CONTINUOUS
  5
5FB
 10
389.283103
 20
407.246192
 30
0.0
 11
389.283103
 21
411.002548
 31
0.0
  0
LINE
  8
LC-002-002-----0
  6
CONTINUOUS
  5
5FC
 10
327.783601
 20
394.502904
 30
0.0
 11
327.783601
 21
409.002548
 31
0.0
  0
LINE
  8
LC-002-002-----0
  6
CONTINUOUS
  5
5FD
 10
330.283601
 20
394.502904
 30
0.0
 11
330.283601
 21
409.002548
 31
0.0
  0
ARC
  8
LC-002-002-----0
  6
CONTINUOUS
  5
5FE
 10
325.783601
 20
409.002548
 30
0.0
 40
2.0
 50
0.0
 51
90.0
  0
LINE
  8
LC-002-002-----0
  6
CONTINUOUS
  5
5FF
 10
353.389598
 20
394.502904
 30
0.0
 11
353.389598
 21
409.002548
 31
0.0
  0
LINE
  8
LC-002-002-----0
  6
CONTINUOUS
  5
600
 10
357.719725
 20
396.34984
 30
0.0
 11
357.719725
 21
409.002548
 31
0.0
  0
LINE
  8
LC-002-002-----0
  6
CONTINUOUS
  5
601
 10
351.638605
 20
411.002548
 30
0.0
 11
355.719725
 21
411.002548
 31
0.0
  0
ARC
  8
LC-002-002-----0
  6
CONTINUOUS
  5
602
 10
355.719725
 20
409.002548
 30
0.0
 40
2.0
 50
0.0
 51
90.0
  0
ARC
  8
LC-002-002-----0
  6
CONTINUOUS
  5
603
 10
351.389598
 20
409.002548
 30
0.0
 40
2.0
 50
0.0
 51
82.903005
  0
LINE
  8
LC-002-002-----0
  6
CONTINUOUS
  5
604
 10
351.638605
 20
394.502904
 30
0.0
 11
351.638605
 21
411.002548
 31
0.0
  0
LINE
  8
LC-002-002-----0
  6
CONTINUOUS
  5
605
 10
447.332367
 20
392.002904
 30
0.0
 11
447.332367
 21
394.502904
 31
0.0
  0
LINE
  8
LC-002-002-----0
  6
CONTINUOUS
  5
606
 10
436.069332
 20
392.002904
 30
0.0
 11
436.069332
 21
394.502904
 31
0.0
  0
LINE
  8
LC-002-002-----0
  6
CONTINUOUS
  5
607
 10
428.908606
 20
394.502904
 30
0.0
 11
436.069332
 21
394.502904
 31
0.0
  0
LINE
  8
LC-002-002-----0
  6
CONTINUOUS
  5
608
 10
432.504818
 20
392.002904
 30
0.0
 11
432.504818
 21
394.502904
 31
0.0
  0
LINE
  8
LC-002-002-----0
  6
CONTINUOUS
  5
609
 10
468.957665
 20
381.229458
 30
0.0
 11
433.270645
 21
381.229482
 31
0.0
  0
LINE
  8
LC-002-002-----0
  6
CONTINUOUS
  5
60A
 10
483.302545
 20
410.737141
 30
0.0
 11
477.366893
 21
410.32208
 31
0.0
  0
LINE
  8
LC-002-002-----0
  6
CONTINUOUS
  5
60B
 10
300.232457
 20
410.733587
 30
0.0
 11
306.16811
 21
410.318526
 31
0.0
  0
ARC
  8
LC-002-002-----0
  6
CONTINUOUS
  5
60C
 10
305.887439
 20
406.30474
 30
0.0
 40
4.023715
 50
68.753688
 51
86.001164
  0
LINE
  8
LC-002-002-----0
  6
CONTINUOUS
  5
60D
 10
312.285419
 20
404.757817
 30
0.0
 11
307.345545
 21
410.054969
 31
0.0
  0
ARC
  8
LC-002-002-----0
  6
CONTINUOUS
  5
60E
 10
312.06819
 20
404.55744
 30
0.0
 40
0.296443
 50
249.999864
 51
42.999864
  0
LINE
  8
LC-002-002-----0
  6
CONTINUOUS
  5
60F
 10
311.967235
 20
404.277072
 30
0.0
 11
308.674044
 21
405.47562
 31
0.0
  0
ARC
  8
LC-002-002-----0
  6
CONTINUOUS
  5
610
 10
308.336099
 20
404.547063
 30
0.0
 40
0.988142
 50
70.001161
 51
180.001414
  0
LINE
  8
LC-002-002-----0
  6
CONTINUOUS
  5
611
 10
307.347957
 20
404.547063
 30
0.0
 11
307.347987
 21
403.231325
 31
0.0
  0
LINE
  8
LC-002-002-----0
  6
CONTINUOUS
  5
612
 10
312.285578
 20
397.742007
 30
0.0
 11
307.480724
 21
402.894373
 31
0.0
  0
ARC
  8
LC-002-002-----0
  6
CONTINUOUS
  5
613
 10
312.06819
 20
397.54163
 30
0.0
 40
0.296443
 50
249.999864
 51
42.999864
  0
LINE
  8
LC-002-002-----0
  6
CONTINUOUS
  5
614
 10
311.967394
 20
397.261262
 30
0.0
 11
308.674203
 21
398.45981
 31
0.0
  0
ARC
  8
LC-002-002-----0
  6
CONTINUOUS
  5
615
 10
308.336257
 20
397.531253
 30
0.0
 40
0.988142
 50
70.001161
 51
180.001414
  0
LINE
  8
LC-002-002-----0
  6
CONTINUOUS
  5
616
 10
307.348129
 20
397.531231
 30
0.0
 11
307.348191
 21
395.018432
 31
0.0
  0
LINE
  8
LC-002-002-----0
  6
CONTINUOUS
  5
617
 10
300.232205
 20
410.729983
 30
0.0
 11
300.232205
 21
403.119843
 31
0.0
  0
LINE
  8
LC-002-002-----0
  6
CONTINUOUS
  5
618
 10
305.09153
 20
407.872758
 30
0.0
 11
305.09153
 21
395.020339
 31
0.0
  0
ARC
  8
LC-003-002-RND-0
  6
CONTINUOUS
  5
619
 10
301.312055
 20
403.119843
 30
0.0
 40
1.07985
 50
180.0
 51
266.000003
  0
LINE
  8
LC-002-002-----0
  6
CONTINUOUS
  5
61A
 10
301.236729
 20
402.042623
 30
0.0
 11
303.373587
 21
401.8932
 31
0.0
  0
LINE
  8
LC-002-002-----0
  6
CONTINUOUS
  5
61B
 10
303.373587
 20
401.8932
 30
0.0
 11
303.373587
 21
407.872758
 31
0.0
  0
LINE
  8
LC-002-002-----0
  6
CONTINUOUS
  5
61C
 10
305.09153
 20
407.872758
 30
0.0
 11
303.373587
 21
407.872758
 31
0.0
  0
LINE
  8
LC-002-002-----0
  6
CONTINUOUS
  5
61D
 10
478.443472
 20
407.876311
 30
0.0
 11
478.443472
 21
395.023893
 31
0.0
  0
LINE
  8
LC-002-002-----0
  6
CONTINUOUS
  5
61E
 10
478.443472
 20
407.876311
 30
0.0
 11
480.161415
 21
407.876311
 31
0.0
  0
LINE
  8
LC-002-002-----0
  6
CONTINUOUS
  5
61F
 10
305.092059
 20
395.020339
 30
0.0
 11
307.348191
 21
395.020339
 31
0.0
  0
LINE
  8
LC-002-002-----0
  6
CONTINUOUS
  5
620
 10
483.302797
 20
410.733536
 30
0.0
 11
483.302797
 21
403.110563
 31
0.0
  0
ARC
  8
LC-003-002-RND-0
  6
CONTINUOUS
  5
621
 10
482.222947
 20
403.123396
 30
0.0
 40
1.07985
 50
273.999997
 51
0.0
  0
LINE
  8
LC-002-002-----0
  6
CONTINUOUS
  5
622
 10
482.298273
 20
402.046177
 30
0.0
 11
480.161415
 21
401.896753
 31
0.0
  0
LINE
  8
LC-002-002-----0
  6
CONTINUOUS
  5
623
 10
480.161415
 20
401.896753
 30
0.0
 11
480.161415
 21
407.876311
 31
0.0
  0
ARC
  8
LC-002-002-----0
  6
CONTINUOUS
  5
624
 10
477.647564
 20
406.308294
 30
0.0
 40
4.023715
 50
93.998836
 51
111.246312
  0
LINE
  8
LC-002-002-----0
  6
CONTINUOUS
  5
625
 10
471.249583
 20
404.761371
 30
0.0
 11
476.189457
 21
410.058522
 31
0.0
  0
ARC
  8
LC-002-002-----0
  6
CONTINUOUS
  5
626
 10
471.466812
 20
404.560994
 30
0.0
 40
0.296443
 50
137.000136
 51
290.000136
  0
LINE
  8
LC-002-002-----0
  6
CONTINUOUS
  5
627
 10
471.567767
 20
404.280626
 30
0.0
 11
474.860958
 21
405.479174
 31
0.0
  0
ARC
  8
LC-002-002-----0
  6
CONTINUOUS
  5
628
 10
475.198904
 20
404.550617
 30
0.0
 40
0.988142
 50
359.998586
 51
109.998839
  0
LINE
  8
LC-002-002-----0
  6
CONTINUOUS
  5
629
 10
476.187045
 20
404.550617
 30
0.0
 11
476.187016
 21
403.234878
 31
0.0
  0
ARC
  8
LC-002-002-----0
  6
CONTINUOUS
  5
62A
 10
475.692944
 20
403.234889
 30
0.0
 40
0.494071
 50
316.998839
 51
359.998703
  0
LINE
  8
LC-002-002-----0
  6
CONTINUOUS
  5
62B
 10
471.249424
 20
397.74556
 30
0.0
 11
476.054278
 21
402.897926
 31
0.0
  0
ARC
  8
LC-002-002-----0
  6
CONTINUOUS
  5
62C
 10
471.466812
 20
397.545183
 30
0.0
 40
0.296443
 50
137.000136
 51
290.000136
  0
LINE
  8
LC-002-002-----0
  6
CONTINUOUS
  5
62D
 10
471.567608
 20
397.264815
 30
0.0
 11
474.860799
 21
398.463363
 31
0.0
  0
ARC
  8
LC-002-002-----0
  6
CONTINUOUS
  5
62E
 10
475.198745
 20
397.534806
 30
0.0
 40
0.988142
 50
359.998586
 51
109.998839
  0
LINE
  8
LC-002-002-----0
  6
CONTINUOUS
  5
62F
 10
476.186873
 20
397.534784
 30
0.0
 11
476.186811
 21
395.021985
 31
0.0
  0
LINE
  8
LC-002-002-----0
  6
CONTINUOUS
  5
630
 10
478.442943
 20
395.023893
 30
0.0
 11
476.186811
 21
395.023893
 31
0.0
  0
ARC
  8
LC-002-002-----0
  6
CONTINUOUS
  5
631
 10
307.842058
 20
403.231336
 30
0.0
 40
0.494071
 50
180.001297
 51
223.001161
  0
ENDSEC
  0
EOF
