  0
SECTION
  2
HEADER
  9
$ACADVER
  1
AC1015
  9
$ACADMAINTVER
 70
     6
  9
$DWGCODEPAGE
  3
ANSI_1252
  9
$INSBASE
 10
-63.248057
 20
286.566785
 30
0.0
  9
$EXTMIN
 10
-63.248057
 20
286.566785
 30
0.0
  9
$EXTMAX
 10
776.751943
 20
880.566785
 30
0.0
  9
$LIMMIN
 10
-63.248057
 20
286.566785
  9
$LIMMAX
 10
776.751943
 20
880.566785
  9
$ORTHOMODE
 70
     0
  9
$REGENMODE
 70
     1
  9
$FILLMODE
 70
     1
  9
$QTEXTMODE
 70
     0
  9
$MIRRTEXT
 70
     1
  9
$LTSCALE
 40
2.0
  9
$ATTMODE
 70
     1
  9
$TEXTSIZE
 40
2.5
  9
$TRACEWID
 40
1.0
  9
$TEXTSTYLE
  7
Standard
  9
$CLAYER
  8
0
  9
$CELTYPE
  6
ByLayer
  9
$CECOLOR
 62
     7
  9
$CELTSCALE
 40
1.0
  9
$DISPSILH
 70
     0
  9
$DIMSCALE
 40
2.0
  9
$DIMASZ
 40
3.5
  9
$DIMEXO
 40
0.625
  9
$DIMDLI
 40
3.75
  9
$DIMRND
 40
0.0
  9
$DIMDLE
 40
0.0
  9
$DIMEXE
 40
1.25
  9
$DIMTP
 40
0.0
  9
$DIMTM
 40
0.0
  9
$DIMTXT
 40
3.5
  9
$DIMCEN
 40
2.5
  9
$DIMTSZ
 40
0.0
  9
$DIMTOL
 70
     0
  9
$DIMLIM
 70
     0
  9
$DIMTIH
 70
     0
  9
$DIMTOH
 70
     0
  9
$DIMSE1
 70
     0
  9
$DIMSE2
 70
     0
  9
$DIMTAD
 70
     1
  9
$DIMZIN
 70
     8
  9
$DIMBLK
  1

  9
$DIMASO
 70
     1
  9
$DIMSHO
 70
     1
  9
$DIMPOST
  1

  9
$DIMAPOST
  1

  9
$DIMALT
 70
     0
  9
$DIMALTD
 70
     3
  9
$DIMALTF
 40
0.03937
  9
$DIMLFAC
 40
1.0
  9
$DIMTOFL
 70
     1
  9
$DIMTVP
 40
0.0
  9
$DIMTIX
 70
     0
  9
$DIMSOXD
 70
     0
  9
$DIMSAH
 70
     0
  9
$DIMBLK1
  1

  9
$DIMBLK2
  1

  9
$DIMSTYLE
  2
ISO-25
  9
$DIMCLRD
 70
     0
  9
$DIMCLRE
 70
     0
  9
$DIMCLRT
 70
     0
  9
$DIMTFAC
 40
1.0
  9
$DIMGAP
 40
0.625
  9
$DIMJUST
 70
     0
  9
$DIMSD1
 70
     0
  9
$DIMSD2
 70
     0
  9
$DIMTOLJ
 70
     0
  9
$DIMTZIN
 70
     8
  9
$DIMALTZ
 70
     0
  9
$DIMALTTZ
 70
     0
  9
$DIMUPT
 70
     0
  9
$DIMDEC
 70
     2
  9
$DIMTDEC
 70
     2
  9
$DIMALTU
 70
     2
  9
$DIMALTTD
 70
     3
  9
$DIMTXSTY
  7
Standard
  9
$DIMAUNIT
 70
     0
  9
$DIMADEC
 70
     0
  9
$DIMALTRND
 40
0.0
  9
$DIMAZIN
 70
     0
  9
$DIMDSEP
 70
    44
  9
$DIMATFIT
 70
     3
  9
$DIMFRAC
 70
     0
  9
$DIMLDRBLK
  1

  9
$DIMLUNIT
 70
     2
  9
$DIMLWD
 70
    -2
  9
$DIMLWE
 70
    -2
  9
$DIMTMOVE
 70
     0
  9
$LUNITS
 70
     2
  9
$LUPREC
 70
     4
  9
$SKETCHINC
 40
1.0
  9
$FILLETRAD
 40
10.0
  9
$AUNITS
 70
     0
  9
$AUPREC
 70
     0
  9
$MENU
  1
.
  9
$ELEVATION
 40
0.0
  9
$PELEVATION
 40
0.0
  9
$THICKNESS
 40
0.0
  9
$LIMCHECK
 70
     0
  9
$CHAMFERA
 40
10.0
  9
$CHAMFERB
 40
10.0
  9
$CHAMFERC
 40
20.0
  9
$CHAMFERD
 40
0.0
  9
$SKPOLY
 70
     0
  9
$TDCREATE
 40
2455285.431658808
  9
$TDUCREATE
 40
2455285.348325475
  9
$TDUPDATE
 40
2455285.431658819
  9
$TDUUPDATE
 40
2455285.348325486
  9
$TDINDWG
 40
0.0000000116
  9
$TDUSRTIMER
 40
0.0000000116
  9
$USRTIMER
 70
     1
  9
$ANGBASE
 50
0.0
  9
$ANGDIR
 70
     0
  9
$PDMODE
 70
     0
  9
$PDSIZE
 40
0.0
  9
$PLINEWID
 40
0.0
  9
$SPLFRAME
 70
     0
  9
$SPLINETYPE
 70
     6
  9
$SPLINESEGS
 70
     8
  9
$HANDSEED
  5
425
  9
$SURFTAB1
 70
     6
  9
$SURFTAB2
 70
     6
  9
$SURFTYPE
 70
     6
  9
$SURFU
 70
     6
  9
$SURFV
 70
     6
  9
$UCSBASE
  2

  9
$UCSNAME
  2

  9
$UCSORG
 10
0.0
 20
0.0
 30
0.0
  9
$UCSXDIR
 10
1.0
 20
0.0
 30
0.0
  9
$UCSYDIR
 10
0.0
 20
1.0
 30
0.0
  9
$UCSORTHOREF
  2

  9
$UCSORTHOVIEW
 70
     0
  9
$UCSORGTOP
 10
0.0
 20
0.0
 30
0.0
  9
$UCSORGBOTTOM
 10
0.0
 20
0.0
 30
0.0
  9
$UCSORGLEFT
 10
0.0
 20
0.0
 30
0.0
  9
$UCSORGRIGHT
 10
0.0
 20
0.0
 30
0.0
  9
$UCSORGFRONT
 10
0.0
 20
0.0
 30
0.0
  9
$UCSORGBACK
 10
0.0
 20
0.0
 30
0.0
  9
$PUCSBASE
  2

  9
$PUCSNAME
  2

  9
$PUCSORG
 10
0.0
 20
0.0
 30
0.0
  9
$PUCSXDIR
 10
1.0
 20
0.0
 30
0.0
  9
$PUCSYDIR
 10
0.0
 20
1.0
 30
0.0
  9
$PUCSORTHOREF
  2

  9
$PUCSORTHOVIEW
 70
     0
  9
$PUCSORGTOP
 10
0.0
 20
0.0
 30
0.0
  9
$PUCSORGBOTTOM
 10
0.0
 20
0.0
 30
0.0
  9
$PUCSORGLEFT
 10
0.0
 20
0.0
 30
0.0
  9
$PUCSORGRIGHT
 10
0.0
 20
0.0
 30
0.0
  9
$PUCSORGFRONT
 10
0.0
 20
0.0
 30
0.0
  9
$PUCSORGBACK
 10
0.0
 20
0.0
 30
0.0
  9
$USERI1
 70
     0
  9
$USERI2
 70
     0
  9
$USERI3
 70
     0
  9
$USERI4
 70
     0
  9
$USERI5
 70
     0
  9
$USERR1
 40
0.0
  9
$USERR2
 40
0.0
  9
$USERR3
 40
0.0
  9
$USERR4
 40
0.0
  9
$USERR5
 40
0.0
  9
$WORLDVIEW
 70
     1
  9
$SHADEDGE
 70
     3
  9
$SHADEDIF
 70
    70
  9
$TILEMODE
 70
     1
  9
$MAXACTVP
 70
    64
  9
$PINSBASE
 10
0.0
 20
0.0
 30
0.0
  9
$PLIMCHECK
 70
     0
  9
$PEXTMIN
 10
-63.248057
 20
286.566785
 30
0.0
  9
$PEXTMAX
 10
776.751943
 20
880.566785
 30
0.0
  9
$PLIMMIN
 10
-63.248057
 20
286.566785
  9
$PLIMMAX
 10
776.751943
 20
880.566785
  9
$UNITMODE
 70
     0
  9
$VISRETAIN
 70
     1
  9
$PLINEGEN
 70
     0
  9
$PSLTSCALE
 70
     1
  9
$TREEDEPTH
 70
  3020
  9
$CMLSTYLE
  2
Standard
  9
$CMLJUST
 70
     0
  9
$CMLSCALE
 40
20.0
  9
$PROXYGRAPHICS
 70
     1
  9
$MEASUREMENT
 70
     1
  9
$CELWEIGHT
370
    -1
  9
$ENDCAPS
280
     0
  9
$JOINSTYLE
280
     0
  9
$LWDISPLAY
290
     0
  9
$INSUNITS
 70
     4
  9
$HYPERLINKBASE
  1

  9
$STYLESHEET
  1

  9
$XEDIT
290
     1
  9
$CEPSNTYPE
380
     0
  9
$PSTYLEMODE
290
     1
  9
$FINGERPRINTGUID
  2
{FAEB1C30-E019-11D5-929B-00C0DF256EC4}
  9
$VERSIONGUID
  2
{FAEB1C32-E019-11D5-929B-00C0DF256EC4}
  9
$EXTNAMES
290
     1
  9
$PSVPSCALE
 40
0.0
  9
$OLESTARTUP
290
     0
  0
ENDSEC
  0
SECTION
  2
CLASSES
  0
CLASS
  1
ACDBDICTIONARYWDFLT
  2
AcDbDictionaryWithDefault
  3
ObjectDBX Classes
 90
        0
280
     0
281
     0
  0
CLASS
  1
ACDBPLACEHOLDER
  2
AcDbPlaceHolder
  3
ObjectDBX Classes
 90
        0
280
     0
281
     0
  0
CLASS
  1
LAYOUT
  2
AcDbLayout
  3
ObjectDBX Classes
 90
        0
280
     0
281
     0
  0
ENDSEC
  0
SECTION
  2
TABLES
  0
TABLE
  2
VPORT
  5
8
330
0
100
AcDbSymbolTable
 70
     2
  0
VPORT
  5
29
330
8
100
AcDbSymbolTableRecord
100
AcDbViewportTableRecord
  2
*ACTIVE
 70
     0
 10
0.0
 20
0.0
 11
1.0
 21
1.0
 12
356.751943
 22
583.566785
 13
0.0
 23
0.0
 14
1.0
 24
1.0
 15
0.0
 25
0.0
 16
0.0
 26
0.0
 36
1.0
 17
0.0
 27
0.0
 37
0.0
 40
594.0
 41
1.414141
 42
50.0
 43
0.0
 44
0.0
 50
0.0
 51
0.0
 71
    16
 72
   100
 73
     1
 74
     0
 75
     0
 76
     0
 77
     0
 78
     0
281
     0
 65
     0
110
0.0
120
0.0
130
0.0
111
1.0
121
0.0
131
0.0
112
0.0
122
1.0
132
0.0
 79
     0
146
0.0
  0
ENDTAB
  0
TABLE
  2
LTYPE
  5
5
330
0
100
AcDbSymbolTable
 70
     3
  0
LTYPE
  5
14
330
5
100
AcDbSymbolTableRecord
100
AcDbLinetypeTableRecord
  2
ByBlock
 70
     0
  3

 72
    65
 73
     0
 40
0.0
  0
LTYPE
  5
15
330
5
100
AcDbSymbolTableRecord
100
AcDbLinetypeTableRecord
  2
ByLayer
 70
     0
  3

 72
    65
 73
     0
 40
0.0
  0
LTYPE
  5
16
330
5
100
AcDbSymbolTableRecord
100
AcDbLinetypeTableRecord
  2
Continuous
 70
     0
  3
Solid line
 72
    65
 73
     0
 40
0.0
  0
LTYPE
  5
2A
330
5
100
AcDbSymbolTableRecord
100
AcDbLinetypeTableRecord
  2
DASHED
 70
     0
  3
__ __ __ __ __
 72
    65
 73
     2
 40
6.25
 49
5.0
 74
     4
 75
     0
340
0
 46
1.0
 50
0.0
 44
0.0
 45
0.0
 49
-1.25
 74
     4
 75
     0
340
0
 46
1.0
 50
0.0
 44
0.0
 45
0.0
  0
LTYPE
  5
415
330
5
100
AcDbSymbolTableRecord
100
AcDbLinetypeTableRecord
  2
DASHDOT
 70
     0
  3
__ . __ . __ . __ . __
 72
    65
 73
     4
 40
7.5
 49
5.0
 74
     4
 75
     0
340
0
 46
1.0
 50
0.0
 44
0.0
 45
0.0
 49
-1.25
 74
     4
 75
     0
340
0
 46
1.0
 50
0.0
 44
0.0
 45
0.0
 49
0.0
 74
     4
 75
     0
340
0
 46
1.0
 50
0.0
 44
0.0
 45
0.0
 49
-1.25
 74
     4
 75
     0
340
0
 46
1.0
 50
0.0
 44
0.0
 45
0.0
  0
ENDTAB
  0
TABLE
  2
LAYER
  5
2
330
0
100
AcDbSymbolTable
 70
     9
  0
LAYER
  5
10
330
2
100
AcDbSymbolTableRecord
100
AcDbLayerTableRecord
  2
0
 70
     0
 62
     7
  6
Continuous
370
    -3
390
F
  0
LAYER
  5
2B
330
2
100
AcDbSymbolTableRecord
100
AcDbLayerTableRecord
  2
LC-INFO-1-2-mm-A3-0
 70
     1
 62
     7
  6
ByBlock
370
    -3
390
F
  0
LAYER
  5
2C
330
2
100
AcDbSymbolTableRecord
100
AcDbLayerTableRecord
  2
LC-CUT-HIDDEN
 70
     0
 62
     7
  6
DASHED
370
    -3
390
F
  0
LAYER
  5
2D
330
2
100
AcDbSymbolTableRecord
100
AcDbLayerTableRecord
  2
LC-VIEWPORT
 70
     0
 62
     7
  6
ByBlock
370
    -3
390
F
  0
LAYER
  5
2E
330
2
100
AcDbSymbolTableRecord
100
AcDbLayerTableRecord
  2
LC-3D-HIDDEN
 70
     0
 62
     9
  6
DASHED
370
    -3
390
F
  0
LAYER
  5
31
330
2
100
AcDbSymbolTableRecord
100
AcDbLayerTableRecord
  2
LC-001-100-D00-0
 70
     0
 62
     1
  6
ByBlock
370
    -3
390
F
  0
LAYER
  5
1ED
330
2
100
AcDbSymbolTableRecord
100
AcDbLayerTableRecord
  2
LC-002-102-D00-0
 70
     0
 62
     2
  6
ByBlock
370
    -3
390
F
  0
LAYER
  5
3E0
330
2
100
AcDbSymbolTableRecord
100
AcDbLayerTableRecord
  2
Defpoints
 70
     0
 62
     7
  6
Continuous
290
     0
370
    -3
390
F
  0
LAYER
  5
417
330
2
100
AcDbSymbolTableRecord
100
AcDbLayerTableRecord
  2
LC-003-003-----0
 70
     0
 62
     2
  6
ByBlock
370
    -3
390
F
  0
ENDTAB
  0
TABLE
  2
STYLE
  5
3
330
0
100
AcDbSymbolTable
 70
     4
  0
STYLE
  5
11
330
3
100
AcDbSymbolTableRecord
100
AcDbTextStyleTableRecord
  2
Standard
 70
     0
 40
0.0
 41
1.0
 50
0.0
 71
     0
 42
2.5
  3
txt
  4

  0
STYLE
  5
2F
330
3
100
AcDbSymbolTableRecord
100
AcDbTextStyleTableRecord
  2
LCTX0-400-0-0pDIN-Schrift
 70
     0
 40
0.0
 41
0.75
 50
0.0
 71
     0
 42
3.5
  3
TXT
  4

  0
STYLE
  5
30
330
3
100
AcDbSymbolTableRecord
100
AcDbTextStyleTableRecord
  2
LCTX15-400-0-0-Arial
 70
     0
 40
0.0
 41
0.8
 50
0.0
 71
     0
 42
3.5
  3

  4

1001
ACAD
1000
Arial
1071
 16777218
  0
STYLE
  5
3DD
330
3
100
AcDbSymbolTableRecord
100
AcDbTextStyleTableRecord
  2
LCTX15-400-0-0pDIN-Schrift
 70
     0
 40
2.5
 41
0.8
 50
15.0
 71
     0
 42
3.5
  3
STANDARD
  4

  0
ENDTAB
  0
TABLE
  2
VIEW
  5
6
330
0
100
AcDbSymbolTable
 70
     0
  0
ENDTAB
  0
TABLE
  2
UCS
  5
7
330
0
100
AcDbSymbolTable
 70
     0
  0
ENDTAB
  0
TABLE
  2
APPID
  5
9
330
0
100
AcDbSymbolTable
 70
     1
  0
APPID
  5
12
330
9
100
AcDbSymbolTableRecord
100
AcDbRegAppTableRecord
  2
ACAD
 70
     0
  0
ENDTAB
  0
TABLE
  2
DIMSTYLE
  5
A
330
0
100
AcDbSymbolTable
 70
     2
100
AcDbDimStyleTable
  0
DIMSTYLE
105
27
330
A
100
AcDbSymbolTableRecord
100
AcDbDimStyleTableRecord
  2
ISO-25
 70
     0
 41
2.5
 42
0.625
 43
3.75
 44
1.25
 73
     0
 74
     0
 77
     1
 78
     8
140
2.5
141
2.5
143
0.03937
147
0.625
171
     3
172
     1
271
     2
272
     2
274
     3
278
    44
283
     0
284
     8
340
11
  0
DIMSTYLE
105
3DE
102
{ACAD_REACTORS
330
3DF
330
3ED
330
3FA
330
408
330
418
102
}
330
A
100
AcDbSymbolTableRecord
100
AcDbDimStyleTableRecord
  2
LC-DIM-L-0140-02-02
 70
     0
 40
2.0
 41
14.0
 42
0.0
 43
7.5
 44
1.8
 73
     0
 74
     0
 77
     1
 78
     8
 79
     2
140
14.0
141
0.0
146
0.71
147
1.5
176
     2
177
     2
178
     2
179
     2
271
     2
278
    44
289
     1
340
3DD
  0
ENDTAB
  0
TABLE
  2
BLOCK_RECORD
  5
1
330
0
100
AcDbSymbolTable
 70
    26
  0
BLOCK_RECORD
  5
1F
330
1
100
AcDbSymbolTableRecord
100
AcDbBlockTableRecord
  2
*Model_Space
340
22
  0
BLOCK_RECORD
  5
1B
330
1
100
AcDbSymbolTableRecord
100
AcDbBlockTableRecord
  2
*Paper_Space
340
1E
  0
BLOCK_RECORD
  5
23
330
1
100
AcDbSymbolTableRecord
100
AcDbBlockTableRecord
  2
*Paper_Space0
340
26
  0
BLOCK_RECORD
  5
5A
330
1
100
AcDbSymbolTableRecord
100
AcDbBlockTableRecord
  2
POLY1
340
0
102
{BLKREFS
331
6B
102
}
  0
BLOCK_RECORD
  5
BE
330
1
100
AcDbSymbolTableRecord
100
AcDbBlockTableRecord
  2
POLY2
340
0
102
{BLKREFS
331
CF
102
}
  0
BLOCK_RECORD
  5
120
330
1
100
AcDbSymbolTableRecord
100
AcDbBlockTableRecord
  2
POLY3
340
0
102
{BLKREFS
331
131
102
}
  0
BLOCK_RECORD
  5
132
330
1
100
AcDbSymbolTableRecord
100
AcDbBlockTableRecord
  2
POLY4
340
0
102
{BLKREFS
331
143
102
}
  0
BLOCK_RECORD
  5
147
330
1
100
AcDbSymbolTableRecord
100
AcDbBlockTableRecord
  2
POLY5
340
0
102
{BLKREFS
331
158
102
}
  0
BLOCK_RECORD
  5
159
330
1
100
AcDbSymbolTableRecord
100
AcDbBlockTableRecord
  2
POLY6
340
0
102
{BLKREFS
331
16A
102
}
  0
BLOCK_RECORD
  5
1A9
330
1
100
AcDbSymbolTableRecord
100
AcDbBlockTableRecord
  2
POLY7
340
0
102
{BLKREFS
331
1BA
102
}
  0
BLOCK_RECORD
  5
1BE
330
1
100
AcDbSymbolTableRecord
100
AcDbBlockTableRecord
  2
POLY8
340
0
102
{BLKREFS
331
1CF
102
}
  0
BLOCK_RECORD
  5
29D
330
1
100
AcDbSymbolTableRecord
100
AcDbBlockTableRecord
  2
KLON1
340
0
102
{BLKREFS
331
2E9
102
}
  0
BLOCK_RECORD
  5
2EA
330
1
100
AcDbSymbolTableRecord
100
AcDbBlockTableRecord
  2
KLON2
340
0
102
{BLKREFS
331
2F0
102
}
  0
BLOCK_RECORD
  5
2F1
330
1
100
AcDbSymbolTableRecord
100
AcDbBlockTableRecord
  2
KLON3
340
0
102
{BLKREFS
331
2F7
102
}
  0
BLOCK_RECORD
  5
2F8
330
1
100
AcDbSymbolTableRecord
100
AcDbBlockTableRecord
  2
KLON4
340
0
102
{BLKREFS
331
344
102
}
  0
BLOCK_RECORD
  5
345
330
1
100
AcDbSymbolTableRecord
100
AcDbBlockTableRecord
  2
KLON5
340
0
102
{BLKREFS
331
34E
102
}
  0
BLOCK_RECORD
  5
34F
330
1
100
AcDbSymbolTableRecord
100
AcDbBlockTableRecord
  2
KLON6
340
0
102
{BLKREFS
331
356
102
}
  0
BLOCK_RECORD
  5
357
330
1
100
AcDbSymbolTableRecord
100
AcDbBlockTableRecord
  2
KLON7
340
0
102
{BLKREFS
331
367
102
}
  0
BLOCK_RECORD
  5
368
330
1
100
AcDbSymbolTableRecord
100
AcDbBlockTableRecord
  2
KLON8
340
0
102
{BLKREFS
331
376
102
}
  0
BLOCK_RECORD
  5
377
330
1
100
AcDbSymbolTableRecord
100
AcDbBlockTableRecord
  2
KLON9
340
0
102
{BLKREFS
331
3C0
102
}
  0
BLOCK_RECORD
  5
3C1
330
1
100
AcDbSymbolTableRecord
100
AcDbBlockTableRecord
  2
KLON10
340
0
102
{BLKREFS
331
3C8
102
}
  0
BLOCK_RECORD
  5
3C9
330
1
100
AcDbSymbolTableRecord
100
AcDbBlockTableRecord
  2
KLON11
340
0
102
{BLKREFS
331
3D2
102
}
  0
BLOCK_RECORD
  5
3D3
330
1
100
AcDbSymbolTableRecord
100
AcDbBlockTableRecord
  2
KLON12
340
0
102
{BLKREFS
331
3DC
102
}
  0
BLOCK_RECORD
  5
3E1
330
1
100
AcDbSymbolTableRecord
100
AcDbBlockTableRecord
  2
*D21
340
0
  0
BLOCK_RECORD
  5
3EE
330
1
100
AcDbSymbolTableRecord
100
AcDbBlockTableRecord
  2
*D22
340
0
  0
BLOCK_RECORD
  5
3FB
330
1
100
AcDbSymbolTableRecord
100
AcDbBlockTableRecord
  2
*D23
340
0
  0
BLOCK_RECORD
  5
409
330
1
100
AcDbSymbolTableRecord
100
AcDbBlockTableRecord
  2
*D24
340
0
  0
BLOCK_RECORD
  5
419
330
1
100
AcDbSymbolTableRecord
100
AcDbBlockTableRecord
  2
*D25
340
0
  0
ENDTAB
  0
ENDSEC
  0
SECTION
  2
BLOCKS
  0
BLOCK
  5
20
330
1F
100
AcDbEntity
  8
0
100
AcDbBlockBegin
  2
*Model_Space
 70
     0
 71
     0
 10
0.0
 20
0.0
 30
0.0
  3
*Model_Space
  1

  0
ENDBLK
  5
21
330
1F
100
AcDbEntity
  8
0
100
AcDbBlockEnd
  0
BLOCK
  5
1C
330
1B
100
AcDbEntity
 67
     1
  8
0
100
AcDbBlockBegin
  2
*Paper_Space
 70
     0
 71
     0
 10
0.0
 20
0.0
 30
0.0
  3
*Paper_Space
  1

  0
ENDBLK
  5
1D
330
1B
100
AcDbEntity
 67
     1
  8
0
100
AcDbBlockEnd
  0
BLOCK
  5
24
330
23
100
AcDbEntity
  8
0
100
AcDbBlockBegin
  2
*Paper_Space0
 70
     0
 71
     0
 10
0.0
 20
0.0
 30
0.0
  3
*Paper_Space0
  1

  0
ENDBLK
  5
25
330
23
100
AcDbEntity
  8
0
100
AcDbBlockEnd
  0
BLOCK
  5
5B
330
5A
100
AcDbEntity
  8
0
100
AcDbBlockBegin
  2
POLY1
 70
     0
 71
     0
 10
0.0
 20
0.0
 30
0.0
  3
POLY1
  1

  4
POLY1
  0
LINE
  5
5D
330
5A
100
AcDbEntity
  8
LC-001-100-D00-0
 62
     7
370
    50
100
AcDbLine
 10
230.937958
 20
708.540231
 30
0.0
 11
230.937958
 21
708.540231
 31
0.0
  0
LINE
  5
5E
330
5A
100
AcDbEntity
  8
LC-001-100-D00-0
 62
     7
370
    50
100
AcDbLine
 10
230.937958
 20
708.540231
 30
0.0
 11
230.939781
 21
708.651468
 31
0.0
  0
LINE
  5
5F
330
5A
100
AcDbEntity
  8
LC-001-100-D00-0
 62
     7
370
    50
100
AcDbLine
 10
230.939781
 20
708.651468
 30
0.0
 11
230.939781
 21
708.651468
 31
0.0
  0
LINE
  5
60
330
5A
100
AcDbEntity
  8
LC-001-100-D00-0
 62
     7
370
    50
100
AcDbLine
 10
230.939781
 20
708.651468
 30
0.0
 11
230.943428
 21
708.873916
 31
0.0
  0
LINE
  5
61
330
5A
100
AcDbEntity
  8
LC-001-100-D00-0
 62
     7
370
    50
100
AcDbLine
 10
230.943428
 20
708.873916
 30
0.0
 11
230.943428
 21
708.873916
 31
0.0
  0
LINE
  5
62
330
5A
100
AcDbEntity
  8
LC-001-100-D00-0
 62
     7
370
    50
100
AcDbLine
 10
230.943428
 20
708.873916
 30
0.0
 11
230.972049
 21
709.170799
 31
0.0
  0
LINE
  5
63
330
5A
100
AcDbEntity
  8
LC-001-100-D00-0
 62
     7
370
    50
100
AcDbLine
 10
230.972049
 20
709.170799
 30
0.0
 11
230.972049
 21
709.170799
 31
0.0
  0
LINE
  5
64
330
5A
100
AcDbEntity
  8
LC-001-100-D00-0
 62
     7
370
    50
100
AcDbLine
 10
230.972049
 20
709.170799
 30
0.0
 11
231.015089
 21
709.396907
 31
0.0
  0
LINE
  5
65
330
5A
100
AcDbEntity
  8
LC-001-100-D00-0
 62
     7
370
    50
100
AcDbLine
 10
231.015089
 20
709.396907
 30
0.0
 11
231.015089
 21
709.396907
 31
0.0
  0
LINE
  5
66
330
5A
100
AcDbEntity
  8
LC-001-100-D00-0
 62
     7
370
    50
100
AcDbLine
 10
231.015089
 20
709.396907
 30
0.0
 11
231.064967
 21
709.521516
 31
0.0
  0
LINE
  5
67
330
5A
100
AcDbEntity
  8
LC-001-100-D00-0
 62
     7
370
    50
100
AcDbLine
 10
231.064967
 20
709.521516
 30
0.0
 11
231.064967
 21
709.521516
 31
0.0
  0
LINE
  5
68
330
5A
100
AcDbEntity
  8
LC-001-100-D00-0
 62
     7
370
    50
100
AcDbLine
 10
231.064967
 20
709.521516
 30
0.0
 11
231.09955
 21
709.534753
 31
0.0
  0
LINE
  5
69
330
5A
100
AcDbEntity
  8
LC-001-100-D00-0
 62
     7
370
    50
100
AcDbLine
 10
231.09955
 20
709.534753
 30
0.0
 11
231.09955
 21
709.534753
 31
0.0
  0
LINE
  5
6A
330
5A
100
AcDbEntity
  8
LC-001-100-D00-0
 62
     7
370
    50
100
AcDbLine
 10
231.09955
 20
709.534753
 30
0.0
 11
231.113866
 21
709.540233
 31
0.0
  0
ENDBLK
  5
5C
330
5A
100
AcDbEntity
  8
0
100
AcDbBlockEnd
  0
BLOCK
  5
BF
330
BE
100
AcDbEntity
  8
0
100
AcDbBlockBegin
  2
POLY2
 70
     0
 71
     0
 10
0.0
 20
0.0
 30
0.0
  3
POLY2
  1

  4
POLY2
  0
LINE
  5
C1
330
BE
100
AcDbEntity
  8
LC-001-100-D00-0
 62
     7
370
    50
100
AcDbLine
 10
370.787185
 20
709.540233
 30
0.0
 11
370.787185
 21
709.540233
 31
0.0
  0
LINE
  5
C2
330
BE
100
AcDbEntity
  8
LC-001-100-D00-0
 62
     7
370
    50
100
AcDbLine
 10
370.787185
 20
709.540233
 30
0.0
 11
370.807848
 21
709.528953
 31
0.0
  0
LINE
  5
C3
330
BE
100
AcDbEntity
  8
LC-001-100-D00-0
 62
     7
370
    50
100
AcDbLine
 10
370.807848
 20
709.528953
 30
0.0
 11
370.807848
 21
709.528953
 31
0.0
  0
LINE
  5
C4
330
BE
100
AcDbEntity
  8
LC-001-100-D00-0
 62
     7
370
    50
100
AcDbLine
 10
370.807848
 20
709.528953
 30
0.0
 11
370.849181
 21
709.506391
 31
0.0
  0
LINE
  5
C5
330
BE
100
AcDbEntity
  8
LC-001-100-D00-0
 62
     7
370
    50
100
AcDbLine
 10
370.849181
 20
709.506391
 30
0.0
 11
370.849181
 21
709.506391
 31
0.0
  0
LINE
  5
C6
330
BE
100
AcDbEntity
  8
LC-001-100-D00-0
 62
     7
370
    50
100
AcDbLine
 10
370.849181
 20
709.506391
 30
0.0
 11
370.902272
 21
709.329848
 31
0.0
  0
LINE
  5
C7
330
BE
100
AcDbEntity
  8
LC-001-100-D00-0
 62
     7
370
    50
100
AcDbLine
 10
370.902272
 20
709.329848
 30
0.0
 11
370.902272
 21
709.329848
 31
0.0
  0
LINE
  5
C8
330
BE
100
AcDbEntity
  8
LC-001-100-D00-0
 62
     7
370
    50
100
AcDbLine
 10
370.902272
 20
709.329848
 30
0.0
 11
370.941094
 21
709.070794
 31
0.0
  0
LINE
  5
C9
330
BE
100
AcDbEntity
  8
LC-001-100-D00-0
 62
     7
370
    50
100
AcDbLine
 10
370.941094
 20
709.070794
 30
0.0
 11
370.941094
 21
709.070794
 31
0.0
  0
LINE
  5
CA
330
BE
100
AcDbEntity
  8
LC-001-100-D00-0
 62
     7
370
    50
100
AcDbLine
 10
370.941094
 20
709.070794
 30
0.0
 11
370.960486
 21
708.790522
 31
0.0
  0
LINE
  5
CB
330
BE
100
AcDbEntity
  8
LC-001-100-D00-0
 62
     7
370
    50
100
AcDbLine
 10
370.960486
 20
708.790522
 30
0.0
 11
370.960486
 21
708.790522
 31
0.0
  0
LINE
  5
CC
330
BE
100
AcDbEntity
  8
LC-001-100-D00-0
 62
     7
370
    50
100
AcDbLine
 10
370.960486
 20
708.790522
 30
0.0
 11
370.962371
 21
708.609123
 31
0.0
  0
LINE
  5
CD
330
BE
100
AcDbEntity
  8
LC-001-100-D00-0
 62
     7
370
    50
100
AcDbLine
 10
370.962371
 20
708.609123
 30
0.0
 11
370.962371
 21
708.609123
 31
0.0
  0
LINE
  5
CE
330
BE
100
AcDbEntity
  8
LC-001-100-D00-0
 62
     7
370
    50
100
AcDbLine
 10
370.962371
 20
708.609123
 30
0.0
 11
370.963087
 21
708.540231
 31
0.0
  0
ENDBLK
  5
C0
330
BE
100
AcDbEntity
  8
0
100
AcDbBlockEnd
  0
BLOCK
  5
121
330
120
100
AcDbEntity
  8
0
100
AcDbBlockBegin
  2
POLY3
 70
     0
 71
     0
 10
0.0
 20
0.0
 30
0.0
  3
POLY3
  1

  4
POLY3
  0
LINE
  5
123
330
120
100
AcDbEntity
  8
LC-001-100-D00-0
 62
     7
370
    50
100
AcDbLine
 10
231.113866
 20
709.540233
 30
0.0
 11
231.113866
 21
709.540233
 31
0.0
  0
LINE
  5
124
330
120
100
AcDbEntity
  8
LC-001-100-D00-0
 62
     7
370
    50
100
AcDbLine
 10
231.113866
 20
709.540233
 30
0.0
 11
231.13493
 21
709.528872
 31
0.0
  0
LINE
  5
125
330
120
100
AcDbEntity
  8
LC-001-100-D00-0
 62
     7
370
    50
100
AcDbLine
 10
231.13493
 20
709.528872
 30
0.0
 11
231.13493
 21
709.528872
 31
0.0
  0
LINE
  5
126
330
120
100
AcDbEntity
  8
LC-001-100-D00-0
 62
     7
370
    50
100
AcDbLine
 10
231.13493
 20
709.528872
 30
0.0
 11
231.177063
 21
709.50615
 31
0.0
  0
LINE
  5
127
330
120
100
AcDbEntity
  8
LC-001-100-D00-0
 62
     7
370
    50
100
AcDbLine
 10
231.177063
 20
709.50615
 30
0.0
 11
231.177063
 21
709.50615
 31
0.0
  0
LINE
  5
128
330
120
100
AcDbEntity
  8
LC-001-100-D00-0
 62
     7
370
    50
100
AcDbLine
 10
231.177063
 20
709.50615
 30
0.0
 11
231.23501
 21
709.328946
 31
0.0
  0
LINE
  5
129
330
120
100
AcDbEntity
  8
LC-001-100-D00-0
 62
     7
370
    50
100
AcDbLine
 10
231.23501
 20
709.328946
 30
0.0
 11
231.23501
 21
709.328946
 31
0.0
  0
LINE
  5
12A
330
120
100
AcDbEntity
  8
LC-001-100-D00-0
 62
     7
370
    50
100
AcDbLine
 10
231.23501
 20
709.328946
 30
0.0
 11
231.279044
 21
709.068985
 31
0.0
  0
LINE
  5
12B
330
120
100
AcDbEntity
  8
LC-001-100-D00-0
 62
     7
370
    50
100
AcDbLine
 10
231.279044
 20
709.068985
 30
0.0
 11
231.279044
 21
709.068985
 31
0.0
  0
LINE
  5
12C
330
120
100
AcDbEntity
  8
LC-001-100-D00-0
 62
     7
370
    50
100
AcDbLine
 10
231.279044
 20
709.068985
 30
0.0
 11
231.301584
 21
708.788691
 31
0.0
  0
LINE
  5
12D
330
120
100
AcDbEntity
  8
LC-001-100-D00-0
 62
     7
370
    50
100
AcDbLine
 10
231.301584
 20
708.788691
 30
0.0
 11
231.301584
 21
708.788691
 31
0.0
  0
LINE
  5
12E
330
120
100
AcDbEntity
  8
LC-001-100-D00-0
 62
     7
370
    50
100
AcDbLine
 10
231.301584
 20
708.788691
 30
0.0
 11
231.303756
 21
708.608048
 31
0.0
  0
LINE
  5
12F
330
120
100
AcDbEntity
  8
LC-001-100-D00-0
 62
     7
370
    50
100
AcDbLine
 10
231.303756
 20
708.608048
 30
0.0
 11
231.303756
 21
708.608048
 31
0.0
  0
LINE
  5
130
330
120
100
AcDbEntity
  8
LC-001-100-D00-0
 62
     7
370
    50
100
AcDbLine
 10
231.303756
 20
708.608048
 30
0.0
 11
231.304571
 21
708.540231
 31
0.0
  0
ENDBLK
  5
122
330
120
100
AcDbEntity
  8
0
100
AcDbBlockEnd
  0
BLOCK
  5
133
330
132
100
AcDbEntity
  8
0
100
AcDbBlockBegin
  2
POLY4
 70
     0
 71
     0
 10
0.0
 20
0.0
 30
0.0
  3
POLY4
  1

  4
POLY4
  0
LINE
  5
135
330
132
100
AcDbEntity
  8
LC-001-100-D00-0
 62
     7
370
    50
100
AcDbLine
 10
287.150532
 20
708.540231
 30
0.0
 11
287.150532
 21
708.540231
 31
0.0
  0
LINE
  5
136
330
132
100
AcDbEntity
  8
LC-001-100-D00-0
 62
     7
370
    50
100
AcDbLine
 10
287.150532
 20
708.540231
 30
0.0
 11
287.161298
 21
708.651098
 31
0.0
  0
LINE
  5
137
330
132
100
AcDbEntity
  8
LC-001-100-D00-0
 62
     7
370
    50
100
AcDbLine
 10
287.161298
 20
708.651098
 30
0.0
 11
287.161298
 21
708.651098
 31
0.0
  0
LINE
  5
138
330
132
100
AcDbEntity
  8
LC-001-100-D00-0
 62
     7
370
    50
100
AcDbLine
 10
287.161298
 20
708.651098
 30
0.0
 11
287.182827
 21
708.872793
 31
0.0
  0
LINE
  5
139
330
132
100
AcDbEntity
  8
LC-001-100-D00-0
 62
     7
370
    50
100
AcDbLine
 10
287.182827
 20
708.872793
 30
0.0
 11
287.182827
 21
708.872793
 31
0.0
  0
LINE
  5
13A
330
132
100
AcDbEntity
  8
LC-001-100-D00-0
 62
     7
370
    50
100
AcDbLine
 10
287.182827
 20
708.872793
 30
0.0
 11
287.350333
 21
709.168875
 31
0.0
  0
LINE
  5
13B
330
132
100
AcDbEntity
  8
LC-001-100-D00-0
 62
     7
370
    50
100
AcDbLine
 10
287.350333
 20
709.168875
 30
0.0
 11
287.350333
 21
709.168875
 31
0.0
  0
LINE
  5
13C
330
132
100
AcDbEntity
  8
LC-001-100-D00-0
 62
     7
370
    50
100
AcDbLine
 10
287.350333
 20
709.168875
 30
0.0
 11
287.597843
 21
709.395217
 31
0.0
  0
LINE
  5
13D
330
132
100
AcDbEntity
  8
LC-001-100-D00-0
 62
     7
370
    50
100
AcDbLine
 10
287.597843
 20
709.395217
 30
0.0
 11
287.597843
 21
709.395217
 31
0.0
  0
LINE
  5
13E
330
132
100
AcDbEntity
  8
LC-001-100-D00-0
 62
     7
370
    50
100
AcDbLine
 10
287.597843
 20
709.395217
 30
0.0
 11
287.879969
 21
709.521132
 31
0.0
  0
LINE
  5
13F
330
132
100
AcDbEntity
  8
LC-001-100-D00-0
 62
     7
370
    50
100
AcDbLine
 10
287.879969
 20
709.521132
 30
0.0
 11
287.879969
 21
709.521132
 31
0.0
  0
LINE
  5
140
330
132
100
AcDbEntity
  8
LC-001-100-D00-0
 62
     7
370
    50
100
AcDbLine
 10
287.879969
 20
709.521132
 30
0.0
 11
288.071053
 21
709.534621
 31
0.0
  0
LINE
  5
141
330
132
100
AcDbEntity
  8
LC-001-100-D00-0
 62
     7
370
    50
100
AcDbLine
 10
288.071053
 20
709.534621
 30
0.0
 11
288.071053
 21
709.534621
 31
0.0
  0
LINE
  5
142
330
132
100
AcDbEntity
  8
LC-001-100-D00-0
 62
     7
370
    50
100
AcDbLine
 10
288.071053
 20
709.534621
 30
0.0
 11
288.150534
 21
709.540233
 31
0.0
  0
ENDBLK
  5
134
330
132
100
AcDbEntity
  8
0
100
AcDbBlockEnd
  0
BLOCK
  5
148
330
147
100
AcDbEntity
  8
0
100
AcDbBlockBegin
  2
POLY5
 70
     0
 71
     0
 10
0.0
 20
0.0
 30
0.0
  3
POLY5
  1

  4
POLY5
  0
LINE
  5
14A
330
147
100
AcDbEntity
  8
LC-001-100-D00-0
 62
     7
370
    50
100
AcDbLine
 10
370.59648
 20
708.540231
 30
0.0
 11
370.59648
 21
708.540231
 31
0.0
  0
LINE
  5
14B
330
147
100
AcDbEntity
  8
LC-001-100-D00-0
 62
     7
370
    50
100
AcDbLine
 10
370.59648
 20
708.540231
 30
0.0
 11
370.598618
 21
708.651098
 31
0.0
  0
LINE
  5
14C
330
147
100
AcDbEntity
  8
LC-001-100-D00-0
 62
     7
370
    50
100
AcDbLine
 10
370.598618
 20
708.651098
 30
0.0
 11
370.598618
 21
708.651098
 31
0.0
  0
LINE
  5
14D
330
147
100
AcDbEntity
  8
LC-001-100-D00-0
 62
     7
370
    50
100
AcDbLine
 10
370.598618
 20
708.651098
 30
0.0
 11
370.602893
 21
708.872794
 31
0.0
  0
LINE
  5
14E
330
147
100
AcDbEntity
  8
LC-001-100-D00-0
 62
     7
370
    50
100
AcDbLine
 10
370.602893
 20
708.872794
 30
0.0
 11
370.602893
 21
708.872794
 31
0.0
  0
LINE
  5
14F
330
147
100
AcDbEntity
  8
LC-001-100-D00-0
 62
     7
370
    50
100
AcDbLine
 10
370.602893
 20
708.872794
 30
0.0
 11
370.635885
 21
709.168875
 31
0.0
  0
LINE
  5
150
330
147
100
AcDbEntity
  8
LC-001-100-D00-0
 62
     7
370
    50
100
AcDbLine
 10
370.635885
 20
709.168875
 30
0.0
 11
370.635885
 21
709.168875
 31
0.0
  0
LINE
  5
151
330
147
100
AcDbEntity
  8
LC-001-100-D00-0
 62
     7
370
    50
100
AcDbLine
 10
370.635885
 20
709.168875
 30
0.0
 11
370.683804
 21
709.395216
 31
0.0
  0
LINE
  5
152
330
147
100
AcDbEntity
  8
LC-001-100-D00-0
 62
     7
370
    50
100
AcDbLine
 10
370.683804
 20
709.395216
 30
0.0
 11
370.683804
 21
709.395216
 31
0.0
  0
LINE
  5
153
330
147
100
AcDbEntity
  8
LC-001-100-D00-0
 62
     7
370
    50
100
AcDbLine
 10
370.683804
 20
709.395216
 30
0.0
 11
370.737309
 21
709.521132
 31
0.0
  0
LINE
  5
154
330
147
100
AcDbEntity
  8
LC-001-100-D00-0
 62
     7
370
    50
100
AcDbLine
 10
370.737309
 20
709.521132
 30
0.0
 11
370.737309
 21
709.521132
 31
0.0
  0
LINE
  5
155
330
147
100
AcDbEntity
  8
LC-001-100-D00-0
 62
     7
370
    50
100
AcDbLine
 10
370.737309
 20
709.521132
 30
0.0
 11
370.772533
 21
709.534622
 31
0.0
  0
LINE
  5
156
330
147
100
AcDbEntity
  8
LC-001-100-D00-0
 62
     7
370
    50
100
AcDbLine
 10
370.772533
 20
709.534622
 30
0.0
 11
370.772533
 21
709.534622
 31
0.0
  0
LINE
  5
157
330
147
100
AcDbEntity
  8
LC-001-100-D00-0
 62
     7
370
    50
100
AcDbLine
 10
370.772533
 20
709.534622
 30
0.0
 11
370.787185
 21
709.540233
 31
0.0
  0
ENDBLK
  5
149
330
147
100
AcDbEntity
  8
0
100
AcDbBlockEnd
  0
BLOCK
  5
15A
330
159
100
AcDbEntity
  8
0
100
AcDbBlockBegin
  2
POLY6
 70
     0
 71
     0
 10
0.0
 20
0.0
 30
0.0
  3
POLY6
  1

  4
POLY6
  0
LINE
  5
15C
330
159
100
AcDbEntity
  8
LC-001-100-D00-0
 62
     7
370
    50
100
AcDbLine
 10
313.750614
 20
709.540233
 30
0.0
 11
313.750614
 21
709.540233
 31
0.0
  0
LINE
  5
15D
330
159
100
AcDbEntity
  8
LC-001-100-D00-0
 62
     7
370
    50
100
AcDbLine
 10
313.750614
 20
709.540233
 30
0.0
 11
313.864598
 21
709.528872
 31
0.0
  0
LINE
  5
15E
330
159
100
AcDbEntity
  8
LC-001-100-D00-0
 62
     7
370
    50
100
AcDbLine
 10
313.864598
 20
709.528872
 30
0.0
 11
313.864598
 21
709.528872
 31
0.0
  0
LINE
  5
15F
330
159
100
AcDbEntity
  8
LC-001-100-D00-0
 62
     7
370
    50
100
AcDbLine
 10
313.864598
 20
709.528872
 30
0.0
 11
314.09259
 21
709.50615
 31
0.0
  0
LINE
  5
160
330
159
100
AcDbEntity
  8
LC-001-100-D00-0
 62
     7
370
    50
100
AcDbLine
 10
314.09259
 20
709.50615
 30
0.0
 11
314.09259
 21
709.50615
 31
0.0
  0
LINE
  5
161
330
159
100
AcDbEntity
  8
LC-001-100-D00-0
 62
     7
370
    50
100
AcDbLine
 10
314.09259
 20
709.50615
 30
0.0
 11
314.395614
 21
709.328946
 31
0.0
  0
LINE
  5
162
330
159
100
AcDbEntity
  8
LC-001-100-D00-0
 62
     7
370
    50
100
AcDbLine
 10
314.395614
 20
709.328946
 30
0.0
 11
314.395614
 21
709.328946
 31
0.0
  0
LINE
  5
163
330
159
100
AcDbEntity
  8
LC-001-100-D00-0
 62
     7
370
    50
100
AcDbLine
 10
314.395614
 20
709.328946
 30
0.0
 11
314.621591
 21
709.068985
 31
0.0
  0
LINE
  5
164
330
159
100
AcDbEntity
  8
LC-001-100-D00-0
 62
     7
370
    50
100
AcDbLine
 10
314.621591
 20
709.068985
 30
0.0
 11
314.621591
 21
709.068985
 31
0.0
  0
LINE
  5
165
330
159
100
AcDbEntity
  8
LC-001-100-D00-0
 62
     7
370
    50
100
AcDbLine
 10
314.621591
 20
709.068985
 30
0.0
 11
314.735496
 21
708.78869
 31
0.0
  0
LINE
  5
166
330
159
100
AcDbEntity
  8
LC-001-100-D00-0
 62
     7
370
    50
100
AcDbLine
 10
314.735496
 20
708.78869
 30
0.0
 11
314.735496
 21
708.78869
 31
0.0
  0
LINE
  5
167
330
159
100
AcDbEntity
  8
LC-001-100-D00-0
 62
     7
370
    50
100
AcDbLine
 10
314.735496
 20
708.78869
 30
0.0
 11
314.746486
 21
708.608048
 31
0.0
  0
LINE
  5
168
330
159
100
AcDbEntity
  8
LC-001-100-D00-0
 62
     7
370
    50
100
AcDbLine
 10
314.746486
 20
708.608048
 30
0.0
 11
314.746486
 21
708.608048
 31
0.0
  0
LINE
  5
169
330
159
100
AcDbEntity
  8
LC-001-100-D00-0
 62
     7
370
    50
100
AcDbLine
 10
314.746486
 20
708.608048
 30
0.0
 11
314.750612
 21
708.540231
 31
0.0
  0
ENDBLK
  5
15B
330
159
100
AcDbEntity
  8
0
100
AcDbBlockEnd
  0
BLOCK
  5
1AA
330
1A9
100
AcDbEntity
  8
0
100
AcDbBlockBegin
  2
POLY7
 70
     0
 71
     0
 10
0.0
 20
0.0
 30
0.0
  3
POLY7
  1

  4
POLY7
  0
LINE
  5
1AC
330
1A9
100
AcDbEntity
  8
LC-001-100-D00-0
 62
     7
370
    50
100
AcDbLine
 10
312.750612
 20
708.540231
 30
0.0
 11
312.750612
 21
708.540231
 31
0.0
  0
LINE
  5
1AD
330
1A9
100
AcDbEntity
  8
LC-001-100-D00-0
 62
     7
370
    50
100
AcDbLine
 10
312.750612
 20
708.540231
 30
0.0
 11
312.761444
 21
708.651468
 31
0.0
  0
LINE
  5
1AE
330
1A9
100
AcDbEntity
  8
LC-001-100-D00-0
 62
     7
370
    50
100
AcDbLine
 10
312.761444
 20
708.651468
 30
0.0
 11
312.761444
 21
708.651468
 31
0.0
  0
LINE
  5
1AF
330
1A9
100
AcDbEntity
  8
LC-001-100-D00-0
 62
     7
370
    50
100
AcDbLine
 10
312.761444
 20
708.651468
 30
0.0
 11
312.783106
 21
708.873917
 31
0.0
  0
LINE
  5
1B0
330
1A9
100
AcDbEntity
  8
LC-001-100-D00-0
 62
     7
370
    50
100
AcDbLine
 10
312.783106
 20
708.873917
 30
0.0
 11
312.783106
 21
708.873917
 31
0.0
  0
LINE
  5
1B1
330
1A9
100
AcDbEntity
  8
LC-001-100-D00-0
 62
     7
370
    50
100
AcDbLine
 10
312.783106
 20
708.873917
 30
0.0
 11
312.951762
 21
709.170797
 31
0.0
  0
LINE
  5
1B2
330
1A9
100
AcDbEntity
  8
LC-001-100-D00-0
 62
     7
370
    50
100
AcDbLine
 10
312.951762
 20
709.170797
 30
0.0
 11
312.951762
 21
709.170797
 31
0.0
  0
LINE
  5
1B3
330
1A9
100
AcDbEntity
  8
LC-001-100-D00-0
 62
     7
370
    50
100
AcDbLine
 10
312.951762
 20
709.170797
 30
0.0
 11
313.200477
 21
709.396908
 31
0.0
  0
LINE
  5
1B4
330
1A9
100
AcDbEntity
  8
LC-001-100-D00-0
 62
     7
370
    50
100
AcDbLine
 10
313.200477
 20
709.396908
 30
0.0
 11
313.200477
 21
709.396908
 31
0.0
  0
LINE
  5
1B5
330
1A9
100
AcDbEntity
  8
LC-001-100-D00-0
 62
     7
370
    50
100
AcDbLine
 10
313.200477
 20
709.396908
 30
0.0
 11
313.482297
 21
709.521516
 31
0.0
  0
LINE
  5
1B6
330
1A9
100
AcDbEntity
  8
LC-001-100-D00-0
 62
     7
370
    50
100
AcDbLine
 10
313.482297
 20
709.521516
 30
0.0
 11
313.482297
 21
709.521516
 31
0.0
  0
LINE
  5
1B7
330
1A9
100
AcDbEntity
  8
LC-001-100-D00-0
 62
     7
370
    50
100
AcDbLine
 10
313.482297
 20
709.521516
 30
0.0
 11
313.672057
 21
709.534753
 31
0.0
  0
LINE
  5
1B8
330
1A9
100
AcDbEntity
  8
LC-001-100-D00-0
 62
     7
370
    50
100
AcDbLine
 10
313.672057
 20
709.534753
 30
0.0
 11
313.672057
 21
709.534753
 31
0.0
  0
LINE
  5
1B9
330
1A9
100
AcDbEntity
  8
LC-001-100-D00-0
 62
     7
370
    50
100
AcDbLine
 10
313.672057
 20
709.534753
 30
0.0
 11
313.750614
 21
709.540233
 31
0.0
  0
ENDBLK
  5
1AB
330
1A9
100
AcDbEntity
  8
0
100
AcDbBlockEnd
  0
BLOCK
  5
1BF
330
1BE
100
AcDbEntity
  8
0
100
AcDbBlockBegin
  2
POLY8
 70
     0
 71
     0
 10
0.0
 20
0.0
 30
0.0
  3
POLY8
  1

  4
POLY8
  0
LINE
  5
1C1
330
1BE
100
AcDbEntity
  8
LC-001-100-D00-0
 62
     7
370
    50
100
AcDbLine
 10
288.150534
 20
709.540233
 30
0.0
 11
288.150534
 21
709.540233
 31
0.0
  0
LINE
  5
1C2
330
1BE
100
AcDbEntity
  8
LC-001-100-D00-0
 62
     7
370
    50
100
AcDbLine
 10
288.150534
 20
709.540233
 30
0.0
 11
288.264206
 21
709.528953
 31
0.0
  0
LINE
  5
1C3
330
1BE
100
AcDbEntity
  8
LC-001-100-D00-0
 62
     7
370
    50
100
AcDbLine
 10
288.264206
 20
709.528953
 30
0.0
 11
288.264206
 21
709.528953
 31
0.0
  0
LINE
  5
1C4
330
1BE
100
AcDbEntity
  8
LC-001-100-D00-0
 62
     7
370
    50
100
AcDbLine
 10
288.264206
 20
709.528953
 30
0.0
 11
288.491586
 21
709.50639
 31
0.0
  0
LINE
  5
1C5
330
1BE
100
AcDbEntity
  8
LC-001-100-D00-0
 62
     7
370
    50
100
AcDbLine
 10
288.491586
 20
709.50639
 30
0.0
 11
288.491586
 21
709.50639
 31
0.0
  0
LINE
  5
1C6
330
1BE
100
AcDbEntity
  8
LC-001-100-D00-0
 62
     7
370
    50
100
AcDbLine
 10
288.491586
 20
709.50639
 30
0.0
 11
288.794316
 21
709.329848
 31
0.0
  0
LINE
  5
1C7
330
1BE
100
AcDbEntity
  8
LC-001-100-D00-0
 62
     7
370
    50
100
AcDbLine
 10
288.794316
 20
709.329848
 30
0.0
 11
288.794316
 21
709.329848
 31
0.0
  0
LINE
  5
1C8
330
1BE
100
AcDbEntity
  8
LC-001-100-D00-0
 62
     7
370
    50
100
AcDbLine
 10
288.794316
 20
709.329848
 30
0.0
 11
289.020277
 21
709.070795
 31
0.0
  0
LINE
  5
1C9
330
1BE
100
AcDbEntity
  8
LC-001-100-D00-0
 62
     7
370
    50
100
AcDbLine
 10
289.020277
 20
709.070795
 30
0.0
 11
289.020277
 21
709.070795
 31
0.0
  0
LINE
  5
1CA
330
1BE
100
AcDbEntity
  8
LC-001-100-D00-0
 62
     7
370
    50
100
AcDbLine
 10
289.020277
 20
709.070795
 30
0.0
 11
289.135083
 21
708.790522
 31
0.0
  0
LINE
  5
1CB
330
1BE
100
AcDbEntity
  8
LC-001-100-D00-0
 62
     7
370
    50
100
AcDbLine
 10
289.135083
 20
708.790522
 30
0.0
 11
289.135083
 21
708.790522
 31
0.0
  0
LINE
  5
1CC
330
1BE
100
AcDbEntity
  8
LC-001-100-D00-0
 62
     7
370
    50
100
AcDbLine
 10
289.135083
 20
708.790522
 30
0.0
 11
289.14628
 21
708.609123
 31
0.0
  0
LINE
  5
1CD
330
1BE
100
AcDbEntity
  8
LC-001-100-D00-0
 62
     7
370
    50
100
AcDbLine
 10
289.14628
 20
708.609123
 30
0.0
 11
289.14628
 21
708.609123
 31
0.0
  0
LINE
  5
1CE
330
1BE
100
AcDbEntity
  8
LC-001-100-D00-0
 62
     7
370
    50
100
AcDbLine
 10
289.14628
 20
708.609123
 30
0.0
 11
289.150532
 21
708.540231
 31
0.0
  0
ENDBLK
  5
1C0
330
1BE
100
AcDbEntity
  8
0
100
AcDbBlockEnd
  0
BLOCK
  5
29E
330
29D
100
AcDbEntity
  8
0
100
AcDbBlockBegin
  2
KLON1
 70
     0
 71
     0
 10
0.0
 20
0.0
 30
0.0
  3
KLON1
  1

  4
KLON1
  0
LINE
  5
2A0
330
29D
100
AcDbEntity
  8
LC-002-102-D00-0
 62
     7
370
    25
100
AcDbLine
 10
343.450515
 20
558.976662
 30
0.0
 11
346.050515
 21
561.576662
 31
0.0
  0
LINE
  5
2A1
330
29D
100
AcDbEntity
  8
LC-002-102-D00-0
 62
     7
370
    25
100
AcDbLine
 10
343.450515
 20
563.46679
 30
0.0
 11
346.050515
 21
566.06679
 31
0.0
  0
LINE
  5
2A2
330
29D
100
AcDbEntity
  8
LC-002-102-D00-0
 62
     7
370
    25
100
AcDbLine
 10
343.450515
 20
567.956918
 30
0.0
 11
346.050515
 21
570.556918
 31
0.0
  0
LINE
  5
2A3
330
29D
100
AcDbEntity
  8
LC-002-102-D00-0
 62
     7
370
    25
100
AcDbLine
 10
343.450515
 20
572.447046
 30
0.0
 11
346.050515
 21
575.047046
 31
0.0
  0
LINE
  5
2A4
330
29D
100
AcDbEntity
  8
LC-002-102-D00-0
 62
     7
370
    25
100
AcDbLine
 10
343.450515
 20
576.937174
 30
0.0
 11
346.050515
 21
579.537174
 31
0.0
  0
LINE
  5
2A5
330
29D
100
AcDbEntity
  8
LC-002-102-D00-0
 62
     7
370
    25
100
AcDbLine
 10
343.450515
 20
581.427302
 30
0.0
 11
346.050515
 21
584.027302
 31
0.0
  0
LINE
  5
2A6
330
29D
100
AcDbEntity
  8
LC-002-102-D00-0
 62
     7
370
    25
100
AcDbLine
 10
343.450515
 20
585.91743
 30
0.0
 11
346.050515
 21
588.51743
 31
0.0
  0
LINE
  5
2A7
330
29D
100
AcDbEntity
  8
LC-002-102-D00-0
 62
     7
370
    25
100
AcDbLine
 10
343.450515
 20
590.407558
 30
0.0
 11
346.050515
 21
593.007558
 31
0.0
  0
LINE
  5
2A8
330
29D
100
AcDbEntity
  8
LC-002-102-D00-0
 62
     7
370
    25
100
AcDbLine
 10
343.450515
 20
594.897686
 30
0.0
 11
346.050515
 21
597.497686
 31
0.0
  0
LINE
  5
2A9
330
29D
100
AcDbEntity
  8
LC-002-102-D00-0
 62
     7
370
    25
100
AcDbLine
 10
379.793058
 20
631.240229
 30
0.0
 11
381.050515
 21
632.497686
 31
0.0
  0
LINE
  5
2AA
330
29D
100
AcDbEntity
  8
LC-002-102-D00-0
 62
     7
370
    25
100
AcDbLine
 10
462.793058
 20
714.240229
 30
0.0
 11
464.371786
 21
715.818958
 31
0.0
  0
LINE
  5
2AB
330
29D
100
AcDbEntity
  8
LC-002-102-D00-0
 62
     7
370
    25
100
AcDbLine
 10
343.450515
 20
599.387814
 30
0.0
 11
346.050515
 21
601.987814
 31
0.0
  0
LINE
  5
2AC
330
29D
100
AcDbEntity
  8
LC-002-102-D00-0
 62
     7
370
    25
100
AcDbLine
 10
378.175447
 20
634.112746
 30
0.0
 11
381.050515
 21
636.987814
 31
0.0
  0
LINE
  5
2AD
330
29D
100
AcDbEntity
  8
LC-002-102-D00-0
 62
     7
370
    25
100
AcDbLine
 10
458.30293
 20
714.240229
 30
0.0
 11
461.30293
 21
717.240229
 31
0.0
  0
LINE
  5
2AE
330
29D
100
AcDbEntity
  8
LC-002-102-D00-0
 62
     7
370
    25
100
AcDbLine
 10
343.450515
 20
603.877943
 30
0.0
 11
346.050515
 21
606.477943
 31
0.0
  0
LINE
  5
2AF
330
29D
100
AcDbEntity
  8
LC-002-102-D00-0
 62
     7
370
    25
100
AcDbLine
 10
378.136601
 20
638.564029
 30
0.0
 11
381.050515
 21
641.477943
 31
0.0
  0
LINE
  5
2B0
330
29D
100
AcDbEntity
  8
LC-002-102-D00-0
 62
     7
370
    25
100
AcDbLine
 10
453.812802
 20
714.240229
 30
0.0
 11
456.812802
 21
717.240229
 31
0.0
  0
LINE
  5
2B1
330
29D
100
AcDbEntity
  8
LC-002-102-D00-0
 62
     7
370
    25
100
AcDbLine
 10
343.450515
 20
608.368071
 30
0.0
 11
346.050515
 21
610.968071
 31
0.0
  0
LINE
  5
2B2
330
29D
100
AcDbEntity
  8
LC-002-102-D00-0
 62
     7
370
    25
100
AcDbLine
 10
365.322674
 20
630.240229
 30
0.0
 11
367.450515
 21
632.368071
 31
0.0
  0
LINE
  5
2B3
330
29D
100
AcDbEntity
  8
LC-002-102-D00-0
 62
     7
370
    25
100
AcDbLine
 10
378.097755
 20
643.015311
 30
0.0
 11
381.050515
 21
645.968071
 31
0.0
  0
LINE
  5
2B4
330
29D
100
AcDbEntity
  8
LC-002-102-D00-0
 62
     7
370
    25
100
AcDbLine
 10
449.322674
 20
714.240229
 30
0.0
 11
452.322674
 21
717.240229
 31
0.0
  0
LINE
  5
2B5
330
29D
100
AcDbEntity
  8
LC-002-102-D00-0
 62
     7
370
    25
100
AcDbLine
 10
343.450515
 20
612.858199
 30
0.0
 11
346.050515
 21
615.458199
 31
0.0
  0
LINE
  5
2B6
330
29D
100
AcDbEntity
  8
LC-002-102-D00-0
 62
     7
370
    25
100
AcDbLine
 10
360.832546
 20
630.240229
 30
0.0
 11
363.832546
 21
633.240229
 31
0.0
  0
LINE
  5
2B7
330
29D
100
AcDbEntity
  8
LC-002-102-D00-0
 62
     7
370
    25
100
AcDbLine
 10
364.450515
 20
633.858199
 30
0.0
 11
367.450515
 21
636.858199
 31
0.0
  0
LINE
  5
2B8
330
29D
100
AcDbEntity
  8
LC-002-102-D00-0
 62
     7
370
    25
100
AcDbLine
 10
378.05891
 20
647.466593
 30
0.0
 11
381.050515
 21
650.458199
 31
0.0
  0
LINE
  5
2B9
330
29D
100
AcDbEntity
  8
LC-002-102-D00-0
 62
     7
370
    25
100
AcDbLine
 10
444.832546
 20
714.240229
 30
0.0
 11
447.832546
 21
717.240229
 31
0.0
  0
LINE
  5
2BA
330
29D
100
AcDbEntity
  8
LC-002-102-D00-0
 62
     7
370
    25
100
AcDbLine
 10
343.450515
 20
617.348327
 30
0.0
 11
346.050515
 21
619.948327
 31
0.0
  0
LINE
  5
2BB
330
29D
100
AcDbEntity
  8
LC-002-102-D00-0
 62
     7
370
    25
100
AcDbLine
 10
356.342418
 20
630.240229
 30
0.0
 11
359.342418
 21
633.240229
 31
0.0
  0
LINE
  5
2BC
330
29D
100
AcDbEntity
  8
LC-002-102-D00-0
 62
     7
370
    25
100
AcDbLine
 10
364.450515
 20
638.348327
 30
0.0
 11
367.450515
 21
641.348327
 31
0.0
  0
LINE
  5
2BD
330
29D
100
AcDbEntity
  8
LC-002-102-D00-0
 62
     7
370
    25
100
AcDbLine
 10
378.020064
 20
651.917876
 30
0.0
 11
381.050515
 21
654.948327
 31
0.0
  0
LINE
  5
2BE
330
29D
100
AcDbEntity
  8
LC-002-102-D00-0
 62
     7
370
    25
100
AcDbLine
 10
440.342418
 20
714.240229
 30
0.0
 11
443.342418
 21
717.240229
 31
0.0
  0
LINE
  5
2BF
330
29D
100
AcDbEntity
  8
LC-002-102-D00-0
 62
     7
370
    25
100
AcDbLine
 10
343.450515
 20
621.838455
 30
0.0
 11
346.050515
 21
624.438455
 31
0.0
  0
LINE
  5
2C0
330
29D
100
AcDbEntity
  8
LC-002-102-D00-0
 62
     7
370
    25
100
AcDbLine
 10
351.85229
 20
630.240229
 30
0.0
 11
354.85229
 21
633.240229
 31
0.0
  0
LINE
  5
2C1
330
29D
100
AcDbEntity
  8
LC-002-102-D00-0
 62
     7
370
    25
100
AcDbLine
 10
364.450515
 20
642.838455
 30
0.0
 11
367.450515
 21
645.838455
 31
0.0
  0
LINE
  5
2C2
330
29D
100
AcDbEntity
  8
LC-002-102-D00-0
 62
     7
370
    25
100
AcDbLine
 10
377.981218
 20
656.369158
 30
0.0
 11
381.050515
 21
659.438455
 31
0.0
  0
LINE
  5
2C3
330
29D
100
AcDbEntity
  8
LC-002-102-D00-0
 62
     7
370
    25
100
AcDbLine
 10
435.85229
 20
714.240229
 30
0.0
 11
438.85229
 21
717.240229
 31
0.0
  0
LINE
  5
2C4
330
29D
100
AcDbEntity
  8
LC-002-102-D00-0
 62
     7
370
    25
100
AcDbLine
 10
343.450515
 20
626.328583
 30
0.0
 11
346.050515
 21
628.928583
 31
0.0
  0
LINE
  5
2C5
330
29D
100
AcDbEntity
  8
LC-002-102-D00-0
 62
     7
370
    25
100
AcDbLine
 10
347.265671
 20
630.143739
 30
0.0
 11
350.362162
 21
633.240229
 31
0.0
  0
LINE
  5
2C6
330
29D
100
AcDbEntity
  8
LC-002-102-D00-0
 62
     7
370
    25
100
AcDbLine
 10
364.450515
 20
647.328583
 30
0.0
 11
367.450515
 21
650.328583
 31
0.0
  0
LINE
  5
2C7
330
29D
100
AcDbEntity
  8
LC-002-102-D00-0
 62
     7
370
    25
100
AcDbLine
 10
377.942372
 20
660.82044
 30
0.0
 11
381.050515
 21
663.928583
 31
0.0
  0
LINE
  5
2C8
330
29D
100
AcDbEntity
  8
LC-002-102-D00-0
 62
     7
370
    25
100
AcDbLine
 10
431.362162
 20
714.240229
 30
0.0
 11
434.362162
 21
717.240229
 31
0.0
  0
LINE
  5
2C9
330
29D
100
AcDbEntity
  8
LC-002-102-D00-0
 62
     7
370
    25
100
AcDbLine
 10
343.450515
 20
630.818711
 30
0.0
 11
345.872033
 21
633.240229
 31
0.0
  0
LINE
  5
2CA
330
29D
100
AcDbEntity
  8
LC-002-102-D00-0
 62
     7
370
    25
100
AcDbLine
 10
364.450515
 20
651.818711
 30
0.0
 11
367.450515
 21
654.818711
 31
0.0
  0
LINE
  5
2CB
330
29D
100
AcDbEntity
  8
LC-002-102-D00-0
 62
     7
370
    25
100
AcDbLine
 10
377.903527
 20
665.271723
 30
0.0
 11
381.050515
 21
668.418711
 31
0.0
  0
LINE
  5
2CC
330
29D
100
AcDbEntity
  8
LC-002-102-D00-0
 62
     7
370
    25
100
AcDbLine
 10
426.872033
 20
714.240229
 30
0.0
 11
429.872033
 21
717.240229
 31
0.0
  0
LINE
  5
2CD
330
29D
100
AcDbEntity
  8
LC-002-102-D00-0
 62
     7
370
    25
100
AcDbLine
 10
364.450515
 20
656.308839
 30
0.0
 11
367.450515
 21
659.308839
 31
0.0
  0
LINE
  5
2CE
330
29D
100
AcDbEntity
  8
LC-002-102-D00-0
 62
     7
370
    25
100
AcDbLine
 10
377.864681
 20
669.723005
 30
0.0
 11
381.050515
 21
672.908839
 31
0.0
  0
LINE
  5
2CF
330
29D
100
AcDbEntity
  8
LC-002-102-D00-0
 62
     7
370
    25
100
AcDbLine
 10
422.381905
 20
714.240229
 30
0.0
 11
425.381905
 21
717.240229
 31
0.0
  0
LINE
  5
2D0
330
29D
100
AcDbEntity
  8
LC-002-102-D00-0
 62
     7
370
    25
100
AcDbLine
 10
364.450515
 20
660.798967
 30
0.0
 11
367.450515
 21
663.798967
 31
0.0
  0
LINE
  5
2D1
330
29D
100
AcDbEntity
  8
LC-002-102-D00-0
 62
     7
370
    25
100
AcDbLine
 10
369.591777
 20
665.940229
 30
0.0
 11
373.300515
 21
669.648967
 31
0.0
  0
LINE
  5
2D2
330
29D
100
AcDbEntity
  8
LC-002-102-D00-0
 62
     7
370
    25
100
AcDbLine
 10
377.825835
 20
674.174287
 30
0.0
 11
381.050515
 21
677.398967
 31
0.0
  0
LINE
  5
2D3
330
29D
100
AcDbEntity
  8
LC-002-102-D00-0
 62
     7
370
    25
100
AcDbLine
 10
417.891777
 20
714.240229
 30
0.0
 11
420.891777
 21
717.240229
 31
0.0
  0
LINE
  5
2D4
330
29D
100
AcDbEntity
  8
LC-002-102-D00-0
 62
     7
370
    25
100
AcDbLine
 10
364.450515
 20
665.289095
 30
0.0
 11
368.601649
 21
669.440229
 31
0.0
  0
LINE
  5
2D5
330
29D
100
AcDbEntity
  8
LC-002-102-D00-0
 62
     7
370
    25
100
AcDbLine
 10
370.450515
 20
671.289095
 30
0.0
 11
373.300515
 21
674.139095
 31
0.0
  0
LINE
  5
2D6
330
29D
100
AcDbEntity
  8
LC-002-102-D00-0
 62
     7
370
    25
100
AcDbLine
 10
377.786989
 20
678.625569
 30
0.0
 11
381.050515
 21
681.889095
 31
0.0
  0
LINE
  5
2D7
330
29D
100
AcDbEntity
  8
LC-002-102-D00-0
 62
     7
370
    25
100
AcDbLine
 10
413.401649
 20
714.240229
 30
0.0
 11
416.401649
 21
717.240229
 31
0.0
  0
LINE
  5
2D8
330
29D
100
AcDbEntity
  8
LC-002-102-D00-0
 62
     7
370
    25
100
AcDbLine
 10
370.450515
 20
675.779223
 30
0.0
 11
373.300515
 21
678.629223
 31
0.0
  0
LINE
  5
2D9
330
29D
100
AcDbEntity
  8
LC-002-102-D00-0
 62
     7
370
    25
100
AcDbLine
 10
374.611521
 20
679.940229
 30
0.0
 11
377.111521
 21
682.440229
 31
0.0
  0
LINE
  5
2DA
330
29D
100
AcDbEntity
  8
LC-002-102-D00-0
 62
     7
370
    25
100
AcDbLine
 10
377.450515
 20
682.779223
 30
0.0
 11
381.050515
 21
686.379223
 31
0.0
  0
LINE
  5
2DB
330
29D
100
AcDbEntity
  8
LC-002-102-D00-0
 62
     7
370
    25
100
AcDbLine
 10
408.911521
 20
714.240229
 30
0.0
 11
411.911521
 21
717.240229
 31
0.0
  0
LINE
  5
2DC
330
29D
100
AcDbEntity
  8
LC-002-102-D00-0
 62
     7
370
    25
100
AcDbLine
 10
370.450515
 20
680.269351
 30
0.0
 11
372.621393
 21
682.440229
 31
0.0
  0
LINE
  5
2DD
330
29D
100
AcDbEntity
  8
LC-002-102-D00-0
 62
     7
370
    25
100
AcDbLine
 10
377.435954
 20
687.25479
 30
0.0
 11
381.050515
 21
690.869351
 31
0.0
  0
LINE
  5
2DE
330
29D
100
AcDbEntity
  8
LC-002-102-D00-0
 62
     7
370
    25
100
AcDbLine
 10
404.421393
 20
714.240229
 30
0.0
 11
407.421393
 21
717.240229
 31
0.0
  0
LINE
  5
2DF
330
29D
100
AcDbEntity
  8
LC-002-102-D00-0
 62
     7
370
    25
100
AcDbLine
 10
376.450515
 20
690.759479
 30
0.0
 11
381.050515
 21
695.359479
 31
0.0
  0
LINE
  5
2E0
330
29D
100
AcDbEntity
  8
LC-002-102-D00-0
 62
     7
370
    25
100
AcDbLine
 10
399.931265
 20
714.240229
 30
0.0
 11
402.931265
 21
717.240229
 31
0.0
  0
LINE
  5
2E1
330
29D
100
AcDbEntity
  8
LC-002-102-D00-0
 62
     7
370
    25
100
AcDbLine
 10
376.912974
 20
695.712066
 30
0.0
 11
382.450515
 21
701.249607
 31
0.0
  0
LINE
  5
2E2
330
29D
100
AcDbEntity
  8
LC-002-102-D00-0
 62
     7
370
    25
100
AcDbLine
 10
395.441137
 20
714.240229
 30
0.0
 11
398.441137
 21
717.240229
 31
0.0
  0
LINE
  5
2E3
330
29D
100
AcDbEntity
  8
LC-002-102-D00-0
 62
     7
370
    25
100
AcDbLine
 10
379.700515
 20
702.989735
 30
0.0
 11
382.450515
 21
705.739735
 31
0.0
  0
LINE
  5
2E4
330
29D
100
AcDbEntity
  8
LC-002-102-D00-0
 62
     7
370
    25
100
AcDbLine
 10
390.951009
 20
714.240229
 30
0.0
 11
393.951009
 21
717.240229
 31
0.0
  0
LINE
  5
2E5
330
29D
100
AcDbEntity
  8
LC-002-102-D00-0
 62
     7
370
    25
100
AcDbLine
 10
379.700515
 20
707.479863
 30
0.0
 11
382.450515
 21
710.229863
 31
0.0
  0
LINE
  5
2E6
330
29D
100
AcDbEntity
  8
LC-002-102-D00-0
 62
     7
370
    25
100
AcDbLine
 10
386.460881
 20
714.240229
 30
0.0
 11
389.460881
 21
717.240229
 31
0.0
  0
LINE
  5
2E7
330
29D
100
AcDbEntity
  8
LC-002-102-D00-0
 62
     7
370
    25
100
AcDbLine
 10
379.700515
 20
711.969991
 30
0.0
 11
384.970753
 21
717.240229
 31
0.0
  0
LINE
  5
2E8
330
29D
100
AcDbEntity
  8
LC-002-102-D00-0
 62
     7
370
    25
100
AcDbLine
 10
379.732845
 20
716.49245
 30
0.0
 11
380.448295
 21
717.207899
 31
0.0
  0
ENDBLK
  5
29F
330
29D
100
AcDbEntity
  8
0
100
AcDbBlockEnd
  0
BLOCK
  5
2EB
330
2EA
100
AcDbEntity
  8
0
100
AcDbBlockBegin
  2
KLON2
 70
     0
 71
     0
 10
0.0
 20
0.0
 30
0.0
  3
KLON2
  1

  4
KLON2
  0
LINE
  5
2ED
330
2EA
100
AcDbEntity
  8
LC-001-100-D00-0
 62
     1
370
    25
100
AcDbLine
 10
130.523581
 20
714.240229
 30
0.0
 11
132.237048
 21
715.953696
 31
0.0
  0
LINE
  5
2EE
330
2EA
100
AcDbEntity
  8
LC-001-100-D00-0
 62
     1
370
    25
100
AcDbLine
 10
126.033453
 20
714.240229
 30
0.0
 11
129.033453
 21
717.240229
 31
0.0
  0
LINE
  5
2EF
330
2EA
100
AcDbEntity
  8
LC-001-100-D00-0
 62
     1
370
    25
100
AcDbLine
 10
121.543325
 20
714.240229
 30
0.0
 11
124.543325
 21
717.240229
 31
0.0
  0
ENDBLK
  5
2EC
330
2EA
100
AcDbEntity
  8
0
100
AcDbBlockEnd
  0
BLOCK
  5
2F2
330
2F1
100
AcDbEntity
  8
0
100
AcDbBlockBegin
  2
KLON3
 70
     0
 71
     0
 10
0.0
 20
0.0
 30
0.0
  3
KLON3
  1

  4
KLON3
  0
LINE
  5
2F4
330
2F1
100
AcDbEntity
  8
LC-001-100-D00-0
 62
     1
370
    25
100
AcDbLine
 10
480.75357
 20
714.240229
 30
0.0
 11
480.950515
 21
714.437174
 31
0.0
  0
LINE
  5
2F5
330
2F1
100
AcDbEntity
  8
LC-001-100-D00-0
 62
     1
370
    25
100
AcDbLine
 10
476.263442
 20
714.240229
 30
0.0
 11
479.242076
 21
717.218863
 31
0.0
  0
LINE
  5
2F6
330
2F1
100
AcDbEntity
  8
LC-001-100-D00-0
 62
     1
370
    25
100
AcDbLine
 10
471.773314
 20
714.240229
 30
0.0
 11
474.773314
 21
717.240229
 31
0.0
  0
ENDBLK
  5
2F3
330
2F1
100
AcDbEntity
  8
0
100
AcDbBlockEnd
  0
BLOCK
  5
2F9
330
2F8
100
AcDbEntity
  8
0
100
AcDbBlockBegin
  2
KLON4
 70
     0
 71
     0
 10
0.0
 20
0.0
 30
0.0
  3
KLON4
  1

  4
KLON4
  0
LINE
  5
2FB
330
2F8
100
AcDbEntity
  8
LC-002-102-D00-0
 62
     7
370
    25
100
AcDbLine
 10
256.70662
 20
557.5452
 30
0.0
 11
258.450515
 21
559.289095
 31
0.0
  0
LINE
  5
2FC
330
2F8
100
AcDbEntity
  8
LC-002-102-D00-0
 62
     7
370
    25
100
AcDbLine
 10
255.850515
 20
561.179223
 30
0.0
 11
258.450515
 21
563.779223
 31
0.0
  0
LINE
  5
2FD
330
2F8
100
AcDbEntity
  8
LC-002-102-D00-0
 62
     7
370
    25
100
AcDbLine
 10
255.850515
 20
565.669351
 30
0.0
 11
258.450515
 21
568.269351
 31
0.0
  0
LINE
  5
2FE
330
2F8
100
AcDbEntity
  8
LC-002-102-D00-0
 62
     7
370
    25
100
AcDbLine
 10
255.850515
 20
570.159479
 30
0.0
 11
258.450515
 21
572.759479
 31
0.0
  0
LINE
  5
2FF
330
2F8
100
AcDbEntity
  8
LC-002-102-D00-0
 62
     7
370
    25
100
AcDbLine
 10
255.850515
 20
574.649607
 30
0.0
 11
258.450515
 21
577.249607
 31
0.0
  0
LINE
  5
300
330
2F8
100
AcDbEntity
  8
LC-002-102-D00-0
 62
     7
370
    25
100
AcDbLine
 10
255.850515
 20
579.139735
 30
0.0
 11
258.450515
 21
581.739735
 31
0.0
  0
LINE
  5
301
330
2F8
100
AcDbEntity
  8
LC-002-102-D00-0
 62
     7
370
    25
100
AcDbLine
 10
255.850515
 20
583.629863
 30
0.0
 11
258.450515
 21
586.229863
 31
0.0
  0
LINE
  5
302
330
2F8
100
AcDbEntity
  8
LC-002-102-D00-0
 62
     7
370
    25
100
AcDbLine
 10
255.850515
 20
588.119991
 30
0.0
 11
258.450515
 21
590.719991
 31
0.0
  0
LINE
  5
303
330
2F8
100
AcDbEntity
  8
LC-002-102-D00-0
 62
     7
370
    25
100
AcDbLine
 10
255.850515
 20
592.61012
 30
0.0
 11
258.450515
 21
595.21012
 31
0.0
  0
LINE
  5
304
330
2F8
100
AcDbEntity
  8
LC-002-102-D00-0
 62
     7
370
    25
100
AcDbLine
 10
255.850515
 20
597.100248
 30
0.0
 11
258.450515
 21
599.700248
 31
0.0
  0
LINE
  5
305
330
2F8
100
AcDbEntity
  8
LC-002-102-D00-0
 62
     7
370
    25
100
AcDbLine
 10
255.850515
 20
601.590376
 30
0.0
 11
258.450515
 21
604.190376
 31
0.0
  0
LINE
  5
306
330
2F8
100
AcDbEntity
  8
LC-002-102-D00-0
 62
     7
370
    25
100
AcDbLine
 10
255.850515
 20
606.080504
 30
0.0
 11
258.450515
 21
608.680504
 31
0.0
  0
LINE
  5
307
330
2F8
100
AcDbEntity
  8
LC-002-102-D00-0
 62
     7
370
    25
100
AcDbLine
 10
255.850515
 20
610.570632
 30
0.0
 11
258.450515
 21
613.170632
 31
0.0
  0
LINE
  5
308
330
2F8
100
AcDbEntity
  8
LC-002-102-D00-0
 62
     7
370
    25
100
AcDbLine
 10
255.850515
 20
615.06076
 30
0.0
 11
258.450515
 21
617.66076
 31
0.0
  0
LINE
  5
309
330
2F8
100
AcDbEntity
  8
LC-002-102-D00-0
 62
     7
370
    25
100
AcDbLine
 10
255.850515
 20
619.550888
 30
0.0
 11
258.450515
 21
622.150888
 31
0.0
  0
LINE
  5
30A
330
2F8
100
AcDbEntity
  8
LC-002-102-D00-0
 62
     7
370
    25
100
AcDbLine
 10
255.850515
 20
624.041016
 30
0.0
 11
258.450515
 21
626.641016
 31
0.0
  0
LINE
  5
30B
330
2F8
100
AcDbEntity
  8
LC-002-102-D00-0
 62
     7
370
    25
100
AcDbLine
 10
255.850515
 20
628.531144
 30
0.0
 11
258.450515
 21
631.131144
 31
0.0
  0
LINE
  5
30C
330
2F8
100
AcDbEntity
  8
LC-002-102-D00-0
 62
     7
370
    25
100
AcDbLine
 10
253.069472
 20
630.240229
 30
0.0
 11
256.069472
 21
633.240229
 31
0.0
  0
LINE
  5
30D
330
2F8
100
AcDbEntity
  8
LC-002-102-D00-0
 62
     7
370
    25
100
AcDbLine
 10
248.579344
 20
630.240229
 30
0.0
 11
251.579344
 21
633.240229
 31
0.0
  0
LINE
  5
30E
330
2F8
100
AcDbEntity
  8
LC-002-102-D00-0
 62
     7
370
    25
100
AcDbLine
 10
244.089216
 20
630.240229
 30
0.0
 11
247.089216
 21
633.240229
 31
0.0
  0
LINE
  5
30F
330
2F8
100
AcDbEntity
  8
LC-002-102-D00-0
 62
     7
370
    25
100
AcDbLine
 10
239.599088
 20
630.240229
 30
0.0
 11
242.599088
 21
633.240229
 31
0.0
  0
LINE
  5
310
330
2F8
100
AcDbEntity
  8
LC-002-102-D00-0
 62
     7
370
    25
100
AcDbLine
 10
235.10896
 20
630.240229
 30
0.0
 11
238.10896
 21
633.240229
 31
0.0
  0
LINE
  5
311
330
2F8
100
AcDbEntity
  8
LC-002-102-D00-0
 62
     7
370
    25
100
AcDbLine
 10
234.450515
 20
634.071912
 30
0.0
 11
237.450515
 21
637.071912
 31
0.0
  0
LINE
  5
312
330
2F8
100
AcDbEntity
  8
LC-002-102-D00-0
 62
     7
370
    25
100
AcDbLine
 10
234.450515
 20
638.56204
 30
0.0
 11
237.450515
 21
641.56204
 31
0.0
  0
LINE
  5
313
330
2F8
100
AcDbEntity
  8
LC-002-102-D00-0
 62
     7
370
    25
100
AcDbLine
 10
222.638576
 20
631.240229
 30
0.0
 11
223.709864
 21
632.311518
 31
0.0
  0
LINE
  5
314
330
2F8
100
AcDbEntity
  8
LC-002-102-D00-0
 62
     7
370
    25
100
AcDbLine
 10
234.450515
 20
643.052169
 30
0.0
 11
237.450515
 21
646.052169
 31
0.0
  0
LINE
  5
315
330
2F8
100
AcDbEntity
  8
LC-002-102-D00-0
 62
     7
370
    25
100
AcDbLine
 10
220.850515
 20
633.942297
 30
0.0
 11
223.749394
 21
636.841175
 31
0.0
  0
LINE
  5
316
330
2F8
100
AcDbEntity
  8
LC-002-102-D00-0
 62
     7
370
    25
100
AcDbLine
 10
234.450515
 20
647.542297
 30
0.0
 11
237.450515
 21
650.542297
 31
0.0
  0
LINE
  5
317
330
2F8
100
AcDbEntity
  8
LC-002-102-D00-0
 62
     7
370
    25
100
AcDbLine
 10
220.850515
 20
638.432425
 30
0.0
 11
223.788923
 21
641.370833
 31
0.0
  0
LINE
  5
318
330
2F8
100
AcDbEntity
  8
LC-002-102-D00-0
 62
     7
370
    25
100
AcDbLine
 10
234.450515
 20
652.032425
 30
0.0
 11
237.450515
 21
655.032425
 31
0.0
  0
LINE
  5
319
330
2F8
100
AcDbEntity
  8
LC-002-102-D00-0
 62
     7
370
    25
100
AcDbLine
 10
220.850515
 20
642.922553
 30
0.0
 11
223.828453
 21
645.900491
 31
0.0
  0
LINE
  5
31A
330
2F8
100
AcDbEntity
  8
LC-002-102-D00-0
 62
     7
370
    25
100
AcDbLine
 10
234.450515
 20
656.522553
 30
0.0
 11
237.450515
 21
659.522553
 31
0.0
  0
LINE
  5
31B
330
2F8
100
AcDbEntity
  8
LC-002-102-D00-0
 62
     7
370
    25
100
AcDbLine
 10
220.850515
 20
647.412681
 30
0.0
 11
223.867983
 21
650.430149
 31
0.0
  0
LINE
  5
31C
330
2F8
100
AcDbEntity
  8
LC-002-102-D00-0
 62
     7
370
    25
100
AcDbLine
 10
234.450515
 20
661.012681
 30
0.0
 11
237.450515
 21
664.012681
 31
0.0
  0
LINE
  5
31D
330
2F8
100
AcDbEntity
  8
LC-002-102-D00-0
 62
     7
370
    25
100
AcDbLine
 10
220.850515
 20
651.902809
 30
0.0
 11
223.907513
 21
654.959806
 31
0.0
  0
LINE
  5
31E
330
2F8
100
AcDbEntity
  8
LC-002-102-D00-0
 62
     7
370
    25
100
AcDbLine
 10
234.341658
 20
665.393952
 30
0.0
 11
237.448669
 21
668.500963
 31
0.0
  0
LINE
  5
31F
330
2F8
100
AcDbEntity
  8
LC-002-102-D00-0
 62
     7
370
    25
100
AcDbLine
 10
220.850515
 20
656.392937
 30
0.0
 11
223.947042
 21
659.489464
 31
0.0
  0
LINE
  5
320
330
2F8
100
AcDbEntity
  8
LC-002-102-D00-0
 62
     7
370
    25
100
AcDbLine
 10
230.476849
 20
666.019271
 30
0.0
 11
233.897807
 21
669.440229
 31
0.0
  0
LINE
  5
321
330
2F8
100
AcDbEntity
  8
LC-002-102-D00-0
 62
     7
370
    25
100
AcDbLine
 10
220.850515
 20
660.883065
 30
0.0
 11
223.986572
 21
664.019122
 31
0.0
  0
LINE
  5
322
330
2F8
100
AcDbEntity
  8
LC-002-102-D00-0
 62
     7
370
    25
100
AcDbLine
 10
228.600515
 20
668.633065
 30
0.0
 11
231.450515
 21
671.483065
 31
0.0
  0
LINE
  5
323
330
2F8
100
AcDbEntity
  8
LC-002-102-D00-0
 62
     7
370
    25
100
AcDbLine
 10
220.850515
 20
665.373193
 30
0.0
 11
224.026102
 21
668.54878
 31
0.0
  0
LINE
  5
324
330
2F8
100
AcDbEntity
  8
LC-002-102-D00-0
 62
     7
370
    25
100
AcDbLine
 10
228.600515
 20
673.123193
 30
0.0
 11
231.450515
 21
675.973193
 31
0.0
  0
LINE
  5
325
330
2F8
100
AcDbEntity
  8
LC-002-102-D00-0
 62
     7
370
    25
100
AcDbLine
 10
220.850515
 20
669.863321
 30
0.0
 11
224.065632
 21
673.078438
 31
0.0
  0
LINE
  5
326
330
2F8
100
AcDbEntity
  8
LC-002-102-D00-0
 62
     7
370
    25
100
AcDbLine
 10
228.600515
 20
677.613321
 30
0.0
 11
231.450515
 21
680.463321
 31
0.0
  0
LINE
  5
327
330
2F8
100
AcDbEntity
  8
LC-002-102-D00-0
 62
     7
370
    25
100
AcDbLine
 10
220.850515
 20
674.353449
 30
0.0
 11
224.105161
 21
677.608095
 31
0.0
  0
LINE
  5
328
330
2F8
100
AcDbEntity
  8
LC-002-102-D00-0
 62
     7
370
    25
100
AcDbLine
 10
226.437295
 20
679.940229
 30
0.0
 11
228.937295
 21
682.440229
 31
0.0
  0
LINE
  5
329
330
2F8
100
AcDbEntity
  8
LC-002-102-D00-0
 62
     7
370
    25
100
AcDbLine
 10
220.850515
 20
678.843577
 30
0.0
 11
224.450515
 21
682.443577
 31
0.0
  0
LINE
  5
32A
330
2F8
100
AcDbEntity
  8
LC-002-102-D00-0
 62
     7
370
    25
100
AcDbLine
 10
220.850515
 20
683.333705
 30
0.0
 11
224.450515
 21
686.933705
 31
0.0
  0
LINE
  5
32B
330
2F8
100
AcDbEntity
  8
LC-002-102-D00-0
 62
     7
370
    25
100
AcDbLine
 10
220.850515
 20
687.823833
 30
0.0
 11
226.200515
 21
693.173833
 31
0.0
  0
LINE
  5
32C
330
2F8
100
AcDbEntity
  8
LC-002-102-D00-0
 62
     7
370
    25
100
AcDbLine
 10
220.850515
 20
692.313961
 30
0.0
 11
224.717404
 21
696.18085
 31
0.0
  0
LINE
  5
32D
330
2F8
100
AcDbEntity
  8
LC-002-102-D00-0
 62
     7
370
    25
100
AcDbLine
 10
220.850515
 20
696.804089
 30
0.0
 11
223.073903
 21
699.027477
 31
0.0
  0
LINE
  5
32E
330
2F8
100
AcDbEntity
  8
LC-002-102-D00-0
 62
     7
370
    25
100
AcDbLine
 10
219.450515
 20
699.894217
 30
0.0
 11
222.200515
 21
702.644217
 31
0.0
  0
LINE
  5
32F
330
2F8
100
AcDbEntity
  8
LC-002-102-D00-0
 62
     7
370
    25
100
AcDbLine
 10
219.450515
 20
704.384346
 30
0.0
 11
222.200515
 21
707.134346
 31
0.0
  0
LINE
  5
330
330
2F8
100
AcDbEntity
  8
LC-002-102-D00-0
 62
     7
370
    25
100
AcDbLine
 10
219.450515
 20
708.874474
 30
0.0
 11
222.200515
 21
711.624474
 31
0.0
  0
LINE
  5
331
330
2F8
100
AcDbEntity
  8
LC-002-102-D00-0
 62
     7
370
    25
100
AcDbLine
 10
219.388329
 20
713.302416
 30
0.0
 11
222.200515
 21
716.114602
 31
0.0
  0
LINE
  5
332
330
2F8
100
AcDbEntity
  8
LC-002-102-D00-0
 62
     7
370
    25
100
AcDbLine
 10
215.836015
 20
714.240229
 30
0.0
 11
218.836015
 21
717.240229
 31
0.0
  0
LINE
  5
333
330
2F8
100
AcDbEntity
  8
LC-002-102-D00-0
 62
     7
370
    25
100
AcDbLine
 10
211.345887
 20
714.240229
 30
0.0
 11
214.345887
 21
717.240229
 31
0.0
  0
LINE
  5
334
330
2F8
100
AcDbEntity
  8
LC-002-102-D00-0
 62
     7
370
    25
100
AcDbLine
 10
206.855758
 20
714.240229
 30
0.0
 11
209.855758
 21
717.240229
 31
0.0
  0
LINE
  5
335
330
2F8
100
AcDbEntity
  8
LC-002-102-D00-0
 62
     7
370
    25
100
AcDbLine
 10
202.36563
 20
714.240229
 30
0.0
 11
205.36563
 21
717.240229
 31
0.0
  0
LINE
  5
336
330
2F8
100
AcDbEntity
  8
LC-002-102-D00-0
 62
     7
370
    25
100
AcDbLine
 10
197.875502
 20
714.240229
 30
0.0
 11
200.875502
 21
717.240229
 31
0.0
  0
LINE
  5
337
330
2F8
100
AcDbEntity
  8
LC-002-102-D00-0
 62
     7
370
    25
100
AcDbLine
 10
193.385374
 20
714.240229
 30
0.0
 11
196.385374
 21
717.240229
 31
0.0
  0
LINE
  5
338
330
2F8
100
AcDbEntity
  8
LC-002-102-D00-0
 62
     7
370
    25
100
AcDbLine
 10
188.895246
 20
714.240229
 30
0.0
 11
191.895246
 21
717.240229
 31
0.0
  0
LINE
  5
339
330
2F8
100
AcDbEntity
  8
LC-002-102-D00-0
 62
     7
370
    25
100
AcDbLine
 10
184.405118
 20
714.240229
 30
0.0
 11
187.405118
 21
717.240229
 31
0.0
  0
LINE
  5
33A
330
2F8
100
AcDbEntity
  8
LC-002-102-D00-0
 62
     7
370
    25
100
AcDbLine
 10
179.91499
 20
714.240229
 30
0.0
 11
182.91499
 21
717.240229
 31
0.0
  0
LINE
  5
33B
330
2F8
100
AcDbEntity
  8
LC-002-102-D00-0
 62
     7
370
    25
100
AcDbLine
 10
175.424862
 20
714.240229
 30
0.0
 11
178.424862
 21
717.240229
 31
0.0
  0
LINE
  5
33C
330
2F8
100
AcDbEntity
  8
LC-002-102-D00-0
 62
     7
370
    25
100
AcDbLine
 10
170.934734
 20
714.240229
 30
0.0
 11
173.934734
 21
717.240229
 31
0.0
  0
LINE
  5
33D
330
2F8
100
AcDbEntity
  8
LC-002-102-D00-0
 62
     7
370
    25
100
AcDbLine
 10
166.444606
 20
714.240229
 30
0.0
 11
169.444606
 21
717.240229
 31
0.0
  0
LINE
  5
33E
330
2F8
100
AcDbEntity
  8
LC-002-102-D00-0
 62
     7
370
    25
100
AcDbLine
 10
161.954478
 20
714.240229
 30
0.0
 11
164.954478
 21
717.240229
 31
0.0
  0
LINE
  5
33F
330
2F8
100
AcDbEntity
  8
LC-002-102-D00-0
 62
     7
370
    25
100
AcDbLine
 10
157.46435
 20
714.240229
 30
0.0
 11
160.46435
 21
717.240229
 31
0.0
  0
LINE
  5
340
330
2F8
100
AcDbEntity
  8
LC-002-102-D00-0
 62
     7
370
    25
100
AcDbLine
 10
152.974222
 20
714.240229
 30
0.0
 11
155.974222
 21
717.240229
 31
0.0
  0
LINE
  5
341
330
2F8
100
AcDbEntity
  8
LC-002-102-D00-0
 62
     7
370
    25
100
AcDbLine
 10
148.484094
 20
714.240229
 30
0.0
 11
151.484094
 21
717.240229
 31
0.0
  0
LINE
  5
342
330
2F8
100
AcDbEntity
  8
LC-002-102-D00-0
 62
     7
370
    25
100
AcDbLine
 10
143.993966
 20
714.240229
 30
0.0
 11
146.993966
 21
717.240229
 31
0.0
  0
LINE
  5
343
330
2F8
100
AcDbEntity
  8
LC-002-102-D00-0
 62
     7
370
    25
100
AcDbLine
 10
139.503838
 20
714.240229
 30
0.0
 11
142.503838
 21
717.240229
 31
0.0
  0
ENDBLK
  5
2FA
330
2F8
100
AcDbEntity
  8
0
100
AcDbBlockEnd
  0
BLOCK
  5
346
330
345
100
AcDbEntity
  8
0
100
AcDbBlockBegin
  2
KLON5
 70
     0
 71
     0
 10
0.0
 20
0.0
 30
0.0
  3
KLON5
  1

  4
KLON5
  0
LINE
  5
348
330
345
100
AcDbEntity
  8
LC-001-100-D00-0
 62
     1
370
    25
100
AcDbLine
 10
378.200515
 20
685.959835
 30
0.0
 11
377.220121
 21
686.940229
 31
0.0
  0
LINE
  5
349
330
345
100
AcDbEntity
  8
LC-001-100-D00-0
 62
     1
370
    25
100
AcDbLine
 10
377.200515
 20
686.959835
 30
0.0
 11
376.220121
 21
687.940229
 31
0.0
  0
LINE
  5
34A
330
345
100
AcDbEntity
  8
LC-001-100-D00-0
 62
     1
370
    25
100
AcDbLine
 10
377.215254
 20
682.454968
 30
0.0
 11
371.729993
 21
687.940229
 31
0.0
  0
LINE
  5
34B
330
345
100
AcDbEntity
  8
LC-001-100-D00-0
 62
     1
370
    25
100
AcDbLine
 10
370.739865
 20
684.440229
 30
0.0
 11
367.239865
 21
687.940229
 31
0.0
  0
LINE
  5
34C
330
345
100
AcDbEntity
  8
LC-001-100-D00-0
 62
     1
370
    25
100
AcDbLine
 10
369.700515
 20
680.989451
 30
0.0
 11
366.26154
 21
684.428426
 31
0.0
  0
LINE
  5
34D
330
345
100
AcDbEntity
  8
LC-001-100-D00-0
 62
     1
370
    25
100
AcDbLine
 10
366.259609
 20
679.940229
 30
0.0
 11
365.762637
 21
680.437202
 31
0.0
  0
ENDBLK
  5
347
330
345
100
AcDbEntity
  8
0
100
AcDbBlockEnd
  0
BLOCK
  5
350
330
34F
100
AcDbEntity
  8
0
100
AcDbBlockBegin
  2
KLON6
 70
     0
 71
     0
 10
0.0
 20
0.0
 30
0.0
  3
KLON6
  1

  4
KLON6
  0
LINE
  5
352
330
34F
100
AcDbEntity
  8
LC-001-100-D00-0
 62
     1
370
    25
100
AcDbLine
 10
235.581157
 20
684.895096
 30
0.0
 11
232.536023
 21
687.940229
 31
0.0
  0
LINE
  5
353
330
34F
100
AcDbEntity
  8
LC-001-100-D00-0
 62
     1
370
    25
100
AcDbLine
 10
236.045895
 20
679.940229
 30
0.0
 11
232.200515
 21
683.785609
 31
0.0
  0
LINE
  5
354
330
34F
100
AcDbEntity
  8
LC-001-100-D00-0
 62
     1
370
    25
100
AcDbLine
 10
231.545895
 20
684.440229
 30
0.0
 11
228.045895
 21
687.940229
 31
0.0
  0
LINE
  5
355
330
34F
100
AcDbEntity
  8
LC-001-100-D00-0
 62
     1
370
    25
100
AcDbLine
 10
227.700515
 20
683.795481
 30
0.0
 11
224.555767
 21
686.940229
 31
0.0
  0
ENDBLK
  5
351
330
34F
100
AcDbEntity
  8
0
100
AcDbBlockEnd
  0
BLOCK
  5
358
330
357
100
AcDbEntity
  8
0
100
AcDbBlockBegin
  2
KLON7
 70
     0
 71
     0
 10
0.0
 20
0.0
 30
0.0
  3
KLON7
  1

  4
KLON7
  0
LINE
  5
35A
330
357
100
AcDbEntity
  8
LC-002-102-D00-0
 62
     7
370
    25
100
AcDbLine
 10
378.450515
 20
636.318427
 30
0.0
 11
376.028712
 21
638.740229
 31
0.0
  0
LINE
  5
35B
330
357
100
AcDbEntity
  8
LC-002-102-D00-0
 62
     7
370
    25
100
AcDbLine
 10
380.950515
 20
629.328299
 30
0.0
 11
379.038584
 21
631.240229
 31
0.0
  0
LINE
  5
35C
330
357
100
AcDbEntity
  8
LC-002-102-D00-0
 62
     7
370
    25
100
AcDbLine
 10
378.450515
 20
631.828299
 30
0.0
 11
375.950515
 21
634.328299
 31
0.0
  0
LINE
  5
35D
330
357
100
AcDbEntity
  8
LC-002-102-D00-0
 62
     7
370
    25
100
AcDbLine
 10
380.112666
 20
625.676019
 30
0.0
 11
375.950515
 21
629.838171
 31
0.0
  0
LINE
  5
35E
330
357
100
AcDbEntity
  8
LC-002-102-D00-0
 62
     7
370
    25
100
AcDbLine
 10
378.143659
 20
623.154898
 30
0.0
 11
375.828821
 21
625.469736
 31
0.0
  0
LINE
  5
35F
330
357
100
AcDbEntity
  8
LC-002-102-D00-0
 62
     7
370
    25
100
AcDbLine
 10
375.235066
 20
621.573364
 30
0.0
 11
373.0682
 21
623.740229
 31
0.0
  0
LINE
  5
360
330
357
100
AcDbEntity
  8
LC-002-102-D00-0
 62
     7
370
    25
100
AcDbLine
 10
371.078072
 20
621.240229
 30
0.0
 11
368.578072
 21
623.740229
 31
0.0
  0
LINE
  5
361
330
357
100
AcDbEntity
  8
LC-002-102-D00-0
 62
     7
370
    25
100
AcDbLine
 10
368.450515
 20
619.377658
 30
0.0
 11
364.087944
 21
623.740229
 31
0.0
  0
LINE
  5
362
330
357
100
AcDbEntity
  8
LC-002-102-D00-0
 62
     7
370
    25
100
AcDbLine
 10
364.597816
 20
618.740229
 30
0.0
 11
359.597816
 21
623.740229
 31
0.0
  0
LINE
  5
363
330
357
100
AcDbEntity
  8
LC-002-102-D00-0
 62
     7
370
    25
100
AcDbLine
 10
360.107688
 20
618.740229
 30
0.0
 11
358.450515
 21
620.397402
 31
0.0
  0
LINE
  5
364
330
357
100
AcDbEntity
  8
LC-002-102-D00-0
 62
     7
370
    25
100
AcDbLine
 10
357.607688
 20
621.240229
 30
0.0
 11
355.107688
 21
623.740229
 31
0.0
  0
LINE
  5
365
330
357
100
AcDbEntity
  8
LC-002-102-D00-0
 62
     7
370
    25
100
AcDbLine
 10
353.11756
 20
621.240229
 30
0.0
 11
350.61756
 21
623.740229
 31
0.0
  0
LINE
  5
366
330
357
100
AcDbEntity
  8
LC-002-102-D00-0
 62
     7
370
    25
100
AcDbLine
 10
348.627432
 20
621.240229
 30
0.0
 11
346.127432
 21
623.740229
 31
0.0
  0
ENDBLK
  5
359
330
357
100
AcDbEntity
  8
0
100
AcDbBlockEnd
  0
BLOCK
  5
369
330
368
100
AcDbEntity
  8
0
100
AcDbBlockBegin
  2
KLON8
 70
     0
 71
     0
 10
0.0
 20
0.0
 30
0.0
  3
KLON8
  1

  4
KLON8
  0
LINE
  5
36B
330
368
100
AcDbEntity
  8
LC-002-102-D00-0
 62
     7
370
    25
100
AcDbLine
 10
254.334742
 20
621.240229
 30
0.0
 11
251.834742
 21
623.740229
 31
0.0
  0
LINE
  5
36C
330
368
100
AcDbEntity
  8
LC-002-102-D00-0
 62
     7
370
    25
100
AcDbLine
 10
249.844614
 20
621.240229
 30
0.0
 11
247.344614
 21
623.740229
 31
0.0
  0
LINE
  5
36D
330
368
100
AcDbEntity
  8
LC-002-102-D00-0
 62
     7
370
    25
100
AcDbLine
 10
245.354486
 20
621.240229
 30
0.0
 11
242.854486
 21
623.740229
 31
0.0
  0
LINE
  5
36E
330
368
100
AcDbEntity
  8
LC-002-102-D00-0
 62
     7
370
    25
100
AcDbLine
 10
243.364358
 20
618.740229
 30
0.0
 11
238.364358
 21
623.740229
 31
0.0
  0
LINE
  5
36F
330
368
100
AcDbEntity
  8
LC-002-102-D00-0
 62
     7
370
    25
100
AcDbLine
 10
225.950515
 20
636.154073
 30
0.0
 11
223.450515
 21
638.654073
 31
0.0
  0
LINE
  5
370
330
368
100
AcDbEntity
  8
LC-002-102-D00-0
 62
     7
370
    25
100
AcDbLine
 10
238.87423
 20
618.740229
 30
0.0
 11
233.87423
 21
623.740229
 31
0.0
  0
LINE
  5
371
330
368
100
AcDbEntity
  8
LC-002-102-D00-0
 62
     7
370
    25
100
AcDbLine
 10
225.950515
 20
631.663945
 30
0.0
 11
223.450515
 21
634.163945
 31
0.0
  0
LINE
  5
372
330
368
100
AcDbEntity
  8
LC-002-102-D00-0
 62
     7
370
    25
100
AcDbLine
 10
234.384102
 20
618.740229
 30
0.0
 11
233.450515
 21
619.673816
 31
0.0
  0
LINE
  5
373
330
368
100
AcDbEntity
  8
LC-002-102-D00-0
 62
     7
370
    25
100
AcDbLine
 10
231.884102
 20
621.240229
 30
0.0
 11
229.384102
 21
623.740229
 31
0.0
  0
LINE
  5
374
330
368
100
AcDbEntity
  8
LC-002-102-D00-0
 62
     7
370
    25
100
AcDbLine
 10
225.950515
 20
627.173816
 30
0.0
 11
221.884102
 21
631.240229
 31
0.0
  0
LINE
  5
375
330
368
100
AcDbEntity
  8
LC-002-102-D00-0
 62
     7
370
    25
100
AcDbLine
 10
227.200137
 20
621.434067
 30
0.0
 11
221.144352
 21
627.489851
 31
0.0
  0
ENDBLK
  5
36A
330
368
100
AcDbEntity
  8
0
100
AcDbBlockEnd
  0
BLOCK
  5
378
330
377
100
AcDbEntity
  8
0
100
AcDbBlockBegin
  2
KLON9
 70
     0
 71
     0
 10
0.0
 20
0.0
 30
0.0
  3
KLON9
  1

  4
KLON9
  0
LINE
  5
37A
330
377
100
AcDbEntity
  8
LC-002-102-D00-0
 62
     7
370
    25
100
AcDbLine
 10
363.999425
 20
780.983231
 30
0.0
 11
353.243412
 21
791.739244
 31
0.0
  0
LINE
  5
37B
330
377
100
AcDbEntity
  8
LC-002-102-D00-0
 62
     7
370
    25
100
AcDbLine
 10
366.568916
 20
773.923612
 30
0.0
 11
348.252292
 21
792.240235
 31
0.0
  0
LINE
  5
37C
330
377
100
AcDbEntity
  8
LC-002-102-D00-0
 62
     7
370
    25
100
AcDbLine
 10
369.138407
 20
766.863992
 30
0.0
 11
343.762164
 21
792.240235
 31
0.0
  0
LINE
  5
37D
330
377
100
AcDbEntity
  8
LC-002-102-D00-0
 62
     7
370
    25
100
AcDbLine
 10
371.707898
 20
759.804373
 30
0.0
 11
339.272036
 21
792.240235
 31
0.0
  0
LINE
  5
37E
330
377
100
AcDbEntity
  8
LC-002-102-D00-0
 62
     7
370
    25
100
AcDbLine
 10
374.27739
 20
752.744754
 30
0.0
 11
349.514662
 21
777.507482
 31
0.0
  0
LINE
  5
37F
330
377
100
AcDbEntity
  8
LC-002-102-D00-0
 62
     7
370
    25
100
AcDbLine
 10
349.399097
 20
777.623046
 30
0.0
 11
334.781908
 21
792.240235
 31
0.0
  0
LINE
  5
380
330
377
100
AcDbEntity
  8
LC-002-102-D00-0
 62
     7
370
    25
100
AcDbLine
 10
376.846881
 20
745.685134
 30
0.0
 11
352.084152
 21
770.447863
 31
0.0
  0
LINE
  5
381
330
377
100
AcDbEntity
  8
LC-002-102-D00-0
 62
     7
370
    25
100
AcDbLine
 10
345.09178
 20
777.440235
 30
0.0
 11
330.19178
 21
792.340235
 31
0.0
  0
LINE
  5
382
330
377
100
AcDbEntity
  8
LC-002-102-D00-0
 62
     7
370
    25
100
AcDbLine
 10
379.416372
 20
738.625515
 30
0.0
 11
354.653642
 21
763.388245
 31
0.0
  0
LINE
  5
383
330
377
100
AcDbEntity
  8
LC-002-102-D00-0
 62
     7
370
    25
100
AcDbLine
 10
340.601652
 20
777.440235
 30
0.0
 11
325.701652
 21
792.340235
 31
0.0
  0
LINE
  5
384
330
377
100
AcDbEntity
  8
LC-002-102-D00-0
 62
     7
370
    25
100
AcDbLine
 10
381.985863
 20
731.565896
 30
0.0
 11
357.150515
 21
756.401244
 31
0.0
  0
LINE
  5
385
330
377
100
AcDbEntity
  8
LC-002-102-D00-0
 62
     7
370
    25
100
AcDbLine
 10
336.111524
 20
777.440235
 30
0.0
 11
321.311524
 21
792.240235
 31
0.0
  0
LINE
  5
386
330
377
100
AcDbEntity
  8
LC-002-102-D00-0
 62
     7
370
    25
100
AcDbLine
 10
384.555355
 20
724.506276
 30
0.0
 11
359.792623
 21
749.269007
 31
0.0
  0
LINE
  5
387
330
377
100
AcDbEntity
  8
LC-002-102-D00-0
 62
     7
370
    25
100
AcDbLine
 10
357.221336
 20
751.840295
 30
0.0
 11
357.150515
 21
751.911116
 31
0.0
  0
LINE
  5
388
330
377
100
AcDbEntity
  8
LC-002-102-D00-0
 62
     7
370
    25
100
AcDbLine
 10
331.621396
 20
777.440235
 30
0.0
 11
316.721396
 21
792.340235
 31
0.0
  0
LINE
  5
389
330
377
100
AcDbEntity
  8
LC-002-102-D00-0
 62
     7
370
    25
100
AcDbLine
 10
385.881142
 20
718.690361
 30
0.0
 11
362.362114
 21
742.209389
 31
0.0
  0
LINE
  5
38A
330
377
100
AcDbEntity
  8
LC-002-102-D00-0
 62
     7
370
    25
100
AcDbLine
 10
327.131268
 20
777.440235
 30
0.0
 11
312.331268
 21
792.240235
 31
0.0
  0
LINE
  5
38B
330
377
100
AcDbEntity
  8
LC-002-102-D00-0
 62
     7
370
    25
100
AcDbLine
 10
382.841146
 20
717.240229
 30
0.0
 11
364.931605
 21
735.14977
 31
0.0
  0
LINE
  5
38C
330
377
100
AcDbEntity
  8
LC-002-102-D00-0
 62
     7
370
    25
100
AcDbLine
 10
322.64114
 20
777.440235
 30
0.0
 11
307.84114
 21
792.240235
 31
0.0
  0
LINE
  5
38D
330
377
100
AcDbEntity
  8
LC-002-102-D00-0
 62
     7
370
    25
100
AcDbLine
 10
378.351017
 20
717.240229
 30
0.0
 11
367.501095
 21
728.090152
 31
0.0
  0
LINE
  5
38E
330
377
100
AcDbEntity
  8
LC-002-102-D00-0
 62
     7
370
    25
100
AcDbLine
 10
318.151011
 20
777.440235
 30
0.0
 11
303.351011
 21
792.240235
 31
0.0
  0
LINE
  5
38F
330
377
100
AcDbEntity
  8
LC-002-102-D00-0
 62
     7
370
    25
100
AcDbLine
 10
374.850515
 20
716.250604
 30
0.0
 11
370.070586
 21
721.030533
 31
0.0
  0
LINE
  5
390
330
377
100
AcDbEntity
  8
LC-002-102-D00-0
 62
     7
370
    25
100
AcDbLine
 10
313.660883
 20
777.440235
 30
0.0
 11
298.860883
 21
792.240235
 31
0.0
  0
LINE
  5
391
330
377
100
AcDbEntity
  8
LC-002-102-D00-0
 62
     7
370
    25
100
AcDbLine
 10
374.850515
 20
711.760476
 30
0.0
 11
371.450515
 21
715.160476
 31
0.0
  0
LINE
  5
392
330
377
100
AcDbEntity
  8
LC-002-102-D00-0
 62
     7
370
    25
100
AcDbLine
 10
309.170755
 20
777.440235
 30
0.0
 11
294.370755
 21
792.240235
 31
0.0
  0
LINE
  5
393
330
377
100
AcDbEntity
  8
LC-002-102-D00-0
 62
     7
370
    25
100
AcDbLine
 10
374.850515
 20
707.270348
 30
0.0
 11
371.450515
 21
710.670348
 31
0.0
  0
LINE
  5
394
330
377
100
AcDbEntity
  8
LC-002-102-D00-0
 62
     7
370
    25
100
AcDbLine
 10
304.680627
 20
777.440235
 30
0.0
 11
289.880627
 21
792.240235
 31
0.0
  0
LINE
  5
395
330
377
100
AcDbEntity
  8
LC-002-102-D00-0
 62
     7
370
    25
100
AcDbLine
 10
374.850515
 20
702.78022
 30
0.0
 11
371.950515
 21
705.68022
 31
0.0
  0
LINE
  5
396
330
377
100
AcDbEntity
  8
LC-002-102-D00-0
 62
     7
370
    25
100
AcDbLine
 10
300.190499
 20
777.440235
 30
0.0
 11
285.390499
 21
792.240235
 31
0.0
  0
LINE
  5
397
330
377
100
AcDbEntity
  8
LC-002-102-D00-0
 62
     7
370
    25
100
AcDbLine
 10
374.850515
 20
698.290091
 30
0.0
 11
371.950515
 21
701.190091
 31
0.0
  0
LINE
  5
398
330
377
100
AcDbEntity
  8
LC-002-102-D00-0
 62
     7
370
    25
100
AcDbLine
 10
295.700371
 20
777.440235
 30
0.0
 11
280.900371
 21
792.240235
 31
0.0
  0
LINE
  5
399
330
377
100
AcDbEntity
  8
LC-002-102-D00-0
 62
     7
370
    25
100
AcDbLine
 10
374.850515
 20
693.799963
 30
0.0
 11
371.950515
 21
696.699963
 31
0.0
  0
LINE
  5
39A
330
377
100
AcDbEntity
  8
LC-002-102-D00-0
 62
     7
370
    25
100
AcDbLine
 10
291.210243
 20
777.440235
 30
0.0
 11
276.410243
 21
792.240235
 31
0.0
  0
LINE
  5
39B
330
377
100
AcDbEntity
  8
LC-002-102-D00-0
 62
     7
370
    25
100
AcDbLine
 10
375.808883
 20
688.351467
 30
0.0
 11
371.950515
 21
692.209835
 31
0.0
  0
LINE
  5
39C
330
377
100
AcDbEntity
  8
LC-002-102-D00-0
 62
     7
370
    25
100
AcDbLine
 10
286.720115
 20
777.440235
 30
0.0
 11
271.920115
 21
792.240235
 31
0.0
  0
LINE
  5
39D
330
377
100
AcDbEntity
  8
LC-002-102-D00-0
 62
     7
370
    25
100
AcDbLine
 10
282.229987
 20
777.440235
 30
0.0
 11
267.429987
 21
792.240235
 31
0.0
  0
LINE
  5
39E
330
377
100
AcDbEntity
  8
LC-002-102-D00-0
 62
     7
370
    25
100
AcDbLine
 10
277.739859
 20
777.440235
 30
0.0
 11
262.939859
 21
792.240235
 31
0.0
  0
LINE
  5
39F
330
377
100
AcDbEntity
  8
LC-002-102-D00-0
 62
     7
370
    25
100
AcDbLine
 10
273.249731
 20
777.440235
 30
0.0
 11
258.449731
 21
792.240235
 31
0.0
  0
LINE
  5
3A0
330
377
100
AcDbEntity
  8
LC-002-102-D00-0
 62
     7
370
    25
100
AcDbLine
 10
268.759603
 20
777.440235
 30
0.0
 11
253.959603
 21
792.240235
 31
0.0
  0
LINE
  5
3A1
330
377
100
AcDbEntity
  8
LC-002-102-D00-0
 62
     7
370
    25
100
AcDbLine
 10
264.269475
 20
777.440235
 30
0.0
 11
249.728165
 21
791.981545
 31
0.0
  0
LINE
  5
3A2
330
377
100
AcDbEntity
  8
LC-002-102-D00-0
 62
     7
370
    25
100
AcDbLine
 10
259.779347
 20
777.440235
 30
0.0
 11
246.314811
 21
790.904771
 31
0.0
  0
LINE
  5
3A3
330
377
100
AcDbEntity
  8
LC-002-102-D00-0
 62
     7
370
    25
100
AcDbLine
 10
255.289219
 20
777.440235
 30
0.0
 11
243.49467
 21
789.234784
 31
0.0
  0
LINE
  5
3A4
330
377
100
AcDbEntity
  8
LC-002-102-D00-0
 62
     7
370
    25
100
AcDbLine
 10
251.944865
 20
776.294461
 30
0.0
 11
241.170561
 21
787.068765
 31
0.0
  0
LINE
  5
3A5
330
377
100
AcDbEntity
  8
LC-002-102-D00-0
 62
     7
370
    25
100
AcDbLine
 10
250.746692
 20
773.002506
 30
0.0
 11
239.330917
 21
784.418281
 31
0.0
  0
LINE
  5
3A6
330
377
100
AcDbEntity
  8
LC-002-102-D00-0
 62
     7
370
    25
100
AcDbLine
 10
249.548519
 20
769.710551
 30
0.0
 11
238.001468
 21
781.257602
 31
0.0
  0
LINE
  5
3A7
330
377
100
AcDbEntity
  8
LC-002-102-D00-0
 62
     7
370
    25
100
AcDbLine
 10
248.350345
 20
766.418596
 30
0.0
 11
236.803295
 21
777.965647
 31
0.0
  0
LINE
  5
3A8
330
377
100
AcDbEntity
  8
LC-002-102-D00-0
 62
     7
370
    25
100
AcDbLine
 10
247.152172
 20
763.126642
 30
0.0
 11
235.605121
 21
774.673692
 31
0.0
  0
LINE
  5
3A9
330
377
100
AcDbEntity
  8
LC-002-102-D00-0
 62
     7
370
    25
100
AcDbLine
 10
245.953999
 20
759.834687
 30
0.0
 11
234.406948
 21
771.381738
 31
0.0
  0
LINE
  5
3AA
330
377
100
AcDbEntity
  8
LC-002-102-D00-0
 62
     7
370
    25
100
AcDbLine
 10
244.755825
 20
756.542732
 30
0.0
 11
233.208774
 21
768.089783
 31
0.0
  0
LINE
  5
3AB
330
377
100
AcDbEntity
  8
LC-002-102-D00-0
 62
     7
370
    25
100
AcDbLine
 10
244.750515
 20
752.057914
 30
0.0
 11
232.010601
 21
764.797829
 31
0.0
  0
LINE
  5
3AC
330
377
100
AcDbEntity
  8
LC-002-102-D00-0
 62
     7
370
    25
100
AcDbLine
 10
242.359479
 20
749.958823
 30
0.0
 11
230.812427
 21
761.505874
 31
0.0
  0
LINE
  5
3AD
330
377
100
AcDbEntity
  8
LC-002-102-D00-0
 62
     7
370
    25
100
AcDbLine
 10
241.161305
 20
746.666868
 30
0.0
 11
229.614254
 21
758.213919
 31
0.0
  0
LINE
  5
3AE
330
377
100
AcDbEntity
  8
LC-002-102-D00-0
 62
     7
370
    25
100
AcDbLine
 10
239.963132
 20
743.374913
 30
0.0
 11
228.41608
 21
754.921965
 31
0.0
  0
LINE
  5
3AF
330
377
100
AcDbEntity
  8
LC-002-102-D00-0
 62
     7
370
    25
100
AcDbLine
 10
238.764959
 20
740.082958
 30
0.0
 11
227.217907
 21
751.63001
 31
0.0
  0
LINE
  5
3B0
330
377
100
AcDbEntity
  8
LC-002-102-D00-0
 62
     7
370
    25
100
AcDbLine
 10
237.566785
 20
736.791004
 30
0.0
 11
226.019734
 21
748.338056
 31
0.0
  0
LINE
  5
3B1
330
377
100
AcDbEntity
  8
LC-002-102-D00-0
 62
     7
370
    25
100
AcDbLine
 10
236.368612
 20
733.499049
 30
0.0
 11
224.82156
 21
745.046101
 31
0.0
  0
LINE
  5
3B2
330
377
100
AcDbEntity
  8
LC-002-102-D00-0
 62
     7
370
    25
100
AcDbLine
 10
235.170439
 20
730.207094
 30
0.0
 11
223.623387
 21
741.754146
 31
0.0
  0
LINE
  5
3B3
330
377
100
AcDbEntity
  8
LC-002-102-D00-0
 62
     7
370
    25
100
AcDbLine
 10
233.972265
 20
726.915139
 30
0.0
 11
222.425213
 21
738.462192
 31
0.0
  0
LINE
  5
3B4
330
377
100
AcDbEntity
  8
LC-002-102-D00-0
 62
     7
370
    25
100
AcDbLine
 10
232.774092
 20
723.623185
 30
0.0
 11
221.22704
 21
735.170237
 31
0.0
  0
LINE
  5
3B5
330
377
100
AcDbEntity
  8
LC-002-102-D00-0
 62
     7
370
    25
100
AcDbLine
 10
231.575919
 20
720.33123
 30
0.0
 11
220.028866
 21
731.878283
 31
0.0
  0
LINE
  5
3B6
330
377
100
AcDbEntity
  8
LC-002-102-D00-0
 62
     7
370
    25
100
AcDbLine
 10
230.450515
 20
716.966506
 30
0.0
 11
218.830693
 21
728.586328
 31
0.0
  0
LINE
  5
3B7
330
377
100
AcDbEntity
  8
LC-002-102-D00-0
 62
     7
370
    25
100
AcDbLine
 10
230.450515
 20
712.476378
 30
0.0
 11
227.050515
 21
715.876378
 31
0.0
  0
LINE
  5
3B8
330
377
100
AcDbEntity
  8
LC-002-102-D00-0
 62
     7
370
    25
100
AcDbLine
 10
225.686663
 20
717.240229
 30
0.0
 11
217.632519
 21
725.294373
 31
0.0
  0
LINE
  5
3B9
330
377
100
AcDbEntity
  8
LC-002-102-D00-0
 62
     7
370
    25
100
AcDbLine
 10
229.950515
 20
708.48625
 30
0.0
 11
227.050515
 21
711.38625
 31
0.0
  0
LINE
  5
3BA
330
377
100
AcDbEntity
  8
LC-002-102-D00-0
 62
     7
370
    25
100
AcDbLine
 10
221.196535
 20
717.240229
 30
0.0
 11
216.434346
 21
722.002419
 31
0.0
  0
LINE
  5
3BB
330
377
100
AcDbEntity
  8
LC-002-102-D00-0
 62
     7
370
    25
100
AcDbLine
 10
229.950515
 20
703.996122
 30
0.0
 11
227.050515
 21
706.896122
 31
0.0
  0
LINE
  5
3BC
330
377
100
AcDbEntity
  8
LC-002-102-D00-0
 62
     7
370
    25
100
AcDbLine
 10
229.950515
 20
699.505994
 30
0.0
 11
227.050515
 21
702.405994
 31
0.0
  0
LINE
  5
3BD
330
377
100
AcDbEntity
  8
LC-002-102-D00-0
 62
     7
370
    25
100
AcDbLine
 10
229.950515
 20
695.015865
 30
0.0
 11
227.050515
 21
697.915865
 31
0.0
  0
LINE
  5
3BE
330
377
100
AcDbEntity
  8
LC-002-102-D00-0
 62
     7
370
    25
100
AcDbLine
 10
229.950515
 20
690.525737
 30
0.0
 11
227.050515
 21
693.425737
 31
0.0
  0
LINE
  5
3BF
330
377
100
AcDbEntity
  8
LC-002-102-D00-0
 62
     7
370
    25
100
AcDbLine
 10
227.745895
 20
688.240229
 30
0.0
 11
225.947879
 21
690.038245
 31
0.0
  0
ENDBLK
  5
379
330
377
100
AcDbEntity
  8
0
100
AcDbBlockEnd
  0
BLOCK
  5
3C2
330
3C1
100
AcDbEntity
  8
0
100
AcDbBlockBegin
  2
KLON10
 70
     0
 71
     0
 10
0.0
 20
0.0
 30
0.0
  3
KLON10
  1

  4
KLON10
  0
LINE
  5
3C4
330
3C1
100
AcDbEntity
  8
LC-002-102-D00-0
 62
     7
370
    25
100
AcDbLine
 10
370.757333
 20
653.6354
 30
0.0
 11
375.950515
 21
658.828583
 31
0.0
  0
LINE
  5
3C5
330
3C1
100
AcDbEntity
  8
LC-002-102-D00-0
 62
     7
370
    25
100
AcDbLine
 10
367.972367
 20
655.340563
 30
0.0
 11
375.950515
 21
663.318711
 31
0.0
  0
LINE
  5
3C6
330
3C1
100
AcDbEntity
  8
LC-002-102-D00-0
 62
     7
370
    25
100
AcDbLine
 10
367.950515
 20
659.808839
 30
0.0
 11
373.777077
 21
665.6354
 31
0.0
  0
LINE
  5
3C7
330
3C1
100
AcDbEntity
  8
LC-002-102-D00-0
 62
     7
370
    25
100
AcDbLine
 10
368.142966
 20
664.491418
 30
0.0
 11
369.094498
 21
665.44295
 31
0.0
  0
ENDBLK
  5
3C3
330
3C1
100
AcDbEntity
  8
0
100
AcDbBlockEnd
  0
BLOCK
  5
3CA
330
3C9
100
AcDbEntity
  8
0
100
AcDbBlockBegin
  2
KLON11
 70
     0
 71
     0
 10
0.0
 20
0.0
 30
0.0
  3
KLON11
  1

  4
KLON11
  0
LINE
  5
3CC
330
3C9
100
AcDbEntity
  8
LC-001-100-D00-0
 62
     7
370
    50
100
AcDbLine
 10
233.4166
 20
601.607101
 30
0.0
 11
234.120181
 21
602.310682
 31
0.0
  0
LINE
  5
3CD
330
3C9
100
AcDbEntity
  8
LC-001-100-D00-0
 62
     7
370
    50
100
AcDbLine
 10
233.4166
 20
606.097229
 30
0.0
 11
234.120181
 21
606.80081
 31
0.0
  0
LINE
  5
3CE
330
3C9
100
AcDbEntity
  8
LC-001-100-D00-0
 62
     7
370
    50
100
AcDbLine
 10
233.4166
 20
610.587357
 30
0.0
 11
234.120181
 21
611.290938
 31
0.0
  0
LINE
  5
3CF
330
3C9
100
AcDbEntity
  8
LC-001-100-D00-0
 62
     7
370
    50
100
AcDbLine
 10
233.4166
 20
615.077485
 30
0.0
 11
234.120181
 21
615.781066
 31
0.0
  0
LINE
  5
3D0
330
3C9
100
AcDbEntity
  8
LC-001-100-D00-0
 62
     7
370
    50
100
AcDbLine
 10
233.4166
 20
619.567613
 30
0.0
 11
234.120181
 21
620.271194
 31
0.0
  0
LINE
  5
3D1
330
3C9
100
AcDbEntity
  8
LC-001-100-D00-0
 62
     7
370
    50
100
AcDbLine
 10
233.4166
 20
624.057741
 30
0.0
 11
235.599088
 21
626.240229
 31
0.0
  0
ENDBLK
  5
3CB
330
3C9
100
AcDbEntity
  8
0
100
AcDbBlockEnd
  0
BLOCK
  5
3D4
330
3D3
100
AcDbEntity
  8
0
100
AcDbBlockBegin
  2
KLON12
 70
     0
 71
     0
 10
0.0
 20
0.0
 30
0.0
  3
KLON12
  1

  4
KLON12
  0
LINE
  5
3D6
330
3D3
100
AcDbEntity
  8
LC-001-100-D00-0
 62
     7
370
    50
100
AcDbLine
 10
225.656301
 20
602.827058
 30
0.0
 11
226.359882
 21
603.530639
 31
0.0
  0
LINE
  5
3D7
330
3D3
100
AcDbEntity
  8
LC-001-100-D00-0
 62
     7
370
    50
100
AcDbLine
 10
225.656301
 20
607.317186
 30
0.0
 11
226.359882
 21
608.020767
 31
0.0
  0
LINE
  5
3D8
330
3D3
100
AcDbEntity
  8
LC-001-100-D00-0
 62
     7
370
    50
100
AcDbLine
 10
225.656301
 20
611.807314
 30
0.0
 11
226.359882
 21
612.510895
 31
0.0
  0
LINE
  5
3D9
330
3D3
100
AcDbEntity
  8
LC-001-100-D00-0
 62
     7
370
    50
100
AcDbLine
 10
225.656301
 20
616.297442
 30
0.0
 11
226.359882
 21
617.001023
 31
0.0
  0
LINE
  5
3DA
330
3D3
100
AcDbEntity
  8
LC-001-100-D00-0
 62
     7
370
    50
100
AcDbLine
 10
225.656301
 20
620.78757
 30
0.0
 11
226.359882
 21
621.491151
 31
0.0
  0
LINE
  5
3DB
330
3D3
100
AcDbEntity
  8
LC-001-100-D00-0
 62
     7
370
    50
100
AcDbLine
 10
224.118832
 20
623.740229
 30
0.0
 11
226.359882
 21
625.981279
 31
0.0
  0
ENDBLK
  5
3D5
330
3D3
100
AcDbEntity
  8
0
100
AcDbBlockEnd
  0
BLOCK
  5
3EB
330
3E1
100
AcDbEntity
  8
0
100
AcDbBlockBegin
  2
*D21
 70
     1
 71
     0
 10
0.0
 20
0.0
 30
0.0
  3
*D21
  1

  0
LINE
  5
3E2
330
3E1
100
AcDbEntity
  8
LC-002-102-D00-0
 62
     2
370
    -2
100
AcDbLine
 10
138.950515
 20
717.240229
 30
0.0
 11
69.894115
 21
717.240229
 31
0.0
  0
LINE
  5
3E3
330
3E1
100
AcDbEntity
  8
LC-002-102-D00-0
 62
     2
370
    -2
100
AcDbLine
 10
256.788337
 20
557.240229
 30
0.0
 11
69.894115
 21
557.240229
 31
0.0
  0
LINE
  5
3E4
330
3E1
100
AcDbEntity
  8
LC-002-102-D00-0
 62
     2
370
    -2
100
AcDbLine
 10
73.494115
 20
689.240229
 30
0.0
 11
73.494115
 21
585.240229
 31
0.0
  0
SOLID
  5
3E5
330
3E1
100
AcDbEntity
  8
LC-002-102-D00-0
 62
     2
100
AcDbTrace
 10
78.160782
 20
689.240229
 30
0.0
 11
68.827448
 21
689.240229
 31
0.0
 12
73.494115
 22
717.240229
 32
0.0
 13
73.494115
 23
717.240229
 33
0.0
  0
SOLID
  5
3E6
330
3E1
100
AcDbEntity
  8
LC-002-102-D00-0
 62
     2
100
AcDbTrace
 10
68.827448
 20
585.240229
 30
0.0
 11
78.160782
 21
585.240229
 31
0.0
 12
73.494115
 22
557.240229
 32
0.0
 13
73.494115
 23
557.240229
 33
0.0
  0
MTEXT
  5
3E7
330
3E1
100
AcDbEntity
  8
LC-002-102-D00-0
 62
     2
100
AcDbMText
 10
42.694115
 20
639.402785
 30
0.0
 40
28.0
 41
0.0
 71
     5
 72
     1
  1
\A1;160
  7
LCTX15-400-0-0pDIN-Schrift
 11
6.123031769111886E-17
 21
1.0
 31
0.0
 73
     1
 44
1.0
  0
POINT
  5
3E8
330
3E1
100
AcDbEntity
  8
Defpoints
 62
     0
100
AcDbPoint
 10
138.950515
 20
717.240229
 30
0.0
  0
POINT
  5
3E9
330
3E1
100
AcDbEntity
  8
Defpoints
 62
     0
100
AcDbPoint
 10
256.788337
 20
557.240229
 30
0.0
  0
POINT
  5
3EA
330
3E1
100
AcDbEntity
  8
Defpoints
 62
     0
100
AcDbPoint
 10
73.494115
 20
557.240229
 30
0.0
  0
ENDBLK
  5
3EC
330
3E1
100
AcDbEntity
  8
0
100
AcDbBlockEnd
  0
BLOCK
  5
3F8
330
3EE
100
AcDbEntity
  8
0
100
AcDbBlockBegin
  2
*D22
 70
     1
 71
     0
 10
0.0
 20
0.0
 30
0.0
  3
*D22
  1

  0
LINE
  5
3EF
330
3EE
100
AcDbEntity
  8
LC-002-102-D00-0
 62
     2
370
    -2
100
AcDbLine
 10
220.850515
 20
631.240229
 30
0.0
 11
220.850515
 21
463.542785
 31
0.0
  0
LINE
  5
3F0
330
3EE
100
AcDbEntity
  8
LC-002-102-D00-0
 62
     2
370
    -2
100
AcDbLine
 10
381.050515
 20
631.240229
 30
0.0
 11
381.050515
 21
463.542785
 31
0.0
  0
LINE
  5
3F1
330
3EE
100
AcDbEntity
  8
LC-002-102-D00-0
 62
     2
370
    -2
100
AcDbLine
 10
248.850515
 20
467.142785
 30
0.0
 11
353.050515
 21
467.142785
 31
0.0
  0
SOLID
  5
3F2
330
3EE
100
AcDbEntity
  8
LC-002-102-D00-0
 62
     2
100
AcDbTrace
 10
248.850515
 20
471.809452
 30
0.0
 11
248.850515
 21
462.476119
 31
0.0
 12
220.850515
 22
467.142785
 32
0.0
 13
220.850515
 23
467.142785
 33
0.0
  0
SOLID
  5
3F3
330
3EE
100
AcDbEntity
  8
LC-002-102-D00-0
 62
     2
100
AcDbTrace
 10
353.050515
 20
462.476119
 30
0.0
 11
353.050515
 21
471.809452
 31
0.0
 12
381.050515
 22
467.142785
 32
0.0
 13
381.050515
 23
467.142785
 33
0.0
  0
MTEXT
  5
3F4
330
3EE
100
AcDbEntity
  8
LC-002-102-D00-0
 62
     2
100
AcDbMText
 10
303.50799
 20
497.942785
 30
0.0
 40
28.0
 41
0.0
 71
     5
 72
     1
  1
\A1;%%c160
  7
LCTX15-400-0-0pDIN-Schrift
 73
     1
 44
1.0
  0
POINT
  5
3F5
330
3EE
100
AcDbEntity
  8
Defpoints
 62
     0
100
AcDbPoint
 10
220.850515
 20
631.240229
 30
0.0
  0
POINT
  5
3F6
330
3EE
100
AcDbEntity
  8
Defpoints
 62
     0
100
AcDbPoint
 10
381.050515
 20
631.240229
 30
0.0
  0
POINT
  5
3F7
330
3EE
100
AcDbEntity
  8
Defpoints
 62
     0
100
AcDbPoint
 10
381.050515
 20
467.142785
 30
0.0
  0
ENDBLK
  5
3F9
330
3EE
100
AcDbEntity
  8
0
100
AcDbBlockEnd
  0
BLOCK
  5
406
330
3FB
100
AcDbEntity
  8
0
100
AcDbBlockBegin
  2
*D23
 70
     1
 71
     0
 10
0.0
 20
0.0
 30
0.0
  3
*D23
  1

  0
LINE
  5
3FC
330
3FB
100
AcDbEntity
  8
LC-002-102-D00-0
 62
     2
370
    -2
100
AcDbLine
 10
255.850515
 20
560.740229
 30
0.0
 11
255.850515
 21
522.942785
 31
0.0
  0
LINE
  5
3FD
330
3FB
100
AcDbEntity
  8
LC-002-102-D00-0
 62
     2
370
    -2
100
AcDbLine
 10
346.050515
 20
560.740229
 30
0.0
 11
346.050515
 21
522.942785
 31
0.0
  0
LINE
  5
3FE
330
3FB
100
AcDbEntity
  8
LC-002-102-D00-0
 62
     2
370
    -2
100
AcDbLine
 10
283.850515
 20
526.542785
 30
0.0
 11
318.050515
 21
526.542785
 31
0.0
  0
LINE
  5
3FF
330
3FB
100
AcDbEntity
  8
LC-002-102-D00-0
 62
     2
370
    -2
100
AcDbLine
 10
346.050515
 20
526.542785
 30
0.0
 11
457.097532
 21
526.542785
 31
0.0
  0
SOLID
  5
400
330
3FB
100
AcDbEntity
  8
LC-002-102-D00-0
 62
     2
100
AcDbTrace
 10
283.850515
 20
531.209452
 30
0.0
 11
283.850515
 21
521.876119
 31
0.0
 12
255.850515
 22
526.542785
 32
0.0
 13
255.850515
 23
526.542785
 33
0.0
  0
SOLID
  5
401
330
3FB
100
AcDbEntity
  8
LC-002-102-D00-0
 62
     2
100
AcDbTrace
 10
318.050515
 20
521.876119
 30
0.0
 11
318.050515
 21
531.209452
 31
0.0
 12
346.050515
 22
526.542785
 32
0.0
 13
346.050515
 23
526.542785
 33
0.0
  0
MTEXT
  5
402
330
3FB
100
AcDbEntity
  8
LC-002-102-D00-0
 62
     2
100
AcDbMText
 10
411.060775
 20
557.342785
 30
0.0
 40
28.0
 41
0.0
 71
     5
 72
     1
  1
\A1;DN90
  7
LCTX15-400-0-0pDIN-Schrift
 73
     1
 44
1.0
  0
POINT
  5
403
330
3FB
100
AcDbEntity
  8
Defpoints
 62
     0
100
AcDbPoint
 10
255.850515
 20
560.740229
 30
0.0
  0
POINT
  5
404
330
3FB
100
AcDbEntity
  8
Defpoints
 62
     0
100
AcDbPoint
 10
346.050515
 20
560.740229
 30
0.0
  0
POINT
  5
405
330
3FB
100
AcDbEntity
  8
Defpoints
 62
     0
100
AcDbPoint
 10
346.050515
 20
526.542785
 30
0.0
  0
ENDBLK
  5
407
330
3FB
100
AcDbEntity
  8
0
100
AcDbBlockEnd
  0
BLOCK
  5
413
330
409
100
AcDbEntity
  8
0
100
AcDbBlockBegin
  2
*D24
 70
     1
 71
     0
 10
0.0
 20
0.0
 30
0.0
  3
*D24
  1

  0
LINE
  5
40A
330
409
100
AcDbEntity
  8
LC-002-102-D00-0
 62
     2
370
    -2
100
AcDbLine
 10
120.950515
 20
714.240229
 30
0.0
 11
120.950515
 21
811.940235
 31
0.0
  0
LINE
  5
40B
330
409
100
AcDbEntity
  8
LC-002-102-D00-0
 62
     2
370
    -2
100
AcDbLine
 10
480.950515
 20
714.240229
 30
0.0
 11
480.950515
 21
811.940235
 31
0.0
  0
LINE
  5
40C
330
409
100
AcDbEntity
  8
LC-002-102-D00-0
 62
     2
370
    -2
100
AcDbLine
 10
148.950515
 20
808.340235
 30
0.0
 11
452.950515
 21
808.340235
 31
0.0
  0
SOLID
  5
40D
330
409
100
AcDbEntity
  8
LC-002-102-D00-0
 62
     2
100
AcDbTrace
 10
148.950515
 20
813.006902
 30
0.0
 11
148.950515
 21
803.673569
 31
0.0
 12
120.950515
 22
808.340235
 32
0.0
 13
120.950515
 23
808.340235
 33
0.0
  0
SOLID
  5
40E
330
409
100
AcDbEntity
  8
LC-002-102-D00-0
 62
     2
100
AcDbTrace
 10
452.950515
 20
803.673569
 30
0.0
 11
452.950515
 21
813.006902
 31
0.0
 12
480.950515
 22
808.340235
 32
0.0
 13
480.950515
 23
808.340235
 33
0.0
  0
MTEXT
  5
40F
330
409
100
AcDbEntity
  8
LC-002-102-D00-0
 62
     2
100
AcDbMText
 10
301.879026
 20
839.140235
 30
0.0
 40
28.0
 41
0.0
 71
     5
 72
     1
  1
%%c\A1;360
  7
LCTX15-400-0-0pDIN-Schrift
 73
     1
 44
1.0
  0
POINT
  5
410
330
409
100
AcDbEntity
  8
Defpoints
 62
     0
100
AcDbPoint
 10
120.950515
 20
714.240229
 30
0.0
  0
POINT
  5
411
330
409
100
AcDbEntity
  8
Defpoints
 62
     0
100
AcDbPoint
 10
480.950515
 20
714.240229
 30
0.0
  0
POINT
  5
412
330
409
100
AcDbEntity
  8
Defpoints
 62
     0
100
AcDbPoint
 10
480.950515
 20
808.340235
 30
0.0
  0
ENDBLK
  5
414
330
409
100
AcDbEntity
  8
0
100
AcDbBlockEnd
  0
BLOCK
  5
423
330
419
100
AcDbEntity
  8
0
100
AcDbBlockBegin
  2
*D25
 70
     1
 71
     0
 10
0.0
 20
0.0
 30
0.0
  3
*D25
  1

  0
LINE
  5
41A
330
419
100
AcDbEntity
  8
LC-003-003-----0
 62
     2
370
    -2
100
AcDbLine
 10
126.950517
 20
717.240229
 30
0.0
 11
139.921979
 21
717.240229
 31
0.0
  0
LINE
  5
41B
330
419
100
AcDbEntity
  8
LC-003-003-----0
 62
     2
370
    -2
100
AcDbLine
 10
228.950516
 20
621.240228
 30
0.0
 11
132.721979
 21
621.240228
 31
0.0
  0
LINE
  5
41C
330
419
100
AcDbEntity
  8
LC-003-003-----0
 62
     2
370
    -2
100
AcDbLine
 10
136.321979
 20
689.240229
 30
0.0
 11
136.321979
 21
649.240228
 31
0.0
  0
SOLID
  5
41D
330
419
100
AcDbEntity
  8
LC-003-003-----0
 62
     2
100
AcDbTrace
 10
140.988646
 20
689.240229
 30
0.0
 11
131.655312
 21
689.240229
 31
0.0
 12
136.321979
 22
717.240229
 32
0.0
 13
136.321979
 23
717.240229
 33
0.0
  0
SOLID
  5
41E
330
419
100
AcDbEntity
  8
LC-003-003-----0
 62
     2
100
AcDbTrace
 10
131.655312
 20
649.240228
 30
0.0
 11
140.988646
 21
649.240228
 31
0.0
 12
136.321979
 22
621.240228
 32
0.0
 13
136.321979
 23
621.240228
 33
0.0
  0
MTEXT
  5
41F
330
419
100
AcDbEntity
  8
LC-003-003-----0
 62
     2
100
AcDbMText
 10
105.521979
 20
669.696785
 30
0.0
 40
28.0
 41
0.0
 71
     5
 72
     1
  1
\A1;96
  7
LCTX15-400-0-0pDIN-Schrift
 11
6.123031769111886E-17
 21
1.0
 31
0.0
 73
     1
 44
1.0
  0
POINT
  5
420
330
419
100
AcDbEntity
  8
Defpoints
 62
     0
100
AcDbPoint
 10
126.950517
 20
717.240229
 30
0.0
  0
POINT
  5
421
330
419
100
AcDbEntity
  8
Defpoints
 62
     0
100
AcDbPoint
 10
228.950516
 20
621.240228
 30
0.0
  0
POINT
  5
422
330
419
100
AcDbEntity
  8
Defpoints
 62
     0
100
AcDbPoint
 10
136.321979
 20
621.240228
 30
0.0
  0
ENDBLK
  5
424
330
419
100
AcDbEntity
  8
0
100
AcDbBlockEnd
  0
ENDSEC
  0
SECTION
  2
ENTITIES
  0
LINE
  5
32
330
1F
100
AcDbEntity
  8
LC-001-100-D00-0
 62
     7
370
    50
100
AcDbLine
 10
233.416602
 20
626.240231
 30
0.0
 11
233.416602
 21
601.240228
 31
0.0
  0
LINE
  5
33
330
1F
100
AcDbEntity
  8
LC-001-100-D00-0
 62
     7
370
    50
100
AcDbLine
 10
226.359882
 20
601.240228
 30
0.0
 11
226.359882
 21
626.240231
 31
0.0
  0
LINE
  5
34
330
1F
100
AcDbEntity
  8
LC-001-100-D00-0
 62
     7
370
    50
100
AcDbLine
 10
233.416602
 20
601.240228
 30
0.0
 11
232.862599
 21
601.240228
 31
0.0
  0
LINE
  5
35
330
1F
100
AcDbEntity
  8
LC-001-100-D00-0
 62
     7
370
    50
100
AcDbLine
 10
226.913884
 20
601.240228
 30
0.0
 11
226.359882
 21
601.240228
 31
0.0
  0
LINE
  5
36
330
1F
100
AcDbEntity
  8
LC-001-100-D00-0
 62
     7
370
    50
100
AcDbLine
 10
233.416602
 20
626.240231
 30
0.0
 11
232.862599
 21
626.240231
 31
0.0
  0
LINE
  5
37
330
1F
100
AcDbEntity
  8
LC-001-100-D00-0
 62
     7
370
    50
100
AcDbLine
 10
226.913884
 20
626.240231
 30
0.0
 11
226.359882
 21
626.240231
 31
0.0
  0
LINE
  5
38
330
1F
100
AcDbEntity
  8
LC-001-100-D00-0
 62
     7
370
    50
100
AcDbLine
 10
233.416602
 20
601.240228
 30
0.0
 11
234.120183
 21
601.240228
 31
0.0
  0
LINE
  5
39
330
1F
100
AcDbEntity
  8
LC-001-100-D00-0
 62
     7
370
    50
100
AcDbLine
 10
234.120183
 20
601.240228
 30
0.0
 11
234.120183
 21
623.740229
 31
0.0
  0
LINE
  5
3A
330
1F
100
AcDbEntity
  8
LC-001-100-D00-0
 62
     7
370
    50
100
AcDbLine
 10
234.120183
 20
623.740229
 30
0.0
 11
236.226164
 21
623.740229
 31
0.0
  0
LINE
  5
3B
330
1F
100
AcDbEntity
  8
LC-001-100-D00-0
 62
     7
370
    50
100
AcDbLine
 10
236.226164
 20
626.240231
 30
0.0
 11
233.416602
 21
626.240231
 31
0.0
  0
LINE
  5
3C
330
1F
100
AcDbEntity
  8
LC-001-100-D00-0
 62
     7
370
    50
100
AcDbLine
 10
236.226164
 20
623.740229
 30
0.0
 11
236.226164
 21
626.240231
 31
0.0
  0
LINE
  5
3D
330
1F
100
AcDbEntity
  8
LC-001-100-D00-0
 62
     7
370
    50
100
AcDbLine
 10
225.656293
 20
601.240228
 30
0.0
 11
226.359882
 21
601.240228
 31
0.0
  0
LINE
  5
3E
330
1F
100
AcDbEntity
  8
LC-001-100-D00-0
 62
     7
370
    50
100
AcDbLine
 10
225.656293
 20
623.740229
 30
0.0
 11
225.656293
 21
601.240228
 31
0.0
  0
LINE
  5
3F
330
1F
100
AcDbEntity
  8
LC-001-100-D00-0
 62
     7
370
    50
100
AcDbLine
 10
223.550312
 20
623.740229
 30
0.0
 11
225.656293
 21
623.740229
 31
0.0
  0
LINE
  5
40
330
1F
100
AcDbEntity
  8
LC-001-100-D00-0
 62
     7
370
    50
100
AcDbLine
 10
226.359882
 20
626.240231
 30
0.0
 11
223.550312
 21
626.240231
 31
0.0
  0
LINE
  5
41
330
1F
100
AcDbEntity
  8
LC-001-100-D00-0
 62
     7
370
    50
100
AcDbLine
 10
223.550312
 20
626.240231
 30
0.0
 11
223.550312
 21
623.740229
 31
0.0
  0
LINE
  5
42
330
1F
100
AcDbEntity
  8
LC-001-100-D00-0
 62
     7
370
    50
100
AcDbLine
 10
375.950515
 20
655.635401
 30
0.0
 11
375.950515
 21
663.635403
 31
0.0
  0
LINE
  5
43
330
1F
100
AcDbEntity
  8
LC-001-100-D00-0
 62
     7
370
    50
100
AcDbLine
 10
225.950517
 20
663.635403
 30
0.0
 11
225.950517
 21
655.635401
 31
0.0
  0
ARC
  5
44
330
1F
100
AcDbEntity
  8
LC-001-100-D00-0
 62
     7
370
    50
100
AcDbCircle
 10
373.950515
 20
663.6354
 30
0.0
 40
2.0
100
AcDbArc
 50
0.0
 51
90.0
  0
ARC
  5
45
330
1F
100
AcDbEntity
  8
LC-001-100-D00-0
 62
     7
370
    50
100
AcDbCircle
 10
227.950515
 20
663.6354
 30
0.0
 40
2.0
100
AcDbArc
 50
90.0
 51
180.0
  0
ARC
  5
46
330
1F
100
AcDbEntity
  8
LC-001-100-D00-0
 62
     7
370
    50
100
AcDbCircle
 10
373.950515
 20
655.6354
 30
0.0
 40
2.0
100
AcDbArc
 50
270.0
 51
0.0
  0
ARC
  5
47
330
1F
100
AcDbEntity
  8
LC-001-100-D00-0
 62
     7
370
    50
100
AcDbCircle
 10
227.950515
 20
655.6354
 30
0.0
 40
2.0
100
AcDbArc
 50
180.0
 51
270.0
  0
ARC
  5
48
330
1F
100
AcDbEntity
  8
LC-001-100-D00-0
 62
     7
370
    50
100
AcDbCircle
 10
369.950515
 20
655.6354
 30
0.0
 40
2.0
100
AcDbArc
 50
180.0
 51
270.0
  0
ARC
  5
49
330
1F
100
AcDbEntity
  8
LC-001-100-D00-0
 62
     7
370
    50
100
AcDbCircle
 10
231.950515
 20
655.6354
 30
0.0
 40
2.0
100
AcDbArc
 50
270.0
 51
0.0
  0
LINE
  5
4A
330
1F
100
AcDbEntity
  8
LC-001-100-D00-0
 62
     7
370
    50
100
AcDbLine
 10
369.950514
 20
653.635397
 30
0.0
 11
367.450515
 21
653.635397
 31
0.0
  0
LINE
  5
4B
330
1F
100
AcDbEntity
  8
LC-001-100-D00-0
 62
     7
370
    50
100
AcDbLine
 10
234.450512
 20
653.635397
 30
0.0
 11
232.862599
 21
653.635397
 31
0.0
  0
ARC
  5
4C
330
1F
100
AcDbEntity
  8
LC-001-100-D00-0
 62
     7
370
    50
100
AcDbCircle
 10
369.950515
 20
663.6354
 30
0.0
 40
2.0
100
AcDbArc
 50
90.0
 51
180.0
  0
ARC
  5
4D
330
1F
100
AcDbEntity
  8
LC-001-100-D00-0
 62
     7
370
    50
100
AcDbCircle
 10
231.950515
 20
663.6354
 30
0.0
 40
2.0
100
AcDbArc
 50
0.0
 51
90.0
  0
LINE
  5
4E
330
1F
100
AcDbEntity
  8
LC-001-100-D00-0
 62
     7
370
    50
100
AcDbLine
 10
369.950514
 20
665.635399
 30
0.0
 11
367.73167
 21
665.635399
 31
0.0
  0
LINE
  5
4F
330
1F
100
AcDbEntity
  8
LC-001-100-D00-0
 62
     7
370
    50
100
AcDbLine
 10
234.169357
 20
665.635399
 30
0.0
 11
231.950514
 21
665.635399
 31
0.0
  0
LINE
  5
50
330
1F
100
AcDbEntity
  8
LC-001-100-D00-0
 62
     7
370
    50
100
AcDbLine
 10
367.950516
 20
663.635403
 30
0.0
 11
367.950516
 21
655.635401
 31
0.0
  0
LINE
  5
51
330
1F
100
AcDbEntity
  8
LC-001-100-D00-0
 62
     7
370
    50
100
AcDbLine
 10
233.950518
 20
655.635401
 30
0.0
 11
233.950518
 21
663.635403
 31
0.0
  0
LINE
  5
52
330
1F
100
AcDbEntity
  8
LC-001-100-D00-0
 62
     7
370
    50
100
AcDbLine
 10
231.950514
 20
653.635397
 30
0.0
 11
232.862599
 21
653.635397
 31
0.0
  0
LINE
  5
53
330
1F
100
AcDbEntity
  8
LC-001-100-D00-0
 62
     7
370
    50
100
AcDbLine
 10
232.862599
 20
653.635397
 30
0.0
 11
232.862599
 21
453.635402
 31
0.0
  0
LINE
  5
54
330
1F
100
AcDbEntity
  8
LC-001-100-D00-0
 62
     7
370
    50
100
AcDbLine
 10
226.913884
 20
453.635402
 30
0.0
 11
232.862599
 21
453.635402
 31
0.0
  0
LINE
  5
55
330
1F
100
AcDbEntity
  8
LC-001-100-D00-0
 62
     7
370
    50
100
AcDbLine
 10
226.913884
 20
453.635402
 30
0.0
 11
226.913884
 21
653.635397
 31
0.0
  0
LINE
  5
56
330
1F
100
AcDbEntity
  8
LC-001-100-D00-0
 62
     7
370
    50
100
AcDbLine
 10
226.913884
 20
653.635397
 30
0.0
 11
227.950513
 21
653.635397
 31
0.0
  0
LINE
  5
57
330
1F
100
AcDbEntity
  8
LC-001-100-D00-0
 62
     7
370
    50
100
AcDbLine
 10
231.950514
 20
665.635399
 30
0.0
 11
227.950513
 21
665.635399
 31
0.0
  0
LINE
  5
58
330
1F
100
AcDbEntity
  8
LC-001-100-D00-0
 62
     7
370
    50
100
AcDbLine
 10
369.950514
 20
653.635397
 30
0.0
 11
373.950515
 21
653.635397
 31
0.0
  0
LINE
  5
59
330
1F
100
AcDbEntity
  8
LC-001-100-D00-0
 62
     7
370
    50
100
AcDbLine
 10
373.950515
 20
665.635399
 30
0.0
 11
369.950514
 21
665.635399
 31
0.0
  0
INSERT
  5
6B
330
1F
100
AcDbEntity
  8
LC-001-100-D00-0
 62
     7
370
    50
100
AcDbBlockReference
  2
POLY1
 10
0.0
 20
0.0
 30
0.0
  0
LINE
  5
6C
330
1F
100
AcDbEntity
  8
LC-001-100-D00-0
 62
     7
370
    50
100
AcDbLine
 10
230.937958
 20
708.540231
 30
0.0
 11
230.937958
 21
688.24023
 31
0.0
  0
LINE
  5
6D
330
1F
100
AcDbEntity
  8
LC-001-100-D00-0
 62
     7
370
    50
100
AcDbLine
 10
229.950518
 20
688.24023
 30
0.0
 11
230.937958
 21
688.24023
 31
0.0
  0
LINE
  5
6E
330
1F
100
AcDbEntity
  8
LC-001-100-D00-0
 62
     7
370
    50
100
AcDbLine
 10
229.950518
 20
688.24023
 30
0.0
 11
229.950518
 21
709.540233
 31
0.0
  0
LINE
  5
6F
330
1F
100
AcDbEntity
  8
LC-001-100-D00-0
 62
     7
370
    50
100
AcDbLine
 10
357.150515
 20
756.528139
 30
0.0
 11
349.399097
 21
777.824998
 31
0.0
  0
LINE
  5
70
330
1F
100
AcDbEntity
  8
LC-001-100-D00-0
 62
     7
370
    50
100
AcDbLine
 10
349.399097
 20
777.824998
 30
0.0
 11
349.399097
 21
777.440235
 31
0.0
  0
LINE
  5
71
330
1F
100
AcDbEntity
  8
LC-001-100-D00-0
 62
     7
370
    50
100
AcDbLine
 10
349.399097
 20
777.440235
 30
0.0
 11
252.501935
 21
777.440235
 31
0.0
  0
LINE
  5
72
330
1F
100
AcDbEntity
  8
LC-001-100-D00-0
 62
     7
370
    50
100
AcDbLine
 10
252.501935
 20
777.440235
 30
0.0
 11
252.501935
 21
777.824998
 31
0.0
  0
LINE
  5
73
330
1F
100
AcDbEntity
  8
LC-001-100-D00-0
 62
     7
370
    50
100
AcDbLine
 10
252.501935
 20
777.824998
 30
0.0
 11
244.750515
 21
756.528139
 31
0.0
  0
LINE
  5
74
330
1F
100
AcDbEntity
  8
LC-001-100-D00-0
 62
     7
370
    50
100
AcDbLine
 10
244.750515
 20
756.528139
 30
0.0
 11
244.750515
 21
751.840293
 31
0.0
  0
LINE
  5
75
330
1F
100
AcDbEntity
  8
LC-001-100-D00-0
 62
     7
370
    50
100
AcDbLine
 10
244.750515
 20
751.840293
 30
0.0
 11
243.04428
 21
751.840293
 31
0.0
  0
LINE
  5
76
330
1F
100
AcDbEntity
  8
LC-001-100-D00-0
 62
     7
370
    50
100
AcDbLine
 10
243.04428
 20
751.840293
 30
0.0
 11
230.450884
 21
717.240229
 31
0.0
  0
LINE
  5
77
330
1F
100
AcDbEntity
  8
LC-001-100-D00-0
 62
     7
370
    50
100
AcDbLine
 10
230.450884
 20
717.240229
 30
0.0
 11
230.450519
 21
717.240229
 31
0.0
  0
LINE
  5
78
330
1F
100
AcDbEntity
  8
LC-001-100-D00-0
 62
     7
370
    50
100
AcDbLine
 10
230.450519
 20
709.540233
 30
0.0
 11
230.450519
 21
717.240229
 31
0.0
  0
LINE
  5
79
330
1F
100
AcDbEntity
  8
LC-001-100-D00-0
 62
     7
370
    50
100
AcDbLine
 10
226.550512
 20
688.24023
 30
0.0
 11
229.950518
 21
688.24023
 31
0.0
  0
ARC
  5
7A
330
1F
100
AcDbEntity
  8
LC-001-100-D00-0
 62
     7
370
    50
100
AcDbCircle
 10
226.550515
 20
689.240229
 30
0.0
 40
1.0
100
AcDbArc
 50
180.0
 51
270.0
  0
ARC
  5
7B
330
1F
100
AcDbEntity
  8
LC-001-100-D00-0
 62
     7
370
    50
100
AcDbCircle
 10
226.550515
 20
689.240229
 30
0.0
 40
1.0
100
AcDbArc
 50
90.0
 51
180.0
  0
LINE
  5
7C
330
1F
100
AcDbEntity
  8
LC-001-100-D00-0
 62
     7
370
    50
100
AcDbLine
 10
226.550512
 20
690.240234
 30
0.0
 11
227.050513
 21
690.240234
 31
0.0
  0
LINE
  5
7D
330
1F
100
AcDbEntity
  8
LC-001-100-D00-0
 62
     7
370
    50
100
AcDbLine
 10
227.050513
 20
690.240234
 30
0.0
 11
227.050513
 21
717.240229
 31
0.0
  0
LINE
  5
7E
330
1F
100
AcDbEntity
  8
LC-001-100-D00-0
 62
     7
370
    50
100
AcDbLine
 10
227.050513
 20
717.240229
 30
0.0
 11
218.557619
 21
717.240229
 31
0.0
  0
LINE
  5
7F
330
1F
100
AcDbEntity
  8
LC-001-100-D00-0
 62
     7
370
    50
100
AcDbLine
 10
215.365045
 20
719.064548
 30
0.0
 11
218.557619
 21
717.240229
 31
0.0
  0
LINE
  5
80
330
1F
100
AcDbEntity
  8
LC-001-100-D00-0
 62
     7
370
    50
100
AcDbLine
 10
238.406547
 20
782.370537
 30
0.0
 11
215.365045
 21
719.064548
 31
0.0
  0
ARC
  5
81
330
1F
100
AcDbEntity
  8
LC-001-100-D00-0
 62
     7
370
    50
100
AcDbCircle
 10
252.501933
 20
777.240235
 30
0.0
 40
15.0
100
AcDbArc
 50
90.0
 51
160.0
  0
LINE
  5
82
330
1F
100
AcDbEntity
  8
LC-001-100-D00-0
 62
     7
370
    50
100
AcDbLine
 10
252.501935
 20
792.240232
 30
0.0
 11
312.75278
 21
792.240232
 31
0.0
  0
LINE
  5
83
330
1F
100
AcDbEntity
  8
LC-001-100-D00-0
 62
     7
370
    50
100
AcDbLine
 10
312.75278
 20
792.240232
 30
0.0
 11
312.75278
 21
792.340234
 31
0.0
  0
LINE
  5
84
330
1F
100
AcDbEntity
  8
LC-001-100-D00-0
 62
     7
370
    50
100
AcDbLine
 10
313.578833
 20
792.340234
 30
0.0
 11
312.75278
 21
792.340234
 31
0.0
  0
LINE
  5
85
330
1F
100
AcDbEntity
  8
LC-001-100-D00-0
 62
     7
370
    50
100
AcDbLine
 10
313.578833
 20
792.240232
 30
0.0
 11
313.578833
 21
792.340234
 31
0.0
  0
LINE
  5
86
330
1F
100
AcDbEntity
  8
LC-001-100-D00-0
 62
     7
370
    50
100
AcDbLine
 10
313.578833
 20
792.240232
 30
0.0
 11
314.156458
 21
792.240232
 31
0.0
  0
LINE
  5
87
330
1F
100
AcDbEntity
  8
LC-001-100-D00-0
 62
     7
370
    50
100
AcDbLine
 10
314.156458
 20
792.340234
 30
0.0
 11
314.156458
 21
792.240232
 31
0.0
  0
LINE
  5
88
330
1F
100
AcDbEntity
  8
LC-001-100-D00-0
 62
     7
370
    50
100
AcDbLine
 10
314.895559
 20
792.340234
 30
0.0
 11
314.156458
 21
792.340234
 31
0.0
  0
LINE
  5
89
330
1F
100
AcDbEntity
  8
LC-001-100-D00-0
 62
     7
370
    50
100
AcDbLine
 10
314.895559
 20
792.340234
 30
0.0
 11
314.895559
 21
792.240232
 31
0.0
  0
LINE
  5
8A
330
1F
100
AcDbEntity
  8
LC-001-100-D00-0
 62
     7
370
    50
100
AcDbLine
 10
314.895559
 20
792.240232
 30
0.0
 11
315.274421
 21
792.240232
 31
0.0
  0
LINE
  5
8B
330
1F
100
AcDbEntity
  8
LC-001-100-D00-0
 62
     7
370
    50
100
AcDbLine
 10
315.274421
 20
792.240232
 30
0.0
 11
315.274421
 21
792.340234
 31
0.0
  0
LINE
  5
8C
330
1F
100
AcDbEntity
  8
LC-001-100-D00-0
 62
     7
370
    50
100
AcDbLine
 10
317.622155
 20
792.340234
 30
0.0
 11
315.274421
 21
792.340234
 31
0.0
  0
LINE
  5
8D
330
1F
100
AcDbEntity
  8
LC-001-100-D00-0
 62
     7
370
    50
100
AcDbLine
 10
317.622155
 20
792.340234
 30
0.0
 11
317.622155
 21
792.240232
 31
0.0
  0
LINE
  5
8E
330
1F
100
AcDbEntity
  8
LC-001-100-D00-0
 62
     7
370
    50
100
AcDbLine
 10
317.622155
 20
792.240232
 30
0.0
 11
318.056919
 21
792.240232
 31
0.0
  0
LINE
  5
8F
330
1F
100
AcDbEntity
  8
LC-001-100-D00-0
 62
     7
370
    50
100
AcDbLine
 10
318.056919
 20
792.240232
 30
0.0
 11
318.056919
 21
792.340234
 31
0.0
  0
LINE
  5
90
330
1F
100
AcDbEntity
  8
LC-001-100-D00-0
 62
     7
370
    50
100
AcDbLine
 10
318.056919
 20
792.340234
 30
0.0
 11
318.839498
 21
792.340234
 31
0.0
  0
LINE
  5
91
330
1F
100
AcDbEntity
  8
LC-001-100-D00-0
 62
     7
370
    50
100
AcDbLine
 10
318.839498
 20
792.340234
 30
0.0
 11
318.839498
 21
792.240232
 31
0.0
  0
LINE
  5
92
330
1F
100
AcDbEntity
  8
LC-001-100-D00-0
 62
     7
370
    50
100
AcDbLine
 10
318.839498
 20
792.240232
 30
0.0
 11
319.926411
 21
792.240232
 31
0.0
  0
LINE
  5
93
330
1F
100
AcDbEntity
  8
LC-001-100-D00-0
 62
     7
370
    50
100
AcDbLine
 10
319.926411
 20
792.240232
 30
0.0
 11
319.926411
 21
792.340234
 31
0.0
  0
LINE
  5
94
330
1F
100
AcDbEntity
  8
LC-001-100-D00-0
 62
     7
370
    50
100
AcDbLine
 10
319.926411
 20
792.340234
 30
0.0
 11
320.708992
 21
792.340234
 31
0.0
  0
LINE
  5
95
330
1F
100
AcDbEntity
  8
LC-001-100-D00-0
 62
     7
370
    50
100
AcDbLine
 10
320.708992
 20
792.340234
 30
0.0
 11
320.708992
 21
792.240232
 31
0.0
  0
LINE
  5
96
330
1F
100
AcDbEntity
  8
LC-001-100-D00-0
 62
     7
370
    50
100
AcDbLine
 10
320.708992
 20
792.240232
 30
0.0
 11
321.795905
 21
792.240232
 31
0.0
  0
LINE
  5
97
330
1F
100
AcDbEntity
  8
LC-001-100-D00-0
 62
     7
370
    50
100
AcDbLine
 10
321.795905
 20
792.240232
 30
0.0
 11
321.795905
 21
792.340234
 31
0.0
  0
LINE
  5
98
330
1F
100
AcDbEntity
  8
LC-001-100-D00-0
 62
     7
370
    50
100
AcDbLine
 10
322.578484
 20
792.340234
 30
0.0
 11
321.795905
 21
792.340234
 31
0.0
  0
LINE
  5
99
330
1F
100
AcDbEntity
  8
LC-001-100-D00-0
 62
     7
370
    50
100
AcDbLine
 10
322.578484
 20
792.340234
 30
0.0
 11
322.578484
 21
792.240232
 31
0.0
  0
LINE
  5
9A
330
1F
100
AcDbEntity
  8
LC-001-100-D00-0
 62
     7
370
    50
100
AcDbLine
 10
322.578484
 20
792.240232
 30
0.0
 11
323.14368
 21
792.240232
 31
0.0
  0
LINE
  5
9B
330
1F
100
AcDbEntity
  8
LC-001-100-D00-0
 62
     7
370
    50
100
AcDbLine
 10
323.14368
 20
792.240232
 30
0.0
 11
323.14368
 21
792.340234
 31
0.0
  0
LINE
  5
9C
330
1F
100
AcDbEntity
  8
LC-001-100-D00-0
 62
     7
370
    50
100
AcDbLine
 10
323.969733
 20
792.340234
 30
0.0
 11
323.14368
 21
792.340234
 31
0.0
  0
LINE
  5
9D
330
1F
100
AcDbEntity
  8
LC-001-100-D00-0
 62
     7
370
    50
100
AcDbLine
 10
323.969733
 20
792.340234
 30
0.0
 11
323.969733
 21
792.240232
 31
0.0
  0
LINE
  5
9E
330
1F
100
AcDbEntity
  8
LC-001-100-D00-0
 62
     7
370
    50
100
AcDbLine
 10
323.969733
 20
792.240232
 30
0.0
 11
324.534929
 21
792.240232
 31
0.0
  0
LINE
  5
9F
330
1F
100
AcDbEntity
  8
LC-001-100-D00-0
 62
     7
370
    50
100
AcDbLine
 10
324.534929
 20
792.240232
 30
0.0
 11
324.534929
 21
792.340234
 31
0.0
  0
LINE
  5
A0
330
1F
100
AcDbEntity
  8
LC-001-100-D00-0
 62
     7
370
    50
100
AcDbLine
 10
325.317508
 20
792.340234
 30
0.0
 11
324.534929
 21
792.340234
 31
0.0
  0
LINE
  5
A1
330
1F
100
AcDbEntity
  8
LC-001-100-D00-0
 62
     7
370
    50
100
AcDbLine
 10
325.317508
 20
792.340234
 30
0.0
 11
325.317508
 21
792.240232
 31
0.0
  0
LINE
  5
A2
330
1F
100
AcDbEntity
  8
LC-001-100-D00-0
 62
     7
370
    50
100
AcDbLine
 10
325.317508
 20
792.240232
 30
0.0
 11
325.665321
 21
792.240232
 31
0.0
  0
LINE
  5
A3
330
1F
100
AcDbEntity
  8
LC-001-100-D00-0
 62
     7
370
    50
100
AcDbLine
 10
325.665321
 20
792.240232
 30
0.0
 11
325.665321
 21
792.340234
 31
0.0
  0
LINE
  5
A4
330
1F
100
AcDbEntity
  8
LC-001-100-D00-0
 62
     7
370
    50
100
AcDbLine
 10
325.665321
 20
792.340234
 30
0.0
 11
327.57829
 21
792.340234
 31
0.0
  0
LINE
  5
A5
330
1F
100
AcDbEntity
  8
LC-001-100-D00-0
 62
     7
370
    50
100
AcDbLine
 10
327.57829
 20
792.340234
 30
0.0
 11
327.57829
 21
792.240232
 31
0.0
  0
LINE
  5
A6
330
1F
100
AcDbEntity
  8
LC-001-100-D00-0
 62
     7
370
    50
100
AcDbLine
 10
327.57829
 20
792.240232
 30
0.0
 11
328.056531
 21
792.240232
 31
0.0
  0
LINE
  5
A7
330
1F
100
AcDbEntity
  8
LC-001-100-D00-0
 62
     7
370
    50
100
AcDbLine
 10
328.056531
 20
792.240232
 30
0.0
 11
328.056531
 21
792.340234
 31
0.0
  0
LINE
  5
A8
330
1F
100
AcDbEntity
  8
LC-001-100-D00-0
 62
     7
370
    50
100
AcDbLine
 10
330.379598
 20
792.340234
 30
0.0
 11
328.056531
 21
792.340234
 31
0.0
  0
LINE
  5
A9
330
1F
100
AcDbEntity
  8
LC-001-100-D00-0
 62
     7
370
    50
100
AcDbLine
 10
330.379598
 20
792.340234
 30
0.0
 11
330.379598
 21
792.240232
 31
0.0
  0
LINE
  5
AA
330
1F
100
AcDbEntity
  8
LC-001-100-D00-0
 62
     7
370
    50
100
AcDbLine
 10
330.379598
 20
792.240232
 30
0.0
 11
349.399097
 21
792.240232
 31
0.0
  0
ARC
  5
AB
330
1F
100
AcDbEntity
  8
LC-001-100-D00-0
 62
     7
370
    50
100
AcDbCircle
 10
349.399097
 20
777.240235
 30
0.0
 40
14.99999999999998
100
AcDbArc
 50
20.0
 51
90.0
  0
LINE
  5
AC
330
1F
100
AcDbEntity
  8
LC-001-100-D00-0
 62
     7
370
    50
100
AcDbLine
 10
386.53598
 20
719.064548
 30
0.0
 11
363.494487
 21
782.370537
 31
0.0
  0
LINE
  5
AD
330
1F
100
AcDbEntity
  8
LC-001-100-D00-0
 62
     7
370
    50
100
AcDbLine
 10
383.343414
 20
717.240229
 30
0.0
 11
386.53598
 21
719.064548
 31
0.0
  0
LINE
  5
AE
330
1F
100
AcDbEntity
  8
LC-001-100-D00-0
 62
     7
370
    50
100
AcDbLine
 10
383.343414
 20
717.240229
 30
0.0
 11
374.850515
 21
717.240229
 31
0.0
  0
LINE
  5
AF
330
1F
100
AcDbEntity
  8
LC-001-100-D00-0
 62
     7
370
    50
100
AcDbLine
 10
374.850515
 20
717.240229
 30
0.0
 11
374.850515
 21
690.240234
 31
0.0
  0
LINE
  5
B0
330
1F
100
AcDbEntity
  8
LC-001-100-D00-0
 62
     7
370
    50
100
AcDbLine
 10
374.850515
 20
690.240234
 30
0.0
 11
375.350515
 21
690.240234
 31
0.0
  0
ARC
  5
B1
330
1F
100
AcDbEntity
  8
LC-001-100-D00-0
 62
     7
370
    50
100
AcDbCircle
 10
375.350515
 20
689.240229
 30
0.0
 40
1.0
100
AcDbArc
 50
0.0
 51
90.0
  0
ARC
  5
B2
330
1F
100
AcDbEntity
  8
LC-001-100-D00-0
 62
     7
370
    50
100
AcDbCircle
 10
375.350515
 20
689.240229
 30
0.0
 40
1.0
100
AcDbArc
 50
270.0
 51
0.0
  0
LINE
  5
B3
330
1F
100
AcDbEntity
  8
LC-001-100-D00-0
 62
     7
370
    50
100
AcDbLine
 10
371.950515
 20
688.24023
 30
0.0
 11
375.350515
 21
688.24023
 31
0.0
  0
LINE
  5
B4
330
1F
100
AcDbEntity
  8
LC-001-100-D00-0
 62
     7
370
    50
100
AcDbLine
 10
371.950515
 20
709.540233
 30
0.0
 11
371.950515
 21
688.24023
 31
0.0
  0
LINE
  5
B5
330
1F
100
AcDbEntity
  8
LC-001-100-D00-0
 62
     7
370
    50
100
AcDbLine
 10
371.450516
 20
717.240229
 30
0.0
 11
371.450516
 21
709.540233
 31
0.0
  0
LINE
  5
B6
330
1F
100
AcDbEntity
  8
LC-001-100-D00-0
 62
     7
370
    50
100
AcDbLine
 10
371.450516
 20
717.240229
 30
0.0
 11
371.450143
 21
717.240229
 31
0.0
  0
LINE
  5
B7
330
1F
100
AcDbEntity
  8
LC-001-100-D00-0
 62
     7
370
    50
100
AcDbLine
 10
371.450143
 20
717.240229
 30
0.0
 11
358.856752
 21
751.840293
 31
0.0
  0
LINE
  5
B8
330
1F
100
AcDbEntity
  8
LC-001-100-D00-0
 62
     7
370
    50
100
AcDbLine
 10
358.856752
 20
751.840293
 30
0.0
 11
357.150515
 21
751.840293
 31
0.0
  0
LINE
  5
B9
330
1F
100
AcDbEntity
  8
LC-001-100-D00-0
 62
     7
370
    50
100
AcDbLine
 10
357.150515
 20
751.840293
 30
0.0
 11
357.150515
 21
756.528139
 31
0.0
  0
LINE
  5
BA
330
1F
100
AcDbEntity
  8
LC-001-100-D00-0
 62
     7
370
    50
100
AcDbLine
 10
371.450516
 20
709.540233
 30
0.0
 11
371.950515
 21
709.540233
 31
0.0
  0
LINE
  5
BB
330
1F
100
AcDbEntity
  8
LC-001-100-D00-0
 62
     7
370
    50
100
AcDbLine
 10
229.950518
 20
709.540233
 30
0.0
 11
230.450519
 21
709.540233
 31
0.0
  0
LINE
  5
BC
330
1F
100
AcDbEntity
  8
LC-001-100-D00-0
 62
     7
370
    50
100
AcDbLine
 10
370.963087
 20
688.24023
 30
0.0
 11
371.950515
 21
688.24023
 31
0.0
  0
LINE
  5
BD
330
1F
100
AcDbEntity
  8
LC-001-100-D00-0
 62
     7
370
    50
100
AcDbLine
 10
370.963087
 20
688.24023
 30
0.0
 11
370.963087
 21
708.540231
 31
0.0
  0
INSERT
  5
CF
330
1F
100
AcDbEntity
  8
LC-001-100-D00-0
 62
     7
370
    50
100
AcDbBlockReference
  2
POLY2
 10
0.0
 20
0.0
 30
0.0
  0
LINE
  5
D0
330
1F
100
AcDbEntity
  8
LC-001-100-D00-0
 62
     7
370
    50
100
AcDbLine
 10
230.450884
 20
717.240229
 30
0.0
 11
232.793845
 21
717.240229
 31
0.0
  0
LINE
  5
D1
330
1F
100
AcDbEntity
  8
LC-001-100-D00-0
 62
     7
370
    50
100
AcDbLine
 10
232.912362
 20
717.240229
 30
0.0
 11
239.781566
 21
717.240229
 31
0.0
  0
LINE
  5
D2
330
1F
100
AcDbEntity
  8
LC-001-100-D00-0
 62
     7
370
    50
100
AcDbLine
 10
240.010522
 20
717.240229
 30
0.0
 11
250.937857
 21
717.240229
 31
0.0
  0
LINE
  5
D3
330
1F
100
AcDbEntity
  8
LC-001-100-D00-0
 62
     7
370
    50
100
AcDbLine
 10
251.261644
 20
717.240229
 30
0.0
 11
265.502423
 21
717.240229
 31
0.0
  0
LINE
  5
D4
330
1F
100
AcDbEntity
  8
LC-001-100-D00-0
 62
     7
370
    50
100
AcDbLine
 10
265.89898
 20
717.240229
 30
0.0
 11
282.482714
 21
717.240229
 31
0.0
  0
LINE
  5
D5
330
1F
100
AcDbEntity
  8
LC-001-100-D00-0
 62
     7
370
    50
100
AcDbLine
 10
282.925017
 20
717.240229
 30
0.0
 11
300.72156
 21
717.240229
 31
0.0
  0
LINE
  5
D6
330
1F
100
AcDbEntity
  8
LC-001-100-D00-0
 62
     7
370
    50
100
AcDbLine
 10
301.179469
 20
717.240229
 30
0.0
 11
318.976011
 21
717.240229
 31
0.0
  0
LINE
  5
D7
330
1F
100
AcDbEntity
  8
LC-001-100-D00-0
 62
     7
370
    50
100
AcDbLine
 10
319.418315
 20
717.240229
 30
0.0
 11
336.00205
 21
717.240229
 31
0.0
  0
LINE
  5
D8
330
1F
100
AcDbEntity
  8
LC-001-100-D00-0
 62
     7
370
    50
100
AcDbLine
 10
336.398608
 20
717.240229
 30
0.0
 11
350.639386
 21
717.240229
 31
0.0
  0
LINE
  5
D9
330
1F
100
AcDbEntity
  8
LC-001-100-D00-0
 62
     7
370
    50
100
AcDbLine
 10
350.963175
 20
717.240229
 30
0.0
 11
361.890507
 21
717.240229
 31
0.0
  0
LINE
  5
DA
330
1F
100
AcDbEntity
  8
LC-001-100-D00-0
 62
     7
370
    50
100
AcDbLine
 10
362.119461
 20
717.240229
 30
0.0
 11
368.988669
 21
717.240229
 31
0.0
  0
LINE
  5
DB
330
1F
100
AcDbEntity
  8
LC-001-100-D00-0
 62
     7
370
    50
100
AcDbLine
 10
369.107185
 20
717.240229
 30
0.0
 11
371.450143
 21
717.240229
 31
0.0
  0
LINE
  5
DC
330
1F
100
AcDbEntity
  8
LC-001-100-D00-0
 62
     7
370
    50
100
AcDbLine
 10
230.450519
 20
709.540233
 30
0.0
 11
371.450516
 21
709.540233
 31
0.0
  0
LINE
  5
DD
330
1F
100
AcDbEntity
  8
LC-001-100-D00-0
 62
     7
370
    50
100
AcDbLine
 10
246.379212
 20
757.146999
 30
0.0
 11
244.975761
 21
757.146999
 31
0.0
  0
LINE
  5
DE
330
1F
100
AcDbEntity
  8
LC-001-100-D00-0
 62
     7
370
    50
100
AcDbLine
 10
246.379212
 20
757.146999
 30
0.0
 11
246.379212
 21
756.560474
 31
0.0
  0
ELLIPSE
  5
DF
330
1F
100
AcDbEntity
  8
LC-001-100-D00-0
 62
     7
370
    50
100
AcDbEllipse
 10
300.950515
 20
910.936405
 30
0.0
 11
-54.69271162370399
 21
-154.3402810312471
 31
0.0
210
0.0
220
0.0
230
1.0
 40
0.083767
 41
3.150803750597241
 42
3.19173187407308
  0
LINE
  5
E0
330
1F
100
AcDbEntity
  8
LC-001-100-D00-0
 62
     7
370
    50
100
AcDbLine
 10
251.715079
 20
757.146999
 30
0.0
 11
247.180693
 21
757.146999
 31
0.0
  0
LINE
  5
E1
330
1F
100
AcDbEntity
  8
LC-001-100-D00-0
 62
     7
370
    50
100
AcDbLine
 10
251.715079
 20
757.146999
 30
0.0
 11
251.715079
 21
756.560474
 31
0.0
  0
ELLIPSE
  5
E2
330
1F
100
AcDbEntity
  8
LC-001-100-D00-0
 62
     7
370
    50
100
AcDbEllipse
 10
300.950515
 20
910.936405
 30
0.0
 11
-50.10599910011495
 21
-154.1865670813244
 31
0.0
210
0.0
220
0.0
230
1.0
 40
0.165076
 41
3.174721918189727
 42
3.215650041665568
  0
LINE
  5
E3
330
1F
100
AcDbEntity
  8
LC-001-100-D00-0
 62
     7
370
    50
100
AcDbLine
 10
260.406263
 20
757.146999
 30
0.0
 11
253.049955
 21
757.146999
 31
0.0
  0
LINE
  5
E4
330
1F
100
AcDbEntity
  8
LC-001-100-D00-0
 62
     7
370
    50
100
AcDbLine
 10
260.406263
 20
757.146999
 30
0.0
 11
260.406263
 21
756.560474
 31
0.0
  0
ELLIPSE
  5
E5
330
1F
100
AcDbEntity
  8
LC-001-100-D00-0
 62
     7
370
    50
100
AcDbEllipse
 10
300.950515
 20
910.936405
 30
0.0
 11
-42.26835833949232
 21
-154.0735723013278
 31
0.0
210
0.0
220
0.0
230
1.0
 40
0.240393
 41
3.186982284715612
 42
3.227910408191453
  0
LINE
  5
E6
330
1F
100
AcDbEntity
  8
LC-001-100-D00-0
 62
     7
370
    50
100
AcDbLine
 10
271.860473
 20
757.146999
 30
0.0
 11
262.183562
 21
757.146999
 31
0.0
  0
LINE
  5
E7
330
1F
100
AcDbEntity
  8
LC-001-100-D00-0
 62
     7
370
    50
100
AcDbLine
 10
271.860473
 20
757.146999
 30
0.0
 11
271.860473
 21
756.560474
 31
0.0
  0
ELLIPSE
  5
E8
330
1F
100
AcDbEntity
  8
LC-001-100-D00-0
 62
     7
370
    50
100
AcDbEllipse
 10
300.950515
 20
910.936405
 30
0.0
 11
-31.0206984564836
 21
-154.1198904247375
 31
0.0
210
0.0
220
0.0
230
1.0
 40
0.30407
 41
3.182254375888673
 42
3.223182499364513
  0
LINE
  5
E9
330
1F
100
AcDbEntity
  8
LC-001-100-D00-0
 62
     7
370
    50
100
AcDbLine
 10
285.297118
 20
757.146999
 30
0.0
 11
273.852326
 21
757.146999
 31
0.0
  0
LINE
  5
EA
330
1F
100
AcDbEntity
  8
LC-001-100-D00-0
 62
     7
370
    50
100
AcDbLine
 10
285.297118
 20
757.146999
 30
0.0
 11
285.297118
 21
756.560474
 31
0.0
  0
ELLIPSE
  5
EB
330
1F
100
AcDbEntity
  8
LC-001-100-D00-0
 62
     7
370
    50
100
AcDbEllipse
 10
300.950515
 20
910.936405
 30
0.0
 11
-16.56207463459352
 21
-154.3006263193183
 31
0.0
210
0.0
220
0.0
230
1.0
 40
0.348049
 41
3.158469548149914
 42
3.199397671625755
  0
LINE
  5
EC
330
1F
100
AcDbEntity
  8
LC-001-100-D00-0
 62
     7
370
    50
100
AcDbLine
 10
299.800515
 20
757.146999
 30
0.0
 11
287.518747
 21
757.146999
 31
0.0
  0
ELLIPSE
  5
ED
330
1F
100
AcDbEntity
  8
LC-001-100-D00-0
 62
     7
370
    50
100
AcDbEllipse
 10
300.950515
 20
910.936405
 30
0.0
 11
0.0
 21
-154.4082631621074
 31
0.0
210
0.0
220
0.0
230
1.0
 40
0.36397
 41
3.121128591851876
 42
3.162056715327754
  0
LINE
  5
EE
330
1F
100
AcDbEntity
  8
LC-001-100-D00-0
 62
     7
370
    50
100
AcDbLine
 10
314.382285
 20
757.146999
 30
0.0
 11
302.100513
 21
757.146999
 31
0.0
  0
ELLIPSE
  5
EF
330
1F
100
AcDbEntity
  8
LC-001-100-D00-0
 62
     7
370
    50
100
AcDbEllipse
 10
300.950515
 20
910.936405
 30
0.0
 11
16.56207463459397
 21
-154.3006263193178
 31
0.0
210
0.0
220
0.0
230
1.0
 40
0.348049
 41
3.08378763555387
 42
3.124715759029709
  0
LINE
  5
F0
330
1F
100
AcDbEntity
  8
LC-001-100-D00-0
 62
     7
370
    50
100
AcDbLine
 10
316.603914
 20
757.146999
 30
0.0
 11
316.603914
 21
756.560474
 31
0.0
  0
LINE
  5
F1
330
1F
100
AcDbEntity
  8
LC-001-100-D00-0
 62
     7
370
    50
100
AcDbLine
 10
328.048702
 20
757.146999
 30
0.0
 11
316.603914
 21
757.146999
 31
0.0
  0
ELLIPSE
  5
F2
330
1F
100
AcDbEntity
  8
LC-001-100-D00-0
 62
     7
370
    50
100
AcDbEllipse
 10
300.950515
 20
910.936405
 30
0.0
 11
31.02069845648299
 21
-154.1198904247329
 31
0.0
210
0.0
220
0.0
230
1.0
 40
0.30407
 41
3.060002807815119
 42
3.100930931290958
  0
LINE
  5
F3
330
1F
100
AcDbEntity
  8
LC-001-100-D00-0
 62
     7
370
    50
100
AcDbLine
 10
330.040561
 20
757.146999
 30
0.0
 11
330.040561
 21
756.560474
 31
0.0
  0
LINE
  5
F4
330
1F
100
AcDbEntity
  8
LC-001-100-D00-0
 62
     7
370
    50
100
AcDbLine
 10
339.71747
 20
757.146999
 30
0.0
 11
330.040561
 21
757.146999
 31
0.0
  0
ELLIPSE
  5
F5
330
1F
100
AcDbEntity
  8
LC-001-100-D00-0
 62
     7
370
    50
100
AcDbEllipse
 10
300.950515
 20
910.936405
 30
0.0
 11
42.2683583394975
 21
-154.0735723013457
 31
0.0
210
0.0
220
0.0
230
1.0
 40
0.240393
 41
3.055274898988179
 42
3.096203022464017
  0
LINE
  5
F6
330
1F
100
AcDbEntity
  8
LC-001-100-D00-0
 62
     7
370
    50
100
AcDbLine
 10
341.494768
 20
757.146999
 30
0.0
 11
341.494768
 21
756.560474
 31
0.0
  0
LINE
  5
F7
330
1F
100
AcDbEntity
  8
LC-001-100-D00-0
 62
     7
370
    50
100
AcDbLine
 10
348.851074
 20
757.146999
 30
0.0
 11
341.494768
 21
757.146999
 31
0.0
  0
ELLIPSE
  5
F8
330
1F
100
AcDbEntity
  8
LC-001-100-D00-0
 62
     7
370
    50
100
AcDbEllipse
 10
300.950515
 20
910.936405
 30
0.0
 11
50.105999100124
 21
-154.1865670813517
 31
0.0
210
0.0
220
0.0
230
1.0
 40
0.165076
 41
3.067535265514079
 42
3.108463388989916
  0
LINE
  5
F9
330
1F
100
AcDbEntity
  8
LC-001-100-D00-0
 62
     7
370
    50
100
AcDbLine
 10
350.185952
 20
757.146999
 30
0.0
 11
350.185952
 21
756.560474
 31
0.0
  0
LINE
  5
FA
330
1F
100
AcDbEntity
  8
LC-001-100-D00-0
 62
     7
370
    50
100
AcDbLine
 10
354.720333
 20
757.146999
 30
0.0
 11
350.185952
 21
757.146999
 31
0.0
  0
ELLIPSE
  5
FB
330
1F
100
AcDbEntity
  8
LC-001-100-D00-0
 62
     7
370
    50
100
AcDbEllipse
 10
300.950515
 20
910.936405
 30
0.0
 11
54.69271162356021
 21
-154.3402810308407
 31
0.0
210
0.0
220
0.0
230
1.0
 40
0.083767
 41
3.091453433106702
 42
3.132381556582545
  0
LINE
  5
FC
330
1F
100
AcDbEntity
  8
LC-001-100-D00-0
 62
     7
370
    50
100
AcDbLine
 10
355.521822
 20
757.146999
 30
0.0
 11
355.521822
 21
756.560474
 31
0.0
  0
LINE
  5
FD
330
1F
100
AcDbEntity
  8
LC-001-100-D00-0
 62
     7
370
    50
100
AcDbLine
 10
356.925269
 20
757.146999
 30
0.0
 11
355.521822
 21
757.146999
 31
0.0
  0
LINE
  5
FE
330
1F
100
AcDbEntity
  8
LC-001-100-D00-0
 62
     7
370
    50
100
AcDbLine
 10
357.150515
 20
751.840293
 30
0.0
 11
244.750515
 21
751.840293
 31
0.0
  0
LINE
  5
FF
330
1F
100
AcDbEntity
  8
LC-001-100-D00-0
 62
     7
370
    50
100
AcDbLine
 10
323.143678
 20
792.340234
 30
0.0
 11
323.143678
 21
792.240232
 31
0.0
  0
LINE
  5
100
330
1F
100
AcDbEntity
  8
LC-001-100-D00-0
 62
     7
370
    50
100
AcDbLine
 10
323.143678
 20
792.340234
 30
0.0
 11
323.143678
 21
792.340234
 31
0.0
  0
LINE
  5
101
330
1F
100
AcDbEntity
  8
LC-001-100-D00-0
 62
     7
370
    50
100
AcDbLine
 10
330.404267
 20
792.340234
 30
0.0
 11
330.404267
 21
792.240232
 31
0.0
  0
LINE
  5
102
330
1F
100
AcDbEntity
  8
LC-001-100-D00-0
 62
     7
370
    50
100
AcDbLine
 10
330.379598
 20
792.340234
 30
0.0
 11
330.404267
 21
792.340234
 31
0.0
  0
LINE
  5
103
330
1F
100
AcDbEntity
  8
LC-001-100-D00-0
 62
     7
370
    50
100
AcDbLine
 10
314.026028
 20
792.340234
 30
0.0
 11
314.026028
 21
792.240232
 31
0.0
  0
LINE
  5
104
330
1F
100
AcDbEntity
  8
LC-001-100-D00-0
 62
     7
370
    50
100
AcDbLine
 10
314.156458
 20
792.340234
 30
0.0
 11
314.026028
 21
792.340234
 31
0.0
  0
LINE
  5
105
330
1F
100
AcDbEntity
  8
LC-001-100-D00-0
 62
     7
370
    50
100
AcDbLine
 10
324.056687
 20
792.340234
 30
0.0
 11
324.056687
 21
792.240232
 31
0.0
  0
LINE
  5
106
330
1F
100
AcDbEntity
  8
LC-001-100-D00-0
 62
     7
370
    50
100
AcDbLine
 10
323.969733
 20
792.340234
 30
0.0
 11
324.056687
 21
792.340234
 31
0.0
  0
LINE
  5
107
330
1F
100
AcDbEntity
  8
LC-001-100-D00-0
 62
     7
370
    50
100
AcDbLine
 10
323.056726
 20
792.340234
 30
0.0
 11
323.056726
 21
792.240232
 31
0.0
  0
LINE
  5
108
330
1F
100
AcDbEntity
  8
LC-001-100-D00-0
 62
     7
370
    50
100
AcDbLine
 10
323.056726
 20
792.340234
 30
0.0
 11
323.143678
 21
792.340234
 31
0.0
  0
LINE
  5
109
330
1F
100
AcDbEntity
  8
LC-001-100-D00-0
 62
     7
370
    50
100
AcDbLine
 10
322.665436
 20
792.340234
 30
0.0
 11
322.665436
 21
792.240232
 31
0.0
  0
LINE
  5
10A
330
1F
100
AcDbEntity
  8
LC-001-100-D00-0
 62
     7
370
    50
100
AcDbLine
 10
322.578484
 20
792.340234
 30
0.0
 11
322.665436
 21
792.340234
 31
0.0
  0
LINE
  5
10B
330
1F
100
AcDbEntity
  8
LC-001-100-D00-0
 62
     7
370
    50
100
AcDbLine
 10
324.447977
 20
792.340234
 30
0.0
 11
324.447977
 21
792.240232
 31
0.0
  0
LINE
  5
10C
330
1F
100
AcDbEntity
  8
LC-001-100-D00-0
 62
     7
370
    50
100
AcDbLine
 10
324.447977
 20
792.340234
 30
0.0
 11
324.534929
 21
792.340234
 31
0.0
  0
LINE
  5
10D
330
1F
100
AcDbEntity
  8
LC-001-100-D00-0
 62
     7
370
    50
100
AcDbLine
 10
314.026028
 20
792.340234
 30
0.0
 11
313.578833
 21
792.340234
 31
0.0
  0
LINE
  5
10E
330
1F
100
AcDbEntity
  8
LC-001-100-D00-0
 62
     7
370
    50
100
AcDbLine
 10
322.665436
 20
792.340234
 30
0.0
 11
323.056726
 21
792.340234
 31
0.0
  0
LINE
  5
10F
330
1F
100
AcDbEntity
  8
LC-001-100-D00-0
 62
     7
370
    50
100
AcDbLine
 10
324.056687
 20
792.340234
 30
0.0
 11
324.447977
 21
792.340234
 31
0.0
  0
LINE
  5
110
330
1F
100
AcDbEntity
  8
LC-001-100-D00-0
 62
     7
370
    50
100
AcDbLine
 10
341.494768
 20
756.560474
 30
0.0
 11
336.121032
 21
777.440235
 31
0.0
  0
LINE
  5
111
330
1F
100
AcDbEntity
  8
LC-001-100-D00-0
 62
     7
370
    50
100
AcDbLine
 10
360.024264
 20
717.240229
 30
0.0
 11
361.144604
 21
718.145594
 31
0.0
  0
LINE
  5
112
330
1F
100
AcDbEntity
  8
LC-001-100-D00-0
 62
     7
370
    50
100
AcDbLine
 10
351.614453
 20
717.240229
 30
0.0
 11
342.709581
 21
751.840293
 31
0.0
  0
LINE
  5
113
330
1F
100
AcDbEntity
  8
LC-001-100-D00-0
 62
     7
370
    50
100
AcDbLine
 10
241.876766
 20
717.240229
 30
0.0
 11
240.756422
 21
718.145594
 31
0.0
  0
LINE
  5
114
330
1F
100
AcDbEntity
  8
LC-001-100-D00-0
 62
     7
370
    50
100
AcDbLine
 10
260.406263
 20
756.560474
 30
0.0
 11
265.779995
 21
777.440235
 31
0.0
  0
LINE
  5
115
330
1F
100
AcDbEntity
  8
LC-001-100-D00-0
 62
     7
370
    50
100
AcDbLine
 10
250.286579
 20
717.240229
 30
0.0
 11
259.191446
 21
751.840293
 31
0.0
  0
LINE
  5
116
330
1F
100
AcDbEntity
  8
LC-001-100-D00-0
 62
     7
370
    50
100
AcDbLine
 10
227.050513
 20
700.540229
 30
0.0
 11
224.93244
 21
700.540229
 31
0.0
  0
LINE
  5
117
330
1F
100
AcDbEntity
  8
LC-001-100-D00-0
 62
     7
370
    50
100
AcDbLine
 10
224.93244
 20
700.540229
 30
0.0
 11
224.93244
 21
717.240229
 31
0.0
  0
LINE
  5
118
330
1F
100
AcDbEntity
  8
LC-001-100-D00-0
 62
     7
370
    50
100
AcDbLine
 10
246.379212
 20
756.560474
 30
0.0
 11
253.719866
 21
777.440235
 31
0.0
  0
LINE
  5
119
330
1F
100
AcDbEntity
  8
LC-001-100-D00-0
 62
     7
370
    50
100
AcDbLine
 10
232.555464
 20
717.240229
 30
0.0
 11
244.719744
 21
751.840293
 31
0.0
  0
LINE
  5
11A
330
1F
100
AcDbEntity
  8
LC-001-100-D00-0
 62
     7
370
    50
100
AcDbLine
 10
355.521822
 20
756.560474
 30
0.0
 11
348.181162
 21
777.440235
 31
0.0
  0
LINE
  5
11B
330
1F
100
AcDbEntity
  8
LC-001-100-D00-0
 62
     7
370
    50
100
AcDbLine
 10
376.968594
 20
700.540229
 30
0.0
 11
376.968594
 21
717.240229
 31
0.0
  0
LINE
  5
11C
330
1F
100
AcDbEntity
  8
LC-001-100-D00-0
 62
     7
370
    50
100
AcDbLine
 10
376.968594
 20
700.540229
 30
0.0
 11
374.850515
 21
700.540229
 31
0.0
  0
LINE
  5
11D
330
1F
100
AcDbEntity
  8
LC-001-100-D00-0
 62
     7
370
    50
100
AcDbLine
 10
369.345568
 20
717.240229
 30
0.0
 11
357.181286
 21
751.840293
 31
0.0
  0
LINE
  5
11E
330
1F
100
AcDbEntity
  8
LC-001-100-D00-0
 62
     7
370
    50
100
AcDbLine
 10
354.926538
 20
756.560474
 30
0.0
 11
347.585878
 21
777.440235
 31
0.0
  0
LINE
  5
11F
330
1F
100
AcDbEntity
  8
LC-001-100-D00-0
 62
     7
370
    50
100
AcDbLine
 10
246.974491
 20
756.560474
 30
0.0
 11
254.315153
 21
777.440235
 31
0.0
  0
INSERT
  5
131
330
1F
100
AcDbEntity
  8
LC-001-100-D00-0
 62
     7
370
    50
100
AcDbBlockReference
  2
POLY3
 10
0.0
 20
0.0
 30
0.0
  0
INSERT
  5
143
330
1F
100
AcDbEntity
  8
LC-001-100-D00-0
 62
     7
370
    50
100
AcDbBlockReference
  2
POLY4
 10
0.0
 20
0.0
 30
0.0
  0
LINE
  5
144
330
1F
100
AcDbEntity
  8
LC-001-100-D00-0
 62
     7
370
    50
100
AcDbLine
 10
287.150532
 20
708.540231
 30
0.0
 11
287.150532
 21
700.540229
 31
0.0
  0
LINE
  5
145
330
1F
100
AcDbEntity
  8
LC-001-100-D00-0
 62
     7
370
    50
100
AcDbLine
 10
231.304571
 20
700.540229
 30
0.0
 11
287.150532
 21
700.540229
 31
0.0
  0
LINE
  5
146
330
1F
100
AcDbEntity
  8
LC-001-100-D00-0
 62
     7
370
    50
100
AcDbLine
 10
231.304571
 20
700.540229
 30
0.0
 11
231.304571
 21
708.540231
 31
0.0
  0
INSERT
  5
158
330
1F
100
AcDbEntity
  8
LC-001-100-D00-0
 62
     7
370
    50
100
AcDbBlockReference
  2
POLY5
 10
0.0
 20
0.0
 30
0.0
  0
INSERT
  5
16A
330
1F
100
AcDbEntity
  8
LC-001-100-D00-0
 62
     7
370
    50
100
AcDbBlockReference
  2
POLY6
 10
0.0
 20
0.0
 30
0.0
  0
LINE
  5
16B
330
1F
100
AcDbEntity
  8
LC-001-100-D00-0
 62
     7
370
    50
100
AcDbLine
 10
370.59648
 20
708.540231
 30
0.0
 11
370.59648
 21
700.540229
 31
0.0
  0
LINE
  5
16C
330
1F
100
AcDbEntity
  8
LC-001-100-D00-0
 62
     7
370
    50
100
AcDbLine
 10
314.750612
 20
700.540229
 30
0.0
 11
370.59648
 21
700.540229
 31
0.0
  0
LINE
  5
16D
330
1F
100
AcDbEntity
  8
LC-001-100-D00-0
 62
     7
370
    50
100
AcDbLine
 10
314.750612
 20
700.540229
 30
0.0
 11
314.750612
 21
708.540231
 31
0.0
  0
LINE
  5
16E
330
1F
100
AcDbEntity
  8
LC-001-100-D00-0
 62
     7
370
    50
100
AcDbLine
 10
370.59648
 20
700.540229
 30
0.0
 11
370.963087
 21
700.540229
 31
0.0
  0
LINE
  5
16F
330
1F
100
AcDbEntity
  8
LC-001-100-D00-0
 62
     7
370
    50
100
AcDbLine
 10
230.937958
 20
700.540229
 30
0.0
 11
231.304571
 21
700.540229
 31
0.0
  0
LINE
  5
170
330
1F
100
AcDbEntity
  8
LC-001-100-D00-0
 62
     7
370
    50
100
AcDbLine
 10
368.988669
 20
717.240229
 30
0.0
 11
369.107185
 21
717.240229
 31
0.0
  0
LINE
  5
171
330
1F
100
AcDbEntity
  8
LC-001-100-D00-0
 62
     7
370
    50
100
AcDbLine
 10
368.750285
 20
717.240229
 30
0.0
 11
356.586002
 21
751.840293
 31
0.0
  0
LINE
  5
172
330
1F
100
AcDbEntity
  8
LC-001-100-D00-0
 62
     7
370
    50
100
AcDbLine
 10
232.793845
 20
717.240229
 30
0.0
 11
232.912362
 21
717.240229
 31
0.0
  0
LINE
  5
173
330
1F
100
AcDbEntity
  8
LC-001-100-D00-0
 62
     7
370
    50
100
AcDbLine
 10
233.150743
 20
717.240229
 30
0.0
 11
245.31503
 21
751.840293
 31
0.0
  0
LINE
  5
174
330
1F
100
AcDbEntity
  8
LC-001-100-D00-0
 62
     7
370
    50
100
AcDbLine
 10
350.185952
 20
756.560474
 30
0.0
 11
343.604496
 21
777.440235
 31
0.0
  0
LINE
  5
175
330
1F
100
AcDbEntity
  8
LC-001-100-D00-0
 62
     7
370
    50
100
AcDbLine
 10
362.579984
 20
717.240229
 30
0.0
 11
351.673787
 21
751.840293
 31
0.0
  0
LINE
  5
176
330
1F
100
AcDbEntity
  8
LC-001-100-D00-0
 62
     7
370
    50
100
AcDbLine
 10
251.715079
 20
756.560474
 30
0.0
 11
258.296535
 21
777.440235
 31
0.0
  0
LINE
  5
177
330
1F
100
AcDbEntity
  8
LC-001-100-D00-0
 62
     7
370
    50
100
AcDbLine
 10
239.321046
 20
717.240229
 30
0.0
 11
250.227243
 21
751.840293
 31
0.0
  0
LINE
  5
178
330
1F
100
AcDbEntity
  8
LC-001-100-D00-0
 62
     7
370
    50
100
AcDbLine
 10
349.035952
 20
756.560474
 30
0.0
 11
342.454496
 21
777.440235
 31
0.0
  0
LINE
  5
179
330
1F
100
AcDbEntity
  8
LC-001-100-D00-0
 62
     7
370
    50
100
AcDbLine
 10
252.865076
 20
756.560474
 30
0.0
 11
259.446532
 21
777.440235
 31
0.0
  0
LINE
  5
17A
330
1F
100
AcDbEntity
  8
LC-001-100-D00-0
 62
     7
370
    50
100
AcDbLine
 10
361.890507
 20
717.240229
 30
0.0
 11
362.119461
 21
717.240229
 31
0.0
  0
LINE
  5
17B
330
1F
100
AcDbEntity
  8
LC-001-100-D00-0
 62
     7
370
    50
100
AcDbLine
 10
361.429984
 20
717.240229
 30
0.0
 11
350.523787
 21
751.840293
 31
0.0
  0
LINE
  5
17C
330
1F
100
AcDbEntity
  8
LC-001-100-D00-0
 62
     7
370
    50
100
AcDbLine
 10
239.781566
 20
717.240229
 30
0.0
 11
240.010522
 21
717.240229
 31
0.0
  0
LINE
  5
17D
330
1F
100
AcDbEntity
  8
LC-001-100-D00-0
 62
     7
370
    50
100
AcDbLine
 10
240.471043
 20
717.240229
 30
0.0
 11
251.37724
 21
751.840293
 31
0.0
  0
LINE
  5
17E
330
1F
100
AcDbEntity
  8
LC-001-100-D00-0
 62
     7
370
    50
100
AcDbLine
 10
339.868423
 20
756.560474
 30
0.0
 11
334.494686
 21
777.440235
 31
0.0
  0
LINE
  5
17F
330
1F
100
AcDbEntity
  8
LC-001-100-D00-0
 62
     7
370
    50
100
AcDbLine
 10
262.032606
 20
756.560474
 30
0.0
 11
267.406345
 21
777.440235
 31
0.0
  0
LINE
  5
180
330
1F
100
AcDbEntity
  8
LC-001-100-D00-0
 62
     7
370
    50
100
AcDbLine
 10
330.040561
 20
756.560474
 30
0.0
 11
326.240756
 21
777.440235
 31
0.0
  0
LINE
  5
181
330
1F
100
AcDbEntity
  8
LC-001-100-D00-0
 62
     7
370
    50
100
AcDbLine
 10
344.739176
 20
719.064548
 30
0.0
 11
338.774479
 21
751.840293
 31
0.0
  0
LINE
  5
182
330
1F
100
AcDbEntity
  8
LC-001-100-D00-0
 62
     7
370
    50
100
AcDbLine
 10
337.808738
 20
757.146999
 30
0.0
 11
334.115671
 21
777.440235
 31
0.0
  0
LINE
  5
183
330
1F
100
AcDbEntity
  8
LC-001-100-D00-0
 62
     7
370
    50
100
AcDbLine
 10
343.142893
 20
717.240229
 30
0.0
 11
344.739176
 21
719.064548
 31
0.0
  0
LINE
  5
184
330
1F
100
AcDbEntity
  8
LC-001-100-D00-0
 62
     7
370
    50
100
AcDbLine
 10
337.196258
 20
717.240229
 30
0.0
 11
330.899563
 21
751.840293
 31
0.0
  0
LINE
  5
185
330
1F
100
AcDbEntity
  8
LC-001-100-D00-0
 62
     7
370
    50
100
AcDbLine
 10
258.758135
 20
717.240229
 30
0.0
 11
257.161856
 21
719.064548
 31
0.0
  0
LINE
  5
186
330
1F
100
AcDbEntity
  8
LC-001-100-D00-0
 62
     7
370
    50
100
AcDbLine
 10
257.161856
 20
719.064548
 30
0.0
 11
263.126552
 21
751.840293
 31
0.0
  0
LINE
  5
187
330
1F
100
AcDbEntity
  8
LC-001-100-D00-0
 62
     7
370
    50
100
AcDbLine
 10
264.092289
 20
757.146999
 30
0.0
 11
267.785356
 21
777.440235
 31
0.0
  0
LINE
  5
188
330
1F
100
AcDbEntity
  8
LC-001-100-D00-0
 62
     7
370
    50
100
AcDbLine
 10
271.860473
 20
756.560474
 30
0.0
 11
275.660277
 21
777.440235
 31
0.0
  0
LINE
  5
189
330
1F
100
AcDbEntity
  8
LC-001-100-D00-0
 62
     7
370
    50
100
AcDbLine
 10
264.704771
 20
717.240229
 30
0.0
 11
271.001466
 21
751.840293
 31
0.0
  0
LINE
  5
18A
330
1F
100
AcDbEntity
  8
LC-001-100-D00-0
 62
     7
370
    50
100
AcDbLine
 10
328.048702
 20
756.560474
 30
0.0
 11
324.248897
 21
777.440235
 31
0.0
  0
LINE
  5
18B
330
1F
100
AcDbEntity
  8
LC-001-100-D00-0
 62
     7
370
    50
100
AcDbLine
 10
273.852326
 20
756.560474
 30
0.0
 11
277.65213
 21
777.440235
 31
0.0
  0
LINE
  5
18C
330
1F
100
AcDbEntity
  8
LC-001-100-D00-0
 62
     7
370
    50
100
AcDbLine
 10
350.639386
 20
717.240229
 30
0.0
 11
350.963175
 21
717.240229
 31
0.0
  0
LINE
  5
18D
330
1F
100
AcDbEntity
  8
LC-001-100-D00-0
 62
     7
370
    50
100
AcDbLine
 10
349.988107
 20
717.240229
 30
0.0
 11
341.083234
 21
751.840293
 31
0.0
  0
LINE
  5
18E
330
1F
100
AcDbEntity
  8
LC-001-100-D00-0
 62
     7
370
    50
100
AcDbLine
 10
250.937857
 20
717.240229
 30
0.0
 11
251.261644
 21
717.240229
 31
0.0
  0
LINE
  5
18F
330
1F
100
AcDbEntity
  8
LC-001-100-D00-0
 62
     7
370
    50
100
AcDbLine
 10
251.912922
 20
717.240229
 30
0.0
 11
260.817796
 21
751.840293
 31
0.0
  0
LINE
  5
190
330
1F
100
AcDbEntity
  8
LC-001-100-D00-0
 62
     7
370
    50
100
AcDbLine
 10
316.603914
 20
756.560474
 30
0.0
 11
314.636991
 21
777.440235
 31
0.0
  0
LINE
  5
191
330
1F
100
AcDbEntity
  8
LC-001-100-D00-0
 62
     7
370
    50
100
AcDbLine
 10
324.212479
 20
719.064548
 30
0.0
 11
321.124924
 21
751.840293
 31
0.0
  0
LINE
  5
192
330
1F
100
AcDbEntity
  8
LC-001-100-D00-0
 62
     7
370
    50
100
AcDbLine
 10
320.625018
 20
757.146999
 30
0.0
 11
318.713348
 21
777.440235
 31
0.0
  0
LINE
  5
193
330
1F
100
AcDbEntity
  8
LC-001-100-D00-0
 62
     7
370
    50
100
AcDbLine
 10
323.386181
 20
717.240229
 30
0.0
 11
324.212479
 21
719.064548
 31
0.0
  0
LINE
  5
194
330
1F
100
AcDbEntity
  8
LC-001-100-D00-0
 62
     7
370
    50
100
AcDbLine
 10
320.307976
 20
717.240229
 30
0.0
 11
317.048568
 21
751.840293
 31
0.0
  0
LINE
  5
195
330
1F
100
AcDbEntity
  8
LC-001-100-D00-0
 62
     7
370
    50
100
AcDbLine
 10
278.514847
 20
717.240229
 30
0.0
 11
277.688556
 21
719.064548
 31
0.0
  0
LINE
  5
196
330
1F
100
AcDbEntity
  8
LC-001-100-D00-0
 62
     7
370
    50
100
AcDbLine
 10
277.688556
 20
719.064548
 30
0.0
 11
280.776106
 21
751.840293
 31
0.0
  0
LINE
  5
197
330
1F
100
AcDbEntity
  8
LC-001-100-D00-0
 62
     7
370
    50
100
AcDbLine
 10
281.27601
 20
757.146999
 30
0.0
 11
283.18768
 21
777.440235
 31
0.0
  0
LINE
  5
198
330
1F
100
AcDbEntity
  8
LC-001-100-D00-0
 62
     7
370
    50
100
AcDbLine
 10
285.297118
 20
756.560474
 30
0.0
 11
287.264042
 21
777.440235
 31
0.0
  0
LINE
  5
199
330
1F
100
AcDbEntity
  8
LC-001-100-D00-0
 62
     7
370
    50
100
AcDbLine
 10
281.593055
 20
717.240229
 30
0.0
 11
284.85246
 21
751.840293
 31
0.0
  0
LINE
  5
19A
330
1F
100
AcDbEntity
  8
LC-001-100-D00-0
 62
     7
370
    50
100
AcDbLine
 10
314.382285
 20
756.560474
 30
0.0
 11
312.415362
 21
777.440235
 31
0.0
  0
LINE
  5
19B
330
1F
100
AcDbEntity
  8
LC-001-100-D00-0
 62
     7
370
    50
100
AcDbLine
 10
287.518747
 20
756.560474
 30
0.0
 11
289.485671
 21
777.440235
 31
0.0
  0
LINE
  5
19C
330
1F
100
AcDbEntity
  8
LC-001-100-D00-0
 62
     7
370
    50
100
AcDbLine
 10
299.800515
 20
756.560474
 30
0.0
 11
299.800515
 21
777.440235
 31
0.0
  0
LINE
  5
19D
330
1F
100
AcDbEntity
  8
LC-001-100-D00-0
 62
     7
370
    50
100
AcDbLine
 10
302.100513
 20
756.560474
 30
0.0
 11
302.100513
 21
777.440235
 31
0.0
  0
LINE
  5
19E
330
1F
100
AcDbEntity
  8
LC-001-100-D00-0
 62
     7
370
    50
100
AcDbLine
 10
336.00205
 20
717.240229
 30
0.0
 11
336.398608
 21
717.240229
 31
0.0
  0
LINE
  5
19F
330
1F
100
AcDbEntity
  8
LC-001-100-D00-0
 62
     7
370
    50
100
AcDbLine
 10
335.2044
 20
717.240229
 30
0.0
 11
328.907704
 21
751.840293
 31
0.0
  0
LINE
  5
1A0
330
1F
100
AcDbEntity
  8
LC-001-100-D00-0
 62
     7
370
    50
100
AcDbLine
 10
265.502423
 20
717.240229
 30
0.0
 11
265.89898
 21
717.240229
 31
0.0
  0
LINE
  5
1A1
330
1F
100
AcDbEntity
  8
LC-001-100-D00-0
 62
     7
370
    50
100
AcDbLine
 10
266.696632
 20
717.240229
 30
0.0
 11
272.993326
 21
751.840293
 31
0.0
  0
LINE
  5
1A2
330
1F
100
AcDbEntity
  8
LC-001-100-D00-0
 62
     7
370
    50
100
AcDbLine
 10
318.976011
 20
717.240229
 30
0.0
 11
319.418315
 21
717.240229
 31
0.0
  0
LINE
  5
1A3
330
1F
100
AcDbEntity
  8
LC-001-100-D00-0
 62
     7
370
    50
100
AcDbLine
 10
318.086349
 20
717.240229
 30
0.0
 11
314.826936
 21
751.840293
 31
0.0
  0
LINE
  5
1A4
330
1F
100
AcDbEntity
  8
LC-001-100-D00-0
 62
     7
370
    50
100
AcDbLine
 10
282.482714
 20
717.240229
 30
0.0
 11
282.925017
 21
717.240229
 31
0.0
  0
LINE
  5
1A5
330
1F
100
AcDbEntity
  8
LC-001-100-D00-0
 62
     7
370
    50
100
AcDbLine
 10
283.814684
 20
717.240229
 30
0.0
 11
287.074089
 21
751.840293
 31
0.0
  0
LINE
  5
1A6
330
1F
100
AcDbEntity
  8
LC-001-100-D00-0
 62
     7
370
    50
100
AcDbLine
 10
300.72156
 20
717.240229
 30
0.0
 11
301.179469
 21
717.240229
 31
0.0
  0
LINE
  5
1A7
330
1F
100
AcDbEntity
  8
LC-001-100-D00-0
 62
     7
370
    50
100
AcDbLine
 10
299.800515
 20
717.240229
 30
0.0
 11
299.800515
 21
751.840293
 31
0.0
  0
LINE
  5
1A8
330
1F
100
AcDbEntity
  8
LC-001-100-D00-0
 62
     7
370
    50
100
AcDbLine
 10
302.100513
 20
717.240229
 30
0.0
 11
302.100513
 21
751.840293
 31
0.0
  0
INSERT
  5
1BA
330
1F
100
AcDbEntity
  8
LC-001-100-D00-0
 62
     7
370
    50
100
AcDbBlockReference
  2
POLY7
 10
0.0
 20
0.0
 30
0.0
  0
LINE
  5
1BB
330
1F
100
AcDbEntity
  8
LC-001-100-D00-0
 62
     7
370
    50
100
AcDbLine
 10
312.750612
 20
708.540231
 30
0.0
 11
312.750612
 21
688.24023
 31
0.0
  0
LINE
  5
1BC
330
1F
100
AcDbEntity
  8
LC-001-100-D00-0
 62
     7
370
    50
100
AcDbLine
 10
289.150532
 20
688.24023
 30
0.0
 11
312.750612
 21
688.24023
 31
0.0
  0
LINE
  5
1BD
330
1F
100
AcDbEntity
  8
LC-001-100-D00-0
 62
     7
370
    50
100
AcDbLine
 10
289.150532
 20
688.24023
 30
0.0
 11
289.150532
 21
708.540231
 31
0.0
  0
INSERT
  5
1CF
330
1F
100
AcDbEntity
  8
LC-001-100-D00-0
 62
     7
370
    50
100
AcDbBlockReference
  2
POLY8
 10
0.0
 20
0.0
 30
0.0
  0
LINE
  5
1D0
330
1F
100
AcDbEntity
  8
LC-001-100-D00-0
 62
     7
370
    50
100
AcDbLine
 10
380.950514
 20
631.240226
 30
0.0
 11
380.950514
 21
629.240229
 31
0.0
  0
ARC
  5
1D1
330
1F
100
AcDbEntity
  8
LC-001-100-D00-0
 62
     7
370
    50
100
AcDbCircle
 10
372.950515
 20
629.240229
 30
0.0
 40
8.0
100
AcDbArc
 50
270.0
 51
0.0
  0
ARC
  5
1D2
330
1F
100
AcDbEntity
  8
LC-001-100-D00-0
 62
     7
370
    50
100
AcDbCircle
 10
228.950515
 20
629.240229
 30
0.0
 40
8.000000000000028
100
AcDbArc
 50
180.0
 51
270.0
  0
LINE
  5
1D3
330
1F
100
AcDbEntity
  8
LC-001-100-D00-0
 62
     7
370
    50
100
AcDbLine
 10
378.450515
 20
640.240229
 30
0.0
 11
378.450515
 21
631.240226
 31
0.0
  0
LINE
  5
1D4
330
1F
100
AcDbEntity
  8
LC-001-100-D00-0
 62
     7
370
    50
100
AcDbLine
 10
223.450519
 20
631.240226
 30
0.0
 11
223.450519
 21
640.240229
 31
0.0
  0
LINE
  5
1D5
330
1F
100
AcDbEntity
  8
LC-001-100-D00-0
 62
     7
370
    50
100
AcDbLine
 10
376.250515
 20
638.740226
 30
0.0
 11
376.250515
 21
640.240229
 31
0.0
  0
LINE
  5
1D6
330
1F
100
AcDbEntity
  8
LC-001-100-D00-0
 62
     7
370
    50
100
AcDbLine
 10
225.650512
 20
640.240229
 30
0.0
 11
225.650512
 21
638.740226
 31
0.0
  0
LINE
  5
1D7
330
1F
100
AcDbEntity
  8
LC-001-100-D00-0
 62
     7
370
    50
100
AcDbLine
 10
376.250515
 20
640.240229
 30
0.0
 11
367.450515
 21
640.240229
 31
0.0
  0
LINE
  5
1D8
330
1F
100
AcDbEntity
  8
LC-001-100-D00-0
 62
     7
370
    50
100
AcDbLine
 10
234.450512
 20
640.240229
 30
0.0
 11
232.862599
 21
640.240229
 31
0.0
  0
LINE
  5
1D9
330
1F
100
AcDbEntity
  8
LC-001-100-D00-0
 62
     7
370
    50
100
AcDbLine
 10
226.913884
 20
640.240229
 30
0.0
 11
225.650512
 21
640.240229
 31
0.0
  0
LINE
  5
1DA
330
1F
100
AcDbEntity
  8
LC-001-100-D00-0
 62
     7
370
    50
100
AcDbLine
 10
375.950515
 20
626.240231
 30
0.0
 11
375.950515
 21
638.740226
 31
0.0
  0
LINE
  5
1DB
330
1F
100
AcDbEntity
  8
LC-001-100-D00-0
 62
     7
370
    50
100
AcDbLine
 10
225.950517
 20
638.740226
 30
0.0
 11
225.950517
 21
626.240231
 31
0.0
  0
LINE
  5
1DC
330
1F
100
AcDbEntity
  8
LC-001-100-D00-0
 62
     7
370
    50
100
AcDbLine
 10
375.950515
 20
638.740226
 30
0.0
 11
367.450515
 21
638.740226
 31
0.0
  0
LINE
  5
1DD
330
1F
100
AcDbEntity
  8
LC-001-100-D00-0
 62
     7
370
    50
100
AcDbLine
 10
234.450512
 20
638.740226
 30
0.0
 11
232.862599
 21
638.740226
 31
0.0
  0
LINE
  5
1DE
330
1F
100
AcDbEntity
  8
LC-001-100-D00-0
 62
     7
370
    50
100
AcDbLine
 10
226.913884
 20
638.740226
 30
0.0
 11
225.950517
 21
638.740226
 31
0.0
  0
ARC
  5
1DF
330
1F
100
AcDbEntity
  8
LC-001-100-D00-0
 62
     7
370
    50
100
AcDbCircle
 10
373.450515
 20
626.240229
 30
0.0
 40
2.500000000000114
100
AcDbArc
 50
270.0
 51
0.0
  0
ARC
  5
1E0
330
1F
100
AcDbEntity
  8
LC-001-100-D00-0
 62
     7
370
    50
100
AcDbCircle
 10
228.450515
 20
626.240229
 30
0.0
 40
2.500000000000114
100
AcDbArc
 50
180.0
 51
270.0
  0
LINE
  5
1E1
330
1F
100
AcDbEntity
  8
LC-001-100-D00-0
 62
     7
370
    50
100
AcDbLine
 10
345.950515
 20
621.240228
 30
0.0
 11
345.950515
 21
623.740229
 31
0.0
  0
LINE
  5
1E2
330
1F
100
AcDbEntity
  8
LC-001-100-D00-0
 62
     7
370
    50
100
AcDbLine
 10
255.950518
 20
623.740229
 30
0.0
 11
255.950518
 21
621.240228
 31
0.0
  0
LINE
  5
1E3
330
1F
100
AcDbEntity
  8
LC-001-100-D00-0
 62
     7
370
    50
100
AcDbLine
 10
368.450515
 20
621.240228
 30
0.0
 11
368.450515
 21
618.74023
 31
0.0
  0
LINE
  5
1E4
330
1F
100
AcDbEntity
  8
LC-001-100-D00-0
 62
     7
370
    50
100
AcDbLine
 10
358.450515
 20
618.74023
 30
0.0
 11
368.450515
 21
618.74023
 31
0.0
  0
LINE
  5
1E5
330
1F
100
AcDbEntity
  8
LC-001-100-D00-0
 62
     7
370
    50
100
AcDbLine
 10
358.450515
 20
618.74023
 30
0.0
 11
358.450515
 21
621.240228
 31
0.0
  0
LINE
  5
1E6
330
1F
100
AcDbEntity
  8
LC-001-100-D00-0
 62
     7
370
    50
100
AcDbLine
 10
358.450515
 20
621.240228
 30
0.0
 11
345.950515
 21
621.240228
 31
0.0
  0
LINE
  5
1E7
330
1F
100
AcDbEntity
  8
LC-001-100-D00-0
 62
     7
370
    50
100
AcDbLine
 10
372.950515
 20
621.240228
 30
0.0
 11
368.450515
 21
621.240228
 31
0.0
  0
LINE
  5
1E8
330
1F
100
AcDbEntity
  8
LC-001-100-D00-0
 62
     7
370
    50
100
AcDbLine
 10
345.950515
 20
623.740229
 30
0.0
 11
373.450516
 21
623.740229
 31
0.0
  0
LINE
  5
1E9
330
1F
100
AcDbEntity
  8
LC-001-100-D00-0
 62
     7
370
    50
100
AcDbLine
 10
375.950515
 20
638.740226
 30
0.0
 11
376.250515
 21
638.740226
 31
0.0
  0
LINE
  5
1EA
330
1F
100
AcDbEntity
  8
LC-001-100-D00-0
 62
     7
370
    50
100
AcDbLine
 10
376.250515
 20
640.240229
 30
0.0
 11
378.450515
 21
640.240229
 31
0.0
  0
LINE
  5
1EB
330
1F
100
AcDbEntity
  8
LC-001-100-D00-0
 62
     7
370
    50
100
AcDbLine
 10
378.450515
 20
631.240226
 30
0.0
 11
380.950514
 21
631.240226
 31
0.0
  0
LINE
  5
1EC
330
1F
100
AcDbEntity
  8
LC-001-100-D00-0
 62
     7
370
    50
100
AcDbLine
 10
243.450515
 20
621.240228
 30
0.0
 11
243.450515
 21
618.74023
 31
0.0
  0
LINE
  5
1EE
330
1F
100
AcDbEntity
  8
LC-002-102-D00-0
 62
     7
370
    25
100
AcDbLine
 10
233.450517
 20
618.74023
 30
0.0
 11
243.450515
 21
618.74023
 31
0.0
  0
LINE
  5
1EF
330
1F
100
AcDbEntity
  8
LC-001-100-D00-0
 62
     7
370
    50
100
AcDbLine
 10
233.450517
 20
618.74023
 30
0.0
 11
233.450517
 21
621.240228
 31
0.0
  0
LINE
  5
1F0
330
1F
100
AcDbEntity
  8
LC-001-100-D00-0
 62
     7
370
    50
100
AcDbLine
 10
233.450517
 20
621.240228
 30
0.0
 11
228.950516
 21
621.240228
 31
0.0
  0
LINE
  5
1F1
330
1F
100
AcDbEntity
  8
LC-001-100-D00-0
 62
     7
370
    50
100
AcDbLine
 10
255.950518
 20
621.240228
 30
0.0
 11
243.450515
 21
621.240228
 31
0.0
  0
LINE
  5
1F2
330
1F
100
AcDbEntity
  8
LC-001-100-D00-0
 62
     7
370
    50
100
AcDbLine
 10
228.450515
 20
623.740229
 30
0.0
 11
255.950518
 21
623.740229
 31
0.0
  0
LINE
  5
1F3
330
1F
100
AcDbEntity
  8
LC-001-100-D00-0
 62
     7
370
    50
100
AcDbLine
 10
225.650512
 20
638.740226
 30
0.0
 11
225.950517
 21
638.740226
 31
0.0
  0
LINE
  5
1F4
330
1F
100
AcDbEntity
  8
LC-001-100-D00-0
 62
     7
370
    50
100
AcDbLine
 10
223.450519
 20
640.240229
 30
0.0
 11
225.650512
 21
640.240229
 31
0.0
  0
LINE
  5
1F5
330
1F
100
AcDbEntity
  8
LC-001-100-D00-0
 62
     7
370
    50
100
AcDbLine
 10
220.950522
 20
631.240226
 30
0.0
 11
223.450519
 21
631.240226
 31
0.0
  0
LINE
  5
1F6
330
1F
100
AcDbEntity
  8
LC-001-100-D00-0
 62
     7
370
    50
100
AcDbLine
 10
369.700516
 20
679.940231
 30
0.0
 11
369.700516
 21
684.440232
 31
0.0
  0
LINE
  5
1F7
330
1F
100
AcDbEntity
  8
LC-001-100-D00-0
 62
     7
370
    50
100
AcDbLine
 10
232.200518
 20
684.440232
 30
0.0
 11
232.200518
 21
679.940231
 31
0.0
  0
LINE
  5
1F8
330
1F
100
AcDbEntity
  8
LC-001-100-D00-0
 62
     7
370
    50
100
AcDbLine
 10
366.700515
 20
687.940232
 30
0.0
 11
235.200517
 21
687.940232
 31
0.0
  0
LINE
  5
1F9
330
1F
100
AcDbEntity
  8
LC-001-100-D00-0
 62
     7
370
    50
100
AcDbLine
 10
366.700515
 20
687.940232
 30
0.0
 11
365.700515
 21
679.940231
 31
0.0
  0
LINE
  5
1FA
330
1F
100
AcDbEntity
  8
LC-001-100-D00-0
 62
     7
370
    50
100
AcDbLine
 10
365.700515
 20
679.940231
 30
0.0
 11
236.200512
 21
679.940231
 31
0.0
  0
LINE
  5
1FB
330
1F
100
AcDbEntity
  8
LC-001-100-D00-0
 62
     7
370
    50
100
AcDbLine
 10
236.200512
 20
679.940231
 30
0.0
 11
235.200517
 21
687.940232
 31
0.0
  0
LINE
  5
1FC
330
1F
100
AcDbEntity
  8
LC-001-100-D00-0
 62
     7
370
    50
100
AcDbLine
 10
377.200514
 20
682.440228
 30
0.0
 11
378.200514
 21
683.44023
 31
0.0
  0
LINE
  5
1FD
330
1F
100
AcDbEntity
  8
LC-001-100-D00-0
 62
     7
370
    50
100
AcDbLine
 10
223.700516
 20
683.44023
 30
0.0
 11
224.700518
 21
682.440228
 31
0.0
  0
LINE
  5
1FE
330
1F
100
AcDbEntity
  8
LC-001-100-D00-0
 62
     7
370
    50
100
AcDbLine
 10
378.200514
 20
683.44023
 30
0.0
 11
378.200514
 21
686.94023
 31
0.0
  0
LINE
  5
1FF
330
1F
100
AcDbEntity
  8
LC-001-100-D00-0
 62
     7
370
    50
100
AcDbLine
 10
223.700516
 20
686.94023
 30
0.0
 11
223.700516
 21
683.44023
 31
0.0
  0
LINE
  5
200
330
1F
100
AcDbEntity
  8
LC-001-100-D00-0
 62
     7
370
    50
100
AcDbLine
 10
377.200514
 20
686.94023
 30
0.0
 11
377.200514
 21
687.940232
 31
0.0
  0
LINE
  5
201
330
1F
100
AcDbEntity
  8
LC-001-100-D00-0
 62
     7
370
    50
100
AcDbLine
 10
224.700518
 20
687.940232
 30
0.0
 11
224.700518
 21
686.94023
 31
0.0
  0
LINE
  5
202
330
1F
100
AcDbEntity
  8
LC-001-100-D00-0
 62
     7
370
    50
100
AcDbLine
 10
374.200516
 20
682.440228
 30
0.0
 11
377.200514
 21
682.440228
 31
0.0
  0
LINE
  5
203
330
1F
100
AcDbEntity
  8
LC-001-100-D00-0
 62
     7
370
    50
100
AcDbLine
 10
374.200516
 20
684.440232
 30
0.0
 11
374.200516
 21
682.440228
 31
0.0
  0
LINE
  5
204
330
1F
100
AcDbEntity
  8
LC-001-100-D00-0
 62
     7
370
    50
100
AcDbLine
 10
377.200514
 20
687.940232
 30
0.0
 11
366.700515
 21
687.940232
 31
0.0
  0
LINE
  5
205
330
1F
100
AcDbEntity
  8
LC-001-100-D00-0
 62
     7
370
    50
100
AcDbLine
 10
378.200514
 20
686.94023
 30
0.0
 11
377.200514
 21
686.94023
 31
0.0
  0
LINE
  5
206
330
1F
100
AcDbEntity
  8
LC-001-100-D00-0
 62
     7
370
    50
100
AcDbLine
 10
365.700515
 20
679.940231
 30
0.0
 11
369.700516
 21
679.940231
 31
0.0
  0
LINE
  5
207
330
1F
100
AcDbEntity
  8
LC-001-100-D00-0
 62
     7
370
    50
100
AcDbLine
 10
369.700516
 20
684.440232
 30
0.0
 11
374.200516
 21
684.440232
 31
0.0
  0
LINE
  5
208
330
1F
100
AcDbEntity
  8
LC-001-100-D00-0
 62
     7
370
    50
100
AcDbLine
 10
227.700517
 20
682.440228
 30
0.0
 11
227.700517
 21
684.440232
 31
0.0
  0
LINE
  5
209
330
1F
100
AcDbEntity
  8
LC-001-100-D00-0
 62
     7
370
    50
100
AcDbLine
 10
224.700518
 20
682.440228
 30
0.0
 11
227.700517
 21
682.440228
 31
0.0
  0
LINE
  5
20A
330
1F
100
AcDbEntity
  8
LC-001-100-D00-0
 62
     7
370
    50
100
AcDbLine
 10
235.200517
 20
687.940232
 30
0.0
 11
224.700518
 21
687.940232
 31
0.0
  0
LINE
  5
20B
330
1F
100
AcDbEntity
  8
LC-001-100-D00-0
 62
     7
370
    50
100
AcDbLine
 10
224.700518
 20
686.94023
 30
0.0
 11
223.700516
 21
686.94023
 31
0.0
  0
LINE
  5
20C
330
1F
100
AcDbEntity
  8
LC-001-100-D00-0
 62
     7
370
    50
100
AcDbLine
 10
232.200518
 20
679.940231
 30
0.0
 11
236.200512
 21
679.940231
 31
0.0
  0
LINE
  5
20D
330
1F
100
AcDbEntity
  8
LC-001-100-D00-0
 62
     7
370
    50
100
AcDbLine
 10
227.700517
 20
684.440232
 30
0.0
 11
232.200518
 21
684.440232
 31
0.0
  0
LINE
  5
20E
330
1F
100
AcDbEntity
  8
LC-001-100-D00-0
 62
     7
370
    50
100
AcDbLine
 10
468.950518
 20
714.240223
 30
0.0
 11
468.950518
 21
715.240225
 31
0.0
  0
LINE
  5
20F
330
1F
100
AcDbEntity
  8
LC-001-100-D00-0
 62
     7
370
    50
100
AcDbLine
 10
468.950518
 20
714.240223
 30
0.0
 11
464.950517
 21
714.240223
 31
0.0
  0
LINE
  5
210
330
1F
100
AcDbEntity
  8
LC-001-100-D00-0
 62
     7
370
    50
100
AcDbLine
 10
464.950517
 20
715.240225
 30
0.0
 11
464.950517
 21
714.240223
 31
0.0
  0
LINE
  5
211
330
1F
100
AcDbEntity
  8
LC-001-100-D00-0
 62
     7
370
    50
100
AcDbLine
 10
468.950518
 20
715.240225
 30
0.0
 11
464.950517
 21
715.240225
 31
0.0
  0
LINE
  5
212
330
1F
100
AcDbEntity
  8
LC-001-100-D00-0
 62
     7
370
    50
100
AcDbLine
 10
382.450516
 20
713.240236
 30
0.0
 11
382.450516
 21
699.403375
 31
0.0
  0
LINE
  5
213
330
1F
100
AcDbEntity
  8
LC-001-100-D00-0
 62
     7
370
    50
100
AcDbLine
 10
382.450516
 20
699.403375
 30
0.0
 11
381.050514
 21
696.978494
 31
0.0
  0
LINE
  5
214
330
1F
100
AcDbEntity
  8
LC-001-100-D00-0
 62
     7
370
    50
100
AcDbLine
 10
381.050514
 20
696.978494
 30
0.0
 11
381.050514
 21
631.240226
 31
0.0
  0
LINE
  5
215
330
1F
100
AcDbEntity
  8
LC-001-100-D00-0
 62
     7
370
    50
100
AcDbLine
 10
381.050514
 20
631.240226
 30
0.0
 11
378.200514
 21
631.240226
 31
0.0
  0
LINE
  5
216
330
1F
100
AcDbEntity
  8
LC-001-100-D00-0
 62
     7
370
    50
100
AcDbLine
 10
378.200514
 20
631.240226
 30
0.0
 11
377.784167
 21
678.948953
 31
0.0
  0
ARC
  5
217
330
1F
100
AcDbEntity
  8
LC-001-100-D00-0
 62
     7
370
    50
100
AcDbCircle
 10
376.784205
 20
678.940229
 30
0.0
 40
1.000000000000005
100
AcDbArc
 50
0.5
 51
90.0
  0
LINE
  5
218
330
1F
100
AcDbEntity
  8
LC-001-100-D00-0
 62
     7
370
    50
100
AcDbLine
 10
376.784206
 20
679.940231
 30
0.0
 11
374.300515
 21
679.940231
 31
0.0
  0
ARC
  5
219
330
1F
100
AcDbEntity
  8
LC-001-100-D00-0
 62
     7
370
    50
100
AcDbCircle
 10
374.300515
 20
678.940229
 30
0.0
 40
1.0
100
AcDbArc
 50
90.0
 51
180.0
  0
LINE
  5
21A
330
1F
100
AcDbEntity
  8
LC-001-100-D00-0
 62
     7
370
    50
100
AcDbLine
 10
373.300515
 20
678.940229
 30
0.0
 11
373.300515
 21
668.44023
 31
0.0
  0
ARC
  5
21B
330
1F
100
AcDbEntity
  8
LC-001-100-D00-0
 62
     7
370
    50
100
AcDbCircle
 10
370.800515
 20
668.440229
 30
0.0
 40
2.500000000000114
100
AcDbArc
 50
270.0
 51
0.0
  0
LINE
  5
21C
330
1F
100
AcDbEntity
  8
LC-001-100-D00-0
 62
     7
370
    50
100
AcDbLine
 10
370.800516
 20
665.940232
 30
0.0
 11
368.450515
 21
665.940232
 31
0.0
  0
ARC
  5
21D
330
1F
100
AcDbEntity
  8
LC-001-100-D00-0
 62
     7
370
    50
100
AcDbCircle
 10
368.450515
 20
664.940229
 30
0.0
 40
1.0
100
AcDbArc
 50
90.0
 51
180.0
  0
LINE
  5
21E
330
1F
100
AcDbEntity
  8
LC-001-100-D00-0
 62
     7
370
    50
100
AcDbLine
 10
367.450515
 20
664.94023
 30
0.0
 11
367.450515
 21
630.240231
 31
0.0
  0
LINE
  5
21F
330
1F
100
AcDbEntity
  8
LC-001-100-D00-0
 62
     7
370
    50
100
AcDbLine
 10
367.450515
 20
630.240231
 30
0.0
 11
348.029469
 21
630.240231
 31
0.0
  0
LINE
  5
220
330
1F
100
AcDbEntity
  8
LC-001-100-D00-0
 62
     7
370
    50
100
AcDbLine
 10
348.029469
 20
630.240231
 30
0.0
 11
346.050515
 21
629.990227
 31
0.0
  0
LINE
  5
221
330
1F
100
AcDbEntity
  8
LC-001-100-D00-0
 62
     7
370
    50
100
AcDbLine
 10
346.050515
 20
629.990227
 30
0.0
 11
346.050515
 21
560.740229
 31
0.0
  0
LINE
  5
222
330
1F
100
AcDbEntity
  8
LC-001-100-D00-0
 62
     7
370
    50
100
AcDbLine
 10
346.050515
 20
560.740229
 30
0.0
 11
345.112693
 21
557.24023
 31
0.0
  0
LINE
  5
223
330
1F
100
AcDbEntity
  8
LC-001-100-D00-0
 62
     7
370
    50
100
AcDbLine
 10
345.112693
 20
557.24023
 30
0.0
 11
343.450515
 21
557.24023
 31
0.0
  0
LINE
  5
224
330
1F
100
AcDbEntity
  8
LC-001-100-D00-0
 62
     7
370
    50
100
AcDbLine
 10
343.450515
 20
557.24023
 30
0.0
 11
343.450515
 21
633.24023
 31
0.0
  0
LINE
  5
225
330
1F
100
AcDbEntity
  8
LC-001-100-D00-0
 62
     7
370
    50
100
AcDbLine
 10
343.450515
 20
633.24023
 30
0.0
 11
364.450515
 21
633.24023
 31
0.0
  0
LINE
  5
226
330
1F
100
AcDbEntity
  8
LC-001-100-D00-0
 62
     7
370
    50
100
AcDbLine
 10
364.450515
 20
633.24023
 30
0.0
 11
364.450515
 21
668.44023
 31
0.0
  0
ARC
  5
227
330
1F
100
AcDbEntity
  8
LC-001-100-D00-0
 62
     7
370
    50
100
AcDbCircle
 10
365.450515
 20
668.440229
 30
0.0
 40
1.0
100
AcDbArc
 50
90.0
 51
180.0
  0
LINE
  5
228
330
1F
100
AcDbEntity
  8
LC-001-100-D00-0
 62
     7
370
    50
100
AcDbLine
 10
365.450515
 20
669.440232
 30
0.0
 11
369.450515
 21
669.440232
 31
0.0
  0
ARC
  5
229
330
1F
100
AcDbEntity
  8
LC-001-100-D00-0
 62
     7
370
    50
100
AcDbCircle
 10
369.450515
 20
670.440229
 30
0.0
 40
1.0
100
AcDbArc
 50
270.0
 51
0.0
  0
LINE
  5
22A
330
1F
100
AcDbEntity
  8
LC-001-100-D00-0
 62
     7
370
    50
100
AcDbLine
 10
370.450515
 20
670.440226
 30
0.0
 11
370.450515
 21
682.440228
 31
0.0
  0
LINE
  5
22B
330
1F
100
AcDbEntity
  8
LC-001-100-D00-0
 62
     7
370
    50
100
AcDbLine
 10
370.450515
 20
682.440228
 30
0.0
 11
377.450515
 21
682.440228
 31
0.0
  0
LINE
  5
22C
330
1F
100
AcDbEntity
  8
LC-001-100-D00-0
 62
     7
370
    50
100
AcDbLine
 10
377.450515
 20
682.440228
 30
0.0
 11
377.450515
 21
687.240228
 31
0.0
  0
LINE
  5
22D
330
1F
100
AcDbEntity
  8
LC-001-100-D00-0
 62
     7
370
    50
100
AcDbLine
 10
377.450515
 20
687.240228
 30
0.0
 11
376.450515
 21
688.24023
 31
0.0
  0
LINE
  5
22E
330
1F
100
AcDbEntity
  8
LC-001-100-D00-0
 62
     7
370
    50
100
AcDbLine
 10
376.450515
 20
688.24023
 30
0.0
 11
376.450515
 21
692.240223
 31
0.0
  0
LINE
  5
22F
330
1F
100
AcDbEntity
  8
LC-001-100-D00-0
 62
     7
370
    50
100
AcDbLine
 10
376.450515
 20
692.240223
 30
0.0
 11
375.950515
 21
692.528903
 31
0.0
  0
ARC
  5
230
330
1F
100
AcDbEntity
  8
LC-001-100-D00-0
 62
     7
370
    50
100
AcDbCircle
 10
376.200515
 20
692.961917
 30
0.0
 40
0.5000000000000568
100
AcDbArc
 50
180.0
 51
240.0
  0
LINE
  5
231
330
1F
100
AcDbEntity
  8
LC-001-100-D00-0
 62
     7
370
    50
100
AcDbLine
 10
375.700515
 20
692.961916
 30
0.0
 11
375.700515
 21
693.612024
 31
0.0
  0
LINE
  5
232
330
1F
100
AcDbEntity
  8
LC-001-100-D00-0
 62
     7
370
    50
100
AcDbLine
 10
375.700515
 20
693.612024
 30
0.0
 11
379.700516
 21
700.540229
 31
0.0
  0
LINE
  5
233
330
1F
100
AcDbEntity
  8
LC-001-100-D00-0
 62
     7
370
    50
100
AcDbLine
 10
379.700516
 20
700.540229
 30
0.0
 11
379.700516
 21
716.240227
 31
0.0
  0
ARC
  5
234
330
1F
100
AcDbEntity
  8
LC-001-100-D00-0
 62
     7
370
    50
100
AcDbCircle
 10
380.700515
 20
716.240229
 30
0.0
 40
1.0
100
AcDbArc
 50
90.0
 51
180.0
  0
LINE
  5
235
330
1F
100
AcDbEntity
  8
LC-001-100-D00-0
 62
     7
370
    50
100
AcDbLine
 10
380.700516
 20
717.240229
 30
0.0
 11
462.950513
 21
717.240229
 31
0.0
  0
LINE
  5
236
330
1F
100
AcDbEntity
  8
LC-001-100-D00-0
 62
     7
370
    50
100
AcDbLine
 10
464.950517
 20
715.240225
 30
0.0
 11
462.950513
 21
717.240229
 31
0.0
  0
LINE
  5
237
330
1F
100
AcDbEntity
  8
LC-001-100-D00-0
 62
     7
370
    50
100
AcDbLine
 10
464.950517
 20
714.240223
 30
0.0
 11
383.450516
 21
714.240223
 31
0.0
  0
LINE
  5
238
330
1F
100
AcDbEntity
  8
LC-001-100-D00-0
 62
     7
370
    50
100
AcDbLine
 10
383.450516
 20
714.240223
 30
0.0
 11
382.450516
 21
713.240236
 31
0.0
  0
LINE
  5
239
330
1F
100
AcDbEntity
  8
LC-001-100-D00-0
 62
     7
370
    50
100
AcDbLine
 10
258.450516
 20
633.24023
 30
0.0
 11
258.450516
 21
557.24023
 31
0.0
  0
LINE
  5
23A
330
1F
100
AcDbEntity
  8
LC-001-100-D00-0
 62
     7
370
    50
100
AcDbLine
 10
258.450516
 20
633.24023
 30
0.0
 11
343.450515
 21
633.24023
 31
0.0
  0
LINE
  5
23B
330
1F
100
AcDbEntity
  8
LC-001-100-D00-0
 62
     7
370
    50
100
AcDbLine
 10
258.450516
 20
557.24023
 30
0.0
 11
343.450515
 21
557.24023
 31
0.0
  0
ARC
  5
23C
330
1F
100
AcDbEntity
  8
LC-001-100-D00-0
 62
     7
370
    50
100
AcDbCircle
 10
231.100515
 20
668.440229
 30
0.0
 40
2.500000000000114
100
AcDbArc
 50
180.0
 51
270.0
  0
LINE
  5
23D
330
1F
100
AcDbEntity
  8
LC-001-100-D00-0
 62
     7
370
    50
100
AcDbLine
 10
228.600517
 20
668.44023
 30
0.0
 11
228.600517
 21
678.940229
 31
0.0
  0
ARC
  5
23E
330
1F
100
AcDbEntity
  8
LC-001-100-D00-0
 62
     7
370
    50
100
AcDbCircle
 10
227.600515
 20
678.940229
 30
0.0
 40
1.0
100
AcDbArc
 50
0.0
 51
90.0
  0
LINE
  5
23F
330
1F
100
AcDbEntity
  8
LC-001-100-D00-0
 62
     7
370
    50
100
AcDbLine
 10
220.85052
 20
696.978494
 30
0.0
 11
219.450511
 21
699.403375
 31
0.0
  0
LINE
  5
240
330
1F
100
AcDbEntity
  8
LC-001-100-D00-0
 62
     7
370
    50
100
AcDbLine
 10
219.450511
 20
713.240236
 30
0.0
 11
218.450509
 21
714.240223
 31
0.0
  0
LINE
  5
241
330
1F
100
AcDbEntity
  8
LC-001-100-D00-0
 62
     7
370
    50
100
AcDbLine
 10
462.950513
 20
717.240229
 30
0.0
 11
470.950514
 21
717.240229
 31
0.0
  0
LINE
  5
242
330
1F
100
AcDbEntity
  8
LC-001-100-D00-0
 62
     7
370
    50
100
AcDbLine
 10
470.950514
 20
717.240229
 30
0.0
 11
468.950518
 21
715.240225
 31
0.0
  0
LINE
  5
243
330
1F
100
AcDbEntity
  8
LC-001-100-D00-0
 62
     7
370
    50
100
AcDbLine
 10
120.950513
 20
714.240223
 30
0.0
 11
120.950513
 21
715.240225
 31
0.0
  0
LINE
  5
244
330
1F
100
AcDbEntity
  8
LC-001-100-D00-0
 62
     7
370
    50
100
AcDbLine
 10
480.950512
 20
715.240225
 30
0.0
 11
480.950512
 21
714.240223
 31
0.0
  0
ARC
  5
245
330
1F
100
AcDbEntity
  8
LC-001-100-D00-0
 62
     7
370
    50
100
AcDbCircle
 10
122.950515
 20
715.240229
 30
0.0
 40
2.0
100
AcDbArc
 50
90.0
 51
180.0
  0
ARC
  5
246
330
1F
100
AcDbEntity
  8
LC-001-100-D00-0
 62
     7
370
    50
100
AcDbCircle
 10
478.950515
 20
715.240229
 30
0.0
 40
2.0
100
AcDbArc
 50
0.0
 51
90.0
  0
LINE
  5
247
330
1F
100
AcDbEntity
  8
LC-001-100-D00-0
 62
     7
370
    50
100
AcDbLine
 10
225.450508
 20
688.24023
 30
0.0
 11
224.450521
 21
687.240228
 31
0.0
  0
LINE
  5
248
330
1F
100
AcDbEntity
  8
LC-001-100-D00-0
 62
     7
370
    50
100
AcDbLine
 10
225.450508
 20
688.24023
 30
0.0
 11
226.550512
 21
688.24023
 31
0.0
  0
LINE
  5
249
330
1F
100
AcDbEntity
  8
LC-001-100-D00-0
 62
     7
370
    50
100
AcDbLine
 10
230.937958
 20
688.24023
 30
0.0
 11
289.150532
 21
688.24023
 31
0.0
  0
LINE
  5
24A
330
1F
100
AcDbEntity
  8
LC-001-100-D00-0
 62
     7
370
    50
100
AcDbLine
 10
312.750612
 20
688.24023
 30
0.0
 11
370.963087
 21
688.24023
 31
0.0
  0
LINE
  5
24B
330
1F
100
AcDbEntity
  8
LC-001-100-D00-0
 62
     7
370
    50
100
AcDbLine
 10
375.350515
 20
688.24023
 30
0.0
 11
376.450515
 21
688.24023
 31
0.0
  0
LINE
  5
24C
330
1F
100
AcDbEntity
  8
LC-001-100-D00-0
 62
     7
370
    50
100
AcDbLine
 10
224.450521
 20
687.240228
 30
0.0
 11
224.700518
 21
687.240228
 31
0.0
  0
LINE
  5
24D
330
1F
100
AcDbEntity
  8
LC-001-100-D00-0
 62
     7
370
    50
100
AcDbLine
 10
377.200514
 20
687.240228
 30
0.0
 11
377.450515
 21
687.240228
 31
0.0
  0
LINE
  5
24E
330
1F
100
AcDbEntity
  8
LC-001-100-D00-0
 62
     7
370
    50
100
AcDbLine
 10
224.450521
 20
687.240228
 30
0.0
 11
224.450521
 21
682.440228
 31
0.0
  0
LINE
  5
24F
330
1F
100
AcDbEntity
  8
LC-001-100-D00-0
 62
     7
370
    50
100
AcDbLine
 10
237.450518
 20
668.44023
 30
0.0
 11
237.450518
 21
633.24023
 31
0.0
  0
LINE
  5
250
330
1F
100
AcDbEntity
  8
LC-001-100-D00-0
 62
     7
370
    50
100
AcDbLine
 10
237.450518
 20
668.44023
 30
0.0
 11
364.450515
 21
668.44023
 31
0.0
  0
LINE
  5
251
330
1F
100
AcDbEntity
  8
LC-001-100-D00-0
 62
     7
370
    50
100
AcDbLine
 10
132.950522
 20
715.240225
 30
0.0
 11
130.950518
 21
717.240229
 31
0.0
  0
LINE
  5
252
330
1F
100
AcDbEntity
  8
LC-001-100-D00-0
 62
     7
370
    50
100
AcDbLine
 10
132.950522
 20
715.240225
 30
0.0
 11
132.950522
 21
714.240223
 31
0.0
  0
LINE
  5
253
330
1F
100
AcDbEntity
  8
LC-001-100-D00-0
 62
     7
370
    50
100
AcDbLine
 10
122.950517
 20
717.240229
 30
0.0
 11
130.950518
 21
717.240229
 31
0.0
  0
LINE
  5
254
330
1F
100
AcDbEntity
  8
LC-001-100-D00-0
 62
     1
370
    25
100
AcDbLine
 10
132.950522
 20
714.240223
 30
0.0
 11
120.950513
 21
714.240223
 31
0.0
  0
ARC
  5
255
330
1F
100
AcDbEntity
  8
LC-001-100-D00-0
 62
     7
370
    50
100
AcDbCircle
 10
233.450515
 20
664.940229
 30
0.0
 40
1.0
100
AcDbArc
 50
0.0
 51
90.0
  0
LINE
  5
256
330
1F
100
AcDbEntity
  8
LC-001-100-D00-0
 62
     7
370
    50
100
AcDbLine
 10
222.20052
 20
716.240227
 30
0.0
 11
222.20052
 21
700.540229
 31
0.0
  0
LINE
  5
257
330
1F
100
AcDbEntity
  8
LC-001-100-D00-0
 62
     7
370
    50
100
AcDbLine
 10
222.20052
 20
700.540229
 30
0.0
 11
224.93244
 21
700.540229
 31
0.0
  0
LINE
  5
258
330
1F
100
AcDbEntity
  8
LC-001-100-D00-0
 62
     7
370
    50
100
AcDbLine
 10
287.150532
 20
700.540229
 30
0.0
 11
289.150532
 21
700.540229
 31
0.0
  0
LINE
  5
259
330
1F
100
AcDbEntity
  8
LC-001-100-D00-0
 62
     7
370
    50
100
AcDbLine
 10
312.750612
 20
700.540229
 30
0.0
 11
314.750612
 21
700.540229
 31
0.0
  0
LINE
  5
25A
330
1F
100
AcDbEntity
  8
LC-001-100-D00-0
 62
     7
370
    50
100
AcDbLine
 10
376.968594
 20
700.540229
 30
0.0
 11
379.700516
 21
700.540229
 31
0.0
  0
LINE
  5
25B
330
1F
100
AcDbEntity
  8
LC-001-100-D00-0
 62
     7
370
    50
100
AcDbLine
 10
219.450511
 20
699.403375
 30
0.0
 11
219.450511
 21
713.240236
 31
0.0
  0
LINE
  5
25C
330
1F
100
AcDbEntity
  8
LC-001-100-D00-0
 62
     7
370
    50
100
AcDbLine
 10
225.450508
 20
692.240223
 30
0.0
 11
225.450508
 21
688.24023
 31
0.0
  0
LINE
  5
25D
330
1F
100
AcDbEntity
  8
LC-001-100-D00-0
 62
     7
370
    50
100
AcDbLine
 10
225.450508
 20
692.240223
 30
0.0
 11
227.050513
 21
692.240223
 31
0.0
  0
LINE
  5
25E
330
1F
100
AcDbEntity
  8
LC-001-100-D00-0
 62
     7
370
    50
100
AcDbLine
 10
230.937958
 20
692.240223
 30
0.0
 11
289.150532
 21
692.240223
 31
0.0
  0
LINE
  5
25F
330
1F
100
AcDbEntity
  8
LC-001-100-D00-0
 62
     7
370
    50
100
AcDbLine
 10
312.750612
 20
692.240223
 30
0.0
 11
370.963087
 21
692.240223
 31
0.0
  0
LINE
  5
260
330
1F
100
AcDbEntity
  8
LC-001-100-D00-0
 62
     7
370
    50
100
AcDbLine
 10
374.850515
 20
692.240223
 30
0.0
 11
376.450515
 21
692.240223
 31
0.0
  0
ARC
  5
261
330
1F
100
AcDbEntity
  8
LC-001-100-D00-0
 62
     7
370
    50
100
AcDbCircle
 10
236.450515
 20
668.440229
 30
0.0
 40
1.0
100
AcDbArc
 50
0.0
 51
90.0
  0
LINE
  5
262
330
1F
100
AcDbEntity
  8
LC-001-100-D00-0
 62
     7
370
    50
100
AcDbLine
 10
236.450516
 20
669.440232
 30
0.0
 11
365.450515
 21
669.440232
 31
0.0
  0
LINE
  5
263
330
1F
100
AcDbEntity
  8
LC-001-100-D00-0
 62
     7
370
    50
100
AcDbLine
 10
138.950519
 20
717.240229
 30
0.0
 11
136.950515
 21
715.240225
 31
0.0
  0
LINE
  5
264
330
1F
100
AcDbEntity
  8
LC-001-100-D00-0
 62
     7
370
    50
100
AcDbLine
 10
136.950515
 20
715.240225
 30
0.0
 11
132.950522
 21
715.240225
 31
0.0
  0
LINE
  5
265
330
1F
100
AcDbEntity
  8
LC-001-100-D00-0
 62
     7
370
    50
100
AcDbLine
 10
130.950518
 20
717.240229
 30
0.0
 11
138.950519
 21
717.240229
 31
0.0
  0
LINE
  5
266
330
1F
100
AcDbEntity
  8
LC-001-100-D00-0
 62
     7
370
    50
100
AcDbLine
 10
136.950515
 20
714.240223
 30
0.0
 11
136.950515
 21
715.240225
 31
0.0
  0
LINE
  5
267
330
1F
100
AcDbEntity
  8
LC-001-100-D00-0
 62
     7
370
    50
100
AcDbLine
 10
136.950515
 20
714.240223
 30
0.0
 11
132.950522
 21
714.240223
 31
0.0
  0
LINE
  5
268
330
1F
100
AcDbEntity
  8
LC-001-100-D00-0
 62
     7
370
    50
100
AcDbLine
 10
224.116869
 20
678.948953
 30
0.0
 11
223.700516
 21
631.240226
 31
0.0
  0
LINE
  5
269
330
1F
100
AcDbEntity
  8
LC-001-100-D00-0
 62
     7
370
    50
100
AcDbLine
 10
226.200514
 20
693.612024
 30
0.0
 11
226.200514
 21
692.961916
 31
0.0
  0
LINE
  5
26A
330
1F
100
AcDbEntity
  8
LC-001-100-D00-0
 62
     7
370
    50
100
AcDbLine
 10
226.200514
 20
693.612024
 30
0.0
 11
227.050513
 21
693.612024
 31
0.0
  0
LINE
  5
26B
330
1F
100
AcDbEntity
  8
LC-001-100-D00-0
 62
     7
370
    50
100
AcDbLine
 10
230.937958
 20
693.612024
 30
0.0
 11
289.150532
 21
693.612024
 31
0.0
  0
LINE
  5
26C
330
1F
100
AcDbEntity
  8
LC-001-100-D00-0
 62
     7
370
    50
100
AcDbLine
 10
312.750612
 20
693.612024
 30
0.0
 11
370.963087
 21
693.612024
 31
0.0
  0
LINE
  5
26D
330
1F
100
AcDbEntity
  8
LC-001-100-D00-0
 62
     7
370
    50
100
AcDbLine
 10
374.850515
 20
693.612024
 30
0.0
 11
375.700515
 21
693.612024
 31
0.0
  0
ARC
  5
26E
330
1F
100
AcDbEntity
  8
LC-001-100-D00-0
 62
     7
370
    50
100
AcDbCircle
 10
225.700515
 20
692.961917
 30
0.0
 40
0.5000000000000552
100
AcDbArc
 50
300.0
 51
0.0
  0
ARC
  5
26F
330
1F
100
AcDbEntity
  8
LC-001-100-D00-0
 62
     7
370
    50
100
AcDbCircle
 10
232.450515
 20
670.440229
 30
0.0
 40
1.0
100
AcDbArc
 50
180.0
 51
270.0
  0
LINE
  5
270
330
1F
100
AcDbEntity
  8
LC-001-100-D00-0
 62
     7
370
    50
100
AcDbLine
 10
231.450513
 20
670.440226
 30
0.0
 11
370.450515
 21
670.440226
 31
0.0
  0
ARC
  5
271
330
1F
100
AcDbEntity
  8
LC-001-100-D00-0
 62
     7
370
    50
100
AcDbCircle
 10
221.200515
 20
716.240229
 30
0.0
 40
1.0
100
AcDbArc
 50
0.0
 51
90.0
  0
LINE
  5
272
330
1F
100
AcDbEntity
  8
LC-001-100-D00-0
 62
     7
370
    50
100
AcDbLine
 10
231.450513
 20
682.440228
 30
0.0
 11
231.450513
 21
670.440226
 31
0.0
  0
LINE
  5
273
330
1F
100
AcDbEntity
  8
LC-001-100-D00-0
 62
     7
370
    50
100
AcDbLine
 10
231.450513
 20
682.440228
 30
0.0
 11
232.200518
 21
682.440228
 31
0.0
  0
LINE
  5
274
330
1F
100
AcDbEntity
  8
LC-001-100-D00-0
 62
     7
370
    50
100
AcDbLine
 10
369.700516
 20
682.440228
 30
0.0
 11
370.450515
 21
682.440228
 31
0.0
  0
LINE
  5
275
330
1F
100
AcDbEntity
  8
LC-001-100-D00-0
 62
     7
370
    50
100
AcDbLine
 10
222.20052
 20
700.540229
 30
0.0
 11
226.200514
 21
693.612024
 31
0.0
  0
LINE
  5
276
330
1F
100
AcDbEntity
  8
LC-001-100-D00-0
 62
     7
370
    50
100
AcDbLine
 10
225.950517
 20
692.528903
 30
0.0
 11
225.450508
 21
692.240223
 31
0.0
  0
LINE
  5
277
330
1F
100
AcDbEntity
  8
LC-001-100-D00-0
 62
     7
370
    50
100
AcDbLine
 10
256.788336
 20
557.24023
 30
0.0
 11
255.850516
 21
560.740229
 31
0.0
  0
LINE
  5
278
330
1F
100
AcDbEntity
  8
LC-001-100-D00-0
 62
     7
370
    50
100
AcDbLine
 10
255.850516
 20
560.740229
 30
0.0
 11
255.850516
 21
629.990227
 31
0.0
  0
LINE
  5
279
330
1F
100
AcDbEntity
  8
LC-001-100-D00-0
 62
     7
370
    50
100
AcDbLine
 10
255.850516
 20
629.990227
 30
0.0
 11
253.87156
 21
630.240231
 31
0.0
  0
LINE
  5
27A
330
1F
100
AcDbEntity
  8
LC-001-100-D00-0
 62
     7
370
    50
100
AcDbLine
 10
234.450512
 20
630.240231
 30
0.0
 11
234.450512
 21
664.94023
 31
0.0
  0
ARC
  5
27B
330
1F
100
AcDbEntity
  8
LC-001-100-D00-0
 62
     7
370
    50
100
AcDbCircle
 10
225.116825
 20
678.940229
 30
0.0
 40
1.0
100
AcDbArc
 50
90.0
 51
179.5
  0
LINE
  5
27C
330
1F
100
AcDbEntity
  8
LC-001-100-D00-0
 62
     7
370
    50
100
AcDbLine
 10
223.700516
 20
631.240226
 30
0.0
 11
220.85052
 21
631.240226
 31
0.0
  0
LINE
  5
27D
330
1F
100
AcDbEntity
  8
LC-001-100-D00-0
 62
     7
370
    50
100
AcDbLine
 10
220.85052
 20
631.240226
 30
0.0
 11
220.85052
 21
696.978494
 31
0.0
  0
LINE
  5
27E
330
1F
100
AcDbEntity
  8
LC-001-100-D00-0
 62
     7
370
    50
100
AcDbLine
 10
227.600515
 20
679.940231
 30
0.0
 11
225.116827
 21
679.940231
 31
0.0
  0
LINE
  5
27F
330
1F
100
AcDbEntity
  8
LC-001-100-D00-0
 62
     7
370
    50
100
AcDbLine
 10
232.450515
 20
669.440232
 30
0.0
 11
236.450516
 21
669.440232
 31
0.0
  0
LINE
  5
280
330
1F
100
AcDbEntity
  8
LC-001-100-D00-0
 62
     7
370
    50
100
AcDbLine
 10
253.87156
 20
630.240231
 30
0.0
 11
234.450512
 21
630.240231
 31
0.0
  0
LINE
  5
281
330
1F
100
AcDbEntity
  8
LC-001-100-D00-0
 62
     7
370
    50
100
AcDbLine
 10
224.450521
 20
682.440228
 30
0.0
 11
231.450513
 21
682.440228
 31
0.0
  0
LINE
  5
282
330
1F
100
AcDbEntity
  8
LC-001-100-D00-0
 62
     7
370
    50
100
AcDbLine
 10
138.950519
 20
717.240229
 30
0.0
 11
221.200518
 21
717.240229
 31
0.0
  0
LINE
  5
283
330
1F
100
AcDbEntity
  8
LC-001-100-D00-0
 62
     7
370
    50
100
AcDbLine
 10
218.450509
 20
714.240223
 30
0.0
 11
136.950515
 21
714.240223
 31
0.0
  0
LINE
  5
284
330
1F
100
AcDbEntity
  8
LC-001-100-D00-0
 62
     7
370
    50
100
AcDbLine
 10
233.450517
 20
665.940232
 30
0.0
 11
231.100515
 21
665.940232
 31
0.0
  0
LINE
  5
285
330
1F
100
AcDbEntity
  8
LC-001-100-D00-0
 62
     7
370
    50
100
AcDbLine
 10
237.450518
 20
633.24023
 30
0.0
 11
258.450516
 21
633.24023
 31
0.0
  0
LINE
  5
286
330
1F
100
AcDbEntity
  8
LC-001-100-D00-0
 62
     7
370
    50
100
AcDbLine
 10
258.450516
 20
557.24023
 30
0.0
 11
256.788336
 21
557.24023
 31
0.0
  0
LINE
  5
287
330
1F
100
AcDbEntity
  8
LC-001-100-D00-0
 62
     7
370
    50
100
AcDbLine
 10
470.950514
 20
717.240229
 30
0.0
 11
478.950508
 21
717.240229
 31
0.0
  0
LINE
  5
288
330
1F
100
AcDbEntity
  8
LC-001-100-D00-0
 62
     7
370
    50
100
AcDbLine
 10
480.950512
 20
714.240223
 30
0.0
 11
468.950518
 21
714.240223
 31
0.0
  0
LINE
  5
289
330
1F
100
AcDbEntity
  8
LC-001-100-D00-0
 62
     7
370
    50
100
AcDbLine
 10
367.950516
 20
655.635401
 30
0.0
 11
367.450515
 21
655.635401
 31
0.0
  0
LINE
  5
28A
330
1F
100
AcDbEntity
  8
LC-001-100-D00-0
 62
     7
370
    50
100
AcDbLine
 10
234.450512
 20
655.635401
 30
0.0
 11
233.950518
 21
655.635401
 31
0.0
  0
LINE
  5
28B
330
1F
100
AcDbEntity
  8
LC-001-100-D00-0
 62
     7
370
    50
100
AcDbLine
 10
367.950516
 20
663.635403
 30
0.0
 11
367.450515
 21
663.635403
 31
0.0
  0
LINE
  5
28C
330
1F
100
AcDbEntity
  8
LC-001-100-D00-0
 62
     7
370
    50
100
AcDbLine
 10
234.450512
 20
663.635403
 30
0.0
 11
233.950518
 21
663.635403
 31
0.0
  0
LINE
  5
28D
330
1F
100
AcDbEntity
  8
LC-001-100-D00-0
 62
     7
370
    50
100
AcDbLine
 10
231.304571
 20
708.540231
 30
0.0
 11
230.937958
 21
708.540231
 31
0.0
  0
LINE
  5
28E
330
1F
100
AcDbEntity
  8
LC-001-100-D00-0
 62
     7
370
    50
100
AcDbLine
 10
370.963087
 20
708.540231
 30
0.0
 11
370.59648
 21
708.540231
 31
0.0
  0
LINE
  5
28F
330
1F
100
AcDbEntity
  8
LC-001-100-D00-0
 62
     7
370
    50
100
AcDbLine
 10
375.950515
 20
626.240231
 30
0.0
 11
346.050515
 21
626.240231
 31
0.0
  0
LINE
  5
290
330
1F
100
AcDbEntity
  8
LC-001-100-D00-0
 62
     7
370
    50
100
AcDbLine
 10
255.850516
 20
626.240231
 30
0.0
 11
236.226164
 21
626.240231
 31
0.0
  0
LINE
  5
291
330
1F
100
AcDbEntity
  8
LC-001-100-D00-0
 62
     7
370
    50
100
AcDbLine
 10
222.20052
 20
716.240227
 30
0.0
 11
224.93244
 21
716.240227
 31
0.0
  0
LINE
  5
292
330
1F
100
AcDbEntity
  8
LC-001-100-D00-0
 62
     7
370
    50
100
AcDbLine
 10
376.968594
 20
716.240227
 30
0.0
 11
379.700516
 21
716.240227
 31
0.0
  0
LINE
  5
293
330
1F
100
AcDbEntity
  8
LC-001-100-D00-0
 62
     7
370
    50
100
AcDbLine
 10
224.116869
 20
678.948953
 30
0.0
 11
228.60048
 21
678.948953
 31
0.0
  0
LINE
  5
294
330
1F
100
AcDbEntity
  8
LC-001-100-D00-0
 62
     7
370
    50
100
AcDbLine
 10
373.300552
 20
678.948953
 30
0.0
 11
377.784167
 21
678.948953
 31
0.0
  0
LINE
  5
295
330
1F
100
AcDbEntity
  8
LC-001-100-D00-0
 62
     7
370
    50
100
AcDbLine
 10
226.200514
 20
692.961916
 30
0.0
 11
227.050513
 21
692.961916
 31
0.0
  0
LINE
  5
296
330
1F
100
AcDbEntity
  8
LC-001-100-D00-0
 62
     7
370
    50
100
AcDbLine
 10
230.937958
 20
692.961916
 30
0.0
 11
289.150532
 21
692.961916
 31
0.0
  0
LINE
  5
297
330
1F
100
AcDbEntity
  8
LC-001-100-D00-0
 62
     7
370
    50
100
AcDbLine
 10
312.750612
 20
692.961916
 30
0.0
 11
370.963087
 21
692.961916
 31
0.0
  0
LINE
  5
298
330
1F
100
AcDbEntity
  8
LC-001-100-D00-0
 62
     7
370
    50
100
AcDbLine
 10
374.850515
 20
692.961916
 30
0.0
 11
375.700515
 21
692.961916
 31
0.0
  0
LINE
  5
299
330
1F
100
AcDbEntity
  8
LC-001-100-D00-0
 62
     7
370
    50
100
AcDbLine
 10
225.950517
 20
692.528903
 30
0.0
 11
227.050513
 21
692.528903
 31
0.0
  0
LINE
  5
29A
330
1F
100
AcDbEntity
  8
LC-001-100-D00-0
 62
     7
370
    50
100
AcDbLine
 10
230.937958
 20
692.528903
 30
0.0
 11
289.150532
 21
692.528903
 31
0.0
  0
LINE
  5
29B
330
1F
100
AcDbEntity
  8
LC-001-100-D00-0
 62
     7
370
    50
100
AcDbLine
 10
312.750612
 20
692.528903
 30
0.0
 11
370.963087
 21
692.528903
 31
0.0
  0
LINE
  5
29C
330
1F
100
AcDbEntity
  8
LC-001-100-D00-0
 62
     7
370
    50
100
AcDbLine
 10
374.850515
 20
692.528903
 30
0.0
 11
375.950515
 21
692.528903
 31
0.0
  0
INSERT
  5
2E9
330
1F
100
AcDbEntity
  8
LC-002-102-D00-0
 62
     7
370
    25
100
AcDbBlockReference
  2
KLON1
 10
0.0
 20
0.0
 30
0.0
  0
INSERT
  5
2F0
330
1F
100
AcDbEntity
  8
LC-001-100-D00-0
 62
     1
370
    25
100
AcDbBlockReference
  2
KLON2
 10
0.0
 20
0.0
 30
0.0
  0
INSERT
  5
2F7
330
1F
100
AcDbEntity
  8
LC-001-100-D00-0
 62
     1
370
    25
100
AcDbBlockReference
  2
KLON3
 10
0.0
 20
0.0
 30
0.0
  0
INSERT
  5
344
330
1F
100
AcDbEntity
  8
LC-002-102-D00-0
 62
     7
370
    25
100
AcDbBlockReference
  2
KLON4
 10
0.0
 20
0.0
 30
0.0
  0
INSERT
  5
34E
330
1F
100
AcDbEntity
  8
LC-001-100-D00-0
 62
     1
370
    25
100
AcDbBlockReference
  2
KLON5
 10
0.0
 20
0.0
 30
0.0
  0
INSERT
  5
356
330
1F
100
AcDbEntity
  8
LC-001-100-D00-0
 62
     1
370
    25
100
AcDbBlockReference
  2
KLON6
 10
0.0
 20
0.0
 30
0.0
  0
INSERT
  5
367
330
1F
100
AcDbEntity
  8
LC-002-102-D00-0
 62
     7
370
    25
100
AcDbBlockReference
  2
KLON7
 10
0.0
 20
0.0
 30
0.0
  0
INSERT
  5
376
330
1F
100
AcDbEntity
  8
LC-002-102-D00-0
 62
     7
370
    25
100
AcDbBlockReference
  2
KLON8
 10
0.0
 20
0.0
 30
0.0
  0
INSERT
  5
3C0
330
1F
100
AcDbEntity
  8
LC-002-102-D00-0
 62
     7
370
    25
100
AcDbBlockReference
  2
KLON9
 10
0.0
 20
0.0
 30
0.0
  0
INSERT
  5
3C8
330
1F
100
AcDbEntity
  8
LC-002-102-D00-0
 62
     7
370
    25
100
AcDbBlockReference
  2
KLON10
 10
0.0
 20
0.0
 30
0.0
  0
INSERT
  5
3D2
330
1F
100
AcDbEntity
  8
LC-001-100-D00-0
 62
     7
370
    50
100
AcDbBlockReference
  2
KLON11
 10
0.0
 20
0.0
 30
0.0
  0
INSERT
  5
3DC
330
1F
100
AcDbEntity
  8
LC-001-100-D00-0
 62
     7
370
    50
100
AcDbBlockReference
  2
KLON12
 10
0.0
 20
0.0
 30
0.0
  0
DIMENSION
  5
3DF
330
1F
100
AcDbEntity
  8
LC-002-102-D00-0
 62
     7
370
    25
100
AcDbDimension
  2
*D21
 10
73.494115
 20
557.240229
 30
0.0
 11
42.694115
 21
639.402785
 31
0.0
 70
   160
 71
     5
 42
160.0
 53
90.0
  3
LC-DIM-L-0140-02-02
100
AcDbAlignedDimension
 13
138.950515
 23
717.240229
 33
0.0
 14
256.788337
 24
557.240229
 34
0.0
 50
90.0
100
AcDbRotatedDimension
  0
DIMENSION
  5
3ED
330
1F
100
AcDbEntity
  8
LC-002-102-D00-0
 62
     7
370
    25
100
AcDbDimension
  2
*D22
 10
381.050515
 20
467.142785
 30
0.0
 11
303.50799
 21
497.942785
 31
0.0
 70
   160
  1
%%c160
 71
     5
 42
160.2
  3
LC-DIM-L-0140-02-02
100
AcDbAlignedDimension
 13
220.850515
 23
631.240229
 33
0.0
 14
381.050515
 24
631.240229
 34
0.0
100
AcDbRotatedDimension
  0
DIMENSION
  5
3FA
330
1F
100
AcDbEntity
  8
LC-002-102-D00-0
 62
     7
370
    25
100
AcDbDimension
  2
*D23
 10
346.050515
 20
526.542785
 30
0.0
 11
411.060775
 21
557.342785
 31
0.0
 70
   160
  1
DN90
 71
     5
 42
90.2
  3
LC-DIM-L-0140-02-02
100
AcDbAlignedDimension
 13
255.850515
 23
560.740229
 33
0.0
 14
346.050515
 24
560.740229
 34
0.0
100
AcDbRotatedDimension
  0
DIMENSION
  5
408
330
1F
100
AcDbEntity
  8
LC-002-102-D00-0
 62
     7
370
    25
100
AcDbDimension
  2
*D24
 10
480.950515
 20
808.340235
 30
0.0
 11
301.879026
 21
839.140235
 31
0.0
 70
   160
  1
%%c<>
 71
     5
 42
360.0
  3
LC-DIM-L-0140-02-02
100
AcDbAlignedDimension
 13
120.950515
 23
714.240229
 33
0.0
 14
480.950515
 24
714.240229
 34
0.0
100
AcDbRotatedDimension
  0
LINE
  5
416
330
1F
100
AcDbEntity
  8
LC-002-102-D00-0
  6
DASHDOT
 62
     7
370
    25
100
AcDbLine
 10
300.950515
 20
555.240229
 30
0.0
 11
300.950515
 21
792.717941
 31
0.0
  0
DIMENSION
  5
418
330
1F
100
AcDbEntity
  8
LC-003-003-----0
 62
     7
370
    25
100
AcDbDimension
  2
*D25
 10
136.321979
 20
621.240228
 30
0.0
 11
105.521979
 21
669.696785
 31
0.0
 70
   160
 71
     5
 42
96.000001
 53
90.0
  3
LC-DIM-L-0140-02-02
100
AcDbAlignedDimension
 13
126.950517
 23
717.240229
 33
0.0
 14
228.950516
 24
621.240228
 34
0.0
 50
90.0
100
AcDbRotatedDimension
  0
ENDSEC
  0
SECTION
  2
OBJECTS
  0
DICTIONARY
  5
C
330
0
100
AcDbDictionary
281
     1
  3
ACAD_GROUP
350
D
  3
ACAD_LAYOUT
350
1A
  3
ACAD_MLINESTYLE
350
17
  3
ACAD_PLOTSETTINGS
350
19
  3
ACAD_PLOTSTYLENAME
350
E
  0
DICTIONARY
  5
D
102
{ACAD_REACTORS
330
C
102
}
330
C
100
AcDbDictionary
281
     1
  0
DICTIONARY
  5
1A
102
{ACAD_REACTORS
330
C
102
}
330
C
100
AcDbDictionary
281
     1
  3
Layout1
350
1E
  3
Layout2
350
26
  3
Model
350
22
  0
DICTIONARY
  5
17
102
{ACAD_REACTORS
330
C
102
}
330
C
100
AcDbDictionary
281
     1
  3
Standard
350
18
  0
DICTIONARY
  5
19
102
{ACAD_REACTORS
330
C
102
}
330
C
100
AcDbDictionary
281
     1
  0
ACDBDICTIONARYWDFLT
  5
E
102
{ACAD_REACTORS
330
C
102
}
330
C
100
AcDbDictionary
281
     1
  3
Normal
350
F
100
AcDbDictionaryWithDefault
340
F
  0
LAYOUT
  5
1E
102
{ACAD_REACTORS
330
1A
102
}
330
1A
100
AcDbPlotSettings
  1

  2

  4

  6

 40
0.0
 41
0.0
 42
0.0
 43
0.0
 44
0.0
 45
0.0
 46
0.0
 47
0.0
 48
0.0
 49
0.0
140
0.0
141
0.0
142
1.0
143
1.0
 70
   688
 72
     0
 73
     0
 74
     5
  7

 75
    16
147
1.0
148
0.0
149
0.0
100
AcDbLayout
  1
Layout1
 70
     1
 71
     1
 10
-63.248057
 20
286.566785
 11
776.751943
 21
880.566785
 12
0.0
 22
0.0
 32
0.0
 14
-63.248057
 24
286.566785
 34
0.0
 15
776.751943
 25
880.566785
 35
0.0
146
0.0
 13
0.0
 23
0.0
 33
0.0
 16
1.0
 26
0.0
 36
0.0
 17
0.0
 27
1.0
 37
0.0
 76
     0
330
1B
  0
LAYOUT
  5
26
102
{ACAD_REACTORS
330
1A
102
}
330
1A
100
AcDbPlotSettings
  1

  2

  4

  6

 40
0.0
 41
0.0
 42
0.0
 43
0.0
 44
0.0
 45
0.0
 46
0.0
 47
0.0
 48
0.0
 49
0.0
140
0.0
141
0.0
142
1.0
143
1.0
 70
   688
 72
     0
 73
     0
 74
     5
  7

 75
    16
147
1.0
148
0.0
149
0.0
100
AcDbLayout
  1
Layout2
 70
     1
 71
     2
 10
0.0
 20
0.0
 11
0.0
 21
0.0
 12
0.0
 22
0.0
 32
0.0
 14
0.0
 24
0.0
 34
0.0
 15
0.0
 25
0.0
 35
0.0
146
0.0
 13
0.0
 23
0.0
 33
0.0
 16
1.0
 26
0.0
 36
0.0
 17
0.0
 27
1.0
 37
0.0
 76
     0
330
23
  0
LAYOUT
  5
22
102
{ACAD_REACTORS
330
1A
102
}
330
1A
100
AcDbPlotSettings
  1

  2

  4

  6

 40
0.0
 41
0.0
 42
0.0
 43
0.0
 44
0.0
 45
0.0
 46
0.0
 47
0.0
 48
0.0
 49
0.0
140
0.0
141
0.0
142
1.0
143
1.0
 70
  1776
 72
     0
 73
     0
 74
     0
  7

 75
     0
147
1.0
148
0.0
149
0.0
100
AcDbLayout
  1
Model
 70
     1
 71
     0
 10
-63.248057
 20
286.566785
 11
776.751943
 21
880.566785
 12
-63.248057
 22
286.566785
 32
0.0
 14
-63.248057
 24
286.566785
 34
0.0
 15
776.751943
 25
880.566785
 35
0.0
146
0.0
 13
0.0
 23
0.0
 33
0.0
 16
1.0
 26
0.0
 36
0.0
 17
0.0
 27
1.0
 37
0.0
 76
     0
330
1F
  0
MLINESTYLE
  5
18
102
{ACAD_REACTORS
330
17
102
}
330
17
100
AcDbMlineStyle
  2
Standard
 70
     0
  3

 62
   256
 51
90.0
 52
90.0
 71
     2
 49
0.5
 62
   256
  6
BYLAYER
 49
-0.5
 62
   256
  6
BYLAYER
  0
ACDBPLACEHOLDER
  5
F
102
{ACAD_REACTORS
330
E
102
}
330
E
  0
ENDSEC
  0
EOF
