  0
SECTION
  2
HEADER
  9
$ACADVER
  1
AC1009
  9
$DWGCODEPAGE
  3
dos850
  9
$INSBASE
 10
126.043785
 20
338.233
 30
0.0
  9
$EXTMIN
 10
126.043785
 20
338.233
 30
0.0
  9
$EXTMAX
 10
966.043785
 20
932.233
 30
0.0
  9
$LIMMIN
 10
126.043785
 20
338.233
  9
$LIMMAX
 10
966.043785
 20
932.233
  9
$ORTHOMODE
 70
     0
  9
$REGENMODE
 70
     1
  9
$FILLMODE
 70
     1
  9
$QTEXTMODE
 70
     0
  9
$MIRRTEXT
 70
     1
  9
$DRAGMODE
 70
     2
  9
$LTSCALE
 40
2.0
  9
$OSMODE
 70
     0
  9
$ATTMODE
 70
     1
  9
$TEXTSIZE
 40
0.2
  9
$TRACEWID
 40
0.05
  9
$TEXTSTYLE
  7
STANDARD
  9
$CLAYER
  8
0
  9
$CELTYPE
  6
BYBLOCK
  9
$CECOLOR
 62
     7
  9
$DIMSCALE
 40
2.0
  9
$DIMASZ
 40
3.5
  9
$DIMEXO
 40
0.0625
  9
$DIMDLI
 40
0.38
  9
$DIMRND
 40
0.0
  9
$DIMDLE
 40
0.0
  9
$DIMEXE
 40
0.18
  9
$DIMTP
 40
0.0
  9
$DIMTM
 40
0.0
  9
$DIMTXT
 40
3.5
  9
$DIMCEN
 40
0.09
  9
$DIMTSZ
 40
0.0
  9
$DIMTOL
 70
     0
  9
$DIMLIM
 70
     0
  9
$DIMTIH
 70
     1
  9
$DIMTOH
 70
     1
  9
$DIMSE1
 70
     0
  9
$DIMSE2
 70
     0
  9
$DIMTAD
 70
     1
  9
$DIMZIN
 70
     0
  9
$DIMBLK
  1

  9
$DIMASO
 70
     1
  9
$DIMSHO
 70
     1
  9
$DIMPOST
  1

  9
$DIMAPOST
  1

  9
$DIMALT
 70
     0
  9
$DIMALTD
 70
     2
  9
$DIMALTF
 40
25.4
  9
$DIMLFAC
 40
1.0
  9
$DIMTOFL
 70
     0
  9
$DIMTVP
 40
0.0
  9
$DIMTIX
 70
     0
  9
$DIMSOXD
 70
     0
  9
$DIMSAH
 70
     0
  9
$DIMBLK1
  1

  9
$DIMBLK2
  1

  9
$DIMSTYLE
  2
STANDARD
  9
$DIMCLRD
 70
     0
  9
$DIMCLRE
 70
     0
  9
$DIMCLRT
 70
     0
  9
$DIMTFAC
 40
1.0
  9
$DIMGAP
 40
0.09
  9
$LUNITS
 70
     2
  9
$LUPREC
 70
     6
  9
$AXISMODE
 70
     0
  9
$AXISUNIT
 10
0.0
 20
0.0
  9
$SKETCHINC
 40
0.1
  9
$FILLETRAD
 40
0.0
  9
$AUNITS
 70
     0
  9
$AUPREC
 70
     0
  9
$MENU
  1
acad
  9
$ELEVATION
 40
0.0
  9
$PELEVATION
 40
0.0
  9
$THICKNESS
 40
0.0
  9
$LIMCHECK
 70
     0
  9
$BLIPMODE
 70
     1
  9
$CHAMFERA
 40
0.0
  9
$CHAMFERB
 40
0.0
  9
$SKPOLY
 70
     0
  9
$TDCREATE
 40
0.000000000
  9
$TDUPDATE
 40
0.000000000
  9
$TDINDWG
 40
0.0000000000
  9
$TDUSRTIMER
 40
0.0000000000
  9
$USRTIMER
 70
     1
  9
$ANGBASE
 50
0.0
  9
$ANGDIR
 70
     0
  9
$PDMODE
 70
     0
  9
$PDSIZE
 40
0.0
  9
$PLINEWID
 40
0.0
  9
$COORDS
 70
     0
  9
$SPLFRAME
 70
     0
  9
$SPLINETYPE
 70
     6
  9
$SPLINESEGS
 70
     8
  9
$ATTDIA
 70
     0
  9
$ATTREQ
 70
     1
  9
$HANDLING
 70
     1
  9
$HANDSEED
  5
8B
  9
$SURFTAB1
 70
     6
  9
$SURFTAB2
 70
     6
  9
$SURFTYPE
 70
     6
  9
$SURFU
 70
     6
  9
$SURFV
 70
     6
  9
$UCSNAME
  2

  9
$UCSORG
 10
0.0
 20
0.0
 30
0.0
  9
$UCSXDIR
 10
1.0
 20
0.0
 30
0.0
  9
$UCSYDIR
 10
0.0
 20
1.0
 30
0.0
  9
$PUCSNAME
  2

  9
$PUCSORG
 10
0.0
 20
0.0
 30
0.0
  9
$PUCSXDIR
 10
1.0
 20
0.0
 30
0.0
  9
$PUCSYDIR
 10
0.0
 20
1.0
 30
0.0
  9
$USERI1
 70
     0
  9
$USERI2
 70
     0
  9
$USERI3
 70
     0
  9
$USERI4
 70
     0
  9
$USERI5
 70
     0
  9
$USERR1
 40
0.0
  9
$USERR2
 40
0.0
  9
$USERR3
 40
0.0
  9
$USERR4
 40
0.0
  9
$USERR5
 40
0.0
  9
$WORLDVIEW
 70
     1
  9
$SHADEDGE
 70
     3
  9
$SHADEDIF
 70
    70
  9
$TILEMODE
 70
     1
  9
$MAXACTVP
 70
    16
  9
$PINSBASE
 10
0.0
 20
0.0
 30
0.0
  9
$PLIMCHECK
 70
     0
  9
$PEXTMIN
 10
126.043785
 20
338.233
 30
0.0
  9
$PEXTMAX
 10
966.043785
 20
932.233
 30
0.0
  9
$PLIMMIN
 10
126.043785
 20
338.233
  9
$PLIMMAX
 10
966.043785
 20
932.233
  9
$UNITMODE
 70
     0
  9
$VISRETAIN
 70
     0
  9
$PLINEGEN
 70
     1
  9
$PSLTSCALE
 70
     0
  9
$TREEDEPTH
 70
  3020
  0
ENDSEC
  0
SECTION
  2
TABLES
  0
TABLE
  2
VPORT
 70
     1
  0
VPORT
  2
*ACTIVE
 70
     0
 10
0.0
 20
0.0
 11
1.0
 21
1.0
 12
420.0
 22
297.0
 13
0.0
 23
0.0
 14
1.0
 24
1.0
 15
0.0
 25
0.0
 16
0.0
 26
0.0
 36
1.0
 17
126.043785
 27
338.233
 37
0.0
 40
594.0
 41
1.604229
 42
50.0
 43
0.0
 44
0.0
 50
0.0
 51
0.0
 71
     0
 72
   100
 73
     1
 74
     1
 75
     0
 76
     0
 77
     0
 78
     0
  0
ENDTAB
  0
TABLE
  2
LTYPE
 70
     3
  0
LTYPE
  2
CONTINUOUS
 70
    64
  3
Solid line
 72
    65
 73
     0
 40
0.0
  0
LTYPE
  2
DASHED
 70
    64
  3
__ __ __ __ __
 72
    65
 73
     2
 40
6.25
 49
5.0
 49
-1.25
  0
LTYPE
  2
DASHDOT
 70
    64
  3
__ . __ . __ . __ . __
 72
    65
 73
     4
 40
7.5
 49
5.0
 49
-1.25
 49
0.0
 49
-1.25
  0
ENDTAB
  0
TABLE
  2
LAYER
 70
    11
  0
LAYER
  2
0
 70
     0
 62
     7
  6
CONTINUOUS
  0
LAYER
  2
LC-INFO-1-2-MM-A3-0
 70
     1
 62
   255
  6
BYBLOCK
  0
LAYER
  2
LC-3D-HIDDEN
 70
     0
 62
     9
  6
DASHED
  0
LAYER
  2
LC-CUT-HIDDEN
 70
     0
 62
     9
  6
DASHED
  0
LAYER
  2
LC-VIEWPORT
 70
     0
 62
     7
  6
BYBLOCK
  0
LAYER
  2
LC-001-002-----0
 70
     0
 62
     2
  6
DASHDOT
  0
LAYER
  2
LC-002-007-KH--0
 70
     0
 62
    44
  6
DASHDOT
  0
LAYER
  2
LC-003-005-----0
 70
     0
 62
     2
  6
BYBLOCK
  0
LAYER
  2
LC-004-003-MTH-0
 70
     0
 62
     2
  6
BYBLOCK
  0
LAYER
  2
LC-005-003-MTG-0
 70
     0
 62
     2
  6
BYBLOCK
  0
LAYER
  2
LC-006-003-----0
 70
     0
 62
     2
  6
BYBLOCK
  0
ENDTAB
  0
TABLE
  2
STYLE
 70
     3
  0
STYLE
  2
STANDARD
 70
     0
 40
0.0
 41
1.0
 50
0.0
 71
     0
 42
0.0
  3
txt
  4

  0
STYLE
  2
LCTX15-400-0-0-ARIAL
 70
    64
 40
3.5
 41
1.0
 50
0.0
 71
     0
 42
0.0
  3
Arial
  4

  0
STYLE
  2
LCTX15-400-0-0-DIN-SCHRIFT__P_
 70
    64
 40
0.0
 41
1.0
 50
1.5
 71
     0
 42
3.5
  3
STANDARD
  4

  0
ENDTAB
  0
TABLE
  2
VIEW
 70
     0
  0
ENDTAB
  0
TABLE
  2
UCS
 70
     0
  0
ENDTAB
  0
TABLE
  2
APPID
 70
     1
  0
APPID
  2
ACAD
 70
     0
  0
ENDTAB
  0
TABLE
  2
DIMSTYLE
 70
     2
  0
DIMSTYLE
  2
STANDARD
 70
     0
  3

  4

  5

  6

  7

 40
1.0
 41
0.18
 42
0.0625
 43
0.38
 44
0.18
 45
0.0
 46
0.0
 47
0.0
 48
0.0
 71
     0
 72
     0
 73
     1
 74
     1
 75
     0
 76
     0
 77
     0
 78
     0
140
0.18
141
0.09
142
0.0
143
25.4
144
1.0
145
0.0
146
1.0
147
0.09
170
     0
171
     2
172
     0
173
     0
174
     0
175
     0
176
     0
177
     0
178
     0
  0
DIMSTYLE
  2
LC-DIM-L-0140-02-02
 70
     0
  3

  4

  5

  6

  7

 40
2.0
 41
3.5
 42
0.0
 43
7.5
 44
1.8
 45
0.0
 46
0.0
 47
0.0
 48
0.0
 71
     0
 72
     0
 73
     0
 74
     0
 75
     0
 76
     0
 77
     1
 78
     8
140
14.0
141
0.0
142
0.0
143
25.4
144
1.0
145
0.0
146
0.71
147
1.5
170
     0
171
     2
172
     0
173
     0
174
     0
175
     0
176
     2
177
     2
178
     2
  0
ENDTAB
  0
ENDSEC
  0
SECTION
  2
BLOCKS
  0
BLOCK
  8
0
  5
3A
  2
*X0
 70
    65
 10
0.0
 20
0.0
 30
0.0
  3
*X0
  0
LINE
  8
LC-003-005-----0
 62
     2
  5
3C
 10
449.461014
 20
721.507635
 30
0.0
 11
450.019361
 21
720.949289
 31
0.0
  0
LINE
  8
LC-003-005-----0
 62
     2
  5
3D
 10
449.461014
 20
722.921847
 30
0.0
 11
451.433575
 21
720.949289
 31
0.0
  0
LINE
  8
LC-003-005-----0
 62
     2
  5
3E
 10
450.847787
 20
722.949289
 30
0.0
 11
452.84779
 21
720.949289
 31
0.0
  0
LINE
  8
LC-003-005-----0
 62
     2
  5
3F
 10
452.262001
 20
722.949289
 30
0.0
 11
454.262004
 21
720.949289
 31
0.0
  0
LINE
  8
LC-003-005-----0
 62
     2
  5
40
 10
453.676216
 20
722.949289
 30
0.0
 11
454.461014
 21
722.164492
 31
0.0
  0
ENDBLK
  8
0
  5
41
  0
BLOCK
  8
0
  5
44
  2
*X1
 70
    65
 10
0.0
 20
0.0
 30
0.0
  3
*X1
  0
LINE
  8
LC-003-005-----0
 62
     2
  5
45
 10
607.989009
 20
721.371664
 30
0.0
 11
608.411385
 21
720.949289
 31
0.0
  0
LINE
  8
LC-003-005-----0
 62
     2
  5
46
 10
607.989009
 20
722.785877
 30
0.0
 11
609.825599
 21
720.949289
 31
0.0
  0
LINE
  8
LC-003-005-----0
 62
     2
  5
47
 10
609.239811
 20
722.949289
 30
0.0
 11
611.239814
 21
720.949289
 31
0.0
  0
LINE
  8
LC-003-005-----0
 62
     2
  5
48
 10
610.654025
 20
722.949289
 30
0.0
 11
612.654028
 21
720.949289
 31
0.0
  0
LINE
  8
LC-003-005-----0
 62
     2
  5
49
 10
612.06824
 20
722.949289
 30
0.0
 11
612.989009
 21
722.028521
 31
0.0
  0
ENDBLK
  8
0
  5
4A
  0
BLOCK
  8
0
  5
4F
  2
*D2
 70
    65
 10
0.0
 20
0.0
 30
0.0
  3
*D2
  0
LINE
  8
LC-004-003-MTH-0
 62
     2
  5
51
 10
449.461014
 20
722.949289
 30
0.0
 11
449.461014
 21
765.546429
 31
0.0
  0
LINE
  8
LC-004-003-MTH-0
 62
     2
  5
52
 10
612.989009
 20
722.949289
 30
0.0
 11
612.989009
 21
765.546429
 31
0.0
  0
LINE
  8
LC-005-003-MTG-0
 62
     2
  5
54
 10
449.461014
 20
748.746429
 30
0.0
 11
487.648478
 21
748.746429
 31
0.0
  0
LINE
  8
LC-005-003-MTG-0
 62
     2
  5
55
 10
589.295412
 20
748.746429
 30
0.0
 11
612.989009
 21
748.746429
 31
0.0
  0
LINE
  8
LC-006-003-----0
 62
     2
  5
57
 10
477.22147
 20
752.401163
 30
0.0
 11
449.461014
 21
748.746429
 31
0.0
  0
LINE
  8
LC-006-003-----0
 62
     2
  5
58
 10
449.461014
 20
748.746429
 30
0.0
 11
477.22147
 21
745.091696
 31
0.0
  0
LINE
  8
LC-006-003-----0
 62
     2
  5
59
 10
477.22147
 20
745.091696
 30
0.0
 11
477.22147
 21
752.401163
 31
0.0
  0
LINE
  8
LC-006-003-----0
 62
     2
  5
5A
 10
477.283752
 20
751.450932
 30
0.0
 11
456.741014
 21
748.746429
 31
0.0
  0
LINE
  8
LC-006-003-----0
 62
     2
  5
5B
 10
456.741014
 20
748.746429
 30
0.0
 11
477.283752
 21
746.041927
 31
0.0
  0
LINE
  8
LC-006-003-----0
 62
     2
  5
5C
 10
477.346033
 20
750.500701
 30
0.0
 11
464.021014
 21
748.746429
 31
0.0
  0
LINE
  8
LC-006-003-----0
 62
     2
  5
5D
 10
464.021014
 20
748.746429
 30
0.0
 11
477.346033
 21
746.992157
 31
0.0
  0
LINE
  8
LC-006-003-----0
 62
     2
  5
5E
 10
477.408315
 20
749.550471
 30
0.0
 11
471.301014
 21
748.746429
 31
0.0
  0
LINE
  8
LC-006-003-----0
 62
     2
  5
5F
 10
471.301014
 20
748.746429
 30
0.0
 11
477.408315
 21
747.942388
 31
0.0
  0
LINE
  8
LC-006-003-----0
 62
     2
  5
60
 10
589.295412
 20
745.627108
 30
0.0
 11
612.989009
 21
748.746429
 31
0.0
  0
LINE
  8
LC-006-003-----0
 62
     2
  5
61
 10
612.989009
 20
748.746429
 30
0.0
 11
589.295412
 21
751.865751
 31
0.0
  0
LINE
  8
LC-006-003-----0
 62
     2
  5
62
 10
589.295412
 20
746.585538
 30
0.0
 11
605.709009
 21
748.746429
 31
0.0
  0
LINE
  8
LC-006-003-----0
 62
     2
  5
63
 10
605.709009
 20
748.746429
 30
0.0
 11
589.295412
 21
750.90732
 31
0.0
  0
LINE
  8
LC-006-003-----0
 62
     2
  5
64
 10
589.295412
 20
747.543968
 30
0.0
 11
598.429009
 21
748.746429
 31
0.0
  0
LINE
  8
LC-006-003-----0
 62
     2
  5
65
 10
598.429009
 20
748.746429
 30
0.0
 11
589.295412
 21
749.94889
 31
0.0
  0
LINE
  8
LC-006-003-----0
 62
     2
  5
66
 10
589.295412
 20
748.502399
 30
0.0
 11
591.149009
 21
748.746429
 31
0.0
  0
LINE
  8
LC-006-003-----0
 62
     2
  5
67
 10
591.149009
 20
748.746429
 30
0.0
 11
589.295412
 21
748.99046
 31
0.0
  0
TEXT
  8
LC-006-003-----0
 62
     8
  5
68
 10
486.923785
 20
751.164799
 30
0.0
 40
28.0
  1
163,5
 41
0.9
 51
15.0
  7
LCTX15-400-0-0-ARIAL
 72
     1
 11
534.123785
 21
751.164799
 31
0.0
  0
ENDBLK
  8
0
  5
69
  0
BLOCK
  8
0
  5
6D
  2
*D3
 70
    65
 10
0.0
 20
0.0
 30
0.0
  3
*D3
  0
LINE
  8
LC-004-003-MTH-0
 62
     2
  5
6E
 10
612.989009
 20
425.347
 30
0.0
 11
682.455194
 21
425.347
 31
0.0
  0
LINE
  8
LC-004-003-MTH-0
 62
     2
  5
6F
 10
612.989009
 20
644.347
 30
0.0
 11
682.455194
 21
644.347
 31
0.0
  0
LINE
  8
LC-005-003-MTG-0
 62
     2
  5
70
 10
665.655194
 20
425.347
 30
0.0
 11
665.655194
 21
503.270467
 31
0.0
  0
LINE
  8
LC-005-003-MTG-0
 62
     2
  5
71
 10
665.655194
 20
580.9174
 30
0.0
 11
665.655194
 21
644.347
 31
0.0
  0
LINE
  8
LC-006-003-----0
 62
     2
  5
72
 10
662.00046
 20
453.107456
 30
0.0
 11
665.655194
 21
425.347
 31
0.0
  0
LINE
  8
LC-006-003-----0
 62
     2
  5
73
 10
665.655194
 20
425.347
 30
0.0
 11
669.309927
 21
453.107456
 31
0.0
  0
LINE
  8
LC-006-003-----0
 62
     2
  5
74
 10
669.309927
 20
453.107456
 30
0.0
 11
662.00046
 21
453.107456
 31
0.0
  0
LINE
  8
LC-006-003-----0
 62
     2
  5
75
 10
662.950691
 20
453.169738
 30
0.0
 11
665.655194
 21
432.627
 31
0.0
  0
LINE
  8
LC-006-003-----0
 62
     2
  5
76
 10
665.655194
 20
432.627
 30
0.0
 11
668.359696
 21
453.169738
 31
0.0
  0
LINE
  8
LC-006-003-----0
 62
     2
  5
77
 10
663.900921
 20
453.232019
 30
0.0
 11
665.655194
 21
439.907
 31
0.0
  0
LINE
  8
LC-006-003-----0
 62
     2
  5
78
 10
665.655194
 20
439.907
 30
0.0
 11
667.409466
 21
453.232019
 31
0.0
  0
LINE
  8
LC-006-003-----0
 62
     2
  5
79
 10
664.851152
 20
453.2943
 30
0.0
 11
665.655194
 21
447.187
 31
0.0
  0
LINE
  8
LC-006-003-----0
 62
     2
  5
7A
 10
665.655194
 20
447.187
 30
0.0
 11
666.459235
 21
453.2943
 31
0.0
  0
LINE
  8
LC-006-003-----0
 62
     2
  5
7B
 10
669.309927
 20
616.586544
 30
0.0
 11
665.655194
 21
644.347
 31
0.0
  0
LINE
  8
LC-006-003-----0
 62
     2
  5
7C
 10
665.655194
 20
644.347
 30
0.0
 11
662.00046
 21
616.586544
 31
0.0
  0
LINE
  8
LC-006-003-----0
 62
     2
  5
7D
 10
662.00046
 20
616.586544
 30
0.0
 11
669.309927
 21
616.586544
 31
0.0
  0
LINE
  8
LC-006-003-----0
 62
     2
  5
7E
 10
668.359696
 20
616.524262
 30
0.0
 11
665.655194
 21
637.067
 31
0.0
  0
LINE
  8
LC-006-003-----0
 62
     2
  5
7F
 10
665.655194
 20
637.067
 30
0.0
 11
662.950691
 21
616.524262
 31
0.0
  0
LINE
  8
LC-006-003-----0
 62
     2
  5
80
 10
667.409466
 20
616.461981
 30
0.0
 11
665.655194
 21
629.787
 31
0.0
  0
LINE
  8
LC-006-003-----0
 62
     2
  5
81
 10
665.655194
 20
629.787
 30
0.0
 11
663.900921
 21
616.461981
 31
0.0
  0
LINE
  8
LC-006-003-----0
 62
     2
  5
82
 10
666.459235
 20
616.3997
 30
0.0
 11
665.655194
 21
622.507
 31
0.0
  0
LINE
  8
LC-006-003-----0
 62
     2
  5
83
 10
665.655194
 20
622.507
 30
0.0
 11
664.851152
 21
616.3997
 31
0.0
  0
TEXT
  8
LC-006-003-----0
 62
     8
  5
84
 10
657.82764
 20
503.99516
 30
0.0
 40
28.0
  1
219
 50
90.0
 41
0.9
 51
15.0
  7
LCTX15-400-0-0-ARIAL
 72
     1
 11
657.82764
 21
539.19516
 31
0.0
  0
ENDBLK
  8
0
  5
85
  0
ENDSEC
  0
SECTION
  2
ENTITIES
  0
VIEWPORT
  8
LC-VIEWPORT
  5
87
 67
     1
 68
     1
 10
420.0
 20
297.0
 30
0.0
 40
840.0
 41
594.0
 69
     1
1001
ACAD
1000
MVIEW
1002
{
1070
    16
1010
0.0
1020
0.0
1030
0.0
1010
0.0
1020
0.0
1030
1.0
1040
0.0
1040
594.0
1040
420.0
1040
297.0
1040
50.0
1040
0.0
1040
0.0
1070
     0
1070
   100
1070
     1
1070
     1
1070
     0
1070
     0
1070
     0
1070
     0
1040
0.0
1040
0.0
1040
0.0
1040
1.0
1040
1.0
1040
0.0
1040
0.0
1070
     0
1002
{
1002
}
1002
}
  0
LINE
  8
LC-001-002-----0
 62
     2
  5
26
 10
531.225012
 20
644.347
 30
0.0
 11
531.225012
 21
425.347
 31
0.0
  0
LINE
  8
LC-001-002-----0
  6
BYBLOCK
 62
     1
  5
27
 10
449.461014
 20
644.347
 30
0.0
 11
449.461014
 21
425.347
 31
0.0
  0
LINE
  8
LC-001-002-----0
  6
BYBLOCK
 62
     1
  5
28
 10
449.461014
 20
425.347
 30
0.0
 11
612.989009
 21
425.347
 31
0.0
  0
LINE
  8
LC-001-002-----0
  6
BYBLOCK
 62
     1
  5
29
 10
612.989009
 20
644.347
 30
0.0
 11
612.989009
 21
425.347
 31
0.0
  0
LINE
  8
LC-001-002-----0
  6
BYBLOCK
 62
     1
  5
2A
 10
454.461014
 20
639.347
 30
0.0
 11
454.461014
 21
430.347
 31
0.0
  0
LINE
  8
LC-001-002-----0
  6
BYBLOCK
 62
     1
  5
2B
 10
454.461014
 20
430.347
 30
0.0
 11
607.989009
 21
430.347
 31
0.0
  0
LINE
  8
LC-001-002-----0
  6
BYBLOCK
 62
     1
  5
2C
 10
607.989009
 20
639.347
 30
0.0
 11
607.989009
 21
430.347
 31
0.0
  0
LINE
  8
LC-001-002-----0
  6
BYBLOCK
 62
     1
  5
2D
 10
449.461014
 20
644.347
 30
0.0
 11
612.989009
 21
644.347
 31
0.0
  0
LINE
  8
LC-001-002-----0
 62
     2
  5
2E
 10
612.989009
 20
534.847
 30
0.0
 11
449.461014
 21
534.847
 31
0.0
  0
LINE
  8
LC-001-002-----0
  6
BYBLOCK
 62
     1
  5
2F
 10
454.461014
 20
639.347
 30
0.0
 11
607.989009
 21
639.347
 31
0.0
  0
LINE
  8
LC-002-007-KH--0
 62
    44
  5
31
 10
1415.951819
 20
-9032647.619525
 30
0.0
 11
1415.951819
 21
9033859.873525
 31
0.0
  0
LINE
  8
LC-001-002-----0
  6
BYBLOCK
 62
     1
  5
32
 10
449.461014
 20
722.949289
 30
0.0
 11
607.989009
 21
722.949289
 31
0.0
  0
LINE
  8
LC-001-002-----0
  6
BYBLOCK
 62
     1
  5
33
 10
454.461014
 20
722.949289
 30
0.0
 11
454.461014
 21
720.949289
 31
0.0
  0
LINE
  8
LC-001-002-----0
  6
BYBLOCK
 62
     1
  5
34
 10
607.989009
 20
720.949289
 30
0.0
 11
449.461014
 21
720.949289
 31
0.0
  0
LINE
  8
LC-001-002-----0
  6
BYBLOCK
 62
     1
  5
35
 10
607.989009
 20
720.949289
 30
0.0
 11
607.989009
 21
722.949289
 31
0.0
  0
LINE
  8
LC-001-002-----0
  6
BYBLOCK
 62
     1
  5
36
 10
607.989009
 20
722.949289
 30
0.0
 11
612.989009
 21
722.949289
 31
0.0
  0
LINE
  8
LC-001-002-----0
  6
BYBLOCK
 62
     1
  5
37
 10
612.989009
 20
722.949289
 30
0.0
 11
612.989009
 21
720.949289
 31
0.0
  0
LINE
  8
LC-001-002-----0
  6
BYBLOCK
 62
     1
  5
38
 10
612.989009
 20
720.949289
 30
0.0
 11
607.989009
 21
720.949289
 31
0.0
  0
INSERT
  8
LC-003-005-----0
 62
     2
  5
42
  2
*X0
 10
0.0
 20
0.0
 30
0.0
  0
INSERT
  8
LC-003-005-----0
 62
     2
  5
4B
  2
*X1
 10
0.0
 20
0.0
 30
0.0
  0
DIMENSION
  8
LC-006-003-----0
 62
     2
  5
6A
  2
*D2
 10
531.225012
 20
748.746429
 30
0.0
 11
531.225012
 21
748.746429
 31
0.0
  1
163,5
 13
449.461014
 23
722.949289
 33
0.0
 14
612.989009
 24
722.949289
 34
0.0
  3
LC-DIM-L-0140-02-02
  0
LINE
  8
LC-001-002-----0
  6
BYBLOCK
 62
     1
  5
6B
 10
449.461014
 20
722.949289
 30
0.0
 11
449.461014
 21
720.949289
 31
0.0
  0
DIMENSION
  8
LC-006-003-----0
 62
     2
  5
86
  2
*D3
 10
665.655194
 20
534.847
 30
0.0
 11
665.655194
 21
534.847
 31
0.0
 13
612.989009
 23
644.347
 33
0.0
 14
612.989009
 24
425.347
 34
0.0
 50
90.0
  3
LC-DIM-L-0140-02-02
  0
ENDSEC
  0
EOF
