  0
SECTION
  2
HEADER
  9
$ACADVER
  1
AC1009
  9
$INSBASE
 10
0.0
 20
0.0
 30
0.0
  9
$EXTMIN
 10
-123.0
 20
-87.0
 30
0.0
  9
$EXTMAX
 10
717.0
 20
507.0
 30
0.0
  9
$LIMMIN
 10
-123.0
 20
-87.0
  9
$LIMMAX
 10
717.0
 20
507.0
  9
$ORTHOMODE
 70
     0
  9
$REGENMODE
 70
     1
  9
$FILLMODE
 70
     1
  9
$QTEXTMODE
 70
     0
  9
$MIRRTEXT
 70
     1
  9
$DRAGMODE
 70
     2
  9
$LTSCALE
 40
2.0
  9
$OSMODE
 70
     0
  9
$ATTMODE
 70
     1
  9
$TEXTSIZE
 40
0.2
  9
$TRACEWID
 40
0.05
  9
$TEXTSTYLE
  7
STANDARD
  9
$CLAYER
  8
0
  9
$CELTYPE
  6
BYLAYER
  9
$CECOLOR
 62
     7
  9
$DIMSCALE
 40
2.0
  9
$DIMASZ
 40
3.5
  9
$DIMEXO
 40
0.0625
  9
$DIMDLI
 40
0.38
  9
$DIMRND
 40
0.0
  9
$DIMDLE
 40
0.0
  9
$DIMEXE
 40
0.18
  9
$DIMTP
 40
0.0
  9
$DIMTM
 40
0.0
  9
$DIMTXT
 40
3.5
  9
$DIMCEN
 40
0.09
  9
$DIMTSZ
 40
0.0
  9
$DIMTOL
 70
     0
  9
$DIMLIM
 70
     0
  9
$DIMTIH
 70
     1
  9
$DIMTOH
 70
     1
  9
$DIMSE1
 70
     0
  9
$DIMSE2
 70
     0
  9
$DIMTAD
 70
     1
  9
$DIMZIN
 70
     0
  9
$DIMBLK
  1

  9
$DIMASO
 70
     1
  9
$DIMSHO
 70
     1
  9
$DIMPOST
  1

  9
$DIMAPOST
  1

  9
$DIMALT
 70
     0
  9
$DIMALTD
 70
     2
  9
$DIMALTF
 40
25.4
  9
$DIMLFAC
 40
1.0
  9
$DIMTOFL
 70
     0
  9
$DIMTVP
 40
0.0
  9
$DIMTIX
 70
     0
  9
$DIMSOXD
 70
     0
  9
$DIMSAH
 70
     0
  9
$DIMBLK1
  1

  9
$DIMBLK2
  1

  9
$DIMSTYLE
  2
STANDARD
  9
$DIMCLRD
 70
     0
  9
$DIMCLRE
 70
     0
  9
$DIMCLRT
 70
     0
  9
$DIMTFAC
 40
1.0
  9
$DIMGAP
 40
0.09
  9
$LUNITS
 70
     2
  9
$LUPREC
 70
     2
  9
$AXISMODE
 70
     0
  9
$AXISUNIT
 10
0.0
 20
0.0
  9
$SKETCHINC
 40
0.1
  9
$FILLETRAD
 40
0.0
  9
$AUNITS
 70
     0
  9
$AUPREC
 70
     0
  9
$MENU
  1
acad
  9
$ELEVATION
 40
0.0
  9
$PELEVATION
 40
0.0
  9
$THICKNESS
 40
0.0
  9
$LIMCHECK
 70
     0
  9
$BLIPMODE
 70
     1
  9
$CHAMFERA
 40
0.0
  9
$CHAMFERB
 40
0.0
  9
$SKPOLY
 70
     0
  9
$TDCREATE
 40
0.000000000
  9
$TDUPDATE
 40
0.000000000
  9
$TDINDWG
 40
0.0000000000
  9
$TDUSRTIMER
 40
0.0000000000
  9
$USRTIMER
 70
     1
  9
$ANGBASE
 50
0.0
  9
$ANGDIR
 70
     0
  9
$PDMODE
 70
     0
  9
$PDSIZE
 40
0.0
  9
$PLINEWID
 40
0.0
  9
$COORDS
 70
     0
  9
$SPLFRAME
 70
     0
  9
$SPLINETYPE
 70
     6
  9
$SPLINESEGS
 70
     8
  9
$ATTDIA
 70
     0
  9
$ATTREQ
 70
     1
  9
$HANDLING
 70
     1
  9
$HANDSEED
  5
6B1
  9
$SURFTAB1
 70
     6
  9
$SURFTAB2
 70
     6
  9
$SURFTYPE
 70
     6
  9
$SURFU
 70
     6
  9
$SURFV
 70
     6
  9
$UCSNAME
  2

  9
$UCSORG
 10
0.0
 20
0.0
 30
0.0
  9
$UCSXDIR
 10
1.0
 20
0.0
 30
0.0
  9
$UCSYDIR
 10
0.0
 20
1.0
 30
0.0
  9
$PUCSNAME
  2

  9
$PUCSORG
 10
0.0
 20
0.0
 30
0.0
  9
$PUCSXDIR
 10
1.0
 20
0.0
 30
0.0
  9
$PUCSYDIR
 10
0.0
 20
1.0
 30
0.0
  9
$USERI1
 70
     0
  9
$USERI2
 70
     0
  9
$USERI3
 70
     0
  9
$USERI4
 70
     0
  9
$USERI5
 70
     0
  9
$USERR1
 40
0.0
  9
$USERR2
 40
0.0
  9
$USERR3
 40
0.0
  9
$USERR4
 40
0.0
  9
$USERR5
 40
0.0
  9
$WORLDVIEW
 70
     1
  9
$SHADEDGE
 70
     3
  9
$SHADEDIF
 70
    70
  9
$TILEMODE
 70
     1
  9
$MAXACTVP
 70
    16
  9
$PINSBASE
 10
0.0
 20
0.0
 30
0.0
  9
$PLIMCHECK
 70
     0
  9
$PEXTMIN
 10
1.000000E+20
 20
1.000000E+20
 30
1.000000E+20
  9
$PEXTMAX
 10
-1.000000E+20
 20
-1.000000E+20
 30
-1.000000E+20
  9
$PLIMMIN
 10
-123.0
 20
-87.0
  9
$PLIMMAX
 10
717.0
 20
507.0
  9
$UNITMODE
 70
     0
  9
$VISRETAIN
 70
     0
  9
$PLINEGEN
 70
     1
  9
$PSLTSCALE
 70
     0
  9
$TREEDEPTH
 70
  3020
  9
$DWGCODEPAGE
  3
dos850
  0
ENDSEC
  0
SECTION
  2
TABLES
  0
TABLE
  2
VPORT
 70
     1
  0
VPORT
  2
*ACTIVE
 70
     0
 10
0.0
 20
0.0
 11
1.0
 21
1.0
 12
420.0
 22
297.0
 13
0.0
 23
0.0
 14
1.0
 24
1.0
 15
0.0
 25
0.0
 16
0.0
 26
0.0
 36
1.0
 17
-123.0
 27
-87.0
 37
0.0
 40
594.0
 41
1.604229
 42
50.0
 43
0.0
 44
0.0
 50
0.0
 51
0.0
 71
     0
 72
   100
 73
     1
 74
     1
 75
     0
 76
     0
 77
     0
 78
     0
  0
ENDTAB
  0
TABLE
  2
LTYPE
 70
     3
  0
LTYPE
  2
CONTINUOUS
 70
    64
  3
Solid line
 72
    65
 73
     0
 40
0.0
  0
LTYPE
  2
DASHDOT
 70
    64
  3
__ . __ . __ . __ . __
 72
    65
 73
     4
 40
7.5
 49
5.0
 49
-1.25
 49
0.0
 49
-1.25
  0
LTYPE
  2
CENTER
 70
    64
  3
__ . __ . __ . __ . __
 72
    65
 73
     4
 40
7.5
 49
5.0
 49
-1.25
 49
0.0
 49
-1.25
  0
ENDTAB
  0
TABLE
  2
LAYER
 70
    12
  0
LAYER
  2
0
 70
     0
 62
     7
  6
CONTINUOUS
  0
LAYER
  2
LC-INFO-1-2-MM-A3-0
 70
     1
 62
    -1
  6
CONTINUOUS
  0
LAYER
  2
LC-004-003-MTH-0
 70
     0
 62
     2
  6
CONTINUOUS
  0
LAYER
  2
LC-005-003-MTG-0
 70
     0
 62
     2
  6
CONTINUOUS
  0
LAYER
  2
LC-003-003-----0
 70
     0
 62
     2
  6
CONTINUOUS
  0
LAYER
  2
LC-006-005-----0
 70
     0
 62
     2
  6
CONTINUOUS
  0
LAYER
  2
LC-001-002-----0
 70
     0
 62
     1
  6
CONTINUOUS
  0
LAYER
  2
LC-008-000-----0
 70
     0
 62
     7
  6
CONTINUOUS
  0
LAYER
  2
LC-002-002-RND-0
 70
     0
 62
     1
  6
CONTINUOUS
  0
LAYER
  2
LC-007-004-----0
 70
     0
 62
     1
  6
CONTINUOUS
  0
LAYER
  2
LC-009-006-MLN-0
 70
     0
 62
     2
  6
CENTER
  0
LAYER
  2
LC-000
 70
     0
 62
     7
  6
CONTINUOUS
  0
ENDTAB
  0
TABLE
  2
STYLE
 70
     4
  0
STYLE
  2
STANDARD
 70
     0
 40
0.0
 41
1.0
 50
0.0
 71
     0
 42
0.0
  3
txt
  4

  0
STYLE
  2
LC-STANDARD
 70
    64
 40
0.0
 41
1.0
 50
0.0
 71
     0
 42
3.5
  3
MONOTXT
  4

  0
STYLE
  2
LC-TXTSTYLE-150-400-0-0-D2
 70
    64
 40
0.0
 41
1.0
 50
15.0
 71
     0
 42
3.5
  3
MONOTXT
  4

  0
STYLE
  2
LC-TXTSTYLE-150-400-0-0-D3
 70
    64
 40
0.0
 41
1.0
 50
15.0
 71
     0
 42
3.5
  3
LC-STANDARD
  4

  0
ENDTAB
  0
TABLE
  2
VIEW
 70
     0
  0
ENDTAB
  0
TABLE
  2
UCS
 70
     0
  0
ENDTAB
  0
TABLE
  2
APPID
 70
     1
  0
APPID
  2
ACAD
 70
     0
  0
ENDTAB
  0
TABLE
  2
DIMSTYLE
 70
     4
  0
DIMSTYLE
  2
STANDARD
 70
     0
  3

  4

  5

  6

  7

 40
1.0
 41
0.18
 42
0.0625
 43
0.38
 44
0.18
 45
0.0
 46
0.0
 47
0.0
 48
0.0
 71
     0
 72
     0
 73
     1
 74
     1
 75
     0
 76
     0
 77
     0
 78
     0
140
0.18
141
0.09
142
0.0
143
25.4
144
1.0
145
0.0
146
1.0
147
0.09
170
     0
171
     2
172
     0
173
     0
174
     0
175
     0
176
     0
177
     0
178
     0
  0
DIMSTYLE
  2
LC-STANDARD
 70
     0
  3

  4

  5

  6

  7

 40
1.0
 41
3.5
 42
0.0
 43
7.5
 44
1.8
 45
0.0
 46
0.0
 47
0.0
 48
0.0
 71
     0
 72
     0
 73
     0
 74
     0
 75
     0
 76
     0
 77
     1
 78
     8
140
3.5
141
0.0
142
0.0
143
25.4
144
1.0
145
0.0
146
0.71
147
1.5
170
     0
171
     2
172
     1
173
     0
174
     0
175
     0
176
     0
177
     0
178
     3
  0
DIMSTYLE
  2
LC-DIM-L-0090-02-02
 70
     0
  3

  4

  5

  6

  7

 40
2.0
 41
3.5
 42
0.0
 43
7.5
 44
1.8
 45
0.0
 46
0.0
 47
0.0
 48
0.0
 71
     0
 72
     0
 73
     0
 74
     0
 75
     0
 76
     0
 77
     1
 78
     8
140
9.0
141
0.0
142
0.0
143
25.4
144
1.0
145
0.0
146
0.71
147
1.5
170
     0
171
     2
172
     0
173
     0
174
     0
175
     0
176
     2
177
     2
178
     6
  0
DIMSTYLE
  2
LC-DIM-L-0090-01-02
 70
     0
  3

  4

  5

  6

  7

 40
2.0
 41
3.5
 42
0.0
 43
7.5
 44
1.8
 45
0.0
 46
0.0
 47
0.0
 48
0.0
 71
     0
 72
     0
 73
     0
 74
     0
 75
     0
 76
     0
 77
     1
 78
     8
140
9.0
141
0.0
142
0.0
143
25.4
144
1.0
145
0.0
146
0.71
147
1.5
170
     0
171
     2
172
     0
173
     0
174
     0
175
     0
176
     2
177
     2
178
     6
  0
ENDTAB
  0
ENDSEC
  0
SECTION
  2
BLOCKS
  0
BLOCK
  8
0
  5
24
  2
*D0
 70
    65
 10
0.0
 20
0.0
 30
0.0
  3
*D0
  0
LINE
  8
LC-004-003-MTH-0
  6
CONTINUOUS
  5
26
 10
235.119366
 20
170.065542
 30
0.0
 11
101.2
 21
170.065542
 31
0.0
  0
LINE
  8
LC-004-003-MTH-0
  6
CONTINUOUS
  5
27
 10
131.383113
 20
254.621405
 30
0.0
 11
101.2
 21
254.621405
 31
0.0
  0
LINE
  8
LC-005-003-MTG-0
  6
CONTINUOUS
  5
29
 10
112.0
 20
170.065542
 30
0.0
 11
112.0
 21
254.621405
 31
0.0
  0
LINE
  8
LC-003-003-----0
  6
CONTINUOUS
  5
2B
 10
109.650529
 20
187.91155
 30
0.0
 11
112.0
 21
170.065542
 31
0.0
  0
LINE
  8
LC-003-003-----0
  6
CONTINUOUS
  5
2C
 10
112.0
 20
170.065542
 30
0.0
 11
114.349471
 21
187.91155
 31
0.0
  0
LINE
  8
LC-003-003-----0
  6
CONTINUOUS
  5
2D
 10
114.349471
 20
187.91155
 30
0.0
 11
109.650529
 21
187.91155
 31
0.0
  0
LINE
  8
LC-003-003-----0
  6
CONTINUOUS
  5
2E
 10
110.261391
 20
187.951588
 30
0.0
 11
112.0
 21
174.745542
 31
0.0
  0
LINE
  8
LC-003-003-----0
  6
CONTINUOUS
  5
2F
 10
112.0
 20
174.745542
 30
0.0
 11
113.738609
 21
187.951588
 31
0.0
  0
LINE
  8
LC-003-003-----0
  6
CONTINUOUS
  5
30
 10
110.872254
 20
187.991626
 30
0.0
 11
112.0
 21
179.425542
 31
0.0
  0
LINE
  8
LC-003-003-----0
  6
CONTINUOUS
  5
31
 10
112.0
 20
179.425542
 30
0.0
 11
113.127746
 21
187.991626
 31
0.0
  0
LINE
  8
LC-003-003-----0
  6
CONTINUOUS
  5
32
 10
111.483116
 20
188.031664
 30
0.0
 11
112.0
 21
184.105542
 31
0.0
  0
LINE
  8
LC-003-003-----0
  6
CONTINUOUS
  5
33
 10
112.0
 20
184.105542
 30
0.0
 11
112.516884
 21
188.031664
 31
0.0
  0
LINE
  8
LC-003-003-----0
  6
CONTINUOUS
  5
34
 10
114.349471
 20
236.775397
 30
0.0
 11
112.0
 21
254.621405
 31
0.0
  0
LINE
  8
LC-003-003-----0
  6
CONTINUOUS
  5
35
 10
112.0
 20
254.621405
 30
0.0
 11
109.650529
 21
236.775397
 31
0.0
  0
LINE
  8
LC-003-003-----0
  6
CONTINUOUS
  5
36
 10
109.650529
 20
236.775397
 30
0.0
 11
114.349471
 21
236.775397
 31
0.0
  0
LINE
  8
LC-003-003-----0
  6
CONTINUOUS
  5
37
 10
113.738609
 20
236.735359
 30
0.0
 11
112.0
 21
249.941405
 31
0.0
  0
LINE
  8
LC-003-003-----0
  6
CONTINUOUS
  5
38
 10
112.0
 20
249.941405
 30
0.0
 11
110.261391
 21
236.735359
 31
0.0
  0
LINE
  8
LC-003-003-----0
  6
CONTINUOUS
  5
39
 10
113.127746
 20
236.695321
 30
0.0
 11
112.0
 21
245.261405
 31
0.0
  0
LINE
  8
LC-003-003-----0
  6
CONTINUOUS
  5
3A
 10
112.0
 20
245.261405
 30
0.0
 11
110.872254
 21
236.695321
 31
0.0
  0
LINE
  8
LC-003-003-----0
  6
CONTINUOUS
  5
3B
 10
112.516884
 20
236.655283
 30
0.0
 11
112.0
 21
240.581405
 31
0.0
  0
LINE
  8
LC-003-003-----0
  6
CONTINUOUS
  5
3C
 10
112.0
 20
240.581405
 30
0.0
 11
111.483116
 21
236.655283
 31
0.0
  0
TEXT
  8
LC-003-003-----0
  6
CONTINUOUS
 62
     6
  5
3E
 10
101.568001
 20
203.275727
 30
0.0
 40
18.0
  1
85
 50
90.0
 41
0.9
 51
15.0
  7
LC-TXTSTYLE-150-400-0-0-D0
 72
     1
 11
101.568001
 21
215.138719
 31
0.0
  0
ENDBLK
  8
0
  5
3F
  0
BLOCK
  8
0
  5
41
  2
*X1
 70
    65
 10
37.018239
 20
258.494222
 30
0.0
  3
*X1
  0
LINE
  8
LC-006-005-----0
  6
CONTINUOUS
  5
43
 10
39.008277
 20
258.494222
 30
0.0
 11
39.267749
 21
258.753694
 31
0.0
  0
LINE
  8
LC-006-005-----0
  6
CONTINUOUS
  5
44
 10
38.725434
 20
258.494222
 30
0.0
 11
39.267749
 21
259.036537
 31
0.0
  0
LINE
  8
LC-006-005-----0
  6
CONTINUOUS
  5
45
 10
38.442592
 20
258.494222
 30
0.0
 11
39.267749
 21
259.31938
 31
0.0
  0
LINE
  8
LC-006-005-----0
  6
CONTINUOUS
  5
46
 10
38.159749
 20
258.494222
 30
0.0
 11
39.267749
 21
259.602222
 31
0.0
  0
LINE
  8
LC-006-005-----0
  6
CONTINUOUS
  5
47
 10
37.876906
 20
258.494222
 30
0.0
 11
39.267749
 21
259.885065
 31
0.0
  0
LINE
  8
LC-006-005-----0
  6
CONTINUOUS
  5
48
 10
37.594064
 20
258.494222
 30
0.0
 11
39.267749
 21
260.167908
 31
0.0
  0
LINE
  8
LC-006-005-----0
  6
CONTINUOUS
  5
49
 10
37.311221
 20
258.494222
 30
0.0
 11
39.267749
 21
260.45075
 31
0.0
  0
LINE
  8
LC-006-005-----0
  6
CONTINUOUS
  5
4A
 10
37.028378
 20
258.494222
 30
0.0
 11
39.267749
 21
260.733593
 31
0.0
  0
LINE
  8
LC-006-005-----0
  6
CONTINUOUS
  5
4B
 10
37.018239
 20
258.766925
 30
0.0
 11
39.267749
 21
261.016436
 31
0.0
  0
LINE
  8
LC-006-005-----0
  6
CONTINUOUS
  5
4C
 10
37.018239
 20
259.049768
 30
0.0
 11
39.267749
 21
261.299279
 31
0.0
  0
LINE
  8
LC-006-005-----0
  6
CONTINUOUS
  5
4D
 10
37.018239
 20
259.332611
 30
0.0
 11
39.17985
 21
261.494222
 31
0.0
  0
LINE
  8
LC-006-005-----0
  6
CONTINUOUS
  5
4E
 10
37.018239
 20
259.615453
 30
0.0
 11
38.897007
 21
261.494222
 31
0.0
  0
LINE
  8
LC-006-005-----0
  6
CONTINUOUS
  5
4F
 10
37.018239
 20
259.898296
 30
0.0
 11
38.614165
 21
261.494222
 31
0.0
  0
LINE
  8
LC-006-005-----0
  6
CONTINUOUS
  5
50
 10
37.018239
 20
260.181139
 30
0.0
 11
38.331322
 21
261.494222
 31
0.0
  0
LINE
  8
LC-006-005-----0
  6
CONTINUOUS
  5
51
 10
37.018239
 20
260.463982
 30
0.0
 11
38.048479
 21
261.494222
 31
0.0
  0
LINE
  8
LC-006-005-----0
  6
CONTINUOUS
  5
52
 10
37.018239
 20
260.746824
 30
0.0
 11
37.765636
 21
261.494222
 31
0.0
  0
LINE
  8
LC-006-005-----0
  6
CONTINUOUS
  5
53
 10
37.018239
 20
261.029667
 30
0.0
 11
37.482794
 21
261.494222
 31
0.0
  0
LINE
  8
LC-006-005-----0
  6
CONTINUOUS
  5
54
 10
37.018239
 20
261.31251
 30
0.0
 11
37.199951
 21
261.494222
 31
0.0
  0
ENDBLK
  8
0
  5
55
  0
BLOCK
  8
0
  5
57
  2
*X2
 70
    65
 10
44.267749
 20
258.494222
 30
0.0
  3
*X2
  0
LINE
  8
LC-006-005-----0
  6
CONTINUOUS
  5
58
 10
49.190615
 20
258.494222
 30
0.0
 11
49.267749
 21
258.571357
 31
0.0
  0
LINE
  8
LC-006-005-----0
  6
CONTINUOUS
  5
59
 10
48.907772
 20
258.494222
 30
0.0
 11
49.267749
 21
258.854199
 31
0.0
  0
LINE
  8
LC-006-005-----0
  6
CONTINUOUS
  5
5A
 10
48.624929
 20
258.494222
 30
0.0
 11
49.267749
 21
259.137042
 31
0.0
  0
LINE
  8
LC-006-005-----0
  6
CONTINUOUS
  5
5B
 10
48.342087
 20
258.494222
 30
0.0
 11
49.267749
 21
259.419885
 31
0.0
  0
LINE
  8
LC-006-005-----0
  6
CONTINUOUS
  5
5C
 10
48.059244
 20
258.494222
 30
0.0
 11
49.267749
 21
259.702727
 31
0.0
  0
LINE
  8
LC-006-005-----0
  6
CONTINUOUS
  5
5D
 10
47.776401
 20
258.494222
 30
0.0
 11
49.267749
 21
259.98557
 31
0.0
  0
LINE
  8
LC-006-005-----0
  6
CONTINUOUS
  5
5E
 10
47.493559
 20
258.494222
 30
0.0
 11
49.267749
 21
260.268413
 31
0.0
  0
LINE
  8
LC-006-005-----0
  6
CONTINUOUS
  5
5F
 10
47.210716
 20
258.494222
 30
0.0
 11
49.267749
 21
260.551256
 31
0.0
  0
LINE
  8
LC-006-005-----0
  6
CONTINUOUS
  5
60
 10
46.927873
 20
258.494222
 30
0.0
 11
49.267749
 21
260.834098
 31
0.0
  0
LINE
  8
LC-006-005-----0
  6
CONTINUOUS
  5
61
 10
46.64503
 20
258.494222
 30
0.0
 11
49.267749
 21
261.116941
 31
0.0
  0
LINE
  8
LC-006-005-----0
  6
CONTINUOUS
  5
62
 10
46.362188
 20
258.494222
 30
0.0
 11
49.267749
 21
261.399784
 31
0.0
  0
LINE
  8
LC-006-005-----0
  6
CONTINUOUS
  5
63
 10
46.079345
 20
258.494222
 30
0.0
 11
49.079345
 21
261.494222
 31
0.0
  0
LINE
  8
LC-006-005-----0
  6
CONTINUOUS
  5
64
 10
45.796502
 20
258.494222
 30
0.0
 11
48.796502
 21
261.494222
 31
0.0
  0
LINE
  8
LC-006-005-----0
  6
CONTINUOUS
  5
65
 10
45.51366
 20
258.494222
 30
0.0
 11
48.51366
 21
261.494222
 31
0.0
  0
LINE
  8
LC-006-005-----0
  6
CONTINUOUS
  5
66
 10
45.230817
 20
258.494222
 30
0.0
 11
48.230817
 21
261.494222
 31
0.0
  0
LINE
  8
LC-006-005-----0
  6
CONTINUOUS
  5
67
 10
44.947974
 20
258.494222
 30
0.0
 11
47.947974
 21
261.494222
 31
0.0
  0
LINE
  8
LC-006-005-----0
  6
CONTINUOUS
  5
68
 10
44.665131
 20
258.494222
 30
0.0
 11
47.665131
 21
261.494222
 31
0.0
  0
LINE
  8
LC-006-005-----0
  6
CONTINUOUS
  5
69
 10
44.382289
 20
258.494222
 30
0.0
 11
47.382289
 21
261.494222
 31
0.0
  0
LINE
  8
LC-006-005-----0
  6
CONTINUOUS
  5
6A
 10
44.267749
 20
258.662525
 30
0.0
 11
47.099446
 21
261.494222
 31
0.0
  0
LINE
  8
LC-006-005-----0
  6
CONTINUOUS
  5
6B
 10
44.267749
 20
258.945368
 30
0.0
 11
46.816603
 21
261.494222
 31
0.0
  0
LINE
  8
LC-006-005-----0
  6
CONTINUOUS
  5
6C
 10
44.267749
 20
259.228211
 30
0.0
 11
46.533761
 21
261.494222
 31
0.0
  0
LINE
  8
LC-006-005-----0
  6
CONTINUOUS
  5
6D
 10
44.267749
 20
259.511054
 30
0.0
 11
46.250918
 21
261.494222
 31
0.0
  0
LINE
  8
LC-006-005-----0
  6
CONTINUOUS
  5
6E
 10
44.267749
 20
259.793896
 30
0.0
 11
45.968075
 21
261.494222
 31
0.0
  0
LINE
  8
LC-006-005-----0
  6
CONTINUOUS
  5
6F
 10
44.267749
 20
260.076739
 30
0.0
 11
45.685232
 21
261.494222
 31
0.0
  0
LINE
  8
LC-006-005-----0
  6
CONTINUOUS
  5
70
 10
44.267749
 20
260.359582
 30
0.0
 11
45.40239
 21
261.494222
 31
0.0
  0
LINE
  8
LC-006-005-----0
  6
CONTINUOUS
  5
71
 10
44.267749
 20
260.642424
 30
0.0
 11
45.119547
 21
261.494222
 31
0.0
  0
LINE
  8
LC-006-005-----0
  6
CONTINUOUS
  5
72
 10
44.267749
 20
260.925267
 30
0.0
 11
44.836704
 21
261.494222
 31
0.0
  0
LINE
  8
LC-006-005-----0
  6
CONTINUOUS
  5
73
 10
44.267749
 20
261.20811
 30
0.0
 11
44.553862
 21
261.494222
 31
0.0
  0
LINE
  8
LC-006-005-----0
  6
CONTINUOUS
  5
74
 10
44.267749
 20
261.490952
 30
0.0
 11
44.271019
 21
261.494222
 31
0.0
  0
ENDBLK
  8
0
  5
75
  0
BLOCK
  8
0
  5
77
  2
*X3
 70
    65
 10
54.267749
 20
258.494222
 30
0.0
  3
*X3
  0
LINE
  8
LC-006-005-----0
  6
CONTINUOUS
  5
78
 10
59.09011
 20
258.494222
 30
0.0
 11
59.267749
 21
258.671862
 31
0.0
  0
LINE
  8
LC-006-005-----0
  6
CONTINUOUS
  5
79
 10
58.807267
 20
258.494222
 30
0.0
 11
59.267749
 21
258.954704
 31
0.0
  0
LINE
  8
LC-006-005-----0
  6
CONTINUOUS
  5
7A
 10
58.524424
 20
258.494222
 30
0.0
 11
59.267749
 21
259.237547
 31
0.0
  0
LINE
  8
LC-006-005-----0
  6
CONTINUOUS
  5
7B
 10
58.241582
 20
258.494222
 30
0.0
 11
59.267749
 21
259.52039
 31
0.0
  0
LINE
  8
LC-006-005-----0
  6
CONTINUOUS
  5
7C
 10
57.958739
 20
258.494222
 30
0.0
 11
59.267749
 21
259.803232
 31
0.0
  0
LINE
  8
LC-006-005-----0
  6
CONTINUOUS
  5
7D
 10
57.675896
 20
258.494222
 30
0.0
 11
59.267749
 21
260.086075
 31
0.0
  0
LINE
  8
LC-006-005-----0
  6
CONTINUOUS
  5
7E
 10
57.393053
 20
258.494222
 30
0.0
 11
59.267749
 21
260.368918
 31
0.0
  0
LINE
  8
LC-006-005-----0
  6
CONTINUOUS
  5
7F
 10
57.110211
 20
258.494222
 30
0.0
 11
59.267749
 21
260.651761
 31
0.0
  0
LINE
  8
LC-006-005-----0
  6
CONTINUOUS
  5
80
 10
56.827368
 20
258.494222
 30
0.0
 11
59.267749
 21
260.934603
 31
0.0
  0
LINE
  8
LC-006-005-----0
  6
CONTINUOUS
  5
81
 10
56.544525
 20
258.494222
 30
0.0
 11
59.267749
 21
261.217446
 31
0.0
  0
LINE
  8
LC-006-005-----0
  6
CONTINUOUS
  5
82
 10
56.261683
 20
258.494222
 30
0.0
 11
59.261683
 21
261.494222
 31
0.0
  0
LINE
  8
LC-006-005-----0
  6
CONTINUOUS
  5
83
 10
55.97884
 20
258.494222
 30
0.0
 11
58.97884
 21
261.494222
 31
0.0
  0
LINE
  8
LC-006-005-----0
  6
CONTINUOUS
  5
84
 10
55.695997
 20
258.494222
 30
0.0
 11
58.695997
 21
261.494222
 31
0.0
  0
LINE
  8
LC-006-005-----0
  6
CONTINUOUS
  5
85
 10
55.413154
 20
258.494222
 30
0.0
 11
58.413154
 21
261.494222
 31
0.0
  0
LINE
  8
LC-006-005-----0
  6
CONTINUOUS
  5
86
 10
55.130312
 20
258.494222
 30
0.0
 11
58.130312
 21
261.494222
 31
0.0
  0
LINE
  8
LC-006-005-----0
  6
CONTINUOUS
  5
87
 10
54.847469
 20
258.494222
 30
0.0
 11
57.847469
 21
261.494222
 31
0.0
  0
LINE
  8
LC-006-005-----0
  6
CONTINUOUS
  5
88
 10
54.564626
 20
258.494222
 30
0.0
 11
57.564626
 21
261.494222
 31
0.0
  0
LINE
  8
LC-006-005-----0
  6
CONTINUOUS
  5
89
 10
54.281784
 20
258.494222
 30
0.0
 11
57.281784
 21
261.494222
 31
0.0
  0
LINE
  8
LC-006-005-----0
  6
CONTINUOUS
  5
8A
 10
54.267749
 20
258.76303
 30
0.0
 11
56.998941
 21
261.494222
 31
0.0
  0
LINE
  8
LC-006-005-----0
  6
CONTINUOUS
  5
8B
 10
54.267749
 20
259.045873
 30
0.0
 11
56.716098
 21
261.494222
 31
0.0
  0
LINE
  8
LC-006-005-----0
  6
CONTINUOUS
  5
8C
 10
54.267749
 20
259.328716
 30
0.0
 11
56.433256
 21
261.494222
 31
0.0
  0
LINE
  8
LC-006-005-----0
  6
CONTINUOUS
  5
8D
 10
54.267749
 20
259.611559
 30
0.0
 11
56.150413
 21
261.494222
 31
0.0
  0
LINE
  8
LC-006-005-----0
  6
CONTINUOUS
  5
8E
 10
54.267749
 20
259.894401
 30
0.0
 11
55.86757
 21
261.494222
 31
0.0
  0
LINE
  8
LC-006-005-----0
  6
CONTINUOUS
  5
8F
 10
54.267749
 20
260.177244
 30
0.0
 11
55.584727
 21
261.494222
 31
0.0
  0
LINE
  8
LC-006-005-----0
  6
CONTINUOUS
  5
90
 10
54.267749
 20
260.460087
 30
0.0
 11
55.301885
 21
261.494222
 31
0.0
  0
LINE
  8
LC-006-005-----0
  6
CONTINUOUS
  5
91
 10
54.267749
 20
260.742929
 30
0.0
 11
55.019042
 21
261.494222
 31
0.0
  0
LINE
  8
LC-006-005-----0
  6
CONTINUOUS
  5
92
 10
54.267749
 20
261.025772
 30
0.0
 11
54.736199
 21
261.494222
 31
0.0
  0
LINE
  8
LC-006-005-----0
  6
CONTINUOUS
  5
93
 10
54.267749
 20
261.308615
 30
0.0
 11
54.453357
 21
261.494222
 31
0.0
  0
ENDBLK
  8
0
  5
94
  0
BLOCK
  8
0
  5
96
  2
*X4
 70
    65
 10
64.267749
 20
258.494222
 30
0.0
  3
*X4
  0
LINE
  8
LC-006-005-----0
  6
CONTINUOUS
  5
97
 10
68.989605
 20
258.494222
 30
0.0
 11
69.267749
 21
258.772367
 31
0.0
  0
LINE
  8
LC-006-005-----0
  6
CONTINUOUS
  5
98
 10
68.706762
 20
258.494222
 30
0.0
 11
69.267749
 21
259.055209
 31
0.0
  0
LINE
  8
LC-006-005-----0
  6
CONTINUOUS
  5
99
 10
68.423919
 20
258.494222
 30
0.0
 11
69.267749
 21
259.338052
 31
0.0
  0
LINE
  8
LC-006-005-----0
  6
CONTINUOUS
  5
9A
 10
68.141077
 20
258.494222
 30
0.0
 11
69.267749
 21
259.620895
 31
0.0
  0
LINE
  8
LC-006-005-----0
  6
CONTINUOUS
  5
9B
 10
67.858234
 20
258.494222
 30
0.0
 11
69.267749
 21
259.903738
 31
0.0
  0
LINE
  8
LC-006-005-----0
  6
CONTINUOUS
  5
9C
 10
67.575391
 20
258.494222
 30
0.0
 11
69.267749
 21
260.18658
 31
0.0
  0
LINE
  8
LC-006-005-----0
  6
CONTINUOUS
  5
9D
 10
67.292548
 20
258.494222
 30
0.0
 11
69.267749
 21
260.469423
 31
0.0
  0
LINE
  8
LC-006-005-----0
  6
CONTINUOUS
  5
9E
 10
67.009706
 20
258.494222
 30
0.0
 11
69.267749
 21
260.752266
 31
0.0
  0
LINE
  8
LC-006-005-----0
  6
CONTINUOUS
  5
9F
 10
66.726863
 20
258.494222
 30
0.0
 11
69.267749
 21
261.035108
 31
0.0
  0
LINE
  8
LC-006-005-----0
  6
CONTINUOUS
  5
A0
 10
66.44402
 20
258.494222
 30
0.0
 11
69.267749
 21
261.317951
 31
0.0
  0
LINE
  8
LC-006-005-----0
  6
CONTINUOUS
  5
A1
 10
66.161178
 20
258.494222
 30
0.0
 11
69.161178
 21
261.494222
 31
0.0
  0
LINE
  8
LC-006-005-----0
  6
CONTINUOUS
  5
A2
 10
65.878335
 20
258.494222
 30
0.0
 11
68.878335
 21
261.494222
 31
0.0
  0
LINE
  8
LC-006-005-----0
  6
CONTINUOUS
  5
A3
 10
65.595492
 20
258.494222
 30
0.0
 11
68.595492
 21
261.494222
 31
0.0
  0
LINE
  8
LC-006-005-----0
  6
CONTINUOUS
  5
A4
 10
65.312649
 20
258.494222
 30
0.0
 11
68.312649
 21
261.494222
 31
0.0
  0
LINE
  8
LC-006-005-----0
  6
CONTINUOUS
  5
A5
 10
65.029807
 20
258.494222
 30
0.0
 11
68.029807
 21
261.494222
 31
0.0
  0
LINE
  8
LC-006-005-----0
  6
CONTINUOUS
  5
A6
 10
64.746964
 20
258.494222
 30
0.0
 11
67.746964
 21
261.494222
 31
0.0
  0
LINE
  8
LC-006-005-----0
  6
CONTINUOUS
  5
A7
 10
64.464121
 20
258.494222
 30
0.0
 11
67.464121
 21
261.494222
 31
0.0
  0
LINE
  8
LC-006-005-----0
  6
CONTINUOUS
  5
A8
 10
64.267749
 20
258.580693
 30
0.0
 11
67.181279
 21
261.494222
 31
0.0
  0
LINE
  8
LC-006-005-----0
  6
CONTINUOUS
  5
A9
 10
64.267749
 20
258.863535
 30
0.0
 11
66.898436
 21
261.494222
 31
0.0
  0
LINE
  8
LC-006-005-----0
  6
CONTINUOUS
  5
AA
 10
64.267749
 20
259.146378
 30
0.0
 11
66.615593
 21
261.494222
 31
0.0
  0
LINE
  8
LC-006-005-----0
  6
CONTINUOUS
  5
AB
 10
64.267749
 20
259.429221
 30
0.0
 11
66.33275
 21
261.494222
 31
0.0
  0
LINE
  8
LC-006-005-----0
  6
CONTINUOUS
  5
AC
 10
64.267749
 20
259.712064
 30
0.0
 11
66.049908
 21
261.494222
 31
0.0
  0
LINE
  8
LC-006-005-----0
  6
CONTINUOUS
  5
AD
 10
64.267749
 20
259.994906
 30
0.0
 11
65.767065
 21
261.494222
 31
0.0
  0
LINE
  8
LC-006-005-----0
  6
CONTINUOUS
  5
AE
 10
64.267749
 20
260.277749
 30
0.0
 11
65.484222
 21
261.494222
 31
0.0
  0
LINE
  8
LC-006-005-----0
  6
CONTINUOUS
  5
AF
 10
64.267749
 20
260.560592
 30
0.0
 11
65.20138
 21
261.494222
 31
0.0
  0
LINE
  8
LC-006-005-----0
  6
CONTINUOUS
  5
B0
 10
64.267749
 20
260.843434
 30
0.0
 11
64.918537
 21
261.494222
 31
0.0
  0
LINE
  8
LC-006-005-----0
  6
CONTINUOUS
  5
B1
 10
64.267749
 20
261.126277
 30
0.0
 11
64.635694
 21
261.494222
 31
0.0
  0
LINE
  8
LC-006-005-----0
  6
CONTINUOUS
  5
B2
 10
64.267749
 20
261.40912
 30
0.0
 11
64.352851
 21
261.494222
 31
0.0
  0
ENDBLK
  8
0
  5
B3
  0
BLOCK
  8
0
  5
B5
  2
*X5
 70
    65
 10
74.267749
 20
258.494222
 30
0.0
  3
*X5
  0
LINE
  8
LC-006-005-----0
  6
CONTINUOUS
  5
B6
 10
79.171942
 20
258.494222
 30
0.0
 11
79.267749
 21
258.590029
 31
0.0
  0
LINE
  8
LC-006-005-----0
  6
CONTINUOUS
  5
B7
 10
78.8891
 20
258.494222
 30
0.0
 11
79.267749
 21
258.872872
 31
0.0
  0
LINE
  8
LC-006-005-----0
  6
CONTINUOUS
  5
B8
 10
78.606257
 20
258.494222
 30
0.0
 11
79.267749
 21
259.155714
 31
0.0
  0
LINE
  8
LC-006-005-----0
  6
CONTINUOUS
  5
B9
 10
78.323414
 20
258.494222
 30
0.0
 11
79.267749
 21
259.438557
 31
0.0
  0
LINE
  8
LC-006-005-----0
  6
CONTINUOUS
  5
BA
 10
78.040571
 20
258.494222
 30
0.0
 11
79.267749
 21
259.7214
 31
0.0
  0
LINE
  8
LC-006-005-----0
  6
CONTINUOUS
  5
BB
 10
77.757729
 20
258.494222
 30
0.0
 11
79.267749
 21
260.004243
 31
0.0
  0
LINE
  8
LC-006-005-----0
  6
CONTINUOUS
  5
BC
 10
77.474886
 20
258.494222
 30
0.0
 11
79.267749
 21
260.287085
 31
0.0
  0
LINE
  8
LC-006-005-----0
  6
CONTINUOUS
  5
BD
 10
77.192043
 20
258.494222
 30
0.0
 11
79.267749
 21
260.569928
 31
0.0
  0
LINE
  8
LC-006-005-----0
  6
CONTINUOUS
  5
BE
 10
76.909201
 20
258.494222
 30
0.0
 11
79.267749
 21
260.852771
 31
0.0
  0
LINE
  8
LC-006-005-----0
  6
CONTINUOUS
  5
BF
 10
76.626358
 20
258.494222
 30
0.0
 11
79.267749
 21
261.135613
 31
0.0
  0
LINE
  8
LC-006-005-----0
  6
CONTINUOUS
  5
C0
 10
76.343515
 20
258.494222
 30
0.0
 11
79.267749
 21
261.418456
 31
0.0
  0
LINE
  8
LC-006-005-----0
  6
CONTINUOUS
  5
C1
 10
76.060673
 20
258.494222
 30
0.0
 11
79.060673
 21
261.494222
 31
0.0
  0
LINE
  8
LC-006-005-----0
  6
CONTINUOUS
  5
C2
 10
75.77783
 20
258.494222
 30
0.0
 11
78.77783
 21
261.494222
 31
0.0
  0
LINE
  8
LC-006-005-----0
  6
CONTINUOUS
  5
C3
 10
75.494987
 20
258.494222
 30
0.0
 11
78.494987
 21
261.494222
 31
0.0
  0
LINE
  8
LC-006-005-----0
  6
CONTINUOUS
  5
C4
 10
75.212144
 20
258.494222
 30
0.0
 11
78.212144
 21
261.494222
 31
0.0
  0
LINE
  8
LC-006-005-----0
  6
CONTINUOUS
  5
C5
 10
74.929302
 20
258.494222
 30
0.0
 11
77.929302
 21
261.494222
 31
0.0
  0
LINE
  8
LC-006-005-----0
  6
CONTINUOUS
  5
C6
 10
74.646459
 20
258.494222
 30
0.0
 11
77.646459
 21
261.494222
 31
0.0
  0
LINE
  8
LC-006-005-----0
  6
CONTINUOUS
  5
C7
 10
74.363616
 20
258.494222
 30
0.0
 11
77.363616
 21
261.494222
 31
0.0
  0
LINE
  8
LC-006-005-----0
  6
CONTINUOUS
  5
C8
 10
74.267749
 20
258.681198
 30
0.0
 11
77.080774
 21
261.494222
 31
0.0
  0
LINE
  8
LC-006-005-----0
  6
CONTINUOUS
  5
C9
 10
74.267749
 20
258.964041
 30
0.0
 11
76.797931
 21
261.494222
 31
0.0
  0
LINE
  8
LC-006-005-----0
  6
CONTINUOUS
  5
CA
 10
74.267749
 20
259.246883
 30
0.0
 11
76.515088
 21
261.494222
 31
0.0
  0
LINE
  8
LC-006-005-----0
  6
CONTINUOUS
  5
CB
 10
74.267749
 20
259.529726
 30
0.0
 11
76.232245
 21
261.494222
 31
0.0
  0
LINE
  8
LC-006-005-----0
  6
CONTINUOUS
  5
CC
 10
74.267749
 20
259.812569
 30
0.0
 11
75.949403
 21
261.494222
 31
0.0
  0
LINE
  8
LC-006-005-----0
  6
CONTINUOUS
  5
CD
 10
74.267749
 20
260.095411
 30
0.0
 11
75.66656
 21
261.494222
 31
0.0
  0
LINE
  8
LC-006-005-----0
  6
CONTINUOUS
  5
CE
 10
74.267749
 20
260.378254
 30
0.0
 11
75.383717
 21
261.494222
 31
0.0
  0
LINE
  8
LC-006-005-----0
  6
CONTINUOUS
  5
CF
 10
74.267749
 20
260.661097
 30
0.0
 11
75.100875
 21
261.494222
 31
0.0
  0
LINE
  8
LC-006-005-----0
  6
CONTINUOUS
  5
D0
 10
74.267749
 20
260.94394
 30
0.0
 11
74.818032
 21
261.494222
 31
0.0
  0
LINE
  8
LC-006-005-----0
  6
CONTINUOUS
  5
D1
 10
74.267749
 20
261.226782
 30
0.0
 11
74.535189
 21
261.494222
 31
0.0
  0
ENDBLK
  8
0
  5
D2
  0
BLOCK
  8
0
  5
D4
  2
*X6
 70
    65
 10
84.267749
 20
258.494222
 30
0.0
  3
*X6
  0
LINE
  8
LC-006-005-----0
  6
CONTINUOUS
  5
D5
 10
89.071437
 20
258.494222
 30
0.0
 11
89.267749
 21
258.690534
 31
0.0
  0
LINE
  8
LC-006-005-----0
  6
CONTINUOUS
  5
D6
 10
88.788595
 20
258.494222
 30
0.0
 11
89.267749
 21
258.973377
 31
0.0
  0
LINE
  8
LC-006-005-----0
  6
CONTINUOUS
  5
D7
 10
88.505752
 20
258.494222
 30
0.0
 11
89.267749
 21
259.25622
 31
0.0
  0
LINE
  8
LC-006-005-----0
  6
CONTINUOUS
  5
D8
 10
88.222909
 20
258.494222
 30
0.0
 11
89.267749
 21
259.539062
 31
0.0
  0
LINE
  8
LC-006-005-----0
  6
CONTINUOUS
  5
D9
 10
87.940066
 20
258.494222
 30
0.0
 11
89.267749
 21
259.821905
 31
0.0
  0
LINE
  8
LC-006-005-----0
  6
CONTINUOUS
  5
DA
 10
87.657224
 20
258.494222
 30
0.0
 11
89.267749
 21
260.104748
 31
0.0
  0
LINE
  8
LC-006-005-----0
  6
CONTINUOUS
  5
DB
 10
87.374381
 20
258.494222
 30
0.0
 11
89.267749
 21
260.38759
 31
0.0
  0
LINE
  8
LC-006-005-----0
  6
CONTINUOUS
  5
DC
 10
87.091538
 20
258.494222
 30
0.0
 11
89.267749
 21
260.670433
 31
0.0
  0
LINE
  8
LC-006-005-----0
  6
CONTINUOUS
  5
DD
 10
86.808696
 20
258.494222
 30
0.0
 11
89.267749
 21
260.953276
 31
0.0
  0
LINE
  8
LC-006-005-----0
  6
CONTINUOUS
  5
DE
 10
86.525853
 20
258.494222
 30
0.0
 11
89.267749
 21
261.236118
 31
0.0
  0
LINE
  8
LC-006-005-----0
  6
CONTINUOUS
  5
DF
 10
86.24301
 20
258.494222
 30
0.0
 11
89.24301
 21
261.494222
 31
0.0
  0
LINE
  8
LC-006-005-----0
  6
CONTINUOUS
  5
E0
 10
85.960167
 20
258.494222
 30
0.0
 11
88.960167
 21
261.494222
 31
0.0
  0
LINE
  8
LC-006-005-----0
  6
CONTINUOUS
  5
E1
 10
85.677325
 20
258.494222
 30
0.0
 11
88.677325
 21
261.494222
 31
0.0
  0
LINE
  8
LC-006-005-----0
  6
CONTINUOUS
  5
E2
 10
85.394482
 20
258.494222
 30
0.0
 11
88.394482
 21
261.494222
 31
0.0
  0
LINE
  8
LC-006-005-----0
  6
CONTINUOUS
  5
E3
 10
85.111639
 20
258.494222
 30
0.0
 11
88.111639
 21
261.494222
 31
0.0
  0
LINE
  8
LC-006-005-----0
  6
CONTINUOUS
  5
E4
 10
84.828797
 20
258.494222
 30
0.0
 11
87.828797
 21
261.494222
 31
0.0
  0
LINE
  8
LC-006-005-----0
  6
CONTINUOUS
  5
E5
 10
84.545954
 20
258.494222
 30
0.0
 11
87.545954
 21
261.494222
 31
0.0
  0
LINE
  8
LC-006-005-----0
  6
CONTINUOUS
  5
E6
 10
84.267749
 20
258.49886
 30
0.0
 11
87.263111
 21
261.494222
 31
0.0
  0
LINE
  8
LC-006-005-----0
  6
CONTINUOUS
  5
E7
 10
84.267749
 20
258.781703
 30
0.0
 11
86.980268
 21
261.494222
 31
0.0
  0
LINE
  8
LC-006-005-----0
  6
CONTINUOUS
  5
E8
 10
84.267749
 20
259.064546
 30
0.0
 11
86.697426
 21
261.494222
 31
0.0
  0
LINE
  8
LC-006-005-----0
  6
CONTINUOUS
  5
E9
 10
84.267749
 20
259.347388
 30
0.0
 11
86.414583
 21
261.494222
 31
0.0
  0
LINE
  8
LC-006-005-----0
  6
CONTINUOUS
  5
EA
 10
84.267749
 20
259.630231
 30
0.0
 11
86.13174
 21
261.494222
 31
0.0
  0
LINE
  8
LC-006-005-----0
  6
CONTINUOUS
  5
EB
 10
84.267749
 20
259.913074
 30
0.0
 11
85.848898
 21
261.494222
 31
0.0
  0
LINE
  8
LC-006-005-----0
  6
CONTINUOUS
  5
EC
 10
84.267749
 20
260.195916
 30
0.0
 11
85.566055
 21
261.494222
 31
0.0
  0
LINE
  8
LC-006-005-----0
  6
CONTINUOUS
  5
ED
 10
84.267749
 20
260.478759
 30
0.0
 11
85.283212
 21
261.494222
 31
0.0
  0
LINE
  8
LC-006-005-----0
  6
CONTINUOUS
  5
EE
 10
84.267749
 20
260.761602
 30
0.0
 11
85.000369
 21
261.494222
 31
0.0
  0
LINE
  8
LC-006-005-----0
  6
CONTINUOUS
  5
EF
 10
84.267749
 20
261.044445
 30
0.0
 11
84.717527
 21
261.494222
 31
0.0
  0
LINE
  8
LC-006-005-----0
  6
CONTINUOUS
  5
F0
 10
84.267749
 20
261.327287
 30
0.0
 11
84.434684
 21
261.494222
 31
0.0
  0
ENDBLK
  8
0
  5
F1
  0
BLOCK
  8
0
  5
F3
  2
*X7
 70
    65
 10
94.267749
 20
258.494222
 30
0.0
  3
*X7
  0
LINE
  8
LC-006-005-----0
  6
CONTINUOUS
  5
F4
 10
99.253775
 20
258.494222
 30
0.0
 11
99.267749
 21
258.508196
 31
0.0
  0
LINE
  8
LC-006-005-----0
  6
CONTINUOUS
  5
F5
 10
98.970932
 20
258.494222
 30
0.0
 11
99.267749
 21
258.791039
 31
0.0
  0
LINE
  8
LC-006-005-----0
  6
CONTINUOUS
  5
F6
 10
98.68809
 20
258.494222
 30
0.0
 11
99.267749
 21
259.073882
 31
0.0
  0
LINE
  8
LC-006-005-----0
  6
CONTINUOUS
  5
F7
 10
98.405247
 20
258.494222
 30
0.0
 11
99.267749
 21
259.356725
 31
0.0
  0
LINE
  8
LC-006-005-----0
  6
CONTINUOUS
  5
F8
 10
98.122404
 20
258.494222
 30
0.0
 11
99.267749
 21
259.639567
 31
0.0
  0
LINE
  8
LC-006-005-----0
  6
CONTINUOUS
  5
F9
 10
97.839561
 20
258.494222
 30
0.0
 11
99.267749
 21
259.92241
 31
0.0
  0
LINE
  8
LC-006-005-----0
  6
CONTINUOUS
  5
FA
 10
97.556719
 20
258.494222
 30
0.0
 11
99.267749
 21
260.205253
 31
0.0
  0
LINE
  8
LC-006-005-----0
  6
CONTINUOUS
  5
FB
 10
97.273876
 20
258.494222
 30
0.0
 11
99.267749
 21
260.488095
 31
0.0
  0
LINE
  8
LC-006-005-----0
  6
CONTINUOUS
  5
FC
 10
96.991033
 20
258.494222
 30
0.0
 11
99.267749
 21
260.770938
 31
0.0
  0
LINE
  8
LC-006-005-----0
  6
CONTINUOUS
  5
FD
 10
96.708191
 20
258.494222
 30
0.0
 11
99.267749
 21
261.053781
 31
0.0
  0
LINE
  8
LC-006-005-----0
  6
CONTINUOUS
  5
FE
 10
96.425348
 20
258.494222
 30
0.0
 11
99.267749
 21
261.336624
 31
0.0
  0
LINE
  8
LC-006-005-----0
  6
CONTINUOUS
  5
FF
 10
96.142505
 20
258.494222
 30
0.0
 11
99.142505
 21
261.494222
 31
0.0
  0
LINE
  8
LC-006-005-----0
  6
CONTINUOUS
  5
100
 10
95.859662
 20
258.494222
 30
0.0
 11
98.859662
 21
261.494222
 31
0.0
  0
LINE
  8
LC-006-005-----0
  6
CONTINUOUS
  5
101
 10
95.57682
 20
258.494222
 30
0.0
 11
98.57682
 21
261.494222
 31
0.0
  0
LINE
  8
LC-006-005-----0
  6
CONTINUOUS
  5
102
 10
95.293977
 20
258.494222
 30
0.0
 11
98.293977
 21
261.494222
 31
0.0
  0
LINE
  8
LC-006-005-----0
  6
CONTINUOUS
  5
103
 10
95.011134
 20
258.494222
 30
0.0
 11
98.011134
 21
261.494222
 31
0.0
  0
LINE
  8
LC-006-005-----0
  6
CONTINUOUS
  5
104
 10
94.728292
 20
258.494222
 30
0.0
 11
97.728292
 21
261.494222
 31
0.0
  0
LINE
  8
LC-006-005-----0
  6
CONTINUOUS
  5
105
 10
94.445449
 20
258.494222
 30
0.0
 11
97.445449
 21
261.494222
 31
0.0
  0
LINE
  8
LC-006-005-----0
  6
CONTINUOUS
  5
106
 10
94.267749
 20
258.599365
 30
0.0
 11
97.162606
 21
261.494222
 31
0.0
  0
LINE
  8
LC-006-005-----0
  6
CONTINUOUS
  5
107
 10
94.267749
 20
258.882208
 30
0.0
 11
96.879763
 21
261.494222
 31
0.0
  0
LINE
  8
LC-006-005-----0
  6
CONTINUOUS
  5
108
 10
94.267749
 20
259.165051
 30
0.0
 11
96.596921
 21
261.494222
 31
0.0
  0
LINE
  8
LC-006-005-----0
  6
CONTINUOUS
  5
109
 10
94.267749
 20
259.447893
 30
0.0
 11
96.314078
 21
261.494222
 31
0.0
  0
LINE
  8
LC-006-005-----0
  6
CONTINUOUS
  5
10A
 10
94.267749
 20
259.730736
 30
0.0
 11
96.031235
 21
261.494222
 31
0.0
  0
LINE
  8
LC-006-005-----0
  6
CONTINUOUS
  5
10B
 10
94.267749
 20
260.013579
 30
0.0
 11
95.748393
 21
261.494222
 31
0.0
  0
LINE
  8
LC-006-005-----0
  6
CONTINUOUS
  5
10C
 10
94.267749
 20
260.296422
 30
0.0
 11
95.46555
 21
261.494222
 31
0.0
  0
LINE
  8
LC-006-005-----0
  6
CONTINUOUS
  5
10D
 10
94.267749
 20
260.579264
 30
0.0
 11
95.182707
 21
261.494222
 31
0.0
  0
LINE
  8
LC-006-005-----0
  6
CONTINUOUS
  5
10E
 10
94.267749
 20
260.862107
 30
0.0
 11
94.899864
 21
261.494222
 31
0.0
  0
LINE
  8
LC-006-005-----0
  6
CONTINUOUS
  5
10F
 10
94.267749
 20
261.14495
 30
0.0
 11
94.617022
 21
261.494222
 31
0.0
  0
LINE
  8
LC-006-005-----0
  6
CONTINUOUS
  5
110
 10
94.267749
 20
261.427792
 30
0.0
 11
94.334179
 21
261.494222
 31
0.0
  0
ENDBLK
  8
0
  5
111
  0
BLOCK
  8
0
  5
113
  2
*X8
 70
    65
 10
104.267749
 20
258.494222
 30
0.0
  3
*X8
  0
LINE
  8
LC-006-005-----0
  6
CONTINUOUS
  5
114
 10
109.15327
 20
258.494222
 30
0.0
 11
109.267749
 21
258.608701
 31
0.0
  0
LINE
  8
LC-006-005-----0
  6
CONTINUOUS
  5
115
 10
108.870427
 20
258.494222
 30
0.0
 11
109.267749
 21
258.891544
 31
0.0
  0
LINE
  8
LC-006-005-----0
  6
CONTINUOUS
  5
116
 10
108.587584
 20
258.494222
 30
0.0
 11
109.267749
 21
259.174387
 31
0.0
  0
LINE
  8
LC-006-005-----0
  6
CONTINUOUS
  5
117
 10
108.304742
 20
258.494222
 30
0.0
 11
109.267749
 21
259.45723
 31
0.0
  0
LINE
  8
LC-006-005-----0
  6
CONTINUOUS
  5
118
 10
108.021899
 20
258.494222
 30
0.0
 11
109.267749
 21
259.740072
 31
0.0
  0
LINE
  8
LC-006-005-----0
  6
CONTINUOUS
  5
119
 10
107.739056
 20
258.494222
 30
0.0
 11
109.267749
 21
260.022915
 31
0.0
  0
LINE
  8
LC-006-005-----0
  6
CONTINUOUS
  5
11A
 10
107.456214
 20
258.494222
 30
0.0
 11
109.267749
 21
260.305758
 31
0.0
  0
LINE
  8
LC-006-005-----0
  6
CONTINUOUS
  5
11B
 10
107.173371
 20
258.494222
 30
0.0
 11
109.267749
 21
260.5886
 31
0.0
  0
LINE
  8
LC-006-005-----0
  6
CONTINUOUS
  5
11C
 10
106.890528
 20
258.494222
 30
0.0
 11
109.267749
 21
260.871443
 31
0.0
  0
LINE
  8
LC-006-005-----0
  6
CONTINUOUS
  5
11D
 10
106.607685
 20
258.494222
 30
0.0
 11
109.267749
 21
261.154286
 31
0.0
  0
LINE
  8
LC-006-005-----0
  6
CONTINUOUS
  5
11E
 10
106.324843
 20
258.494222
 30
0.0
 11
109.267749
 21
261.437129
 31
0.0
  0
LINE
  8
LC-006-005-----0
  6
CONTINUOUS
  5
11F
 10
106.042
 20
258.494222
 30
0.0
 11
109.042
 21
261.494222
 31
0.0
  0
LINE
  8
LC-006-005-----0
  6
CONTINUOUS
  5
120
 10
105.759157
 20
258.494222
 30
0.0
 11
108.759157
 21
261.494222
 31
0.0
  0
LINE
  8
LC-006-005-----0
  6
CONTINUOUS
  5
121
 10
105.476315
 20
258.494222
 30
0.0
 11
108.476315
 21
261.494222
 31
0.0
  0
LINE
  8
LC-006-005-----0
  6
CONTINUOUS
  5
122
 10
105.193472
 20
258.494222
 30
0.0
 11
108.193472
 21
261.494222
 31
0.0
  0
LINE
  8
LC-006-005-----0
  6
CONTINUOUS
  5
123
 10
104.910629
 20
258.494222
 30
0.0
 11
107.910629
 21
261.494222
 31
0.0
  0
LINE
  8
LC-006-005-----0
  6
CONTINUOUS
  5
124
 10
104.627786
 20
258.494222
 30
0.0
 11
107.627786
 21
261.494222
 31
0.0
  0
LINE
  8
LC-006-005-----0
  6
CONTINUOUS
  5
125
 10
104.344944
 20
258.494222
 30
0.0
 11
107.344944
 21
261.494222
 31
0.0
  0
LINE
  8
LC-006-005-----0
  6
CONTINUOUS
  5
126
 10
104.267749
 20
258.69987
 30
0.0
 11
107.062101
 21
261.494222
 31
0.0
  0
LINE
  8
LC-006-005-----0
  6
CONTINUOUS
  5
127
 10
104.267749
 20
258.982713
 30
0.0
 11
106.779258
 21
261.494222
 31
0.0
  0
LINE
  8
LC-006-005-----0
  6
CONTINUOUS
  5
128
 10
104.267749
 20
259.265556
 30
0.0
 11
106.496416
 21
261.494222
 31
0.0
  0
LINE
  8
LC-006-005-----0
  6
CONTINUOUS
  5
129
 10
104.267749
 20
259.548398
 30
0.0
 11
106.213573
 21
261.494222
 31
0.0
  0
LINE
  8
LC-006-005-----0
  6
CONTINUOUS
  5
12A
 10
104.267749
 20
259.831241
 30
0.0
 11
105.93073
 21
261.494222
 31
0.0
  0
LINE
  8
LC-006-005-----0
  6
CONTINUOUS
  5
12B
 10
104.267749
 20
260.114084
 30
0.0
 11
105.647887
 21
261.494222
 31
0.0
  0
LINE
  8
LC-006-005-----0
  6
CONTINUOUS
  5
12C
 10
104.267749
 20
260.396927
 30
0.0
 11
105.365045
 21
261.494222
 31
0.0
  0
LINE
  8
LC-006-005-----0
  6
CONTINUOUS
  5
12D
 10
104.267749
 20
260.679769
 30
0.0
 11
105.082202
 21
261.494222
 31
0.0
  0
LINE
  8
LC-006-005-----0
  6
CONTINUOUS
  5
12E
 10
104.267749
 20
260.962612
 30
0.0
 11
104.799359
 21
261.494222
 31
0.0
  0
LINE
  8
LC-006-005-----0
  6
CONTINUOUS
  5
12F
 10
104.267749
 20
261.245455
 30
0.0
 11
104.516517
 21
261.494222
 31
0.0
  0
ENDBLK
  8
0
  5
130
  0
BLOCK
  8
0
  5
132
  2
*X9
 70
    65
 10
114.267749
 20
258.494222
 30
0.0
  3
*X9
  0
LINE
  8
LC-006-005-----0
  6
CONTINUOUS
  5
133
 10
119.052765
 20
258.494222
 30
0.0
 11
119.267749
 21
258.709207
 31
0.0
  0
LINE
  8
LC-006-005-----0
  6
CONTINUOUS
  5
134
 10
118.769922
 20
258.494222
 30
0.0
 11
119.267749
 21
258.992049
 31
0.0
  0
LINE
  8
LC-006-005-----0
  6
CONTINUOUS
  5
135
 10
118.487079
 20
258.494222
 30
0.0
 11
119.267749
 21
259.274892
 31
0.0
  0
LINE
  8
LC-006-005-----0
  6
CONTINUOUS
  5
136
 10
118.204237
 20
258.494222
 30
0.0
 11
119.267749
 21
259.557735
 31
0.0
  0
LINE
  8
LC-006-005-----0
  6
CONTINUOUS
  5
137
 10
117.921394
 20
258.494222
 30
0.0
 11
119.267749
 21
259.840577
 31
0.0
  0
LINE
  8
LC-006-005-----0
  6
CONTINUOUS
  5
138
 10
117.638551
 20
258.494222
 30
0.0
 11
119.267749
 21
260.12342
 31
0.0
  0
LINE
  8
LC-006-005-----0
  6
CONTINUOUS
  5
139
 10
117.355709
 20
258.494222
 30
0.0
 11
119.267749
 21
260.406263
 31
0.0
  0
LINE
  8
LC-006-005-----0
  6
CONTINUOUS
  5
13A
 10
117.072866
 20
258.494222
 30
0.0
 11
119.267749
 21
260.689106
 31
0.0
  0
LINE
  8
LC-006-005-----0
  6
CONTINUOUS
  5
13B
 10
116.790023
 20
258.494222
 30
0.0
 11
119.267749
 21
260.971948
 31
0.0
  0
LINE
  8
LC-006-005-----0
  6
CONTINUOUS
  5
13C
 10
116.50718
 20
258.494222
 30
0.0
 11
119.267749
 21
261.254791
 31
0.0
  0
LINE
  8
LC-006-005-----0
  6
CONTINUOUS
  5
13D
 10
116.224338
 20
258.494222
 30
0.0
 11
119.224338
 21
261.494222
 31
0.0
  0
LINE
  8
LC-006-005-----0
  6
CONTINUOUS
  5
13E
 10
115.941495
 20
258.494222
 30
0.0
 11
118.941495
 21
261.494222
 31
0.0
  0
LINE
  8
LC-006-005-----0
  6
CONTINUOUS
  5
13F
 10
115.658652
 20
258.494222
 30
0.0
 11
118.658652
 21
261.494222
 31
0.0
  0
LINE
  8
LC-006-005-----0
  6
CONTINUOUS
  5
140
 10
115.37581
 20
258.494222
 30
0.0
 11
118.37581
 21
261.494222
 31
0.0
  0
LINE
  8
LC-006-005-----0
  6
CONTINUOUS
  5
141
 10
115.092967
 20
258.494222
 30
0.0
 11
118.092967
 21
261.494222
 31
0.0
  0
LINE
  8
LC-006-005-----0
  6
CONTINUOUS
  5
142
 10
114.810124
 20
258.494222
 30
0.0
 11
117.810124
 21
261.494222
 31
0.0
  0
LINE
  8
LC-006-005-----0
  6
CONTINUOUS
  5
143
 10
114.527281
 20
258.494222
 30
0.0
 11
117.527281
 21
261.494222
 31
0.0
  0
LINE
  8
LC-006-005-----0
  6
CONTINUOUS
  5
144
 10
114.267749
 20
258.517533
 30
0.0
 11
117.244439
 21
261.494222
 31
0.0
  0
LINE
  8
LC-006-005-----0
  6
CONTINUOUS
  5
145
 10
114.267749
 20
258.800375
 30
0.0
 11
116.961596
 21
261.494222
 31
0.0
  0
LINE
  8
LC-006-005-----0
  6
CONTINUOUS
  5
146
 10
114.267749
 20
259.083218
 30
0.0
 11
116.678753
 21
261.494222
 31
0.0
  0
LINE
  8
LC-006-005-----0
  6
CONTINUOUS
  5
147
 10
114.267749
 20
259.366061
 30
0.0
 11
116.395911
 21
261.494222
 31
0.0
  0
LINE
  8
LC-006-005-----0
  6
CONTINUOUS
  5
148
 10
114.267749
 20
259.648904
 30
0.0
 11
116.113068
 21
261.494222
 31
0.0
  0
LINE
  8
LC-006-005-----0
  6
CONTINUOUS
  5
149
 10
114.267749
 20
259.931746
 30
0.0
 11
115.830225
 21
261.494222
 31
0.0
  0
LINE
  8
LC-006-005-----0
  6
CONTINUOUS
  5
14A
 10
114.267749
 20
260.214589
 30
0.0
 11
115.547382
 21
261.494222
 31
0.0
  0
LINE
  8
LC-006-005-----0
  6
CONTINUOUS
  5
14B
 10
114.267749
 20
260.497432
 30
0.0
 11
115.26454
 21
261.494222
 31
0.0
  0
LINE
  8
LC-006-005-----0
  6
CONTINUOUS
  5
14C
 10
114.267749
 20
260.780274
 30
0.0
 11
114.981697
 21
261.494222
 31
0.0
  0
LINE
  8
LC-006-005-----0
  6
CONTINUOUS
  5
14D
 10
114.267749
 20
261.063117
 30
0.0
 11
114.698854
 21
261.494222
 31
0.0
  0
LINE
  8
LC-006-005-----0
  6
CONTINUOUS
  5
14E
 10
114.267749
 20
261.34596
 30
0.0
 11
114.416012
 21
261.494222
 31
0.0
  0
ENDBLK
  8
0
  5
14F
  0
BLOCK
  8
0
  5
151
  2
*X10
 70
    65
 10
134.267749
 20
255.898138
 30
0.0
  3
*X10
  0
LINE
  8
LC-006-005-----0
  6
CONTINUOUS
  5
152
 10
139.127099
 20
255.941139
 30
0.0
 11
139.267749
 21
256.08179
 31
0.0
  0
LINE
  8
LC-006-005-----0
  6
CONTINUOUS
  5
153
 10
138.910482
 20
256.007365
 30
0.0
 11
139.267749
 21
256.364632
 31
0.0
  0
LINE
  8
LC-006-005-----0
  6
CONTINUOUS
  5
154
 10
138.693866
 20
256.073591
 30
0.0
 11
139.267749
 21
256.647475
 31
0.0
  0
LINE
  8
LC-006-005-----0
  6
CONTINUOUS
  5
155
 10
138.477249
 20
256.139818
 30
0.0
 11
139.267749
 21
256.930318
 31
0.0
  0
LINE
  8
LC-006-005-----0
  6
CONTINUOUS
  5
156
 10
138.260633
 20
256.206044
 30
0.0
 11
139.267749
 21
257.21316
 31
0.0
  0
LINE
  8
LC-006-005-----0
  6
CONTINUOUS
  5
157
 10
138.044016
 20
256.27227
 30
0.0
 11
139.267749
 21
257.496003
 31
0.0
  0
LINE
  8
LC-006-005-----0
  6
CONTINUOUS
  5
158
 10
137.8274
 20
256.338497
 30
0.0
 11
139.267749
 21
257.778846
 31
0.0
  0
LINE
  8
LC-006-005-----0
  6
CONTINUOUS
  5
159
 10
137.610784
 20
256.404723
 30
0.0
 11
139.267749
 21
258.061689
 31
0.0
  0
LINE
  8
LC-006-005-----0
  6
CONTINUOUS
  5
15A
 10
137.394167
 20
256.470949
 30
0.0
 11
139.267749
 21
258.344531
 31
0.0
  0
LINE
  8
LC-006-005-----0
  6
CONTINUOUS
  5
15B
 10
137.177551
 20
256.537175
 30
0.0
 11
139.267749
 21
258.627374
 31
0.0
  0
LINE
  8
LC-006-005-----0
  6
CONTINUOUS
  5
15C
 10
136.960934
 20
256.603402
 30
0.0
 11
139.267749
 21
258.910217
 31
0.0
  0
LINE
  8
LC-006-005-----0
  6
CONTINUOUS
  5
15D
 10
136.744318
 20
256.669628
 30
0.0
 11
139.146862
 21
259.072172
 31
0.0
  0
LINE
  8
LC-006-005-----0
  6
CONTINUOUS
  5
15E
 10
136.527701
 20
256.735854
 30
0.0
 11
138.930245
 21
259.138398
 31
0.0
  0
LINE
  8
LC-006-005-----0
  6
CONTINUOUS
  5
15F
 10
136.311085
 20
256.802081
 30
0.0
 11
138.713629
 21
259.204624
 31
0.0
  0
LINE
  8
LC-006-005-----0
  6
CONTINUOUS
  5
160
 10
136.094469
 20
256.868307
 30
0.0
 11
138.497012
 21
259.270851
 31
0.0
  0
LINE
  8
LC-006-005-----0
  6
CONTINUOUS
  5
161
 10
135.877852
 20
256.934533
 30
0.0
 11
138.280396
 21
259.337077
 31
0.0
  0
LINE
  8
LC-006-005-----0
  6
CONTINUOUS
  5
162
 10
135.661236
 20
257.000759
 30
0.0
 11
138.06378
 21
259.403303
 31
0.0
  0
LINE
  8
LC-006-005-----0
  6
CONTINUOUS
  5
163
 10
135.444619
 20
257.066986
 30
0.0
 11
137.847163
 21
259.46953
 31
0.0
  0
LINE
  8
LC-006-005-----0
  6
CONTINUOUS
  5
164
 10
135.228003
 20
257.133212
 30
0.0
 11
137.630547
 21
259.535756
 31
0.0
  0
LINE
  8
LC-006-005-----0
  6
CONTINUOUS
  5
165
 10
135.011386
 20
257.199438
 30
0.0
 11
137.41393
 21
259.601982
 31
0.0
  0
LINE
  8
LC-006-005-----0
  6
CONTINUOUS
  5
166
 10
134.79477
 20
257.265665
 30
0.0
 11
137.197314
 21
259.668208
 31
0.0
  0
LINE
  8
LC-006-005-----0
  6
CONTINUOUS
  5
167
 10
134.578154
 20
257.331891
 30
0.0
 11
136.980698
 21
259.734435
 31
0.0
  0
LINE
  8
LC-006-005-----0
  6
CONTINUOUS
  5
168
 10
134.361537
 20
257.398117
 30
0.0
 11
136.764081
 21
259.800661
 31
0.0
  0
LINE
  8
LC-006-005-----0
  6
CONTINUOUS
  5
169
 10
134.267749
 20
257.587172
 30
0.0
 11
136.547465
 21
259.866887
 31
0.0
  0
LINE
  8
LC-006-005-----0
  6
CONTINUOUS
  5
16A
 10
134.267749
 20
257.870015
 30
0.0
 11
136.330848
 21
259.933114
 31
0.0
  0
LINE
  8
LC-006-005-----0
  6
CONTINUOUS
  5
16B
 10
134.267749
 20
258.152857
 30
0.0
 11
136.114232
 21
259.99934
 31
0.0
  0
LINE
  8
LC-006-005-----0
  6
CONTINUOUS
  5
16C
 10
134.267749
 20
258.4357
 30
0.0
 11
135.897615
 21
260.065566
 31
0.0
  0
LINE
  8
LC-006-005-----0
  6
CONTINUOUS
  5
16D
 10
134.267749
 20
258.718543
 30
0.0
 11
135.680999
 21
260.131792
 31
0.0
  0
LINE
  8
LC-006-005-----0
  6
CONTINUOUS
  5
16E
 10
134.267749
 20
259.001386
 30
0.0
 11
135.464383
 21
260.198019
 31
0.0
  0
LINE
  8
LC-006-005-----0
  6
CONTINUOUS
  5
16F
 10
134.267749
 20
259.284228
 30
0.0
 11
135.247766
 21
260.264245
 31
0.0
  0
LINE
  8
LC-006-005-----0
  6
CONTINUOUS
  5
170
 10
134.267749
 20
259.567071
 30
0.0
 11
135.03115
 21
260.330471
 31
0.0
  0
LINE
  8
LC-006-005-----0
  6
CONTINUOUS
  5
171
 10
134.267749
 20
259.849914
 30
0.0
 11
134.814533
 21
260.396698
 31
0.0
  0
LINE
  8
LC-006-005-----0
  6
CONTINUOUS
  5
172
 10
134.267749
 20
260.132756
 30
0.0
 11
134.597917
 21
260.462924
 31
0.0
  0
LINE
  8
LC-006-005-----0
  6
CONTINUOUS
  5
173
 10
134.267749
 20
260.415599
 30
0.0
 11
134.3813
 21
260.52915
 31
0.0
  0
ENDBLK
  8
0
  5
174
  0
BLOCK
  8
0
  5
176
  2
*X11
 70
    65
 10
144.267749
 20
252.840831
 30
0.0
  3
*X11
  0
LINE
  8
LC-006-005-----0
  6
CONTINUOUS
  5
177
 10
149.091454
 20
252.89473
 30
0.0
 11
149.267749
 21
253.071025
 31
0.0
  0
LINE
  8
LC-006-005-----0
  6
CONTINUOUS
  5
178
 10
148.874838
 20
252.960956
 30
0.0
 11
149.267749
 21
253.353868
 31
0.0
  0
LINE
  8
LC-006-005-----0
  6
CONTINUOUS
  5
179
 10
148.658221
 20
253.027182
 30
0.0
 11
149.267749
 21
253.63671
 31
0.0
  0
LINE
  8
LC-006-005-----0
  6
CONTINUOUS
  5
17A
 10
148.441605
 20
253.093408
 30
0.0
 11
149.267749
 21
253.919553
 31
0.0
  0
LINE
  8
LC-006-005-----0
  6
CONTINUOUS
  5
17B
 10
148.224988
 20
253.159635
 30
0.0
 11
149.267749
 21
254.202396
 31
0.0
  0
LINE
  8
LC-006-005-----0
  6
CONTINUOUS
  5
17C
 10
148.008372
 20
253.225861
 30
0.0
 11
149.267749
 21
254.485238
 31
0.0
  0
LINE
  8
LC-006-005-----0
  6
CONTINUOUS
  5
17D
 10
147.791756
 20
253.292087
 30
0.0
 11
149.267749
 21
254.768081
 31
0.0
  0
LINE
  8
LC-006-005-----0
  6
CONTINUOUS
  5
17E
 10
147.575139
 20
253.358314
 30
0.0
 11
149.267749
 21
255.050924
 31
0.0
  0
LINE
  8
LC-006-005-----0
  6
CONTINUOUS
  5
17F
 10
147.358523
 20
253.42454
 30
0.0
 11
149.267749
 21
255.333766
 31
0.0
  0
LINE
  8
LC-006-005-----0
  6
CONTINUOUS
  5
180
 10
147.141906
 20
253.490766
 30
0.0
 11
149.267749
 21
255.616609
 31
0.0
  0
LINE
  8
LC-006-005-----0
  6
CONTINUOUS
  5
181
 10
146.92529
 20
253.556992
 30
0.0
 11
149.267749
 21
255.899452
 31
0.0
  0
LINE
  8
LC-006-005-----0
  6
CONTINUOUS
  5
182
 10
146.708673
 20
253.623219
 30
0.0
 11
149.111217
 21
256.025763
 31
0.0
  0
LINE
  8
LC-006-005-----0
  6
CONTINUOUS
  5
183
 10
146.492057
 20
253.689445
 30
0.0
 11
148.894601
 21
256.091989
 31
0.0
  0
LINE
  8
LC-006-005-----0
  6
CONTINUOUS
  5
184
 10
146.275441
 20
253.755671
 30
0.0
 11
148.677984
 21
256.158215
 31
0.0
  0
LINE
  8
LC-006-005-----0
  6
CONTINUOUS
  5
185
 10
146.058824
 20
253.821898
 30
0.0
 11
148.461368
 21
256.224442
 31
0.0
  0
LINE
  8
LC-006-005-----0
  6
CONTINUOUS
  5
186
 10
145.842208
 20
253.888124
 30
0.0
 11
148.244752
 21
256.290668
 31
0.0
  0
LINE
  8
LC-006-005-----0
  6
CONTINUOUS
  5
187
 10
145.625591
 20
253.95435
 30
0.0
 11
148.028135
 21
256.356894
 31
0.0
  0
LINE
  8
LC-006-005-----0
  6
CONTINUOUS
  5
188
 10
145.408975
 20
254.020576
 30
0.0
 11
147.811519
 21
256.42312
 31
0.0
  0
LINE
  8
LC-006-005-----0
  6
CONTINUOUS
  5
189
 10
145.192358
 20
254.086803
 30
0.0
 11
147.594902
 21
256.489347
 31
0.0
  0
LINE
  8
LC-006-005-----0
  6
CONTINUOUS
  5
18A
 10
144.975742
 20
254.153029
 30
0.0
 11
147.378286
 21
256.555573
 31
0.0
  0
LINE
  8
LC-006-005-----0
  6
CONTINUOUS
  5
18B
 10
144.759126
 20
254.219255
 30
0.0
 11
147.161669
 21
256.621799
 31
0.0
  0
LINE
  8
LC-006-005-----0
  6
CONTINUOUS
  5
18C
 10
144.542509
 20
254.285482
 30
0.0
 11
146.945053
 21
256.688026
 31
0.0
  0
LINE
  8
LC-006-005-----0
  6
CONTINUOUS
  5
18D
 10
144.325893
 20
254.351708
 30
0.0
 11
146.728437
 21
256.754252
 31
0.0
  0
LINE
  8
LC-006-005-----0
  6
CONTINUOUS
  5
18E
 10
144.267749
 20
254.576407
 30
0.0
 11
146.51182
 21
256.820478
 31
0.0
  0
LINE
  8
LC-006-005-----0
  6
CONTINUOUS
  5
18F
 10
144.267749
 20
254.85925
 30
0.0
 11
146.295204
 21
256.886704
 31
0.0
  0
LINE
  8
LC-006-005-----0
  6
CONTINUOUS
  5
190
 10
144.267749
 20
255.142093
 30
0.0
 11
146.078587
 21
256.952931
 31
0.0
  0
LINE
  8
LC-006-005-----0
  6
CONTINUOUS
  5
191
 10
144.267749
 20
255.424935
 30
0.0
 11
145.861971
 21
257.019157
 31
0.0
  0
LINE
  8
LC-006-005-----0
  6
CONTINUOUS
  5
192
 10
144.267749
 20
255.707778
 30
0.0
 11
145.645355
 21
257.085383
 31
0.0
  0
LINE
  8
LC-006-005-----0
  6
CONTINUOUS
  5
193
 10
144.267749
 20
255.990621
 30
0.0
 11
145.428738
 21
257.15161
 31
0.0
  0
LINE
  8
LC-006-005-----0
  6
CONTINUOUS
  5
194
 10
144.267749
 20
256.273463
 30
0.0
 11
145.212122
 21
257.217836
 31
0.0
  0
LINE
  8
LC-006-005-----0
  6
CONTINUOUS
  5
195
 10
144.267749
 20
256.556306
 30
0.0
 11
144.995505
 21
257.284062
 31
0.0
  0
LINE
  8
LC-006-005-----0
  6
CONTINUOUS
  5
196
 10
144.267749
 20
256.839149
 30
0.0
 11
144.778889
 21
257.350288
 31
0.0
  0
LINE
  8
LC-006-005-----0
  6
CONTINUOUS
  5
197
 10
144.267749
 20
257.121992
 30
0.0
 11
144.562272
 21
257.416515
 31
0.0
  0
LINE
  8
LC-006-005-----0
  6
CONTINUOUS
  5
198
 10
144.267749
 20
257.404834
 30
0.0
 11
144.345656
 21
257.482741
 31
0.0
  0
ENDBLK
  8
0
  5
199
  0
BLOCK
  8
0
  5
19B
  2
*X12
 70
    65
 10
154.267749
 20
251.999922
 30
0.0
  3
*X12
  0
LINE
  8
LC-006-005-----0
  6
CONTINUOUS
  5
19C
 10
159.227512
 20
251.999922
 30
0.0
 11
159.267749
 21
252.040159
 31
0.0
  0
LINE
  8
LC-006-005-----0
  6
CONTINUOUS
  5
19D
 10
158.944669
 20
251.999922
 30
0.0
 11
159.267749
 21
252.323002
 31
0.0
  0
LINE
  8
LC-006-005-----0
  6
CONTINUOUS
  5
19E
 10
158.661827
 20
251.999922
 30
0.0
 11
159.267749
 21
252.605844
 31
0.0
  0
LINE
  8
LC-006-005-----0
  6
CONTINUOUS
  5
19F
 10
158.378984
 20
251.999922
 30
0.0
 11
159.267749
 21
252.888687
 31
0.0
  0
LINE
  8
LC-006-005-----0
  6
CONTINUOUS
  5
1A0
 10
158.096141
 20
251.999922
 30
0.0
 11
159.267749
 21
253.17153
 31
0.0
  0
LINE
  8
LC-006-005-----0
  6
CONTINUOUS
  5
1A1
 10
157.813298
 20
251.999922
 30
0.0
 11
159.267749
 21
253.454373
 31
0.0
  0
LINE
  8
LC-006-005-----0
  6
CONTINUOUS
  5
1A2
 10
157.530456
 20
251.999922
 30
0.0
 11
159.267749
 21
253.737215
 31
0.0
  0
LINE
  8
LC-006-005-----0
  6
CONTINUOUS
  5
1A3
 10
157.247613
 20
251.999922
 30
0.0
 11
159.267749
 21
254.020058
 31
0.0
  0
LINE
  8
LC-006-005-----0
  6
CONTINUOUS
  5
1A4
 10
156.96477
 20
251.999922
 30
0.0
 11
159.267749
 21
254.302901
 31
0.0
  0
LINE
  8
LC-006-005-----0
  6
CONTINUOUS
  5
1A5
 10
156.681928
 20
251.999922
 30
0.0
 11
159.267749
 21
254.585743
 31
0.0
  0
LINE
  8
LC-006-005-----0
  6
CONTINUOUS
  5
1A6
 10
156.399085
 20
251.999922
 30
0.0
 11
159.267749
 21
254.868586
 31
0.0
  0
LINE
  8
LC-006-005-----0
  6
CONTINUOUS
  5
1A7
 10
156.116242
 20
251.999922
 30
0.0
 11
159.116242
 21
254.999922
 31
0.0
  0
LINE
  8
LC-006-005-----0
  6
CONTINUOUS
  5
1A8
 10
155.833399
 20
251.999922
 30
0.0
 11
158.833399
 21
254.999922
 31
0.0
  0
LINE
  8
LC-006-005-----0
  6
CONTINUOUS
  5
1A9
 10
155.550557
 20
251.999922
 30
0.0
 11
158.550557
 21
254.999922
 31
0.0
  0
LINE
  8
LC-006-005-----0
  6
CONTINUOUS
  5
1AA
 10
155.267714
 20
251.999922
 30
0.0
 11
158.267714
 21
254.999922
 31
0.0
  0
LINE
  8
LC-006-005-----0
  6
CONTINUOUS
  5
1AB
 10
154.984871
 20
251.999922
 30
0.0
 11
157.984871
 21
254.999922
 31
0.0
  0
LINE
  8
LC-006-005-----0
  6
CONTINUOUS
  5
1AC
 10
154.702029
 20
251.999922
 30
0.0
 11
157.702029
 21
254.999922
 31
0.0
  0
LINE
  8
LC-006-005-----0
  6
CONTINUOUS
  5
1AD
 10
154.419186
 20
251.999922
 30
0.0
 11
157.419186
 21
254.999922
 31
0.0
  0
LINE
  8
LC-006-005-----0
  6
CONTINUOUS
  5
1AE
 10
154.267749
 20
252.131328
 30
0.0
 11
157.136343
 21
254.999922
 31
0.0
  0
LINE
  8
LC-006-005-----0
  6
CONTINUOUS
  5
1AF
 10
154.267749
 20
252.414171
 30
0.0
 11
156.853501
 21
254.999922
 31
0.0
  0
LINE
  8
LC-006-005-----0
  6
CONTINUOUS
  5
1B0
 10
154.267749
 20
252.697013
 30
0.0
 11
156.570658
 21
254.999922
 31
0.0
  0
LINE
  8
LC-006-005-----0
  6
CONTINUOUS
  5
1B1
 10
154.267749
 20
252.979856
 30
0.0
 11
156.287815
 21
254.999922
 31
0.0
  0
LINE
  8
LC-006-005-----0
  6
CONTINUOUS
  5
1B2
 10
154.267749
 20
253.262699
 30
0.0
 11
156.004972
 21
254.999922
 31
0.0
  0
LINE
  8
LC-006-005-----0
  6
CONTINUOUS
  5
1B3
 10
154.267749
 20
253.545541
 30
0.0
 11
155.72213
 21
254.999922
 31
0.0
  0
LINE
  8
LC-006-005-----0
  6
CONTINUOUS
  5
1B4
 10
154.267749
 20
253.828384
 30
0.0
 11
155.439287
 21
254.999922
 31
0.0
  0
LINE
  8
LC-006-005-----0
  6
CONTINUOUS
  5
1B5
 10
154.267749
 20
254.111227
 30
0.0
 11
155.156444
 21
254.999922
 31
0.0
  0
LINE
  8
LC-006-005-----0
  6
CONTINUOUS
  5
1B6
 10
154.267749
 20
254.39407
 30
0.0
 11
154.873602
 21
254.999922
 31
0.0
  0
LINE
  8
LC-006-005-----0
  6
CONTINUOUS
  5
1B7
 10
154.267749
 20
254.676912
 30
0.0
 11
154.590759
 21
254.999922
 31
0.0
  0
LINE
  8
LC-006-005-----0
  6
CONTINUOUS
  5
1B8
 10
154.267749
 20
254.959755
 30
0.0
 11
154.307916
 21
254.999922
 31
0.0
  0
ENDBLK
  8
0
  5
1B9
  0
BLOCK
  8
0
  5
1BB
  2
*X13
 70
    65
 10
170.017749
 20
253.499231
 30
0.0
  3
*X13
  0
LINE
  8
LC-006-005-----0
  6
CONTINUOUS
  5
1BC
 10
172.04053
 20
253.499231
 30
0.0
 11
172.268127
 21
253.726828
 31
0.0
  0
LINE
  8
LC-006-005-----0
  6
CONTINUOUS
  5
1BD
 10
171.757687
 20
253.499231
 30
0.0
 11
172.268127
 21
254.00967
 31
0.0
  0
LINE
  8
LC-006-005-----0
  6
CONTINUOUS
  5
1BE
 10
171.474845
 20
253.499231
 30
0.0
 11
172.268127
 21
254.292513
 31
0.0
  0
LINE
  8
LC-006-005-----0
  6
CONTINUOUS
  5
1BF
 10
171.192002
 20
253.499231
 30
0.0
 11
172.268127
 21
254.575356
 31
0.0
  0
LINE
  8
LC-006-005-----0
  6
CONTINUOUS
  5
1C0
 10
170.909159
 20
253.499231
 30
0.0
 11
172.268127
 21
254.858199
 31
0.0
  0
LINE
  8
LC-006-005-----0
  6
CONTINUOUS
  5
1C1
 10
170.626317
 20
253.499231
 30
0.0
 11
172.268127
 21
255.141041
 31
0.0
  0
LINE
  8
LC-006-005-----0
  6
CONTINUOUS
  5
1C2
 10
170.343474
 20
253.499231
 30
0.0
 11
172.268127
 21
255.423884
 31
0.0
  0
LINE
  8
LC-006-005-----0
  6
CONTINUOUS
  5
1C3
 10
170.060631
 20
253.499231
 30
0.0
 11
172.268127
 21
255.706727
 31
0.0
  0
LINE
  8
LC-006-005-----0
  6
CONTINUOUS
  5
1C4
 10
170.017749
 20
253.739192
 30
0.0
 11
172.268127
 21
255.989569
 31
0.0
  0
LINE
  8
LC-006-005-----0
  6
CONTINUOUS
  5
1C5
 10
170.017749
 20
254.022035
 30
0.0
 11
172.268127
 21
256.272412
 31
0.0
  0
LINE
  8
LC-006-005-----0
  6
CONTINUOUS
  5
1C6
 10
170.017749
 20
254.304878
 30
0.0
 11
172.212103
 21
256.499231
 31
0.0
  0
LINE
  8
LC-006-005-----0
  6
CONTINUOUS
  5
1C7
 10
170.017749
 20
254.58772
 30
0.0
 11
171.92926
 21
256.499231
 31
0.0
  0
LINE
  8
LC-006-005-----0
  6
CONTINUOUS
  5
1C8
 10
170.017749
 20
254.870563
 30
0.0
 11
171.646418
 21
256.499231
 31
0.0
  0
LINE
  8
LC-006-005-----0
  6
CONTINUOUS
  5
1C9
 10
170.017749
 20
255.153406
 30
0.0
 11
171.363575
 21
256.499231
 31
0.0
  0
LINE
  8
LC-006-005-----0
  6
CONTINUOUS
  5
1CA
 10
170.017749
 20
255.436248
 30
0.0
 11
171.080732
 21
256.499231
 31
0.0
  0
LINE
  8
LC-006-005-----0
  6
CONTINUOUS
  5
1CB
 10
170.017749
 20
255.719091
 30
0.0
 11
170.797889
 21
256.499231
 31
0.0
  0
LINE
  8
LC-006-005-----0
  6
CONTINUOUS
  5
1CC
 10
170.017749
 20
256.001934
 30
0.0
 11
170.515047
 21
256.499231
 31
0.0
  0
LINE
  8
LC-006-005-----0
  6
CONTINUOUS
  5
1CD
 10
170.017749
 20
256.284777
 30
0.0
 11
170.232204
 21
256.499231
 31
0.0
  0
ENDBLK
  8
0
  5
1CE
  0
BLOCK
  8
0
  5
1D0
  2
*X14
 70
    65
 10
124.267749
 20
258.282193
 30
0.0
  3
*X14
  0
LINE
  8
LC-006-005-----0
  6
CONTINUOUS
  5
1D1
 10
129.030814
 20
258.289933
 30
0.0
 11
129.267749
 21
258.526869
 31
0.0
  0
LINE
  8
LC-006-005-----0
  6
CONTINUOUS
  5
1D2
 10
128.756919
 20
258.298881
 30
0.0
 11
129.267749
 21
258.809712
 31
0.0
  0
LINE
  8
LC-006-005-----0
  6
CONTINUOUS
  5
1D3
 10
128.483024
 20
258.307829
 30
0.0
 11
129.267749
 21
259.092554
 31
0.0
  0
LINE
  8
LC-006-005-----0
  6
CONTINUOUS
  5
1D4
 10
128.209129
 20
258.316777
 30
0.0
 11
129.267749
 21
259.375397
 31
0.0
  0
LINE
  8
LC-006-005-----0
  6
CONTINUOUS
  5
1D5
 10
127.935234
 20
258.325724
 30
0.0
 11
129.267749
 21
259.65824
 31
0.0
  0
LINE
  8
LC-006-005-----0
  6
CONTINUOUS
  5
1D6
 10
127.661339
 20
258.334672
 30
0.0
 11
129.267749
 21
259.941082
 31
0.0
  0
LINE
  8
LC-006-005-----0
  6
CONTINUOUS
  5
1D7
 10
127.387444
 20
258.34362
 30
0.0
 11
129.267749
 21
260.223925
 31
0.0
  0
LINE
  8
LC-006-005-----0
  6
CONTINUOUS
  5
1D8
 10
127.113549
 20
258.352568
 30
0.0
 11
129.267749
 21
260.506768
 31
0.0
  0
LINE
  8
LC-006-005-----0
  6
CONTINUOUS
  5
1D9
 10
126.839654
 20
258.361515
 30
0.0
 11
129.267749
 21
260.789611
 31
0.0
  0
LINE
  8
LC-006-005-----0
  6
CONTINUOUS
  5
1DA
 10
126.565759
 20
258.370463
 30
0.0
 11
129.267749
 21
261.072453
 31
0.0
  0
LINE
  8
LC-006-005-----0
  6
CONTINUOUS
  5
1DB
 10
126.291864
 20
258.379411
 30
0.0
 11
129.198509
 21
261.286056
 31
0.0
  0
LINE
  8
LC-006-005-----0
  6
CONTINUOUS
  5
1DC
 10
126.017969
 20
258.388358
 30
0.0
 11
128.924614
 21
261.295003
 31
0.0
  0
LINE
  8
LC-006-005-----0
  6
CONTINUOUS
  5
1DD
 10
125.744074
 20
258.397306
 30
0.0
 11
128.650719
 21
261.303951
 31
0.0
  0
LINE
  8
LC-006-005-----0
  6
CONTINUOUS
  5
1DE
 10
125.470179
 20
258.406254
 30
0.0
 11
128.376824
 21
261.312899
 31
0.0
  0
LINE
  8
LC-006-005-----0
  6
CONTINUOUS
  5
1DF
 10
125.196284
 20
258.415202
 30
0.0
 11
128.102929
 21
261.321846
 31
0.0
  0
LINE
  8
LC-006-005-----0
  6
CONTINUOUS
  5
1E0
 10
124.922389
 20
258.424149
 30
0.0
 11
127.829034
 21
261.330794
 31
0.0
  0
LINE
  8
LC-006-005-----0
  6
CONTINUOUS
  5
1E1
 10
124.648494
 20
258.433097
 30
0.0
 11
127.555139
 21
261.339742
 31
0.0
  0
LINE
  8
LC-006-005-----0
  6
CONTINUOUS
  5
1E2
 10
124.374599
 20
258.442045
 30
0.0
 11
127.281244
 21
261.34869
 31
0.0
  0
LINE
  8
LC-006-005-----0
  6
CONTINUOUS
  5
1E3
 10
124.267749
 20
258.618038
 30
0.0
 11
127.007349
 21
261.357637
 31
0.0
  0
LINE
  8
LC-006-005-----0
  6
CONTINUOUS
  5
1E4
 10
124.267749
 20
258.90088
 30
0.0
 11
126.733454
 21
261.366585
 31
0.0
  0
LINE
  8
LC-006-005-----0
  6
CONTINUOUS
  5
1E5
 10
124.267749
 20
259.183723
 30
0.0
 11
126.459559
 21
261.375533
 31
0.0
  0
LINE
  8
LC-006-005-----0
  6
CONTINUOUS
  5
1E6
 10
124.267749
 20
259.466566
 30
0.0
 11
126.185664
 21
261.38448
 31
0.0
  0
LINE
  8
LC-006-005-----0
  6
CONTINUOUS
  5
1E7
 10
124.267749
 20
259.749409
 30
0.0
 11
125.911769
 21
261.393428
 31
0.0
  0
LINE
  8
LC-006-005-----0
  6
CONTINUOUS
  5
1E8
 10
124.267749
 20
260.032251
 30
0.0
 11
125.637874
 21
261.402376
 31
0.0
  0
LINE
  8
LC-006-005-----0
  6
CONTINUOUS
  5
1E9
 10
124.267749
 20
260.315094
 30
0.0
 11
125.363979
 21
261.411324
 31
0.0
  0
LINE
  8
LC-006-005-----0
  6
CONTINUOUS
  5
1EA
 10
124.267749
 20
260.597937
 30
0.0
 11
125.090084
 21
261.420271
 31
0.0
  0
LINE
  8
LC-006-005-----0
  6
CONTINUOUS
  5
1EB
 10
124.267749
 20
260.880779
 30
0.0
 11
124.816189
 21
261.429219
 31
0.0
  0
LINE
  8
LC-006-005-----0
  6
CONTINUOUS
  5
1EC
 10
124.267749
 20
261.163622
 30
0.0
 11
124.542294
 21
261.438167
 31
0.0
  0
LINE
  8
LC-006-005-----0
  6
CONTINUOUS
  5
1ED
 10
124.267749
 20
261.446465
 30
0.0
 11
124.268399
 21
261.447115
 31
0.0
  0
ENDBLK
  8
0
  5
1EE
  0
BLOCK
  8
0
  5
1F0
  2
BLK1
 70
    64
 10
0.0
 20
0.0
 30
0.0
  3
BLK1
  0
ENDBLK
  8
0
  5
1F1
  0
BLOCK
  8
0
  5
1F3
  2
*X16
 70
    65
 10
434.768728
 20
258.494222
 30
0.0
  3
*X16
  0
LINE
  8
LC-006-005-----0
  6
CONTINUOUS
  5
1F4
 10
436.967974
 20
258.494222
 30
0.0
 11
437.018239
 21
258.544487
 31
0.0
  0
LINE
  8
LC-006-005-----0
  6
CONTINUOUS
  5
1F5
 10
436.685131
 20
258.494222
 30
0.0
 11
437.018239
 21
258.82733
 31
0.0
  0
LINE
  8
LC-006-005-----0
  6
CONTINUOUS
  5
1F6
 10
436.402288
 20
258.494222
 30
0.0
 11
437.018239
 21
259.110173
 31
0.0
  0
LINE
  8
LC-006-005-----0
  6
CONTINUOUS
  5
1F7
 10
436.119445
 20
258.494222
 30
0.0
 11
437.018239
 21
259.393015
 31
0.0
  0
LINE
  8
LC-006-005-----0
  6
CONTINUOUS
  5
1F8
 10
435.836603
 20
258.494222
 30
0.0
 11
437.018239
 21
259.675858
 31
0.0
  0
LINE
  8
LC-006-005-----0
  6
CONTINUOUS
  5
1F9
 10
435.55376
 20
258.494222
 30
0.0
 11
437.018239
 21
259.958701
 31
0.0
  0
LINE
  8
LC-006-005-----0
  6
CONTINUOUS
  5
1FA
 10
435.270917
 20
258.494222
 30
0.0
 11
437.018239
 21
260.241543
 31
0.0
  0
LINE
  8
LC-006-005-----0
  6
CONTINUOUS
  5
1FB
 10
434.988075
 20
258.494222
 30
0.0
 11
437.018239
 21
260.524386
 31
0.0
  0
LINE
  8
LC-006-005-----0
  6
CONTINUOUS
  5
1FC
 10
434.768728
 20
258.557718
 30
0.0
 11
437.018239
 21
260.807229
 31
0.0
  0
LINE
  8
LC-006-005-----0
  6
CONTINUOUS
  5
1FD
 10
434.768728
 20
258.840561
 30
0.0
 11
437.018239
 21
261.090072
 31
0.0
  0
LINE
  8
LC-006-005-----0
  6
CONTINUOUS
  5
1FE
 10
434.768728
 20
259.123404
 30
0.0
 11
437.018239
 21
261.372914
 31
0.0
  0
LINE
  8
LC-006-005-----0
  6
CONTINUOUS
  5
1FF
 10
434.768728
 20
259.406246
 30
0.0
 11
436.856704
 21
261.494222
 31
0.0
  0
LINE
  8
LC-006-005-----0
  6
CONTINUOUS
  5
200
 10
434.768728
 20
259.689089
 30
0.0
 11
436.573861
 21
261.494222
 31
0.0
  0
LINE
  8
LC-006-005-----0
  6
CONTINUOUS
  5
201
 10
434.768728
 20
259.971932
 30
0.0
 11
436.291018
 21
261.494222
 31
0.0
  0
LINE
  8
LC-006-005-----0
  6
CONTINUOUS
  5
202
 10
434.768728
 20
260.254775
 30
0.0
 11
436.008176
 21
261.494222
 31
0.0
  0
LINE
  8
LC-006-005-----0
  6
CONTINUOUS
  5
203
 10
434.768728
 20
260.537617
 30
0.0
 11
435.725333
 21
261.494222
 31
0.0
  0
LINE
  8
LC-006-005-----0
  6
CONTINUOUS
  5
204
 10
434.768728
 20
260.82046
 30
0.0
 11
435.44249
 21
261.494222
 31
0.0
  0
LINE
  8
LC-006-005-----0
  6
CONTINUOUS
  5
205
 10
434.768728
 20
261.103303
 30
0.0
 11
435.159648
 21
261.494222
 31
0.0
  0
LINE
  8
LC-006-005-----0
  6
CONTINUOUS
  5
206
 10
434.768728
 20
261.386145
 30
0.0
 11
434.876805
 21
261.494222
 31
0.0
  0
ENDBLK
  8
0
  5
207
  0
BLOCK
  8
0
  5
209
  2
*X17
 70
    65
 10
424.768728
 20
258.494222
 30
0.0
  3
*X17
  0
LINE
  8
LC-006-005-----0
  6
CONTINUOUS
  5
20A
 10
429.614063
 20
258.494222
 30
0.0
 11
429.768728
 21
258.648887
 31
0.0
  0
LINE
  8
LC-006-005-----0
  6
CONTINUOUS
  5
20B
 10
429.33122
 20
258.494222
 30
0.0
 11
429.768728
 21
258.93173
 31
0.0
  0
LINE
  8
LC-006-005-----0
  6
CONTINUOUS
  5
20C
 10
429.048378
 20
258.494222
 30
0.0
 11
429.768728
 21
259.214573
 31
0.0
  0
LINE
  8
LC-006-005-----0
  6
CONTINUOUS
  5
20D
 10
428.765535
 20
258.494222
 30
0.0
 11
429.768728
 21
259.497415
 31
0.0
  0
LINE
  8
LC-006-005-----0
  6
CONTINUOUS
  5
20E
 10
428.482692
 20
258.494222
 30
0.0
 11
429.768728
 21
259.780258
 31
0.0
  0
LINE
  8
LC-006-005-----0
  6
CONTINUOUS
  5
20F
 10
428.19985
 20
258.494222
 30
0.0
 11
429.768728
 21
260.063101
 31
0.0
  0
LINE
  8
LC-006-005-----0
  6
CONTINUOUS
  5
210
 10
427.917007
 20
258.494222
 30
0.0
 11
429.768728
 21
260.345943
 31
0.0
  0
LINE
  8
LC-006-005-----0
  6
CONTINUOUS
  5
211
 10
427.634164
 20
258.494222
 30
0.0
 11
429.768728
 21
260.628786
 31
0.0
  0
LINE
  8
LC-006-005-----0
  6
CONTINUOUS
  5
212
 10
427.351321
 20
258.494222
 30
0.0
 11
429.768728
 21
260.911629
 31
0.0
  0
LINE
  8
LC-006-005-----0
  6
CONTINUOUS
  5
213
 10
427.068479
 20
258.494222
 30
0.0
 11
429.768728
 21
261.194472
 31
0.0
  0
LINE
  8
LC-006-005-----0
  6
CONTINUOUS
  5
214
 10
426.785636
 20
258.494222
 30
0.0
 11
429.768728
 21
261.477314
 31
0.0
  0
LINE
  8
LC-006-005-----0
  6
CONTINUOUS
  5
215
 10
426.502793
 20
258.494222
 30
0.0
 11
429.502793
 21
261.494222
 31
0.0
  0
LINE
  8
LC-006-005-----0
  6
CONTINUOUS
  5
216
 10
426.219951
 20
258.494222
 30
0.0
 11
429.219951
 21
261.494222
 31
0.0
  0
LINE
  8
LC-006-005-----0
  6
CONTINUOUS
  5
217
 10
425.937108
 20
258.494222
 30
0.0
 11
428.937108
 21
261.494222
 31
0.0
  0
LINE
  8
LC-006-005-----0
  6
CONTINUOUS
  5
218
 10
425.654265
 20
258.494222
 30
0.0
 11
428.654265
 21
261.494222
 31
0.0
  0
LINE
  8
LC-006-005-----0
  6
CONTINUOUS
  5
219
 10
425.371422
 20
258.494222
 30
0.0
 11
428.371422
 21
261.494222
 31
0.0
  0
LINE
  8
LC-006-005-----0
  6
CONTINUOUS
  5
21A
 10
425.08858
 20
258.494222
 30
0.0
 11
428.08858
 21
261.494222
 31
0.0
  0
LINE
  8
LC-006-005-----0
  6
CONTINUOUS
  5
21B
 10
424.805737
 20
258.494222
 30
0.0
 11
427.805737
 21
261.494222
 31
0.0
  0
LINE
  8
LC-006-005-----0
  6
CONTINUOUS
  5
21C
 10
424.768728
 20
258.740056
 30
0.0
 11
427.522894
 21
261.494222
 31
0.0
  0
LINE
  8
LC-006-005-----0
  6
CONTINUOUS
  5
21D
 10
424.768728
 20
259.022899
 30
0.0
 11
427.240052
 21
261.494222
 31
0.0
  0
LINE
  8
LC-006-005-----0
  6
CONTINUOUS
  5
21E
 10
424.768728
 20
259.305741
 30
0.0
 11
426.957209
 21
261.494222
 31
0.0
  0
LINE
  8
LC-006-005-----0
  6
CONTINUOUS
  5
21F
 10
424.768728
 20
259.588584
 30
0.0
 11
426.674366
 21
261.494222
 31
0.0
  0
LINE
  8
LC-006-005-----0
  6
CONTINUOUS
  5
220
 10
424.768728
 20
259.871427
 30
0.0
 11
426.391523
 21
261.494222
 31
0.0
  0
LINE
  8
LC-006-005-----0
  6
CONTINUOUS
  5
221
 10
424.768728
 20
260.154269
 30
0.0
 11
426.108681
 21
261.494222
 31
0.0
  0
LINE
  8
LC-006-005-----0
  6
CONTINUOUS
  5
222
 10
424.768728
 20
260.437112
 30
0.0
 11
425.825838
 21
261.494222
 31
0.0
  0
LINE
  8
LC-006-005-----0
  6
CONTINUOUS
  5
223
 10
424.768728
 20
260.719955
 30
0.0
 11
425.542995
 21
261.494222
 31
0.0
  0
LINE
  8
LC-006-005-----0
  6
CONTINUOUS
  5
224
 10
424.768728
 20
261.002798
 30
0.0
 11
425.260153
 21
261.494222
 31
0.0
  0
LINE
  8
LC-006-005-----0
  6
CONTINUOUS
  5
225
 10
424.768728
 20
261.28564
 30
0.0
 11
424.97731
 21
261.494222
 31
0.0
  0
ENDBLK
  8
0
  5
226
  0
BLOCK
  8
0
  5
228
  2
*X18
 70
    65
 10
414.768728
 20
258.494222
 30
0.0
  3
*X18
  0
LINE
  8
LC-006-005-----0
  6
CONTINUOUS
  5
229
 10
419.714568
 20
258.494222
 30
0.0
 11
419.768728
 21
258.548382
 31
0.0
  0
LINE
  8
LC-006-005-----0
  6
CONTINUOUS
  5
22A
 10
419.431725
 20
258.494222
 30
0.0
 11
419.768728
 21
258.831225
 31
0.0
  0
LINE
  8
LC-006-005-----0
  6
CONTINUOUS
  5
22B
 10
419.148883
 20
258.494222
 30
0.0
 11
419.768728
 21
259.114067
 31
0.0
  0
LINE
  8
LC-006-005-----0
  6
CONTINUOUS
  5
22C
 10
418.86604
 20
258.494222
 30
0.0
 11
419.768728
 21
259.39691
 31
0.0
  0
LINE
  8
LC-006-005-----0
  6
CONTINUOUS
  5
22D
 10
418.583197
 20
258.494222
 30
0.0
 11
419.768728
 21
259.679753
 31
0.0
  0
LINE
  8
LC-006-005-----0
  6
CONTINUOUS
  5
22E
 10
418.300355
 20
258.494222
 30
0.0
 11
419.768728
 21
259.962596
 31
0.0
  0
LINE
  8
LC-006-005-----0
  6
CONTINUOUS
  5
22F
 10
418.017512
 20
258.494222
 30
0.0
 11
419.768728
 21
260.245438
 31
0.0
  0
LINE
  8
LC-006-005-----0
  6
CONTINUOUS
  5
230
 10
417.734669
 20
258.494222
 30
0.0
 11
419.768728
 21
260.528281
 31
0.0
  0
LINE
  8
LC-006-005-----0
  6
CONTINUOUS
  5
231
 10
417.451826
 20
258.494222
 30
0.0
 11
419.768728
 21
260.811124
 31
0.0
  0
LINE
  8
LC-006-005-----0
  6
CONTINUOUS
  5
232
 10
417.168984
 20
258.494222
 30
0.0
 11
419.768728
 21
261.093966
 31
0.0
  0
LINE
  8
LC-006-005-----0
  6
CONTINUOUS
  5
233
 10
416.886141
 20
258.494222
 30
0.0
 11
419.768728
 21
261.376809
 31
0.0
  0
LINE
  8
LC-006-005-----0
  6
CONTINUOUS
  5
234
 10
416.603298
 20
258.494222
 30
0.0
 11
419.603298
 21
261.494222
 31
0.0
  0
LINE
  8
LC-006-005-----0
  6
CONTINUOUS
  5
235
 10
416.320456
 20
258.494222
 30
0.0
 11
419.320456
 21
261.494222
 31
0.0
  0
LINE
  8
LC-006-005-----0
  6
CONTINUOUS
  5
236
 10
416.037613
 20
258.494222
 30
0.0
 11
419.037613
 21
261.494222
 31
0.0
  0
LINE
  8
LC-006-005-----0
  6
CONTINUOUS
  5
237
 10
415.75477
 20
258.494222
 30
0.0
 11
418.75477
 21
261.494222
 31
0.0
  0
LINE
  8
LC-006-005-----0
  6
CONTINUOUS
  5
238
 10
415.471927
 20
258.494222
 30
0.0
 11
418.471927
 21
261.494222
 31
0.0
  0
LINE
  8
LC-006-005-----0
  6
CONTINUOUS
  5
239
 10
415.189085
 20
258.494222
 30
0.0
 11
418.189085
 21
261.494222
 31
0.0
  0
LINE
  8
LC-006-005-----0
  6
CONTINUOUS
  5
23A
 10
414.906242
 20
258.494222
 30
0.0
 11
417.906242
 21
261.494222
 31
0.0
  0
LINE
  8
LC-006-005-----0
  6
CONTINUOUS
  5
23B
 10
414.768728
 20
258.639551
 30
0.0
 11
417.623399
 21
261.494222
 31
0.0
  0
LINE
  8
LC-006-005-----0
  6
CONTINUOUS
  5
23C
 10
414.768728
 20
258.922394
 30
0.0
 11
417.340557
 21
261.494222
 31
0.0
  0
LINE
  8
LC-006-005-----0
  6
CONTINUOUS
  5
23D
 10
414.768728
 20
259.205236
 30
0.0
 11
417.057714
 21
261.494222
 31
0.0
  0
LINE
  8
LC-006-005-----0
  6
CONTINUOUS
  5
23E
 10
414.768728
 20
259.488079
 30
0.0
 11
416.774871
 21
261.494222
 31
0.0
  0
LINE
  8
LC-006-005-----0
  6
CONTINUOUS
  5
23F
 10
414.768728
 20
259.770922
 30
0.0
 11
416.492028
 21
261.494222
 31
0.0
  0
LINE
  8
LC-006-005-----0
  6
CONTINUOUS
  5
240
 10
414.768728
 20
260.053764
 30
0.0
 11
416.209186
 21
261.494222
 31
0.0
  0
LINE
  8
LC-006-005-----0
  6
CONTINUOUS
  5
241
 10
414.768728
 20
260.336607
 30
0.0
 11
415.926343
 21
261.494222
 31
0.0
  0
LINE
  8
LC-006-005-----0
  6
CONTINUOUS
  5
242
 10
414.768728
 20
260.61945
 30
0.0
 11
415.6435
 21
261.494222
 31
0.0
  0
LINE
  8
LC-006-005-----0
  6
CONTINUOUS
  5
243
 10
414.768728
 20
260.902293
 30
0.0
 11
415.360658
 21
261.494222
 31
0.0
  0
LINE
  8
LC-006-005-----0
  6
CONTINUOUS
  5
244
 10
414.768728
 20
261.185135
 30
0.0
 11
415.077815
 21
261.494222
 31
0.0
  0
LINE
  8
LC-006-005-----0
  6
CONTINUOUS
  5
245
 10
414.768728
 20
261.467978
 30
0.0
 11
414.794972
 21
261.494222
 31
0.0
  0
ENDBLK
  8
0
  5
246
  0
BLOCK
  8
0
  5
248
  2
*X19
 70
    65
 10
404.768728
 20
258.494222
 30
0.0
  3
*X19
  0
LINE
  8
LC-006-005-----0
  6
CONTINUOUS
  5
249
 10
409.532231
 20
258.494222
 30
0.0
 11
409.768728
 21
258.73072
 31
0.0
  0
LINE
  8
LC-006-005-----0
  6
CONTINUOUS
  5
24A
 10
409.249388
 20
258.494222
 30
0.0
 11
409.768728
 21
259.013562
 31
0.0
  0
LINE
  8
LC-006-005-----0
  6
CONTINUOUS
  5
24B
 10
408.966545
 20
258.494222
 30
0.0
 11
409.768728
 21
259.296405
 31
0.0
  0
LINE
  8
LC-006-005-----0
  6
CONTINUOUS
  5
24C
 10
408.683702
 20
258.494222
 30
0.0
 11
409.768728
 21
259.579248
 31
0.0
  0
LINE
  8
LC-006-005-----0
  6
CONTINUOUS
  5
24D
 10
408.40086
 20
258.494222
 30
0.0
 11
409.768728
 21
259.862091
 31
0.0
  0
LINE
  8
LC-006-005-----0
  6
CONTINUOUS
  5
24E
 10
408.118017
 20
258.494222
 30
0.0
 11
409.768728
 21
260.144933
 31
0.0
  0
LINE
  8
LC-006-005-----0
  6
CONTINUOUS
  5
24F
 10
407.835174
 20
258.494222
 30
0.0
 11
409.768728
 21
260.427776
 31
0.0
  0
LINE
  8
LC-006-005-----0
  6
CONTINUOUS
  5
250
 10
407.552332
 20
258.494222
 30
0.0
 11
409.768728
 21
260.710619
 31
0.0
  0
LINE
  8
LC-006-005-----0
  6
CONTINUOUS
  5
251
 10
407.269489
 20
258.494222
 30
0.0
 11
409.768728
 21
260.993461
 31
0.0
  0
LINE
  8
LC-006-005-----0
  6
CONTINUOUS
  5
252
 10
406.986646
 20
258.494222
 30
0.0
 11
409.768728
 21
261.276304
 31
0.0
  0
LINE
  8
LC-006-005-----0
  6
CONTINUOUS
  5
253
 10
406.703803
 20
258.494222
 30
0.0
 11
409.703803
 21
261.494222
 31
0.0
  0
LINE
  8
LC-006-005-----0
  6
CONTINUOUS
  5
254
 10
406.420961
 20
258.494222
 30
0.0
 11
409.420961
 21
261.494222
 31
0.0
  0
LINE
  8
LC-006-005-----0
  6
CONTINUOUS
  5
255
 10
406.138118
 20
258.494222
 30
0.0
 11
409.138118
 21
261.494222
 31
0.0
  0
LINE
  8
LC-006-005-----0
  6
CONTINUOUS
  5
256
 10
405.855275
 20
258.494222
 30
0.0
 11
408.855275
 21
261.494222
 31
0.0
  0
LINE
  8
LC-006-005-----0
  6
CONTINUOUS
  5
257
 10
405.572433
 20
258.494222
 30
0.0
 11
408.572433
 21
261.494222
 31
0.0
  0
LINE
  8
LC-006-005-----0
  6
CONTINUOUS
  5
258
 10
405.28959
 20
258.494222
 30
0.0
 11
408.28959
 21
261.494222
 31
0.0
  0
LINE
  8
LC-006-005-----0
  6
CONTINUOUS
  5
259
 10
405.006747
 20
258.494222
 30
0.0
 11
408.006747
 21
261.494222
 31
0.0
  0
LINE
  8
LC-006-005-----0
  6
CONTINUOUS
  5
25A
 10
404.768728
 20
258.539046
 30
0.0
 11
407.723904
 21
261.494222
 31
0.0
  0
LINE
  8
LC-006-005-----0
  6
CONTINUOUS
  5
25B
 10
404.768728
 20
258.821889
 30
0.0
 11
407.441062
 21
261.494222
 31
0.0
  0
LINE
  8
LC-006-005-----0
  6
CONTINUOUS
  5
25C
 10
404.768728
 20
259.104731
 30
0.0
 11
407.158219
 21
261.494222
 31
0.0
  0
LINE
  8
LC-006-005-----0
  6
CONTINUOUS
  5
25D
 10
404.768728
 20
259.387574
 30
0.0
 11
406.875376
 21
261.494222
 31
0.0
  0
LINE
  8
LC-006-005-----0
  6
CONTINUOUS
  5
25E
 10
404.768728
 20
259.670417
 30
0.0
 11
406.592534
 21
261.494222
 31
0.0
  0
LINE
  8
LC-006-005-----0
  6
CONTINUOUS
  5
25F
 10
404.768728
 20
259.953259
 30
0.0
 11
406.309691
 21
261.494222
 31
0.0
  0
LINE
  8
LC-006-005-----0
  6
CONTINUOUS
  5
260
 10
404.768728
 20
260.236102
 30
0.0
 11
406.026848
 21
261.494222
 31
0.0
  0
LINE
  8
LC-006-005-----0
  6
CONTINUOUS
  5
261
 10
404.768728
 20
260.518945
 30
0.0
 11
405.744005
 21
261.494222
 31
0.0
  0
LINE
  8
LC-006-005-----0
  6
CONTINUOUS
  5
262
 10
404.768728
 20
260.801788
 30
0.0
 11
405.461163
 21
261.494222
 31
0.0
  0
LINE
  8
LC-006-005-----0
  6
CONTINUOUS
  5
263
 10
404.768728
 20
261.08463
 30
0.0
 11
405.17832
 21
261.494222
 31
0.0
  0
LINE
  8
LC-006-005-----0
  6
CONTINUOUS
  5
264
 10
404.768728
 20
261.367473
 30
0.0
 11
404.895477
 21
261.494222
 31
0.0
  0
ENDBLK
  8
0
  5
265
  0
BLOCK
  8
0
  5
267
  2
*X20
 70
    65
 10
394.768728
 20
258.494222
 30
0.0
  3
*X20
  0
LINE
  8
LC-006-005-----0
  6
CONTINUOUS
  5
268
 10
399.632736
 20
258.494222
 30
0.0
 11
399.768728
 21
258.630215
 31
0.0
  0
LINE
  8
LC-006-005-----0
  6
CONTINUOUS
  5
269
 10
399.349893
 20
258.494222
 30
0.0
 11
399.768728
 21
258.913057
 31
0.0
  0
LINE
  8
LC-006-005-----0
  6
CONTINUOUS
  5
26A
 10
399.06705
 20
258.494222
 30
0.0
 11
399.768728
 21
259.1959
 31
0.0
  0
LINE
  8
LC-006-005-----0
  6
CONTINUOUS
  5
26B
 10
398.784207
 20
258.494222
 30
0.0
 11
399.768728
 21
259.478743
 31
0.0
  0
LINE
  8
LC-006-005-----0
  6
CONTINUOUS
  5
26C
 10
398.501365
 20
258.494222
 30
0.0
 11
399.768728
 21
259.761585
 31
0.0
  0
LINE
  8
LC-006-005-----0
  6
CONTINUOUS
  5
26D
 10
398.218522
 20
258.494222
 30
0.0
 11
399.768728
 21
260.044428
 31
0.0
  0
LINE
  8
LC-006-005-----0
  6
CONTINUOUS
  5
26E
 10
397.935679
 20
258.494222
 30
0.0
 11
399.768728
 21
260.327271
 31
0.0
  0
LINE
  8
LC-006-005-----0
  6
CONTINUOUS
  5
26F
 10
397.652837
 20
258.494222
 30
0.0
 11
399.768728
 21
260.610114
 31
0.0
  0
LINE
  8
LC-006-005-----0
  6
CONTINUOUS
  5
270
 10
397.369994
 20
258.494222
 30
0.0
 11
399.768728
 21
260.892956
 31
0.0
  0
LINE
  8
LC-006-005-----0
  6
CONTINUOUS
  5
271
 10
397.087151
 20
258.494222
 30
0.0
 11
399.768728
 21
261.175799
 31
0.0
  0
LINE
  8
LC-006-005-----0
  6
CONTINUOUS
  5
272
 10
396.804308
 20
258.494222
 30
0.0
 11
399.768728
 21
261.458642
 31
0.0
  0
LINE
  8
LC-006-005-----0
  6
CONTINUOUS
  5
273
 10
396.521466
 20
258.494222
 30
0.0
 11
399.521466
 21
261.494222
 31
0.0
  0
LINE
  8
LC-006-005-----0
  6
CONTINUOUS
  5
274
 10
396.238623
 20
258.494222
 30
0.0
 11
399.238623
 21
261.494222
 31
0.0
  0
LINE
  8
LC-006-005-----0
  6
CONTINUOUS
  5
275
 10
395.95578
 20
258.494222
 30
0.0
 11
398.95578
 21
261.494222
 31
0.0
  0
LINE
  8
LC-006-005-----0
  6
CONTINUOUS
  5
276
 10
395.672938
 20
258.494222
 30
0.0
 11
398.672938
 21
261.494222
 31
0.0
  0
LINE
  8
LC-006-005-----0
  6
CONTINUOUS
  5
277
 10
395.390095
 20
258.494222
 30
0.0
 11
398.390095
 21
261.494222
 31
0.0
  0
LINE
  8
LC-006-005-----0
  6
CONTINUOUS
  5
278
 10
395.107252
 20
258.494222
 30
0.0
 11
398.107252
 21
261.494222
 31
0.0
  0
LINE
  8
LC-006-005-----0
  6
CONTINUOUS
  5
279
 10
394.824409
 20
258.494222
 30
0.0
 11
397.824409
 21
261.494222
 31
0.0
  0
LINE
  8
LC-006-005-----0
  6
CONTINUOUS
  5
27A
 10
394.768728
 20
258.721383
 30
0.0
 11
397.541567
 21
261.494222
 31
0.0
  0
LINE
  8
LC-006-005-----0
  6
CONTINUOUS
  5
27B
 10
394.768728
 20
259.004226
 30
0.0
 11
397.258724
 21
261.494222
 31
0.0
  0
LINE
  8
LC-006-005-----0
  6
CONTINUOUS
  5
27C
 10
394.768728
 20
259.287069
 30
0.0
 11
396.975881
 21
261.494222
 31
0.0
  0
LINE
  8
LC-006-005-----0
  6
CONTINUOUS
  5
27D
 10
394.768728
 20
259.569912
 30
0.0
 11
396.693039
 21
261.494222
 31
0.0
  0
LINE
  8
LC-006-005-----0
  6
CONTINUOUS
  5
27E
 10
394.768728
 20
259.852754
 30
0.0
 11
396.410196
 21
261.494222
 31
0.0
  0
LINE
  8
LC-006-005-----0
  6
CONTINUOUS
  5
27F
 10
394.768728
 20
260.135597
 30
0.0
 11
396.127353
 21
261.494222
 31
0.0
  0
LINE
  8
LC-006-005-----0
  6
CONTINUOUS
  5
280
 10
394.768728
 20
260.41844
 30
0.0
 11
395.84451
 21
261.494222
 31
0.0
  0
LINE
  8
LC-006-005-----0
  6
CONTINUOUS
  5
281
 10
394.768728
 20
260.701282
 30
0.0
 11
395.561668
 21
261.494222
 31
0.0
  0
LINE
  8
LC-006-005-----0
  6
CONTINUOUS
  5
282
 10
394.768728
 20
260.984125
 30
0.0
 11
395.278825
 21
261.494222
 31
0.0
  0
LINE
  8
LC-006-005-----0
  6
CONTINUOUS
  5
283
 10
394.768728
 20
261.266968
 30
0.0
 11
394.995982
 21
261.494222
 31
0.0
  0
ENDBLK
  8
0
  5
284
  0
BLOCK
  8
0
  5
286
  2
*X21
 70
    65
 10
384.768728
 20
258.494222
 30
0.0
  3
*X21
  0
LINE
  8
LC-006-005-----0
  6
CONTINUOUS
  5
287
 10
389.733241
 20
258.494222
 30
0.0
 11
389.768728
 21
258.52971
 31
0.0
  0
LINE
  8
LC-006-005-----0
  6
CONTINUOUS
  5
288
 10
389.450398
 20
258.494222
 30
0.0
 11
389.768728
 21
258.812552
 31
0.0
  0
LINE
  8
LC-006-005-----0
  6
CONTINUOUS
  5
289
 10
389.167555
 20
258.494222
 30
0.0
 11
389.768728
 21
259.095395
 31
0.0
  0
LINE
  8
LC-006-005-----0
  6
CONTINUOUS
  5
28A
 10
388.884713
 20
258.494222
 30
0.0
 11
389.768728
 21
259.378238
 31
0.0
  0
LINE
  8
LC-006-005-----0
  6
CONTINUOUS
  5
28B
 10
388.60187
 20
258.494222
 30
0.0
 11
389.768728
 21
259.66108
 31
0.0
  0
LINE
  8
LC-006-005-----0
  6
CONTINUOUS
  5
28C
 10
388.319027
 20
258.494222
 30
0.0
 11
389.768728
 21
259.943923
 31
0.0
  0
LINE
  8
LC-006-005-----0
  6
CONTINUOUS
  5
28D
 10
388.036184
 20
258.494222
 30
0.0
 11
389.768728
 21
260.226766
 31
0.0
  0
LINE
  8
LC-006-005-----0
  6
CONTINUOUS
  5
28E
 10
387.753342
 20
258.494222
 30
0.0
 11
389.768728
 21
260.509609
 31
0.0
  0
LINE
  8
LC-006-005-----0
  6
CONTINUOUS
  5
28F
 10
387.470499
 20
258.494222
 30
0.0
 11
389.768728
 21
260.792451
 31
0.0
  0
LINE
  8
LC-006-005-----0
  6
CONTINUOUS
  5
290
 10
387.187656
 20
258.494222
 30
0.0
 11
389.768728
 21
261.075294
 31
0.0
  0
LINE
  8
LC-006-005-----0
  6
CONTINUOUS
  5
291
 10
386.904814
 20
258.494222
 30
0.0
 11
389.768728
 21
261.358137
 31
0.0
  0
LINE
  8
LC-006-005-----0
  6
CONTINUOUS
  5
292
 10
386.621971
 20
258.494222
 30
0.0
 11
389.621971
 21
261.494222
 31
0.0
  0
LINE
  8
LC-006-005-----0
  6
CONTINUOUS
  5
293
 10
386.339128
 20
258.494222
 30
0.0
 11
389.339128
 21
261.494222
 31
0.0
  0
LINE
  8
LC-006-005-----0
  6
CONTINUOUS
  5
294
 10
386.056285
 20
258.494222
 30
0.0
 11
389.056285
 21
261.494222
 31
0.0
  0
LINE
  8
LC-006-005-----0
  6
CONTINUOUS
  5
295
 10
385.773443
 20
258.494222
 30
0.0
 11
388.773443
 21
261.494222
 31
0.0
  0
LINE
  8
LC-006-005-----0
  6
CONTINUOUS
  5
296
 10
385.4906
 20
258.494222
 30
0.0
 11
388.4906
 21
261.494222
 31
0.0
  0
LINE
  8
LC-006-005-----0
  6
CONTINUOUS
  5
297
 10
385.207757
 20
258.494222
 30
0.0
 11
388.207757
 21
261.494222
 31
0.0
  0
LINE
  8
LC-006-005-----0
  6
CONTINUOUS
  5
298
 10
384.924915
 20
258.494222
 30
0.0
 11
387.924915
 21
261.494222
 31
0.0
  0
LINE
  8
LC-006-005-----0
  6
CONTINUOUS
  5
299
 10
384.768728
 20
258.620878
 30
0.0
 11
387.642072
 21
261.494222
 31
0.0
  0
LINE
  8
LC-006-005-----0
  6
CONTINUOUS
  5
29A
 10
384.768728
 20
258.903721
 30
0.0
 11
387.359229
 21
261.494222
 31
0.0
  0
LINE
  8
LC-006-005-----0
  6
CONTINUOUS
  5
29B
 10
384.768728
 20
259.186564
 30
0.0
 11
387.076386
 21
261.494222
 31
0.0
  0
LINE
  8
LC-006-005-----0
  6
CONTINUOUS
  5
29C
 10
384.768728
 20
259.469407
 30
0.0
 11
386.793544
 21
261.494222
 31
0.0
  0
LINE
  8
LC-006-005-----0
  6
CONTINUOUS
  5
29D
 10
384.768728
 20
259.752249
 30
0.0
 11
386.510701
 21
261.494222
 31
0.0
  0
LINE
  8
LC-006-005-----0
  6
CONTINUOUS
  5
29E
 10
384.768728
 20
260.035092
 30
0.0
 11
386.227858
 21
261.494222
 31
0.0
  0
LINE
  8
LC-006-005-----0
  6
CONTINUOUS
  5
29F
 10
384.768728
 20
260.317935
 30
0.0
 11
385.945016
 21
261.494222
 31
0.0
  0
LINE
  8
LC-006-005-----0
  6
CONTINUOUS
  5
2A0
 10
384.768728
 20
260.600777
 30
0.0
 11
385.662173
 21
261.494222
 31
0.0
  0
LINE
  8
LC-006-005-----0
  6
CONTINUOUS
  5
2A1
 10
384.768728
 20
260.88362
 30
0.0
 11
385.37933
 21
261.494222
 31
0.0
  0
LINE
  8
LC-006-005-----0
  6
CONTINUOUS
  5
2A2
 10
384.768728
 20
261.166463
 30
0.0
 11
385.096487
 21
261.494222
 31
0.0
  0
LINE
  8
LC-006-005-----0
  6
CONTINUOUS
  5
2A3
 10
384.768728
 20
261.449306
 30
0.0
 11
384.813645
 21
261.494222
 31
0.0
  0
ENDBLK
  8
0
  5
2A4
  0
BLOCK
  8
0
  5
2A6
  2
*X22
 70
    65
 10
374.768728
 20
258.494222
 30
0.0
  3
*X22
  0
LINE
  8
LC-006-005-----0
  6
CONTINUOUS
  5
2A7
 10
379.550903
 20
258.494222
 30
0.0
 11
379.768728
 21
258.712047
 31
0.0
  0
LINE
  8
LC-006-005-----0
  6
CONTINUOUS
  5
2A8
 10
379.26806
 20
258.494222
 30
0.0
 11
379.768728
 21
258.99489
 31
0.0
  0
LINE
  8
LC-006-005-----0
  6
CONTINUOUS
  5
2A9
 10
378.985218
 20
258.494222
 30
0.0
 11
379.768728
 21
259.277733
 31
0.0
  0
LINE
  8
LC-006-005-----0
  6
CONTINUOUS
  5
2AA
 10
378.702375
 20
258.494222
 30
0.0
 11
379.768728
 21
259.560575
 31
0.0
  0
LINE
  8
LC-006-005-----0
  6
CONTINUOUS
  5
2AB
 10
378.419532
 20
258.494222
 30
0.0
 11
379.768728
 21
259.843418
 31
0.0
  0
LINE
  8
LC-006-005-----0
  6
CONTINUOUS
  5
2AC
 10
378.136689
 20
258.494222
 30
0.0
 11
379.768728
 21
260.126261
 31
0.0
  0
LINE
  8
LC-006-005-----0
  6
CONTINUOUS
  5
2AD
 10
377.853847
 20
258.494222
 30
0.0
 11
379.768728
 21
260.409103
 31
0.0
  0
LINE
  8
LC-006-005-----0
  6
CONTINUOUS
  5
2AE
 10
377.571004
 20
258.494222
 30
0.0
 11
379.768728
 21
260.691946
 31
0.0
  0
LINE
  8
LC-006-005-----0
  6
CONTINUOUS
  5
2AF
 10
377.288161
 20
258.494222
 30
0.0
 11
379.768728
 21
260.974789
 31
0.0
  0
LINE
  8
LC-006-005-----0
  6
CONTINUOUS
  5
2B0
 10
377.005319
 20
258.494222
 30
0.0
 11
379.768728
 21
261.257632
 31
0.0
  0
LINE
  8
LC-006-005-----0
  6
CONTINUOUS
  5
2B1
 10
376.722476
 20
258.494222
 30
0.0
 11
379.722476
 21
261.494222
 31
0.0
  0
LINE
  8
LC-006-005-----0
  6
CONTINUOUS
  5
2B2
 10
376.439633
 20
258.494222
 30
0.0
 11
379.439633
 21
261.494222
 31
0.0
  0
LINE
  8
LC-006-005-----0
  6
CONTINUOUS
  5
2B3
 10
376.15679
 20
258.494222
 30
0.0
 11
379.15679
 21
261.494222
 31
0.0
  0
LINE
  8
LC-006-005-----0
  6
CONTINUOUS
  5
2B4
 10
375.873948
 20
258.494222
 30
0.0
 11
378.873948
 21
261.494222
 31
0.0
  0
LINE
  8
LC-006-005-----0
  6
CONTINUOUS
  5
2B5
 10
375.591105
 20
258.494222
 30
0.0
 11
378.591105
 21
261.494222
 31
0.0
  0
LINE
  8
LC-006-005-----0
  6
CONTINUOUS
  5
2B6
 10
375.308262
 20
258.494222
 30
0.0
 11
378.308262
 21
261.494222
 31
0.0
  0
LINE
  8
LC-006-005-----0
  6
CONTINUOUS
  5
2B7
 10
375.02542
 20
258.494222
 30
0.0
 11
378.02542
 21
261.494222
 31
0.0
  0
LINE
  8
LC-006-005-----0
  6
CONTINUOUS
  5
2B8
 10
374.768728
 20
258.520373
 30
0.0
 11
377.742577
 21
261.494222
 31
0.0
  0
LINE
  8
LC-006-005-----0
  6
CONTINUOUS
  5
2B9
 10
374.768728
 20
258.803216
 30
0.0
 11
377.459734
 21
261.494222
 31
0.0
  0
LINE
  8
LC-006-005-----0
  6
CONTINUOUS
  5
2BA
 10
374.768728
 20
259.086059
 30
0.0
 11
377.176891
 21
261.494222
 31
0.0
  0
LINE
  8
LC-006-005-----0
  6
CONTINUOUS
  5
2BB
 10
374.768728
 20
259.368901
 30
0.0
 11
376.894049
 21
261.494222
 31
0.0
  0
LINE
  8
LC-006-005-----0
  6
CONTINUOUS
  5
2BC
 10
374.768728
 20
259.651744
 30
0.0
 11
376.611206
 21
261.494222
 31
0.0
  0
LINE
  8
LC-006-005-----0
  6
CONTINUOUS
  5
2BD
 10
374.768728
 20
259.934587
 30
0.0
 11
376.328363
 21
261.494222
 31
0.0
  0
LINE
  8
LC-006-005-----0
  6
CONTINUOUS
  5
2BE
 10
374.768728
 20
260.21743
 30
0.0
 11
376.045521
 21
261.494222
 31
0.0
  0
LINE
  8
LC-006-005-----0
  6
CONTINUOUS
  5
2BF
 10
374.768728
 20
260.500272
 30
0.0
 11
375.762678
 21
261.494222
 31
0.0
  0
LINE
  8
LC-006-005-----0
  6
CONTINUOUS
  5
2C0
 10
374.768728
 20
260.783115
 30
0.0
 11
375.479835
 21
261.494222
 31
0.0
  0
LINE
  8
LC-006-005-----0
  6
CONTINUOUS
  5
2C1
 10
374.768728
 20
261.065958
 30
0.0
 11
375.196992
 21
261.494222
 31
0.0
  0
LINE
  8
LC-006-005-----0
  6
CONTINUOUS
  5
2C2
 10
374.768728
 20
261.3488
 30
0.0
 11
374.91415
 21
261.494222
 31
0.0
  0
ENDBLK
  8
0
  5
2C3
  0
BLOCK
  8
0
  5
2C5
  2
*X23
 70
    65
 10
364.768728
 20
258.494222
 30
0.0
  3
*X23
  0
LINE
  8
LC-006-005-----0
  6
CONTINUOUS
  5
2C6
 10
369.651408
 20
258.494222
 30
0.0
 11
369.768728
 21
258.611542
 31
0.0
  0
LINE
  8
LC-006-005-----0
  6
CONTINUOUS
  5
2C7
 10
369.368565
 20
258.494222
 30
0.0
 11
369.768728
 21
258.894385
 31
0.0
  0
LINE
  8
LC-006-005-----0
  6
CONTINUOUS
  5
2C8
 10
369.085723
 20
258.494222
 30
0.0
 11
369.768728
 21
259.177228
 31
0.0
  0
LINE
  8
LC-006-005-----0
  6
CONTINUOUS
  5
2C9
 10
368.80288
 20
258.494222
 30
0.0
 11
369.768728
 21
259.46007
 31
0.0
  0
LINE
  8
LC-006-005-----0
  6
CONTINUOUS
  5
2CA
 10
368.520037
 20
258.494222
 30
0.0
 11
369.768728
 21
259.742913
 31
0.0
  0
LINE
  8
LC-006-005-----0
  6
CONTINUOUS
  5
2CB
 10
368.237194
 20
258.494222
 30
0.0
 11
369.768728
 21
260.025756
 31
0.0
  0
LINE
  8
LC-006-005-----0
  6
CONTINUOUS
  5
2CC
 10
367.954352
 20
258.494222
 30
0.0
 11
369.768728
 21
260.308598
 31
0.0
  0
LINE
  8
LC-006-005-----0
  6
CONTINUOUS
  5
2CD
 10
367.671509
 20
258.494222
 30
0.0
 11
369.768728
 21
260.591441
 31
0.0
  0
LINE
  8
LC-006-005-----0
  6
CONTINUOUS
  5
2CE
 10
367.388666
 20
258.494222
 30
0.0
 11
369.768728
 21
260.874284
 31
0.0
  0
LINE
  8
LC-006-005-----0
  6
CONTINUOUS
  5
2CF
 10
367.105824
 20
258.494222
 30
0.0
 11
369.768728
 21
261.157127
 31
0.0
  0
LINE
  8
LC-006-005-----0
  6
CONTINUOUS
  5
2D0
 10
366.822981
 20
258.494222
 30
0.0
 11
369.768728
 21
261.439969
 31
0.0
  0
LINE
  8
LC-006-005-----0
  6
CONTINUOUS
  5
2D1
 10
366.540138
 20
258.494222
 30
0.0
 11
369.540138
 21
261.494222
 31
0.0
  0
LINE
  8
LC-006-005-----0
  6
CONTINUOUS
  5
2D2
 10
366.257296
 20
258.494222
 30
0.0
 11
369.257296
 21
261.494222
 31
0.0
  0
LINE
  8
LC-006-005-----0
  6
CONTINUOUS
  5
2D3
 10
365.974453
 20
258.494222
 30
0.0
 11
368.974453
 21
261.494222
 31
0.0
  0
LINE
  8
LC-006-005-----0
  6
CONTINUOUS
  5
2D4
 10
365.69161
 20
258.494222
 30
0.0
 11
368.69161
 21
261.494222
 31
0.0
  0
LINE
  8
LC-006-005-----0
  6
CONTINUOUS
  5
2D5
 10
365.408767
 20
258.494222
 30
0.0
 11
368.408767
 21
261.494222
 31
0.0
  0
LINE
  8
LC-006-005-----0
  6
CONTINUOUS
  5
2D6
 10
365.125925
 20
258.494222
 30
0.0
 11
368.125925
 21
261.494222
 31
0.0
  0
LINE
  8
LC-006-005-----0
  6
CONTINUOUS
  5
2D7
 10
364.843082
 20
258.494222
 30
0.0
 11
367.843082
 21
261.494222
 31
0.0
  0
LINE
  8
LC-006-005-----0
  6
CONTINUOUS
  5
2D8
 10
364.768728
 20
258.702711
 30
0.0
 11
367.560239
 21
261.494222
 31
0.0
  0
LINE
  8
LC-006-005-----0
  6
CONTINUOUS
  5
2D9
 10
364.768728
 20
258.985554
 30
0.0
 11
367.277397
 21
261.494222
 31
0.0
  0
LINE
  8
LC-006-005-----0
  6
CONTINUOUS
  5
2DA
 10
364.768728
 20
259.268396
 30
0.0
 11
366.994554
 21
261.494222
 31
0.0
  0
LINE
  8
LC-006-005-----0
  6
CONTINUOUS
  5
2DB
 10
364.768728
 20
259.551239
 30
0.0
 11
366.711711
 21
261.494222
 31
0.0
  0
LINE
  8
LC-006-005-----0
  6
CONTINUOUS
  5
2DC
 10
364.768728
 20
259.834082
 30
0.0
 11
366.428868
 21
261.494222
 31
0.0
  0
LINE
  8
LC-006-005-----0
  6
CONTINUOUS
  5
2DD
 10
364.768728
 20
260.116925
 30
0.0
 11
366.146026
 21
261.494222
 31
0.0
  0
LINE
  8
LC-006-005-----0
  6
CONTINUOUS
  5
2DE
 10
364.768728
 20
260.399767
 30
0.0
 11
365.863183
 21
261.494222
 31
0.0
  0
LINE
  8
LC-006-005-----0
  6
CONTINUOUS
  5
2DF
 10
364.768728
 20
260.68261
 30
0.0
 11
365.58034
 21
261.494222
 31
0.0
  0
LINE
  8
LC-006-005-----0
  6
CONTINUOUS
  5
2E0
 10
364.768728
 20
260.965453
 30
0.0
 11
365.297498
 21
261.494222
 31
0.0
  0
LINE
  8
LC-006-005-----0
  6
CONTINUOUS
  5
2E1
 10
364.768728
 20
261.248295
 30
0.0
 11
365.014655
 21
261.494222
 31
0.0
  0
ENDBLK
  8
0
  5
2E2
  0
BLOCK
  8
0
  5
2E4
  2
*X24
 70
    65
 10
354.768728
 20
258.494222
 30
0.0
  3
*X24
  0
LINE
  8
LC-006-005-----0
  6
CONTINUOUS
  5
2E5
 10
359.751913
 20
258.494222
 30
0.0
 11
359.768728
 21
258.511037
 31
0.0
  0
LINE
  8
LC-006-005-----0
  6
CONTINUOUS
  5
2E6
 10
359.46907
 20
258.494222
 30
0.0
 11
359.768728
 21
258.79388
 31
0.0
  0
LINE
  8
LC-006-005-----0
  6
CONTINUOUS
  5
2E7
 10
359.186228
 20
258.494222
 30
0.0
 11
359.768728
 21
259.076723
 31
0.0
  0
LINE
  8
LC-006-005-----0
  6
CONTINUOUS
  5
2E8
 10
358.903385
 20
258.494222
 30
0.0
 11
359.768728
 21
259.359565
 31
0.0
  0
LINE
  8
LC-006-005-----0
  6
CONTINUOUS
  5
2E9
 10
358.620542
 20
258.494222
 30
0.0
 11
359.768728
 21
259.642408
 31
0.0
  0
LINE
  8
LC-006-005-----0
  6
CONTINUOUS
  5
2EA
 10
358.3377
 20
258.494222
 30
0.0
 11
359.768728
 21
259.925251
 31
0.0
  0
LINE
  8
LC-006-005-----0
  6
CONTINUOUS
  5
2EB
 10
358.054857
 20
258.494222
 30
0.0
 11
359.768728
 21
260.208093
 31
0.0
  0
LINE
  8
LC-006-005-----0
  6
CONTINUOUS
  5
2EC
 10
357.772014
 20
258.494222
 30
0.0
 11
359.768728
 21
260.490936
 31
0.0
  0
LINE
  8
LC-006-005-----0
  6
CONTINUOUS
  5
2ED
 10
357.489171
 20
258.494222
 30
0.0
 11
359.768728
 21
260.773779
 31
0.0
  0
LINE
  8
LC-006-005-----0
  6
CONTINUOUS
  5
2EE
 10
357.206329
 20
258.494222
 30
0.0
 11
359.768728
 21
261.056621
 31
0.0
  0
LINE
  8
LC-006-005-----0
  6
CONTINUOUS
  5
2EF
 10
356.923486
 20
258.494222
 30
0.0
 11
359.768728
 21
261.339464
 31
0.0
  0
LINE
  8
LC-006-005-----0
  6
CONTINUOUS
  5
2F0
 10
356.640643
 20
258.494222
 30
0.0
 11
359.640643
 21
261.494222
 31
0.0
  0
LINE
  8
LC-006-005-----0
  6
CONTINUOUS
  5
2F1
 10
356.357801
 20
258.494222
 30
0.0
 11
359.357801
 21
261.494222
 31
0.0
  0
LINE
  8
LC-006-005-----0
  6
CONTINUOUS
  5
2F2
 10
356.074958
 20
258.494222
 30
0.0
 11
359.074958
 21
261.494222
 31
0.0
  0
LINE
  8
LC-006-005-----0
  6
CONTINUOUS
  5
2F3
 10
355.792115
 20
258.494222
 30
0.0
 11
358.792115
 21
261.494222
 31
0.0
  0
LINE
  8
LC-006-005-----0
  6
CONTINUOUS
  5
2F4
 10
355.509272
 20
258.494222
 30
0.0
 11
358.509272
 21
261.494222
 31
0.0
  0
LINE
  8
LC-006-005-----0
  6
CONTINUOUS
  5
2F5
 10
355.22643
 20
258.494222
 30
0.0
 11
358.22643
 21
261.494222
 31
0.0
  0
LINE
  8
LC-006-005-----0
  6
CONTINUOUS
  5
2F6
 10
354.943587
 20
258.494222
 30
0.0
 11
357.943587
 21
261.494222
 31
0.0
  0
LINE
  8
LC-006-005-----0
  6
CONTINUOUS
  5
2F7
 10
354.768728
 20
258.602206
 30
0.0
 11
357.660744
 21
261.494222
 31
0.0
  0
LINE
  8
LC-006-005-----0
  6
CONTINUOUS
  5
2F8
 10
354.768728
 20
258.885049
 30
0.0
 11
357.377902
 21
261.494222
 31
0.0
  0
LINE
  8
LC-006-005-----0
  6
CONTINUOUS
  5
2F9
 10
354.768728
 20
259.167891
 30
0.0
 11
357.095059
 21
261.494222
 31
0.0
  0
LINE
  8
LC-006-005-----0
  6
CONTINUOUS
  5
2FA
 10
354.768728
 20
259.450734
 30
0.0
 11
356.812216
 21
261.494222
 31
0.0
  0
LINE
  8
LC-006-005-----0
  6
CONTINUOUS
  5
2FB
 10
354.768728
 20
259.733577
 30
0.0
 11
356.529373
 21
261.494222
 31
0.0
  0
LINE
  8
LC-006-005-----0
  6
CONTINUOUS
  5
2FC
 10
354.768728
 20
260.016419
 30
0.0
 11
356.246531
 21
261.494222
 31
0.0
  0
LINE
  8
LC-006-005-----0
  6
CONTINUOUS
  5
2FD
 10
354.768728
 20
260.299262
 30
0.0
 11
355.963688
 21
261.494222
 31
0.0
  0
LINE
  8
LC-006-005-----0
  6
CONTINUOUS
  5
2FE
 10
354.768728
 20
260.582105
 30
0.0
 11
355.680845
 21
261.494222
 31
0.0
  0
LINE
  8
LC-006-005-----0
  6
CONTINUOUS
  5
2FF
 10
354.768728
 20
260.864948
 30
0.0
 11
355.398003
 21
261.494222
 31
0.0
  0
LINE
  8
LC-006-005-----0
  6
CONTINUOUS
  5
300
 10
354.768728
 20
261.14779
 30
0.0
 11
355.11516
 21
261.494222
 31
0.0
  0
LINE
  8
LC-006-005-----0
  6
CONTINUOUS
  5
301
 10
354.768728
 20
261.430633
 30
0.0
 11
354.832317
 21
261.494222
 31
0.0
  0
ENDBLK
  8
0
  5
302
  0
BLOCK
  8
0
  5
304
  2
*X25
 70
    65
 10
334.768728
 20
255.898138
 30
0.0
  3
*X25
  0
LINE
  8
LC-006-005-----0
  6
CONTINUOUS
  5
305
 10
339.718736
 20
257.411507
 30
0.0
 11
339.768728
 21
257.461499
 31
0.0
  0
LINE
  8
LC-006-005-----0
  6
CONTINUOUS
  5
306
 10
339.31134
 20
257.286953
 30
0.0
 11
339.768728
 21
257.744342
 31
0.0
  0
LINE
  8
LC-006-005-----0
  6
CONTINUOUS
  5
307
 10
338.903944
 20
257.1624
 30
0.0
 11
339.768728
 21
258.027184
 31
0.0
  0
LINE
  8
LC-006-005-----0
  6
CONTINUOUS
  5
308
 10
338.496547
 20
257.037846
 30
0.0
 11
339.768728
 21
258.310027
 31
0.0
  0
LINE
  8
LC-006-005-----0
  6
CONTINUOUS
  5
309
 10
338.089151
 20
256.913293
 30
0.0
 11
339.768728
 21
258.59287
 31
0.0
  0
LINE
  8
LC-006-005-----0
  6
CONTINUOUS
  5
30A
 10
337.681755
 20
256.788739
 30
0.0
 11
339.768728
 21
258.875712
 31
0.0
  0
LINE
  8
LC-006-005-----0
  6
CONTINUOUS
  5
30B
 10
337.274359
 20
256.664186
 30
0.0
 11
339.768728
 21
259.158555
 31
0.0
  0
LINE
  8
LC-006-005-----0
  6
CONTINUOUS
  5
30C
 10
336.866963
 20
256.539632
 30
0.0
 11
339.768728
 21
259.441398
 31
0.0
  0
LINE
  8
LC-006-005-----0
  6
CONTINUOUS
  5
30D
 10
336.459566
 20
256.415079
 30
0.0
 11
339.768728
 21
259.724241
 31
0.0
  0
LINE
  8
LC-006-005-----0
  6
CONTINUOUS
  5
30E
 10
336.05217
 20
256.290525
 30
0.0
 11
339.768728
 21
260.007083
 31
0.0
  0
LINE
  8
LC-006-005-----0
  6
CONTINUOUS
  5
30F
 10
335.644774
 20
256.165972
 30
0.0
 11
339.768728
 21
260.289926
 31
0.0
  0
LINE
  8
LC-006-005-----0
  6
CONTINUOUS
  5
310
 10
335.237378
 20
256.041418
 30
0.0
 11
339.755905
 21
260.559946
 31
0.0
  0
LINE
  8
LC-006-005-----0
  6
CONTINUOUS
  5
311
 10
334.829981
 20
255.916865
 30
0.0
 11
339.348509
 21
260.435392
 31
0.0
  0
LINE
  8
LC-006-005-----0
  6
CONTINUOUS
  5
312
 10
334.768728
 20
256.138454
 30
0.0
 11
338.941113
 21
260.310839
 31
0.0
  0
LINE
  8
LC-006-005-----0
  6
CONTINUOUS
  5
313
 10
334.768728
 20
256.421297
 30
0.0
 11
338.533717
 21
260.186285
 31
0.0
  0
LINE
  8
LC-006-005-----0
  6
CONTINUOUS
  5
314
 10
334.768728
 20
256.70414
 30
0.0
 11
338.12632
 21
260.061732
 31
0.0
  0
LINE
  8
LC-006-005-----0
  6
CONTINUOUS
  5
315
 10
334.768728
 20
256.986982
 30
0.0
 11
337.718924
 21
259.937178
 31
0.0
  0
LINE
  8
LC-006-005-----0
  6
CONTINUOUS
  5
316
 10
334.768728
 20
257.269825
 30
0.0
 11
337.311528
 21
259.812625
 31
0.0
  0
LINE
  8
LC-006-005-----0
  6
CONTINUOUS
  5
317
 10
334.768728
 20
257.552668
 30
0.0
 11
336.904132
 21
259.688071
 31
0.0
  0
LINE
  8
LC-006-005-----0
  6
CONTINUOUS
  5
318
 10
334.768728
 20
257.83551
 30
0.0
 11
336.496735
 21
259.563518
 31
0.0
  0
LINE
  8
LC-006-005-----0
  6
CONTINUOUS
  5
319
 10
334.768728
 20
258.118353
 30
0.0
 11
336.089339
 21
259.438964
 31
0.0
  0
LINE
  8
LC-006-005-----0
  6
CONTINUOUS
  5
31A
 10
334.768728
 20
258.401196
 30
0.0
 11
335.681943
 21
259.314411
 31
0.0
  0
LINE
  8
LC-006-005-----0
  6
CONTINUOUS
  5
31B
 10
334.768728
 20
258.684038
 30
0.0
 11
335.274547
 21
259.189857
 31
0.0
  0
LINE
  8
LC-006-005-----0
  6
CONTINUOUS
  5
31C
 10
334.768728
 20
258.966881
 30
0.0
 11
334.86715
 21
259.065304
 31
0.0
  0
ENDBLK
  8
0
  5
31D
  0
BLOCK
  8
0
  5
31F
  2
*X26
 70
    65
 10
324.768728
 20
252.840831
 30
0.0
  3
*X26
  0
LINE
  8
LC-006-005-----0
  6
CONTINUOUS
  5
320
 10
329.53383
 20
254.297669
 30
0.0
 11
329.768728
 21
254.532567
 31
0.0
  0
LINE
  8
LC-006-005-----0
  6
CONTINUOUS
  5
321
 10
329.126434
 20
254.173115
 30
0.0
 11
329.768728
 21
254.815409
 31
0.0
  0
LINE
  8
LC-006-005-----0
  6
CONTINUOUS
  5
322
 10
328.719038
 20
254.048562
 30
0.0
 11
329.768728
 21
255.098252
 31
0.0
  0
LINE
  8
LC-006-005-----0
  6
CONTINUOUS
  5
323
 10
328.311641
 20
253.924008
 30
0.0
 11
329.768728
 21
255.381095
 31
0.0
  0
LINE
  8
LC-006-005-----0
  6
CONTINUOUS
  5
324
 10
327.904245
 20
253.799454
 30
0.0
 11
329.768728
 21
255.663937
 31
0.0
  0
LINE
  8
LC-006-005-----0
  6
CONTINUOUS
  5
325
 10
327.496849
 20
253.674901
 30
0.0
 11
329.768728
 21
255.94678
 31
0.0
  0
LINE
  8
LC-006-005-----0
  6
CONTINUOUS
  5
326
 10
327.089453
 20
253.550347
 30
0.0
 11
329.768728
 21
256.229623
 31
0.0
  0
LINE
  8
LC-006-005-----0
  6
CONTINUOUS
  5
327
 10
326.682056
 20
253.425794
 30
0.0
 11
329.768728
 21
256.512466
 31
0.0
  0
LINE
  8
LC-006-005-----0
  6
CONTINUOUS
  5
328
 10
326.27466
 20
253.30124
 30
0.0
 11
329.768728
 21
256.795308
 31
0.0
  0
LINE
  8
LC-006-005-----0
  6
CONTINUOUS
  5
329
 10
325.867264
 20
253.176687
 30
0.0
 11
329.768728
 21
257.078151
 31
0.0
  0
LINE
  8
LC-006-005-----0
  6
CONTINUOUS
  5
32A
 10
325.459868
 20
253.052133
 30
0.0
 11
329.768728
 21
257.360994
 31
0.0
  0
LINE
  8
LC-006-005-----0
  6
CONTINUOUS
  5
32B
 10
325.052471
 20
252.92758
 30
0.0
 11
329.570999
 21
257.446108
 31
0.0
  0
LINE
  8
LC-006-005-----0
  6
CONTINUOUS
  5
32C
 10
324.768728
 20
252.926679
 30
0.0
 11
329.163603
 21
257.321554
 31
0.0
  0
LINE
  8
LC-006-005-----0
  6
CONTINUOUS
  5
32D
 10
324.768728
 20
253.209522
 30
0.0
 11
328.756207
 21
257.197001
 31
0.0
  0
LINE
  8
LC-006-005-----0
  6
CONTINUOUS
  5
32E
 10
324.768728
 20
253.492365
 30
0.0
 11
328.348811
 21
257.072447
 31
0.0
  0
LINE
  8
LC-006-005-----0
  6
CONTINUOUS
  5
32F
 10
324.768728
 20
253.775207
 30
0.0
 11
327.941414
 21
256.947894
 31
0.0
  0
LINE
  8
LC-006-005-----0
  6
CONTINUOUS
  5
330
 10
324.768728
 20
254.05805
 30
0.0
 11
327.534018
 21
256.82334
 31
0.0
  0
LINE
  8
LC-006-005-----0
  6
CONTINUOUS
  5
331
 10
324.768728
 20
254.340893
 30
0.0
 11
327.126622
 21
256.698786
 31
0.0
  0
LINE
  8
LC-006-005-----0
  6
CONTINUOUS
  5
332
 10
324.768728
 20
254.623735
 30
0.0
 11
326.719226
 21
256.574233
 31
0.0
  0
LINE
  8
LC-006-005-----0
  6
CONTINUOUS
  5
333
 10
324.768728
 20
254.906578
 30
0.0
 11
326.311829
 21
256.449679
 31
0.0
  0
LINE
  8
LC-006-005-----0
  6
CONTINUOUS
  5
334
 10
324.768728
 20
255.189421
 30
0.0
 11
325.904433
 21
256.325126
 31
0.0
  0
LINE
  8
LC-006-005-----0
  6
CONTINUOUS
  5
335
 10
324.768728
 20
255.472264
 30
0.0
 11
325.497037
 21
256.200572
 31
0.0
  0
LINE
  8
LC-006-005-----0
  6
CONTINUOUS
  5
336
 10
324.768728
 20
255.755106
 30
0.0
 11
325.089641
 21
256.076019
 31
0.0
  0
ENDBLK
  8
0
  5
337
  0
BLOCK
  8
0
  5
339
  2
*X27
 70
    65
 10
314.768728
 20
251.999922
 30
0.0
  3
*X27
  0
LINE
  8
LC-006-005-----0
  6
CONTINUOUS
  5
33A
 10
319.59933
 20
251.999922
 30
0.0
 11
319.768728
 21
252.16932
 31
0.0
  0
LINE
  8
LC-006-005-----0
  6
CONTINUOUS
  5
33B
 10
319.316487
 20
251.999922
 30
0.0
 11
319.768728
 21
252.452163
 31
0.0
  0
LINE
  8
LC-006-005-----0
  6
CONTINUOUS
  5
33C
 10
319.033645
 20
251.999922
 30
0.0
 11
319.768728
 21
252.735005
 31
0.0
  0
LINE
  8
LC-006-005-----0
  6
CONTINUOUS
  5
33D
 10
318.750802
 20
251.999922
 30
0.0
 11
319.768728
 21
253.017848
 31
0.0
  0
LINE
  8
LC-006-005-----0
  6
CONTINUOUS
  5
33E
 10
318.467959
 20
251.999922
 30
0.0
 11
319.768728
 21
253.300691
 31
0.0
  0
LINE
  8
LC-006-005-----0
  6
CONTINUOUS
  5
33F
 10
318.185116
 20
251.999922
 30
0.0
 11
319.768728
 21
253.583533
 31
0.0
  0
LINE
  8
LC-006-005-----0
  6
CONTINUOUS
  5
340
 10
317.902274
 20
251.999922
 30
0.0
 11
319.768728
 21
253.866376
 31
0.0
  0
LINE
  8
LC-006-005-----0
  6
CONTINUOUS
  5
341
 10
317.619431
 20
251.999922
 30
0.0
 11
319.768728
 21
254.149219
 31
0.0
  0
LINE
  8
LC-006-005-----0
  6
CONTINUOUS
  5
342
 10
317.336588
 20
251.999922
 30
0.0
 11
319.768728
 21
254.432062
 31
0.0
  0
LINE
  8
LC-006-005-----0
  6
CONTINUOUS
  5
343
 10
317.053746
 20
251.999922
 30
0.0
 11
319.768728
 21
254.714904
 31
0.0
  0
LINE
  8
LC-006-005-----0
  6
CONTINUOUS
  5
344
 10
316.770903
 20
251.999922
 30
0.0
 11
319.768728
 21
254.997747
 31
0.0
  0
LINE
  8
LC-006-005-----0
  6
CONTINUOUS
  5
345
 10
316.48806
 20
251.999922
 30
0.0
 11
319.48806
 21
254.999922
 31
0.0
  0
LINE
  8
LC-006-005-----0
  6
CONTINUOUS
  5
346
 10
316.205217
 20
251.999922
 30
0.0
 11
319.205217
 21
254.999922
 31
0.0
  0
LINE
  8
LC-006-005-----0
  6
CONTINUOUS
  5
347
 10
315.922375
 20
251.999922
 30
0.0
 11
318.922375
 21
254.999922
 31
0.0
  0
LINE
  8
LC-006-005-----0
  6
CONTINUOUS
  5
348
 10
315.639532
 20
251.999922
 30
0.0
 11
318.639532
 21
254.999922
 31
0.0
  0
LINE
  8
LC-006-005-----0
  6
CONTINUOUS
  5
349
 10
315.356689
 20
251.999922
 30
0.0
 11
318.356689
 21
254.999922
 31
0.0
  0
LINE
  8
LC-006-005-----0
  6
CONTINUOUS
  5
34A
 10
315.073847
 20
251.999922
 30
0.0
 11
318.073847
 21
254.999922
 31
0.0
  0
LINE
  8
LC-006-005-----0
  6
CONTINUOUS
  5
34B
 10
314.791004
 20
251.999922
 30
0.0
 11
317.791004
 21
254.999922
 31
0.0
  0
LINE
  8
LC-006-005-----0
  6
CONTINUOUS
  5
34C
 10
314.768728
 20
252.260489
 30
0.0
 11
317.508161
 21
254.999922
 31
0.0
  0
LINE
  8
LC-006-005-----0
  6
CONTINUOUS
  5
34D
 10
314.768728
 20
252.543331
 30
0.0
 11
317.225318
 21
254.999922
 31
0.0
  0
LINE
  8
LC-006-005-----0
  6
CONTINUOUS
  5
34E
 10
314.768728
 20
252.826174
 30
0.0
 11
316.942476
 21
254.999922
 31
0.0
  0
LINE
  8
LC-006-005-----0
  6
CONTINUOUS
  5
34F
 10
314.768728
 20
253.109017
 30
0.0
 11
316.659633
 21
254.999922
 31
0.0
  0
LINE
  8
LC-006-005-----0
  6
CONTINUOUS
  5
350
 10
314.768728
 20
253.39186
 30
0.0
 11
316.37679
 21
254.999922
 31
0.0
  0
LINE
  8
LC-006-005-----0
  6
CONTINUOUS
  5
351
 10
314.768728
 20
253.674702
 30
0.0
 11
316.093948
 21
254.999922
 31
0.0
  0
LINE
  8
LC-006-005-----0
  6
CONTINUOUS
  5
352
 10
314.768728
 20
253.957545
 30
0.0
 11
315.811105
 21
254.999922
 31
0.0
  0
LINE
  8
LC-006-005-----0
  6
CONTINUOUS
  5
353
 10
314.768728
 20
254.240388
 30
0.0
 11
315.528262
 21
254.999922
 31
0.0
  0
LINE
  8
LC-006-005-----0
  6
CONTINUOUS
  5
354
 10
314.768728
 20
254.52323
 30
0.0
 11
315.245419
 21
254.999922
 31
0.0
  0
LINE
  8
LC-006-005-----0
  6
CONTINUOUS
  5
355
 10
314.768728
 20
254.806073
 30
0.0
 11
314.962577
 21
254.999922
 31
0.0
  0
ENDBLK
  8
0
  5
356
  0
BLOCK
  8
0
  5
358
  2
*X28
 70
    65
 10
301.768351
 20
253.499231
 30
0.0
  3
*X28
  0
LINE
  8
LC-006-005-----0
  6
CONTINUOUS
  5
359
 10
303.845234
 20
253.499231
 30
0.0
 11
304.018728
 21
253.672725
 31
0.0
  0
LINE
  8
LC-006-005-----0
  6
CONTINUOUS
  5
35A
 10
303.562391
 20
253.499231
 30
0.0
 11
304.018728
 21
253.955568
 31
0.0
  0
LINE
  8
LC-006-005-----0
  6
CONTINUOUS
  5
35B
 10
303.279549
 20
253.499231
 30
0.0
 11
304.018728
 21
254.238411
 31
0.0
  0
LINE
  8
LC-006-005-----0
  6
CONTINUOUS
  5
35C
 10
302.996706
 20
253.499231
 30
0.0
 11
304.018728
 21
254.521253
 31
0.0
  0
LINE
  8
LC-006-005-----0
  6
CONTINUOUS
  5
35D
 10
302.713863
 20
253.499231
 30
0.0
 11
304.018728
 21
254.804096
 31
0.0
  0
LINE
  8
LC-006-005-----0
  6
CONTINUOUS
  5
35E
 10
302.431021
 20
253.499231
 30
0.0
 11
304.018728
 21
255.086939
 31
0.0
  0
LINE
  8
LC-006-005-----0
  6
CONTINUOUS
  5
35F
 10
302.148178
 20
253.499231
 30
0.0
 11
304.018728
 21
255.369782
 31
0.0
  0
LINE
  8
LC-006-005-----0
  6
CONTINUOUS
  5
360
 10
301.865335
 20
253.499231
 30
0.0
 11
304.018728
 21
255.652624
 31
0.0
  0
LINE
  8
LC-006-005-----0
  6
CONTINUOUS
  5
361
 10
301.768351
 20
253.68509
 30
0.0
 11
304.018728
 21
255.935467
 31
0.0
  0
LINE
  8
LC-006-005-----0
  6
CONTINUOUS
  5
362
 10
301.768351
 20
253.967932
 30
0.0
 11
304.018728
 21
256.21831
 31
0.0
  0
LINE
  8
LC-006-005-----0
  6
CONTINUOUS
  5
363
 10
301.768351
 20
254.250775
 30
0.0
 11
304.016807
 21
256.499231
 31
0.0
  0
LINE
  8
LC-006-005-----0
  6
CONTINUOUS
  5
364
 10
301.768351
 20
254.533618
 30
0.0
 11
303.733964
 21
256.499231
 31
0.0
  0
LINE
  8
LC-006-005-----0
  6
CONTINUOUS
  5
365
 10
301.768351
 20
254.816461
 30
0.0
 11
303.451122
 21
256.499231
 31
0.0
  0
LINE
  8
LC-006-005-----0
  6
CONTINUOUS
  5
366
 10
301.768351
 20
255.099303
 30
0.0
 11
303.168279
 21
256.499231
 31
0.0
  0
LINE
  8
LC-006-005-----0
  6
CONTINUOUS
  5
367
 10
301.768351
 20
255.382146
 30
0.0
 11
302.885436
 21
256.499231
 31
0.0
  0
LINE
  8
LC-006-005-----0
  6
CONTINUOUS
  5
368
 10
301.768351
 20
255.664989
 30
0.0
 11
302.602593
 21
256.499231
 31
0.0
  0
LINE
  8
LC-006-005-----0
  6
CONTINUOUS
  5
369
 10
301.768351
 20
255.947831
 30
0.0
 11
302.319751
 21
256.499231
 31
0.0
  0
LINE
  8
LC-006-005-----0
  6
CONTINUOUS
  5
36A
 10
301.768351
 20
256.230674
 30
0.0
 11
302.036908
 21
256.499231
 31
0.0
  0
ENDBLK
  8
0
  5
36B
  0
BLOCK
  8
0
  5
36D
  2
*X29
 70
    65
 10
344.768728
 20
258.282193
 30
0.0
  3
*X29
  0
LINE
  8
LC-006-005-----0
  6
CONTINUOUS
  5
36E
 10
349.512519
 20
258.437165
 30
0.0
 11
349.768728
 21
258.693375
 31
0.0
  0
LINE
  8
LC-006-005-----0
  6
CONTINUOUS
  5
36F
 10
349.220124
 20
258.427613
 30
0.0
 11
349.768728
 21
258.976217
 31
0.0
  0
LINE
  8
LC-006-005-----0
  6
CONTINUOUS
  5
370
 10
348.927729
 20
258.418061
 30
0.0
 11
349.768728
 21
259.25906
 31
0.0
  0
LINE
  8
LC-006-005-----0
  6
CONTINUOUS
  5
371
 10
348.635334
 20
258.408509
 30
0.0
 11
349.768728
 21
259.541903
 31
0.0
  0
LINE
  8
LC-006-005-----0
  6
CONTINUOUS
  5
372
 10
348.34294
 20
258.398957
 30
0.0
 11
349.768728
 21
259.824746
 31
0.0
  0
LINE
  8
LC-006-005-----0
  6
CONTINUOUS
  5
373
 10
348.050545
 20
258.389405
 30
0.0
 11
349.768728
 21
260.107588
 31
0.0
  0
LINE
  8
LC-006-005-----0
  6
CONTINUOUS
  5
374
 10
347.75815
 20
258.379853
 30
0.0
 11
349.768728
 21
260.390431
 31
0.0
  0
LINE
  8
LC-006-005-----0
  6
CONTINUOUS
  5
375
 10
347.465755
 20
258.370301
 30
0.0
 11
349.768728
 21
260.673274
 31
0.0
  0
LINE
  8
LC-006-005-----0
  6
CONTINUOUS
  5
376
 10
347.17336
 20
258.360749
 30
0.0
 11
349.768728
 21
260.956116
 31
0.0
  0
LINE
  8
LC-006-005-----0
  6
CONTINUOUS
  5
377
 10
346.880966
 20
258.351197
 30
0.0
 11
349.768728
 21
261.238959
 31
0.0
  0
LINE
  8
LC-006-005-----0
  6
CONTINUOUS
  5
378
 10
346.588571
 20
258.341645
 30
0.0
 11
349.69154
 21
261.444614
 31
0.0
  0
LINE
  8
LC-006-005-----0
  6
CONTINUOUS
  5
379
 10
346.296176
 20
258.332092
 30
0.0
 11
349.399146
 21
261.435062
 31
0.0
  0
LINE
  8
LC-006-005-----0
  6
CONTINUOUS
  5
37A
 10
346.003781
 20
258.32254
 30
0.0
 11
349.106751
 21
261.42551
 31
0.0
  0
LINE
  8
LC-006-005-----0
  6
CONTINUOUS
  5
37B
 10
345.711386
 20
258.312988
 30
0.0
 11
348.814356
 21
261.415958
 31
0.0
  0
LINE
  8
LC-006-005-----0
  6
CONTINUOUS
  5
37C
 10
345.418992
 20
258.303436
 30
0.0
 11
348.521961
 21
261.406406
 31
0.0
  0
LINE
  8
LC-006-005-----0
  6
CONTINUOUS
  5
37D
 10
345.126597
 20
258.293884
 30
0.0
 11
348.229566
 21
261.396854
 31
0.0
  0
LINE
  8
LC-006-005-----0
  6
CONTINUOUS
  5
37E
 10
344.834202
 20
258.284332
 30
0.0
 11
347.937172
 21
261.387302
 31
0.0
  0
LINE
  8
LC-006-005-----0
  6
CONTINUOUS
  5
37F
 10
344.768728
 20
258.501701
 30
0.0
 11
347.644777
 21
261.37775
 31
0.0
  0
LINE
  8
LC-006-005-----0
  6
CONTINUOUS
  5
380
 10
344.768728
 20
258.784544
 30
0.0
 11
347.352382
 21
261.368198
 31
0.0
  0
LINE
  8
LC-006-005-----0
  6
CONTINUOUS
  5
381
 10
344.768728
 20
259.067386
 30
0.0
 11
347.059987
 21
261.358645
 31
0.0
  0
LINE
  8
LC-006-005-----0
  6
CONTINUOUS
  5
382
 10
344.768728
 20
259.350229
 30
0.0
 11
346.767593
 21
261.349093
 31
0.0
  0
LINE
  8
LC-006-005-----0
  6
CONTINUOUS
  5
383
 10
344.768728
 20
259.633072
 30
0.0
 11
346.475198
 21
261.339541
 31
0.0
  0
LINE
  8
LC-006-005-----0
  6
CONTINUOUS
  5
384
 10
344.768728
 20
259.915914
 30
0.0
 11
346.182803
 21
261.329989
 31
0.0
  0
LINE
  8
LC-006-005-----0
  6
CONTINUOUS
  5
385
 10
344.768728
 20
260.198757
 30
0.0
 11
345.890408
 21
261.320437
 31
0.0
  0
LINE
  8
LC-006-005-----0
  6
CONTINUOUS
  5
386
 10
344.768728
 20
260.4816
 30
0.0
 11
345.598013
 21
261.310885
 31
0.0
  0
LINE
  8
LC-006-005-----0
  6
CONTINUOUS
  5
387
 10
344.768728
 20
260.764443
 30
0.0
 11
345.305619
 21
261.301333
 31
0.0
  0
LINE
  8
LC-006-005-----0
  6
CONTINUOUS
  5
388
 10
344.768728
 20
261.047285
 30
0.0
 11
345.013224
 21
261.291781
 31
0.0
  0
ENDBLK
  8
0
  5
389
  0
BLOCK
  8
0
  5
38B
  2
BLK2
 70
    64
 10
0.0
 20
0.0
 30
0.0
  3
BLK2
  0
ARC
  8
LC-001-002-----0
  6
CONTINUOUS
  5
38D
 10
286.828619
 20
232.756007
 30
0.0
 40
5.736315
 50
82.500893
 51
126.228518
  0
ARC
  8
LC-001-002-----0
  6
CONTINUOUS
  5
38E
 10
291.827436
 20
225.862167
 30
0.0
 40
14.251742
 50
126.059938
 51
149.733622
  0
ARC
  8
LC-001-002-----0
  6
CONTINUOUS
  5
38F
 10
320.902596
 20
209.659583
 30
0.0
 40
47.534739
 50
150.529723
 51
171.599343
  0
ARC
  8
LC-001-002-----0
  6
CONTINUOUS
  5
390
 10
356.145587
 20
202.312219
 30
0.0
 40
83.499914
 50
170.144676
 51
184.550912
  0
ARC
  8
LC-001-002-----0
  6
CONTINUOUS
  5
391
 10
321.537931
 20
198.349378
 30
0.0
 40
48.701832
 50
183.133833
 51
203.860598
  0
ENDBLK
  8
0
  5
392
  0
BLOCK
  8
0
  5
394
  2
*D31
 70
    65
 10
0.0
 20
0.0
 30
0.0
  3
*D31
  0
LINE
  8
LC-004-003-MTH-0
  6
CONTINUOUS
  5
395
 10
237.018239
 20
207.518361
 30
0.0
 11
237.018239
 21
109.2
 31
0.0
  0
LINE
  8
LC-004-003-MTH-0
  6
CONTINUOUS
  5
396
 10
387.018239
 20
200.96922
 30
0.0
 11
387.018239
 21
109.2
 31
0.0
  0
LINE
  8
LC-005-003-MTG-0
  6
CONTINUOUS
  5
397
 10
237.018239
 20
120.0
 30
0.0
 11
387.018239
 21
120.0
 31
0.0
  0
LINE
  8
LC-003-003-----0
  6
CONTINUOUS
  5
398
 10
254.864246
 20
122.349471
 30
0.0
 11
237.018239
 21
120.0
 31
0.0
  0
LINE
  8
LC-003-003-----0
  6
CONTINUOUS
  5
399
 10
237.018239
 20
120.0
 30
0.0
 11
254.864246
 21
117.650529
 31
0.0
  0
LINE
  8
LC-003-003-----0
  6
CONTINUOUS
  5
39A
 10
254.864246
 20
117.650529
 30
0.0
 11
254.864246
 21
122.349471
 31
0.0
  0
LINE
  8
LC-003-003-----0
  6
CONTINUOUS
  5
39B
 10
254.904284
 20
121.738609
 30
0.0
 11
241.698239
 21
120.0
 31
0.0
  0
LINE
  8
LC-003-003-----0
  6
CONTINUOUS
  5
39C
 10
241.698239
 20
120.0
 30
0.0
 11
254.904284
 21
118.261391
 31
0.0
  0
LINE
  8
LC-003-003-----0
  6
CONTINUOUS
  5
39D
 10
254.944322
 20
121.127746
 30
0.0
 11
246.378239
 21
120.0
 31
0.0
  0
LINE
  8
LC-003-003-----0
  6
CONTINUOUS
  5
39E
 10
246.378239
 20
120.0
 30
0.0
 11
254.944322
 21
118.872254
 31
0.0
  0
LINE
  8
LC-003-003-----0
  6
CONTINUOUS
  5
39F
 10
254.98436
 20
120.516884
 30
0.0
 11
251.058239
 21
120.0
 31
0.0
  0
LINE
  8
LC-003-003-----0
  6
CONTINUOUS
  5
3A0
 10
251.058239
 20
120.0
 30
0.0
 11
254.98436
 21
119.483116
 31
0.0
  0
LINE
  8
LC-003-003-----0
  6
CONTINUOUS
  5
3A1
 10
369.172231
 20
117.650529
 30
0.0
 11
387.018239
 21
120.0
 31
0.0
  0
LINE
  8
LC-003-003-----0
  6
CONTINUOUS
  5
3A2
 10
387.018239
 20
120.0
 30
0.0
 11
369.172231
 21
122.349471
 31
0.0
  0
LINE
  8
LC-003-003-----0
  6
CONTINUOUS
  5
3A3
 10
369.172231
 20
122.349471
 30
0.0
 11
369.172231
 21
117.650529
 31
0.0
  0
LINE
  8
LC-003-003-----0
  6
CONTINUOUS
  5
3A4
 10
369.132193
 20
118.261391
 30
0.0
 11
382.338239
 21
120.0
 31
0.0
  0
LINE
  8
LC-003-003-----0
  6
CONTINUOUS
  5
3A5
 10
382.338239
 20
120.0
 30
0.0
 11
369.132193
 21
121.738609
 31
0.0
  0
LINE
  8
LC-003-003-----0
  6
CONTINUOUS
  5
3A6
 10
369.092155
 20
118.872254
 30
0.0
 11
377.658239
 21
120.0
 31
0.0
  0
LINE
  8
LC-003-003-----0
  6
CONTINUOUS
  5
3A7
 10
377.658239
 20
120.0
 30
0.0
 11
369.092155
 21
121.127746
 31
0.0
  0
LINE
  8
LC-003-003-----0
  6
CONTINUOUS
  5
3A8
 10
369.052117
 20
119.483116
 30
0.0
 11
372.978239
 21
120.0
 31
0.0
  0
LINE
  8
LC-003-003-----0
  6
CONTINUOUS
  5
3A9
 10
372.978239
 20
120.0
 30
0.0
 11
369.052117
 21
120.516884
 31
0.0
  0
TEXT
  8
LC-003-003-----0
  6
CONTINUOUS
 62
     6
  5
3AA
 10
285.933738
 20
130.431999
 30
0.0
 40
18.0
  1
150
 51
15.0
  7
LC-TXTSTYLE-150-400-0-0-D0
 72
     1
 11
305.067596
 21
130.431999
 31
0.0
  0
ENDBLK
  8
0
  5
3AB
  0
BLOCK
  8
0
  5
3AD
  2
BLK3
 70
    64
 10
0.0
 20
0.0
 30
0.0
  3
BLK3
  0
ENDBLK
  8
0
  5
3AE
  0
BLOCK
  8
0
  5
3B0
  2
*X33
 70
    65
 10
151.832903
 20
254.999911
 30
0.0
  3
*X33
  0
LINE
  8
LC-006-005-----0
  6
CONTINUOUS
  5
3B1
 10
178.832353
 20
255.199885
 30
0.0
 11
180.003492
 21
256.371025
 31
0.0
  0
LINE
  8
LC-006-005-----0
  6
CONTINUOUS
  5
3B2
 10
177.518246
 20
255.299992
 30
0.0
 11
178.118134
 21
255.89988
 31
0.0
  0
LINE
  8
LC-006-005-----0
  6
CONTINUOUS
  5
3B3
 10
178.718137
 20
256.499883
 30
0.0
 11
179.35848
 21
257.140226
 31
0.0
  0
LINE
  8
LC-006-005-----0
  6
CONTINUOUS
  5
3B4
 10
177.303915
 20
256.499875
 30
0.0
 11
178.003919
 21
257.199879
 31
0.0
  0
LINE
  8
LC-006-005-----0
  6
CONTINUOUS
  5
3B5
 10
175.889693
 20
256.499866
 30
0.0
 11
176.589697
 21
257.19987
 31
0.0
  0
LINE
  8
LC-006-005-----0
  6
CONTINUOUS
  5
3B6
 10
174.47547
 20
256.499857
 30
0.0
 11
175.175475
 21
257.199861
 31
0.0
  0
LINE
  8
LC-006-005-----0
  6
CONTINUOUS
  5
3B7
 10
173.464967
 20
256.903567
 30
0.0
 11
173.964966
 21
257.403567
 31
0.0
  0
LINE
  8
LC-006-005-----0
  6
CONTINUOUS
  5
3B8
 10
172.647032
 20
257.499845
 30
0.0
 11
173.291351
 21
258.144165
 31
0.0
  0
LINE
  8
LC-006-005-----0
  6
CONTINUOUS
  5
3B9
 10
171.232809
 20
257.499837
 30
0.0
 11
171.932814
 21
258.199841
 31
0.0
  0
LINE
  8
LC-006-005-----0
  6
CONTINUOUS
  5
3BA
 10
162.747475
 20
257.499784
 30
0.0
 11
163.267754
 21
258.020062
 31
0.0
  0
LINE
  8
LC-006-005-----0
  6
CONTINUOUS
  5
3BB
 10
158.833399
 20
254.999921
 30
0.0
 11
162.033234
 21
258.199756
 31
0.0
  0
LINE
  8
LC-006-005-----0
  6
CONTINUOUS
  5
3BC
 10
157.419182
 20
254.999918
 30
0.0
 11
158.119184
 21
255.69992
 31
0.0
  0
LINE
  8
LC-006-005-----0
  6
CONTINUOUS
  5
3BD
 10
156.004965
 20
254.999915
 30
0.0
 11
156.704967
 21
255.699916
 31
0.0
  0
LINE
  8
LC-006-005-----0
  6
CONTINUOUS
  5
3BE
 10
154.599816
 20
255.008979
 30
0.0
 11
155.29075
 21
255.699913
 31
0.0
  0
LINE
  8
LC-006-005-----0
  6
CONTINUOUS
  5
3BF
 10
153.492589
 20
255.315966
 30
0.0
 11
154.024292
 21
255.847668
 31
0.0
  0
LINE
  8
LC-006-005-----0
  6
CONTINUOUS
  5
3C0
 10
152.676585
 20
255.914175
 30
0.0
 11
153.174616
 21
256.412206
 31
0.0
  0
LINE
  8
LC-006-005-----0
  6
CONTINUOUS
  5
3C1
 10
152.103335
 20
256.755138
 30
0.0
 11
152.348116
 21
256.99992
 31
0.0
  0
ENDBLK
  8
0
  5
3C2
  0
BLOCK
  8
0
  5
3C4
  2
BLK4
 70
    64
 10
0.0
 20
0.0
 30
0.0
  3
BLK4
  0
ENDBLK
  8
0
  5
3C5
  0
BLOCK
  8
0
  5
3C7
  2
*X35
 70
    65
 10
294.018232
 20
254.999911
 30
0.0
  3
*X35
  0
LINE
  8
LC-006-005-----0
  6
CONTINUOUS
  5
3C8
 10
320.23755
 20
255.183726
 30
0.0
 11
322.01976
 21
256.965936
 31
0.0
  0
LINE
  8
LC-006-005-----0
  6
CONTINUOUS
  5
3C9
 10
318.639524
 20
254.999914
 30
0.0
 11
319.343827
 21
255.704216
 31
0.0
  0
LINE
  8
LC-006-005-----0
  6
CONTINUOUS
  5
3CA
 10
317.225313
 20
254.999917
 30
0.0
 11
317.925312
 21
255.699915
 31
0.0
  0
LINE
  8
LC-006-005-----0
  6
CONTINUOUS
  5
3CB
 10
315.811103
 20
254.99992
 30
0.0
 11
316.511101
 21
255.699918
 31
0.0
  0
LINE
  8
LC-006-005-----0
  6
CONTINUOUS
  5
3CC
 10
314.49008
 20
255.09311
 30
0.0
 11
315.096891
 21
255.699921
 31
0.0
  0
LINE
  8
LC-006-005-----0
  6
CONTINUOUS
  5
3CD
 10
313.74004
 20
255.757284
 30
0.0
 11
314.235015
 21
256.252259
 31
0.0
  0
LINE
  8
LC-006-005-----0
  6
CONTINUOUS
  5
3CE
 10
313.032934
 20
256.464391
 30
0.0
 11
313.527908
 21
256.959366
 31
0.0
  0
LINE
  8
LC-006-005-----0
  6
CONTINUOUS
  5
3CF
 10
312.325827
 20
257.171498
 30
0.0
 11
312.820802
 21
257.666473
 31
0.0
  0
LINE
  8
LC-006-005-----0
  6
CONTINUOUS
  5
3D0
 10
311.239899
 20
257.499784
 30
0.0
 11
311.939895
 21
258.199779
 31
0.0
  0
LINE
  8
LC-006-005-----0
  6
CONTINUOUS
  5
3D1
 10
302.754671
 20
257.499837
 30
0.0
 11
303.268724
 21
258.01389
 31
0.0
  0
LINE
  8
LC-006-005-----0
  6
CONTINUOUS
  5
3D2
 10
301.340466
 20
257.499846
 30
0.0
 11
302.040462
 21
258.199841
 31
0.0
  0
LINE
  8
LC-006-005-----0
  6
CONTINUOUS
  5
3D3
 10
298.926268
 20
256.499861
 30
0.0
 11
299.626263
 21
257.199856
 31
0.0
  0
LINE
  8
LC-006-005-----0
  6
CONTINUOUS
  5
3D4
 10
296.212079
 20
255.199885
 30
0.0
 11
296.518232
 21
255.506039
 31
0.0
  0
LINE
  8
LC-006-005-----0
  6
CONTINUOUS
  5
3D5
 10
297.512063
 20
256.49987
 30
0.0
 11
298.212059
 21
257.199865
 31
0.0
  0
LINE
  8
LC-006-005-----0
  6
CONTINUOUS
  5
3D6
 10
294.818097
 20
255.220117
 30
0.0
 11
295.497862
 21
255.899882
 31
0.0
  0
LINE
  8
LC-006-005-----0
  6
CONTINUOUS
  5
3D7
 10
296.097858
 20
256.499878
 30
0.0
 11
296.797854
 21
257.199874
 31
0.0
  0
LINE
  8
LC-006-005-----0
  6
CONTINUOUS
  5
3D8
 10
294.069018
 20
255.885252
 30
0.0
 11
295.383649
 21
257.199883
 31
0.0
  0
ENDBLK
  8
0
  5
3D9
  0
BLOCK
  8
0
  5
3DB
  2
BLK5
 70
    64
 10
0.0
 20
0.0
 30
0.0
  3
BLK5
  0
ENDBLK
  8
0
  5
3DC
  0
BLOCK
  8
0
  5
3DE
  2
*D37
 70
    65
 10
0.0
 20
0.0
 30
0.0
  3
*D37
  0
LINE
  8
LC-004-003-MTH-0
  6
CONTINUOUS
  5
3DF
 10
387.018239
 20
200.96922
 30
0.0
 11
486.8
 21
200.96922
 31
0.0
  0
LINE
  8
LC-004-003-MTH-0
  6
CONTINUOUS
  5
3E0
 10
342.653364
 20
254.621405
 30
0.0
 11
486.8
 21
254.621405
 31
0.0
  0
LINE
  8
LC-005-003-MTG-0
  6
CONTINUOUS
  5
3E1
 10
476.0
 20
200.96922
 30
0.0
 11
476.0
 21
254.621405
 31
0.0
  0
LINE
  8
LC-003-003-----0
  6
CONTINUOUS
  5
3E2
 10
473.650529
 20
218.815227
 30
0.0
 11
476.0
 21
200.96922
 31
0.0
  0
LINE
  8
LC-003-003-----0
  6
CONTINUOUS
  5
3E3
 10
476.0
 20
200.96922
 30
0.0
 11
478.349471
 21
218.815227
 31
0.0
  0
LINE
  8
LC-003-003-----0
  6
CONTINUOUS
  5
3E4
 10
478.349471
 20
218.815227
 30
0.0
 11
473.650529
 21
218.815227
 31
0.0
  0
LINE
  8
LC-003-003-----0
  6
CONTINUOUS
  5
3E5
 10
474.261391
 20
218.855265
 30
0.0
 11
476.0
 21
205.64922
 31
0.0
  0
LINE
  8
LC-003-003-----0
  6
CONTINUOUS
  5
3E6
 10
476.0
 20
205.64922
 30
0.0
 11
477.738609
 21
218.855265
 31
0.0
  0
LINE
  8
LC-003-003-----0
  6
CONTINUOUS
  5
3E7
 10
474.872254
 20
218.895303
 30
0.0
 11
476.0
 21
210.32922
 31
0.0
  0
LINE
  8
LC-003-003-----0
  6
CONTINUOUS
  5
3E8
 10
476.0
 20
210.32922
 30
0.0
 11
477.127746
 21
218.895303
 31
0.0
  0
LINE
  8
LC-003-003-----0
  6
CONTINUOUS
  5
3E9
 10
475.483116
 20
218.935341
 30
0.0
 11
476.0
 21
215.00922
 31
0.0
  0
LINE
  8
LC-003-003-----0
  6
CONTINUOUS
  5
3EA
 10
476.0
 20
215.00922
 30
0.0
 11
476.516884
 21
218.935341
 31
0.0
  0
LINE
  8
LC-003-003-----0
  6
CONTINUOUS
  5
3EB
 10
478.349471
 20
236.775397
 30
0.0
 11
476.0
 21
254.621405
 31
0.0
  0
LINE
  8
LC-003-003-----0
  6
CONTINUOUS
  5
3EC
 10
476.0
 20
254.621405
 30
0.0
 11
473.650529
 21
236.775397
 31
0.0
  0
LINE
  8
LC-003-003-----0
  6
CONTINUOUS
  5
3ED
 10
473.650529
 20
236.775397
 30
0.0
 11
478.349471
 21
236.775397
 31
0.0
  0
LINE
  8
LC-003-003-----0
  6
CONTINUOUS
  5
3EE
 10
477.738609
 20
236.735359
 30
0.0
 11
476.0
 21
249.941405
 31
0.0
  0
LINE
  8
LC-003-003-----0
  6
CONTINUOUS
  5
3EF
 10
476.0
 20
249.941405
 30
0.0
 11
474.261391
 21
236.735359
 31
0.0
  0
LINE
  8
LC-003-003-----0
  6
CONTINUOUS
  5
3F0
 10
477.127746
 20
236.695321
 30
0.0
 11
476.0
 21
245.261405
 31
0.0
  0
LINE
  8
LC-003-003-----0
  6
CONTINUOUS
  5
3F1
 10
476.0
 20
245.261405
 30
0.0
 11
474.872254
 21
236.695321
 31
0.0
  0
LINE
  8
LC-003-003-----0
  6
CONTINUOUS
  5
3F2
 10
476.516884
 20
236.655283
 30
0.0
 11
476.0
 21
240.581405
 31
0.0
  0
LINE
  8
LC-003-003-----0
  6
CONTINUOUS
  5
3F3
 10
476.0
 20
240.581405
 30
0.0
 11
475.483116
 21
236.655283
 31
0.0
  0
TEXT
  8
LC-003-003-----0
  6
CONTINUOUS
 62
     6
  5
3F4
 10
465.568001
 20
218.727566
 30
0.0
 40
18.0
  1
54
 50
90.0
 51
15.0
  7
LC-TXTSTYLE-150-400-0-0-D0
 72
     1
 11
465.568001
 21
230.590558
 31
0.0
  0
ENDBLK
  8
0
  5
3F5
  0
BLOCK
  8
0
  5
3F7
  2
*D38
 70
    65
 10
0.0
 20
0.0
 30
0.0
  3
*D38
  0
LINE
  8
LC-004-003-MTH-0
  6
CONTINUOUS
  5
3F8
 10
381.464849
 20
163.67596
 30
0.0
 11
428.208098
 21
161.371909
 31
0.0
  0
LINE
  8
LC-004-003-MTH-0
  6
CONTINUOUS
  5
3F9
 10
385.157297
 20
238.586196
 30
0.0
 11
431.900546
 21
236.282145
 31
0.0
  0
LINE
  8
LC-003-003-----0
  6
CONTINUOUS
  5
3FA
 10
418.889225
 20
143.963577
 30
0.0
 11
417.421194
 21
161.903613
 31
0.0
  0
LINE
  8
LC-003-003-----0
  6
CONTINUOUS
  5
3FB
 10
417.421194
 20
161.903613
 30
0.0
 11
414.19598
 21
144.194915
 31
0.0
  0
LINE
  8
LC-003-003-----0
  6
CONTINUOUS
  5
3FC
 10
414.19598
 20
144.194915
 30
0.0
 11
418.889225
 21
143.963577
 31
0.0
  0
LINE
  8
LC-003-003-----0
  6
CONTINUOUS
  5
3FD
 10
418.277132
 20
143.953662
 30
0.0
 11
417.190789
 21
157.229288
 31
0.0
  0
LINE
  8
LC-003-003-----0
  6
CONTINUOUS
  5
3FE
 10
417.190789
 20
157.229288
 30
0.0
 11
414.804131
 21
144.124852
 31
0.0
  0
LINE
  8
LC-003-003-----0
  6
CONTINUOUS
  5
3FF
 10
417.665039
 20
143.943746
 30
0.0
 11
416.960384
 21
152.554963
 31
0.0
  0
LINE
  8
LC-003-003-----0
  6
CONTINUOUS
  5
400
 10
416.960384
 20
152.554963
 30
0.0
 11
415.412281
 21
144.054788
 31
0.0
  0
LINE
  8
LC-003-003-----0
  6
CONTINUOUS
  5
401
 10
417.052946
 20
143.933831
 30
0.0
 11
416.729979
 21
147.880638
 31
0.0
  0
LINE
  8
LC-003-003-----0
  6
CONTINUOUS
  5
402
 10
416.729979
 20
147.880638
 30
0.0
 11
416.020432
 21
143.984725
 31
0.0
  0
LINE
  8
LC-003-003-----0
  6
CONTINUOUS
  5
403
 10
419.645612
 20
254.753885
 30
0.0
 11
421.113643
 21
236.813849
 31
0.0
  0
LINE
  8
LC-003-003-----0
  6
CONTINUOUS
  5
404
 10
421.113643
 20
236.813849
 30
0.0
 11
424.338857
 21
254.522547
 31
0.0
  0
LINE
  8
LC-003-003-----0
  6
CONTINUOUS
  5
405
 10
424.338857
 20
254.522547
 30
0.0
 11
419.645612
 21
254.753885
 31
0.0
  0
LINE
  8
LC-003-003-----0
  6
CONTINUOUS
  5
406
 10
420.257705
 20
254.7638
 30
0.0
 11
421.344048
 21
241.488174
 31
0.0
  0
LINE
  8
LC-003-003-----0
  6
CONTINUOUS
  5
407
 10
421.344048
 20
241.488174
 30
0.0
 11
423.730707
 21
254.59261
 31
0.0
  0
LINE
  8
LC-003-003-----0
  6
CONTINUOUS
  5
408
 10
420.869798
 20
254.773716
 30
0.0
 11
421.574453
 21
246.162499
 31
0.0
  0
LINE
  8
LC-003-003-----0
  6
CONTINUOUS
  5
409
 10
421.574453
 20
246.162499
 30
0.0
 11
423.122556
 21
254.662674
 31
0.0
  0
LINE
  8
LC-003-003-----0
  6
CONTINUOUS
  5
40A
 10
421.481891
 20
254.783631
 30
0.0
 11
421.804858
 21
250.836824
 31
0.0
  0
LINE
  8
LC-003-003-----0
  6
CONTINUOUS
  5
40B
 10
421.804858
 20
250.836824
 30
0.0
 11
422.514405
 21
254.732737
 31
0.0
  0
LINE
  8
LC-005-003-MTG-0
  6
CONTINUOUS
  5
40C
 10
412.97051
 20
71.610718
 30
0.0
 11
422.354286
 21
261.983291
 31
0.0
  0
TEXT
  8
LC-003-003-----0
  6
CONTINUOUS
 62
     6
  5
40D
 10
408.749199
 20
87.742432
 30
0.0
 40
18.0
  1
DN70
 50
87.2
 51
15.0
  7
LC-TXTSTYLE-150-400-0-0-D0
 72
     2
 11
411.328929
 21
140.488834
 31
0.0
  0
ENDBLK
  8
0
  5
40E
  0
BLOCK
  8
0
  5
410
  2
BLK6
 70
    64
 10
0.0
 20
0.0
 30
0.0
  3
BLK6
  0
ENDBLK
  8
0
  5
411
  0
BLOCK
  8
0
  5
413
  2
BLK7
 70
    64
 10
0.0
 20
0.0
 30
0.0
  3
BLK7
  0
ENDBLK
  8
0
  5
414
  0
BLOCK
  8
0
  5
416
  2
BLK8
 70
    64
 10
0.0
 20
0.0
 30
0.0
  3
BLK8
  0
ENDBLK
  8
0
  5
417
  0
BLOCK
  8
0
  5
419
  2
BLK9
 70
    64
 10
0.0
 20
0.0
 30
0.0
  3
BLK9
  0
ENDBLK
  8
0
  5
41A
  0
BLOCK
  8
0
  5
41C
  2
*X43
 70
    65
 10
179.018246
 20
247.199885
 30
0.0
  3
*X43
  0
LINE
  8
LC-006-005-----0
  6
CONTINUOUS
  5
41D
 10
292.454719
 20
247.199885
 30
0.0
 11
293.518239
 21
248.263405
 31
0.0
  0
LINE
  8
LC-006-005-----0
  6
CONTINUOUS
  5
41E
 10
291.518239
 20
249.091832
 30
0.0
 11
293.518239
 21
251.091832
 31
0.0
  0
LINE
  8
LC-006-005-----0
  6
CONTINUOUS
  5
41F
 10
291.518239
 20
251.920259
 30
0.0
 11
293.797865
 21
254.199885
 31
0.0
  0
LINE
  8
LC-006-005-----0
  6
CONTINUOUS
  5
420
 10
291.518239
 20
254.748686
 30
0.0
 11
293.518239
 21
256.748686
 31
0.0
  0
LINE
  8
LC-006-005-----0
  6
CONTINUOUS
  5
421
 10
277.04587
 20
294.016432
 30
0.0
 11
278.222823
 21
295.193386
 31
0.0
  0
LINE
  8
LC-006-005-----0
  6
CONTINUOUS
  5
422
 10
276.125678
 20
295.924668
 30
0.0
 11
277.605181
 21
297.40417
 31
0.0
  0
LINE
  8
LC-006-005-----0
  6
CONTINUOUS
  5
423
 10
276.125678
 20
298.753095
 30
0.0
 11
276.987538
 21
299.614955
 31
0.0
  0
LINE
  8
LC-006-005-----0
  6
CONTINUOUS
  5
424
 10
276.125678
 20
301.581522
 30
0.0
 11
276.369895
 21
301.825739
 31
0.0
  0
LINE
  8
LC-006-005-----0
  6
CONTINUOUS
  5
425
 10
268.802916
 20
328.199885
 30
0.0
 11
269.018239
 21
328.415208
 31
0.0
  0
LINE
  8
LC-006-005-----0
  6
CONTINUOUS
  5
426
 10
267.018239
 20
329.243635
 30
0.0
 11
269.018239
 21
331.243635
 31
0.0
  0
LINE
  8
LC-006-005-----0
  6
CONTINUOUS
  5
427
 10
182.146061
 20
247.199885
 30
0.0
 11
182.518239
 21
247.572063
 31
0.0
  0
LINE
  8
LC-006-005-----0
  6
CONTINUOUS
  5
428
 10
267.018239
 20
332.072063
 30
0.0
 11
267.146061
 21
332.199885
 31
0.0
  0
LINE
  8
LC-006-005-----0
  6
CONTINUOUS
  5
429
 10
180.518239
 20
248.40049
 30
0.0
 11
182.518239
 21
250.40049
 31
0.0
  0
LINE
  8
LC-006-005-----0
  6
CONTINUOUS
  5
42A
 10
180.518239
 20
251.228917
 30
0.0
 11
182.518239
 21
253.228917
 31
0.0
  0
LINE
  8
LC-006-005-----0
  6
CONTINUOUS
  5
42B
 10
179.339513
 20
252.878618
 30
0.0
 11
182.518239
 21
256.057344
 31
0.0
  0
LINE
  8
LC-006-005-----0
  6
CONTINUOUS
  5
42C
 10
180.518239
 20
256.885771
 30
0.0
 11
180.832352
 21
257.199884
 31
0.0
  0
LINE
  8
LC-006-005-----0
  6
CONTINUOUS
  5
42D
 10
240.518644
 20
328.199885
 30
0.0
 11
242.018239
 21
329.69948
 31
0.0
  0
LINE
  8
LC-006-005-----0
  6
CONTINUOUS
  5
42E
 10
237.690217
 20
328.199885
 30
0.0
 11
241.690217
 21
332.199885
 31
0.0
  0
LINE
  8
LC-006-005-----0
  6
CONTINUOUS
  5
42F
 10
234.86179
 20
328.199885
 30
0.0
 11
238.86179
 21
332.199885
 31
0.0
  0
LINE
  8
LC-006-005-----0
  6
CONTINUOUS
  5
430
 10
232.033363
 20
328.199885
 30
0.0
 11
236.033363
 21
332.199885
 31
0.0
  0
LINE
  8
LC-006-005-----0
  6
CONTINUOUS
  5
431
 10
195.664478
 20
294.659428
 30
0.0
 11
197.910799
 21
296.905749
 31
0.0
  0
LINE
  8
LC-006-005-----0
  6
CONTINUOUS
  5
432
 10
232.018239
 20
331.013188
 30
0.0
 11
233.204936
 21
332.199885
 31
0.0
  0
LINE
  8
LC-006-005-----0
  6
CONTINUOUS
  5
433
 10
196.761027
 20
298.584404
 30
0.0
 11
197.910799
 21
299.734176
 31
0.0
  0
LINE
  8
LC-006-005-----0
  6
CONTINUOUS
  5
434
 10
197.857576
 20
302.50938
 30
0.0
 11
197.910799
 21
302.562603
 31
0.0
  0
LINE
  8
LC-006-005-----0
  6
CONTINUOUS
  5
435
 10
206.577519
 20
328.199885
 30
0.0
 11
207.018239
 21
328.640605
 31
0.0
  0
LINE
  8
LC-006-005-----0
  6
CONTINUOUS
  5
436
 10
205.018239
 20
329.469032
 30
0.0
 11
207.018239
 21
331.469032
 31
0.0
  0
ENDBLK
  8
0
  5
437
  0
BLOCK
  8
0
  5
439
  2
BLK10
 70
    64
 10
0.0
 20
0.0
 30
0.0
  3
BLK10
  0
ENDBLK
  8
0
  5
43A
  0
BLOCK
  8
0
  5
43C
  2
BLK11
 70
    64
 10
0.0
 20
0.0
 30
0.0
  3
BLK11
  0
ENDBLK
  8
0
  5
43D
  0
BLOCK
  8
0
  5
43F
  2
BLK12
 70
    64
 10
0.0
 20
0.0
 30
0.0
  3
BLK12
  0
ENDBLK
  8
0
  5
440
  0
BLOCK
  8
0
  5
442
  2
BLK13
 70
    64
 10
0.0
 20
0.0
 30
0.0
  3
BLK13
  0
ENDBLK
  8
0
  5
443
  0
BLOCK
  8
0
  5
445
  2
*D48
 70
    65
 10
0.0
 20
0.0
 30
0.0
  3
*D48
  0
LINE
  8
LC-004-003-MTH-0
  6
CONTINUOUS
  5
446
 10
37.018239
 20
261.494222
 30
0.0
 11
37.018239
 21
360.8
 31
0.0
  0
LINE
  8
LC-004-003-MTH-0
  6
CONTINUOUS
  5
447
 10
437.018239
 20
261.494222
 30
0.0
 11
437.018239
 21
360.8
 31
0.0
  0
LINE
  8
LC-005-003-MTG-0
  6
CONTINUOUS
  5
448
 10
37.018239
 20
350.0
 30
0.0
 11
437.018239
 21
350.0
 31
0.0
  0
LINE
  8
LC-003-003-----0
  6
CONTINUOUS
  5
449
 10
54.864246
 20
352.349471
 30
0.0
 11
37.018239
 21
350.0
 31
0.0
  0
LINE
  8
LC-003-003-----0
  6
CONTINUOUS
  5
44A
 10
37.018239
 20
350.0
 30
0.0
 11
54.864246
 21
347.650529
 31
0.0
  0
LINE
  8
LC-003-003-----0
  6
CONTINUOUS
  5
44B
 10
54.864246
 20
347.650529
 30
0.0
 11
54.864246
 21
352.349471
 31
0.0
  0
LINE
  8
LC-003-003-----0
  6
CONTINUOUS
  5
44C
 10
54.904284
 20
351.738609
 30
0.0
 11
41.698239
 21
350.0
 31
0.0
  0
LINE
  8
LC-003-003-----0
  6
CONTINUOUS
  5
44D
 10
41.698239
 20
350.0
 30
0.0
 11
54.904284
 21
348.261391
 31
0.0
  0
LINE
  8
LC-003-003-----0
  6
CONTINUOUS
  5
44E
 10
54.944322
 20
351.127746
 30
0.0
 11
46.378239
 21
350.0
 31
0.0
  0
LINE
  8
LC-003-003-----0
  6
CONTINUOUS
  5
44F
 10
46.378239
 20
350.0
 30
0.0
 11
54.944322
 21
348.872254
 31
0.0
  0
LINE
  8
LC-003-003-----0
  6
CONTINUOUS
  5
450
 10
54.98436
 20
350.516884
 30
0.0
 11
51.058239
 21
350.0
 31
0.0
  0
LINE
  8
LC-003-003-----0
  6
CONTINUOUS
  5
451
 10
51.058239
 20
350.0
 30
0.0
 11
54.98436
 21
349.483116
 31
0.0
  0
LINE
  8
LC-003-003-----0
  6
CONTINUOUS
  5
452
 10
419.172231
 20
347.650529
 30
0.0
 11
437.018239
 21
350.0
 31
0.0
  0
LINE
  8
LC-003-003-----0
  6
CONTINUOUS
  5
453
 10
437.018239
 20
350.0
 30
0.0
 11
419.172231
 21
352.349471
 31
0.0
  0
LINE
  8
LC-003-003-----0
  6
CONTINUOUS
  5
454
 10
419.172231
 20
352.349471
 30
0.0
 11
419.172231
 21
347.650529
 31
0.0
  0
LINE
  8
LC-003-003-----0
  6
CONTINUOUS
  5
455
 10
419.132193
 20
348.261391
 30
0.0
 11
432.338239
 21
350.0
 31
0.0
  0
LINE
  8
LC-003-003-----0
  6
CONTINUOUS
  5
456
 10
432.338239
 20
350.0
 30
0.0
 11
419.132193
 21
351.738609
 31
0.0
  0
LINE
  8
LC-003-003-----0
  6
CONTINUOUS
  5
457
 10
419.092155
 20
348.872254
 30
0.0
 11
427.658239
 21
350.0
 31
0.0
  0
LINE
  8
LC-003-003-----0
  6
CONTINUOUS
  5
458
 10
427.658239
 20
350.0
 30
0.0
 11
419.092155
 21
351.127746
 31
0.0
  0
LINE
  8
LC-003-003-----0
  6
CONTINUOUS
  5
459
 10
419.052117
 20
349.483116
 30
0.0
 11
422.978239
 21
350.0
 31
0.0
  0
LINE
  8
LC-003-003-----0
  6
CONTINUOUS
  5
45A
 10
422.978239
 20
350.0
 30
0.0
 11
419.052117
 21
350.516884
 31
0.0
  0
TEXT
  8
LC-003-003-----0
  6
CONTINUOUS
 62
     6
  5
45B
 10
215.322146
 20
360.431999
 30
0.0
 40
18.0
  1
Ø420
 51
15.0
  7
LC-TXTSTYLE-150-400-0-0-D0
 72
     1
 11
239.813484
 21
360.431999
 31
0.0
  0
ENDBLK
  8
0
  5
45C
  0
ENDSEC
  0
SECTION
  2
ENTITIES
  0
VIEWPORT
  8
LC-000
  5
6A1
 67
     1
 68
     1
 10
420.0
 20
297.0
 30
0.0
 40
840.0
 41
594.0
 69
     1
1001
ACAD
1000
MVIEW
1002
{
1070
    16
1010
0.0
1020
0.0
1030
0.0
1010
0.0
1020
0.0
1030
1.0
1040
0.0
1040
594.0
1040
420.0
1040
297.0
1040
50.0
1040
0.0
1040
0.0
1070
     0
1070
   100
1070
     1
1070
     1
1070
     0
1070
     0
1070
     0
1070
     0
1040
0.0
1040
0.0
1040
0.0
1040
1.0
1040
1.0
1040
0.0
1040
0.0
1070
     0
1002
{
1002
}
1002
}
  0
VIEWPORT
  8
0
  5
6A2
 67
     1
 68
     1
 10
0.0
 20
0.0
 30
0.0
 40
0.0
 41
0.0
 69
     1
1001
ACAD
1000
MVIEW
1002
{
1070
    16
1010
0.0
1020
0.0
1030
0.0
1010
0.0
1020
0.0
1030
1.0
1040
0.0
1040
594.0
1040
0.0
1040
0.0
1040
50.0
1040
0.0
1040
0.0
1070
     0
1070
   100
1070
     0
1070
     1
1070
     0
1070
     0
1070
     0
1070
     0
1040
0.0
1040
0.0
1040
0.0
1040
0.5
1040
0.5
1040
0.5
1040
0.5
1070
     0
1002
{
1002
}
1002
}
  0
DIMENSION
  8
0
  5
45D
  2
*D0
 10
112.0
 20
212.343473
 30
0.0
 11
112.0
 21
212.343473
 31
0.0
  1
85
 13
131.383113
 23
254.621405
 33
0.0
 14
235.119366
 24
170.065542
 34
0.0
 50
90.0
  3
LC-DIM-L-0090-02-02
  0
INSERT
  8
0
  5
45E
  2
*X1
 10
37.018239
 20
258.494222
 30
0.0
  0
INSERT
  8
0
  5
45F
  2
*X2
 10
44.267749
 20
258.494222
 30
0.0
  0
INSERT
  8
0
  5
460
  2
*X3
 10
54.267749
 20
258.494222
 30
0.0
  0
INSERT
  8
0
  5
461
  2
*X4
 10
64.267749
 20
258.494222
 30
0.0
  0
INSERT
  8
0
  5
462
  2
*X5
 10
74.267749
 20
258.494222
 30
0.0
  0
INSERT
  8
0
  5
463
  2
*X6
 10
84.267749
 20
258.494222
 30
0.0
  0
INSERT
  8
0
  5
464
  2
*X7
 10
94.267749
 20
258.494222
 30
0.0
  0
INSERT
  8
0
  5
465
  2
*X8
 10
104.267749
 20
258.494222
 30
0.0
  0
INSERT
  8
0
  5
466
  2
*X9
 10
114.267749
 20
258.494222
 30
0.0
  0
INSERT
  8
0
  5
467
  2
*X10
 10
134.267749
 20
255.898138
 30
0.0
  0
INSERT
  8
0
  5
468
  2
*X11
 10
144.267749
 20
252.840831
 30
0.0
  0
INSERT
  8
0
  5
469
  2
*X12
 10
154.267749
 20
251.999922
 30
0.0
  0
INSERT
  8
0
  5
46A
  2
*X13
 10
170.017749
 20
253.499231
 30
0.0
  0
INSERT
  8
0
  5
46B
  2
*X14
 10
124.267749
 20
258.282193
 30
0.0
  0
INSERT
  8
0
  5
46D
  2
BLK1
 10
0.0
 20
0.0
 30
0.0
  0
INSERT
  8
0
  5
46E
  2
*X16
 10
434.768728
 20
258.494222
 30
0.0
  0
INSERT
  8
0
  5
46F
  2
*X17
 10
424.768728
 20
258.494222
 30
0.0
  0
INSERT
  8
0
  5
470
  2
*X18
 10
414.768728
 20
258.494222
 30
0.0
  0
INSERT
  8
0
  5
471
  2
*X19
 10
404.768728
 20
258.494222
 30
0.0
  0
INSERT
  8
0
  5
472
  2
*X20
 10
394.768728
 20
258.494222
 30
0.0
  0
INSERT
  8
0
  5
473
  2
*X21
 10
384.768728
 20
258.494222
 30
0.0
  0
INSERT
  8
0
  5
474
  2
*X22
 10
374.768728
 20
258.494222
 30
0.0
  0
INSERT
  8
0
  5
475
  2
*X23
 10
364.768728
 20
258.494222
 30
0.0
  0
INSERT
  8
0
  5
476
  2
*X24
 10
354.768728
 20
258.494222
 30
0.0
  0
INSERT
  8
0
  5
477
  2
*X25
 10
334.768728
 20
255.898138
 30
0.0
  0
INSERT
  8
0
  5
478
  2
*X26
 10
324.768728
 20
252.840831
 30
0.0
  0
INSERT
  8
0
  5
479
  2
*X27
 10
314.768728
 20
251.999922
 30
0.0
  0
INSERT
  8
0
  5
47A
  2
*X28
 10
301.768351
 20
253.499231
 30
0.0
  0
INSERT
  8
0
  5
47B
  2
*X29
 10
344.768728
 20
258.282193
 30
0.0
  0
INSERT
  8
0
  5
47C
  2
BLK2
 10
0.0
 20
0.0
 30
0.0
  0
DIMENSION
  8
0
  5
47D
  2
*D31
 10
302.27235
 20
120.0
 30
0.0
 11
302.27235
 21
120.0
 31
0.0
 13
237.018239
 23
207.518361
 33
0.0
 14
387.018239
 24
200.96922
 34
0.0
  3
LC-DIM-L-0090-01-02
  0
INSERT
  8
0
  5
47E
  2
BLK3
 10
0.0
 20
0.0
 30
0.0
  0
INSERT
  8
0
  5
47F
  2
*X33
 10
151.832903
 20
254.999911
 30
0.0
  0
INSERT
  8
0
  5
480
  2
BLK4
 10
0.0
 20
0.0
 30
0.0
  0
INSERT
  8
0
  5
481
  2
*X35
 10
294.018232
 20
254.999911
 30
0.0
  0
INSERT
  8
0
  5
482
  2
BLK5
 10
0.0
 20
0.0
 30
0.0
  0
DIMENSION
  8
0
  5
483
  2
*D37
 10
476.0
 20
227.795312
 30
0.0
 11
476.0
 21
227.795312
 31
0.0
  1
54
 13
342.653364
 23
254.621405
 33
0.0
 14
387.018239
 24
200.96922
 34
0.0
 50
90.0
  3
LC-DIM-L-0090-02-02
  0
DIMENSION
  8
0
  5
484
  2
*D38
 10
416.724907
 20
147.777729
 30
0.0
 11
416.724907
 21
147.777729
 31
0.0
 70
     1
  1
DN70
 13
385.157297
 23
238.586196
 33
0.0
 14
381.464849
 24
163.67596
 34
0.0
  3
LC-DIM-L-0090-02-02
  0
INSERT
  8
0
  5
485
  2
BLK6
 10
0.0
 20
0.0
 30
0.0
  0
INSERT
  8
0
  5
486
  2
BLK7
 10
0.0
 20
0.0
 30
0.0
  0
INSERT
  8
0
  5
487
  2
BLK8
 10
0.0
 20
0.0
 30
0.0
  0
INSERT
  8
0
  5
488
  2
BLK9
 10
0.0
 20
0.0
 30
0.0
  0
INSERT
  8
0
  5
489
  2
*X43
 10
179.018246
 20
247.199885
 30
0.0
  0
INSERT
  8
0
  5
48A
  2
BLK10
 10
0.0
 20
0.0
 30
0.0
  0
INSERT
  8
0
  5
48B
  2
BLK11
 10
0.0
 20
0.0
 30
0.0
  0
INSERT
  8
0
  5
48C
  2
BLK12
 10
0.0
 20
0.0
 30
0.0
  0
INSERT
  8
0
  5
48D
  2
BLK13
 10
0.0
 20
0.0
 30
0.0
  0
DIMENSION
  8
0
  5
48E
  2
*D48
 10
237.018239
 20
350.0
 30
0.0
 11
237.018239
 21
350.0
 31
0.0
  1
%%c420
 13
37.018239
 23
261.494222
 33
0.0
 14
437.018239
 24
261.494222
 34
0.0
  3
LC-DIM-L-0090-02-02
  0
LINE
  8
LC-001-002-----0
  6
CONTINUOUS
  5
48F
 10
161.017717
 20
245.999744
 30
0.0
 11
161.017717
 21
238.499231
 31
0.0
  0
LINE
  8
LC-001-002-----0
  6
CONTINUOUS
  5
490
 10
352.027714
 20
254.978018
 30
0.0
 11
352.027714
 21
256.459161
 31
0.0
  0
LINE
  8
LC-001-002-----0
  6
CONTINUOUS
  5
491
 10
122.777422
 20
261.494222
 30
0.0
 11
37.018239
 21
261.494222
 31
0.0
  0
LINE
  8
LC-001-002-----0
  6
CONTINUOUS
  5
492
 10
177.018213
 20
253.499231
 30
0.0
 11
173.768014
 21
253.499231
 31
0.0
  0
LINE
  8
LC-001-002-----0
  6
DASHDOT
 62
     2
  5
494
 10
167.017749
 20
261.699812
 30
0.0
 11
167.017749
 21
238.499231
 31
0.0
  0
LINE
  8
LC-001-002-----0
  6
CONTINUOUS
  5
495
 10
122.008764
 20
254.978018
 30
0.0
 11
122.008764
 21
256.459161
 31
0.0
  0
ARC
  8
LC-002-002-RND-0
  6
CONTINUOUS
  5
497
 10
124.008764
 20
256.459161
 30
0.0
 40
2.0
 50
88.101636
 51
180.0
  0
LINE
  8
LC-001-002-----0
  6
CONTINUOUS
  5
498
 10
185.467837
 20
238.499231
 30
0.0
 11
201.875226
 21
194.433305
 31
0.0
  0
ARC
  8
LC-002-002-RND-0
  6
CONTINUOUS
  5
499
 10
350.027714
 20
256.459161
 30
0.0
 40
2.0
 50
0.0
 51
91.898364
  0
LINE
  8
LC-001-002-----0
  6
DASHDOT
 62
     2
  5
49A
 10
307.018728
 20
261.698901
 30
0.0
 11
307.018728
 21
238.499231
 31
0.0
  0
LINE
  8
LC-001-002-----0
  6
CONTINUOUS
  5
49B
 10
187.018239
 20
241.499922
 30
0.0
 11
204.218094
 21
195.305642
 31
0.0
  0
LINE
  8
LC-001-002-----0
  6
DASHDOT
 62
     2
  5
49C
 10
237.018239
 20
207.518361
 30
0.0
 11
387.018239
 21
200.96922
 31
0.0
  0
LINE
  8
LC-001-002-----0
  6
CONTINUOUS
  5
49D
 10
169.517749
 20
245.367633
 30
0.0
 11
169.517749
 21
238.499231
 31
0.0
  0
LINE
  8
LC-001-002-----0
  6
CONTINUOUS
  5
49E
 10
164.517749
 20
245.366475
 30
0.0
 11
164.517749
 21
238.499231
 31
0.0
  0
LINE
  8
LC-001-002-----0
  6
CONTINUOUS
  5
49F
 10
164.517749
 20
238.499231
 30
0.0
 11
169.517749
 21
238.499231
 31
0.0
  0
LINE
  8
LC-001-002-----0
  6
CONTINUOUS
  5
4A0
 10
161.017717
 20
248.499922
 30
0.0
 11
161.017717
 21
248.499744
 31
0.0
  0
ARC
  8
LC-001-002-----0
  6
CONTINUOUS
  5
4A1
 10
167.017749
 20
247.499242
 30
0.0
 40
10.0
 50
244.158193
 51
295.842059
  0
LINE
  8
LC-001-002-----0
  6
CONTINUOUS
  5
4A2
 10
152.018239
 20
251.999922
 30
0.0
 11
161.018199
 21
251.999922
 31
0.0
  0
LINE
  8
LC-001-002-----0
  6
CONTINUOUS
  5
4A3
 10
162.65887
 20
238.499232
 30
0.0
 11
161.017717
 21
238.499231
 31
0.0
  0
LINE
  8
LC-001-002-----0
  6
CONTINUOUS
  5
4A4
 10
287.018239
 20
241.499922
 30
0.0
 11
297.018351
 21
241.499922
 31
0.0
  0
LINE
  8
LC-001-002-----0
  6
CONTINUOUS
  5
4A5
 10
310.018712
 20
253.499231
 30
0.0
 11
311.400275
 21
253.499231
 31
0.0
  0
LINE
  8
LC-001-002-----0
  6
CONTINUOUS
  5
4A6
 10
132.229441
 20
261.18704
 30
0.0
 11
122.875375
 21
261.492622
 31
0.0
  0
LINE
  8
LC-001-002-----0
  6
CONTINUOUS
  5
4A7
 10
172.268127
 20
256.499231
 30
0.0
 11
172.268127
 21
253.499231
 31
0.0
  0
LINE
  8
LC-001-002-----0
  6
CONTINUOUS
  5
4A8
 10
288.837343
 20
257.199885
 30
0.0
 11
278.640073
 21
293.699885
 31
0.0
  0
LINE
  8
LC-001-002-----0
  6
CONTINUOUS
  5
4A9
 10
276.513525
 20
293.699885
 30
0.0
 11
287.440529
 21
257.199885
 31
0.0
  0
LINE
  8
LC-001-002-----0
  6
CONTINUOUS
  5
4AA
 10
159.267749
 20
254.999922
 30
0.0
 11
159.267749
 21
251.999922
 31
0.0
  0
LINE
  8
LC-001-002-----0
  6
CONTINUOUS
  5
4AB
 10
154.267749
 20
254.999922
 30
0.0
 11
154.267749
 21
251.999922
 31
0.0
  0
LINE
  8
LC-001-002-----0
  6
CONTINUOUS
  5
4AC
 10
149.267749
 20
255.977906
 30
0.0
 11
149.267749
 21
252.840831
 31
0.0
  0
LINE
  8
LC-001-002-----0
  6
CONTINUOUS
  5
4AD
 10
144.267749
 20
257.506559
 30
0.0
 11
144.267749
 21
254.369484
 31
0.0
  0
LINE
  8
LC-001-002-----0
  6
CONTINUOUS
  5
4AE
 10
139.267749
 20
259.035213
 30
0.0
 11
139.267749
 21
255.898138
 31
0.0
  0
LINE
  8
LC-001-002-----0
  6
CONTINUOUS
  5
4AF
 10
122.777422
 20
258.494222
 30
0.0
 11
37.018239
 21
258.494222
 31
0.0
  0
LINE
  8
LC-001-002-----0
  6
CONTINUOUS
  5
4B0
 10
134.267749
 20
260.563866
 30
0.0
 11
134.267749
 21
257.426791
 31
0.0
  0
LINE
  8
LC-001-002-----0
  6
CONTINUOUS
  5
4B1
 10
37.018239
 20
261.494222
 30
0.0
 11
37.018239
 21
258.494222
 31
0.0
  0
LINE
  8
LC-001-002-----0
  6
CONTINUOUS
  5
4B2
 10
152.466592
 20
254.999922
 30
0.0
 11
132.229441
 21
261.18704
 31
0.0
  0
LINE
  8
LC-001-002-----0
  6
CONTINUOUS
  5
4B3
 10
161.392871
 20
256.499231
 30
0.0
 11
159.893562
 21
254.999922
 31
0.0
  0
LINE
  8
LC-001-002-----0
  6
CONTINUOUS
  5
4B4
 10
164.017749
 20
256.499231
 30
0.0
 11
161.392871
 21
256.499231
 31
0.0
  0
LINE
  8
LC-001-002-----0
  6
CONTINUOUS
  5
4B5
 10
177.018127
 20
256.499231
 30
0.0
 11
170.017749
 21
256.499231
 31
0.0
  0
LINE
  8
LC-001-002-----0
  6
CONTINUOUS
  5
4B6
 10
124.267749
 20
261.447136
 30
0.0
 11
124.267749
 21
258.445535
 31
0.0
  0
LINE
  8
LC-001-002-----0
  6
CONTINUOUS
  5
4B7
 10
129.267749
 20
261.283794
 30
0.0
 11
129.267749
 21
258.282193
 31
0.0
  0
LINE
  8
LC-001-002-----0
  6
CONTINUOUS
  5
4B8
 10
119.267749
 20
261.494222
 30
0.0
 11
119.267749
 21
258.494222
 31
0.0
  0
LINE
  8
LC-001-002-----0
  6
CONTINUOUS
  5
4B9
 10
114.267749
 20
261.494222
 30
0.0
 11
114.267749
 21
258.494222
 31
0.0
  0
LINE
  8
LC-001-002-----0
  6
CONTINUOUS
  5
4BA
 10
302.733992
 20
237.999231
 30
0.0
 11
297.018351
 21
237.999231
 31
0.0
  0
LINE
  8
LC-001-002-----0
  6
CONTINUOUS
  5
4BB
 10
313.01876
 20
237.999228
 30
0.0
 11
311.303466
 21
237.999232
 31
0.0
  0
ARC
  8
LC-001-002-----0
  6
CONTINUOUS
  5
4BC
 10
237.018239
 20
207.518361
 30
0.0
 40
35.0
 50
200.422178
 51
267.5
  0
LINE
  8
LC-001-002-----0
  6
CONTINUOUS
  5
4BD
 10
109.267749
 20
261.494222
 30
0.0
 11
109.267749
 21
258.494222
 31
0.0
  0
LINE
  8
LC-001-002-----0
  6
CONTINUOUS
  5
4BE
 10
104.267749
 20
261.494222
 30
0.0
 11
104.267749
 21
258.494222
 31
0.0
  0
LINE
  8
LC-001-002-----0
  6
CONTINUOUS
  5
4BF
 10
99.267749
 20
261.494222
 30
0.0
 11
99.267749
 21
258.494222
 31
0.0
  0
LINE
  8
LC-001-002-----0
  6
CONTINUOUS
  5
4C0
 10
94.267749
 20
261.494222
 30
0.0
 11
94.267749
 21
258.494222
 31
0.0
  0
LINE
  8
LC-001-002-----0
  6
CONTINUOUS
  5
4C1
 10
89.267749
 20
261.494222
 30
0.0
 11
89.267749
 21
258.494222
 31
0.0
  0
LINE
  8
LC-001-002-----0
  6
CONTINUOUS
  5
4C2
 10
84.267749
 20
261.494222
 30
0.0
 11
84.267749
 21
258.494222
 31
0.0
  0
LINE
  8
LC-001-002-----0
  6
CONTINUOUS
  5
4C3
 10
79.267749
 20
261.494222
 30
0.0
 11
79.267749
 21
258.494222
 31
0.0
  0
LINE
  8
LC-001-002-----0
  6
CONTINUOUS
  5
4C4
 10
74.267749
 20
261.494222
 30
0.0
 11
74.267749
 21
258.494222
 31
0.0
  0
LINE
  8
LC-001-002-----0
  6
CONTINUOUS
  5
4C5
 10
64.267749
 20
261.494222
 30
0.0
 11
64.267749
 21
258.494222
 31
0.0
  0
LINE
  8
LC-001-002-----0
  6
CONTINUOUS
  5
4C6
 10
59.267749
 20
261.494222
 30
0.0
 11
59.267749
 21
258.494222
 31
0.0
  0
LINE
  8
LC-001-002-----0
  6
CONTINUOUS
  5
4C7
 10
54.267749
 20
261.494222
 30
0.0
 11
54.267749
 21
258.494222
 31
0.0
  0
LINE
  8
LC-001-002-----0
  6
CONTINUOUS
  5
4C8
 10
49.267749
 20
261.494222
 30
0.0
 11
49.267749
 21
258.494222
 31
0.0
  0
LINE
  8
LC-001-002-----0
  6
CONTINUOUS
  5
4C9
 10
205.018239
 20
328.199885
 30
0.0
 11
205.018239
 21
332.199885
 31
0.0
  0
LINE
  8
LC-001-002-----0
  6
CONTINUOUS
  5
4CA
 10
44.267749
 20
261.494222
 30
0.0
 11
44.267749
 21
258.494222
 31
0.0
  0
LINE
  8
LC-001-002-----0
  6
CONTINUOUS
  5
4CB
 10
39.267749
 20
261.494222
 30
0.0
 11
39.267749
 21
258.494222
 31
0.0
  0
LINE
  8
LC-007-004-----0
  6
CONTINUOUS
  5
4CD
 10
161.017778
 20
258.199826
 30
0.0
 11
167.017778
 21
258.19981
 31
0.0
  0
LINE
  8
LC-007-004-----0
  6
CONTINUOUS
  5
4CE
 10
164.017778
 20
258.199785
 30
0.0
 11
164.017746
 21
246.199818
 31
0.0
  0
LINE
  8
LC-007-004-----0
  6
CONTINUOUS
  5
4CF
 10
164.017746
 20
246.199818
 30
0.0
 11
167.017749
 21
241.199782
 31
0.0
  0
LINE
  8
LC-007-004-----0
  6
CONTINUOUS
 62
     2
  5
4D0
 10
165.017774
 20
256.699816
 30
0.0
 11
165.017742
 21
244.699816
 31
0.0
  0
LINE
  8
LC-007-004-----0
  6
CONTINUOUS
  5
4D1
 10
166.217788
 20
261.699812
 30
0.0
 11
166.217784
 21
260.199812
 31
0.0
  0
LINE
  8
LC-007-004-----0
  6
CONTINUOUS
  5
4D2
 10
166.217784
 20
260.199812
 30
0.0
 11
167.017784
 21
260.19981
 31
0.0
  0
LINE
  8
LC-007-004-----0
  6
CONTINUOUS
  5
4D3
 10
164.017746
 20
246.199818
 30
0.0
 11
167.017746
 21
246.19981
 31
0.0
  0
LINE
  8
LC-007-004-----0
  6
CONTINUOUS
  5
4D4
 10
173.016518
 20
258.198897
 30
0.0
 11
167.016518
 21
258.198901
 31
0.0
  0
LINE
  8
LC-007-004-----0
  6
CONTINUOUS
  5
4D5
 10
170.016518
 20
258.198899
 30
0.0
 11
170.01651
 21
246.198899
 31
0.0
  0
LINE
  8
LC-007-004-----0
  6
CONTINUOUS
  5
4D6
 10
170.01651
 20
246.198899
 30
0.0
 11
167.017749
 21
241.200973
 31
0.0
  0
LINE
  8
LC-007-004-----0
  6
CONTINUOUS
 62
     2
  5
4D7
 10
170.016517
 20
256.698899
 30
0.0
 11
164.017774
 21
256.698903
 31
0.0
  0
LINE
  8
LC-001-002-----0
  6
CONTINUOUS
  5
4D8
 10
302.733992
 20
237.999231
 30
0.0
 11
311.303466
 21
237.999232
 31
0.0
  0
LINE
  8
LC-001-002-----0
  6
CONTINUOUS
  5
4D9
 10
388.613059
 20
237.496599
 30
0.0
 11
388.544917
 21
235.935908
 31
0.0
  0
LINE
  8
LC-007-004-----0
  6
CONTINUOUS
 62
     2
  5
4DA
 10
169.016517
 20
256.6989
 30
0.0
 11
169.016509
 21
244.6989
 31
0.0
  0
LINE
  8
LC-007-004-----0
  6
CONTINUOUS
  5
4DB
 10
167.81652
 20
261.698901
 30
0.0
 11
167.816519
 21
260.198901
 31
0.0
  0
LINE
  8
LC-007-004-----0
  6
CONTINUOUS
  5
4DC
 10
167.816519
 20
260.198901
 30
0.0
 11
167.016519
 21
260.198901
 31
0.0
  0
LINE
  8
LC-007-004-----0
  6
CONTINUOUS
  5
4DD
 10
170.01651
 20
246.198899
 30
0.0
 11
167.01651
 21
246.198901
 31
0.0
  0
LINE
  8
LC-001-002-----0
  6
CONTINUOUS
  5
4DE
 10
223.85447
 20
328.199885
 30
0.0
 11
220.692391
 21
302.699885
 31
0.0
  0
LINE
  8
LC-007-004-----0
  6
CONTINUOUS
  5
4DF
 10
161.017785
 20
260.699826
 30
0.0
 11
161.017778
 21
258.199826
 31
0.0
  0
ARC
  8
LC-007-004-----0
  6
CONTINUOUS
  5
4E0
 10
162.017785
 20
260.699824
 30
0.0
 40
1.0
 50
89.99996
 51
179.999846
  0
LINE
  8
LC-007-004-----0
  6
CONTINUOUS
  5
4E1
 10
166.217788
 20
261.699812
 30
0.0
 11
162.017788
 21
261.699824
 31
0.0
  0
LINE
  8
LC-001-002-----0
  6
CONTINUOUS
  5
4E2
 10
152.466592
 20
254.999907
 30
0.0
 11
159.893563
 21
254.999923
 31
0.0
  0
LINE
  8
LC-007-004-----0
  6
CONTINUOUS
  5
4E3
 10
173.016519
 20
260.698897
 30
0.0
 11
173.016518
 21
258.198897
 31
0.0
  0
ARC
  8
LC-007-004-----0
  6
CONTINUOUS
  5
4E4
 10
172.016519
 20
260.698898
 30
0.0
 40
1.0
 50
359.999963
 51
90.000002
  0
LINE
  8
LC-007-004-----0
  6
CONTINUOUS
  5
4E5
 10
167.81652
 20
261.698901
 30
0.0
 11
172.01652
 21
261.698898
 31
0.0
  0
LINE
  8
LC-001-002-----0
  6
CONTINUOUS
  5
4E6
 10
351.259055
 20
261.494222
 30
0.0
 11
437.018239
 21
261.494222
 31
0.0
  0
LINE
  8
LC-001-002-----0
  6
CONTINUOUS
  5
4E7
 10
341.807037
 20
261.18704
 30
0.0
 11
351.161102
 21
261.492622
 31
0.0
  0
LINE
  8
LC-001-002-----0
  6
CONTINUOUS
  5
4E8
 10
301.768351
 20
256.499231
 30
0.0
 11
301.768351
 21
253.499231
 31
0.0
  0
LINE
  8
LC-001-002-----0
  6
CONTINUOUS
  5
4E9
 10
314.768728
 20
254.999922
 30
0.0
 11
314.768728
 21
251.999922
 31
0.0
  0
LINE
  8
LC-001-002-----0
  6
CONTINUOUS
  5
4EA
 10
319.768728
 20
254.999922
 30
0.0
 11
319.768728
 21
251.999922
 31
0.0
  0
LINE
  8
LC-001-002-----0
  6
CONTINUOUS
  5
4EB
 10
324.768728
 20
255.977906
 30
0.0
 11
324.768728
 21
252.840831
 31
0.0
  0
ARC
  8
LC-001-002-----0
  6
CONTINUOUS
  5
4EC
 10
237.018239
 20
207.518361
 30
0.0
 40
37.5
 50
200.422178
 51
267.5
  0
LINE
  8
LC-001-002-----0
  6
CONTINUOUS
  5
4ED
 10
329.768728
 20
257.506559
 30
0.0
 11
329.768728
 21
254.369484
 31
0.0
  0
LINE
  8
LC-001-002-----0
  6
CONTINUOUS
  5
4EE
 10
334.768728
 20
259.035213
 30
0.0
 11
334.768728
 21
255.898138
 31
0.0
  0
LINE
  8
LC-001-002-----0
  6
CONTINUOUS
  5
4EF
 10
351.259055
 20
258.494222
 30
0.0
 11
437.018239
 21
258.494222
 31
0.0
  0
LINE
  8
LC-001-002-----0
  6
CONTINUOUS
  5
4F0
 10
339.768728
 20
260.563866
 30
0.0
 11
339.768728
 21
257.426791
 31
0.0
  0
LINE
  8
LC-001-002-----0
  6
CONTINUOUS
  5
4F1
 10
437.018239
 20
261.494222
 30
0.0
 11
437.018239
 21
258.494222
 31
0.0
  0
LINE
  8
LC-001-002-----0
  6
CONTINUOUS
  5
4F2
 10
321.569886
 20
254.999922
 30
0.0
 11
341.807037
 21
261.18704
 31
0.0
  0
LINE
  8
LC-001-002-----0
  6
CONTINUOUS
  5
4F3
 10
312.643606
 20
256.499231
 30
0.0
 11
314.142916
 21
254.999922
 31
0.0
  0
LINE
  8
LC-001-002-----0
  6
CONTINUOUS
  5
4F4
 10
310.018728
 20
256.499231
 30
0.0
 11
312.643606
 21
256.499231
 31
0.0
  0
LINE
  8
LC-001-002-----0
  6
CONTINUOUS
  5
4F5
 10
297.018351
 20
256.499231
 30
0.0
 11
304.018728
 21
256.499231
 31
0.0
  0
LINE
  8
LC-001-002-----0
  6
CONTINUOUS
  5
4F6
 10
349.768728
 20
261.447136
 30
0.0
 11
349.768728
 21
258.445535
 31
0.0
  0
LINE
  8
LC-001-002-----0
  6
CONTINUOUS
  5
4F7
 10
344.768728
 20
261.283794
 30
0.0
 11
344.768728
 21
258.282193
 31
0.0
  0
LINE
  8
LC-001-002-----0
  6
CONTINUOUS
  5
4F8
 10
354.768728
 20
261.494222
 30
0.0
 11
354.768728
 21
258.494222
 31
0.0
  0
LINE
  8
LC-001-002-----0
  6
CONTINUOUS
  5
4F9
 10
359.768728
 20
261.494222
 30
0.0
 11
359.768728
 21
258.494222
 31
0.0
  0
LINE
  8
LC-001-002-----0
  6
CONTINUOUS
  5
4FA
 10
364.768728
 20
261.494222
 30
0.0
 11
364.768728
 21
258.494222
 31
0.0
  0
LINE
  8
LC-001-002-----0
  6
CONTINUOUS
  5
4FB
 10
369.768728
 20
261.494222
 30
0.0
 11
369.768728
 21
258.494222
 31
0.0
  0
LINE
  8
LC-001-002-----0
  6
CONTINUOUS
  5
4FC
 10
374.768728
 20
261.494222
 30
0.0
 11
374.768728
 21
258.494222
 31
0.0
  0
LINE
  8
LC-001-002-----0
  6
CONTINUOUS
  5
4FD
 10
379.768728
 20
261.494222
 30
0.0
 11
379.768728
 21
258.494222
 31
0.0
  0
LINE
  8
LC-001-002-----0
  6
CONTINUOUS
  5
4FE
 10
384.768728
 20
261.494222
 30
0.0
 11
384.768728
 21
258.494222
 31
0.0
  0
LINE
  8
LC-001-002-----0
  6
CONTINUOUS
  5
4FF
 10
389.768728
 20
261.494222
 30
0.0
 11
389.768728
 21
258.494222
 31
0.0
  0
LINE
  8
LC-001-002-----0
  6
CONTINUOUS
  5
500
 10
394.768728
 20
261.494222
 30
0.0
 11
394.768728
 21
258.494222
 31
0.0
  0
LINE
  8
LC-001-002-----0
  6
CONTINUOUS
  5
501
 10
399.768728
 20
261.494222
 30
0.0
 11
399.768728
 21
258.494222
 31
0.0
  0
LINE
  8
LC-001-002-----0
  6
CONTINUOUS
  5
502
 10
409.768728
 20
261.494222
 30
0.0
 11
409.768728
 21
258.494222
 31
0.0
  0
LINE
  8
LC-001-002-----0
  6
CONTINUOUS
  5
503
 10
414.768728
 20
261.494222
 30
0.0
 11
414.768728
 21
258.494222
 31
0.0
  0
LINE
  8
LC-001-002-----0
  6
CONTINUOUS
  5
504
 10
419.768728
 20
261.494222
 30
0.0
 11
419.768728
 21
258.494222
 31
0.0
  0
LINE
  8
LC-001-002-----0
  6
CONTINUOUS
  5
505
 10
424.768728
 20
261.494222
 30
0.0
 11
424.768728
 21
258.494222
 31
0.0
  0
LINE
  8
LC-001-002-----0
  6
CONTINUOUS
  5
506
 10
429.768728
 20
261.494222
 30
0.0
 11
429.768728
 21
258.494222
 31
0.0
  0
LINE
  8
LC-001-002-----0
  6
CONTINUOUS
  5
507
 10
434.768728
 20
261.494222
 30
0.0
 11
434.768728
 21
258.494222
 31
0.0
  0
LINE
  8
LC-007-004-----0
  6
CONTINUOUS
  5
508
 10
313.018699
 20
258.199826
 30
0.0
 11
307.018699
 21
258.19981
 31
0.0
  0
LINE
  8
LC-007-004-----0
  6
CONTINUOUS
  5
509
 10
310.018699
 20
258.206516
 30
0.0
 11
310.018731
 21
246.199818
 31
0.0
  0
LINE
  8
LC-007-004-----0
  6
CONTINUOUS
  5
50A
 10
310.018731
 20
246.199818
 30
0.0
 11
307.018728
 21
241.199782
 31
0.0
  0
LINE
  8
LC-007-004-----0
  6
CONTINUOUS
 62
     2
  5
50B
 10
309.018703
 20
256.699816
 30
0.0
 11
309.018735
 21
244.699816
 31
0.0
  0
LINE
  8
LC-001-002-----0
  6
CONTINUOUS
  5
50C
 10
297.018351
 20
237.999231
 30
0.0
 11
287.018239
 21
238.499231
 31
0.0
  0
LINE
  8
LC-007-004-----0
  6
CONTINUOUS
  5
50D
 10
307.81869
 20
261.699812
 30
0.0
 11
307.818694
 21
260.199812
 31
0.0
  0
LINE
  8
LC-007-004-----0
  6
CONTINUOUS
  5
50E
 10
307.818694
 20
260.199812
 30
0.0
 11
307.018694
 21
260.19981
 31
0.0
  0
LINE
  8
LC-007-004-----0
  6
CONTINUOUS
  5
50F
 10
310.018731
 20
246.199818
 30
0.0
 11
307.018731
 21
246.19981
 31
0.0
  0
LINE
  8
LC-007-004-----0
  6
CONTINUOUS
  5
510
 10
301.01996
 20
258.198897
 30
0.0
 11
307.01996
 21
258.198901
 31
0.0
  0
LINE
  8
LC-007-004-----0
  6
CONTINUOUS
  5
511
 10
304.01996
 20
258.199834
 30
0.0
 11
304.019968
 21
246.198899
 31
0.0
  0
LINE
  8
LC-001-002-----0
  6
CONTINUOUS
  5
512
 10
287.018239
 20
238.499231
 30
0.0
 11
287.018239
 21
241.499922
 31
0.0
  0
LINE
  8
LC-007-004-----0
  6
CONTINUOUS
  5
513
 10
304.019968
 20
246.198899
 30
0.0
 11
307.019253
 21
241.200097
 31
0.0
  0
LINE
  8
LC-007-004-----0
  6
CONTINUOUS
 62
     2
  5
514
 10
304.019961
 20
256.698899
 30
0.0
 11
310.018703
 21
256.698903
 31
0.0
  0
LINE
  8
LC-001-002-----0
  6
CONTINUOUS
  5
515
 10
385.49156
 20
166.002532
 30
0.0
 11
235.49156
 21
172.551673
 31
0.0
  0
LINE
  8
LC-007-004-----0
  6
CONTINUOUS
 62
     2
  5
516
 10
305.019961
 20
256.6989
 30
0.0
 11
305.019969
 21
244.6989
 31
0.0
  0
LINE
  8
LC-007-004-----0
  6
CONTINUOUS
  5
517
 10
306.219957
 20
261.698901
 30
0.0
 11
306.219958
 21
260.198901
 31
0.0
  0
LINE
  8
LC-001-002-----0
  6
CONTINUOUS
  5
518
 10
197.522953
 20
293.699885
 30
0.0
 11
186.595949
 21
257.199885
 31
0.0
  0
LINE
  8
LC-001-002-----0
  6
CONTINUOUS
  5
519
 10
207.018239
 20
332.199885
 30
0.0
 11
237.018239
 21
332.199885
 31
0.0
  0
LINE
  8
LC-001-002-----0
  6
CONTINUOUS
  5
51A
 10
263.001908
 20
328.199885
 30
0.0
 11
269.557316
 21
302.699885
 31
0.0
  0
LINE
  8
LC-001-002-----0
  6
CONTINUOUS
  5
51B
 10
381.885843
 20
163.657579
 30
0.0
 11
235.382512
 21
170.054053
 31
0.0
  0
LINE
  8
LC-007-004-----0
  6
CONTINUOUS
  5
51C
 10
306.219958
 20
260.198901
 30
0.0
 11
307.019958
 21
260.198901
 31
0.0
  0
LINE
  8
LC-001-002-----0
  6
CONTINUOUS
  5
51D
 10
385.49156
 20
166.002532
 30
0.0
 11
385.423419
 21
164.441841
 31
0.0
  0
LINE
  8
LC-001-002-----0
  6
CONTINUOUS
  5
51E
 10
385.423419
 20
164.441841
 30
0.0
 11
381.885843
 21
163.657579
 31
0.0
  0
LINE
  8
LC-007-004-----0
  6
CONTINUOUS
  5
51F
 10
304.019968
 20
246.198899
 30
0.0
 11
307.019967
 21
246.198901
 31
0.0
  0
LINE
  8
LC-001-002-----0
  6
CONTINUOUS
  5
520
 10
342.653364
 20
254.621405
 30
0.0
 11
352.027714
 21
254.978018
 31
0.0
  0
LINE
  8
LC-007-004-----0
  6
CONTINUOUS
  5
521
 10
313.018692
 20
260.699826
 30
0.0
 11
313.018699
 21
258.199826
 31
0.0
  0
ARC
  8
LC-007-004-----0
  6
CONTINUOUS
  5
522
 10
312.018692
 20
260.699824
 30
0.0
 40
1.0
 50
0.000154
 51
90.00004
  0
LINE
  8
LC-007-004-----0
  6
CONTINUOUS
  5
523
 10
307.81869
 20
261.699812
 30
0.0
 11
312.01869
 21
261.699824
 31
0.0
  0
LINE
  8
LC-001-002-----0
  6
CONTINUOUS
  5
524
 10
321.569886
 20
254.999907
 30
0.0
 11
314.142914
 21
254.999923
 31
0.0
  0
LINE
  8
LC-007-004-----0
  6
CONTINUOUS
  5
525
 10
301.019958
 20
260.698897
 30
0.0
 11
301.01996
 21
258.198897
 31
0.0
  0
ARC
  8
LC-007-004-----0
  6
CONTINUOUS
  5
526
 10
302.019958
 20
260.698898
 30
0.0
 40
1.0
 50
89.999998
 51
180.000037
  0
LINE
  8
LC-001-002-----0
  6
CONTINUOUS
  5
527
 10
352.018239
 20
257.485176
 30
0.0
 11
352.018239
 21
257.5102
 31
0.0
  0
LINE
  8
LC-007-004-----0
  6
CONTINUOUS
  5
528
 10
306.219957
 20
261.698901
 30
0.0
 11
302.019957
 21
261.698898
 31
0.0
  0
LINE
  8
LC-001-002-----0
  6
CONTINUOUS
  5
529
 10
254.460114
 20
293.699885
 30
0.0
 11
258.986227
 21
257.199885
 31
0.0
  0
LINE
  8
LC-001-002-----0
  6
CONTINUOUS
  5
52A
 10
182.518239
 20
257.199885
 30
0.0
 11
237.018239
 21
257.199885
 31
0.0
  0
ARC
  8
LC-002-002-RND-0
  6
CONTINUOUS
  5
52B
 10
162.038932
 20
257.499779
 30
0.0
 40
0.7
 50
90.000358
 51
135.0
  0
ARC
  8
LC-002-002-RND-0
  6
CONTINUOUS
  5
52C
 10
173.017754
 20
257.499848
 30
0.0
 40
0.7
 50
36.870027
 51
90.000358
  0
ARC
  8
LC-002-002-RND-0
  6
CONTINUOUS
  5
52D
 10
174.117751
 20
257.199855
 30
0.0
 40
0.7
 50
216.870027
 51
270.000358
  0
LINE
  8
LC-001-002-----0
  6
CONTINUOUS
  5
52E
 10
174.117751
 20
257.199855
 30
0.0
 11
173.577753
 21
257.919849
 31
0.0
  0
LINE
  8
LC-001-002-----0
  6
CONTINUOUS
  5
52F
 10
174.117755
 20
256.499855
 30
0.0
 11
179.018244
 21
256.499885
 31
0.0
  0
LINE
  8
LC-001-002-----0
  6
CONTINUOUS
  5
530
 10
154.829784
 20
254.999912
 30
0.0
 11
159.124871
 21
254.999922
 31
0.0
  0
ARC
  8
LC-002-002-RND-0
  6
CONTINUOUS
  5
531
 10
159.124861
 20
255.999922
 30
0.0
 40
1.0
 50
270.000575
 51
315.0
  0
LINE
  8
LC-001-002-----0
  6
CONTINUOUS
  5
532
 10
162.038932
 20
257.499779
 30
0.0
 11
159.831968
 21
255.292815
 31
0.0
  0
ARC
  8
LC-001-002-----0
  6
CONTINUOUS
  5
533
 10
179.018246
 20
256.199885
 30
0.0
 40
1.0
 50
270.0
 51
90.001713
  0
ARC
  8
LC-001-002-----0
  6
CONTINUOUS
  5
534
 10
154.832903
 20
257.999911
 30
0.0
 40
3.0
 50
199.47104
 51
270.059811
  0
LINE
  8
LC-001-002-----0
  6
CONTINUOUS
  5
535
 10
173.557752
 20
256.779853
 30
0.0
 11
173.017754
 21
257.499848
 31
0.0
  0
LINE
  8
LC-001-002-----0
  6
CONTINUOUS
  5
536
 10
179.018247
 20
255.899885
 30
0.0
 11
177.518246
 21
255.899876
 31
0.0
  0
LINE
  8
LC-001-002-----0
  6
CONTINUOUS
  5
537
 10
177.518246
 20
255.899876
 30
0.0
 11
177.518246
 21
255.199876
 31
0.0
  0
ARC
  8
LC-001-002-----0
  6
CONTINUOUS
  5
538
 10
179.018246
 20
256.199885
 30
0.0
 40
0.3
 50
269.991704
 51
90.009012
  0
LINE
  8
LC-001-002-----0
  6
CONTINUOUS
  5
539
 10
173.017754
 20
257.499848
 30
0.0
 11
170.767754
 21
257.499834
 31
0.0
  0
LINE
  8
LC-001-002-----0
  6
CONTINUOUS
  5
53A
 10
170.767754
 20
257.499834
 30
0.0
 11
170.767754
 21
258.199834
 31
0.0
  0
LINE
  8
LC-001-002-----0
  6
CONTINUOUS
  5
53B
 10
170.767754
 20
258.199834
 30
0.0
 11
173.017749
 21
258.199848
 31
0.0
  0
LINE
  8
LC-001-002-----0
  6
CONTINUOUS
  5
53C
 10
162.038932
 20
257.499779
 30
0.0
 11
163.267754
 21
257.499787
 31
0.0
  0
LINE
  8
LC-001-002-----0
  6
CONTINUOUS
  5
53D
 10
163.267754
 20
257.499787
 30
0.0
 11
163.267754
 21
258.199787
 31
0.0
  0
LINE
  8
LC-001-002-----0
  6
CONTINUOUS
  5
53E
 10
163.267754
 20
258.199787
 30
0.0
 11
162.038928
 21
258.199779
 31
0.0
  0
ARC
  8
LC-001-002-----0
  6
CONTINUOUS
  5
53F
 10
154.832903
 20
257.986376
 30
0.0
 40
2.286465
 50
205.55853
 51
270.0
  0
LINE
  8
LC-001-002-----0
  6
CONTINUOUS
  5
540
 10
161.543957
 20
257.994754
 30
0.0
 11
159.336993
 21
255.78779
 31
0.0
  0
ARC
  8
LC-001-002-----0
  6
CONTINUOUS
  5
541
 10
159.124861
 20
255.999922
 30
0.0
 40
0.3
 50
270.000126
 51
315.0
  0
LINE
  8
LC-001-002-----0
  6
CONTINUOUS
  5
542
 10
159.124862
 20
255.699922
 30
0.0
 11
154.830319
 21
255.699912
 31
0.0
  0
LINE
  8
LC-001-002-----0
  6
CONTINUOUS
  5
543
 10
179.018239
 20
257.199885
 30
0.0
 11
174.117751
 21
257.199855
 31
0.0
  0
LINE
  8
LC-001-002-----0
  6
CONTINUOUS
  5
544
 10
152.004472
 20
256.99992
 30
0.0
 11
152.77018
 21
256.99992
 31
0.0
  0
LINE
  8
LC-001-002-----0
  6
CONTINUOUS
  5
545
 10
179.018246
 20
255.199885
 30
0.0
 11
177.518246
 21
255.199885
 31
0.0
  0
ARC
  8
LC-002-002-RND-0
  6
CONTINUOUS
  5
546
 10
311.997546
 20
257.499779
 30
0.0
 40
0.7
 50
45.0
 51
89.999642
  0
ARC
  8
LC-002-002-RND-0
  6
CONTINUOUS
  5
547
 10
301.018724
 20
257.499848
 30
0.0
 40
0.7
 50
89.999642
 51
143.129973
  0
ARC
  8
LC-002-002-RND-0
  6
CONTINUOUS
  5
548
 10
299.918726
 20
257.199855
 30
0.0
 40
0.7
 50
269.999642
 51
323.129973
  0
LINE
  8
LC-001-002-----0
  6
CONTINUOUS
  5
549
 10
299.918726
 20
257.199855
 30
0.0
 11
300.458725
 21
257.919849
 31
0.0
  0
LINE
  8
LC-001-002-----0
  6
CONTINUOUS
  5
54A
 10
299.918722
 20
256.499855
 30
0.0
 11
295.018234
 21
256.499885
 31
0.0
  0
LINE
  8
LC-001-002-----0
  6
CONTINUOUS
  5
54B
 10
319.206693
 20
254.999912
 30
0.0
 11
314.911606
 21
254.999922
 31
0.0
  0
ARC
  8
LC-002-002-RND-0
  6
CONTINUOUS
  5
54C
 10
314.911616
 20
255.999922
 30
0.0
 40
1.0
 50
225.0
 51
269.999425
  0
LINE
  8
LC-001-002-----0
  6
CONTINUOUS
  5
54D
 10
311.997546
 20
257.499779
 30
0.0
 11
314.20451
 21
255.292815
 31
0.0
  0
LINE
  8
LC-001-002-----0
  6
CONTINUOUS
  5
54E
 10
205.018239
 20
332.199885
 30
0.0
 11
207.018239
 21
332.199885
 31
0.0
  0
ARC
  8
LC-001-002-----0
  6
CONTINUOUS
  5
54F
 10
295.018232
 20
256.199885
 30
0.0
 40
1.0
 50
89.998287
 51
270.0
  0
ARC
  8
LC-001-002-----0
  6
CONTINUOUS
  5
550
 10
319.203575
 20
257.999911
 30
0.0
 40
3.0
 50
269.940189
 51
340.52896
  0
LINE
  8
LC-001-002-----0
  6
CONTINUOUS
  5
551
 10
300.478726
 20
256.779853
 30
0.0
 11
301.018724
 21
257.499848
 31
0.0
  0
LINE
  8
LC-001-002-----0
  6
CONTINUOUS
  5
552
 10
295.01823
 20
255.899885
 30
0.0
 11
296.518232
 21
255.899876
 31
0.0
  0
LINE
  8
LC-001-002-----0
  6
CONTINUOUS
  5
553
 10
296.518232
 20
255.899876
 30
0.0
 11
296.518232
 21
255.199876
 31
0.0
  0
ARC
  8
LC-001-002-----0
  6
CONTINUOUS
  5
554
 10
295.018232
 20
256.199885
 30
0.0
 40
0.3
 50
89.990988
 51
270.008296
  0
LINE
  8
LC-001-002-----0
  6
CONTINUOUS
  5
555
 10
301.018724
 20
257.499848
 30
0.0
 11
303.268724
 21
257.499834
 31
0.0
  0
LINE
  8
LC-001-002-----0
  6
CONTINUOUS
  5
556
 10
303.268724
 20
257.499834
 30
0.0
 11
303.268724
 21
258.199834
 31
0.0
  0
LINE
  8
LC-001-002-----0
  6
CONTINUOUS
  5
557
 10
303.268724
 20
258.199834
 30
0.0
 11
301.018728
 21
258.199848
 31
0.0
  0
LINE
  8
LC-001-002-----0
  6
CONTINUOUS
  5
558
 10
311.997546
 20
257.499779
 30
0.0
 11
310.768724
 21
257.499787
 31
0.0
  0
LINE
  8
LC-001-002-----0
  6
CONTINUOUS
  5
559
 10
310.768724
 20
257.499787
 30
0.0
 11
310.768724
 21
258.199787
 31
0.0
  0
LINE
  8
LC-001-002-----0
  6
CONTINUOUS
  5
55A
 10
310.768724
 20
258.199787
 30
0.0
 11
311.99755
 21
258.199779
 31
0.0
  0
ARC
  8
LC-001-002-----0
  6
CONTINUOUS
  5
55B
 10
319.203575
 20
257.986376
 30
0.0
 40
2.286465
 50
270.0
 51
334.44147
  0
LINE
  8
LC-001-002-----0
  6
CONTINUOUS
  5
55C
 10
312.49252
 20
257.994754
 30
0.0
 11
314.699484
 21
255.78779
 31
0.0
  0
ARC
  8
LC-001-002-----0
  6
CONTINUOUS
  5
55D
 10
314.911616
 20
255.999922
 30
0.0
 40
0.3
 50
225.0
 51
269.999874
  0
LINE
  8
LC-001-002-----0
  6
CONTINUOUS
  5
55E
 10
314.911616
 20
255.699922
 30
0.0
 11
319.206159
 21
255.699912
 31
0.0
  0
LINE
  8
LC-001-002-----0
  6
CONTINUOUS
  5
55F
 10
295.018238
 20
257.199885
 30
0.0
 11
299.918726
 21
257.199855
 31
0.0
  0
LINE
  8
LC-001-002-----0
  6
CONTINUOUS
  5
560
 10
322.032005
 20
256.99992
 30
0.0
 11
321.266298
 21
256.99992
 31
0.0
  0
LINE
  8
LC-001-002-----0
  6
CONTINUOUS
  5
561
 10
295.018232
 20
255.199885
 30
0.0
 11
296.518232
 21
255.199885
 31
0.0
  0
LINE
  8
LC-001-002-----0
  6
CONTINUOUS
  5
562
 10
211.03457
 20
328.199885
 30
0.0
 11
204.479162
 21
302.699885
 31
0.0
  0
LINE
  8
LC-001-002-----0
  6
CONTINUOUS
  5
563
 10
162.636202
 20
253.499231
 30
0.0
 11
164.017766
 21
253.499231
 31
0.0
  0
LINE
  8
LC-001-002-----0
  6
CONTINUOUS
  5
564
 10
170.016515
 20
253.499231
 30
0.0
 11
173.768014
 21
253.499231
 31
0.0
  0
LINE
  8
LC-001-002-----0
  6
CONTINUOUS
  5
565
 10
300.268239
 20
253.499231
 30
0.0
 11
304.019963
 21
253.499231
 31
0.0
  0
LINE
  8
LC-001-002-----0
  6
CONTINUOUS
  5
566
 10
313.018199
 20
252.000099
 30
0.0
 11
312.900275
 21
252.000099
 31
0.0
  0
LINE
  8
LC-006-005-----0
  6
CONTINUOUS
  5
567
 10
385.955597
 20
236.04896
 30
0.0
 11
387.69325
 21
237.786613
 31
0.0
  0
LINE
  8
LC-006-005-----0
  6
CONTINUOUS
  5
568
 10
383.245496
 20
236.167285
 30
0.0
 11
385.542844
 21
238.464633
 31
0.0
  0
LINE
  8
LC-001-002-----0
  6
CONTINUOUS
  5
569
 10
179.018246
 20
253.199885
 30
0.0
 11
180.518246
 21
251.699885
 31
0.0
  0
LINE
  8
LC-006-005-----0
  6
CONTINUOUS
  5
56A
 10
380.535394
 20
236.285611
 30
0.0
 11
382.93309
 21
238.683307
 31
0.0
  0
LINE
  8
LC-006-005-----0
  6
CONTINUOUS
  5
56B
 10
377.825293
 20
236.403936
 30
0.0
 11
380.222989
 21
238.801632
 31
0.0
  0
LINE
  8
LC-006-005-----0
  6
CONTINUOUS
  5
56C
 10
375.115191
 20
236.522262
 30
0.0
 11
377.512887
 21
238.919958
 31
0.0
  0
LINE
  8
LC-006-005-----0
  6
CONTINUOUS
  5
56D
 10
372.40509
 20
236.640588
 30
0.0
 11
374.802786
 21
239.038284
 31
0.0
  0
LINE
  8
LC-006-005-----0
  6
CONTINUOUS
  5
56E
 10
369.694988
 20
236.758913
 30
0.0
 11
372.092684
 21
239.156609
 31
0.0
  0
LINE
  8
LC-006-005-----0
  6
CONTINUOUS
  5
56F
 10
366.984887
 20
236.877239
 30
0.0
 11
369.382583
 21
239.274935
 31
0.0
  0
LINE
  8
LC-006-005-----0
  6
CONTINUOUS
  5
570
 10
364.274785
 20
236.995564
 30
0.0
 11
366.672481
 21
239.39326
 31
0.0
  0
LINE
  8
LC-006-005-----0
  6
CONTINUOUS
  5
571
 10
361.564683
 20
237.11389
 30
0.0
 11
363.96238
 21
239.511586
 31
0.0
  0
LINE
  8
LC-006-005-----0
  6
CONTINUOUS
  5
572
 10
358.854582
 20
237.232216
 30
0.0
 11
361.252278
 21
239.629912
 31
0.0
  0
LINE
  8
LC-006-005-----0
  6
CONTINUOUS
  5
573
 10
356.14448
 20
237.350541
 30
0.0
 11
358.542176
 21
239.748237
 31
0.0
  0
LINE
  8
LC-006-005-----0
  6
CONTINUOUS
  5
574
 10
353.434379
 20
237.468867
 30
0.0
 11
355.832075
 21
239.866563
 31
0.0
  0
LINE
  8
LC-006-005-----0
  6
CONTINUOUS
  5
575
 10
350.724277
 20
237.587192
 30
0.0
 11
353.121973
 21
239.984888
 31
0.0
  0
LINE
  8
LC-006-005-----0
  6
CONTINUOUS
  5
576
 10
348.014176
 20
237.705518
 30
0.0
 11
350.411872
 21
240.103214
 31
0.0
  0
LINE
  8
LC-001-002-----0
  6
CONTINUOUS
  5
577
 10
289.017801
 20
241.499922
 30
0.0
 11
297.017846
 21
241.499922
 31
0.0
  0
LINE
  8
LC-006-005-----0
  6
CONTINUOUS
  5
578
 10
345.304074
 20
237.823844
 30
0.0
 11
347.70177
 21
240.22154
 31
0.0
  0
LINE
  8
LC-001-002-----0
  6
CONTINUOUS
  5
579
 10
297.017846
 20
241.499922
 30
0.0
 11
297.017846
 21
256.499855
 31
0.0
  0
LINE
  8
LC-006-005-----0
  6
CONTINUOUS
  5
57A
 10
342.593973
 20
237.942169
 30
0.0
 11
344.991669
 21
240.339865
 31
0.0
  0
LINE
  8
LC-006-005-----0
  6
CONTINUOUS
  5
57B
 10
339.883871
 20
238.060495
 30
0.0
 11
342.281567
 21
240.458191
 31
0.0
  0
LINE
  8
LC-006-005-----0
  6
CONTINUOUS
  5
57C
 10
337.17377
 20
238.17882
 30
0.0
 11
339.571466
 21
240.576516
 31
0.0
  0
LINE
  8
LC-006-005-----0
  6
CONTINUOUS
  5
57D
 10
334.463668
 20
238.297146
 30
0.0
 11
336.861364
 21
240.694842
 31
0.0
  0
LINE
  8
LC-006-005-----0
  6
CONTINUOUS
  5
57E
 10
331.753567
 20
238.415471
 30
0.0
 11
334.151263
 21
240.813167
 31
0.0
  0
LINE
  8
LC-006-005-----0
  6
CONTINUOUS
  5
57F
 10
348.169335
 20
254.83124
 30
0.0
 11
351.321996
 21
257.983901
 31
0.0
  0
LINE
  8
LC-006-005-----0
  6
CONTINUOUS
  5
580
 10
329.043465
 20
238.533797
 30
0.0
 11
331.441161
 21
240.931493
 31
0.0
  0
LINE
  8
LC-006-005-----0
  6
CONTINUOUS
  5
581
 10
345.229056
 20
254.719388
 30
0.0
 11
348.921516
 21
258.411848
 31
0.0
  0
LINE
  8
LC-006-005-----0
  6
CONTINUOUS
  5
582
 10
326.333363
 20
238.652123
 30
0.0
 11
328.73106
 21
241.049819
 31
0.0
  0
LINE
  8
LC-006-005-----0
  6
CONTINUOUS
  5
583
 10
342.148152
 20
254.466911
 30
0.0
 11
346.00031
 21
258.319069
 31
0.0
  0
LINE
  8
LC-006-005-----0
  6
CONTINUOUS
  5
584
 10
323.623262
 20
238.770448
 30
0.0
 11
326.020958
 21
241.168144
 31
0.0
  0
LINE
  8
LC-006-005-----0
  6
CONTINUOUS
  5
585
 10
338.073787
 20
253.220974
 30
0.0
 11
343.079105
 21
258.226291
 31
0.0
  0
LINE
  8
LC-006-005-----0
  6
CONTINUOUS
  5
586
 10
320.91316
 20
238.888774
 30
0.0
 11
323.310856
 21
241.28647
 31
0.0
  0
LINE
  8
LC-006-005-----0
  6
CONTINUOUS
  5
587
 10
333.999423
 20
251.975036
 30
0.0
 11
339.31134
 21
257.286953
 31
0.0
  0
LINE
  8
LC-006-005-----0
  6
CONTINUOUS
  5
588
 10
318.203059
 20
239.007099
 30
0.0
 11
320.600755
 21
241.404795
 31
0.0
  0
LINE
  8
LC-006-005-----0
  6
CONTINUOUS
  5
589
 10
329.925058
 20
250.729099
 30
0.0
 11
335.237378
 21
256.041418
 31
0.0
  0
LINE
  8
LC-006-005-----0
  6
CONTINUOUS
  5
58A
 10
315.492957
 20
239.125425
 30
0.0
 11
317.890653
 21
241.523121
 31
0.0
  0
LINE
  8
LC-006-005-----0
  6
CONTINUOUS
  5
58B
 10
325.850693
 20
249.483161
 30
0.0
 11
331.163415
 21
254.795883
 31
0.0
  0
LINE
  8
LC-006-005-----0
  6
CONTINUOUS
  5
58C
 10
311.538337
 20
237.999232
 30
0.0
 11
315.180552
 21
241.641447
 31
0.0
  0
LINE
  8
LC-006-005-----0
  6
CONTINUOUS
  5
58D
 10
319.539219
 20
246.000114
 30
0.0
 11
327.089453
 21
253.550347
 31
0.0
  0
LINE
  8
LC-001-002-----0
  6
CONTINUOUS
  5
58E
 10
235.518251
 20
241.499922
 30
0.0
 11
238.518226
 21
241.499922
 31
0.0
  0
LINE
  8
LC-006-005-----0
  6
CONTINUOUS
  5
58F
 10
308.70991
 20
237.999232
 30
0.0
 11
309.209909
 21
238.499231
 31
0.0
  0
LINE
  8
LC-006-005-----0
  6
CONTINUOUS
  5
590
 10
309.518728
 20
238.80805
 30
0.0
 11
313.01876
 21
242.308082
 31
0.0
  0
LINE
  8
LC-006-005-----0
  6
CONTINUOUS
  5
591
 10
316.710786
 20
246.000108
 30
0.0
 11
319.210792
 21
248.500113
 31
0.0
  0
LINE
  8
LC-006-005-----0
  6
CONTINUOUS
  5
592
 10
320.018727
 20
249.308049
 30
0.0
 11
323.01549
 21
252.304812
 31
0.0
  0
LINE
  8
LC-001-002-----0
  6
CONTINUOUS
  5
593
 10
207.851216
 20
328.199885
 30
0.0
 11
200.217282
 21
302.699885
 31
0.0
  0
LINE
  8
LC-001-002-----0
  6
CONTINUOUS
  5
594
 10
289.017801
 20
241.499922
 30
0.0
 11
177.018632
 21
241.499922
 31
0.0
  0
LINE
  8
LC-006-005-----0
  6
CONTINUOUS
  5
595
 10
305.881483
 20
237.999232
 30
0.0
 11
306.381482
 21
238.499231
 31
0.0
  0
LINE
  8
LC-001-002-----0
  6
CONTINUOUS
  5
596
 10
293.518239
 20
257.199884
 30
0.0
 11
299.518239
 21
257.199901
 31
0.0
  0
LINE
  8
LC-006-005-----0
  6
CONTINUOUS
  5
597
 10
309.518728
 20
241.636477
 30
0.0
 11
313.01876
 21
245.136509
 31
0.0
  0
LINE
  8
LC-006-005-----0
  6
CONTINUOUS
  5
598
 10
313.882352
 20
246.000101
 30
0.0
 11
316.382358
 21
248.500107
 31
0.0
  0
LINE
  8
LC-001-002-----0
  6
CONTINUOUS
  5
599
 10
313.018199
 20
252.000099
 30
0.0
 11
313.018207
 21
248.500099
 31
0.0
  0
LINE
  8
LC-006-005-----0
  6
CONTINUOUS
  5
59A
 10
303.053055
 20
237.999231
 30
0.0
 11
304.518728
 21
239.464904
 31
0.0
  0
LINE
  8
LC-001-002-----0
  6
CONTINUOUS
  5
59B
 10
313.018729
 20
248.500099
 30
0.0
 11
320.018729
 21
248.500115
 31
0.0
  0
LINE
  8
LC-001-002-----0
  6
CONTINUOUS
  5
59C
 10
320.018729
 20
248.500115
 30
0.0
 11
320.018721
 21
252.000115
 31
0.0
  0
LINE
  8
LC-001-002-----0
  6
CONTINUOUS
  5
59D
 10
313.01876
 20
246.000099
 30
0.0
 11
320.018735
 21
246.000115
 31
0.0
  0
LINE
  8
LC-001-002-----0
  6
CONTINUOUS
  5
59E
 10
320.018735
 20
246.000115
 30
0.0
 11
322.467356
 21
248.448748
 31
0.0
  0
LINE
  8
LC-006-005-----0
  6
CONTINUOUS
  5
59F
 10
309.518728
 20
244.464904
 30
0.0
 11
313.553924
 21
248.5001
 31
0.0
  0
LINE
  8
LC-006-005-----0
  6
CONTINUOUS
  5
5A0
 10
300.224628
 20
237.999231
 30
0.0
 11
304.518728
 21
242.293331
 31
0.0
  0
LINE
  8
LC-006-005-----0
  6
CONTINUOUS
  5
5A1
 10
310.018727
 20
247.79333
 30
0.0
 11
313.018202
 21
250.792805
 31
0.0
  0
LINE
  8
LC-006-005-----0
  6
CONTINUOUS
  5
5A2
 10
297.396201
 20
237.999231
 30
0.0
 11
304.518728
 21
245.121759
 31
0.0
  0
LINE
  8
LC-006-005-----0
  6
CONTINUOUS
  5
5A3
 10
310.01872
 20
250.62175
 30
0.0
 11
312.148583
 21
252.751614
 31
0.0
  0
LINE
  8
LC-006-005-----0
  6
CONTINUOUS
  5
5A4
 10
294.684467
 20
238.115924
 30
0.0
 11
304.019967
 21
247.451424
 31
0.0
  0
LINE
  8
LC-006-005-----0
  6
CONTINUOUS
  5
5A5
 10
310.018712
 20
253.450169
 30
0.0
 11
310.067774
 21
253.499231
 31
0.0
  0
LINE
  8
LC-006-005-----0
  6
CONTINUOUS
  5
5A6
 10
291.990725
 20
238.25061
 30
0.0
 11
295.240037
 21
241.499922
 31
0.0
  0
LINE
  8
LC-006-005-----0
  6
CONTINUOUS
  5
5A7
 10
297.018351
 20
243.278236
 30
0.0
 11
304.019965
 21
250.27985
 31
0.0
  0
LINE
  8
LC-006-005-----0
  6
CONTINUOUS
  5
5A8
 10
289.296984
 20
238.385295
 30
0.0
 11
292.41161
 21
241.499922
 31
0.0
  0
LINE
  8
LC-006-005-----0
  6
CONTINUOUS
  5
5A9
 10
297.018351
 20
246.106663
 30
0.0
 11
304.019963
 21
253.108275
 31
0.0
  0
ARC
  8
LC-002-002-RND-0
  6
CONTINUOUS
  5
5AA
 10
269.446803
 20
319.199885
 30
0.0
 40
13.0
 50
15.0
 51
90.0
  0
LINE
  8
LC-001-002-----0
  6
CONTINUOUS
  5
5AB
 10
192.032639
 20
322.564533
 30
0.0
 11
174.518239
 21
257.199901
 31
0.0
  0
LINE
  8
LC-001-002-----0
  6
CONTINUOUS
  5
5AC
 10
255.695737
 20
328.199885
 30
0.0
 11
260.725878
 21
302.699885
 31
0.0
  0
LINE
  8
LC-001-002-----0
  6
CONTINUOUS
  5
5AD
 10
199.451915
 20
302.699885
 30
0.0
 11
207.085849
 21
328.199885
 31
0.0
  0
LINE
  8
LC-001-002-----0
  6
CONTINUOUS
  5
5AE
 10
242.018239
 20
332.199885
 30
0.0
 11
242.018239
 21
328.199885
 31
0.0
  0
LINE
  8
LC-001-002-----0
  6
CONTINUOUS
  5
5AF
 10
267.018239
 20
332.199885
 30
0.0
 11
267.018239
 21
328.199885
 31
0.0
  0
LINE
  8
LC-001-002-----0
  6
CONTINUOUS
  5
5B0
 10
269.018239
 20
332.199885
 30
0.0
 11
267.018239
 21
332.199885
 31
0.0
  0
LINE
  8
LC-001-002-----0
  6
CONTINUOUS
  5
5B1
 10
269.018239
 20
328.140181
 30
0.0
 11
269.018239
 21
332.199885
 31
0.0
  0
LINE
  8
LC-001-002-----0
  6
CONTINUOUS
  5
5B2
 10
261.784385
 20
328.199885
 30
0.0
 11
268.339793
 21
302.699885
 31
0.0
  0
LINE
  8
LC-001-002-----0
  6
CONTINUOUS
  5
5B3
 10
288.205896
 20
257.199885
 30
0.0
 11
277.278892
 21
293.699885
 31
0.0
  0
LINE
  8
LC-001-002-----0
  6
CONTINUOUS
  5
5B4
 10
257.138468
 20
328.199885
 30
0.0
 11
262.220319
 21
302.699885
 31
0.0
  0
LINE
  8
LC-001-002-----0
  6
CONTINUOUS
  5
5B5
 10
185.199135
 20
257.199885
 30
0.0
 11
205.034919
 21
328.199885
 31
0.0
  0
ARC
  8
LC-002-002-RND-0
  6
CONTINUOUS
  5
5B6
 10
204.589675
 20
319.199885
 30
0.0
 40
13.0
 50
88.110819
 51
165.0
  0
LINE
  8
LC-001-002-----0
  6
CONTINUOUS
  5
5B7
 10
207.018239
 20
332.199885
 30
0.0
 11
207.018239
 21
328.199885
 31
0.0
  0
LINE
  8
LC-001-002-----0
  6
CONTINUOUS
  5
5B8
 10
232.018239
 20
332.199885
 30
0.0
 11
232.018239
 21
328.199885
 31
0.0
  0
LINE
  8
LC-001-002-----0
  6
CONTINUOUS
  5
5B9
 10
248.334248
 20
328.199885
 30
0.0
 11
251.496327
 21
302.699885
 31
0.0
  0
LINE
  8
LC-001-002-----0
  6
CONTINUOUS
  5
5BA
 10
232.375703
 20
293.699885
 30
0.0
 11
230.83193
 21
257.199885
 31
0.0
  0
LINE
  8
LC-001-002-----0
  6
CONTINUOUS
  5
5BB
 10
161.018199
 20
251.999745
 30
0.0
 11
161.018207
 21
248.499745
 31
0.0
  0
LINE
  8
LC-001-002-----0
  6
CONTINUOUS
  5
5BC
 10
221.424122
 20
293.699885
 30
0.0
 11
216.898009
 21
257.199885
 31
0.0
  0
LINE
  8
LC-001-002-----0
  6
CONTINUOUS
  5
5BD
 10
241.660775
 20
293.699885
 30
0.0
 11
243.204548
 21
257.199885
 31
0.0
  0
LINE
  8
LC-001-002-----0
  6
CONTINUOUS
  5
5BE
 10
230.773469
 20
302.699885
 30
0.0
 11
231.851996
 21
328.199885
 31
0.0
  0
LINE
  8
LC-001-002-----0
  6
CONTINUOUS
  5
5BF
 10
219.576363
 20
293.699885
 30
0.0
 11
215.05025
 21
257.199885
 31
0.0
  0
LINE
  8
LC-001-002-----0
  6
CONTINUOUS
  5
5C0
 10
211.535255
 20
293.699885
 30
0.0
 11
204.335249
 21
257.199885
 31
0.0
  0
LINE
  8
LC-001-002-----0
  6
CONTINUOUS
  5
5C1
 10
161.017686
 20
248.499744
 30
0.0
 11
154.017686
 21
248.499728
 31
0.0
  0
LINE
  8
LC-001-002-----0
  6
CONTINUOUS
  5
5C2
 10
154.017686
 20
248.499728
 30
0.0
 11
154.017677
 21
251.999728
 31
0.0
  0
LINE
  8
LC-001-002-----0
  6
CONTINUOUS
  5
5C3
 10
161.017717
 20
245.999744
 30
0.0
 11
154.017691
 21
245.999728
 31
0.0
  0
LINE
  8
LC-001-002-----0
  6
CONTINUOUS
  5
5C4
 10
154.017691
 20
245.999728
 30
0.0
 11
151.569059
 21
248.44835
 31
0.0
  0
LINE
  8
LC-001-002-----0
  6
CONTINUOUS
  5
5C5
 10
202.165488
 20
293.699885
 30
0.0
 11
192.782258
 21
257.199885
 31
0.0
  0
LINE
  8
LC-001-002-----0
  6
CONTINUOUS
  5
5C6
 10
210.022564
 20
293.699885
 30
0.0
 11
202.748542
 21
257.199885
 31
0.0
  0
LINE
  8
LC-001-002-----0
  6
CONTINUOUS
  5
5C7
 10
203.383011
 20
293.699885
 30
0.0
 11
193.99978
 21
257.199885
 31
0.0
  0
LINE
  8
LC-001-002-----0
  6
CONTINUOUS
  5
5C8
 10
276.125678
 20
302.699885
 30
0.0
 11
269.018239
 21
328.140181
 31
0.0
  0
LINE
  8
LC-001-002-----0
  6
CONTINUOUS
  5
5C9
 10
250.182007
 20
328.199885
 30
0.0
 11
253.344086
 21
302.699885
 31
0.0
  0
ARC
  8
LC-001-002-----0
  6
CONTINUOUS
  5
5CA
 10
294.018232
 20
253.199885
 30
0.0
 40
1.0
 50
0.0
 51
90.0
  0
LINE
  8
LC-001-002-----0
  6
CONTINUOUS
  5
5CB
 10
207.018239
 20
328.199885
 30
0.0
 11
237.018239
 21
328.199885
 31
0.0
  0
LINE
  8
LC-001-002-----0
  6
CONTINUOUS
  5
5CC
 10
262.501222
 20
293.699885
 30
0.0
 11
269.701228
 21
257.199885
 31
0.0
  0
LINE
  8
LC-001-002-----0
  6
CONTINUOUS
  5
5CD
 10
252.612355
 20
293.699885
 30
0.0
 11
257.138468
 21
257.199885
 31
0.0
  0
LINE
  8
LC-001-002-----0
  6
CONTINUOUS
  5
5CE
 10
269.446803
 20
332.199885
 30
0.0
 11
237.018239
 21
332.199885
 31
0.0
  0
LINE
  8
LC-001-002-----0
  6
CONTINUOUS
  5
5CF
 10
243.263008
 20
302.699885
 30
0.0
 11
242.184482
 21
328.199885
 31
0.0
  0
LINE
  8
LC-001-002-----0
  6
CONTINUOUS
  5
5D0
 10
216.898009
 20
328.199885
 30
0.0
 11
211.816158
 21
302.699885
 31
0.0
  0
LINE
  8
LC-001-002-----0
  6
CONTINUOUS
  5
5D1
 10
269.001559
 20
328.199885
 30
0.0
 11
237.018239
 21
328.199885
 31
0.0
  0
LINE
  8
LC-001-002-----0
  6
CONTINUOUS
  5
5D2
 10
282.003838
 20
322.564533
 30
0.0
 11
299.518239
 21
257.199901
 31
0.0
  0
LINE
  8
LC-001-002-----0
  6
CONTINUOUS
  5
5D3
 10
295.018232
 20
253.199885
 30
0.0
 11
293.518232
 21
251.699885
 31
0.0
  0
LINE
  8
LC-001-002-----0
  6
CONTINUOUS
  5
5D4
 10
291.518239
 20
257.199885
 30
0.0
 11
237.018239
 21
257.199885
 31
0.0
  0
LINE
  8
LC-001-002-----0
  6
CONTINUOUS
  5
5D5
 10
264.013913
 20
293.699885
 30
0.0
 11
271.287935
 21
257.199885
 31
0.0
  0
LINE
  8
LC-001-002-----0
  6
CONTINUOUS
  5
5D6
 10
212.252092
 20
328.199885
 30
0.0
 11
205.696685
 21
302.699885
 31
0.0
  0
LINE
  8
LC-001-002-----0
  6
CONTINUOUS
  5
5D7
 10
218.340741
 20
328.199885
 30
0.0
 11
213.310599
 21
302.699885
 31
0.0
  0
ARC
  8
LC-001-002-----0
  6
CONTINUOUS
  5
5D8
 10
180.018246
 20
253.199885
 30
0.0
 40
1.0
 50
90.0
 51
180.0
  0
LINE
  8
LC-001-002-----0
  6
CONTINUOUS
  5
5D9
 10
180.518239
 20
257.199884
 30
0.0
 11
174.518239
 21
257.199901
 31
0.0
  0
LINE
  8
LC-001-002-----0
  6
CONTINUOUS
  5
5DA
 10
266.185261
 20
328.199885
 30
0.0
 11
273.819195
 21
302.699885
 31
0.0
  0
LINE
  8
LC-001-002-----0
  6
CONTINUOUS
  5
5DB
 10
185.830582
 20
257.199885
 30
0.0
 11
196.757586
 21
293.699885
 31
0.0
  0
LINE
  8
LC-001-002-----0
  6
CONTINUOUS
  5
5DC
 10
274.584562
 20
302.699885
 30
0.0
 11
266.950628
 21
328.199885
 31
0.0
  0
LINE
  8
LC-001-002-----0
  6
CONTINUOUS
  5
5DD
 10
271.870989
 20
293.699885
 30
0.0
 11
281.25422
 21
257.199885
 31
0.0
  0
LINE
  8
LC-001-002-----0
  6
CONTINUOUS
  5
5DE
 10
270.653466
 20
293.699885
 30
0.0
 11
280.036697
 21
257.199885
 31
0.0
  0
LINE
  8
LC-001-002-----0
  6
CONTINUOUS
  5
5DF
 10
245.187437
 20
257.199885
 30
0.0
 11
243.643664
 21
293.699885
 31
0.0
  0
LINE
  8
LC-001-002-----0
  6
CONTINUOUS
  5
5E0
 10
240.201592
 20
328.199885
 30
0.0
 11
241.280118
 21
302.699885
 31
0.0
  0
LINE
  8
LC-001-002-----0
  6
CONTINUOUS
  5
5E1
 10
228.84904
 20
257.199885
 30
0.0
 11
230.392813
 21
293.699885
 31
0.0
  0
LINE
  8
LC-001-002-----0
  6
CONTINUOUS
  5
5E2
 10
233.834885
 20
328.199885
 30
0.0
 11
232.756359
 21
302.699885
 31
0.0
  0
LINE
  8
LC-001-002-----0
  6
CONTINUOUS
  5
5E3
 10
225.702229
 20
328.199885
 30
0.0
 11
222.54015
 21
302.699885
 31
0.0
  0
LINE
  8
LC-009-006-MLN-0
  6
DASHDOT
  5
5E6
 10
237.018239
 20
197.518361
 30
0.0
 11
237.018239
 21
332.565363
 31
0.0
  0
LINE
  8
LC-001-002-----0
  6
CONTINUOUS
  5
5E7
 10
276.125678
 20
302.699885
 30
0.0
 11
197.910799
 21
302.699885
 31
0.0
  0
LINE
  8
LC-001-002-----0
  6
CONTINUOUS
  5
5E8
 10
195.396404
 20
293.699885
 30
0.0
 11
278.640073
 21
293.699885
 31
0.0
  0
LINE
  8
LC-001-002-----0
  6
CONTINUOUS
  5
5E9
 10
197.910799
 20
302.699885
 30
0.0
 11
197.910799
 21
295.699885
 31
0.0
  0
LINE
  8
LC-001-002-----0
  6
CONTINUOUS
  5
5EA
 10
276.125678
 20
302.699885
 30
0.0
 11
276.125678
 21
295.699885
 31
0.0
  0
LINE
  8
LC-001-002-----0
  6
CONTINUOUS
  5
5EB
 10
182.518239
 20
247.199885
 30
0.0
 11
291.518239
 21
247.199885
 31
0.0
  0
ARC
  8
LC-002-002-RND-0
  6
CONTINUOUS
  5
5EC
 10
195.910799
 20
295.699885
 30
0.0
 40
2.0
 50
270.0
 51
0.0
  0
LINE
  8
LC-001-002-----0
  6
CONTINUOUS
  5
5ED
 10
182.518239
 20
251.699885
 30
0.0
 11
182.518239
 21
257.199885
 31
0.0
  0
LINE
  8
LC-001-002-----0
  6
CONTINUOUS
  5
5EE
 10
182.518239
 20
251.699885
 30
0.0
 11
182.518239
 21
247.199885
 31
0.0
  0
LINE
  8
LC-001-002-----0
  6
CONTINUOUS
  5
5EF
 10
180.518239
 20
247.199885
 30
0.0
 11
182.518239
 21
247.199885
 31
0.0
  0
LINE
  8
LC-001-002-----0
  6
CONTINUOUS
  5
5F0
 10
180.518239
 20
251.699885
 30
0.0
 11
180.518239
 21
247.199885
 31
0.0
  0
LINE
  8
LC-001-002-----0
  6
CONTINUOUS
  5
5F1
 10
180.518239
 20
254.199885
 30
0.0
 11
180.518239
 21
257.199884
 31
0.0
  0
LINE
  8
LC-001-002-----0
  6
CONTINUOUS
  5
5F2
 10
180.518239
 20
257.199884
 30
0.0
 11
182.518239
 21
257.199885
 31
0.0
  0
LINE
  8
LC-001-002-----0
  6
CONTINUOUS
  5
5F3
 10
131.383113
 20
254.621405
 30
0.0
 11
122.008764
 21
254.978018
 31
0.0
  0
ARC
  8
LC-002-002-RND-0
  6
CONTINUOUS
  5
5F4
 10
278.125678
 20
295.699885
 30
0.0
 40
2.0
 50
180.0
 51
270.0
  0
LINE
  8
LC-001-002-----0
  6
CONTINUOUS
  5
5F5
 10
293.518239
 20
257.199884
 30
0.0
 11
291.518239
 21
257.199885
 31
0.0
  0
LINE
  8
LC-001-002-----0
  6
CONTINUOUS
  5
5F6
 10
291.518239
 20
251.699885
 30
0.0
 11
291.518239
 21
247.199885
 31
0.0
  0
LINE
  8
LC-001-002-----0
  6
CONTINUOUS
  5
5F7
 10
291.518239
 20
251.699885
 30
0.0
 11
291.518239
 21
257.199885
 31
0.0
  0
LINE
  8
LC-001-002-----0
  6
CONTINUOUS
  5
5F8
 10
293.518239
 20
251.699885
 30
0.0
 11
293.518239
 21
247.199885
 31
0.0
  0
LINE
  8
LC-001-002-----0
  6
CONTINUOUS
  5
5F9
 10
293.518239
 20
247.199885
 30
0.0
 11
291.518239
 21
247.199885
 31
0.0
  0
LINE
  8
LC-001-002-----0
  6
CONTINUOUS
  5
5FA
 10
293.518239
 20
254.199885
 30
0.0
 11
293.518239
 21
257.199884
 31
0.0
  0
LINE
  8
LC-001-002-----0
  6
CONTINUOUS
  5
5FB
 10
180.518239
 20
254.199885
 30
0.0
 11
180.018246
 21
254.199885
 31
0.0
  0
LINE
  8
LC-001-002-----0
  6
CONTINUOUS
  5
5FC
 10
293.518239
 20
254.199885
 30
0.0
 11
294.018232
 21
254.199885
 31
0.0
  0
LINE
  8
LC-006-005-----0
  6
CONTINUOUS
  5
5FD
 10
384.955399
 20
164.338084
 30
0.0
 11
385.440049
 21
164.822733
 31
0.0
  0
LINE
  8
LC-006-005-----0
  6
CONTINUOUS
  5
5FE
 10
381.464849
 20
163.67596
 30
0.0
 11
383.862545
 21
166.073656
 31
0.0
  0
LINE
  8
LC-006-005-----0
  6
CONTINUOUS
  5
5FF
 10
378.754747
 20
163.794286
 30
0.0
 11
381.152443
 21
166.191982
 31
0.0
  0
LINE
  8
LC-006-005-----0
  6
CONTINUOUS
  5
600
 10
376.044646
 20
163.912611
 30
0.0
 11
378.442342
 21
166.310308
 31
0.0
  0
LINE
  8
LC-006-005-----0
  6
CONTINUOUS
  5
601
 10
373.334544
 20
164.030937
 30
0.0
 11
375.73224
 21
166.428633
 31
0.0
  0
LINE
  8
LC-006-005-----0
  6
CONTINUOUS
  5
602
 10
370.624443
 20
164.149263
 30
0.0
 11
373.022139
 21
166.546959
 31
0.0
  0
LINE
  8
LC-006-005-----0
  6
CONTINUOUS
  5
603
 10
367.914341
 20
164.267588
 30
0.0
 11
370.312037
 21
166.665284
 31
0.0
  0
LINE
  8
LC-006-005-----0
  6
CONTINUOUS
  5
604
 10
365.20424
 20
164.385914
 30
0.0
 11
367.601936
 21
166.78361
 31
0.0
  0
LINE
  8
LC-006-005-----0
  6
CONTINUOUS
  5
605
 10
362.494138
 20
164.504239
 30
0.0
 11
364.891834
 21
166.901935
 31
0.0
  0
LINE
  8
LC-006-005-----0
  6
CONTINUOUS
  5
606
 10
359.784037
 20
164.622565
 30
0.0
 11
362.181733
 21
167.020261
 31
0.0
  0
LINE
  8
LC-006-005-----0
  6
CONTINUOUS
  5
607
 10
357.073935
 20
164.740891
 30
0.0
 11
359.471631
 21
167.138587
 31
0.0
  0
LINE
  8
LC-006-005-----0
  6
CONTINUOUS
  5
608
 10
354.363834
 20
164.859216
 30
0.0
 11
356.76153
 21
167.256912
 31
0.0
  0
LINE
  8
LC-006-005-----0
  6
CONTINUOUS
  5
609
 10
351.653732
 20
164.977542
 30
0.0
 11
354.051428
 21
167.375238
 31
0.0
  0
LINE
  8
LC-006-005-----0
  6
CONTINUOUS
  5
60A
 10
348.94363
 20
165.095867
 30
0.0
 11
351.341327
 21
167.493563
 31
0.0
  0
LINE
  8
LC-006-005-----0
  6
CONTINUOUS
  5
60B
 10
346.233529
 20
165.214193
 30
0.0
 11
348.631225
 21
167.611889
 31
0.0
  0
LINE
  8
LC-006-005-----0
  6
CONTINUOUS
  5
60C
 10
343.523427
 20
165.332519
 30
0.0
 11
345.921123
 21
167.730215
 31
0.0
  0
LINE
  8
LC-006-005-----0
  6
CONTINUOUS
  5
60D
 10
340.813326
 20
165.450844
 30
0.0
 11
343.211022
 21
167.84854
 31
0.0
  0
LINE
  8
LC-006-005-----0
  6
CONTINUOUS
  5
60E
 10
338.103224
 20
165.56917
 30
0.0
 11
340.50092
 21
167.966866
 31
0.0
  0
LINE
  8
LC-006-005-----0
  6
CONTINUOUS
  5
60F
 10
335.393123
 20
165.687495
 30
0.0
 11
337.790819
 21
168.085191
 31
0.0
  0
LINE
  8
LC-006-005-----0
  6
CONTINUOUS
  5
610
 10
332.683021
 20
165.805821
 30
0.0
 11
335.080717
 21
168.203517
 31
0.0
  0
LINE
  8
LC-006-005-----0
  6
CONTINUOUS
  5
611
 10
329.97292
 20
165.924146
 30
0.0
 11
332.370616
 21
168.321843
 31
0.0
  0
LINE
  8
LC-006-005-----0
  6
CONTINUOUS
  5
612
 10
327.262818
 20
166.042472
 30
0.0
 11
329.660514
 21
168.440168
 31
0.0
  0
LINE
  8
LC-006-005-----0
  6
CONTINUOUS
  5
613
 10
324.552717
 20
166.160798
 30
0.0
 11
326.950413
 21
168.558494
 31
0.0
  0
LINE
  8
LC-006-005-----0
  6
CONTINUOUS
  5
614
 10
321.842615
 20
166.279123
 30
0.0
 11
324.240311
 21
168.676819
 31
0.0
  0
LINE
  8
LC-006-005-----0
  6
CONTINUOUS
  5
615
 10
319.132514
 20
166.397449
 30
0.0
 11
321.53021
 21
168.795145
 31
0.0
  0
LINE
  8
LC-006-005-----0
  6
CONTINUOUS
  5
616
 10
316.422412
 20
166.515774
 30
0.0
 11
318.820108
 21
168.91347
 31
0.0
  0
LINE
  8
LC-006-005-----0
  6
CONTINUOUS
  5
617
 10
313.712311
 20
166.6341
 30
0.0
 11
316.110007
 21
169.031796
 31
0.0
  0
LINE
  8
LC-006-005-----0
  6
CONTINUOUS
  5
618
 10
311.002209
 20
166.752426
 30
0.0
 11
313.399905
 21
169.150122
 31
0.0
  0
LINE
  8
LC-006-005-----0
  6
CONTINUOUS
  5
619
 10
308.292107
 20
166.870751
 30
0.0
 11
310.689803
 21
169.268447
 31
0.0
  0
LINE
  8
LC-006-005-----0
  6
CONTINUOUS
  5
61A
 10
305.582006
 20
166.989077
 30
0.0
 11
307.979702
 21
169.386773
 31
0.0
  0
LINE
  8
LC-006-005-----0
  6
CONTINUOUS
  5
61B
 10
302.871904
 20
167.107402
 30
0.0
 11
305.2696
 21
169.505098
 31
0.0
  0
LINE
  8
LC-006-005-----0
  6
CONTINUOUS
  5
61C
 10
300.161803
 20
167.225728
 30
0.0
 11
302.559499
 21
169.623424
 31
0.0
  0
LINE
  8
LC-006-005-----0
  6
CONTINUOUS
  5
61D
 10
297.451701
 20
167.344054
 30
0.0
 11
299.849397
 21
169.74175
 31
0.0
  0
LINE
  8
LC-006-005-----0
  6
CONTINUOUS
  5
61E
 10
294.7416
 20
167.462379
 30
0.0
 11
297.139296
 21
169.860075
 31
0.0
  0
LINE
  8
LC-006-005-----0
  6
CONTINUOUS
  5
61F
 10
292.031498
 20
167.580705
 30
0.0
 11
294.429194
 21
169.978401
 31
0.0
  0
LINE
  8
LC-006-005-----0
  6
CONTINUOUS
  5
620
 10
289.321397
 20
167.69903
 30
0.0
 11
291.719093
 21
170.096726
 31
0.0
  0
LINE
  8
LC-006-005-----0
  6
CONTINUOUS
  5
621
 10
286.611295
 20
167.817356
 30
0.0
 11
289.008991
 21
170.215052
 31
0.0
  0
LINE
  8
LC-006-005-----0
  6
CONTINUOUS
  5
622
 10
283.901194
 20
167.935681
 30
0.0
 11
286.29889
 21
170.333378
 31
0.0
  0
LINE
  8
LC-006-005-----0
  6
CONTINUOUS
  5
623
 10
281.191092
 20
168.054007
 30
0.0
 11
283.588788
 21
170.451703
 31
0.0
  0
LINE
  8
LC-006-005-----0
  6
CONTINUOUS
  5
624
 10
278.480991
 20
168.172333
 30
0.0
 11
280.878687
 21
170.570029
 31
0.0
  0
LINE
  8
LC-006-005-----0
  6
CONTINUOUS
  5
625
 10
275.770889
 20
168.290658
 30
0.0
 11
278.168585
 21
170.688354
 31
0.0
  0
LINE
  8
LC-006-005-----0
  6
CONTINUOUS
  5
626
 10
273.060787
 20
168.408984
 30
0.0
 11
275.458484
 21
170.80668
 31
0.0
  0
LINE
  8
LC-006-005-----0
  6
CONTINUOUS
  5
627
 10
270.350686
 20
168.527309
 30
0.0
 11
272.748382
 21
170.925005
 31
0.0
  0
LINE
  8
LC-006-005-----0
  6
CONTINUOUS
  5
628
 10
267.640584
 20
168.645635
 30
0.0
 11
270.03828
 21
171.043331
 31
0.0
  0
LINE
  8
LC-006-005-----0
  6
CONTINUOUS
  5
629
 10
264.930483
 20
168.763961
 30
0.0
 11
267.328179
 21
171.161657
 31
0.0
  0
LINE
  8
LC-006-005-----0
  6
CONTINUOUS
  5
62A
 10
262.220381
 20
168.882286
 30
0.0
 11
264.618077
 21
171.279982
 31
0.0
  0
LINE
  8
LC-006-005-----0
  6
CONTINUOUS
  5
62B
 10
259.51028
 20
169.000612
 30
0.0
 11
261.907976
 21
171.398308
 31
0.0
  0
LINE
  8
LC-006-005-----0
  6
CONTINUOUS
  5
62C
 10
256.800178
 20
169.118937
 30
0.0
 11
259.197874
 21
171.516633
 31
0.0
  0
LINE
  8
LC-006-005-----0
  6
CONTINUOUS
  5
62D
 10
254.090077
 20
169.237263
 30
0.0
 11
256.487773
 21
171.634959
 31
0.0
  0
LINE
  8
LC-006-005-----0
  6
CONTINUOUS
  5
62E
 10
251.379975
 20
169.355589
 30
0.0
 11
253.777671
 21
171.753285
 31
0.0
  0
LINE
  8
LC-006-005-----0
  6
CONTINUOUS
  5
62F
 10
248.669874
 20
169.473914
 30
0.0
 11
251.06757
 21
171.87161
 31
0.0
  0
LINE
  8
LC-006-005-----0
  6
CONTINUOUS
  5
630
 10
245.959772
 20
169.59224
 30
0.0
 11
248.357468
 21
171.989936
 31
0.0
  0
LINE
  8
LC-006-005-----0
  6
CONTINUOUS
  5
631
 10
243.249671
 20
169.710565
 30
0.0
 11
245.647367
 21
172.108261
 31
0.0
  0
LINE
  8
LC-006-005-----0
  6
CONTINUOUS
  5
632
 10
240.539569
 20
169.828891
 30
0.0
 11
242.937265
 21
172.226587
 31
0.0
  0
LINE
  8
LC-006-005-----0
  6
CONTINUOUS
  5
633
 10
237.829467
 20
169.947216
 30
0.0
 11
240.227164
 21
172.344913
 31
0.0
  0
LINE
  8
LC-006-005-----0
  6
CONTINUOUS
  5
634
 10
235.120247
 20
170.066424
 30
0.0
 11
237.517062
 21
172.463238
 31
0.0
  0
LINE
  8
LC-006-005-----0
  6
CONTINUOUS
  5
635
 10
232.515115
 20
170.289718
 30
0.0
 11
234.813282
 21
172.587885
 31
0.0
  0
LINE
  8
LC-006-005-----0
  6
CONTINUOUS
  5
636
 10
230.065507
 20
170.668537
 30
0.0
 11
232.242663
 21
172.845694
 31
0.0
  0
LINE
  8
LC-006-005-----0
  6
CONTINUOUS
  5
637
 10
227.750228
 20
171.181686
 30
0.0
 11
229.832488
 21
173.263946
 31
0.0
  0
LINE
  8
LC-006-005-----0
  6
CONTINUOUS
  5
638
 10
225.553877
 20
171.813762
 30
0.0
 11
227.560528
 21
173.820413
 31
0.0
  0
LINE
  8
LC-006-005-----0
  6
CONTINUOUS
  5
639
 10
223.464948
 20
172.55326
 30
0.0
 11
225.410839
 21
174.499151
 31
0.0
  0
LINE
  8
LC-006-005-----0
  6
CONTINUOUS
  5
63A
 10
221.474684
 20
173.391423
 30
0.0
 11
223.371655
 21
175.288394
 31
0.0
  0
LINE
  8
LC-006-005-----0
  6
CONTINUOUS
  5
63B
 10
219.57635
 20
174.321516
 30
0.0
 11
221.434145
 21
176.179311
 31
0.0
  0
LINE
  8
LC-006-005-----0
  6
CONTINUOUS
  5
63C
 10
217.764754
 20
175.338347
 30
0.0
 11
219.591627
 21
177.16522
 31
0.0
  0
LINE
  8
LC-006-005-----0
  6
CONTINUOUS
  5
63D
 10
216.035923
 20
176.437943
 30
0.0
 11
217.839061
 21
178.241081
 31
0.0
  0
LINE
  8
LC-006-005-----0
  6
CONTINUOUS
  5
63E
 10
214.386882
 20
177.617329
 30
0.0
 11
216.172718
 21
179.403165
 31
0.0
  0
LINE
  8
LC-006-005-----0
  6
CONTINUOUS
  5
63F
 10
212.815505
 20
178.87438
 30
0.0
 11
214.589951
 21
180.648826
 31
0.0
  0
LINE
  8
LC-006-005-----0
  6
CONTINUOUS
  5
640
 10
211.32041
 20
180.207711
 30
0.0
 11
213.089053
 21
181.976355
 31
0.0
  0
LINE
  8
LC-006-005-----0
  6
CONTINUOUS
  5
641
 10
209.900898
 20
181.616627
 30
0.0
 11
211.669163
 21
183.384892
 31
0.0
  0
LINE
  8
LC-006-005-----0
  6
CONTINUOUS
  5
642
 10
208.556925
 20
183.10108
 30
0.0
 11
210.330224
 21
184.87438
 31
0.0
  0
LINE
  8
LC-006-005-----0
  6
CONTINUOUS
  5
643
 10
207.289095
 20
184.661678
 30
0.0
 11
209.072983
 21
186.445566
 31
0.0
  0
LINE
  8
LC-006-005-----0
  6
CONTINUOUS
  5
644
 10
206.098691
 20
186.299701
 30
0.0
 11
207.899025
 21
188.100035
 31
0.0
  0
LINE
  8
LC-006-005-----0
  6
CONTINUOUS
  5
645
 10
204.987731
 20
188.017168
 30
0.0
 11
206.810857
 21
189.840294
 31
0.0
  0
LINE
  8
LC-006-005-----0
  6
CONTINUOUS
  5
646
 10
203.959062
 20
189.816926
 30
0.0
 11
205.812044
 21
191.669909
 31
0.0
  0
LINE
  8
LC-006-005-----0
  6
CONTINUOUS
  5
647
 10
203.016505
 20
191.702796
 30
0.0
 11
204.907426
 21
193.593717
 31
0.0
  0
LINE
  8
LC-006-005-----0
  6
CONTINUOUS
  5
648
 10
202.165064
 20
193.679783
 30
0.0
 11
204.102196
 21
195.616914
 31
0.0
  0
LINE
  8
LC-006-005-----0
  6
CONTINUOUS
  5
649
 10
201.390909
 20
195.734055
 30
0.0
 11
203.334798
 21
197.677943
 31
0.0
  0
LINE
  8
LC-006-005-----0
  6
CONTINUOUS
  5
64A
 10
200.623511
 20
197.795084
 30
0.0
 11
202.5674
 21
199.738972
 31
0.0
  0
LINE
  8
LC-006-005-----0
  6
CONTINUOUS
  5
64B
 10
199.856113
 20
199.856113
 30
0.0
 11
201.800002
 21
201.800002
 31
0.0
  0
LINE
  8
LC-006-005-----0
  6
CONTINUOUS
  5
64C
 10
199.088715
 20
201.917142
 30
0.0
 11
201.032603
 21
203.861031
 31
0.0
  0
LINE
  8
LC-006-005-----0
  6
CONTINUOUS
  5
64D
 10
198.321317
 20
203.978171
 30
0.0
 11
200.265205
 21
205.92206
 31
0.0
  0
LINE
  8
LC-006-005-----0
  6
CONTINUOUS
  5
64E
 10
197.553919
 20
206.0392
 30
0.0
 11
199.497807
 21
207.983089
 31
0.0
  0
LINE
  8
LC-006-005-----0
  6
CONTINUOUS
  5
64F
 10
196.78652
 20
208.100229
 30
0.0
 11
198.730409
 21
210.044118
 31
0.0
  0
LINE
  8
LC-006-005-----0
  6
CONTINUOUS
  5
650
 10
196.019122
 20
210.161258
 30
0.0
 11
197.963011
 21
212.105147
 31
0.0
  0
LINE
  8
LC-006-005-----0
  6
CONTINUOUS
  5
651
 10
195.251724
 20
212.222287
 30
0.0
 11
197.195613
 21
214.166176
 31
0.0
  0
LINE
  8
LC-006-005-----0
  6
CONTINUOUS
  5
652
 10
194.484326
 20
214.283316
 30
0.0
 11
196.428215
 21
216.227205
 31
0.0
  0
LINE
  8
LC-006-005-----0
  6
CONTINUOUS
  5
653
 10
193.716928
 20
216.344345
 30
0.0
 11
195.660817
 21
218.288234
 31
0.0
  0
LINE
  8
LC-006-005-----0
  6
CONTINUOUS
  5
654
 10
192.94953
 20
218.405374
 30
0.0
 11
194.893419
 21
220.349263
 31
0.0
  0
LINE
  8
LC-006-005-----0
  6
CONTINUOUS
  5
655
 10
192.182132
 20
220.466403
 30
0.0
 11
194.126021
 21
222.410292
 31
0.0
  0
LINE
  8
LC-006-005-----0
  6
CONTINUOUS
  5
656
 10
191.414734
 20
222.527432
 30
0.0
 11
193.358623
 21
224.471321
 31
0.0
  0
LINE
  8
LC-006-005-----0
  6
CONTINUOUS
  5
657
 10
190.647336
 20
224.588461
 30
0.0
 11
192.591225
 21
226.53235
 31
0.0
  0
LINE
  8
LC-006-005-----0
  6
CONTINUOUS
  5
658
 10
189.879938
 20
226.64949
 30
0.0
 11
191.823827
 21
228.593379
 31
0.0
  0
LINE
  8
LC-006-005-----0
  6
CONTINUOUS
  5
659
 10
189.11254
 20
228.710519
 30
0.0
 11
191.056428
 21
230.654408
 31
0.0
  0
LINE
  8
LC-006-005-----0
  6
CONTINUOUS
  5
65A
 10
188.345142
 20
230.771548
 30
0.0
 11
190.28903
 21
232.715437
 31
0.0
  0
LINE
  8
LC-006-005-----0
  6
CONTINUOUS
  5
65B
 10
187.577744
 20
232.832577
 30
0.0
 11
189.521632
 21
234.776466
 31
0.0
  0
LINE
  8
LC-006-005-----0
  6
CONTINUOUS
  5
65C
 10
186.810345
 20
234.893607
 30
0.0
 11
188.754234
 21
236.837495
 31
0.0
  0
LINE
  8
LC-006-005-----0
  6
CONTINUOUS
  5
65D
 10
186.042947
 20
236.954636
 30
0.0
 11
187.986836
 21
238.898524
 31
0.0
  0
LINE
  8
LC-006-005-----0
  6
CONTINUOUS
  5
65E
 10
184.759116
 20
238.499231
 30
0.0
 11
187.219438
 21
240.959553
 31
0.0
  0
LINE
  8
LC-006-005-----0
  6
CONTINUOUS
  5
65F
 10
181.930689
 20
238.499231
 30
0.0
 11
184.931379
 21
241.499922
 31
0.0
  0
LINE
  8
LC-006-005-----0
  6
CONTINUOUS
  5
660
 10
179.102262
 20
238.499231
 30
0.0
 11
182.102952
 21
241.499922
 31
0.0
  0
LINE
  8
LC-006-005-----0
  6
CONTINUOUS
  5
661
 10
176.273835
 20
238.499231
 30
0.0
 11
179.274525
 21
241.499922
 31
0.0
  0
LINE
  8
LC-006-005-----0
  6
CONTINUOUS
  5
662
 10
173.445407
 20
238.499231
 30
0.0
 11
177.018213
 21
242.072037
 31
0.0
  0
LINE
  8
LC-006-005-----0
  6
CONTINUOUS
  5
663
 10
170.105707
 20
237.987958
 30
0.0
 11
177.018213
 21
244.900464
 31
0.0
  0
LINE
  8
LC-006-005-----0
  6
CONTINUOUS
  5
664
 10
166.791131
 20
237.50181
 30
0.0
 11
167.788553
 21
238.499231
 31
0.0
  0
LINE
  8
LC-006-005-----0
  6
CONTINUOUS
  5
665
 10
169.517749
 20
240.228427
 30
0.0
 11
177.018213
 21
247.728891
 31
0.0
  0
LINE
  8
LC-006-005-----0
  6
CONTINUOUS
  5
666
 10
164.328519
 20
237.867625
 30
0.0
 11
164.960126
 21
238.499231
 31
0.0
  0
LINE
  8
LC-006-005-----0
  6
CONTINUOUS
  5
667
 10
169.517749
 20
243.056855
 30
0.0
 11
177.018213
 21
250.557318
 31
0.0
  0
LINE
  8
LC-006-005-----0
  6
CONTINUOUS
  5
668
 10
162.131699
 20
238.499232
 30
0.0
 11
164.517749
 21
240.885282
 31
0.0
  0
LINE
  8
LC-006-005-----0
  6
CONTINUOUS
  5
669
 10
170.01651
 20
246.384042
 30
0.0
 11
177.018213
 21
253.385745
 31
0.0
  0
LINE
  8
LC-006-005-----0
  6
CONTINUOUS
  5
66A
 10
161.017717
 20
240.213676
 30
0.0
 11
164.517749
 21
243.713709
 31
0.0
  0
LINE
  8
LC-006-005-----0
  6
CONTINUOUS
  5
66B
 10
170.016512
 20
249.212471
 30
0.0
 11
174.303272
 21
253.499231
 31
0.0
  0
LINE
  8
LC-006-005-----0
  6
CONTINUOUS
  5
66C
 10
161.017717
 20
243.042104
 30
0.0
 11
164.076878
 21
246.101265
 31
0.0
  0
LINE
  8
LC-006-005-----0
  6
CONTINUOUS
  5
66D
 10
170.016514
 20
252.0409
 30
0.0
 11
171.474845
 21
253.499231
 31
0.0
  0
LINE
  8
LC-006-005-----0
  6
CONTINUOUS
  5
66E
 10
161.017717
 20
245.870531
 30
0.0
 11
164.017753
 21
248.870567
 31
0.0
  0
LINE
  8
LC-006-005-----0
  6
CONTINUOUS
  5
66F
 10
158.318497
 20
245.999738
 30
0.0
 11
160.818503
 21
248.499744
 31
0.0
  0
LINE
  8
LC-006-005-----0
  6
CONTINUOUS
  5
670
 10
161.018207
 20
248.699448
 30
0.0
 11
164.017761
 21
251.699002
 31
0.0
  0
LINE
  8
LC-006-005-----0
  6
CONTINUOUS
  5
671
 10
155.490064
 20
245.999732
 30
0.0
 11
157.990069
 21
248.499737
 31
0.0
  0
LINE
  8
LC-006-005-----0
  6
CONTINUOUS
  5
672
 10
161.0182
 20
251.527868
 30
0.0
 11
162.989563
 21
253.499231
 31
0.0
  0
LINE
  8
LC-006-005-----0
  6
CONTINUOUS
  5
673
 10
153.339661
 20
246.677756
 30
0.0
 11
155.161636
 21
248.499731
 31
0.0
  0
LINE
  8
LC-006-005-----0
  6
CONTINUOUS
  5
674
 10
151.925444
 20
248.091966
 30
0.0
 11
154.017682
 21
250.184204
 31
0.0
  0
LINE
  8
LC-006-005-----0
  6
CONTINUOUS
  5
675
 10
149.949017
 20
248.943966
 30
0.0
 11
153.004972
 21
251.999922
 31
0.0
  0
LINE
  8
LC-006-005-----0
  6
CONTINUOUS
  5
676
 10
147.782966
 20
249.606343
 30
0.0
 11
150.607769
 21
252.431146
 31
0.0
  0
LINE
  8
LC-006-005-----0
  6
CONTINUOUS
  5
677
 10
145.616915
 20
250.268719
 30
0.0
 11
148.441605
 21
253.093408
 31
0.0
  0
LINE
  8
LC-006-005-----0
  6
CONTINUOUS
  5
678
 10
143.450865
 20
250.931096
 30
0.0
 11
146.275441
 21
253.755671
 31
0.0
  0
LINE
  8
LC-006-005-----0
  6
CONTINUOUS
  5
679
 10
141.284814
 20
251.593472
 30
0.0
 11
144.109276
 21
254.417934
 31
0.0
  0
LINE
  8
LC-006-005-----0
  6
CONTINUOUS
  5
67A
 10
139.118764
 20
252.255849
 30
0.0
 11
141.943112
 21
255.080197
 31
0.0
  0
LINE
  8
LC-006-005-----0
  6
CONTINUOUS
  5
67B
 10
136.952713
 20
252.918225
 30
0.0
 11
139.776948
 21
255.74246
 31
0.0
  0
LINE
  8
LC-006-005-----0
  6
CONTINUOUS
  5
67C
 10
134.786663
 20
253.580602
 30
0.0
 11
137.610784
 21
256.404723
 31
0.0
  0
LINE
  8
LC-006-005-----0
  6
CONTINUOUS
  5
67D
 10
132.620612
 20
254.242979
 30
0.0
 11
135.444619
 21
257.066986
 31
0.0
  0
LINE
  8
LC-006-005-----0
  6
CONTINUOUS
  5
67E
 10
130.215046
 20
254.66584
 30
0.0
 11
133.278455
 21
257.729249
 31
0.0
  0
LINE
  8
LC-006-005-----0
  6
CONTINUOUS
  5
67F
 10
127.490273
 20
254.769494
 30
0.0
 11
130.947388
 21
258.226608
 31
0.0
  0
LINE
  8
LC-006-005-----0
  6
CONTINUOUS
  5
680
 10
124.7655
 20
254.873148
 30
0.0
 11
128.206027
 21
258.313675
 31
0.0
  0
LINE
  8
LC-006-005-----0
  6
CONTINUOUS
  5
681
 10
122.040727
 20
254.976802
 30
0.0
 11
125.464666
 21
258.400741
 31
0.0
  0
LINE
  8
LC-006-005-----0
  6
CONTINUOUS
  5
682
 10
287.018239
 20
238.934978
 30
0.0
 11
289.583183
 21
241.499922
 31
0.0
  0
LINE
  8
LC-006-005-----0
  6
CONTINUOUS
  5
683
 10
297.018351
 20
248.93509
 30
0.0
 11
301.582492
 21
253.499231
 31
0.0
  0
LINE
  8
LC-006-005-----0
  6
CONTINUOUS
  5
684
 10
297.018351
 20
251.763517
 30
0.0
 11
298.754756
 21
253.499922
 31
0.0
  0
LINE
  8
LC-001-002-----0
  6
CONTINUOUS
  5
685
 10
309.518728
 20
238.499231
 30
0.0
 11
304.518728
 21
238.499231
 31
0.0
  0
LINE
  8
LC-001-002-----0
  6
CONTINUOUS
  5
686
 10
304.518728
 20
245.367633
 30
0.0
 11
304.518728
 21
238.499231
 31
0.0
  0
LINE
  8
LC-001-002-----0
  6
CONTINUOUS
  5
687
 10
309.518728
 20
245.366475
 30
0.0
 11
309.518728
 21
238.499231
 31
0.0
  0
LINE
  8
LC-001-002-----0
  6
CONTINUOUS
  5
688
 10
312.996951
 20
239.234403
 30
0.0
 11
313.01876
 21
237.999228
 31
0.0
  0
LINE
  8
LC-001-002-----0
  6
CONTINUOUS
  5
689
 10
313.01876
 20
246.000099
 30
0.0
 11
313.01876
 21
241.735832
 31
0.0
  0
LINE
  8
LC-001-002-----0
  6
CONTINUOUS
  5
68A
 10
162.636202
 20
253.499922
 30
0.0
 11
163.267784
 21
253.499922
 31
0.0
  0
LINE
  8
LC-001-002-----0
  6
CONTINUOUS
  5
68B
 10
300.268239
 20
253.499922
 30
0.0
 11
297.018351
 21
253.499922
 31
0.0
  0
LINE
  8
LC-001-002-----0
  6
CONTINUOUS
  5
68C
 10
162.636202
 20
253.499922
 30
0.0
 11
161.136202
 21
251.999922
 31
0.0
  0
LINE
  8
LC-001-002-----0
  6
CONTINUOUS
  5
68D
 10
161.018199
 20
251.999922
 30
0.0
 11
161.136202
 21
251.999922
 31
0.0
  0
LINE
  8
LC-001-002-----0
  6
CONTINUOUS
  5
68E
 10
385.157297
 20
238.586196
 30
0.0
 11
313.01876
 21
241.735832
 31
0.0
  0
LINE
  8
LC-001-002-----0
  6
CONTINUOUS
  5
68F
 10
313.018199
 20
251.999922
 30
0.0
 11
322.018239
 21
251.999922
 31
0.0
  0
LINE
  8
LC-001-002-----0
  6
CONTINUOUS
  5
690
 10
131.733309
 20
258.201647
 30
0.0
 11
122.79718
 21
258.485461
 31
0.0
  0
LINE
  8
LC-001-002-----0
  6
CONTINUOUS
  5
691
 10
177.018213
 20
241.499922
 30
0.0
 11
187.018239
 21
241.499922
 31
0.0
  0
LINE
  8
LC-001-002-----0
  6
CONTINUOUS
  5
692
 10
177.018213
 20
241.499922
 30
0.0
 11
177.018213
 21
245.499922
 31
0.0
  0
LINE
  8
LC-001-002-----0
  6
CONTINUOUS
  5
693
 10
152.018239
 20
251.999922
 30
0.0
 11
131.733309
 21
258.201647
 31
0.0
  0
LINE
  8
LC-001-002-----0
  6
CONTINUOUS
  5
694
 10
388.544917
 20
235.935908
 30
0.0
 11
385.49156
 21
166.002532
 31
0.0
  0
LINE
  8
LC-001-002-----0
  6
CONTINUOUS
  5
695
 10
297.018351
 20
253.499231
 30
0.0
 11
297.018351
 21
241.499922
 31
0.0
  0
LINE
  8
LC-001-002-----0
  6
CONTINUOUS
  5
696
 10
151.568758
 20
248.44865
 30
0.0
 11
131.383113
 21
254.621405
 31
0.0
  0
LINE
  8
LC-001-002-----0
  6
CONTINUOUS
  5
697
 10
388.613059
 20
237.496599
 30
0.0
 11
385.157297
 21
238.586196
 31
0.0
  0
LINE
  8
LC-001-002-----0
  6
CONTINUOUS
  5
698
 10
177.018213
 20
256.499855
 30
0.0
 11
177.018213
 21
245.499922
 31
0.0
  0
LINE
  8
LC-001-002-----0
  6
CONTINUOUS
  5
699
 10
322.467056
 20
248.448447
 30
0.0
 11
342.653364
 21
254.621405
 31
0.0
  0
LINE
  8
LC-001-002-----0
  6
CONTINUOUS
  5
69A
 10
322.018239
 20
251.999922
 30
0.0
 11
342.303168
 21
258.201647
 31
0.0
  0
LINE
  8
LC-001-002-----0
  6
CONTINUOUS
  5
69B
 10
342.303168
 20
258.201647
 30
0.0
 11
351.239297
 21
258.485461
 31
0.0
  0
LINE
  8
LC-001-002-----0
  6
CONTINUOUS
  5
69C
 10
311.400275
 20
253.499922
 30
0.0
 11
312.900275
 21
251.999922
 31
0.0
  0
LINE
  8
LC-001-002-----0
  6
CONTINUOUS
  5
69D
 10
171.376668
 20
238.499231
 30
0.0
 11
185.467837
 21
238.499231
 31
0.0
  0
LINE
  8
LC-001-002-----0
  6
CONTINUOUS
  5
69E
 10
388.544917
 20
235.935908
 30
0.0
 11
312.996955
 21
239.234403
 31
0.0
  0
LINE
  8
LC-001-002-----0
  6
CONTINUOUS
  5
69F
 10
187.018239
 20
241.499922
 30
0.0
 11
287.018239
 21
241.499922
 31
0.0
  0
ENDSEC
  0
EOF
