  0
SECTION
  2
HEADER
  9
$ACADVER
  1
AC1009
  9
$INSBASE
 10
0.0
 20
0.0
 30
0.0
  9
$EXTMIN
 10
-315.0
 20
-148.5
 30
0.0
  9
$EXTMAX
 10
525.0
 20
445.5
 30
0.0
  9
$LIMMIN
 10
-315.0
 20
-148.5
  9
$LIMMAX
 10
525.0
 20
445.5
  9
$ORTHOMODE
 70
     0
  9
$REGENMODE
 70
     1
  9
$FILLMODE
 70
     1
  9
$QTEXTMODE
 70
     0
  9
$MIRRTEXT
 70
     1
  9
$DRAGMODE
 70
     2
  9
$LTSCALE
 40
2.0
  9
$OSMODE
 70
     0
  9
$ATTMODE
 70
     1
  9
$TEXTSIZE
 40
0.2
  9
$TRACEWID
 40
0.05
  9
$TEXTSTYLE
  7
STANDARD
  9
$CLAYER
  8
0
  9
$CELTYPE
  6
BYLAYER
  9
$CECOLOR
 62
     7
  9
$DIMSCALE
 40
2.0
  9
$DIMASZ
 40
3.5
  9
$DIMEXO
 40
0.0625
  9
$DIMDLI
 40
0.38
  9
$DIMRND
 40
0.0
  9
$DIMDLE
 40
0.0
  9
$DIMEXE
 40
0.18
  9
$DIMTP
 40
0.0
  9
$DIMTM
 40
0.0
  9
$DIMTXT
 40
3.5
  9
$DIMCEN
 40
0.09
  9
$DIMTSZ
 40
0.0
  9
$DIMTOL
 70
     0
  9
$DIMLIM
 70
     0
  9
$DIMTIH
 70
     1
  9
$DIMTOH
 70
     1
  9
$DIMSE1
 70
     0
  9
$DIMSE2
 70
     0
  9
$DIMTAD
 70
     1
  9
$DIMZIN
 70
     0
  9
$DIMBLK
  1

  9
$DIMASO
 70
     1
  9
$DIMSHO
 70
     1
  9
$DIMPOST
  1

  9
$DIMAPOST
  1

  9
$DIMALT
 70
     0
  9
$DIMALTD
 70
     2
  9
$DIMALTF
 40
25.4
  9
$DIMLFAC
 40
1.0
  9
$DIMTOFL
 70
     0
  9
$DIMTVP
 40
0.0
  9
$DIMTIX
 70
     0
  9
$DIMSOXD
 70
     0
  9
$DIMSAH
 70
     0
  9
$DIMBLK1
  1

  9
$DIMBLK2
  1

  9
$DIMSTYLE
  2
STANDARD
  9
$DIMCLRD
 70
     0
  9
$DIMCLRE
 70
     0
  9
$DIMCLRT
 70
     0
  9
$DIMTFAC
 40
1.0
  9
$DIMGAP
 40
0.09
  9
$LUNITS
 70
     2
  9
$LUPREC
 70
     2
  9
$AXISMODE
 70
     0
  9
$AXISUNIT
 10
0.0
 20
0.0
  9
$SKETCHINC
 40
0.1
  9
$FILLETRAD
 40
0.0
  9
$AUNITS
 70
     0
  9
$AUPREC
 70
     0
  9
$MENU
  1
acad
  9
$ELEVATION
 40
0.0
  9
$PELEVATION
 40
0.0
  9
$THICKNESS
 40
0.0
  9
$LIMCHECK
 70
     0
  9
$BLIPMODE
 70
     1
  9
$CHAMFERA
 40
0.0
  9
$CHAMFERB
 40
0.0
  9
$SKPOLY
 70
     0
  9
$TDCREATE
 40
0.000000000
  9
$TDUPDATE
 40
0.000000000
  9
$TDINDWG
 40
0.0000000000
  9
$TDUSRTIMER
 40
0.0000000000
  9
$USRTIMER
 70
     1
  9
$ANGBASE
 50
0.0
  9
$ANGDIR
 70
     0
  9
$PDMODE
 70
     0
  9
$PDSIZE
 40
0.0
  9
$PLINEWID
 40
0.0
  9
$COORDS
 70
     0
  9
$SPLFRAME
 70
     0
  9
$SPLINETYPE
 70
     6
  9
$SPLINESEGS
 70
     8
  9
$ATTDIA
 70
     0
  9
$ATTREQ
 70
     1
  9
$HANDLING
 70
     1
  9
$HANDSEED
  5
9D
  9
$SURFTAB1
 70
     6
  9
$SURFTAB2
 70
     6
  9
$SURFTYPE
 70
     6
  9
$SURFU
 70
     6
  9
$SURFV
 70
     6
  9
$UCSNAME
  2

  9
$UCSORG
 10
0.0
 20
0.0
 30
0.0
  9
$UCSXDIR
 10
1.0
 20
0.0
 30
0.0
  9
$UCSYDIR
 10
0.0
 20
1.0
 30
0.0
  9
$PUCSNAME
  2

  9
$PUCSORG
 10
0.0
 20
0.0
 30
0.0
  9
$PUCSXDIR
 10
1.0
 20
0.0
 30
0.0
  9
$PUCSYDIR
 10
0.0
 20
1.0
 30
0.0
  9
$USERI1
 70
     0
  9
$USERI2
 70
     0
  9
$USERI3
 70
     0
  9
$USERI4
 70
     0
  9
$USERI5
 70
     0
  9
$USERR1
 40
0.0
  9
$USERR2
 40
0.0
  9
$USERR3
 40
0.0
  9
$USERR4
 40
0.0
  9
$USERR5
 40
0.0
  9
$WORLDVIEW
 70
     1
  9
$SHADEDGE
 70
     3
  9
$SHADEDIF
 70
    70
  9
$TILEMODE
 70
     1
  9
$MAXACTVP
 70
    16
  9
$PINSBASE
 10
0.0
 20
0.0
 30
0.0
  9
$PLIMCHECK
 70
     0
  9
$PEXTMIN
 10
1.000000E+20
 20
1.000000E+20
 30
1.000000E+20
  9
$PEXTMAX
 10
-1.000000E+20
 20
-1.000000E+20
 30
-1.000000E+20
  9
$PLIMMIN
 10
-315.0
 20
-148.5
  9
$PLIMMAX
 10
525.0
 20
445.5
  9
$UNITMODE
 70
     0
  9
$VISRETAIN
 70
     0
  9
$PLINEGEN
 70
     1
  9
$PSLTSCALE
 70
     0
  9
$TREEDEPTH
 70
  3020
  9
$DWGCODEPAGE
  3
dos850
  0
ENDSEC
  0
SECTION
  2
TABLES
  0
TABLE
  2
VPORT
 70
     1
  0
VPORT
  2
*ACTIVE
 70
     0
 10
0.0
 20
0.0
 11
1.0
 21
1.0
 12
420.0
 22
297.0
 13
0.0
 23
0.0
 14
1.0
 24
1.0
 15
0.0
 25
0.0
 16
0.0
 26
0.0
 36
1.0
 17
-315.0
 27
-148.5
 37
0.0
 40
594.0
 41
1.604229
 42
50.0
 43
0.0
 44
0.0
 50
0.0
 51
0.0
 71
     0
 72
   100
 73
     1
 74
     1
 75
     0
 76
     0
 77
     0
 78
     0
  0
ENDTAB
  0
TABLE
  2
LTYPE
 70
     3
  0
LTYPE
  2
CONTINUOUS
 70
    64
  3
Solid line
 72
    65
 73
     0
 40
0.0
  0
LTYPE
  2
DASHDOT
 70
    64
  3
__ . __ . __ . __ . __
 72
    65
 73
     4
 40
7.5
 49
5.0
 49
-1.25
 49
0.0
 49
-1.25
  0
LTYPE
  2
CENTER
 70
    64
  3
__ . __ . __ . __ . __
 72
    65
 73
     4
 40
7.5
 49
5.0
 49
-1.25
 49
0.0
 49
-1.25
  0
ENDTAB
  0
TABLE
  2
LAYER
 70
     9
  0
LAYER
  2
0
 70
     0
 62
     7
  6
CONTINUOUS
  0
LAYER
  2
LC-INFO-1-2-MM-A3-0
 70
     1
 62
    -1
  6
CONTINUOUS
  0
LAYER
  2
LC-003-005-----0
 70
     0
 62
     2
  6
CONTINUOUS
  0
LAYER
  2
LC-005-003-MTH-0
 70
     0
 62
     2
  6
CONTINUOUS
  0
LAYER
  2
LC-004-003-----0
 70
     0
 62
     2
  6
CONTINUOUS
  0
LAYER
  2
LC-006-003-MTG-0
 70
     0
 62
     2
  6
CONTINUOUS
  0
LAYER
  2
LC-001-006-MLN-0
 70
     0
 62
     2
  6
CENTER
  0
LAYER
  2
LC-002-002-----0
 70
     0
 62
     1
  6
CONTINUOUS
  0
LAYER
  2
LC-000
 70
     0
 62
     7
  6
CONTINUOUS
  0
ENDTAB
  0
TABLE
  2
STYLE
 70
     4
  0
STYLE
  2
STANDARD
 70
     0
 40
0.0
 41
1.0
 50
0.0
 71
     0
 42
0.0
  3
txt
  4

  0
STYLE
  2
LC-STANDARD
 70
    64
 40
0.0
 41
1.0
 50
0.0
 71
     0
 42
3.5
  3
MONOTXT
  4

  0
STYLE
  2
LC-TXTSTYLE-150-400-0-0-D2
 70
    64
 40
0.0
 41
1.0
 50
15.0
 71
     0
 42
3.5
  3
MONOTXT
  4

  0
STYLE
  2
LC-TXTSTYLE-150-400-0-0-D3
 70
    64
 40
0.0
 41
1.0
 50
15.0
 71
     0
 42
3.5
  3
LC-STANDARD
  4

  0
ENDTAB
  0
TABLE
  2
VIEW
 70
     0
  0
ENDTAB
  0
TABLE
  2
UCS
 70
     0
  0
ENDTAB
  0
TABLE
  2
APPID
 70
     1
  0
APPID
  2
ACAD
 70
     0
  0
ENDTAB
  0
TABLE
  2
DIMSTYLE
 70
     3
  0
DIMSTYLE
  2
STANDARD
 70
     0
  3

  4

  5

  6

  7

 40
1.0
 41
0.18
 42
0.0625
 43
0.38
 44
0.18
 45
0.0
 46
0.0
 47
0.0
 48
0.0
 71
     0
 72
     0
 73
     1
 74
     1
 75
     0
 76
     0
 77
     0
 78
     0
140
0.18
141
0.09
142
0.0
143
25.4
144
1.0
145
0.0
146
1.0
147
0.09
170
     0
171
     2
172
     0
173
     0
174
     0
175
     0
176
     0
177
     0
178
     0
  0
DIMSTYLE
  2
LC-STANDARD
 70
     0
  3

  4

  5

  6

  7

 40
1.0
 41
3.5
 42
0.0
 43
7.5
 44
1.8
 45
0.0
 46
0.0
 47
0.0
 48
0.0
 71
     0
 72
     0
 73
     0
 74
     0
 75
     0
 76
     0
 77
     1
 78
     8
140
3.5
141
0.0
142
0.0
143
25.4
144
1.0
145
0.0
146
0.71
147
1.5
170
     0
171
     2
172
     1
173
     0
174
     0
175
     0
176
     0
177
     0
178
     3
  0
DIMSTYLE
  2
LC-DIM-L-0090-02-02
 70
     0
  3

  4

  5

  6

  7

 40
2.0
 41
3.5
 42
0.0
 43
7.5
 44
1.8
 45
0.0
 46
0.0
 47
0.0
 48
0.0
 71
     0
 72
     0
 73
     0
 74
     0
 75
     0
 76
     0
 77
     1
 78
     8
140
9.0
141
0.0
142
0.0
143
25.4
144
1.0
145
0.0
146
0.71
147
1.5
170
     0
171
     2
172
     0
173
     0
174
     0
175
     0
176
     2
177
     2
178
     6
  0
ENDTAB
  0
ENDSEC
  0
SECTION
  2
BLOCKS
  0
BLOCK
  8
0
  5
23
  2
*X0
 70
    65
 10
121.214514
 20
226.575755
 30
0.0
  3
*X0
  0
LINE
  8
LC-003-005-----0
  6
CONTINUOUS
  5
25
 10
126.214514
 20
227.338876
 30
0.0
 11
124.977635
 21
228.575755
 31
0.0
  0
LINE
  8
LC-003-005-----0
  6
CONTINUOUS
  5
26
 10
125.563422
 20
226.575755
 30
0.0
 11
123.563422
 21
228.575755
 31
0.0
  0
LINE
  8
LC-003-005-----0
  6
CONTINUOUS
  5
27
 10
124.149208
 20
226.575755
 30
0.0
 11
122.149208
 21
228.575755
 31
0.0
  0
LINE
  8
LC-003-005-----0
  6
CONTINUOUS
  5
28
 10
122.734995
 20
226.575755
 30
0.0
 11
121.214514
 21
228.096236
 31
0.0
  0
LINE
  8
LC-003-005-----0
  6
CONTINUOUS
  5
29
 10
121.320781
 20
226.575755
 30
0.0
 11
121.214514
 21
226.682022
 31
0.0
  0
ENDBLK
  8
0
  5
2A
  0
BLOCK
  8
0
  5
2C
  2
*X1
 70
    65
 10
87.214514
 20
226.575755
 30
0.0
  3
*X1
  0
LINE
  8
LC-003-005-----0
  6
CONTINUOUS
  5
2D
 10
92.214514
 20
227.397751
 30
0.0
 11
91.03651
 21
228.575755
 31
0.0
  0
LINE
  8
LC-003-005-----0
  6
CONTINUOUS
  5
2E
 10
91.622296
 20
226.575755
 30
0.0
 11
89.622296
 21
228.575755
 31
0.0
  0
LINE
  8
LC-003-005-----0
  6
CONTINUOUS
  5
2F
 10
90.208083
 20
226.575755
 30
0.0
 11
88.208083
 21
228.575755
 31
0.0
  0
LINE
  8
LC-003-005-----0
  6
CONTINUOUS
  5
30
 10
88.793869
 20
226.575755
 30
0.0
 11
87.214514
 21
228.15511
 31
0.0
  0
LINE
  8
LC-003-005-----0
  6
CONTINUOUS
  5
31
 10
87.379656
 20
226.575755
 30
0.0
 11
87.214514
 21
226.740897
 31
0.0
  0
ENDBLK
  8
0
  5
32
  0
BLOCK
  8
0
  5
34
  2
*D2
 70
    65
 10
0.0
 20
0.0
 30
0.0
  3
*D2
  0
LINE
  8
LC-005-003-MTH-0
  6
CONTINUOUS
  5
36
 10
87.214514
 20
228.575755
 30
0.0
 11
87.214514
 21
298.8
 31
0.0
  0
LINE
  8
LC-005-003-MTH-0
  6
CONTINUOUS
  5
37
 10
126.214514
 20
228.575755
 30
0.0
 11
126.214514
 21
298.8
 31
0.0
  0
LINE
  8
LC-004-003-----0
  6
CONTINUOUS
  5
39
 10
69.368507
 20
285.650529
 30
0.0
 11
87.214514
 21
288.0
 31
0.0
  0
LINE
  8
LC-004-003-----0
  6
CONTINUOUS
  5
3A
 10
87.214514
 20
288.0
 30
0.0
 11
69.368507
 21
290.349471
 31
0.0
  0
LINE
  8
LC-004-003-----0
  6
CONTINUOUS
  5
3B
 10
69.368507
 20
290.349471
 30
0.0
 11
69.368507
 21
285.650529
 31
0.0
  0
LINE
  8
LC-004-003-----0
  6
CONTINUOUS
  5
3C
 10
69.328469
 20
286.261391
 30
0.0
 11
82.534514
 21
288.0
 31
0.0
  0
LINE
  8
LC-004-003-----0
  6
CONTINUOUS
  5
3D
 10
82.534514
 20
288.0
 30
0.0
 11
69.328469
 21
289.738609
 31
0.0
  0
LINE
  8
LC-004-003-----0
  6
CONTINUOUS
  5
3E
 10
69.288431
 20
286.872254
 30
0.0
 11
77.854514
 21
288.0
 31
0.0
  0
LINE
  8
LC-004-003-----0
  6
CONTINUOUS
  5
3F
 10
77.854514
 20
288.0
 30
0.0
 11
69.288431
 21
289.127746
 31
0.0
  0
LINE
  8
LC-004-003-----0
  6
CONTINUOUS
  5
40
 10
69.248392
 20
287.483116
 30
0.0
 11
73.174514
 21
288.0
 31
0.0
  0
LINE
  8
LC-004-003-----0
  6
CONTINUOUS
  5
41
 10
73.174514
 20
288.0
 30
0.0
 11
69.248392
 21
288.516884
 31
0.0
  0
LINE
  8
LC-004-003-----0
  6
CONTINUOUS
  5
42
 10
144.060522
 20
290.349471
 30
0.0
 11
126.214514
 21
288.0
 31
0.0
  0
LINE
  8
LC-004-003-----0
  6
CONTINUOUS
  5
43
 10
126.214514
 20
288.0
 30
0.0
 11
144.060522
 21
285.650529
 31
0.0
  0
LINE
  8
LC-004-003-----0
  6
CONTINUOUS
  5
44
 10
144.060522
 20
285.650529
 30
0.0
 11
144.060522
 21
290.349471
 31
0.0
  0
LINE
  8
LC-004-003-----0
  6
CONTINUOUS
  5
45
 10
144.10056
 20
289.738609
 30
0.0
 11
130.894514
 21
288.0
 31
0.0
  0
LINE
  8
LC-004-003-----0
  6
CONTINUOUS
  5
46
 10
130.894514
 20
288.0
 30
0.0
 11
144.10056
 21
286.261391
 31
0.0
  0
LINE
  8
LC-004-003-----0
  6
CONTINUOUS
  5
47
 10
144.140598
 20
289.127746
 30
0.0
 11
135.574514
 21
288.0
 31
0.0
  0
LINE
  8
LC-004-003-----0
  6
CONTINUOUS
  5
48
 10
135.574514
 20
288.0
 30
0.0
 11
144.140598
 21
286.872254
 31
0.0
  0
LINE
  8
LC-004-003-----0
  6
CONTINUOUS
  5
49
 10
144.180636
 20
288.516884
 30
0.0
 11
140.254514
 21
288.0
 31
0.0
  0
LINE
  8
LC-004-003-----0
  6
CONTINUOUS
  5
4A
 10
140.254514
 20
288.0
 30
0.0
 11
144.180636
 21
287.483116
 31
0.0
  0
LINE
  8
LC-006-003-MTG-0
  6
CONTINUOUS
  5
4C
 10
62.014514
 20
288.0
 30
0.0
 11
200.417034
 21
288.0
 31
0.0
  0
TEXT
  8
LC-004-003-----0
  6
CONTINUOUS
 62
     6
  5
4E
 10
153.48976
 20
298.431999
 30
0.0
 40
18.0
  1
Ø39
 41
0.9
 51
15.0
  7
LC-TXTSTYLE-150-400-0-0-D0
  0
ENDBLK
  8
0
  5
4F
  0
BLOCK
  8
0
  5
51
  2
*D3
 70
    65
 10
0.0
 20
0.0
 30
0.0
  3
*D3
  0
LINE
  8
LC-005-003-MTH-0
  6
CONTINUOUS
  5
52
 10
92.214514
 20
228.575755
 30
0.0
 11
92.214514
 21
262.8
 31
0.0
  0
LINE
  8
LC-005-003-MTH-0
  6
CONTINUOUS
  5
53
 10
121.214514
 20
228.575755
 30
0.0
 11
121.214514
 21
262.8
 31
0.0
  0
LINE
  8
LC-004-003-----0
  6
CONTINUOUS
  5
54
 10
74.368507
 20
249.650529
 30
0.0
 11
92.214514
 21
252.0
 31
0.0
  0
LINE
  8
LC-004-003-----0
  6
CONTINUOUS
  5
55
 10
92.214514
 20
252.0
 30
0.0
 11
74.368507
 21
254.349471
 31
0.0
  0
LINE
  8
LC-004-003-----0
  6
CONTINUOUS
  5
56
 10
74.368507
 20
254.349471
 30
0.0
 11
74.368507
 21
249.650529
 31
0.0
  0
LINE
  8
LC-004-003-----0
  6
CONTINUOUS
  5
57
 10
74.328469
 20
250.261391
 30
0.0
 11
87.534514
 21
252.0
 31
0.0
  0
LINE
  8
LC-004-003-----0
  6
CONTINUOUS
  5
58
 10
87.534514
 20
252.0
 30
0.0
 11
74.328469
 21
253.738609
 31
0.0
  0
LINE
  8
LC-004-003-----0
  6
CONTINUOUS
  5
59
 10
74.288431
 20
250.872254
 30
0.0
 11
82.854514
 21
252.0
 31
0.0
  0
LINE
  8
LC-004-003-----0
  6
CONTINUOUS
  5
5A
 10
82.854514
 20
252.0
 30
0.0
 11
74.288431
 21
253.127746
 31
0.0
  0
LINE
  8
LC-004-003-----0
  6
CONTINUOUS
  5
5B
 10
74.248392
 20
251.483116
 30
0.0
 11
78.174514
 21
252.0
 31
0.0
  0
LINE
  8
LC-004-003-----0
  6
CONTINUOUS
  5
5C
 10
78.174514
 20
252.0
 30
0.0
 11
74.248392
 21
252.516884
 31
0.0
  0
LINE
  8
LC-004-003-----0
  6
CONTINUOUS
  5
5D
 10
139.060522
 20
254.349471
 30
0.0
 11
121.214514
 21
252.0
 31
0.0
  0
LINE
  8
LC-004-003-----0
  6
CONTINUOUS
  5
5E
 10
121.214514
 20
252.0
 30
0.0
 11
139.060522
 21
249.650529
 31
0.0
  0
LINE
  8
LC-004-003-----0
  6
CONTINUOUS
  5
5F
 10
139.060522
 20
249.650529
 30
0.0
 11
139.060522
 21
254.349471
 31
0.0
  0
LINE
  8
LC-004-003-----0
  6
CONTINUOUS
  5
60
 10
139.10056
 20
253.738609
 30
0.0
 11
125.894514
 21
252.0
 31
0.0
  0
LINE
  8
LC-004-003-----0
  6
CONTINUOUS
  5
61
 10
125.894514
 20
252.0
 30
0.0
 11
139.10056
 21
250.261391
 31
0.0
  0
LINE
  8
LC-004-003-----0
  6
CONTINUOUS
  5
62
 10
139.140598
 20
253.127746
 30
0.0
 11
130.574514
 21
252.0
 31
0.0
  0
LINE
  8
LC-004-003-----0
  6
CONTINUOUS
  5
63
 10
130.574514
 20
252.0
 30
0.0
 11
139.140598
 21
250.872254
 31
0.0
  0
LINE
  8
LC-004-003-----0
  6
CONTINUOUS
  5
64
 10
139.180636
 20
252.516884
 30
0.0
 11
135.254514
 21
252.0
 31
0.0
  0
LINE
  8
LC-004-003-----0
  6
CONTINUOUS
  5
65
 10
135.254514
 20
252.0
 30
0.0
 11
139.180636
 21
251.483116
 31
0.0
  0
LINE
  8
LC-006-003-MTG-0
  6
CONTINUOUS
  5
66
 10
67.014514
 20
252.0
 30
0.0
 11
195.417034
 21
252.0
 31
0.0
  0
TEXT
  8
LC-004-003-----0
  6
CONTINUOUS
 62
     6
  5
67
 10
148.48976
 20
262.431999
 30
0.0
 40
18.0
  1
Ø29
 51
15.0
  7
LC-TXTSTYLE-150-400-0-0-D0
  0
ENDBLK
  8
0
  5
68
  0
BLOCK
  8
0
  5
6A
  2
*D4
 70
    65
 10
0.0
 20
0.0
 30
0.0
  3
*D4
  0
LINE
  8
LC-005-003-MTH-0
  6
CONTINUOUS
  5
6B
 10
126.214514
 20
226.575755
 30
0.0
 11
61.2
 21
226.575755
 31
0.0
  0
LINE
  8
LC-005-003-MTH-0
  6
CONTINUOUS
  5
6C
 10
126.214514
 20
228.575755
 30
0.0
 11
61.2
 21
228.575755
 31
0.0
  0
LINE
  8
LC-004-003-----0
  6
CONTINUOUS
  5
6D
 10
74.349471
 20
208.729748
 30
0.0
 11
72.0
 21
226.575755
 31
0.0
  0
LINE
  8
LC-004-003-----0
  6
CONTINUOUS
  5
6E
 10
72.0
 20
226.575755
 30
0.0
 11
69.650529
 21
208.729748
 31
0.0
  0
LINE
  8
LC-004-003-----0
  6
CONTINUOUS
  5
6F
 10
69.650529
 20
208.729748
 30
0.0
 11
74.349471
 21
208.729748
 31
0.0
  0
LINE
  8
LC-004-003-----0
  6
CONTINUOUS
  5
70
 10
73.738609
 20
208.68971
 30
0.0
 11
72.0
 21
221.895755
 31
0.0
  0
LINE
  8
LC-004-003-----0
  6
CONTINUOUS
  5
71
 10
72.0
 20
221.895755
 30
0.0
 11
70.261391
 21
208.68971
 31
0.0
  0
LINE
  8
LC-004-003-----0
  6
CONTINUOUS
  5
72
 10
73.127746
 20
208.649672
 30
0.0
 11
72.0
 21
217.215755
 31
0.0
  0
LINE
  8
LC-004-003-----0
  6
CONTINUOUS
  5
73
 10
72.0
 20
217.215755
 30
0.0
 11
70.872254
 21
208.649672
 31
0.0
  0
LINE
  8
LC-004-003-----0
  6
CONTINUOUS
  5
74
 10
72.516884
 20
208.609634
 30
0.0
 11
72.0
 21
212.535755
 31
0.0
  0
LINE
  8
LC-004-003-----0
  6
CONTINUOUS
  5
75
 10
72.0
 20
212.535755
 30
0.0
 11
71.483116
 21
208.609634
 31
0.0
  0
LINE
  8
LC-004-003-----0
  6
CONTINUOUS
  5
76
 10
69.650529
 20
246.421763
 30
0.0
 11
72.0
 21
228.575755
 31
0.0
  0
LINE
  8
LC-004-003-----0
  6
CONTINUOUS
  5
77
 10
72.0
 20
228.575755
 30
0.0
 11
74.349471
 21
246.421763
 31
0.0
  0
LINE
  8
LC-004-003-----0
  6
CONTINUOUS
  5
78
 10
74.349471
 20
246.421763
 30
0.0
 11
69.650529
 21
246.421763
 31
0.0
  0
LINE
  8
LC-004-003-----0
  6
CONTINUOUS
  5
79
 10
70.261391
 20
246.461801
 30
0.0
 11
72.0
 21
233.255755
 31
0.0
  0
LINE
  8
LC-004-003-----0
  6
CONTINUOUS
  5
7A
 10
72.0
 20
233.255755
 30
0.0
 11
73.738609
 21
246.461801
 31
0.0
  0
LINE
  8
LC-004-003-----0
  6
CONTINUOUS
  5
7B
 10
70.872254
 20
246.501839
 30
0.0
 11
72.0
 21
237.935755
 31
0.0
  0
LINE
  8
LC-004-003-----0
  6
CONTINUOUS
  5
7C
 10
72.0
 20
237.935755
 30
0.0
 11
73.127746
 21
246.501839
 31
0.0
  0
LINE
  8
LC-004-003-----0
  6
CONTINUOUS
  5
7D
 10
71.483116
 20
246.541877
 30
0.0
 11
72.0
 21
242.615755
 31
0.0
  0
LINE
  8
LC-004-003-----0
  6
CONTINUOUS
  5
7E
 10
72.0
 20
242.615755
 30
0.0
 11
72.516884
 21
246.541877
 31
0.0
  0
LINE
  8
LC-006-003-MTG-0
  6
CONTINUOUS
  5
7F
 10
72.0
 20
201.375755
 30
0.0
 11
72.0
 21
270.378275
 31
0.0
  0
TEXT
  8
LC-004-003-----0
  6
CONTINUOUS
 62
     6
  5
80
 10
61.568001
 20
255.851001
 30
0.0
 40
18.0
  1
2
 50
90.0
 51
15.0
  7
LC-TXTSTYLE-150-400-0-0-D0
  0
ENDBLK
  8
0
  5
81
  0
ENDSEC
  0
SECTION
  2
ENTITIES
  0
VIEWPORT
  8
LC-000
  5
99
 67
     1
 68
     1
 10
420.0
 20
297.0
 30
0.0
 40
840.0
 41
594.0
 69
     1
1001
ACAD
1000
MVIEW
1002
{
1070
    16
1010
0.0
1020
0.0
1030
0.0
1010
0.0
1020
0.0
1030
1.0
1040
0.0
1040
594.0
1040
420.0
1040
297.0
1040
50.0
1040
0.0
1040
0.0
1070
     0
1070
   100
1070
     1
1070
     1
1070
     0
1070
     0
1070
     0
1070
     0
1040
0.0
1040
0.0
1040
0.0
1040
1.0
1040
1.0
1040
0.0
1040
0.0
1070
     0
1002
{
1002
}
1002
}
  0
VIEWPORT
  8
0
  5
9A
 67
     1
 68
     1
 10
0.0
 20
0.0
 30
0.0
 40
0.0
 41
0.0
 69
     1
1001
ACAD
1000
MVIEW
1002
{
1070
    16
1010
0.0
1020
0.0
1030
0.0
1010
0.0
1020
0.0
1030
1.0
1040
0.0
1040
594.0
1040
0.0
1040
0.0
1040
50.0
1040
0.0
1040
0.0
1070
     0
1070
   100
1070
     0
1070
     1
1070
     0
1070
     0
1070
     0
1070
     0
1040
0.0
1040
0.0
1040
0.0
1040
0.5
1040
0.5
1040
0.5
1040
0.5
1070
     0
1002
{
1002
}
1002
}
  0
INSERT
  8
0
  5
82
  2
*X0
 10
121.214514
 20
226.575755
 30
0.0
  0
INSERT
  8
0
  5
83
  2
*X1
 10
87.214514
 20
226.575755
 30
0.0
  0
DIMENSION
  8
0
  5
84
  2
*D2
 10
106.714514
 20
288.0
 30
0.0
 11
106.714514
 21
288.0
 31
0.0
  1
%%c<>
 13
126.214514
 23
228.575755
 33
0.0
 14
87.214514
 24
228.575755
 34
0.0
  3
LC-DIM-L-0090-02-02
  0
DIMENSION
  8
0
  5
85
  2
*D3
 10
106.714514
 20
252.0
 30
0.0
 11
106.714514
 21
252.0
 31
0.0
  1
%%c<>
 13
92.214514
 23
228.575755
 33
0.0
 14
121.214514
 24
228.575755
 34
0.0
  3
LC-DIM-L-0090-02-02
  0
DIMENSION
  8
0
  5
86
  2
*D4
 10
72.0
 20
227.575755
 30
0.0
 11
72.0
 21
227.575755
 31
0.0
 13
126.214514
 23
228.575755
 33
0.0
 14
126.214514
 24
226.575755
 34
0.0
 50
90.0
  3
LC-DIM-L-0090-02-02
  0
LINE
  8
LC-001-006-MLN-0
  6
DASHDOT
  5
8A
 10
106.714514
 20
238.575755
 30
0.0
 11
106.714514
 21
217.575755
 31
0.0
  0
LINE
  8
LC-002-002-----0
  6
CONTINUOUS
  5
8C
 10
126.214514
 20
228.575755
 30
0.0
 11
126.214514
 21
226.575755
 31
0.0
  0
LINE
  8
LC-002-002-----0
  6
CONTINUOUS
  5
8D
 10
121.214514
 20
228.575755
 30
0.0
 11
121.214514
 21
226.575755
 31
0.0
  0
LINE
  8
LC-002-002-----0
  6
CONTINUOUS
  5
8E
 10
106.714514
 20
226.575755
 30
0.0
 11
126.214514
 21
226.575755
 31
0.0
  0
LINE
  8
LC-002-002-----0
  6
CONTINUOUS
  5
8F
 10
106.714514
 20
228.575755
 30
0.0
 11
126.214514
 21
228.575755
 31
0.0
  0
LINE
  8
LC-002-002-----0
  6
CONTINUOUS
  5
90
 10
106.714514
 20
226.575755
 30
0.0
 11
87.214514
 21
226.575755
 31
0.0
  0
LINE
  8
LC-002-002-----0
  6
CONTINUOUS
  5
91
 10
87.214514
 20
228.575755
 30
0.0
 11
87.214514
 21
226.575755
 31
0.0
  0
LINE
  8
LC-002-002-----0
  6
CONTINUOUS
  5
92
 10
92.214514
 20
228.575755
 30
0.0
 11
92.214514
 21
226.575755
 31
0.0
  0
LINE
  8
LC-002-002-----0
  6
CONTINUOUS
  5
93
 10
106.714514
 20
228.575755
 30
0.0
 11
87.214514
 21
228.575755
 31
0.0
  0
LINE
  8
LC-002-002-----0
  6
DASHDOT
 62
     2
  5
94
 10
106.714514
 20
200.67
 30
0.0
 11
106.714514
 21
161.67
 31
0.0
  0
LINE
  8
LC-002-002-----0
  6
DASHDOT
 62
     2
  5
95
 10
87.214514
 20
181.17
 30
0.0
 11
126.214514
 21
181.17
 31
0.0
  0
CIRCLE
  8
LC-002-002-----0
  6
CONTINUOUS
  5
96
 10
106.714514
 20
181.17
 30
0.0
 40
14.5
  0
CIRCLE
  8
LC-002-002-----0
  6
CONTINUOUS
  5
97
 10
106.714514
 20
181.17
 30
0.0
 40
19.5
  0
ENDSEC
  0
EOF
