  0
SECTION
  2
HEADER
  9
$ACADVER
  1
AC1009
  9
$INSBASE
 10
0.0
 20
0.0
 30
0.0
  9
$EXTMIN
 10
-210.0
 20
-148.5
 30
0.0
  9
$EXTMAX
 10
630.0
 20
445.5
 30
0.0
  9
$LIMMIN
 10
-210.0
 20
-148.5
  9
$LIMMAX
 10
630.0
 20
445.5
  9
$ORTHOMODE
 70
     0
  9
$REGENMODE
 70
     1
  9
$FILLMODE
 70
     1
  9
$QTEXTMODE
 70
     0
  9
$MIRRTEXT
 70
     1
  9
$DRAGMODE
 70
     2
  9
$LTSCALE
 40
2.0
  9
$OSMODE
 70
     0
  9
$ATTMODE
 70
     1
  9
$TEXTSIZE
 40
0.2
  9
$TRACEWID
 40
0.05
  9
$TEXTSTYLE
  7
STANDARD
  9
$CLAYER
  8
0
  9
$CELTYPE
  6
BYLAYER
  9
$CECOLOR
 62
     7
  9
$DIMSCALE
 40
2.0
  9
$DIMASZ
 40
3.5
  9
$DIMEXO
 40
0.0625
  9
$DIMDLI
 40
0.38
  9
$DIMRND
 40
0.0
  9
$DIMDLE
 40
0.0
  9
$DIMEXE
 40
0.18
  9
$DIMTP
 40
0.0
  9
$DIMTM
 40
0.0
  9
$DIMTXT
 40
3.5
  9
$DIMCEN
 40
0.09
  9
$DIMTSZ
 40
0.0
  9
$DIMTOL
 70
     0
  9
$DIMLIM
 70
     0
  9
$DIMTIH
 70
     1
  9
$DIMTOH
 70
     1
  9
$DIMSE1
 70
     0
  9
$DIMSE2
 70
     0
  9
$DIMTAD
 70
     1
  9
$DIMZIN
 70
     0
  9
$DIMBLK
  1

  9
$DIMASO
 70
     1
  9
$DIMSHO
 70
     1
  9
$DIMPOST
  1

  9
$DIMAPOST
  1

  9
$DIMALT
 70
     0
  9
$DIMALTD
 70
     2
  9
$DIMALTF
 40
25.4
  9
$DIMLFAC
 40
1.0
  9
$DIMTOFL
 70
     0
  9
$DIMTVP
 40
0.0
  9
$DIMTIX
 70
     0
  9
$DIMSOXD
 70
     0
  9
$DIMSAH
 70
     0
  9
$DIMBLK1
  1

  9
$DIMBLK2
  1

  9
$DIMSTYLE
  2
STANDARD
  9
$DIMCLRD
 70
     0
  9
$DIMCLRE
 70
     0
  9
$DIMCLRT
 70
     0
  9
$DIMTFAC
 40
1.0
  9
$DIMGAP
 40
0.09
  9
$LUNITS
 70
     2
  9
$LUPREC
 70
     2
  9
$AXISMODE
 70
     0
  9
$AXISUNIT
 10
0.0
 20
0.0
  9
$SKETCHINC
 40
0.1
  9
$FILLETRAD
 40
0.0
  9
$AUNITS
 70
     0
  9
$AUPREC
 70
     0
  9
$MENU
  1
acad
  9
$ELEVATION
 40
0.0
  9
$PELEVATION
 40
0.0
  9
$THICKNESS
 40
0.0
  9
$LIMCHECK
 70
     0
  9
$BLIPMODE
 70
     1
  9
$CHAMFERA
 40
0.0
  9
$CHAMFERB
 40
0.0
  9
$SKPOLY
 70
     0
  9
$TDCREATE
 40
0.000000000
  9
$TDUPDATE
 40
0.000000000
  9
$TDINDWG
 40
0.0000000000
  9
$TDUSRTIMER
 40
0.0000000000
  9
$USRTIMER
 70
     1
  9
$ANGBASE
 50
0.0
  9
$ANGDIR
 70
     0
  9
$PDMODE
 70
     0
  9
$PDSIZE
 40
0.0
  9
$PLINEWID
 40
0.0
  9
$COORDS
 70
     0
  9
$SPLFRAME
 70
     0
  9
$SPLINETYPE
 70
     6
  9
$SPLINESEGS
 70
     8
  9
$ATTDIA
 70
     0
  9
$ATTREQ
 70
     1
  9
$HANDLING
 70
     1
  9
$HANDSEED
  5
286
  9
$SURFTAB1
 70
     6
  9
$SURFTAB2
 70
     6
  9
$SURFTYPE
 70
     6
  9
$SURFU
 70
     6
  9
$SURFV
 70
     6
  9
$UCSNAME
  2

  9
$UCSORG
 10
0.0
 20
0.0
 30
0.0
  9
$UCSXDIR
 10
1.0
 20
0.0
 30
0.0
  9
$UCSYDIR
 10
0.0
 20
1.0
 30
0.0
  9
$PUCSNAME
  2

  9
$PUCSORG
 10
0.0
 20
0.0
 30
0.0
  9
$PUCSXDIR
 10
1.0
 20
0.0
 30
0.0
  9
$PUCSYDIR
 10
0.0
 20
1.0
 30
0.0
  9
$USERI1
 70
     0
  9
$USERI2
 70
     0
  9
$USERI3
 70
     0
  9
$USERI4
 70
     0
  9
$USERI5
 70
     0
  9
$USERR1
 40
0.0
  9
$USERR2
 40
0.0
  9
$USERR3
 40
0.0
  9
$USERR4
 40
0.0
  9
$USERR5
 40
0.0
  9
$WORLDVIEW
 70
     1
  9
$SHADEDGE
 70
     3
  9
$SHADEDIF
 70
    70
  9
$TILEMODE
 70
     1
  9
$MAXACTVP
 70
    16
  9
$PINSBASE
 10
0.0
 20
0.0
 30
0.0
  9
$PLIMCHECK
 70
     0
  9
$PEXTMIN
 10
1.000000E+20
 20
1.000000E+20
 30
1.000000E+20
  9
$PEXTMAX
 10
-1.000000E+20
 20
-1.000000E+20
 30
-1.000000E+20
  9
$PLIMMIN
 10
-210.0
 20
-148.5
  9
$PLIMMAX
 10
630.0
 20
445.5
  9
$UNITMODE
 70
     0
  9
$VISRETAIN
 70
     0
  9
$PLINEGEN
 70
     1
  9
$PSLTSCALE
 70
     0
  9
$TREEDEPTH
 70
  3020
  9
$DWGCODEPAGE
  3
dos850
  0
ENDSEC
  0
SECTION
  2
TABLES
  0
TABLE
  2
VPORT
 70
     1
  0
VPORT
  2
*ACTIVE
 70
     0
 10
0.0
 20
0.0
 11
1.0
 21
1.0
 12
420.0
 22
297.0
 13
0.0
 23
0.0
 14
1.0
 24
1.0
 15
0.0
 25
0.0
 16
0.0
 26
0.0
 36
1.0
 17
-210.0
 27
-148.5
 37
0.0
 40
594.0
 41
1.604229
 42
50.0
 43
0.0
 44
0.0
 50
0.0
 51
0.0
 71
     0
 72
   100
 73
     1
 74
     1
 75
     0
 76
     0
 77
     0
 78
     0
  0
ENDTAB
  0
TABLE
  2
LTYPE
 70
     3
  0
LTYPE
  2
CONTINUOUS
 70
    64
  3
Solid line
 72
    65
 73
     0
 40
0.0
  0
LTYPE
  2
DASHDOT
 70
    64
  3
__ . __ . __ . __ . __
 72
    65
 73
     4
 40
7.5
 49
5.0
 49
-1.25
 49
0.0
 49
-1.25
  0
LTYPE
  2
CENTER
 70
    64
  3
__ . __ . __ . __ . __
 72
    65
 73
     4
 40
7.5
 49
5.0
 49
-1.25
 49
0.0
 49
-1.25
  0
ENDTAB
  0
TABLE
  2
LAYER
 70
    13
  0
LAYER
  2
0
 70
     0
 62
     7
  6
CONTINUOUS
  0
LAYER
  2
LC-INFO-1-2-MM-A3-0
 70
     1
 62
    -1
  6
CONTINUOUS
  0
LAYER
  2
LC-003-003-MTH-0
 70
     0
 62
     2
  6
CONTINUOUS
  0
LAYER
  2
LC-002-003-----0
 70
     0
 62
     2
  6
CONTINUOUS
  0
LAYER
  2
LC-004-003-MTG-0
 70
     0
 62
     2
  6
CONTINUOUS
  0
LAYER
  2
LC-001-002-----0
 70
     0
 62
     1
  6
CONTINUOUS
  0
LAYER
  2
LC-007-005-----0
 70
     0
 62
     2
  6
CONTINUOUS
  0
LAYER
  2
LC-008-000-----0
 70
     0
 62
     7
  6
CONTINUOUS
  0
LAYER
  2
LC-009-000-----0
 70
     0
 62
     7
  6
CONTINUOUS
  0
LAYER
  2
LC-005-002-RND-0
 70
     0
 62
     1
  6
CONTINUOUS
  0
LAYER
  2
LC-006-001-----0
 70
     0
 62
     1
  6
CONTINUOUS
  0
LAYER
  2
LC-010-006-MLN-0
 70
     0
 62
     2
  6
CENTER
  0
LAYER
  2
LC-000
 70
     0
 62
     7
  6
CONTINUOUS
  0
ENDTAB
  0
TABLE
  2
STYLE
 70
     5
  0
STYLE
  2
STANDARD
 70
     0
 40
0.0
 41
1.0
 50
0.0
 71
     0
 42
0.0
  3
txt
  4

  0
STYLE
  2
LC-STANDARD
 70
    64
 40
0.0
 41
1.0
 50
0.0
 71
     0
 42
3.5
  3
MONOTXT
  4

  0
STYLE
  2
LC-TXTSTYLE-150-400-0-0-A2
 70
    64
 40
0.0
 41
1.0
 50
15.0
 71
     0
 42
3.5
  3
MONOTXT
  4

  0
STYLE
  2
LC-TXTSTYLE-0-400-0-0-DIN3
 70
    64
 40
0.0
 41
1.0
 50
0.0
 71
     0
 42
3.5
  3
MONOTXT
  4

  0
STYLE
  2
LC-TXTSTYLE-150-400-0-0-D4
 70
    64
 40
0.0
 41
1.0
 50
15.0
 71
     0
 42
3.5
  3
LC-STANDARD
  4

  0
ENDTAB
  0
TABLE
  2
VIEW
 70
     0
  0
ENDTAB
  0
TABLE
  2
UCS
 70
     0
  0
ENDTAB
  0
TABLE
  2
APPID
 70
     1
  0
APPID
  2
ACAD
 70
     0
  0
ENDTAB
  0
TABLE
  2
DIMSTYLE
 70
     3
  0
DIMSTYLE
  2
STANDARD
 70
     0
  3

  4

  5

  6

  7

 40
1.0
 41
0.18
 42
0.0625
 43
0.38
 44
0.18
 45
0.0
 46
0.0
 47
0.0
 48
0.0
 71
     0
 72
     0
 73
     1
 74
     1
 75
     0
 76
     0
 77
     0
 78
     0
140
0.18
141
0.09
142
0.0
143
25.4
144
1.0
145
0.0
146
1.0
147
0.09
170
     0
171
     2
172
     0
173
     0
174
     0
175
     0
176
     0
177
     0
178
     0
  0
DIMSTYLE
  2
LC-STANDARD
 70
     0
  3

  4

  5

  6

  7

 40
1.0
 41
3.5
 42
0.0
 43
7.5
 44
1.8
 45
0.0
 46
0.0
 47
0.0
 48
0.0
 71
     0
 72
     0
 73
     0
 74
     0
 75
     0
 76
     0
 77
     1
 78
     8
140
3.5
141
0.0
142
0.0
143
25.4
144
1.0
145
0.0
146
0.71
147
1.5
170
     0
171
     2
172
     1
173
     0
174
     0
175
     0
176
     0
177
     0
178
     3
  0
DIMSTYLE
  2
LC-DIM-L-0140-02-02
 70
     0
  3

  4

  5

  6

  7

 40
2.0
 41
3.5
 42
0.0
 43
7.5
 44
1.8
 45
0.0
 46
0.0
 47
0.0
 48
0.0
 71
     0
 72
     0
 73
     0
 74
     0
 75
     0
 76
     0
 77
     1
 78
     8
140
14.0
141
0.0
142
0.0
143
25.4
144
1.0
145
0.0
146
0.71
147
1.5
170
     0
171
     2
172
     0
173
     0
174
     0
175
     0
176
     2
177
     2
178
     8
  0
ENDTAB
  0
ENDSEC
  0
SECTION
  2
BLOCKS
  0
BLOCK
  8
0
  5
24
  2
*D0
 70
    65
 10
0.0
 20
0.0
 30
0.0
  3
*D0
  0
LINE
  8
LC-003-003-MTH-0
  6
CONTINUOUS
  5
26
 10
63.768563
 20
164.137205
 30
0.0
 11
-16.8
 21
164.137205
 31
0.0
  0
LINE
  8
LC-003-003-MTH-0
  6
CONTINUOUS
  5
27
 10
66.468563
 20
171.337205
 30
0.0
 11
-16.8
 21
171.337205
 31
0.0
  0
LINE
  8
LC-002-003-----0
  6
CONTINUOUS
  5
29
 10
3.654733
 20
136.376749
 30
0.0
 11
0.0
 21
164.137205
 31
0.0
  0
LINE
  8
LC-002-003-----0
  6
CONTINUOUS
  5
2A
 10
0.0
 20
164.137205
 30
0.0
 11
-3.654733
 21
136.376749
 31
0.0
  0
LINE
  8
LC-002-003-----0
  6
CONTINUOUS
  5
2B
 10
-3.654733
 20
136.376749
 30
0.0
 11
3.654733
 21
136.376749
 31
0.0
  0
LINE
  8
LC-002-003-----0
  6
CONTINUOUS
  5
2C
 10
2.704503
 20
136.314468
 30
0.0
 11
0.0
 21
156.857205
 31
0.0
  0
LINE
  8
LC-002-003-----0
  6
CONTINUOUS
  5
2D
 10
0.0
 20
156.857205
 30
0.0
 11
-2.704503
 21
136.314468
 31
0.0
  0
LINE
  8
LC-002-003-----0
  6
CONTINUOUS
  5
2E
 10
1.754272
 20
136.252186
 30
0.0
 11
0.0
 21
149.577205
 31
0.0
  0
LINE
  8
LC-002-003-----0
  6
CONTINUOUS
  5
2F
 10
0.0
 20
149.577205
 30
0.0
 11
-1.754272
 21
136.252186
 31
0.0
  0
LINE
  8
LC-002-003-----0
  6
CONTINUOUS
  5
30
 10
0.804041
 20
136.189905
 30
0.0
 11
0.0
 21
142.297205
 31
0.0
  0
LINE
  8
LC-002-003-----0
  6
CONTINUOUS
  5
31
 10
0.0
 20
142.297205
 30
0.0
 11
-0.804041
 21
136.189905
 31
0.0
  0
LINE
  8
LC-002-003-----0
  6
CONTINUOUS
  5
32
 10
-3.654733
 20
199.097661
 30
0.0
 11
0.0
 21
171.337205
 31
0.0
  0
LINE
  8
LC-002-003-----0
  6
CONTINUOUS
  5
33
 10
0.0
 20
171.337205
 30
0.0
 11
3.654733
 21
199.097661
 31
0.0
  0
LINE
  8
LC-002-003-----0
  6
CONTINUOUS
  5
34
 10
3.654733
 20
199.097661
 30
0.0
 11
-3.654733
 21
199.097661
 31
0.0
  0
LINE
  8
LC-002-003-----0
  6
CONTINUOUS
  5
35
 10
-2.704503
 20
199.159943
 30
0.0
 11
0.0
 21
178.617205
 31
0.0
  0
LINE
  8
LC-002-003-----0
  6
CONTINUOUS
  5
36
 10
0.0
 20
178.617205
 30
0.0
 11
2.704503
 21
199.159943
 31
0.0
  0
LINE
  8
LC-002-003-----0
  6
CONTINUOUS
  5
37
 10
-1.754272
 20
199.222224
 30
0.0
 11
0.0
 21
185.897205
 31
0.0
  0
LINE
  8
LC-002-003-----0
  6
CONTINUOUS
  5
38
 10
0.0
 20
185.897205
 30
0.0
 11
1.754272
 21
199.222224
 31
0.0
  0
LINE
  8
LC-002-003-----0
  6
CONTINUOUS
  5
39
 10
-0.804041
 20
199.284506
 30
0.0
 11
0.0
 21
193.177205
 31
0.0
  0
LINE
  8
LC-002-003-----0
  6
CONTINUOUS
  5
3A
 10
0.0
 20
193.177205
 30
0.0
 11
0.804041
 21
199.284506
 31
0.0
  0
LINE
  8
LC-004-003-MTG-0
  6
CONTINUOUS
  5
3C
 10
0.0
 20
98.375005
 30
0.0
 11
0.0
 21
210.537205
 31
0.0
  0
TEXT
  8
LC-002-003-----0
  6
CONTINUOUS
 62
     8
  5
3E
 10
-7.827554
 20
116.118751
 30
0.0
 40
28.0
  1
7
 50
90.0
 41
0.9
 51
15.0
  7
LC-TXTSTYLE-150-400-0-0-D0
 72
     2
 11
-7.827554
 21
130.405365
 31
0.0
  0
ENDBLK
  8
0
  5
3F
  0
BLOCK
  8
0
  5
41
  2
*D1
 70
    65
 10
0.0
 20
0.0
 30
0.0
  3
*D1
  0
LINE
  8
LC-003-003-MTH-0
  6
CONTINUOUS
  5
42
 10
41.768563
 20
25.837205
 30
0.0
 11
41.768563
 21
-56.0
 31
0.0
  0
LINE
  8
LC-003-003-MTH-0
  6
CONTINUOUS
  5
43
 10
186.768563
 20
25.837205
 30
0.0
 11
186.768563
 21
-56.0
 31
0.0
  0
LINE
  8
LC-004-003-MTG-0
  6
CONTINUOUS
  5
44
 10
41.768563
 20
-39.2
 30
0.0
 11
186.768563
 21
-39.2
 31
0.0
  0
LINE
  8
LC-002-003-----0
  6
CONTINUOUS
  5
45
 10
69.52902
 20
-35.545267
 30
0.0
 11
41.768563
 21
-39.2
 31
0.0
  0
LINE
  8
LC-002-003-----0
  6
CONTINUOUS
  5
46
 10
41.768563
 20
-39.2
 30
0.0
 11
69.52902
 21
-42.854733
 31
0.0
  0
LINE
  8
LC-002-003-----0
  6
CONTINUOUS
  5
47
 10
69.52902
 20
-42.854733
 30
0.0
 11
69.52902
 21
-35.545267
 31
0.0
  0
LINE
  8
LC-002-003-----0
  6
CONTINUOUS
  5
48
 10
69.591301
 20
-36.495497
 30
0.0
 11
49.048563
 21
-39.2
 31
0.0
  0
LINE
  8
LC-002-003-----0
  6
CONTINUOUS
  5
49
 10
49.048563
 20
-39.2
 30
0.0
 11
69.591301
 21
-41.904503
 31
0.0
  0
LINE
  8
LC-002-003-----0
  6
CONTINUOUS
  5
4A
 10
69.653582
 20
-37.445728
 30
0.0
 11
56.328563
 21
-39.2
 31
0.0
  0
LINE
  8
LC-002-003-----0
  6
CONTINUOUS
  5
4B
 10
56.328563
 20
-39.2
 30
0.0
 11
69.653582
 21
-40.954272
 31
0.0
  0
LINE
  8
LC-002-003-----0
  6
CONTINUOUS
  5
4C
 10
69.715864
 20
-38.395959
 30
0.0
 11
63.608563
 21
-39.2
 31
0.0
  0
LINE
  8
LC-002-003-----0
  6
CONTINUOUS
  5
4D
 10
63.608563
 20
-39.2
 30
0.0
 11
69.715864
 21
-40.004041
 31
0.0
  0
LINE
  8
LC-002-003-----0
  6
CONTINUOUS
  5
4E
 10
159.008107
 20
-42.854733
 30
0.0
 11
186.768563
 21
-39.2
 31
0.0
  0
LINE
  8
LC-002-003-----0
  6
CONTINUOUS
  5
4F
 10
186.768563
 20
-39.2
 30
0.0
 11
159.008107
 21
-35.545267
 31
0.0
  0
LINE
  8
LC-002-003-----0
  6
CONTINUOUS
  5
50
 10
159.008107
 20
-35.545267
 30
0.0
 11
159.008107
 21
-42.854733
 31
0.0
  0
LINE
  8
LC-002-003-----0
  6
CONTINUOUS
  5
51
 10
158.945826
 20
-41.904503
 30
0.0
 11
179.488563
 21
-39.2
 31
0.0
  0
LINE
  8
LC-002-003-----0
  6
CONTINUOUS
  5
52
 10
179.488563
 20
-39.2
 30
0.0
 11
158.945826
 21
-36.495497
 31
0.0
  0
LINE
  8
LC-002-003-----0
  6
CONTINUOUS
  5
53
 10
158.883544
 20
-40.954272
 30
0.0
 11
172.208563
 21
-39.2
 31
0.0
  0
LINE
  8
LC-002-003-----0
  6
CONTINUOUS
  5
54
 10
172.208563
 20
-39.2
 30
0.0
 11
158.883544
 21
-37.445728
 31
0.0
  0
LINE
  8
LC-002-003-----0
  6
CONTINUOUS
  5
55
 10
158.821263
 20
-40.004041
 30
0.0
 11
164.928563
 21
-39.2
 31
0.0
  0
LINE
  8
LC-002-003-----0
  6
CONTINUOUS
  5
56
 10
164.928563
 20
-39.2
 30
0.0
 11
158.821263
 21
-38.395959
 31
0.0
  0
TEXT
  8
LC-002-003-----0
  6
CONTINUOUS
 62
     8
  5
57
 10
80.519086
 20
-31.372446
 30
0.0
 40
28.0
  1
Ø145
 51
15.0
  7
LC-TXTSTYLE-150-400-0-0-D0
 72
     1
 11
118.616723
 21
-31.372446
 31
0.0
  0
ENDBLK
  8
0
  5
58
  0
BLOCK
  8
0
  5
5A
  2
*D2
 70
    65
 10
0.0
 20
0.0
 30
0.0
  3
*D2
  0
LINE
  8
LC-003-003-MTH-0
  6
CONTINUOUS
  5
5B
 10
64.268563
 20
169.637205
 30
0.0
 11
64.268563
 21
212.8
 31
0.0
  0
LINE
  8
LC-003-003-MTH-0
  6
CONTINUOUS
  5
5C
 10
164.268563
 20
169.637205
 30
0.0
 11
164.268563
 21
212.8
 31
0.0
  0
LINE
  8
LC-004-003-MTG-0
  6
CONTINUOUS
  5
5D
 10
64.268563
 20
196.0
 30
0.0
 11
164.268563
 21
196.0
 31
0.0
  0
LINE
  8
LC-002-003-----0
  6
CONTINUOUS
  5
5E
 10
92.02902
 20
199.654733
 30
0.0
 11
64.268563
 21
196.0
 31
0.0
  0
LINE
  8
LC-002-003-----0
  6
CONTINUOUS
  5
5F
 10
64.268563
 20
196.0
 30
0.0
 11
92.02902
 21
192.345267
 31
0.0
  0
LINE
  8
LC-002-003-----0
  6
CONTINUOUS
  5
60
 10
92.02902
 20
192.345267
 30
0.0
 11
92.02902
 21
199.654733
 31
0.0
  0
LINE
  8
LC-002-003-----0
  6
CONTINUOUS
  5
61
 10
92.091301
 20
198.704503
 30
0.0
 11
71.548563
 21
196.0
 31
0.0
  0
LINE
  8
LC-002-003-----0
  6
CONTINUOUS
  5
62
 10
71.548563
 20
196.0
 30
0.0
 11
92.091301
 21
193.295497
 31
0.0
  0
LINE
  8
LC-002-003-----0
  6
CONTINUOUS
  5
63
 10
92.153582
 20
197.754272
 30
0.0
 11
78.828563
 21
196.0
 31
0.0
  0
LINE
  8
LC-002-003-----0
  6
CONTINUOUS
  5
64
 10
78.828563
 20
196.0
 30
0.0
 11
92.153582
 21
194.245728
 31
0.0
  0
LINE
  8
LC-002-003-----0
  6
CONTINUOUS
  5
65
 10
92.215864
 20
196.804041
 30
0.0
 11
86.108563
 21
196.0
 31
0.0
  0
LINE
  8
LC-002-003-----0
  6
CONTINUOUS
  5
66
 10
86.108563
 20
196.0
 30
0.0
 11
92.215864
 21
195.195959
 31
0.0
  0
LINE
  8
LC-002-003-----0
  6
CONTINUOUS
  5
67
 10
136.508107
 20
192.345267
 30
0.0
 11
164.268563
 21
196.0
 31
0.0
  0
LINE
  8
LC-002-003-----0
  6
CONTINUOUS
  5
68
 10
164.268563
 20
196.0
 30
0.0
 11
136.508107
 21
199.654733
 31
0.0
  0
LINE
  8
LC-002-003-----0
  6
CONTINUOUS
  5
69
 10
136.508107
 20
199.654733
 30
0.0
 11
136.508107
 21
192.345267
 31
0.0
  0
LINE
  8
LC-002-003-----0
  6
CONTINUOUS
  5
6A
 10
136.445826
 20
193.295497
 30
0.0
 11
156.988563
 21
196.0
 31
0.0
  0
LINE
  8
LC-002-003-----0
  6
CONTINUOUS
  5
6B
 10
156.988563
 20
196.0
 30
0.0
 11
136.445826
 21
198.704503
 31
0.0
  0
LINE
  8
LC-002-003-----0
  6
CONTINUOUS
  5
6C
 10
136.383544
 20
194.245728
 30
0.0
 11
149.708563
 21
196.0
 31
0.0
  0
LINE
  8
LC-002-003-----0
  6
CONTINUOUS
  5
6D
 10
149.708563
 20
196.0
 30
0.0
 11
136.383544
 21
197.754272
 31
0.0
  0
LINE
  8
LC-002-003-----0
  6
CONTINUOUS
  5
6E
 10
136.321263
 20
195.195959
 30
0.0
 11
142.428563
 21
196.0
 31
0.0
  0
LINE
  8
LC-002-003-----0
  6
CONTINUOUS
  5
6F
 10
142.428563
 20
196.0
 30
0.0
 11
136.321263
 21
196.804041
 31
0.0
  0
TEXT
  8
LC-002-003-----0
  6
CONTINUOUS
 62
     8
  5
70
 10
88.852944
 20
203.827554
 30
0.0
 40
28.0
  1
100
 51
15.0
  7
LC-TXTSTYLE-150-400-0-0-D0
 72
     1
 11
118.616723
 21
203.827554
 31
0.0
  0
ENDBLK
  8
0
  5
71
  0
BLOCK
  8
0
  5
73
  2
OBJ1
 70
    64
 10
0.0
 20
0.0
 30
0.0
  3
OBJ1
  0
LINE
  8
LC-001-002-----0
  6
CONTINUOUS
  5
75
 10
321.596768
 20
143.809483
 30
0.0
 11
320.078018
 21
146.440035
 31
0.0
  0
LINE
  8
LC-001-002-----0
  6
CONTINUOUS
  5
76
 10
320.078018
 20
146.440035
 30
0.0
 11
317.040518
 21
146.440035
 31
0.0
  0
LINE
  8
LC-001-002-----0
  6
CONTINUOUS
  5
77
 10
317.040518
 20
146.440035
 30
0.0
 11
315.521768
 21
143.809483
 31
0.0
  0
LINE
  8
LC-001-002-----0
  6
CONTINUOUS
  5
78
 10
315.521768
 20
143.809483
 30
0.0
 11
317.040518
 21
141.178931
 31
0.0
  0
LINE
  8
LC-001-002-----0
  6
CONTINUOUS
  5
79
 10
317.040518
 20
141.178931
 30
0.0
 11
320.078018
 21
141.178931
 31
0.0
  0
LINE
  8
LC-001-002-----0
  6
CONTINUOUS
  5
7A
 10
320.078018
 20
141.178931
 30
0.0
 11
321.596768
 21
143.809483
 31
0.0
  0
ENDBLK
  8
0
  5
7B
  0
BLOCK
  8
0
  5
7D
  2
*X4
 70
    65
 10
156.418285
 20
150.568526
 30
0.0
  3
*X4
  0
LINE
  8
LC-007-005-----0
  6
CONTINUOUS
  5
7F
 10
156.523298
 20
150.866444
 30
0.0
 11
157.494235
 21
151.837381
 31
0.0
  0
LINE
  8
LC-007-005-----0
  6
CONTINUOUS
  5
80
 10
156.965632
 20
154.137205
 30
0.0
 11
157.640909
 21
154.812482
 31
0.0
  0
LINE
  8
LC-007-005-----0
  6
CONTINUOUS
  5
81
 10
156.768563
 20
156.768563
 30
0.0
 11
157.468563
 21
157.468563
 31
0.0
  0
LINE
  8
LC-007-005-----0
  6
CONTINUOUS
  5
82
 10
159.933993
 20
159.933993
 30
0.0
 11
160.971776
 21
160.971776
 31
0.0
  0
LINE
  8
LC-007-005-----0
  6
CONTINUOUS
  5
83
 10
164.385727
 20
164.385727
 30
0.0
 11
164.768563
 21
164.768563
 31
0.0
  0
LINE
  8
LC-007-005-----0
  6
CONTINUOUS
  5
84
 10
156.805939
 20
159.634366
 30
0.0
 11
157.671402
 21
160.49983
 31
0.0
  0
LINE
  8
LC-007-005-----0
  6
CONTINUOUS
  5
85
 10
160.368563
 20
163.196991
 30
0.0
 11
161.068563
 21
163.896991
 31
0.0
  0
LINE
  8
LC-007-005-----0
  6
CONTINUOUS
  5
86
 10
163.568563
 20
166.396991
 30
0.0
 11
164.268563
 21
167.096991
 31
0.0
  0
LINE
  8
LC-007-005-----0
  6
CONTINUOUS
  5
87
 10
160.368563
 20
166.025418
 30
0.0
 11
161.068563
 21
166.725418
 31
0.0
  0
LINE
  8
LC-007-005-----0
  6
CONTINUOUS
  5
88
 10
163.568563
 20
169.225418
 30
0.0
 11
164.247449
 21
169.904304
 31
0.0
  0
LINE
  8
LC-007-005-----0
  6
CONTINUOUS
  5
89
 10
160.368563
 20
168.853845
 30
0.0
 11
161.068563
 21
169.553845
 31
0.0
  0
LINE
  8
LC-007-005-----0
  6
CONTINUOUS
  5
8A
 10
162.151924
 20
170.637205
 30
0.0
 11
162.831471
 21
171.316753
 31
0.0
  0
ENDBLK
  8
0
  5
8B
  0
BLOCK
  8
0
  5
8D
  2
OBJ2
 70
    64
 10
0.0
 20
0.0
 30
0.0
  3
OBJ2
  0
LINE
  8
LC-001-002-----0
  6
CONTINUOUS
  5
8E
 10
403.015359
 20
62.390891
 30
0.0
 11
401.496609
 21
65.021443
 31
0.0
  0
LINE
  8
LC-001-002-----0
  6
CONTINUOUS
  5
8F
 10
401.496609
 20
65.021443
 30
0.0
 11
398.459109
 21
65.021443
 31
0.0
  0
LINE
  8
LC-001-002-----0
  6
CONTINUOUS
  5
90
 10
398.459109
 20
65.021443
 30
0.0
 11
396.940359
 21
62.390891
 31
0.0
  0
LINE
  8
LC-001-002-----0
  6
CONTINUOUS
  5
91
 10
396.940359
 20
62.390891
 30
0.0
 11
398.459109
 21
59.760339
 31
0.0
  0
LINE
  8
LC-001-002-----0
  6
CONTINUOUS
  5
92
 10
398.459109
 20
59.760339
 30
0.0
 11
401.496609
 21
59.760339
 31
0.0
  0
LINE
  8
LC-001-002-----0
  6
CONTINUOUS
  5
93
 10
401.496609
 20
59.760339
 30
0.0
 11
403.015359
 21
62.390891
 31
0.0
  0
ENDBLK
  8
0
  5
94
  0
BLOCK
  8
0
  5
96
  2
BLK1
 70
    64
 10
0.0
 20
0.0
 30
0.0
  3
BLK1
  0
ENDBLK
  8
0
  5
97
  0
BLOCK
  8
0
  5
99
  2
BLK2
 70
    64
 10
0.0
 20
0.0
 30
0.0
  3
BLK2
  0
ENDBLK
  8
0
  5
9A
  0
BLOCK
  8
0
  5
9C
  2
BLK3
 70
    64
 10
0.0
 20
0.0
 30
0.0
  3
BLK3
  0
ENDBLK
  8
0
  5
9D
  0
BLOCK
  8
0
  5
9F
  2
BLK4
 70
    64
 10
0.0
 20
0.0
 30
0.0
  3
BLK4
  0
ENDBLK
  8
0
  5
A0
  0
BLOCK
  8
0
  5
A2
  2
BLK5
 70
    64
 10
0.0
 20
0.0
 30
0.0
  3
BLK5
  0
ENDBLK
  8
0
  5
A3
  0
BLOCK
  8
0
  5
A5
  2
BLK6
 70
    64
 10
0.0
 20
0.0
 30
0.0
  3
BLK6
  0
ENDBLK
  8
0
  5
A6
  0
BLOCK
  8
0
  5
A8
  2
*X12
 70
    65
 10
60.568563
 20
150.568526
 30
0.0
  3
*X12
  0
LINE
  8
LC-007-005-----0
  6
CONTINUOUS
  5
A9
 10
71.469453
 20
150.665413
 30
0.0
 11
72.015597
 21
151.211557
 31
0.0
  0
LINE
  8
LC-007-005-----0
  6
CONTINUOUS
  5
AA
 10
70.714698
 20
152.739085
 30
0.0
 11
71.260843
 21
153.285229
 31
0.0
  0
LINE
  8
LC-007-005-----0
  6
CONTINUOUS
  5
AB
 10
71.068563
 20
155.921377
 30
0.0
 11
71.768563
 21
156.621377
 31
0.0
  0
LINE
  8
LC-007-005-----0
  6
CONTINUOUS
  5
AC
 10
71.068563
 20
158.749804
 30
0.0
 11
71.763716
 21
159.444957
 31
0.0
  0
LINE
  8
LC-007-005-----0
  6
CONTINUOUS
  5
AD
 10
69.327537
 20
159.837205
 30
0.0
 11
70.027537
 21
160.537205
 31
0.0
  0
LINE
  8
LC-007-005-----0
  6
CONTINUOUS
  5
AE
 10
67.583819
 20
160.921914
 30
0.0
 11
68.169016
 21
161.507111
 31
0.0
  0
LINE
  8
LC-007-005-----0
  6
CONTINUOUS
  5
AF
 10
67.468563
 20
163.635086
 30
0.0
 11
68.168563
 21
164.335086
 31
0.0
  0
LINE
  8
LC-007-005-----0
  6
CONTINUOUS
  5
B0
 10
67.468563
 20
166.463513
 30
0.0
 11
68.168563
 21
167.163513
 31
0.0
  0
LINE
  8
LC-007-005-----0
  6
CONTINUOUS
  5
B1
 10
64.268556
 20
166.091932
 30
0.0
 11
64.968563
 21
166.79194
 31
0.0
  0
LINE
  8
LC-007-005-----0
  6
CONTINUOUS
  5
B2
 10
67.468563
 20
169.29194
 30
0.0
 11
68.137472
 21
169.960848
 31
0.0
  0
LINE
  8
LC-007-005-----0
  6
CONTINUOUS
  5
B3
 10
64.268563
 20
168.920367
 30
0.0
 11
64.968563
 21
169.620367
 31
0.0
  0
LINE
  8
LC-007-005-----0
  6
CONTINUOUS
  5
B4
 10
65.985402
 20
170.637205
 30
0.0
 11
66.673057
 21
171.324861
 31
0.0
  0
ENDBLK
  8
0
  5
B5
  0
BLOCK
  8
0
  5
B7
  2
BLK7
 70
    64
 10
0.0
 20
0.0
 30
0.0
  3
BLK7
  0
ENDBLK
  8
0
  5
B8
  0
BLOCK
  8
0
  5
BA
  2
BLK8
 70
    64
 10
0.0
 20
0.0
 30
0.0
  3
BLK8
  0
ENDBLK
  8
0
  5
BB
  0
BLOCK
  8
0
  5
BD
  2
BLK9
 70
    64
 10
0.0
 20
0.0
 30
0.0
  3
BLK9
  0
ENDBLK
  8
0
  5
BE
  0
BLOCK
  8
0
  5
C0
  2
BLK10
 70
    64
 10
0.0
 20
0.0
 30
0.0
  3
BLK10
  0
ENDBLK
  8
0
  5
C1
  0
BLOCK
  8
0
  5
C3
  2
BLK11
 70
    64
 10
0.0
 20
0.0
 30
0.0
  3
BLK11
  0
ENDBLK
  8
0
  5
C4
  0
BLOCK
  8
0
  5
C6
  2
BLK12
 70
    64
 10
0.0
 20
0.0
 30
0.0
  3
BLK12
  0
ENDBLK
  8
0
  5
C7
  0
BLOCK
  8
0
  5
C9
  2
BLK13
 70
    64
 10
0.0
 20
0.0
 30
0.0
  3
BLK13
  0
ENDBLK
  8
0
  5
CA
  0
BLOCK
  8
0
  5
CC
  2
*X20
 70
    65
 10
44.768563
 20
21.337205
 30
0.0
  3
*X20
  0
LINE
  8
LC-007-005-----0
  6
CONTINUOUS
  5
CD
 10
111.846873
 20
21.337205
 30
0.0
 11
114.268563
 21
23.758895
 31
0.0
  0
LINE
  8
LC-007-005-----0
  6
CONTINUOUS
  5
CE
 10
106.190019
 20
21.337205
 30
0.0
 11
114.268563
 21
29.41575
 31
0.0
  0
LINE
  8
LC-007-005-----0
  6
CONTINUOUS
  5
CF
 10
100.533165
 20
21.337205
 30
0.0
 11
114.268563
 21
35.072604
 31
0.0
  0
LINE
  8
LC-007-005-----0
  6
CONTINUOUS
  5
D0
 10
94.87631
 20
21.337205
 30
0.0
 11
114.268563
 21
40.729458
 31
0.0
  0
LINE
  8
LC-007-005-----0
  6
CONTINUOUS
  5
D1
 10
89.219456
 20
21.337205
 30
0.0
 11
112.219456
 21
44.337205
 31
0.0
  0
LINE
  8
LC-007-005-----0
  6
CONTINUOUS
  5
D2
 10
83.562602
 20
21.337205
 30
0.0
 11
106.562602
 21
44.337205
 31
0.0
  0
LINE
  8
LC-007-005-----0
  6
CONTINUOUS
  5
D3
 10
77.905748
 20
21.337205
 30
0.0
 11
100.905748
 21
44.337205
 31
0.0
  0
LINE
  8
LC-007-005-----0
  6
CONTINUOUS
  5
D4
 10
72.248893
 20
21.337205
 30
0.0
 11
95.248893
 21
44.337205
 31
0.0
  0
LINE
  8
LC-007-005-----0
  6
CONTINUOUS
  5
D5
 10
66.592039
 20
21.337205
 30
0.0
 11
89.592039
 21
44.337205
 31
0.0
  0
LINE
  8
LC-007-005-----0
  6
CONTINUOUS
  5
D6
 10
60.935185
 20
21.337205
 30
0.0
 11
83.935185
 21
44.337205
 31
0.0
  0
LINE
  8
LC-007-005-----0
  6
CONTINUOUS
  5
D7
 10
55.278331
 20
21.337205
 30
0.0
 11
78.278331
 21
44.337205
 31
0.0
  0
LINE
  8
LC-007-005-----0
  6
CONTINUOUS
  5
D8
 10
49.621476
 20
21.337205
 30
0.0
 11
72.621476
 21
44.337205
 31
0.0
  0
LINE
  8
LC-007-005-----0
  6
CONTINUOUS
  5
D9
 10
44.768563
 20
22.141146
 30
0.0
 11
66.964622
 21
44.337205
 31
0.0
  0
LINE
  8
LC-007-005-----0
  6
CONTINUOUS
  5
DA
 10
44.768563
 20
27.798001
 30
0.0
 11
61.307768
 21
44.337205
 31
0.0
  0
LINE
  8
LC-007-005-----0
  6
CONTINUOUS
  5
DB
 10
44.768563
 20
33.454855
 30
0.0
 11
55.650914
 21
44.337205
 31
0.0
  0
LINE
  8
LC-007-005-----0
  6
CONTINUOUS
  5
DC
 10
44.768563
 20
39.111709
 30
0.0
 11
49.994059
 21
44.337205
 31
0.0
  0
LINE
  8
LC-007-005-----0
  6
CONTINUOUS
  5
DD
 10
114.268563
 20
44.123356
 30
0.0
 11
114.054714
 21
44.337205
 31
0.0
  0
LINE
  8
LC-007-005-----0
  6
CONTINUOUS
  5
DE
 10
114.268563
 20
38.466501
 30
0.0
 11
108.39786
 21
44.337205
 31
0.0
  0
LINE
  8
LC-007-005-----0
  6
CONTINUOUS
  5
DF
 10
114.268563
 20
32.809647
 30
0.0
 11
102.741005
 21
44.337205
 31
0.0
  0
LINE
  8
LC-007-005-----0
  6
CONTINUOUS
  5
E0
 10
114.268563
 20
27.152793
 30
0.0
 11
97.084151
 21
44.337205
 31
0.0
  0
LINE
  8
LC-007-005-----0
  6
CONTINUOUS
  5
E1
 10
114.268563
 20
21.495939
 30
0.0
 11
91.427297
 21
44.337205
 31
0.0
  0
LINE
  8
LC-007-005-----0
  6
CONTINUOUS
  5
E2
 10
108.770443
 20
21.337205
 30
0.0
 11
85.770443
 21
44.337205
 31
0.0
  0
LINE
  8
LC-007-005-----0
  6
CONTINUOUS
  5
E3
 10
103.113588
 20
21.337205
 30
0.0
 11
80.113588
 21
44.337205
 31
0.0
  0
LINE
  8
LC-007-005-----0
  6
CONTINUOUS
  5
E4
 10
97.456734
 20
21.337205
 30
0.0
 11
74.456734
 21
44.337205
 31
0.0
  0
LINE
  8
LC-007-005-----0
  6
CONTINUOUS
  5
E5
 10
91.79988
 20
21.337205
 30
0.0
 11
68.79988
 21
44.337205
 31
0.0
  0
LINE
  8
LC-007-005-----0
  6
CONTINUOUS
  5
E6
 10
86.143026
 20
21.337205
 30
0.0
 11
63.143026
 21
44.337205
 31
0.0
  0
LINE
  8
LC-007-005-----0
  6
CONTINUOUS
  5
E7
 10
80.486171
 20
21.337205
 30
0.0
 11
57.486171
 21
44.337205
 31
0.0
  0
LINE
  8
LC-007-005-----0
  6
CONTINUOUS
  5
E8
 10
74.829317
 20
21.337205
 30
0.0
 11
51.829317
 21
44.337205
 31
0.0
  0
LINE
  8
LC-007-005-----0
  6
CONTINUOUS
  5
E9
 10
69.172463
 20
21.337205
 30
0.0
 11
46.172463
 21
44.337205
 31
0.0
  0
LINE
  8
LC-007-005-----0
  6
CONTINUOUS
  5
EA
 10
63.515609
 20
21.337205
 30
0.0
 11
44.768563
 21
40.08425
 31
0.0
  0
LINE
  8
LC-007-005-----0
  6
CONTINUOUS
  5
EB
 10
57.858754
 20
21.337205
 30
0.0
 11
44.768563
 21
34.427396
 31
0.0
  0
LINE
  8
LC-007-005-----0
  6
CONTINUOUS
  5
EC
 10
52.2019
 20
21.337205
 30
0.0
 11
44.768563
 21
28.770542
 31
0.0
  0
LINE
  8
LC-007-005-----0
  6
CONTINUOUS
  5
ED
 10
46.545046
 20
21.337205
 30
0.0
 11
44.768563
 21
23.113688
 31
0.0
  0
ENDBLK
  8
0
  5
EE
  0
BLOCK
  8
0
  5
F0
  2
*X21
 70
    65
 10
114.268563
 20
21.337205
 30
0.0
  3
*X21
  0
LINE
  8
LC-007-005-----0
  6
CONTINUOUS
  5
F1
 10
179.729124
 20
21.337205
 30
0.0
 11
183.768563
 21
25.376644
 31
0.0
  0
LINE
  8
LC-007-005-----0
  6
CONTINUOUS
  5
F2
 10
174.07227
 20
21.337205
 30
0.0
 11
183.768563
 21
31.033499
 31
0.0
  0
LINE
  8
LC-007-005-----0
  6
CONTINUOUS
  5
F3
 10
168.415416
 20
21.337205
 30
0.0
 11
183.768563
 21
36.690353
 31
0.0
  0
LINE
  8
LC-007-005-----0
  6
CONTINUOUS
  5
F4
 10
162.758561
 20
21.337205
 30
0.0
 11
183.768563
 21
42.347207
 31
0.0
  0
LINE
  8
LC-007-005-----0
  6
CONTINUOUS
  5
F5
 10
157.101707
 20
21.337205
 30
0.0
 11
180.101707
 21
44.337205
 31
0.0
  0
LINE
  8
LC-007-005-----0
  6
CONTINUOUS
  5
F6
 10
151.444853
 20
21.337205
 30
0.0
 11
174.444853
 21
44.337205
 31
0.0
  0
LINE
  8
LC-007-005-----0
  6
CONTINUOUS
  5
F7
 10
145.787999
 20
21.337205
 30
0.0
 11
168.787999
 21
44.337205
 31
0.0
  0
LINE
  8
LC-007-005-----0
  6
CONTINUOUS
  5
F8
 10
140.131144
 20
21.337205
 30
0.0
 11
163.131144
 21
44.337205
 31
0.0
  0
LINE
  8
LC-007-005-----0
  6
CONTINUOUS
  5
F9
 10
134.47429
 20
21.337205
 30
0.0
 11
157.47429
 21
44.337205
 31
0.0
  0
LINE
  8
LC-007-005-----0
  6
CONTINUOUS
  5
FA
 10
128.817436
 20
21.337205
 30
0.0
 11
151.817436
 21
44.337205
 31
0.0
  0
LINE
  8
LC-007-005-----0
  6
CONTINUOUS
  5
FB
 10
123.160582
 20
21.337205
 30
0.0
 11
146.160582
 21
44.337205
 31
0.0
  0
LINE
  8
LC-007-005-----0
  6
CONTINUOUS
  5
FC
 10
117.503727
 20
21.337205
 30
0.0
 11
140.503727
 21
44.337205
 31
0.0
  0
LINE
  8
LC-007-005-----0
  6
CONTINUOUS
  5
FD
 10
114.268563
 20
23.758895
 30
0.0
 11
134.846873
 21
44.337205
 31
0.0
  0
LINE
  8
LC-007-005-----0
  6
CONTINUOUS
  5
FE
 10
114.268563
 20
29.41575
 30
0.0
 11
129.190019
 21
44.337205
 31
0.0
  0
LINE
  8
LC-007-005-----0
  6
CONTINUOUS
  5
FF
 10
114.268563
 20
35.072604
 30
0.0
 11
123.533165
 21
44.337205
 31
0.0
  0
LINE
  8
LC-007-005-----0
  6
CONTINUOUS
  5
100
 10
114.268563
 20
40.729458
 30
0.0
 11
117.87631
 21
44.337205
 31
0.0
  0
LINE
  8
LC-007-005-----0
  6
CONTINUOUS
  5
101
 10
183.768563
 20
42.505607
 30
0.0
 11
181.936965
 21
44.337205
 31
0.0
  0
LINE
  8
LC-007-005-----0
  6
CONTINUOUS
  5
102
 10
183.768563
 20
36.848752
 30
0.0
 11
176.280111
 21
44.337205
 31
0.0
  0
LINE
  8
LC-007-005-----0
  6
CONTINUOUS
  5
103
 10
183.768563
 20
31.191898
 30
0.0
 11
170.623256
 21
44.337205
 31
0.0
  0
LINE
  8
LC-007-005-----0
  6
CONTINUOUS
  5
104
 10
183.768563
 20
25.535044
 30
0.0
 11
164.966402
 21
44.337205
 31
0.0
  0
LINE
  8
LC-007-005-----0
  6
CONTINUOUS
  5
105
 10
182.309548
 20
21.337205
 30
0.0
 11
159.309548
 21
44.337205
 31
0.0
  0
LINE
  8
LC-007-005-----0
  6
CONTINUOUS
  5
106
 10
176.652694
 20
21.337205
 30
0.0
 11
153.652694
 21
44.337205
 31
0.0
  0
LINE
  8
LC-007-005-----0
  6
CONTINUOUS
  5
107
 10
170.995839
 20
21.337205
 30
0.0
 11
147.995839
 21
44.337205
 31
0.0
  0
LINE
  8
LC-007-005-----0
  6
CONTINUOUS
  5
108
 10
165.338985
 20
21.337205
 30
0.0
 11
142.338985
 21
44.337205
 31
0.0
  0
LINE
  8
LC-007-005-----0
  6
CONTINUOUS
  5
109
 10
159.682131
 20
21.337205
 30
0.0
 11
136.682131
 21
44.337205
 31
0.0
  0
LINE
  8
LC-007-005-----0
  6
CONTINUOUS
  5
10A
 10
154.025277
 20
21.337205
 30
0.0
 11
131.025277
 21
44.337205
 31
0.0
  0
LINE
  8
LC-007-005-----0
  6
CONTINUOUS
  5
10B
 10
148.368422
 20
21.337205
 30
0.0
 11
125.368422
 21
44.337205
 31
0.0
  0
LINE
  8
LC-007-005-----0
  6
CONTINUOUS
  5
10C
 10
142.711568
 20
21.337205
 30
0.0
 11
119.711568
 21
44.337205
 31
0.0
  0
LINE
  8
LC-007-005-----0
  6
CONTINUOUS
  5
10D
 10
137.054714
 20
21.337205
 30
0.0
 11
114.268563
 21
44.123356
 31
0.0
  0
LINE
  8
LC-007-005-----0
  6
CONTINUOUS
  5
10E
 10
131.39786
 20
21.337205
 30
0.0
 11
114.268563
 21
38.466501
 31
0.0
  0
LINE
  8
LC-007-005-----0
  6
CONTINUOUS
  5
10F
 10
125.741005
 20
21.337205
 30
0.0
 11
114.268563
 21
32.809647
 31
0.0
  0
LINE
  8
LC-007-005-----0
  6
CONTINUOUS
  5
110
 10
120.084151
 20
21.337205
 30
0.0
 11
114.268563
 21
27.152793
 31
0.0
  0
LINE
  8
LC-007-005-----0
  6
CONTINUOUS
  5
111
 10
114.427297
 20
21.337205
 30
0.0
 11
114.268563
 21
21.495939
 31
0.0
  0
ENDBLK
  8
0
  5
112
  0
BLOCK
  8
0
  5
114
  2
*D22
 70
    65
 10
0.0
 20
0.0
 30
0.0
  3
*D22
  0
LINE
  8
LC-003-003-MTH-0
  6
CONTINUOUS
  5
115
 10
183.768563
 20
21.337205
 30
0.0
 11
252.0
 21
21.337205
 31
0.0
  0
LINE
  8
LC-003-003-MTH-0
  6
CONTINUOUS
  5
116
 10
183.768563
 20
44.337205
 30
0.0
 11
252.0
 21
44.337205
 31
0.0
  0
LINE
  8
LC-002-003-----0
  6
CONTINUOUS
  5
117
 10
238.854733
 20
-6.423251
 30
0.0
 11
235.2
 21
21.337205
 31
0.0
  0
LINE
  8
LC-002-003-----0
  6
CONTINUOUS
  5
118
 10
235.2
 20
21.337205
 30
0.0
 11
231.545267
 21
-6.423251
 31
0.0
  0
LINE
  8
LC-002-003-----0
  6
CONTINUOUS
  5
119
 10
231.545267
 20
-6.423251
 30
0.0
 11
238.854733
 21
-6.423251
 31
0.0
  0
LINE
  8
LC-002-003-----0
  6
CONTINUOUS
  5
11A
 10
237.904503
 20
-6.485532
 30
0.0
 11
235.2
 21
14.057205
 31
0.0
  0
LINE
  8
LC-002-003-----0
  6
CONTINUOUS
  5
11B
 10
235.2
 20
14.057205
 30
0.0
 11
232.495497
 21
-6.485532
 31
0.0
  0
LINE
  8
LC-002-003-----0
  6
CONTINUOUS
  5
11C
 10
236.954272
 20
-6.547814
 30
0.0
 11
235.2
 21
6.777205
 31
0.0
  0
LINE
  8
LC-002-003-----0
  6
CONTINUOUS
  5
11D
 10
235.2
 20
6.777205
 30
0.0
 11
233.445728
 21
-6.547814
 31
0.0
  0
LINE
  8
LC-002-003-----0
  6
CONTINUOUS
  5
11E
 10
236.004041
 20
-6.610095
 30
0.0
 11
235.2
 21
-0.502795
 31
0.0
  0
LINE
  8
LC-002-003-----0
  6
CONTINUOUS
  5
11F
 10
235.2
 20
-0.502795
 30
0.0
 11
234.395959
 21
-6.610095
 31
0.0
  0
LINE
  8
LC-002-003-----0
  6
CONTINUOUS
  5
120
 10
231.545267
 20
72.097661
 30
0.0
 11
235.2
 21
44.337205
 31
0.0
  0
LINE
  8
LC-002-003-----0
  6
CONTINUOUS
  5
121
 10
235.2
 20
44.337205
 30
0.0
 11
238.854733
 21
72.097661
 31
0.0
  0
LINE
  8
LC-002-003-----0
  6
CONTINUOUS
  5
122
 10
238.854733
 20
72.097661
 30
0.0
 11
231.545267
 21
72.097661
 31
0.0
  0
LINE
  8
LC-002-003-----0
  6
CONTINUOUS
  5
123
 10
232.495497
 20
72.159943
 30
0.0
 11
235.2
 21
51.617205
 31
0.0
  0
LINE
  8
LC-002-003-----0
  6
CONTINUOUS
  5
124
 10
235.2
 20
51.617205
 30
0.0
 11
237.904503
 21
72.159943
 31
0.0
  0
LINE
  8
LC-002-003-----0
  6
CONTINUOUS
  5
125
 10
233.445728
 20
72.222224
 30
0.0
 11
235.2
 21
58.897205
 31
0.0
  0
LINE
  8
LC-002-003-----0
  6
CONTINUOUS
  5
126
 10
235.2
 20
58.897205
 30
0.0
 11
236.954272
 21
72.222224
 31
0.0
  0
LINE
  8
LC-002-003-----0
  6
CONTINUOUS
  5
127
 10
234.395959
 20
72.284506
 30
0.0
 11
235.2
 21
66.177205
 31
0.0
  0
LINE
  8
LC-002-003-----0
  6
CONTINUOUS
  5
128
 10
235.2
 20
66.177205
 30
0.0
 11
236.004041
 21
72.284506
 31
0.0
  0
LINE
  8
LC-004-003-MTG-0
  6
CONTINUOUS
  5
129
 10
235.2
 20
-17.862795
 30
0.0
 11
235.2
 21
127.701605
 31
0.0
  0
TEXT
  8
LC-002-003-----0
  6
CONTINUOUS
 62
     8
  5
12A
 10
227.372446
 20
86.765365
 30
0.0
 40
28.0
  1
23
 50
90.0
 51
15.0
  7
LC-TXTSTYLE-150-400-0-0-D0
  0
ENDBLK
  8
0
  5
12B
  0
BLOCK
  8
0
  5
12D
  2
*D23
 70
    65
 10
0.0
 20
0.0
 30
0.0
  3
*D23
  0
LINE
  8
LC-003-003-MTH-0
  6
CONTINUOUS
  5
12E
 10
183.768563
 20
44.337205
 30
0.0
 11
291.2
 21
44.337205
 31
0.0
  0
LINE
  8
LC-003-003-MTH-0
  6
CONTINUOUS
  5
12F
 10
162.068563
 20
171.337205
 30
0.0
 11
291.2
 21
171.337205
 31
0.0
  0
LINE
  8
LC-004-003-MTG-0
  6
CONTINUOUS
  5
130
 10
274.4
 20
44.337205
 30
0.0
 11
274.4
 21
171.337205
 31
0.0
  0
LINE
  8
LC-002-003-----0
  6
CONTINUOUS
  5
131
 10
270.745267
 20
72.097661
 30
0.0
 11
274.4
 21
44.337205
 31
0.0
  0
LINE
  8
LC-002-003-----0
  6
CONTINUOUS
  5
132
 10
274.4
 20
44.337205
 30
0.0
 11
278.054733
 21
72.097661
 31
0.0
  0
LINE
  8
LC-002-003-----0
  6
CONTINUOUS
  5
133
 10
278.054733
 20
72.097661
 30
0.0
 11
270.745267
 21
72.097661
 31
0.0
  0
LINE
  8
LC-002-003-----0
  6
CONTINUOUS
  5
134
 10
271.695497
 20
72.159943
 30
0.0
 11
274.4
 21
51.617205
 31
0.0
  0
LINE
  8
LC-002-003-----0
  6
CONTINUOUS
  5
135
 10
274.4
 20
51.617205
 30
0.0
 11
277.104503
 21
72.159943
 31
0.0
  0
LINE
  8
LC-002-003-----0
  6
CONTINUOUS
  5
136
 10
272.645728
 20
72.222224
 30
0.0
 11
274.4
 21
58.897205
 31
0.0
  0
LINE
  8
LC-002-003-----0
  6
CONTINUOUS
  5
137
 10
274.4
 20
58.897205
 30
0.0
 11
276.154272
 21
72.222224
 31
0.0
  0
LINE
  8
LC-002-003-----0
  6
CONTINUOUS
  5
138
 10
273.595959
 20
72.284506
 30
0.0
 11
274.4
 21
66.177205
 31
0.0
  0
LINE
  8
LC-002-003-----0
  6
CONTINUOUS
  5
139
 10
274.4
 20
66.177205
 30
0.0
 11
275.204041
 21
72.284506
 31
0.0
  0
LINE
  8
LC-002-003-----0
  6
CONTINUOUS
  5
13A
 10
278.054733
 20
143.576749
 30
0.0
 11
274.4
 21
171.337205
 31
0.0
  0
LINE
  8
LC-002-003-----0
  6
CONTINUOUS
  5
13B
 10
274.4
 20
171.337205
 30
0.0
 11
270.745267
 21
143.576749
 31
0.0
  0
LINE
  8
LC-002-003-----0
  6
CONTINUOUS
  5
13C
 10
270.745267
 20
143.576749
 30
0.0
 11
278.054733
 21
143.576749
 31
0.0
  0
LINE
  8
LC-002-003-----0
  6
CONTINUOUS
  5
13D
 10
277.104503
 20
143.514468
 30
0.0
 11
274.4
 21
164.057205
 31
0.0
  0
LINE
  8
LC-002-003-----0
  6
CONTINUOUS
  5
13E
 10
274.4
 20
164.057205
 30
0.0
 11
271.695497
 21
143.514468
 31
0.0
  0
LINE
  8
LC-002-003-----0
  6
CONTINUOUS
  5
13F
 10
276.154272
 20
143.452186
 30
0.0
 11
274.4
 21
156.777205
 31
0.0
  0
LINE
  8
LC-002-003-----0
  6
CONTINUOUS
  5
140
 10
274.4
 20
156.777205
 30
0.0
 11
272.645728
 21
143.452186
 31
0.0
  0
LINE
  8
LC-002-003-----0
  6
CONTINUOUS
  5
141
 10
275.204041
 20
143.389905
 30
0.0
 11
274.4
 21
149.497205
 31
0.0
  0
LINE
  8
LC-002-003-----0
  6
CONTINUOUS
  5
142
 10
274.4
 20
149.497205
 30
0.0
 11
273.595959
 21
143.389905
 31
0.0
  0
TEXT
  8
LC-002-003-----0
  6
CONTINUOUS
 62
     8
  5
143
 10
266.572446
 20
47.201113
 30
0.0
 40
28.0
  1
12-127
 50
90.0
 51
15.0
  7
LC-TXTSTYLE-150-400-0-0-D0
 72
     1
 11
266.572446
 21
112.185365
 31
0.0
  0
ENDBLK
  8
0
  5
144
  0
ENDSEC
  0
SECTION
  2
ENTITIES
  0
VIEWPORT
  8
LC-000
  5
276
 67
     1
 68
     1
 10
420.0
 20
297.0
 30
0.0
 40
840.0
 41
594.0
 69
     1
1001
ACAD
1000
MVIEW
1002
{
1070
    16
1010
0.0
1020
0.0
1030
0.0
1010
0.0
1020
0.0
1030
1.0
1040
0.0
1040
594.0
1040
420.0
1040
297.0
1040
50.0
1040
0.0
1040
0.0
1070
     0
1070
   100
1070
     1
1070
     1
1070
     0
1070
     0
1070
     0
1070
     0
1040
0.0
1040
0.0
1040
0.0
1040
1.0
1040
1.0
1040
0.0
1040
0.0
1070
     0
1002
{
1002
}
1002
}
  0
VIEWPORT
  8
0
  5
277
 67
     1
 68
     1
 10
0.0
 20
0.0
 30
0.0
 40
0.0
 41
0.0
 69
     1
1001
ACAD
1000
MVIEW
1002
{
1070
    16
1010
0.0
1020
0.0
1030
0.0
1010
0.0
1020
0.0
1030
1.0
1040
0.0
1040
594.0
1040
0.0
1040
0.0
1040
50.0
1040
0.0
1040
0.0
1070
     0
1070
   100
1070
     0
1070
     1
1070
     0
1070
     0
1070
     0
1070
     0
1040
0.0
1040
0.0
1040
0.0
1040
0.5
1040
0.5
1040
0.5
1040
0.5
1070
     0
1002
{
1002
}
1002
}
  0
DIMENSION
  8
0
  5
145
  2
*D0
 10
0.0
 20
121.176
 30
0.0
 11
0.0
 21
121.176
 31
0.0
  1
7
 13
66.468563
 23
171.337205
 33
0.0
 14
63.768563
 24
164.137205
 34
0.0
 50
90.0
  3
LC-DIM-L-0140-02-02
  0
DIMENSION
  8
0
  5
146
  2
*D1
 10
114.268563
 20
-39.2
 30
0.0
 11
114.268563
 21
-39.2
 31
0.0
  1
%%c<>
 13
41.768563
 23
25.837205
 33
0.0
 14
186.768563
 24
25.837205
 34
0.0
  3
LC-DIM-L-0140-02-02
  0
DIMENSION
  8
0
  5
147
  2
*D2
 10
114.268563
 20
196.0
 30
0.0
 11
114.268563
 21
196.0
 31
0.0
 13
64.268563
 23
169.637205
 33
0.0
 14
164.268563
 24
169.637205
 34
0.0
  3
LC-DIM-L-0140-02-02
  0
INSERT
  8
0
  5
148
  2
OBJ1
 10
0.0
 20
0.0
 30
0.0
  0
INSERT
  8
0
  5
149
  2
*X4
 10
156.418285
 20
150.568526
 30
0.0
  0
INSERT
  8
0
  5
14A
  2
OBJ2
 10
0.0
 20
0.0
 30
0.0
  0
INSERT
  8
0
  5
14C
  2
BLK1
 10
0.0
 20
0.0
 30
0.0
  0
INSERT
  8
0
  5
14D
  2
BLK2
 10
0.0
 20
0.0
 30
0.0
  0
INSERT
  8
0
  5
14E
  2
BLK3
 10
0.0
 20
0.0
 30
0.0
  0
INSERT
  8
0
  5
14F
  2
BLK4
 10
0.0
 20
0.0
 30
0.0
  0
INSERT
  8
0
  5
151
  2
BLK5
 10
0.0
 20
0.0
 30
0.0
  0
INSERT
  8
0
  5
152
  2
BLK6
 10
0.0
 20
0.0
 30
0.0
  0
INSERT
  8
0
  5
153
  2
*X12
 10
60.568563
 20
150.568526
 30
0.0
  0
INSERT
  8
0
  5
154
  2
BLK7
 10
0.0
 20
0.0
 30
0.0
  0
INSERT
  8
0
  5
155
  2
BLK8
 10
0.0
 20
0.0
 30
0.0
  0
INSERT
  8
0
  5
156
  2
BLK9
 10
0.0
 20
0.0
 30
0.0
  0
INSERT
  8
0
  5
157
  2
BLK10
 10
0.0
 20
0.0
 30
0.0
  0
INSERT
  8
0
  5
158
  2
BLK11
 10
0.0
 20
0.0
 30
0.0
  0
INSERT
  8
0
  5
159
  2
BLK12
 10
0.0
 20
0.0
 30
0.0
  0
INSERT
  8
0
  5
15A
  2
BLK13
 10
0.0
 20
0.0
 30
0.0
  0
INSERT
  8
0
  5
15B
  2
*X20
 10
44.768563
 20
21.337205
 30
0.0
  0
INSERT
  8
0
  5
15C
  2
*X21
 10
114.268563
 20
21.337205
 30
0.0
  0
DIMENSION
  8
0
  5
15D
  2
*D22
 10
235.2
 20
32.837205
 30
0.0
 11
235.2
 21
32.837205
 31
0.0
 13
183.768563
 23
21.337205
 33
0.0
 14
183.768563
 24
44.337205
 34
0.0
 50
90.0
  3
LC-DIM-L-0140-02-02
  0
DIMENSION
  8
0
  5
15E
  2
*D23
 10
274.4
 20
107.837205
 30
0.0
 11
274.4
 21
107.837205
 31
0.0
  1
12-127
 13
183.768563
 23
44.337205
 33
0.0
 14
162.068563
 24
171.337205
 34
0.0
 50
90.0
  3
LC-DIM-L-0140-02-02
  0
LINE
  8
LC-001-002-----0
  6
CONTINUOUS
  5
15F
 10
183.768563
 20
137.337205
 30
0.0
 11
183.768563
 21
21.337205
 31
0.0
  0
LINE
  8
LC-001-002-----0
  6
CONTINUOUS
  5
160
 10
114.268563
 20
150.337205
 30
0.0
 11
158.268563
 21
150.337205
 31
0.0
  0
LINE
  8
LC-001-002-----0
  6
CONTINUOUS
  5
161
 10
44.768563
 20
137.337205
 30
0.0
 11
44.768563
 21
21.337205
 31
0.0
  0
LINE
  8
LC-001-002-----0
  6
CONTINUOUS
  5
162
 10
114.268563
 20
150.337205
 30
0.0
 11
70.268563
 21
150.337205
 31
0.0
  0
LINE
  8
LC-001-002-----0
  6
CONTINUOUS
  5
163
 10
84.263872
 20
150.337205
 30
0.0
 11
66.19675
 21
137.337205
 31
0.0
  0
LINE
  8
LC-001-002-----0
  6
CONTINUOUS
  5
164
 10
144.273255
 20
150.337205
 30
0.0
 11
162.340377
 21
137.337205
 31
0.0
  0
LINE
  8
LC-001-002-----0
  6
CONTINUOUS
  5
165
 10
359.268563
 20
148.820652
 30
0.0
 11
316.268563
 21
148.820652
 31
0.0
  0
CIRCLE
  8
LC-001-002-----0
  6
CONTINUOUS
  5
166
 10
359.268563
 20
102.820652
 30
0.0
 40
46.0
  0
CIRCLE
  8
LC-001-002-----0
  6
CONTINUOUS
  5
167
 10
359.268563
 20
102.820652
 30
0.0
 40
42.5
  0
LINE
  8
LC-001-002-----0
  6
CONTINUOUS
 62
     2
  5
168
 10
77.17261
 20
221.823201
 30
0.0
 11
92.17261
 21
221.823201
 31
0.0
  0
LINE
  8
LC-001-002-----0
  6
CONTINUOUS
 62
     2
  5
169
 10
92.17261
 20
221.823201
 30
0.0
 11
92.17261
 21
206.823201
 31
0.0
  0
LINE
  8
LC-001-002-----0
  6
CONTINUOUS
  5
16A
 10
313.268563
 20
59.820652
 30
0.0
 11
313.268563
 21
145.820652
 31
0.0
  0
LINE
  8
LC-001-002-----0
  6
CONTINUOUS
  5
16B
 10
359.268563
 20
148.820652
 30
0.0
 11
402.268563
 21
148.820652
 31
0.0
  0
LINE
  8
LC-001-002-----0
  6
CONTINUOUS
  5
16C
 10
405.268563
 20
59.820652
 30
0.0
 11
405.268563
 21
145.820652
 31
0.0
  0
LINE
  8
LC-001-002-----0
  6
CONTINUOUS
 62
     2
  5
16D
 10
77.17261
 20
206.823201
 30
0.0
 11
92.17261
 21
206.823201
 31
0.0
  0
LINE
  8
LC-001-002-----0
  6
CONTINUOUS
  5
16E
 10
359.268563
 20
56.820652
 30
0.0
 11
316.268563
 21
56.820652
 31
0.0
  0
LINE
  8
LC-001-002-----0
  6
CONTINUOUS
  5
16F
 10
359.268563
 20
56.820652
 30
0.0
 11
402.268563
 21
56.820652
 31
0.0
  0
ARC
  8
LC-005-002-RND-0
  6
CONTINUOUS
  5
171
 10
402.268563
 20
145.820652
 30
0.0
 40
3.0
 50
0.0
 51
90.0
  0
ARC
  8
LC-005-002-RND-0
  6
CONTINUOUS
  5
172
 10
402.268563
 20
59.820652
 30
0.0
 40
3.0
 50
270.0
 51
0.0
  0
ARC
  8
LC-005-002-RND-0
  6
CONTINUOUS
  5
173
 10
316.268563
 20
59.820652
 30
0.0
 40
3.0
 50
180.0
 51
270.0
  0
ARC
  8
LC-005-002-RND-0
  6
CONTINUOUS
  5
174
 10
316.268563
 20
145.820652
 30
0.0
 40
3.0
 50
90.0
 51
180.0
  0
LINE
  8
LC-001-002-----0
  6
CONTINUOUS
 62
     2
  5
175
 10
77.17261
 20
221.823201
 30
0.0
 11
77.17261
 21
206.823201
 31
0.0
  0
LINE
  8
LC-001-002-----0
  6
CONTINUOUS
  5
176
 10
70.268563
 20
150.337205
 30
0.0
 11
51.768563
 21
150.337205
 31
0.0
  0
LINE
  8
LC-001-002-----0
  6
CONTINUOUS
  5
177
 10
158.064519
 20
159.837205
 30
0.0
 11
161.268563
 21
159.837205
 31
0.0
  0
LINE
  8
LC-001-002-----0
  6
CONTINUOUS
  5
178
 10
44.768563
 20
137.337205
 30
0.0
 11
44.768563
 21
143.337205
 31
0.0
  0
LINE
  8
LC-001-002-----0
  6
CONTINUOUS
  5
179
 10
158.195317
 20
153.763589
 30
0.0
 11
157.03241
 21
150.568526
 31
0.0
  0
LINE
  8
LC-001-002-----0
  6
CONTINUOUS
  5
17A
 10
66.468563
 20
171.337205
 30
0.0
 11
162.068563
 21
171.337205
 31
0.0
  0
CIRCLE
  8
LC-001-002-----0
  6
CONTINUOUS
  5
17B
 10
318.559268
 20
143.529948
 30
0.0
 40
1.5
  0
CIRCLE
  8
LC-001-002-----0
  6
CONTINUOUS
  5
17C
 10
399.977859
 20
62.111356
 30
0.0
 40
1.5
  0
LINE
  8
LC-001-002-----0
  6
CONTINUOUS
  5
17D
 10
157.586378
 20
154.137205
 30
0.0
 11
156.418285
 21
150.927895
 31
0.0
  0
ARC
  8
LC-001-002-----0
  6
CONTINUOUS
  5
17E
 10
157.443563
 20
154.037205
 30
0.0
 40
0.8
 50
340.0
 51
88.209215
  0
LINE
  8
LC-006-001-----0
  6
CONTINUOUS
  5
180
 10
157.468563
 20
159.337205
 30
0.0
 11
157.468563
 21
154.837205
 31
0.0
  0
ARC
  8
LC-006-001-----0
  6
CONTINUOUS
  5
181
 10
157.968563
 20
159.337205
 30
0.0
 40
0.5
 50
90.0
 51
180.0
  0
LINE
  8
LC-006-001-----0
  6
CONTINUOUS
  5
182
 10
159.368563
 20
160.537205
 30
0.0
 11
157.968563
 21
160.537205
 31
0.0
  0
LINE
  8
LC-006-001-----0
  6
CONTINUOUS
  5
183
 10
157.968563
 20
159.837205
 30
0.0
 11
161.268563
 21
159.837205
 31
0.0
  0
ARC
  8
LC-006-001-----0
  6
CONTINUOUS
  5
184
 10
159.368563
 20
161.537205
 30
0.0
 40
1.0
 50
270.0
 51
0.0
  0
ARC
  8
LC-006-001-----0
  6
CONTINUOUS
  5
185
 10
159.368563
 20
161.537205
 30
0.0
 40
1.7
 50
270.0
 51
0.0
  0
ARC
  8
LC-005-002-RND-0
  6
CONTINUOUS
  5
186
 10
176.768563
 20
143.337205
 30
0.0
 40
10.0
 50
0.0
 51
90.0
  0
LINE
  8
LC-001-002-----0
  6
CONTINUOUS
  5
187
 10
186.768563
 20
143.337205
 30
0.0
 11
186.768563
 21
25.837205
 31
0.0
  0
LINE
  8
LC-001-002-----0
  6
CONTINUOUS
  5
188
 10
164.461698
 20
137.337205
 30
0.0
 11
146.423837
 21
150.337205
 31
0.0
  0
LINE
  8
LC-006-001-----0
  6
CONTINUOUS
  5
189
 10
159.368563
 20
165.637205
 30
0.0
 11
114.268563
 21
165.637205
 31
0.0
  0
ARC
  8
LC-005-002-RND-0
  6
CONTINUOUS
  5
18A
 10
51.768563
 20
143.337205
 30
0.0
 40
10.0
 50
90.0
 51
180.0
  0
LINE
  8
LC-006-001-----0
  6
CONTINUOUS
  5
18B
 10
157.968563
 20
160.537205
 30
0.0
 11
114.268563
 21
160.537205
 31
0.0
  0
LINE
  8
LC-006-001-----0
  6
CONTINUOUS
  5
18C
 10
159.368563
 20
164.937205
 30
0.0
 11
114.268563
 21
164.937205
 31
0.0
  0
LINE
  8
LC-006-001-----0
  6
CONTINUOUS
  5
18D
 10
156.768563
 20
159.337205
 30
0.0
 11
156.768563
 21
154.137205
 31
0.0
  0
LINE
  8
LC-006-001-----0
  6
CONTINUOUS
  5
18E
 10
160.368563
 20
169.637205
 30
0.0
 11
160.368563
 21
166.637205
 31
0.0
  0
LINE
  8
LC-006-001-----0
  6
CONTINUOUS
  5
18F
 10
161.068563
 20
169.637205
 30
0.0
 11
161.068563
 21
163.137205
 31
0.0
  0
LINE
  8
LC-007-005-----0
  6
CONTINUOUS
  5
190
 10
43.428665
 20
21.337205
 30
0.0
 11
44.768563
 21
22.677104
 31
0.0
  0
LINE
  8
LC-006-001-----0
  6
CONTINUOUS
  5
191
 10
161.068563
 20
163.137205
 30
0.0
 11
161.068563
 21
161.537205
 31
0.0
  0
LINE
  8
LC-007-005-----0
  6
CONTINUOUS
  5
192
 10
42.472629
 20
23.209596
 30
0.0
 11
44.768563
 21
25.505531
 31
0.0
  0
LINE
  8
LC-007-005-----0
  6
CONTINUOUS
  5
193
 10
41.874912
 20
25.440307
 30
0.0
 11
44.768563
 21
28.333958
 31
0.0
  0
LINE
  8
LC-007-005-----0
  6
CONTINUOUS
  5
194
 10
41.768563
 20
28.162385
 30
0.0
 11
44.768563
 21
31.162385
 31
0.0
  0
LINE
  8
LC-006-001-----0
  6
CONTINUOUS
  5
195
 10
160.368563
 20
166.637205
 30
0.0
 11
160.368563
 21
161.537205
 31
0.0
  0
ARC
  8
LC-006-001-----0
  6
CONTINUOUS
  5
196
 10
159.368563
 20
166.637205
 30
0.0
 40
1.7
 50
270.0
 51
306.031879
  0
ARC
  8
LC-006-001-----0
  6
CONTINUOUS
  5
197
 10
159.368563
 20
166.637205
 30
0.0
 40
1.0
 50
270.0
 51
0.0
  0
ARC
  8
LC-006-001-----0
  6
CONTINUOUS
  5
198
 10
157.968563
 20
159.337205
 30
0.0
 40
1.2
 50
90.0
 51
180.0
  0
LINE
  8
LC-007-005-----0
  6
CONTINUOUS
  5
199
 10
41.768563
 20
30.990812
 30
0.0
 11
44.768563
 21
33.990812
 31
0.0
  0
LINE
  8
LC-006-001-----0
  6
CONTINUOUS
  5
19A
 10
162.068563
 20
170.637205
 30
0.0
 11
162.568563
 21
170.637205
 31
0.0
  0
LINE
  8
LC-006-001-----0
  6
CONTINUOUS
  5
19B
 10
162.068563
 20
171.337205
 30
0.0
 11
162.568563
 21
171.337205
 31
0.0
  0
LINE
  8
LC-006-001-----0
  6
CONTINUOUS
  5
19C
 10
164.768563
 20
164.137205
 30
0.0
 11
161.068563
 21
164.137205
 31
0.0
  0
ARC
  8
LC-006-001-----0
  6
CONTINUOUS
  5
19D
 10
162.568563
 20
169.637205
 30
0.0
 40
1.0
 50
0.0
 51
90.0
  0
ARC
  8
LC-006-001-----0
  6
CONTINUOUS
  5
19E
 10
162.568563
 20
169.637205
 30
0.0
 40
1.7
 50
0.0
 51
90.0
  0
LINE
  8
LC-006-001-----0
  6
CONTINUOUS
  5
19F
 10
164.268563
 20
169.637205
 30
0.0
 11
164.268563
 21
166.096797
 31
0.0
  0
LINE
  8
LC-006-001-----0
  6
CONTINUOUS
  5
1A0
 10
163.568563
 20
166.096797
 30
0.0
 11
163.568563
 21
169.637205
 31
0.0
  0
ARC
  8
LC-006-001-----0
  6
CONTINUOUS
  5
1A1
 10
162.068563
 20
169.637205
 30
0.0
 40
1.0
 50
90.0
 51
180.0
  0
ARC
  8
LC-006-001-----0
  6
CONTINUOUS
  5
1A2
 10
162.068563
 20
169.637205
 30
0.0
 40
1.0
 50
90.0
 51
180.0
  0
ARC
  8
LC-006-001-----0
  6
CONTINUOUS
  5
1A3
 10
162.068563
 20
169.637205
 30
0.0
 40
1.7
 50
90.0
 51
180.0
  0
LINE
  8
LC-001-002-----0
  6
CONTINUOUS
  5
1A4
 10
41.768563
 20
143.337205
 30
0.0
 11
41.768563
 21
25.837205
 31
0.0
  0
LINE
  8
LC-001-002-----0
  6
CONTINUOUS
  5
1A5
 10
157.03241
 20
150.568526
 30
0.0
 11
156.418285
 21
150.927895
 31
0.0
  0
LINE
  8
LC-001-002-----0
  6
CONTINUOUS
  5
1A6
 10
64.075429
 20
137.337205
 30
0.0
 11
82.11329
 21
150.337205
 31
0.0
  0
ARC
  8
LC-001-002-----0
  6
CONTINUOUS
  5
1A7
 10
165.768563
 20
166.096797
 30
0.0
 40
2.2
 50
180.0
 51
242.964308
  0
LINE
  8
LC-001-002-----0
  6
CONTINUOUS
  5
1A8
 10
157.586378
 20
154.137205
 30
0.0
 11
156.418285
 21
150.927895
 31
0.0
  0
LINE
  8
LC-007-005-----0
  6
CONTINUOUS
  5
1A9
 10
41.768563
 20
33.819239
 30
0.0
 11
44.768563
 21
36.819239
 31
0.0
  0
LINE
  8
LC-007-005-----0
  6
CONTINUOUS
  5
1AA
 10
41.768563
 20
36.647666
 30
0.0
 11
44.768563
 21
39.647666
 31
0.0
  0
LINE
  8
LC-001-002-----0
  6
CONTINUOUS
  5
1AB
 10
114.268563
 20
154.137205
 30
0.0
 11
157.586378
 21
154.137205
 31
0.0
  0
LINE
  8
LC-001-002-----0
  6
CONTINUOUS
  5
1AC
 10
164.768563
 20
164.978763
 30
0.0
 11
164.768563
 21
164.137205
 31
0.0
  0
LINE
  8
LC-001-002-----0
  6
CONTINUOUS
  5
1AD
 10
157.03241
 20
150.568526
 30
0.0
 11
114.268563
 21
150.568526
 31
0.0
  0
LINE
  8
LC-007-005-----0
  6
CONTINUOUS
  5
1AE
 10
41.768563
 20
39.476094
 30
0.0
 11
44.768563
 21
42.476094
 31
0.0
  0
LINE
  8
LC-006-001-----0
  6
CONTINUOUS
  5
1AF
 10
70.568563
 20
160.537205
 30
0.0
 11
114.268563
 21
160.537205
 31
0.0
  0
LINE
  8
LC-001-002-----0
  6
CONTINUOUS
  5
1B0
 10
156.418285
 20
150.927895
 30
0.0
 11
114.268563
 21
150.927895
 31
0.0
  0
LINE
  8
LC-006-001-----0
  6
CONTINUOUS
  5
1B1
 10
69.168563
 20
164.937205
 30
0.0
 11
114.268563
 21
164.937205
 31
0.0
  0
LINE
  8
LC-006-001-----0
  6
CONTINUOUS
  5
1B2
 10
71.068563
 20
159.337205
 30
0.0
 11
71.068563
 21
154.837205
 31
0.0
  0
LINE
  8
LC-006-001-----0
  6
CONTINUOUS
  5
1B3
 10
71.768563
 20
159.337205
 30
0.0
 11
71.768563
 21
154.137205
 31
0.0
  0
LINE
  8
LC-006-001-----0
  6
CONTINUOUS
  5
1B4
 10
68.168563
 20
169.637205
 30
0.0
 11
68.168563
 21
166.637205
 31
0.0
  0
LINE
  8
LC-006-001-----0
  6
CONTINUOUS
  5
1B5
 10
67.468563
 20
169.637205
 30
0.0
 11
67.468563
 21
163.137205
 31
0.0
  0
ARC
  8
LC-006-001-----0
  6
CONTINUOUS
  5
1B6
 10
70.568563
 20
159.337205
 30
0.0
 40
0.5
 50
0.0
 51
90.0
  0
LINE
  8
LC-006-001-----0
  6
CONTINUOUS
  5
1B7
 10
70.568563
 20
159.837205
 30
0.0
 11
67.268563
 21
159.837205
 31
0.0
  0
LINE
  8
LC-007-005-----0
  6
CONTINUOUS
  5
1B8
 10
41.768563
 20
42.304521
 30
0.0
 11
44.768563
 21
45.304521
 31
0.0
  0
ARC
  8
LC-001-002-----0
  6
CONTINUOUS
  5
1B9
 10
165.768563
 20
166.096797
 30
0.0
 40
1.5
 50
180.0
 51
228.189685
  0
LINE
  8
LC-001-002-----0
  6
CONTINUOUS
  5
1BA
 10
161.268563
 20
153.337205
 30
0.0
 11
176.768563
 21
153.337205
 31
0.0
  0
LINE
  8
LC-006-001-----0
  6
CONTINUOUS
  5
1BB
 10
67.468563
 20
163.137205
 30
0.0
 11
67.468563
 21
161.537205
 31
0.0
  0
LINE
  8
LC-001-002-----0
  6
CONTINUOUS
  5
1BC
 10
157.518563
 20
158.337205
 30
0.0
 11
158.064519
 21
159.837205
 31
0.0
  0
ARC
  8
LC-006-001-----0
  6
CONTINUOUS
  5
1BD
 10
69.168563
 20
161.537205
 30
0.0
 40
1.0
 50
180.0
 51
270.0
  0
LINE
  8
LC-007-005-----0
  6
CONTINUOUS
  5
1BE
 10
41.768563
 20
45.132948
 30
0.0
 11
44.768563
 21
48.132948
 31
0.0
  0
LINE
  8
LC-007-005-----0
  6
CONTINUOUS
  5
1BF
 10
41.768563
 20
47.961375
 30
0.0
 11
44.768563
 21
50.961375
 31
0.0
  0
LINE
  8
LC-001-002-----0
  6
CONTINUOUS
  5
1C0
 10
186.768563
 20
25.837205
 30
0.0
 11
185.562792
 21
21.337205
 31
0.0
  0
LINE
  8
LC-001-002-----0
  6
CONTINUOUS
  5
1C1
 10
157.518563
 20
156.087205
 30
0.0
 11
157.518563
 21
158.337205
 31
0.0
  0
LINE
  8
LC-006-001-----0
  6
CONTINUOUS
  5
1C2
 10
69.168563
 20
159.837205
 30
0.0
 11
70.568563
 21
159.837205
 31
0.0
  0
LINE
  8
LC-006-001-----0
  6
CONTINUOUS
  5
1C3
 10
69.168563
 20
160.537205
 30
0.0
 11
70.568563
 21
160.537205
 31
0.0
  0
LINE
  8
LC-006-001-----0
  6
CONTINUOUS
  5
1C4
 10
68.168563
 20
166.637205
 30
0.0
 11
68.168563
 21
161.537205
 31
0.0
  0
ARC
  8
LC-006-001-----0
  6
CONTINUOUS
  5
1C5
 10
69.168563
 20
166.637205
 30
0.0
 40
1.7
 50
233.968121
 51
270.0
  0
LINE
  8
LC-001-002-----0
  6
CONTINUOUS
  5
1C6
 10
157.518563
 20
156.087205
 30
0.0
 11
158.268563
 21
155.337205
 31
0.0
  0
LINE
  8
LC-001-002-----0
  6
CONTINUOUS
  5
1C7
 10
158.268563
 20
155.337205
 30
0.0
 11
158.268563
 21
150.337205
 31
0.0
  0
ARC
  8
LC-006-001-----0
  6
CONTINUOUS
  5
1C8
 10
69.168563
 20
166.637205
 30
0.0
 40
1.0
 50
180.0
 51
270.0
  0
ARC
  8
LC-006-001-----0
  6
CONTINUOUS
  5
1C9
 10
70.568563
 20
159.337205
 30
0.0
 40
1.2
 50
360.0
 51
90.0
  0
ARC
  8
LC-006-001-----0
  6
CONTINUOUS
  5
1CA
 10
69.168563
 20
161.537205
 30
0.0
 40
1.7
 50
180.0
 51
270.0
  0
LINE
  8
LC-006-001-----0
  6
CONTINUOUS
  5
1CB
 10
66.468563
 20
170.637205
 30
0.0
 11
65.968563
 21
170.637205
 31
0.0
  0
LINE
  8
LC-007-005-----0
  6
CONTINUOUS
  5
1CC
 10
41.768563
 20
50.789802
 30
0.0
 11
44.768563
 21
53.789802
 31
0.0
  0
LINE
  8
LC-007-005-----0
  6
CONTINUOUS
  5
1CD
 10
41.768563
 20
53.618229
 30
0.0
 11
44.768563
 21
56.618229
 31
0.0
  0
LINE
  8
LC-007-005-----0
  6
CONTINUOUS
  5
1CE
 10
41.768563
 20
56.446656
 30
0.0
 11
44.768563
 21
59.446656
 31
0.0
  0
LINE
  8
LC-006-001-----0
  6
CONTINUOUS
  5
1CF
 10
66.468563
 20
171.337205
 30
0.0
 11
65.968563
 21
171.337205
 31
0.0
  0
LINE
  8
LC-006-001-----0
  6
CONTINUOUS
  5
1D0
 10
63.768563
 20
164.137205
 30
0.0
 11
67.468563
 21
164.137205
 31
0.0
  0
LINE
  8
LC-007-005-----0
  6
CONTINUOUS
  5
1D1
 10
41.768563
 20
59.275083
 30
0.0
 11
44.768563
 21
62.275083
 31
0.0
  0
LINE
  8
LC-007-005-----0
  6
CONTINUOUS
  5
1D2
 10
41.768563
 20
62.103511
 30
0.0
 11
44.768563
 21
65.103511
 31
0.0
  0
LINE
  8
LC-007-005-----0
  6
CONTINUOUS
  5
1D3
 10
41.768563
 20
64.931938
 30
0.0
 11
44.768563
 21
67.931938
 31
0.0
  0
CIRCLE
  8
LC-001-002-----0
  6
CONTINUOUS
  5
1D4
 10
359.268563
 20
102.820652
 30
0.0
 40
72.5
  0
LINE
  8
LC-007-005-----0
  6
CONTINUOUS
  5
1D5
 10
41.768563
 20
67.760365
 30
0.0
 11
44.768563
 21
70.760365
 31
0.0
  0
LINE
  8
LC-007-005-----0
  6
CONTINUOUS
  5
1D6
 10
41.768563
 20
70.588792
 30
0.0
 11
44.768563
 21
73.588792
 31
0.0
  0
LINE
  8
LC-007-005-----0
  6
CONTINUOUS
  5
1D7
 10
41.768563
 20
73.417219
 30
0.0
 11
44.768563
 21
76.417219
 31
0.0
  0
LINE
  8
LC-007-005-----0
  6
CONTINUOUS
  5
1D8
 10
41.768563
 20
76.245646
 30
0.0
 11
44.768563
 21
79.245646
 31
0.0
  0
LINE
  8
LC-007-005-----0
  6
CONTINUOUS
  5
1D9
 10
41.768563
 20
79.074073
 30
0.0
 11
44.768563
 21
82.074073
 31
0.0
  0
LINE
  8
LC-007-005-----0
  6
CONTINUOUS
  5
1DA
 10
41.768563
 20
81.9025
 30
0.0
 11
44.768563
 21
84.9025
 31
0.0
  0
LINE
  8
LC-007-005-----0
  6
CONTINUOUS
  5
1DB
 10
41.768563
 20
84.730928
 30
0.0
 11
44.768563
 21
87.730928
 31
0.0
  0
LINE
  8
LC-007-005-----0
  6
CONTINUOUS
  5
1DC
 10
41.768563
 20
87.559355
 30
0.0
 11
44.768563
 21
90.559355
 31
0.0
  0
LINE
  8
LC-007-005-----0
  6
CONTINUOUS
  5
1DD
 10
41.768563
 20
90.387782
 30
0.0
 11
44.768563
 21
93.387782
 31
0.0
  0
LINE
  8
LC-007-005-----0
  6
CONTINUOUS
  5
1DE
 10
41.768563
 20
93.216209
 30
0.0
 11
44.768563
 21
96.216209
 31
0.0
  0
LINE
  8
LC-007-005-----0
  6
CONTINUOUS
  5
1DF
 10
41.768563
 20
96.044636
 30
0.0
 11
44.768563
 21
99.044636
 31
0.0
  0
LINE
  8
LC-007-005-----0
  6
CONTINUOUS
  5
1E0
 10
41.768563
 20
98.873063
 30
0.0
 11
44.768563
 21
101.873063
 31
0.0
  0
LINE
  8
LC-007-005-----0
  6
CONTINUOUS
  5
1E1
 10
41.768563
 20
101.70149
 30
0.0
 11
44.768563
 21
104.70149
 31
0.0
  0
LINE
  8
LC-007-005-----0
  6
CONTINUOUS
  5
1E2
 10
41.768563
 20
104.529917
 30
0.0
 11
44.768563
 21
107.529917
 31
0.0
  0
LINE
  8
LC-007-005-----0
  6
CONTINUOUS
  5
1E3
 10
41.768563
 20
107.358345
 30
0.0
 11
44.768563
 21
110.358345
 31
0.0
  0
LINE
  8
LC-007-005-----0
  6
CONTINUOUS
  5
1E4
 10
41.768563
 20
110.186772
 30
0.0
 11
44.768563
 21
113.186772
 31
0.0
  0
LINE
  8
LC-007-005-----0
  6
CONTINUOUS
  5
1E5
 10
41.768563
 20
113.015199
 30
0.0
 11
44.768563
 21
116.015199
 31
0.0
  0
ARC
  8
LC-006-001-----0
  6
CONTINUOUS
  5
1E6
 10
65.968563
 20
169.637205
 30
0.0
 40
1.0
 50
90.0
 51
180.0
  0
LINE
  8
LC-001-002-----0
  6
CONTINUOUS
  5
1E7
 10
158.268563
 20
150.337205
 30
0.0
 11
183.768563
 21
137.337205
 31
0.0
  0
LINE
  8
LC-007-005-----0
  6
CONTINUOUS
  5
1E8
 10
41.768563
 20
115.843626
 30
0.0
 11
44.768563
 21
118.843626
 31
0.0
  0
LINE
  8
LC-001-002-----0
  6
CONTINUOUS
  5
1E9
 10
162.340377
 20
137.337205
 30
0.0
 11
164.461698
 21
137.337205
 31
0.0
  0
LINE
  8
LC-001-002-----0
  6
CONTINUOUS
  5
1EA
 10
164.461698
 20
137.337205
 30
0.0
 11
164.461698
 21
143.337205
 31
0.0
  0
ARC
  8
LC-005-002-RND-0
  6
CONTINUOUS
  5
1EB
 10
157.461698
 20
143.337205
 30
0.0
 40
7.0
 50
0.0
 51
43.593564
  0
LINE
  8
LC-007-005-----0
  6
CONTINUOUS
  5
1EC
 10
41.768563
 20
118.672053
 30
0.0
 11
44.768563
 21
121.672053
 31
0.0
  0
ARC
  8
LC-006-001-----0
  6
CONTINUOUS
  5
1ED
 10
65.968563
 20
169.637205
 30
0.0
 40
1.7
 50
90.0
 51
180.0
  0
LINE
  8
LC-006-001-----0
  6
CONTINUOUS
  5
1EE
 10
64.268563
 20
169.637205
 30
0.0
 11
64.268563
 21
166.096797
 31
0.0
  0
LINE
  8
LC-006-001-----0
  6
CONTINUOUS
  5
1EF
 10
64.968563
 20
166.096797
 30
0.0
 11
64.968563
 21
169.637205
 31
0.0
  0
ARC
  8
LC-006-001-----0
  6
CONTINUOUS
  5
1F0
 10
66.468563
 20
169.637205
 30
0.0
 40
1.0
 50
0.0
 51
90.0
  0
ARC
  8
LC-006-001-----0
  6
CONTINUOUS
  5
1F1
 10
66.468563
 20
169.637205
 30
0.0
 40
1.0
 50
0.0
 51
90.0
  0
ARC
  8
LC-006-001-----0
  6
CONTINUOUS
  5
1F2
 10
66.468563
 20
169.637205
 30
0.0
 40
1.7
 50
360.0
 51
90.0
  0
LINE
  8
LC-001-002-----0
  6
CONTINUOUS
  5
1F3
 10
71.504717
 20
150.568526
 30
0.0
 11
72.118842
 21
150.927895
 31
0.0
  0
ARC
  8
LC-001-002-----0
  6
CONTINUOUS
  5
1F4
 10
62.768563
 20
166.096797
 30
0.0
 40
2.2
 50
297.035692
 51
360.0
  0
LINE
  8
LC-001-002-----0
  6
CONTINUOUS
  5
1F5
 10
70.950749
 20
154.137205
 30
0.0
 11
72.118842
 21
150.927895
 31
0.0
  0
LINE
  8
LC-007-005-----0
  6
CONTINUOUS
  5
1F6
 10
41.768563
 20
121.50048
 30
0.0
 11
44.768563
 21
124.50048
 31
0.0
  0
LINE
  8
LC-007-005-----0
  6
CONTINUOUS
  5
1F7
 10
41.768563
 20
124.328907
 30
0.0
 11
44.768563
 21
127.328907
 31
0.0
  0
LINE
  8
LC-007-005-----0
  6
CONTINUOUS
  5
1F8
 10
67.776861
 20
150.337205
 30
0.0
 11
70.268563
 21
152.828907
 31
0.0
  0
LINE
  8
LC-007-005-----0
  6
CONTINUOUS
  5
1F9
 10
41.768563
 20
127.157334
 30
0.0
 11
44.768563
 21
130.157334
 31
0.0
  0
LINE
  8
LC-007-005-----0
  6
CONTINUOUS
  5
1FA
 10
64.948434
 20
150.337205
 30
0.0
 11
71.018563
 21
156.407334
 31
0.0
  0
LINE
  8
LC-007-005-----0
  6
CONTINUOUS
  5
1FB
 10
41.768563
 20
129.985761
 30
0.0
 11
44.768563
 21
132.985761
 31
0.0
  0
LINE
  8
LC-007-005-----0
  6
CONTINUOUS
  5
1FC
 10
62.120007
 20
150.337205
 30
0.0
 11
65.120007
 21
153.337205
 31
0.0
  0
LINE
  8
LC-007-005-----0
  6
CONTINUOUS
  5
1FD
 10
67.268563
 20
155.485761
 30
0.0
 11
70.778787
 21
158.995985
 31
0.0
  0
LINE
  8
LC-006-001-----0
  6
CONTINUOUS
  5
1FE
 10
308.768563
 20
147.320652
 30
0.0
 11
308.768563
 21
58.320652
 31
0.0
  0
LINE
  8
LC-001-002-----0
  6
CONTINUOUS
  5
1FF
 10
403.768563
 20
152.820652
 30
0.0
 11
314.768563
 21
152.820652
 31
0.0
  0
LINE
  8
LC-006-001-----0
  6
CONTINUOUS
  5
200
 10
409.768563
 20
58.320652
 30
0.0
 11
409.768563
 21
147.320652
 31
0.0
  0
ARC
  8
LC-001-002-----0
  6
CONTINUOUS
  5
201
 10
314.768563
 20
147.320652
 30
0.0
 40
5.5
 50
90.0
 51
180.0
  0
LINE
  8
LC-001-002-----0
  6
CONTINUOUS
  5
202
 10
161.268563
 20
159.837205
 30
0.0
 11
161.268563
 21
153.337205
 31
0.0
  0
LINE
  8
LC-007-005-----0
  6
CONTINUOUS
  5
203
 10
41.768563
 20
132.814189
 30
0.0
 11
44.768563
 21
135.814189
 31
0.0
  0
LINE
  8
LC-007-005-----0
  6
CONTINUOUS
  5
204
 10
59.29158
 20
150.337205
 30
0.0
 11
62.29158
 21
153.337205
 31
0.0
  0
LINE
  8
LC-006-001-----0
  6
CONTINUOUS
  5
205
 10
314.768563
 20
52.320652
 30
0.0
 11
403.768563
 21
52.320652
 31
0.0
  0
LINE
  8
LC-001-002-----0
  6
CONTINUOUS
  5
206
 10
309.268563
 20
147.320652
 30
0.0
 11
309.268563
 21
58.320652
 31
0.0
  0
LINE
  8
LC-001-002-----0
  6
CONTINUOUS
  5
207
 10
114.268563
 20
154.137205
 30
0.0
 11
70.950749
 21
154.137205
 31
0.0
  0
LINE
  8
LC-001-002-----0
  6
CONTINUOUS
  5
208
 10
63.768563
 20
164.978763
 30
0.0
 11
63.768563
 21
164.137205
 31
0.0
  0
LINE
  8
LC-001-002-----0
  6
CONTINUOUS
  5
209
 10
71.504717
 20
150.568526
 30
0.0
 11
114.268563
 21
150.568526
 31
0.0
  0
LINE
  8
LC-001-002-----0
  6
CONTINUOUS
  5
20A
 10
70.341809
 20
153.763589
 30
0.0
 11
71.504717
 21
150.568526
 31
0.0
  0
LINE
  8
LC-001-002-----0
  6
CONTINUOUS
  5
20B
 10
72.118842
 20
150.927895
 30
0.0
 11
114.268563
 21
150.927895
 31
0.0
  0
ARC
  8
LC-001-002-----0
  6
CONTINUOUS
  5
20C
 10
71.093563
 20
154.037205
 30
0.0
 40
0.8
 50
91.790785
 51
200.0
  0
ARC
  8
LC-001-002-----0
  6
CONTINUOUS
  5
20D
 10
62.768563
 20
166.096797
 30
0.0
 40
1.5
 50
311.810315
 51
360.0
  0
LINE
  8
LC-001-002-----0
  6
CONTINUOUS
  5
20E
 10
67.268563
 20
153.337205
 30
0.0
 11
51.768563
 21
153.337205
 31
0.0
  0
LINE
  8
LC-001-002-----0
  6
CONTINUOUS
  5
20F
 10
71.018563
 20
158.337205
 30
0.0
 11
70.472608
 21
159.837205
 31
0.0
  0
LINE
  8
LC-010-006-MLN-0
  6
DASHDOT
  5
213
 10
114.268563
 20
172.335234
 30
0.0
 11
114.268563
 21
23.264
 31
0.0
  0
LINE
  8
LC-001-002-----0
  6
CONTINUOUS
  5
214
 10
71.268563
 20
159.837205
 30
0.0
 11
71.268563
 21
159.837205
 31
0.0
  0
LINE
  8
LC-001-002-----0
  6
CONTINUOUS
  5
215
 10
41.768563
 20
25.837205
 30
0.0
 11
42.974335
 21
21.337205
 31
0.0
  0
ARC
  8
LC-001-002-----0
  6
CONTINUOUS
  5
216
 10
314.768563
 20
58.320652
 30
0.0
 40
5.5
 50
180.0
 51
270.0
  0
ARC
  8
LC-006-001-----0
  6
CONTINUOUS
  5
217
 10
314.768563
 20
58.320652
 30
0.0
 40
6.0
 50
180.0
 51
270.0
  0
ARC
  8
LC-006-001-----0
  6
CONTINUOUS
  5
218
 10
403.768563
 20
58.320652
 30
0.0
 40
6.0
 50
270.0
 51
0.0
  0
LINE
  8
LC-001-002-----0
  6
CONTINUOUS
  5
219
 10
314.768563
 20
52.820652
 30
0.0
 11
403.768563
 21
52.820652
 31
0.0
  0
ARC
  8
LC-001-002-----0
  6
CONTINUOUS
  5
21A
 10
403.768563
 20
58.320652
 30
0.0
 40
5.5
 50
270.0
 51
0.0
  0
LINE
  8
LC-006-001-----0
  6
CONTINUOUS
  5
21B
 10
403.768563
 20
153.320652
 30
0.0
 11
314.768563
 21
153.320652
 31
0.0
  0
ARC
  8
LC-006-001-----0
  6
CONTINUOUS
  5
21C
 10
314.768563
 20
147.320652
 30
0.0
 40
6.0
 50
90.0
 51
180.0
  0
LINE
  8
LC-001-002-----0
  6
CONTINUOUS
  5
21D
 10
409.268563
 20
58.320652
 30
0.0
 11
409.268563
 21
147.320652
 31
0.0
  0
ARC
  8
LC-006-001-----0
  6
CONTINUOUS
  5
21E
 10
403.768563
 20
147.320652
 30
0.0
 40
6.0
 50
360.0
 51
90.0
  0
ARC
  8
LC-001-002-----0
  6
CONTINUOUS
  5
21F
 10
403.768563
 20
147.320652
 30
0.0
 40
5.5
 50
0.0
 51
90.0
  0
LINE
  8
LC-007-005-----0
  6
CONTINUOUS
  5
220
 10
67.268563
 20
158.314189
 30
0.0
 11
68.79158
 21
159.837205
 31
0.0
  0
LINE
  8
LC-007-005-----0
  6
CONTINUOUS
  5
221
 10
41.768563
 20
135.642616
 30
0.0
 11
44.768563
 21
138.642616
 31
0.0
  0
LINE
  8
LC-007-005-----0
  6
CONTINUOUS
  5
222
 10
41.768563
 20
138.471043
 30
0.0
 11
44.768563
 21
141.471043
 31
0.0
  0
LINE
  8
LC-007-005-----0
  6
CONTINUOUS
  5
223
 10
41.768563
 20
141.29947
 30
0.0
 11
44.846243
 21
144.37715
 31
0.0
  0
LINE
  8
LC-001-002-----0
  6
CONTINUOUS
  5
224
 10
71.018563
 20
156.087205
 30
0.0
 11
71.018563
 21
158.337205
 31
0.0
  0
LINE
  8
LC-001-002-----0
  6
CONTINUOUS
  5
225
 10
71.018563
 20
156.087205
 30
0.0
 11
70.268563
 21
155.337205
 31
0.0
  0
LINE
  8
LC-007-005-----0
  6
CONTINUOUS
  5
226
 10
41.802633
 20
144.161967
 30
0.0
 11
50.943802
 21
153.303136
 31
0.0
  0
LINE
  8
LC-007-005-----0
  6
CONTINUOUS
  5
227
 10
43.053774
 20
148.241535
 30
0.0
 11
46.864233
 21
152.051994
 31
0.0
  0
LINE
  8
LC-001-002-----0
  6
CONTINUOUS
  5
228
 10
70.268563
 20
155.337205
 30
0.0
 11
70.268563
 21
150.337205
 31
0.0
  0
LINE
  8
LC-001-002-----0
  6
CONTINUOUS
  5
229
 10
70.268563
 20
150.337205
 30
0.0
 11
44.768563
 21
137.337205
 31
0.0
  0
LINE
  8
LC-007-005-----0
  6
CONTINUOUS
  5
22A
 10
184.850021
 20
21.337205
 30
0.0
 11
185.823684
 21
22.310868
 31
0.0
  0
LINE
  8
LC-001-002-----0
  6
CONTINUOUS
  5
22B
 10
66.19675
 20
137.337205
 30
0.0
 11
64.075429
 21
137.337205
 31
0.0
  0
LINE
  8
LC-001-002-----0
  6
CONTINUOUS
  5
22C
 10
114.268563
 20
165.637205
 30
0.0
 11
158.268563
 21
165.637205
 31
0.0
  0
LINE
  8
LC-001-002-----0
  6
CONTINUOUS
  5
22D
 10
158.268563
 20
165.637205
 30
0.0
 11
159.768563
 21
165.637205
 31
0.0
  0
LINE
  8
LC-001-002-----0
  6
CONTINUOUS
  5
22E
 10
64.075429
 20
137.337205
 30
0.0
 11
64.075429
 21
143.337205
 31
0.0
  0
ARC
  8
LC-005-002-RND-0
  6
CONTINUOUS
  5
22F
 10
71.075429
 20
143.337205
 30
0.0
 40
7.0
 50
136.406436
 51
180.0
  0
LINE
  8
LC-001-002-----0
  6
CONTINUOUS
  5
230
 10
67.268563
 20
159.837205
 30
0.0
 11
67.268563
 21
153.337205
 31
0.0
  0
LINE
  8
LC-007-005-----0
  6
CONTINUOUS
  5
231
 10
183.768563
 20
23.084175
 30
0.0
 11
186.768563
 21
26.084175
 31
0.0
  0
LINE
  8
LC-007-005-----0
  6
CONTINUOUS
  5
232
 10
183.768563
 20
25.912602
 30
0.0
 11
186.768563
 21
28.912602
 31
0.0
  0
LINE
  8
LC-001-002-----0
  6
CONTINUOUS
  5
233
 10
114.268563
 20
165.637205
 30
0.0
 11
69.168563
 21
165.637205
 31
0.0
  0
LINE
  8
LC-001-002-----0
  6
CONTINUOUS
  5
234
 10
185.562792
 20
21.337205
 30
0.0
 11
42.974335
 21
21.337205
 31
0.0
  0
LINE
  8
LC-007-005-----0
  6
CONTINUOUS
  5
235
 10
183.768563
 20
28.741029
 30
0.0
 11
186.768563
 21
31.741029
 31
0.0
  0
LINE
  8
LC-007-005-----0
  6
CONTINUOUS
  5
236
 10
183.768563
 20
31.569456
 30
0.0
 11
186.768563
 21
34.569456
 31
0.0
  0
LINE
  8
LC-007-005-----0
  6
CONTINUOUS
  5
237
 10
183.768563
 20
34.397883
 30
0.0
 11
186.768563
 21
37.397883
 31
0.0
  0
LINE
  8
LC-007-005-----0
  6
CONTINUOUS
  5
238
 10
183.768563
 20
37.22631
 30
0.0
 11
186.768563
 21
40.22631
 31
0.0
  0
LINE
  8
LC-007-005-----0
  6
CONTINUOUS
  5
239
 10
183.768563
 20
40.054737
 30
0.0
 11
186.768563
 21
43.054737
 31
0.0
  0
LINE
  8
LC-007-005-----0
  6
CONTINUOUS
  5
23A
 10
183.768563
 20
42.883164
 30
0.0
 11
186.768563
 21
45.883164
 31
0.0
  0
LINE
  8
LC-007-005-----0
  6
CONTINUOUS
  5
23B
 10
183.768563
 20
45.711592
 30
0.0
 11
186.768563
 21
48.711592
 31
0.0
  0
LINE
  8
LC-007-005-----0
  6
CONTINUOUS
  5
23C
 10
183.768563
 20
48.540019
 30
0.0
 11
186.768563
 21
51.540019
 31
0.0
  0
LINE
  8
LC-007-005-----0
  6
CONTINUOUS
  5
23D
 10
183.768563
 20
51.368446
 30
0.0
 11
186.768563
 21
54.368446
 31
0.0
  0
LINE
  8
LC-007-005-----0
  6
CONTINUOUS
  5
23E
 10
183.768563
 20
54.196873
 30
0.0
 11
186.768563
 21
57.196873
 31
0.0
  0
LINE
  8
LC-007-005-----0
  6
CONTINUOUS
  5
23F
 10
183.768563
 20
57.0253
 30
0.0
 11
186.768563
 21
60.0253
 31
0.0
  0
LINE
  8
LC-007-005-----0
  6
CONTINUOUS
  5
240
 10
183.768563
 20
59.853727
 30
0.0
 11
186.768563
 21
62.853727
 31
0.0
  0
LINE
  8
LC-007-005-----0
  6
CONTINUOUS
  5
241
 10
183.768563
 20
62.682154
 30
0.0
 11
186.768563
 21
65.682154
 31
0.0
  0
LINE
  8
LC-007-005-----0
  6
CONTINUOUS
  5
242
 10
183.768563
 20
65.510581
 30
0.0
 11
186.768563
 21
68.510581
 31
0.0
  0
LINE
  8
LC-007-005-----0
  6
CONTINUOUS
  5
243
 10
183.768563
 20
68.339009
 30
0.0
 11
186.768563
 21
71.339009
 31
0.0
  0
LINE
  8
LC-007-005-----0
  6
CONTINUOUS
  5
244
 10
183.768563
 20
71.167436
 30
0.0
 11
186.768563
 21
74.167436
 31
0.0
  0
LINE
  8
LC-007-005-----0
  6
CONTINUOUS
  5
245
 10
183.768563
 20
73.995863
 30
0.0
 11
186.768563
 21
76.995863
 31
0.0
  0
LINE
  8
LC-007-005-----0
  6
CONTINUOUS
  5
246
 10
183.768563
 20
76.82429
 30
0.0
 11
186.768563
 21
79.82429
 31
0.0
  0
LINE
  8
LC-007-005-----0
  6
CONTINUOUS
  5
247
 10
183.768563
 20
79.652717
 30
0.0
 11
186.768563
 21
82.652717
 31
0.0
  0
LINE
  8
LC-007-005-----0
  6
CONTINUOUS
  5
248
 10
183.768563
 20
82.481144
 30
0.0
 11
186.768563
 21
85.481144
 31
0.0
  0
LINE
  8
LC-007-005-----0
  6
CONTINUOUS
  5
249
 10
183.768563
 20
85.309571
 30
0.0
 11
186.768563
 21
88.309571
 31
0.0
  0
LINE
  8
LC-007-005-----0
  6
CONTINUOUS
  5
24A
 10
183.768563
 20
88.137998
 30
0.0
 11
186.768563
 21
91.137998
 31
0.0
  0
LINE
  8
LC-007-005-----0
  6
CONTINUOUS
  5
24B
 10
183.768563
 20
90.966426
 30
0.0
 11
186.768563
 21
93.966426
 31
0.0
  0
LINE
  8
LC-007-005-----0
  6
CONTINUOUS
  5
24C
 10
183.768563
 20
93.794853
 30
0.0
 11
186.768563
 21
96.794853
 31
0.0
  0
LINE
  8
LC-007-005-----0
  6
CONTINUOUS
  5
24D
 10
183.768563
 20
96.62328
 30
0.0
 11
186.768563
 21
99.62328
 31
0.0
  0
LINE
  8
LC-007-005-----0
  6
CONTINUOUS
  5
24E
 10
183.768563
 20
99.451707
 30
0.0
 11
186.768563
 21
102.451707
 31
0.0
  0
LINE
  8
LC-007-005-----0
  6
CONTINUOUS
  5
24F
 10
183.768563
 20
102.280134
 30
0.0
 11
186.768563
 21
105.280134
 31
0.0
  0
LINE
  8
LC-007-005-----0
  6
CONTINUOUS
  5
250
 10
183.768563
 20
105.108561
 30
0.0
 11
186.768563
 21
108.108561
 31
0.0
  0
LINE
  8
LC-007-005-----0
  6
CONTINUOUS
  5
251
 10
183.768563
 20
107.936988
 30
0.0
 11
186.768563
 21
110.936988
 31
0.0
  0
LINE
  8
LC-007-005-----0
  6
CONTINUOUS
  5
252
 10
183.768563
 20
110.765415
 30
0.0
 11
186.768563
 21
113.765415
 31
0.0
  0
LINE
  8
LC-007-005-----0
  6
CONTINUOUS
  5
253
 10
183.768563
 20
113.593843
 30
0.0
 11
186.768563
 21
116.593843
 31
0.0
  0
LINE
  8
LC-007-005-----0
  6
CONTINUOUS
  5
254
 10
183.768563
 20
116.42227
 30
0.0
 11
186.768563
 21
119.42227
 31
0.0
  0
LINE
  8
LC-007-005-----0
  6
CONTINUOUS
  5
255
 10
183.768563
 20
119.250697
 30
0.0
 11
186.768563
 21
122.250697
 31
0.0
  0
LINE
  8
LC-007-005-----0
  6
CONTINUOUS
  5
256
 10
183.768563
 20
122.079124
 30
0.0
 11
186.768563
 21
125.079124
 31
0.0
  0
LINE
  8
LC-007-005-----0
  6
CONTINUOUS
  5
257
 10
183.768563
 20
124.907551
 30
0.0
 11
186.768563
 21
127.907551
 31
0.0
  0
LINE
  8
LC-007-005-----0
  6
CONTINUOUS
  5
258
 10
183.768563
 20
127.735978
 30
0.0
 11
186.768563
 21
130.735978
 31
0.0
  0
LINE
  8
LC-007-005-----0
  6
CONTINUOUS
  5
259
 10
183.768563
 20
130.564405
 30
0.0
 11
186.768563
 21
133.564405
 31
0.0
  0
LINE
  8
LC-007-005-----0
  6
CONTINUOUS
  5
25A
 10
183.768563
 20
133.392832
 30
0.0
 11
186.768563
 21
136.392832
 31
0.0
  0
LINE
  8
LC-007-005-----0
  6
CONTINUOUS
  5
25B
 10
183.768563
 20
136.22126
 30
0.0
 11
186.768563
 21
139.22126
 31
0.0
  0
LINE
  8
LC-007-005-----0
  6
CONTINUOUS
  5
25C
 10
183.768563
 20
139.049687
 30
0.0
 11
186.768563
 21
142.049687
 31
0.0
  0
LINE
  8
LC-007-005-----0
  6
CONTINUOUS
  5
25D
 10
183.768563
 20
141.878114
 30
0.0
 11
186.664761
 21
144.774311
 31
0.0
  0
LINE
  8
LC-007-005-----0
  6
CONTINUOUS
  5
25E
 10
183.655002
 20
144.592979
 30
0.0
 11
186.070336
 21
147.008313
 31
0.0
  0
LINE
  8
LC-007-005-----0
  6
CONTINUOUS
  5
25F
 10
182.916983
 20
146.683388
 30
0.0
 11
185.100545
 21
148.86695
 31
0.0
  0
LINE
  8
LC-007-005-----0
  6
CONTINUOUS
  5
260
 10
181.705199
 20
148.30003
 30
0.0
 11
183.826524
 21
150.421356
 31
0.0
  0
LINE
  8
LC-007-005-----0
  6
CONTINUOUS
  5
261
 10
180.080747
 20
149.504006
 30
0.0
 11
182.266772
 21
151.690031
 31
0.0
  0
LINE
  8
LC-007-005-----0
  6
CONTINUOUS
  5
262
 10
177.979911
 20
150.231597
 30
0.0
 11
180.402051
 21
152.653737
 31
0.0
  0
LINE
  8
LC-007-005-----0
  6
CONTINUOUS
  5
263
 10
175.257092
 20
150.337205
 30
0.0
 11
178.159837
 21
153.23995
 31
0.0
  0
LINE
  8
LC-007-005-----0
  6
CONTINUOUS
  5
264
 10
172.428665
 20
150.337205
 30
0.0
 11
175.428665
 21
153.337205
 31
0.0
  0
LINE
  8
LC-007-005-----0
  6
CONTINUOUS
  5
265
 10
169.600238
 20
150.337205
 30
0.0
 11
172.600238
 21
153.337205
 31
0.0
  0
LINE
  8
LC-007-005-----0
  6
CONTINUOUS
  5
266
 10
166.771811
 20
150.337205
 30
0.0
 11
169.771811
 21
153.337205
 31
0.0
  0
LINE
  8
LC-007-005-----0
  6
CONTINUOUS
  5
267
 10
163.943384
 20
150.337205
 30
0.0
 11
166.943384
 21
153.337205
 31
0.0
  0
LINE
  8
LC-007-005-----0
  6
CONTINUOUS
  5
268
 10
161.114956
 20
150.337205
 30
0.0
 11
164.114956
 21
153.337205
 31
0.0
  0
LINE
  8
LC-007-005-----0
  6
CONTINUOUS
  5
269
 10
158.280463
 20
150.331139
 30
0.0
 11
161.286529
 21
153.337205
 31
0.0
  0
LINE
  8
LC-007-005-----0
  6
CONTINUOUS
  5
26A
 10
158.268563
 20
153.147666
 30
0.0
 11
161.268563
 21
156.147666
 31
0.0
  0
LINE
  8
LC-007-005-----0
  6
CONTINUOUS
  5
26B
 10
157.949119
 20
155.656649
 30
0.0
 11
161.268563
 21
158.976094
 31
0.0
  0
LINE
  8
LC-007-005-----0
  6
CONTINUOUS
  5
26C
 10
157.518563
 20
158.054521
 30
0.0
 11
159.301248
 21
159.837205
 31
0.0
  0
ARC
  8
LC-005-002-RND-0
  6
CONTINUOUS
  5
26D
 10
51.768563
 20
143.337205
 30
0.0
 40
7.0
 50
90.0
 51
180.0
  0
LINE
  8
LC-007-005-----0
  6
CONTINUOUS
  5
26E
 10
56.463153
 20
150.337205
 30
0.0
 11
59.463153
 21
153.337205
 31
0.0
  0
LINE
  8
LC-007-005-----0
  6
CONTINUOUS
  5
26F
 10
53.634726
 20
150.337205
 30
0.0
 11
56.634726
 21
153.337205
 31
0.0
  0
LINE
  8
LC-007-005-----0
  6
CONTINUOUS
  5
270
 10
50.806299
 20
150.337205
 30
0.0
 11
53.806299
 21
153.337205
 31
0.0
  0
LINE
  8
LC-001-002-----0
  6
CONTINUOUS
  5
271
 10
158.286529
 20
150.337205
 30
0.0
 11
176.768563
 21
150.337205
 31
0.0
  0
LINE
  8
LC-001-002-----0
  6
CONTINUOUS
  5
272
 10
183.768563
 20
137.337205
 30
0.0
 11
183.768563
 21
143.337205
 31
0.0
  0
ARC
  8
LC-005-002-RND-0
  6
CONTINUOUS
  5
273
 10
176.768563
 20
143.337205
 30
0.0
 40
7.0
 50
0.0
 51
90.0
  0
LINE
  8
LC-001-002-----0
  6
CONTINUOUS
 62
     2
  5
274
 10
183.768563
 20
44.337205
 30
0.0
 11
44.768563
 21
44.337205
 31
0.0
  0
ENDSEC
  0
EOF
