  0
SECTION
  2
HEADER
  9
$ACADVER
  1
AC1009
  9
$INSBASE
 10
0.0
 20
0.0
 30
0.0
  9
$EXTMIN
 10
0.0
 20
0.0
 30
0.0
  9
$EXTMAX
 10
840.0
 20
594.0
 30
0.0
  9
$LIMMIN
 10
0.0
 20
0.0
  9
$LIMMAX
 10
840.0
 20
594.0
  9
$ORTHOMODE
 70
     0
  9
$REGENMODE
 70
     1
  9
$FILLMODE
 70
     1
  9
$QTEXTMODE
 70
     0
  9
$MIRRTEXT
 70
     1
  9
$DRAGMODE
 70
     2
  9
$LTSCALE
 40
2.0
  9
$OSMODE
 70
     0
  9
$ATTMODE
 70
     1
  9
$TEXTSIZE
 40
0.2
  9
$TRACEWID
 40
0.05
  9
$TEXTSTYLE
  7
STANDARD
  9
$CLAYER
  8
0
  9
$CELTYPE
  6
BYLAYER
  9
$CECOLOR
 62
     7
  9
$DIMSCALE
 40
2.0
  9
$DIMASZ
 40
3.5
  9
$DIMEXO
 40
0.0625
  9
$DIMDLI
 40
0.38
  9
$DIMRND
 40
0.0
  9
$DIMDLE
 40
0.0
  9
$DIMEXE
 40
0.18
  9
$DIMTP
 40
0.0
  9
$DIMTM
 40
0.0
  9
$DIMTXT
 40
3.5
  9
$DIMCEN
 40
0.09
  9
$DIMTSZ
 40
0.0
  9
$DIMTOL
 70
     0
  9
$DIMLIM
 70
     0
  9
$DIMTIH
 70
     1
  9
$DIMTOH
 70
     1
  9
$DIMSE1
 70
     0
  9
$DIMSE2
 70
     0
  9
$DIMTAD
 70
     1
  9
$DIMZIN
 70
     0
  9
$DIMBLK
  1

  9
$DIMASO
 70
     1
  9
$DIMSHO
 70
     1
  9
$DIMPOST
  1

  9
$DIMAPOST
  1

  9
$DIMALT
 70
     0
  9
$DIMALTD
 70
     2
  9
$DIMALTF
 40
25.4
  9
$DIMLFAC
 40
1.0
  9
$DIMTOFL
 70
     0
  9
$DIMTVP
 40
0.0
  9
$DIMTIX
 70
     0
  9
$DIMSOXD
 70
     0
  9
$DIMSAH
 70
     0
  9
$DIMBLK1
  1

  9
$DIMBLK2
  1

  9
$DIMSTYLE
  2
STANDARD
  9
$DIMCLRD
 70
     0
  9
$DIMCLRE
 70
     0
  9
$DIMCLRT
 70
     0
  9
$DIMTFAC
 40
1.0
  9
$DIMGAP
 40
0.09
  9
$LUNITS
 70
     2
  9
$LUPREC
 70
     2
  9
$AXISMODE
 70
     0
  9
$AXISUNIT
 10
0.0
 20
0.0
  9
$SKETCHINC
 40
0.1
  9
$FILLETRAD
 40
0.0
  9
$AUNITS
 70
     0
  9
$AUPREC
 70
     0
  9
$MENU
  1
acad
  9
$ELEVATION
 40
0.0
  9
$PELEVATION
 40
0.0
  9
$THICKNESS
 40
0.0
  9
$LIMCHECK
 70
     0
  9
$BLIPMODE
 70
     1
  9
$CHAMFERA
 40
0.0
  9
$CHAMFERB
 40
0.0
  9
$SKPOLY
 70
     0
  9
$TDCREATE
 40
0.000000000
  9
$TDUPDATE
 40
0.000000000
  9
$TDINDWG
 40
0.0000000000
  9
$TDUSRTIMER
 40
0.0000000000
  9
$USRTIMER
 70
     1
  9
$ANGBASE
 50
0.0
  9
$ANGDIR
 70
     0
  9
$PDMODE
 70
     0
  9
$PDSIZE
 40
0.0
  9
$PLINEWID
 40
0.0
  9
$COORDS
 70
     0
  9
$SPLFRAME
 70
     0
  9
$SPLINETYPE
 70
     6
  9
$SPLINESEGS
 70
     8
  9
$ATTDIA
 70
     0
  9
$ATTREQ
 70
     1
  9
$HANDLING
 70
     1
  9
$HANDSEED
  5
410
  9
$SURFTAB1
 70
     6
  9
$SURFTAB2
 70
     6
  9
$SURFTYPE
 70
     6
  9
$SURFU
 70
     6
  9
$SURFV
 70
     6
  9
$UCSNAME
  2

  9
$UCSORG
 10
0.0
 20
0.0
 30
0.0
  9
$UCSXDIR
 10
1.0
 20
0.0
 30
0.0
  9
$UCSYDIR
 10
0.0
 20
1.0
 30
0.0
  9
$PUCSNAME
  2

  9
$PUCSORG
 10
0.0
 20
0.0
 30
0.0
  9
$PUCSXDIR
 10
1.0
 20
0.0
 30
0.0
  9
$PUCSYDIR
 10
0.0
 20
1.0
 30
0.0
  9
$USERI1
 70
     0
  9
$USERI2
 70
     0
  9
$USERI3
 70
     0
  9
$USERI4
 70
     0
  9
$USERI5
 70
     0
  9
$USERR1
 40
0.0
  9
$USERR2
 40
0.0
  9
$USERR3
 40
0.0
  9
$USERR4
 40
0.0
  9
$USERR5
 40
0.0
  9
$WORLDVIEW
 70
     1
  9
$SHADEDGE
 70
     3
  9
$SHADEDIF
 70
    70
  9
$TILEMODE
 70
     1
  9
$MAXACTVP
 70
    16
  9
$PINSBASE
 10
0.0
 20
0.0
 30
0.0
  9
$PLIMCHECK
 70
     0
  9
$PEXTMIN
 10
1.000000E+20
 20
1.000000E+20
 30
1.000000E+20
  9
$PEXTMAX
 10
-1.000000E+20
 20
-1.000000E+20
 30
-1.000000E+20
  9
$PLIMMIN
 10
0.0
 20
0.0
  9
$PLIMMAX
 10
840.0
 20
594.0
  9
$UNITMODE
 70
     0
  9
$VISRETAIN
 70
     0
  9
$PLINEGEN
 70
     1
  9
$PSLTSCALE
 70
     0
  9
$TREEDEPTH
 70
  3020
  9
$DWGCODEPAGE
  3
dos850
  0
ENDSEC
  0
SECTION
  2
TABLES
  0
TABLE
  2
VPORT
 70
     1
  0
VPORT
  2
*ACTIVE
 70
     0
 10
0.0
 20
0.0
 11
1.0
 21
1.0
 12
420.0
 22
297.0
 13
0.0
 23
0.0
 14
1.0
 24
1.0
 15
0.0
 25
0.0
 16
0.0
 26
0.0
 36
1.0
 17
0.0
 27
0.0
 37
0.0
 40
594.0
 41
1.604229
 42
50.0
 43
0.0
 44
0.0
 50
0.0
 51
0.0
 71
     0
 72
   100
 73
     1
 74
     1
 75
     0
 76
     0
 77
     0
 78
     0
  0
ENDTAB
  0
TABLE
  2
LTYPE
 70
     3
  0
LTYPE
  2
CONTINUOUS
 70
    64
  3
Solid line
 72
    65
 73
     0
 40
0.0
  0
LTYPE
  2
DASHED
 70
    64
  3
__ __ __ __ __
 72
    65
 73
     2
 40
6.25
 49
5.0
 49
-1.25
  0
LTYPE
  2
DASHDOT
 70
    64
  3
__ . __ . __ . __ . __
 72
    65
 73
     4
 40
7.5
 49
5.0
 49
-1.25
 49
0.0
 49
-1.25
  0
ENDTAB
  0
TABLE
  2
LAYER
 70
    12
  0
LAYER
  2
0
 70
     0
 62
     7
  6
CONTINUOUS
  0
LAYER
  2
LC-INFO-1-2-MM-A3-0
 70
     1
 62
    -1
  6
CONTINUOUS
  0
LAYER
  2
LC-004-005-----0
 70
     0
 62
     2
  6
CONTINUOUS
  0
LAYER
  2
LC-006-003-MTH-0
 70
     0
 62
     2
  6
CONTINUOUS
  0
LAYER
  2
LC-007-003-MTG-0
 70
     0
 62
     2
  6
CONTINUOUS
  0
LAYER
  2
LC-005-003-----0
 70
     0
 62
     2
  6
CONTINUOUS
  0
LAYER
  2
LC-008-000-----0
 70
     0
 62
     7
  6
CONTINUOUS
  0
LAYER
  2
LC-009-000-----0
 70
     0
 62
     7
  6
CONTINUOUS
  0
LAYER
  2
LC-001-002-----0
 70
     0
 62
     1
  6
CONTINUOUS
  0
LAYER
  2
LC-002-002-RND-0
 70
     0
 62
     1
  6
CONTINUOUS
  0
LAYER
  2
LC-003-001-----0
 70
     0
 62
     1
  6
CONTINUOUS
  0
LAYER
  2
LC-000
 70
     0
 62
     7
  6
CONTINUOUS
  0
ENDTAB
  0
TABLE
  2
STYLE
 70
     5
  0
STYLE
  2
STANDARD
 70
     0
 40
0.0
 41
1.0
 50
0.0
 71
     0
 42
0.0
  3
txt
  4

  0
STYLE
  2
LC-STANDARD
 70
    64
 40
0.0
 41
1.0
 50
0.0
 71
     0
 42
3.5
  3
MONOTXT
  4

  0
STYLE
  2
LC-TXTSTYLE-150-400-0-0-D2
 70
    64
 40
0.0
 41
1.0
 50
15.0
 71
     0
 42
3.5
  3
MONOTXT
  4

  0
STYLE
  2
LC-TXTSTYLE-0-400-0-0-DIN3
 70
    64
 40
0.0
 41
1.0
 50
0.0
 71
     0
 42
3.5
  3
MONOTXT
  4

  0
STYLE
  2
LC-TXTSTYLE-150-400-0-0-D4
 70
    64
 40
0.0
 41
1.0
 50
15.0
 71
     0
 42
3.5
  3
LC-STANDARD
  4

  0
ENDTAB
  0
TABLE
  2
VIEW
 70
     0
  0
ENDTAB
  0
TABLE
  2
UCS
 70
     0
  0
ENDTAB
  0
TABLE
  2
APPID
 70
     1
  0
APPID
  2
ACAD
 70
     0
  0
ENDTAB
  0
TABLE
  2
DIMSTYLE
 70
     3
  0
DIMSTYLE
  2
STANDARD
 70
     0
  3

  4

  5

  6

  7

 40
1.0
 41
0.18
 42
0.0625
 43
0.38
 44
0.18
 45
0.0
 46
0.0
 47
0.0
 48
0.0
 71
     0
 72
     0
 73
     1
 74
     1
 75
     0
 76
     0
 77
     0
 78
     0
140
0.18
141
0.09
142
0.0
143
25.4
144
1.0
145
0.0
146
1.0
147
0.09
170
     0
171
     2
172
     0
173
     0
174
     0
175
     0
176
     0
177
     0
178
     0
  0
DIMSTYLE
  2
LC-STANDARD
 70
     0
  3

  4

  5

  6

  7

 40
1.0
 41
3.5
 42
0.0
 43
7.5
 44
1.8
 45
0.0
 46
0.0
 47
0.0
 48
0.0
 71
     0
 72
     0
 73
     0
 74
     0
 75
     0
 76
     0
 77
     1
 78
     8
140
3.5
141
0.0
142
0.0
143
25.4
144
1.0
145
0.0
146
0.71
147
1.5
170
     0
171
     2
172
     1
173
     0
174
     0
175
     0
176
     0
177
     0
178
     3
  0
DIMSTYLE
  2
LC-DIM-L-0090-02-02
 70
     0
  3

  4

  5

  6

  7

 40
2.0
 41
3.5
 42
0.0
 43
7.5
 44
1.8
 45
0.0
 46
0.0
 47
0.0
 48
0.0
 71
     0
 72
     0
 73
     0
 74
     0
 75
     0
 76
     0
 77
     1
 78
     8
140
9.0
141
0.0
142
0.0
143
25.4
144
1.0
145
0.0
146
0.71
147
1.5
170
     0
171
     2
172
     0
173
     0
174
     0
175
     0
176
     2
177
     2
178
     6
  0
ENDTAB
  0
ENDSEC
  0
SECTION
  2
BLOCKS
  0
BLOCK
  8
0
  5
24
  2
*X0
 70
    65
 10
183.804675
 20
231.752492
 30
0.0
  3
*X0
  0
LINE
  8
LC-004-005-----0
  6
CONTINUOUS
  5
26
 10
201.056848
 20
319.373743
 30
0.0
 11
200.378025
 21
320.052566
 31
0.0
  0
LINE
  8
LC-004-005-----0
  6
CONTINUOUS
  5
27
 10
201.056848
 20
316.545316
 30
0.0
 11
197.549598
 21
320.052566
 31
0.0
  0
LINE
  8
LC-004-005-----0
  6
CONTINUOUS
  5
28
 10
197.254675
 20
320.347489
 30
0.0
 11
195.849598
 21
321.752566
 31
0.0
  0
LINE
  8
LC-004-005-----0
  6
CONTINUOUS
  5
29
 10
201.056848
 20
313.716889
 30
0.0
 11
193.021171
 21
321.752566
 31
0.0
  0
LINE
  8
LC-004-005-----0
  6
CONTINUOUS
  5
2A
 10
190.004675
 20
324.769062
 30
0.0
 11
188.821171
 21
325.952566
 31
0.0
  0
LINE
  8
LC-004-005-----0
  6
CONTINUOUS
  5
2B
 10
201.056848
 20
310.888461
 30
0.0
 11
190.192744
 21
321.752566
 31
0.0
  0
LINE
  8
LC-004-005-----0
  6
CONTINUOUS
  5
2C
 10
190.004675
 20
321.940635
 30
0.0
 11
186.256909
 21
325.688401
 31
0.0
  0
LINE
  8
LC-004-005-----0
  6
CONTINUOUS
  5
2D
 10
206.805142
 20
302.31174
 30
0.0
 11
205.366718
 21
303.750165
 31
0.0
  0
LINE
  8
LC-004-005-----0
  6
CONTINUOUS
  5
2E
 10
201.056848
 20
308.060034
 30
0.0
 11
193.807046
 21
315.309837
 31
0.0
  0
LINE
  8
LC-004-005-----0
  6
CONTINUOUS
  5
2F
 10
191.864317
 20
317.252566
 30
0.0
 11
186.104675
 21
323.012208
 31
0.0
  0
LINE
  8
LC-004-005-----0
  6
CONTINUOUS
  5
30
 10
206.805142
 20
299.483313
 30
0.0
 11
202.538423
 21
303.750033
 31
0.0
  0
LINE
  8
LC-004-005-----0
  6
CONTINUOUS
  5
31
 10
201.056848
 20
305.231607
 30
0.0
 11
193.806966
 21
312.481489
 31
0.0
  0
LINE
  8
LC-004-005-----0
  6
CONTINUOUS
  5
32
 10
189.618171
 20
316.670285
 30
0.0
 11
186.104675
 21
320.183781
 31
0.0
  0
LINE
  8
LC-004-005-----0
  6
CONTINUOUS
  5
33
 10
206.805142
 20
296.654886
 30
0.0
 11
204.30494
 21
299.155088
 31
0.0
  0
LINE
  8
LC-004-005-----0
  6
CONTINUOUS
  5
34
 10
201.710034
 20
301.749994
 30
0.0
 11
193.806886
 21
309.653142
 31
0.0
  0
LINE
  8
LC-004-005-----0
  6
CONTINUOUS
  5
35
 10
189.304675
 20
314.155354
 30
0.0
 11
186.104675
 21
317.355354
 31
0.0
  0
LINE
  8
LC-004-005-----0
  6
CONTINUOUS
  5
36
 10
206.805142
 20
293.826459
 30
0.0
 11
204.30494
 21
296.326661
 31
0.0
  0
LINE
  8
LC-004-005-----0
  6
CONTINUOUS
  5
37
 10
198.886846
 20
301.744755
 30
0.0
 11
193.806807
 21
306.824794
 31
0.0
  0
LINE
  8
LC-004-005-----0
  6
CONTINUOUS
  5
38
 10
188.879035
 20
311.752566
 30
0.0
 11
186.104675
 21
314.526927
 31
0.0
  0
LINE
  8
LC-004-005-----0
  6
CONTINUOUS
  5
39
 10
185.304675
 20
315.326927
 30
0.0
 11
183.879035
 21
316.752566
 31
0.0
  0
LINE
  8
LC-004-005-----0
  6
CONTINUOUS
  5
3A
 10
206.054843
 20
291.748331
 30
0.0
 11
204.30494
 21
293.498234
 31
0.0
  0
LINE
  8
LC-004-005-----0
  6
CONTINUOUS
  5
3B
 10
197.214276
 20
300.588898
 30
0.0
 11
193.806727
 21
303.996447
 31
0.0
  0
LINE
  8
LC-004-005-----0
  6
CONTINUOUS
  5
3C
 10
186.050608
 20
311.752566
 30
0.0
 11
183.804675
 21
313.998499
 31
0.0
  0
LINE
  8
LC-004-005-----0
  6
CONTINUOUS
  5
3D
 10
197.029781
 20
297.944965
 30
0.0
 11
193.806647
 21
301.168099
 31
0.0
  0
LINE
  8
LC-004-005-----0
  6
CONTINUOUS
  5
3E
 10
197.029795
 20
295.116524
 30
0.0
 11
193.806568
 21
298.339752
 31
0.0
  0
LINE
  8
LC-004-005-----0
  6
CONTINUOUS
  5
3F
 10
197.029809
 20
292.288083
 30
0.0
 11
193.806488
 21
295.511404
 31
0.0
  0
LINE
  8
LC-004-005-----0
  6
CONTINUOUS
  5
40
 10
197.029823
 20
289.459642
 30
0.0
 11
193.806408
 21
292.683057
 31
0.0
  0
LINE
  8
LC-004-005-----0
  6
CONTINUOUS
  5
41
 10
197.029837
 20
286.631201
 30
0.0
 11
193.806329
 21
289.85471
 31
0.0
  0
LINE
  8
LC-004-005-----0
  6
CONTINUOUS
  5
42
 10
197.029851
 20
283.80276
 30
0.0
 11
193.806249
 21
287.026362
 31
0.0
  0
LINE
  8
LC-004-005-----0
  6
CONTINUOUS
  5
43
 10
197.029865
 20
280.974319
 30
0.0
 11
193.80617
 21
284.198015
 31
0.0
  0
LINE
  8
LC-004-005-----0
  6
CONTINUOUS
  5
44
 10
197.029879
 20
278.145878
 30
0.0
 11
193.80609
 21
281.369667
 31
0.0
  0
LINE
  8
LC-004-005-----0
  6
CONTINUOUS
  5
45
 10
197.029893
 20
275.317437
 30
0.0
 11
193.80601
 21
278.54132
 31
0.0
  0
LINE
  8
LC-004-005-----0
  6
CONTINUOUS
  5
46
 10
197.029907
 20
272.488996
 30
0.0
 11
193.805931
 21
275.712972
 31
0.0
  0
LINE
  8
LC-004-005-----0
  6
CONTINUOUS
  5
47
 10
197.029921
 20
269.660555
 30
0.0
 11
193.805851
 21
272.884625
 31
0.0
  0
LINE
  8
LC-004-005-----0
  6
CONTINUOUS
  5
48
 10
197.029934
 20
266.832114
 30
0.0
 11
193.805771
 21
270.056277
 31
0.0
  0
LINE
  8
LC-004-005-----0
  6
CONTINUOUS
  5
49
 10
197.029948
 20
264.003673
 30
0.0
 11
193.805692
 21
267.22793
 31
0.0
  0
LINE
  8
LC-004-005-----0
  6
CONTINUOUS
  5
4A
 10
197.029962
 20
261.175232
 30
0.0
 11
193.805612
 21
264.399582
 31
0.0
  0
LINE
  8
LC-004-005-----0
  6
CONTINUOUS
  5
4B
 10
197.029976
 20
258.346791
 30
0.0
 11
193.805532
 21
261.571235
 31
0.0
  0
LINE
  8
LC-004-005-----0
  6
CONTINUOUS
  5
4C
 10
197.029956
 20
255.518384
 30
0.0
 11
193.805453
 21
258.742887
 31
0.0
  0
LINE
  8
LC-004-005-----0
  6
CONTINUOUS
  5
4D
 10
197.029927
 20
252.689986
 30
0.0
 11
193.805373
 21
255.91454
 31
0.0
  0
LINE
  8
LC-004-005-----0
  6
CONTINUOUS
  5
4E
 10
197.029897
 20
249.861588
 30
0.0
 11
193.805293
 21
253.086192
 31
0.0
  0
LINE
  8
LC-004-005-----0
  6
CONTINUOUS
  5
4F
 10
197.029868
 20
247.03319
 30
0.0
 11
193.805214
 21
250.257845
 31
0.0
  0
LINE
  8
LC-004-005-----0
  6
CONTINUOUS
  5
50
 10
197.029839
 20
244.204793
 30
0.0
 11
193.805134
 21
247.429497
 31
0.0
  0
LINE
  8
LC-004-005-----0
  6
CONTINUOUS
  5
51
 10
197.029809
 20
241.376395
 30
0.0
 11
193.805054
 21
244.60115
 31
0.0
  0
LINE
  8
LC-004-005-----0
  6
CONTINUOUS
  5
52
 10
197.02978
 20
238.547997
 30
0.0
 11
193.804975
 21
241.772802
 31
0.0
  0
LINE
  8
LC-004-005-----0
  6
CONTINUOUS
  5
53
 10
197.029751
 20
235.7196
 30
0.0
 11
193.804895
 21
238.944455
 31
0.0
  0
LINE
  8
LC-004-005-----0
  6
CONTINUOUS
  5
54
 10
197.029721
 20
232.891202
 30
0.0
 11
193.804816
 21
236.116107
 31
0.0
  0
LINE
  8
LC-004-005-----0
  6
CONTINUOUS
  5
55
 10
195.339965
 20
231.752531
 30
0.0
 11
193.804736
 21
233.28776
 31
0.0
  0
ENDBLK
  8
0
  5
56
  0
BLOCK
  8
0
  5
58
  2
*X1
 70
    65
 10
313.804207
 20
231.752492
 30
0.0
  3
*X1
  0
LINE
  8
LC-004-005-----0
  6
CONTINUOUS
  5
59
 10
334.504675
 20
324.518846
 30
0.0
 11
333.070954
 21
325.952566
 31
0.0
  0
LINE
  8
LC-004-005-----0
  6
CONTINUOUS
  5
5A
 10
334.504675
 20
321.690418
 30
0.0
 11
330.662936
 21
325.532157
 31
0.0
  0
LINE
  8
LC-004-005-----0
  6
CONTINUOUS
  5
5B
 10
336.804675
 20
316.561991
 30
0.0
 11
336.6141
 21
316.752566
 31
0.0
  0
LINE
  8
LC-004-005-----0
  6
CONTINUOUS
  5
5C
 10
334.504675
 20
318.861991
 30
0.0
 11
330.604675
 21
322.761991
 31
0.0
  0
LINE
  8
LC-004-005-----0
  6
CONTINUOUS
  5
5D
 10
336.804675
 20
313.733564
 30
0.0
 11
335.304675
 21
315.233564
 31
0.0
  0
LINE
  8
LC-004-005-----0
  6
CONTINUOUS
  5
5E
 10
334.504675
 20
316.033564
 30
0.0
 11
328.785673
 21
321.752566
 31
0.0
  0
LINE
  8
LC-004-005-----0
  6
CONTINUOUS
  5
5F
 10
335.957246
 20
311.752566
 30
0.0
 11
325.957246
 21
321.752566
 31
0.0
  0
LINE
  8
LC-004-005-----0
  6
CONTINUOUS
  5
60
 10
333.128819
 20
311.752566
 30
0.0
 11
331.304675
 21
313.57671
 31
0.0
  0
LINE
  8
LC-004-005-----0
  6
CONTINUOUS
  5
61
 10
327.738717
 20
317.142668
 30
0.0
 11
323.459826
 21
321.421558
 31
0.0
  0
LINE
  8
LC-004-005-----0
  6
CONTINUOUS
  5
62
 10
326.802305
 20
315.250652
 30
0.0
 11
322.000392
 21
320.052566
 31
0.0
  0
LINE
  8
LC-004-005-----0
  6
CONTINUOUS
  5
63
 10
326.802385
 20
312.422145
 30
0.0
 11
319.552501
 21
319.672029
 31
0.0
  0
LINE
  8
LC-004-005-----0
  6
CONTINUOUS
  5
64
 10
326.802464
 20
309.593639
 30
0.0
 11
319.552501
 21
316.843602
 31
0.0
  0
LINE
  8
LC-004-005-----0
  6
CONTINUOUS
  5
65
 10
326.802544
 20
306.765132
 30
0.0
 11
319.552501
 21
314.015175
 31
0.0
  0
LINE
  8
LC-004-005-----0
  6
CONTINUOUS
  5
66
 10
326.802624
 20
303.936625
 30
0.0
 11
319.552501
 21
311.186748
 31
0.0
  0
LINE
  8
LC-004-005-----0
  6
CONTINUOUS
  5
67
 10
326.802703
 20
301.108118
 30
0.0
 11
319.552501
 21
308.358321
 31
0.0
  0
LINE
  8
LC-004-005-----0
  6
CONTINUOUS
  5
68
 10
326.802783
 20
298.279612
 30
0.0
 11
319.552501
 21
305.529894
 31
0.0
  0
LINE
  8
LC-004-005-----0
  6
CONTINUOUS
  5
69
 10
326.802863
 20
295.451105
 30
0.0
 11
323.579571
 21
298.674396
 31
0.0
  0
LINE
  8
LC-004-005-----0
  6
CONTINUOUS
  5
6A
 10
320.504049
 20
301.749919
 30
0.0
 11
318.503955
 21
303.750012
 31
0.0
  0
LINE
  8
LC-004-005-----0
  6
CONTINUOUS
  5
6B
 10
326.802942
 20
292.622598
 30
0.0
 11
323.579557
 21
295.845983
 31
0.0
  0
LINE
  8
LC-004-005-----0
  6
CONTINUOUS
  5
6C
 10
317.753026
 20
301.672514
 30
0.0
 11
315.675396
 21
303.750145
 31
0.0
  0
LINE
  8
LC-004-005-----0
  6
CONTINUOUS
  5
6D
 10
326.803022
 20
289.794091
 30
0.0
 11
323.579543
 21
293.01757
 31
0.0
  0
LINE
  8
LC-004-005-----0
  6
CONTINUOUS
  5
6E
 10
316.363704
 20
300.23341
 30
0.0
 11
313.804207
 21
302.792906
 31
0.0
  0
LINE
  8
LC-004-005-----0
  6
CONTINUOUS
  5
6F
 10
326.803102
 20
286.965585
 30
0.0
 11
323.579529
 21
290.189157
 31
0.0
  0
LINE
  8
LC-004-005-----0
  6
CONTINUOUS
  5
70
 10
316.304409
 20
297.464277
 30
0.0
 11
313.804207
 21
299.964479
 31
0.0
  0
LINE
  8
LC-004-005-----0
  6
CONTINUOUS
  5
71
 10
326.803181
 20
284.137078
 30
0.0
 11
323.579516
 21
287.360743
 31
0.0
  0
LINE
  8
LC-004-005-----0
  6
CONTINUOUS
  5
72
 10
316.304409
 20
294.63585
 30
0.0
 11
313.804207
 21
297.136052
 31
0.0
  0
LINE
  8
LC-004-005-----0
  6
CONTINUOUS
  5
73
 10
326.803261
 20
281.308571
 30
0.0
 11
323.579502
 21
284.53233
 31
0.0
  0
LINE
  8
LC-004-005-----0
  6
CONTINUOUS
  5
74
 10
316.304409
 20
291.807423
 30
0.0
 11
313.804207
 21
294.307625
 31
0.0
  0
LINE
  8
LC-004-005-----0
  6
CONTINUOUS
  5
75
 10
326.803341
 20
278.480064
 30
0.0
 11
323.579488
 21
281.703917
 31
0.0
  0
LINE
  8
LC-004-005-----0
  6
CONTINUOUS
  5
76
 10
326.80342
 20
275.651557
 30
0.0
 11
323.579474
 21
278.875504
 31
0.0
  0
LINE
  8
LC-004-005-----0
  6
CONTINUOUS
  5
77
 10
326.8035
 20
272.823051
 30
0.0
 11
323.57946
 21
276.047091
 31
0.0
  0
LINE
  8
LC-004-005-----0
  6
CONTINUOUS
  5
78
 10
326.803579
 20
269.994544
 30
0.0
 11
323.579446
 21
273.218677
 31
0.0
  0
LINE
  8
LC-004-005-----0
  6
CONTINUOUS
  5
79
 10
326.803659
 20
267.166037
 30
0.0
 11
323.579432
 21
270.390264
 31
0.0
  0
LINE
  8
LC-004-005-----0
  6
CONTINUOUS
  5
7A
 10
326.803739
 20
264.33753
 30
0.0
 11
323.579418
 21
267.561851
 31
0.0
  0
LINE
  8
LC-004-005-----0
  6
CONTINUOUS
  5
7B
 10
326.803818
 20
261.509024
 30
0.0
 11
323.579404
 21
264.733438
 31
0.0
  0
LINE
  8
LC-004-005-----0
  6
CONTINUOUS
  5
7C
 10
326.803898
 20
258.680517
 30
0.0
 11
323.57939
 21
261.905025
 31
0.0
  0
LINE
  8
LC-004-005-----0
  6
CONTINUOUS
  5
7D
 10
326.803978
 20
255.85201
 30
0.0
 11
323.579376
 21
259.076611
 31
0.0
  0
LINE
  8
LC-004-005-----0
  6
CONTINUOUS
  5
7E
 10
326.804057
 20
253.023503
 30
0.0
 11
323.579385
 21
256.248175
 31
0.0
  0
LINE
  8
LC-004-005-----0
  6
CONTINUOUS
  5
7F
 10
326.804137
 20
250.194996
 30
0.0
 11
323.579415
 21
253.419719
 31
0.0
  0
LINE
  8
LC-004-005-----0
  6
CONTINUOUS
  5
80
 10
326.804217
 20
247.36649
 30
0.0
 11
323.579444
 21
250.591262
 31
0.0
  0
LINE
  8
LC-004-005-----0
  6
CONTINUOUS
  5
81
 10
326.804296
 20
244.537983
 30
0.0
 11
323.579473
 21
247.762806
 31
0.0
  0
LINE
  8
LC-004-005-----0
  6
CONTINUOUS
  5
82
 10
326.804376
 20
241.709476
 30
0.0
 11
323.579503
 21
244.934349
 31
0.0
  0
LINE
  8
LC-004-005-----0
  6
CONTINUOUS
  5
83
 10
326.804456
 20
238.880969
 30
0.0
 11
323.579532
 21
242.105893
 31
0.0
  0
LINE
  8
LC-004-005-----0
  6
CONTINUOUS
  5
84
 10
326.804535
 20
236.052463
 30
0.0
 11
323.579562
 21
239.277436
 31
0.0
  0
LINE
  8
LC-004-005-----0
  6
CONTINUOUS
  5
85
 10
326.804615
 20
233.223956
 30
0.0
 11
323.579591
 21
236.44898
 31
0.0
  0
LINE
  8
LC-004-005-----0
  6
CONTINUOUS
  5
86
 10
325.447609
 20
231.752535
 30
0.0
 11
323.57962
 21
233.620523
 31
0.0
  0
ENDBLK
  8
0
  5
87
  0
BLOCK
  8
0
  5
89
  2
*D2
 70
    65
 10
0.0
 20
0.0
 30
0.0
  3
*D2
  0
LINE
  8
LC-006-003-MTH-0
  6
CONTINUOUS
  5
8B
 10
185.304675
 20
325.252566
 30
0.0
 11
185.304675
 21
430.8
 31
0.0
  0
LINE
  8
LC-006-003-MTH-0
  6
CONTINUOUS
  5
8C
 10
335.304675
 20
325.252566
 30
0.0
 11
335.304675
 21
430.8
 31
0.0
  0
LINE
  8
LC-007-003-MTG-0
  6
CONTINUOUS
  5
8E
 10
185.304675
 20
420.0
 30
0.0
 11
335.304675
 21
420.0
 31
0.0
  0
LINE
  8
LC-005-003-----0
  6
CONTINUOUS
  5
90
 10
203.150682
 20
422.349471
 30
0.0
 11
185.304675
 21
420.0
 31
0.0
  0
LINE
  8
LC-005-003-----0
  6
CONTINUOUS
  5
91
 10
185.304675
 20
420.0
 30
0.0
 11
203.150682
 21
417.650529
 31
0.0
  0
LINE
  8
LC-005-003-----0
  6
CONTINUOUS
  5
92
 10
203.150682
 20
417.650529
 30
0.0
 11
203.150682
 21
422.349471
 31
0.0
  0
LINE
  8
LC-005-003-----0
  6
CONTINUOUS
  5
93
 10
203.19072
 20
421.738609
 30
0.0
 11
189.984675
 21
420.0
 31
0.0
  0
LINE
  8
LC-005-003-----0
  6
CONTINUOUS
  5
94
 10
189.984675
 20
420.0
 30
0.0
 11
203.19072
 21
418.261391
 31
0.0
  0
LINE
  8
LC-005-003-----0
  6
CONTINUOUS
  5
95
 10
203.230758
 20
421.127746
 30
0.0
 11
194.664675
 21
420.0
 31
0.0
  0
LINE
  8
LC-005-003-----0
  6
CONTINUOUS
  5
96
 10
194.664675
 20
420.0
 30
0.0
 11
203.230758
 21
418.872254
 31
0.0
  0
LINE
  8
LC-005-003-----0
  6
CONTINUOUS
  5
97
 10
203.270796
 20
420.516884
 30
0.0
 11
199.344675
 21
420.0
 31
0.0
  0
LINE
  8
LC-005-003-----0
  6
CONTINUOUS
  5
98
 10
199.344675
 20
420.0
 30
0.0
 11
203.270796
 21
419.483116
 31
0.0
  0
LINE
  8
LC-005-003-----0
  6
CONTINUOUS
  5
99
 10
317.458667
 20
417.650529
 30
0.0
 11
335.304675
 21
420.0
 31
0.0
  0
LINE
  8
LC-005-003-----0
  6
CONTINUOUS
  5
9A
 10
335.304675
 20
420.0
 30
0.0
 11
317.458667
 21
422.349471
 31
0.0
  0
LINE
  8
LC-005-003-----0
  6
CONTINUOUS
  5
9B
 10
317.458667
 20
422.349471
 30
0.0
 11
317.458667
 21
417.650529
 31
0.0
  0
LINE
  8
LC-005-003-----0
  6
CONTINUOUS
  5
9C
 10
317.418629
 20
418.261391
 30
0.0
 11
330.624675
 21
420.0
 31
0.0
  0
LINE
  8
LC-005-003-----0
  6
CONTINUOUS
  5
9D
 10
330.624675
 20
420.0
 30
0.0
 11
317.418629
 21
421.738609
 31
0.0
  0
LINE
  8
LC-005-003-----0
  6
CONTINUOUS
  5
9E
 10
317.378591
 20
418.872254
 30
0.0
 11
325.944675
 21
420.0
 31
0.0
  0
LINE
  8
LC-005-003-----0
  6
CONTINUOUS
  5
9F
 10
325.944675
 20
420.0
 30
0.0
 11
317.378591
 21
421.127746
 31
0.0
  0
LINE
  8
LC-005-003-----0
  6
CONTINUOUS
  5
A0
 10
317.338553
 20
419.483116
 30
0.0
 11
321.264675
 21
420.0
 31
0.0
  0
LINE
  8
LC-005-003-----0
  6
CONTINUOUS
  5
A1
 10
321.264675
 20
420.0
 30
0.0
 11
317.338553
 21
420.516884
 31
0.0
  0
TEXT
  8
LC-005-003-----0
  6
CONTINUOUS
 62
     6
  5
A3
 10
246.918132
 20
425.031999
 30
0.0
 40
18.0
  1
150
 41
0.9
 51
15.0
  7
LC-TXTSTYLE-150-400-0-0-D0
 72
     1
 11
266.05199
 21
425.031999
 31
0.0
  0
ENDBLK
  8
0
  5
A4
  0
BLOCK
  8
0
  5
A6
  2
*X3
 70
    65
 10
190.985153
 20
323.752566
 30
0.0
  3
*X3
  0
LINE
  8
LC-004-005-----0
  6
CONTINUOUS
  5
A7
 10
258.698742
 20
323.752566
 30
0.0
 11
260.304675
 21
325.358498
 31
0.0
  0
LINE
  8
LC-004-005-----0
  6
CONTINUOUS
  5
A8
 10
255.870315
 20
323.752566
 30
0.0
 11
258.870315
 21
326.752566
 31
0.0
  0
LINE
  8
LC-004-005-----0
  6
CONTINUOUS
  5
A9
 10
253.041888
 20
323.752566
 30
0.0
 11
256.041888
 21
326.752566
 31
0.0
  0
LINE
  8
LC-004-005-----0
  6
CONTINUOUS
  5
AA
 10
250.21346
 20
323.752566
 30
0.0
 11
253.21346
 21
326.752566
 31
0.0
  0
LINE
  8
LC-004-005-----0
  6
CONTINUOUS
  5
AB
 10
247.385033
 20
323.752566
 30
0.0
 11
250.385033
 21
326.752566
 31
0.0
  0
LINE
  8
LC-004-005-----0
  6
CONTINUOUS
  5
AC
 10
244.556606
 20
323.752566
 30
0.0
 11
247.556606
 21
326.752566
 31
0.0
  0
LINE
  8
LC-004-005-----0
  6
CONTINUOUS
  5
AD
 10
241.728179
 20
323.752566
 30
0.0
 11
244.728179
 21
326.752566
 31
0.0
  0
LINE
  8
LC-004-005-----0
  6
CONTINUOUS
  5
AE
 10
238.899752
 20
323.752566
 30
0.0
 11
241.899752
 21
326.752566
 31
0.0
  0
LINE
  8
LC-004-005-----0
  6
CONTINUOUS
  5
AF
 10
236.071325
 20
323.752566
 30
0.0
 11
239.071325
 21
326.752566
 31
0.0
  0
LINE
  8
LC-004-005-----0
  6
CONTINUOUS
  5
B0
 10
233.242898
 20
323.752566
 30
0.0
 11
236.242898
 21
326.752566
 31
0.0
  0
LINE
  8
LC-004-005-----0
  6
CONTINUOUS
  5
B1
 10
230.414471
 20
323.752566
 30
0.0
 11
233.414471
 21
326.752566
 31
0.0
  0
LINE
  8
LC-004-005-----0
  6
CONTINUOUS
  5
B2
 10
227.586043
 20
323.752566
 30
0.0
 11
230.586043
 21
326.752566
 31
0.0
  0
LINE
  8
LC-004-005-----0
  6
CONTINUOUS
  5
B3
 10
224.757616
 20
323.752566
 30
0.0
 11
227.757616
 21
326.752566
 31
0.0
  0
LINE
  8
LC-004-005-----0
  6
CONTINUOUS
  5
B4
 10
221.929189
 20
323.752566
 30
0.0
 11
224.929189
 21
326.752566
 31
0.0
  0
LINE
  8
LC-004-005-----0
  6
CONTINUOUS
  5
B5
 10
219.100762
 20
323.752566
 30
0.0
 11
222.100762
 21
326.752566
 31
0.0
  0
LINE
  8
LC-004-005-----0
  6
CONTINUOUS
  5
B6
 10
216.272335
 20
323.752566
 30
0.0
 11
219.272335
 21
326.752566
 31
0.0
  0
LINE
  8
LC-004-005-----0
  6
CONTINUOUS
  5
B7
 10
213.443908
 20
323.752566
 30
0.0
 11
216.443908
 21
326.752566
 31
0.0
  0
LINE
  8
LC-004-005-----0
  6
CONTINUOUS
  5
B8
 10
210.615481
 20
323.752566
 30
0.0
 11
213.615481
 21
326.752566
 31
0.0
  0
LINE
  8
LC-004-005-----0
  6
CONTINUOUS
  5
B9
 10
207.787054
 20
323.752566
 30
0.0
 11
210.787054
 21
326.752566
 31
0.0
  0
LINE
  8
LC-004-005-----0
  6
CONTINUOUS
  5
BA
 10
204.958626
 20
323.752566
 30
0.0
 11
207.958626
 21
326.752566
 31
0.0
  0
LINE
  8
LC-004-005-----0
  6
CONTINUOUS
  5
BB
 10
202.130199
 20
323.752566
 30
0.0
 11
205.130199
 21
326.752566
 31
0.0
  0
LINE
  8
LC-004-005-----0
  6
CONTINUOUS
  5
BC
 10
199.301772
 20
323.752566
 30
0.0
 11
202.301772
 21
326.752566
 31
0.0
  0
LINE
  8
LC-004-005-----0
  6
CONTINUOUS
  5
BD
 10
196.473345
 20
323.752566
 30
0.0
 11
199.473345
 21
326.752566
 31
0.0
  0
LINE
  8
LC-004-005-----0
  6
CONTINUOUS
  5
BE
 10
193.644918
 20
323.752566
 30
0.0
 11
196.644918
 21
326.752566
 31
0.0
  0
LINE
  8
LC-004-005-----0
  6
CONTINUOUS
  5
BF
 10
190.985153
 20
323.921228
 30
0.0
 11
193.816491
 21
326.752566
 31
0.0
  0
LINE
  8
LC-004-005-----0
  6
CONTINUOUS
  5
C0
 10
190.985153
 20
326.749655
 30
0.0
 11
190.988064
 21
326.752566
 31
0.0
  0
ENDBLK
  8
0
  5
C1
  0
BLOCK
  8
0
  5
C3
  2
*X4
 70
    65
 10
260.304675
 20
323.752566
 30
0.0
  3
*X4
  0
LINE
  8
LC-004-005-----0
  6
CONTINUOUS
  5
C4
 10
329.40942
 20
323.752566
 30
0.0
 11
329.448095
 21
323.791241
 31
0.0
  0
LINE
  8
LC-004-005-----0
  6
CONTINUOUS
  5
C5
 10
326.580993
 20
323.752566
 30
0.0
 11
329.448095
 21
326.619668
 31
0.0
  0
LINE
  8
LC-004-005-----0
  6
CONTINUOUS
  5
C6
 10
323.752566
 20
323.752566
 30
0.0
 11
326.752566
 21
326.752566
 31
0.0
  0
LINE
  8
LC-004-005-----0
  6
CONTINUOUS
  5
C7
 10
320.924139
 20
323.752566
 30
0.0
 11
323.924139
 21
326.752566
 31
0.0
  0
LINE
  8
LC-004-005-----0
  6
CONTINUOUS
  5
C8
 10
318.095711
 20
323.752566
 30
0.0
 11
321.095711
 21
326.752566
 31
0.0
  0
LINE
  8
LC-004-005-----0
  6
CONTINUOUS
  5
C9
 10
315.267284
 20
323.752566
 30
0.0
 11
318.267284
 21
326.752566
 31
0.0
  0
LINE
  8
LC-004-005-----0
  6
CONTINUOUS
  5
CA
 10
312.438857
 20
323.752566
 30
0.0
 11
315.438857
 21
326.752566
 31
0.0
  0
LINE
  8
LC-004-005-----0
  6
CONTINUOUS
  5
CB
 10
309.61043
 20
323.752566
 30
0.0
 11
312.61043
 21
326.752566
 31
0.0
  0
LINE
  8
LC-004-005-----0
  6
CONTINUOUS
  5
CC
 10
306.782003
 20
323.752566
 30
0.0
 11
309.782003
 21
326.752566
 31
0.0
  0
LINE
  8
LC-004-005-----0
  6
CONTINUOUS
  5
CD
 10
303.953576
 20
323.752566
 30
0.0
 11
306.953576
 21
326.752566
 31
0.0
  0
LINE
  8
LC-004-005-----0
  6
CONTINUOUS
  5
CE
 10
301.125149
 20
323.752566
 30
0.0
 11
304.125149
 21
326.752566
 31
0.0
  0
LINE
  8
LC-004-005-----0
  6
CONTINUOUS
  5
CF
 10
298.296722
 20
323.752566
 30
0.0
 11
301.296722
 21
326.752566
 31
0.0
  0
LINE
  8
LC-004-005-----0
  6
CONTINUOUS
  5
D0
 10
295.468294
 20
323.752566
 30
0.0
 11
298.468294
 21
326.752566
 31
0.0
  0
LINE
  8
LC-004-005-----0
  6
CONTINUOUS
  5
D1
 10
292.639867
 20
323.752566
 30
0.0
 11
295.639867
 21
326.752566
 31
0.0
  0
LINE
  8
LC-004-005-----0
  6
CONTINUOUS
  5
D2
 10
289.81144
 20
323.752566
 30
0.0
 11
292.81144
 21
326.752566
 31
0.0
  0
LINE
  8
LC-004-005-----0
  6
CONTINUOUS
  5
D3
 10
286.983013
 20
323.752566
 30
0.0
 11
289.983013
 21
326.752566
 31
0.0
  0
LINE
  8
LC-004-005-----0
  6
CONTINUOUS
  5
D4
 10
284.154586
 20
323.752566
 30
0.0
 11
287.154586
 21
326.752566
 31
0.0
  0
LINE
  8
LC-004-005-----0
  6
CONTINUOUS
  5
D5
 10
281.326159
 20
323.752566
 30
0.0
 11
284.326159
 21
326.752566
 31
0.0
  0
LINE
  8
LC-004-005-----0
  6
CONTINUOUS
  5
D6
 10
278.497732
 20
323.752566
 30
0.0
 11
281.497732
 21
326.752566
 31
0.0
  0
LINE
  8
LC-004-005-----0
  6
CONTINUOUS
  5
D7
 10
275.669305
 20
323.752566
 30
0.0
 11
278.669305
 21
326.752566
 31
0.0
  0
LINE
  8
LC-004-005-----0
  6
CONTINUOUS
  5
D8
 10
272.840877
 20
323.752566
 30
0.0
 11
275.840877
 21
326.752566
 31
0.0
  0
LINE
  8
LC-004-005-----0
  6
CONTINUOUS
  5
D9
 10
270.01245
 20
323.752566
 30
0.0
 11
273.01245
 21
326.752566
 31
0.0
  0
LINE
  8
LC-004-005-----0
  6
CONTINUOUS
  5
DA
 10
267.184023
 20
323.752566
 30
0.0
 11
270.184023
 21
326.752566
 31
0.0
  0
LINE
  8
LC-004-005-----0
  6
CONTINUOUS
  5
DB
 10
264.355596
 20
323.752566
 30
0.0
 11
267.355596
 21
326.752566
 31
0.0
  0
LINE
  8
LC-004-005-----0
  6
CONTINUOUS
  5
DC
 10
261.527169
 20
323.752566
 30
0.0
 11
264.527169
 21
326.752566
 31
0.0
  0
LINE
  8
LC-004-005-----0
  6
CONTINUOUS
  5
DD
 10
260.304675
 20
325.358498
 30
0.0
 11
261.698742
 21
326.752566
 31
0.0
  0
ENDBLK
  8
0
  5
DE
  0
BLOCK
  8
0
  5
E0
  2
BLK1
 70
    64
 10
0.0
 20
0.0
 30
0.0
  3
BLK1
  0
ENDBLK
  8
0
  5
E1
  0
BLOCK
  8
0
  5
E3
  2
BLK2
 70
    64
 10
0.0
 20
0.0
 30
0.0
  3
BLK2
  0
ENDBLK
  8
0
  5
E4
  0
BLOCK
  8
0
  5
E6
  2
BLK3
 70
    64
 10
0.0
 20
0.0
 30
0.0
  3
BLK3
  0
ENDBLK
  8
0
  5
E7
  0
BLOCK
  8
0
  5
E9
  2
BLK4
 70
    64
 10
0.0
 20
0.0
 30
0.0
  3
BLK4
  0
ENDBLK
  8
0
  5
EA
  0
BLOCK
  8
0
  5
EC
  2
BLK5
 70
    64
 10
0.0
 20
0.0
 30
0.0
  3
BLK5
  0
ENDBLK
  8
0
  5
ED
  0
BLOCK
  8
0
  5
EF
  2
BLK6
 70
    64
 10
0.0
 20
0.0
 30
0.0
  3
BLK6
  0
ENDBLK
  8
0
  5
F0
  0
BLOCK
  8
0
  5
F2
  2
BLK7
 70
    64
 10
0.0
 20
0.0
 30
0.0
  3
BLK7
  0
ENDBLK
  8
0
  5
F3
  0
BLOCK
  8
0
  5
F5
  2
BLK8
 70
    64
 10
0.0
 20
0.0
 30
0.0
  3
BLK8
  0
ENDBLK
  8
0
  5
F6
  0
BLOCK
  8
0
  5
F8
  2
BLK9
 70
    64
 10
0.0
 20
0.0
 30
0.0
  3
BLK9
  0
ENDBLK
  8
0
  5
F9
  0
BLOCK
  8
0
  5
FB
  2
BLK10
 70
    64
 10
0.0
 20
0.0
 30
0.0
  3
BLK10
  0
ENDBLK
  8
0
  5
FC
  0
BLOCK
  8
0
  5
FE
  2
BLK11
 70
    64
 10
0.0
 20
0.0
 30
0.0
  3
BLK11
  0
ENDBLK
  8
0
  5
FF
  0
BLOCK
  8
0
  5
101
  2
BLK12
 70
    64
 10
0.0
 20
0.0
 30
0.0
  3
BLK12
  0
ENDBLK
  8
0
  5
102
  0
BLOCK
  8
0
  5
104
  2
BLK13
 70
    64
 10
0.0
 20
0.0
 30
0.0
  3
BLK13
  0
ENDBLK
  8
0
  5
105
  0
BLOCK
  8
0
  5
107
  2
BLK14
 70
    64
 10
0.0
 20
0.0
 30
0.0
  3
BLK14
  0
ENDBLK
  8
0
  5
108
  0
BLOCK
  8
0
  5
10A
  2
BLK15
 70
    64
 10
0.0
 20
0.0
 30
0.0
  3
BLK15
  0
ENDBLK
  8
0
  5
10B
  0
BLOCK
  8
0
  5
10D
  2
BLK16
 70
    64
 10
0.0
 20
0.0
 30
0.0
  3
BLK16
  0
ENDBLK
  8
0
  5
10E
  0
BLOCK
  8
0
  5
110
  2
BLK17
 70
    64
 10
0.0
 20
0.0
 30
0.0
  3
BLK17
  0
ENDBLK
  8
0
  5
111
  0
BLOCK
  8
0
  5
113
  2
BLK18
 70
    64
 10
0.0
 20
0.0
 30
0.0
  3
BLK18
  0
ENDBLK
  8
0
  5
114
  0
BLOCK
  8
0
  5
116
  2
*D23
 70
    65
 10
0.0
 20
0.0
 30
0.0
  3
*D23
  0
LINE
  8
LC-006-003-MTH-0
  6
CONTINUOUS
  5
117
 10
208.270993
 20
207.913548
 30
0.0
 11
208.270993
 21
149.2
 31
0.0
  0
LINE
  8
LC-006-003-MTH-0
  6
CONTINUOUS
  5
118
 10
312.127463
 20
209.42315
 30
0.0
 11
312.127463
 21
149.2
 31
0.0
  0
LINE
  8
LC-007-003-MTG-0
  6
CONTINUOUS
  5
119
 10
208.270993
 20
160.0
 30
0.0
 11
312.127463
 21
160.0
 31
0.0
  0
LINE
  8
LC-005-003-----0
  6
CONTINUOUS
  5
11A
 10
226.117001
 20
162.349471
 30
0.0
 11
208.270993
 21
160.0
 31
0.0
  0
LINE
  8
LC-005-003-----0
  6
CONTINUOUS
  5
11B
 10
208.270993
 20
160.0
 30
0.0
 11
226.117001
 21
157.650529
 31
0.0
  0
LINE
  8
LC-005-003-----0
  6
CONTINUOUS
  5
11C
 10
226.117001
 20
157.650529
 30
0.0
 11
226.117001
 21
162.349471
 31
0.0
  0
LINE
  8
LC-005-003-----0
  6
CONTINUOUS
  5
11D
 10
226.157039
 20
161.738609
 30
0.0
 11
212.950993
 21
160.0
 31
0.0
  0
LINE
  8
LC-005-003-----0
  6
CONTINUOUS
  5
11E
 10
212.950993
 20
160.0
 30
0.0
 11
226.157039
 21
158.261391
 31
0.0
  0
LINE
  8
LC-005-003-----0
  6
CONTINUOUS
  5
11F
 10
226.197077
 20
161.127746
 30
0.0
 11
217.630993
 21
160.0
 31
0.0
  0
LINE
  8
LC-005-003-----0
  6
CONTINUOUS
  5
120
 10
217.630993
 20
160.0
 30
0.0
 11
226.197077
 21
158.872254
 31
0.0
  0
LINE
  8
LC-005-003-----0
  6
CONTINUOUS
  5
121
 10
226.237115
 20
160.516884
 30
0.0
 11
222.310993
 21
160.0
 31
0.0
  0
LINE
  8
LC-005-003-----0
  6
CONTINUOUS
  5
122
 10
222.310993
 20
160.0
 30
0.0
 11
226.237115
 21
159.483116
 31
0.0
  0
LINE
  8
LC-005-003-----0
  6
CONTINUOUS
  5
123
 10
294.281456
 20
157.650529
 30
0.0
 11
312.127463
 21
160.0
 31
0.0
  0
LINE
  8
LC-005-003-----0
  6
CONTINUOUS
  5
124
 10
312.127463
 20
160.0
 30
0.0
 11
294.281456
 21
162.349471
 31
0.0
  0
LINE
  8
LC-005-003-----0
  6
CONTINUOUS
  5
125
 10
294.281456
 20
162.349471
 30
0.0
 11
294.281456
 21
157.650529
 31
0.0
  0
LINE
  8
LC-005-003-----0
  6
CONTINUOUS
  5
126
 10
294.241418
 20
158.261391
 30
0.0
 11
307.447463
 21
160.0
 31
0.0
  0
LINE
  8
LC-005-003-----0
  6
CONTINUOUS
  5
127
 10
307.447463
 20
160.0
 30
0.0
 11
294.241418
 21
161.738609
 31
0.0
  0
LINE
  8
LC-005-003-----0
  6
CONTINUOUS
  5
128
 10
294.20138
 20
158.872254
 30
0.0
 11
302.767463
 21
160.0
 31
0.0
  0
LINE
  8
LC-005-003-----0
  6
CONTINUOUS
  5
129
 10
302.767463
 20
160.0
 30
0.0
 11
294.20138
 21
161.127746
 31
0.0
  0
LINE
  8
LC-005-003-----0
  6
CONTINUOUS
  5
12A
 10
294.161342
 20
159.483116
 30
0.0
 11
298.087463
 21
160.0
 31
0.0
  0
LINE
  8
LC-005-003-----0
  6
CONTINUOUS
  5
12B
 10
298.087463
 20
160.0
 30
0.0
 11
294.161342
 21
160.516884
 31
0.0
  0
TEXT
  8
LC-005-003-----0
  6
CONTINUOUS
 62
     6
  5
12C
 10
229.318884
 20
170.431999
 30
0.0
 40
18.0
  1
DN100
 51
15.0
  7
LC-TXTSTYLE-150-400-0-0-D0
 72
     1
 11
262.994474
 21
170.431999
 31
0.0
  0
ENDBLK
  8
0
  5
12D
  0
BLOCK
  8
0
  5
12F
  2
*D24
 70
    65
 10
0.0
 20
0.0
 30
0.0
  3
*D24
  0
LINE
  8
LC-006-003-MTH-0
  6
CONTINUOUS
  5
130
 10
193.804693
 20
231.752566
 30
0.0
 11
143.2
 21
231.752566
 31
0.0
  0
LINE
  8
LC-006-003-MTH-0
  6
CONTINUOUS
  5
131
 10
183.804675
 20
311.752566
 30
0.0
 11
143.2
 21
311.752566
 31
0.0
  0
LINE
  8
LC-007-003-MTG-0
  6
CONTINUOUS
  5
132
 10
154.0
 20
231.752566
 30
0.0
 11
154.0
 21
311.752566
 31
0.0
  0
LINE
  8
LC-005-003-----0
  6
CONTINUOUS
  5
133
 10
151.650529
 20
249.598573
 30
0.0
 11
154.0
 21
231.752566
 31
0.0
  0
LINE
  8
LC-005-003-----0
  6
CONTINUOUS
  5
134
 10
154.0
 20
231.752566
 30
0.0
 11
156.349471
 21
249.598573
 31
0.0
  0
LINE
  8
LC-005-003-----0
  6
CONTINUOUS
  5
135
 10
156.349471
 20
249.598573
 30
0.0
 11
151.650529
 21
249.598573
 31
0.0
  0
LINE
  8
LC-005-003-----0
  6
CONTINUOUS
  5
136
 10
152.261391
 20
249.638611
 30
0.0
 11
154.0
 21
236.432566
 31
0.0
  0
LINE
  8
LC-005-003-----0
  6
CONTINUOUS
  5
137
 10
154.0
 20
236.432566
 30
0.0
 11
155.738609
 21
249.638611
 31
0.0
  0
LINE
  8
LC-005-003-----0
  6
CONTINUOUS
  5
138
 10
152.872254
 20
249.678649
 30
0.0
 11
154.0
 21
241.112566
 31
0.0
  0
LINE
  8
LC-005-003-----0
  6
CONTINUOUS
  5
139
 10
154.0
 20
241.112566
 30
0.0
 11
155.127746
 21
249.678649
 31
0.0
  0
LINE
  8
LC-005-003-----0
  6
CONTINUOUS
  5
13A
 10
153.483116
 20
249.718687
 30
0.0
 11
154.0
 21
245.792566
 31
0.0
  0
LINE
  8
LC-005-003-----0
  6
CONTINUOUS
  5
13B
 10
154.0
 20
245.792566
 30
0.0
 11
154.516884
 21
249.718687
 31
0.0
  0
LINE
  8
LC-005-003-----0
  6
CONTINUOUS
  5
13C
 10
156.349471
 20
293.906558
 30
0.0
 11
154.0
 21
311.752566
 31
0.0
  0
LINE
  8
LC-005-003-----0
  6
CONTINUOUS
  5
13D
 10
154.0
 20
311.752566
 30
0.0
 11
151.650529
 21
293.906558
 31
0.0
  0
LINE
  8
LC-005-003-----0
  6
CONTINUOUS
  5
13E
 10
151.650529
 20
293.906558
 30
0.0
 11
156.349471
 21
293.906558
 31
0.0
  0
LINE
  8
LC-005-003-----0
  6
CONTINUOUS
  5
13F
 10
155.738609
 20
293.86652
 30
0.0
 11
154.0
 21
307.072566
 31
0.0
  0
LINE
  8
LC-005-003-----0
  6
CONTINUOUS
  5
140
 10
154.0
 20
307.072566
 30
0.0
 11
152.261391
 21
293.86652
 31
0.0
  0
LINE
  8
LC-005-003-----0
  6
CONTINUOUS
  5
141
 10
155.127746
 20
293.826482
 30
0.0
 11
154.0
 21
302.392566
 31
0.0
  0
LINE
  8
LC-005-003-----0
  6
CONTINUOUS
  5
142
 10
154.0
 20
302.392566
 30
0.0
 11
152.872254
 21
293.826482
 31
0.0
  0
LINE
  8
LC-005-003-----0
  6
CONTINUOUS
  5
143
 10
154.516884
 20
293.786444
 30
0.0
 11
154.0
 21
297.712566
 31
0.0
  0
LINE
  8
LC-005-003-----0
  6
CONTINUOUS
  5
144
 10
154.0
 20
297.712566
 30
0.0
 11
153.483116
 21
293.786444
 31
0.0
  0
TEXT
  8
LC-005-003-----0
  6
CONTINUOUS
 62
     6
  5
145
 10
143.568001
 20
262.684819
 30
0.0
 40
18.0
  1
80
 50
90.0
 51
15.0
  7
LC-TXTSTYLE-150-400-0-0-D0
 72
     1
 11
143.568001
 21
274.547811
 31
0.0
  0
ENDBLK
  8
0
  5
146
  0
BLOCK
  8
0
  5
148
  2
*D25
 70
    65
 10
0.0
 20
0.0
 30
0.0
  3
*D25
  0
LINE
  8
LC-006-003-MTH-0
  6
CONTINUOUS
  5
149
 10
193.804693
 20
231.752566
 30
0.0
 11
101.2
 21
231.752566
 31
0.0
  0
LINE
  8
LC-006-003-MTH-0
  6
CONTINUOUS
  5
14A
 10
186.804675
 20
326.752566
 30
0.0
 11
101.2
 21
326.752566
 31
0.0
  0
LINE
  8
LC-007-003-MTG-0
  6
CONTINUOUS
  5
14B
 10
112.0
 20
231.752566
 30
0.0
 11
112.0
 21
326.752566
 31
0.0
  0
LINE
  8
LC-005-003-----0
  6
CONTINUOUS
  5
14C
 10
109.650529
 20
249.598573
 30
0.0
 11
112.0
 21
231.752566
 31
0.0
  0
LINE
  8
LC-005-003-----0
  6
CONTINUOUS
  5
14D
 10
112.0
 20
231.752566
 30
0.0
 11
114.349471
 21
249.598573
 31
0.0
  0
LINE
  8
LC-005-003-----0
  6
CONTINUOUS
  5
14E
 10
114.349471
 20
249.598573
 30
0.0
 11
109.650529
 21
249.598573
 31
0.0
  0
LINE
  8
LC-005-003-----0
  6
CONTINUOUS
  5
14F
 10
110.261391
 20
249.638611
 30
0.0
 11
112.0
 21
236.432566
 31
0.0
  0
LINE
  8
LC-005-003-----0
  6
CONTINUOUS
  5
150
 10
112.0
 20
236.432566
 30
0.0
 11
113.738609
 21
249.638611
 31
0.0
  0
LINE
  8
LC-005-003-----0
  6
CONTINUOUS
  5
151
 10
110.872254
 20
249.678649
 30
0.0
 11
112.0
 21
241.112566
 31
0.0
  0
LINE
  8
LC-005-003-----0
  6
CONTINUOUS
  5
152
 10
112.0
 20
241.112566
 30
0.0
 11
113.127746
 21
249.678649
 31
0.0
  0
LINE
  8
LC-005-003-----0
  6
CONTINUOUS
  5
153
 10
111.483116
 20
249.718687
 30
0.0
 11
112.0
 21
245.792566
 31
0.0
  0
LINE
  8
LC-005-003-----0
  6
CONTINUOUS
  5
154
 10
112.0
 20
245.792566
 30
0.0
 11
112.516884
 21
249.718687
 31
0.0
  0
LINE
  8
LC-005-003-----0
  6
CONTINUOUS
  5
155
 10
114.349471
 20
308.906558
 30
0.0
 11
112.0
 21
326.752566
 31
0.0
  0
LINE
  8
LC-005-003-----0
  6
CONTINUOUS
  5
156
 10
112.0
 20
326.752566
 30
0.0
 11
109.650529
 21
308.906558
 31
0.0
  0
LINE
  8
LC-005-003-----0
  6
CONTINUOUS
  5
157
 10
109.650529
 20
308.906558
 30
0.0
 11
114.349471
 21
308.906558
 31
0.0
  0
LINE
  8
LC-005-003-----0
  6
CONTINUOUS
  5
158
 10
113.738609
 20
308.86652
 30
0.0
 11
112.0
 21
322.072566
 31
0.0
  0
LINE
  8
LC-005-003-----0
  6
CONTINUOUS
  5
159
 10
112.0
 20
322.072566
 30
0.0
 11
110.261391
 21
308.86652
 31
0.0
  0
LINE
  8
LC-005-003-----0
  6
CONTINUOUS
  5
15A
 10
113.127746
 20
308.826482
 30
0.0
 11
112.0
 21
317.392566
 31
0.0
  0
LINE
  8
LC-005-003-----0
  6
CONTINUOUS
  5
15B
 10
112.0
 20
317.392566
 30
0.0
 11
110.872254
 21
308.826482
 31
0.0
  0
LINE
  8
LC-005-003-----0
  6
CONTINUOUS
  5
15C
 10
112.516884
 20
308.786444
 30
0.0
 11
112.0
 21
312.712566
 31
0.0
  0
LINE
  8
LC-005-003-----0
  6
CONTINUOUS
  5
15D
 10
112.0
 20
312.712566
 30
0.0
 11
111.483116
 21
308.786444
 31
0.0
  0
TEXT
  8
LC-005-003-----0
  6
CONTINUOUS
 62
     6
  5
15E
 10
101.568001
 20
270.184819
 30
0.0
 40
18.0
  1
95
 50
90.0
 51
15.0
  7
LC-TXTSTYLE-150-400-0-0-D0
 72
     1
 11
101.568001
 21
282.047811
 31
0.0
  0
ENDBLK
  8
0
  5
15F
  0
BLOCK
  8
0
  5
161
  2
BLK19
 70
    64
 10
0.0
 20
0.0
 30
0.0
  3
BLK19
  0
ENDBLK
  8
0
  5
162
  0
BLOCK
  8
0
  5
164
  2
BLK20
 70
    64
 10
0.0
 20
0.0
 30
0.0
  3
BLK20
  0
ENDBLK
  8
0
  5
165
  0
BLOCK
  8
0
  5
167
  2
BLK21
 70
    64
 10
0.0
 20
0.0
 30
0.0
  3
BLK21
  0
ENDBLK
  8
0
  5
168
  0
BLOCK
  8
0
  5
16A
  2
BLK22
 70
    64
 10
0.0
 20
0.0
 30
0.0
  3
BLK22
  0
ENDBLK
  8
0
  5
16B
  0
BLOCK
  8
0
  5
16D
  2
BLK23
 70
    64
 10
0.0
 20
0.0
 30
0.0
  3
BLK23
  0
ENDBLK
  8
0
  5
16E
  0
BLOCK
  8
0
  5
170
  2
BLK24
 70
    64
 10
0.0
 20
0.0
 30
0.0
  3
BLK24
  0
ENDBLK
  8
0
  5
171
  0
BLOCK
  8
0
  5
173
  2
BLK25
 70
    64
 10
0.0
 20
0.0
 30
0.0
  3
BLK25
  0
ENDBLK
  8
0
  5
174
  0
BLOCK
  8
0
  5
176
  2
BLK26
 70
    64
 10
0.0
 20
0.0
 30
0.0
  3
BLK26
  0
ENDBLK
  8
0
  5
177
  0
BLOCK
  8
0
  5
179
  2
*X34
 70
    65
 10
193.879633
 20
227.552492
 30
0.0
  3
*X34
  0
LINE
  8
LC-004-005-----0
  6
CONTINUOUS
  5
17A
 10
201.613325
 20
229.897596
 30
0.0
 11
205.043252
 21
233.327523
 31
0.0
  0
LINE
  8
LC-004-005-----0
  6
CONTINUOUS
  5
17B
 10
195.930624
 20
227.750429
 30
0.0
 11
201.50765
 21
233.327455
 31
0.0
  0
LINE
  8
LC-004-005-----0
  6
CONTINUOUS
  5
17C
 10
207.111408
 20
238.931213
 30
0.0
 11
207.807552
 21
239.627357
 31
0.0
  0
LINE
  8
LC-004-005-----0
  6
CONTINUOUS
  5
17D
 10
194.125976
 20
229.481315
 30
0.0
 11
196.39716
 21
231.752499
 31
0.0
  0
LINE
  8
LC-004-005-----0
  6
CONTINUOUS
  5
17E
 10
197.029651
 20
232.38499
 30
0.0
 11
204.271893
 21
239.627233
 31
0.0
  0
LINE
  8
LC-004-005-----0
  6
CONTINUOUS
  5
17F
 10
197.029687
 20
235.92056
 30
0.0
 11
200.811554
 21
239.702427
 31
0.0
  0
LINE
  8
LC-004-005-----0
  6
CONTINUOUS
  5
180
 10
205.286673
 20
244.177546
 30
0.0
 11
207.036519
 21
245.927392
 31
0.0
  0
LINE
  8
LC-004-005-----0
  6
CONTINUOUS
  5
181
 10
197.029724
 20
239.456131
 30
0.0
 11
203.50102
 21
245.927426
 31
0.0
  0
LINE
  8
LC-004-005-----0
  6
CONTINUOUS
  5
182
 10
197.029761
 20
242.991702
 30
0.0
 11
200.37813
 21
246.340071
 31
0.0
  0
LINE
  8
LC-004-005-----0
  6
CONTINUOUS
  5
183
 10
203.462621
 20
249.424562
 30
0.0
 11
206.265455
 21
252.227396
 31
0.0
  0
LINE
  8
LC-004-005-----0
  6
CONTINUOUS
  5
184
 10
197.029798
 20
246.527272
 30
0.0
 11
202.729958
 21
252.227433
 31
0.0
  0
LINE
  8
LC-004-005-----0
  6
CONTINUOUS
  5
185
 10
197.029834
 20
250.062843
 30
0.0
 11
200.1803
 21
253.213309
 31
0.0
  0
LINE
  8
LC-004-005-----0
  6
CONTINUOUS
  5
186
 10
201.638228
 20
254.671237
 30
0.0
 11
205.526109
 21
258.559118
 31
0.0
  0
LINE
  8
LC-004-005-----0
  6
CONTINUOUS
  5
187
 10
197.029871
 20
253.598414
 30
0.0
 11
201.990666
 21
258.559209
 31
0.0
  0
LINE
  8
LC-004-005-----0
  6
CONTINUOUS
  5
188
 10
197.029908
 20
257.133984
 30
0.0
 11
204.785182
 21
264.889258
 31
0.0
  0
LINE
  8
LC-004-005-----0
  6
CONTINUOUS
  5
189
 10
197.029903
 20
260.669513
 30
0.0
 11
201.251324
 21
264.890934
 31
0.0
  0
LINE
  8
LC-004-005-----0
  6
CONTINUOUS
  5
18A
 10
206.655089
 20
270.294699
 30
0.0
 11
207.587984
 21
271.227594
 31
0.0
  0
LINE
  8
LC-004-005-----0
  6
CONTINUOUS
  5
18B
 10
197.029871
 20
264.205016
 30
0.0
 11
204.052491
 21
271.227636
 31
0.0
  0
LINE
  8
LC-004-005-----0
  6
CONTINUOUS
  5
18C
 10
197.02984
 20
267.740518
 30
0.0
 11
200.761229
 21
271.471907
 31
0.0
  0
LINE
  8
LC-004-005-----0
  6
CONTINUOUS
  5
18D
 10
197.029808
 20
271.27602
 30
0.0
 11
205.305178
 21
279.55139
 31
0.0
  0
LINE
  8
LC-004-005-----0
  6
CONTINUOUS
  5
18E
 10
197.029776
 20
274.811522
 30
0.0
 11
203.783651
 21
281.565397
 31
0.0
  0
LINE
  8
LC-004-005-----0
  6
CONTINUOUS
  5
18F
 10
197.029745
 20
278.347024
 30
0.0
 11
200.248137
 21
281.565417
 31
0.0
  0
ENDBLK
  8
0
  5
190
  0
BLOCK
  8
0
  5
192
  2
*X35
 70
    65
 10
312.127406
 20
227.550282
 30
0.0
  3
*X35
  0
LINE
  8
LC-004-005-----0
  6
CONTINUOUS
  5
193
 10
323.202701
 20
227.743285
 30
0.0
 11
326.729916
 21
231.270501
 31
0.0
  0
LINE
  8
LC-004-005-----0
  6
CONTINUOUS
  5
194
 10
320.863927
 20
228.940045
 30
0.0
 11
323.674163
 21
231.750281
 31
0.0
  0
LINE
  8
LC-004-005-----0
  6
CONTINUOUS
  5
195
 10
318.525153
 20
230.136805
 30
0.0
 11
323.579678
 21
235.19133
 31
0.0
  0
LINE
  8
LC-004-005-----0
  6
CONTINUOUS
  5
196
 10
316.186379
 20
231.333565
 30
0.0
 11
318.179005
 21
233.326192
 31
0.0
  0
LINE
  8
LC-004-005-----0
  6
CONTINUOUS
  5
197
 10
320.013957
 20
235.161143
 30
0.0
 11
323.579715
 21
238.726901
 31
0.0
  0
LINE
  8
LC-004-005-----0
  6
CONTINUOUS
  5
198
 10
313.847604
 20
232.530325
 30
0.0
 11
314.64351
 21
233.32623
 31
0.0
  0
LINE
  8
LC-004-005-----0
  6
CONTINUOUS
  5
199
 10
317.776888
 20
236.459608
 30
0.0
 11
323.579752
 21
242.262472
 31
0.0
  0
LINE
  8
LC-004-005-----0
  6
CONTINUOUS
  5
19A
 10
315.535468
 20
237.753722
 30
0.0
 11
317.407946
 21
239.6262
 31
0.0
  0
LINE
  8
LC-004-005-----0
  6
CONTINUOUS
  5
19B
 10
319.529498
 20
241.747752
 30
0.0
 11
323.579788
 21
245.798042
 31
0.0
  0
LINE
  8
LC-004-005-----0
  6
CONTINUOUS
  5
19C
 10
313.294048
 20
239.047836
 30
0.0
 11
313.87245
 21
239.626238
 31
0.0
  0
LINE
  8
LC-004-005-----0
  6
CONTINUOUS
  5
19D
 10
317.288078
 20
243.041866
 30
0.0
 11
323.579825
 21
249.333613
 31
0.0
  0
LINE
  8
LC-004-005-----0
  6
CONTINUOUS
  5
19E
 10
315.046658
 20
244.33598
 30
0.0
 11
316.636885
 21
245.926207
 31
0.0
  0
LINE
  8
LC-004-005-----0
  6
CONTINUOUS
  5
19F
 10
319.040689
 20
248.330011
 30
0.0
 11
323.579862
 21
252.869184
 31
0.0
  0
LINE
  8
LC-004-005-----0
  6
CONTINUOUS
  5
1A0
 10
312.805239
 20
245.630094
 30
0.0
 11
313.101388
 21
245.926244
 31
0.0
  0
LINE
  8
LC-004-005-----0
  6
CONTINUOUS
  5
1A1
 10
316.799269
 20
249.624125
 30
0.0
 11
319.401323
 21
252.226179
 31
0.0
  0
LINE
  8
LC-004-005-----0
  6
CONTINUOUS
  5
1A2
 10
320.429783
 20
253.254639
 30
0.0
 11
323.579899
 21
256.404754
 31
0.0
  0
LINE
  8
LC-004-005-----0
  6
CONTINUOUS
  5
1A3
 10
314.557849
 20
250.918239
 30
0.0
 11
315.865827
 21
252.226217
 31
0.0
  0
LINE
  8
LC-004-005-----0
  6
CONTINUOUS
  5
1A4
 10
318.551879
 20
254.912269
 30
0.0
 11
323.579939
 21
259.940328
 31
0.0
  0
LINE
  8
LC-004-005-----0
  6
CONTINUOUS
  5
1A5
 10
312.316429
 20
252.212353
 30
0.0
 11
312.330331
 21
252.226255
 31
0.0
  0
LINE
  8
LC-004-005-----0
  6
CONTINUOUS
  5
1A6
 10
316.31046
 20
256.206383
 30
0.0
 11
318.662044
 21
258.557968
 31
0.0
  0
LINE
  8
LC-004-005-----0
  6
CONTINUOUS
  5
1A7
 10
320.218691
 20
260.114615
 30
0.0
 11
323.579984
 21
263.475907
 31
0.0
  0
LINE
  8
LC-004-005-----0
  6
CONTINUOUS
  5
1A8
 10
314.06904
 20
257.500497
 30
0.0
 11
315.126547
 21
258.558004
 31
0.0
  0
LINE
  8
LC-004-005-----0
  6
CONTINUOUS
  5
1A9
 10
318.06307
 20
261.494528
 30
0.0
 11
323.580029
 21
267.011486
 31
0.0
  0
LINE
  8
LC-004-005-----0
  6
CONTINUOUS
  5
1AA
 10
315.82165
 20
262.788642
 30
0.0
 11
317.922766
 21
264.889757
 31
0.0
  0
LINE
  8
LC-004-005-----0
  6
CONTINUOUS
  5
1AB
 10
319.815675
 20
266.782666
 30
0.0
 11
323.580074
 21
270.547065
 31
0.0
  0
LINE
  8
LC-004-005-----0
  6
CONTINUOUS
  5
1AC
 10
313.58023
 20
264.082756
 30
0.0
 11
314.38727
 21
264.889795
 31
0.0
  0
LINE
  8
LC-004-005-----0
  6
CONTINUOUS
  5
1AD
 10
317.574261
 20
268.076786
 30
0.0
 11
323.580119
 21
274.082644
 31
0.0
  0
LINE
  8
LC-004-005-----0
  6
CONTINUOUS
  5
1AE
 10
315.332841
 20
269.3709
 30
0.0
 11
317.183487
 21
271.221547
 31
0.0
  0
LINE
  8
LC-004-005-----0
  6
CONTINUOUS
  5
1AF
 10
319.099512
 20
273.137572
 30
0.0
 11
323.580164
 21
277.618223
 31
0.0
  0
LINE
  8
LC-004-005-----0
  6
CONTINUOUS
  5
1B0
 10
313.091421
 20
270.665014
 30
0.0
 11
313.647992
 21
271.221585
 31
0.0
  0
LINE
  8
LC-004-005-----0
  6
CONTINUOUS
  5
1B1
 10
317.241917
 20
274.81551
 30
0.0
 11
323.580209
 21
281.153802
 31
0.0
  0
LINE
  8
LC-004-005-----0
  6
CONTINUOUS
  5
1B2
 10
315.384322
 20
276.493449
 30
0.0
 11
320.455437
 21
281.564564
 31
0.0
  0
LINE
  8
LC-004-005-----0
  6
CONTINUOUS
  5
1B3
 10
315.305183
 20
279.949844
 30
0.0
 11
316.920073
 21
281.564733
 31
0.0
  0
ENDBLK
  8
0
  5
1B4
  0
BLOCK
  8
0
  5
1B6
  2
*X36
 70
    65
 10
307.702525
 20
293.248331
 30
0.0
  3
*X36
  0
LINE
  8
LC-004-005-----0
  6
CONTINUOUS
  5
1B7
 10
312.782288
 20
293.831827
 30
0.0
 11
313.414195
 21
294.463733
 31
0.0
  0
LINE
  8
LC-004-005-----0
  6
CONTINUOUS
  5
1B8
 10
312.158322
 20
293.490703
 30
0.0
 11
313.688008
 21
295.020389
 31
0.0
  0
LINE
  8
LC-004-005-----0
  6
CONTINUOUS
  5
1B9
 10
311.734749
 20
293.349973
 30
0.0
 11
313.778746
 21
295.393969
 31
0.0
  0
LINE
  8
LC-004-005-----0
  6
CONTINUOUS
  5
1BA
 10
311.381903
 20
293.27997
 30
0.0
 11
313.805768
 21
295.703834
 31
0.0
  0
LINE
  8
LC-004-005-----0
  6
CONTINUOUS
  5
1BB
 10
311.070433
 20
293.251342
 30
0.0
 11
313.806198
 21
295.987107
 31
0.0
  0
LINE
  8
LC-004-005-----0
  6
CONTINUOUS
  5
1BC
 10
310.78776
 20
293.251512
 30
0.0
 11
313.806198
 21
296.26995
 31
0.0
  0
LINE
  8
LC-004-005-----0
  6
CONTINUOUS
  5
1BD
 10
310.527104
 20
293.273699
 30
0.0
 11
313.806198
 21
296.552792
 31
0.0
  0
LINE
  8
LC-004-005-----0
  6
CONTINUOUS
  5
1BE
 10
310.284327
 20
293.313765
 30
0.0
 11
313.806198
 21
296.835635
 31
0.0
  0
LINE
  8
LC-004-005-----0
  6
CONTINUOUS
  5
1BF
 10
310.056697
 20
293.368977
 30
0.0
 11
313.806198
 21
297.118478
 31
0.0
  0
LINE
  8
LC-004-005-----0
  6
CONTINUOUS
  5
1C0
 10
309.842314
 20
293.437437
 30
0.0
 11
313.806198
 21
297.40132
 31
0.0
  0
LINE
  8
LC-004-005-----0
  6
CONTINUOUS
  5
1C1
 10
309.639815
 20
293.51778
 30
0.0
 11
313.806198
 21
297.684163
 31
0.0
  0
LINE
  8
LC-004-005-----0
  6
CONTINUOUS
  5
1C2
 10
309.448197
 20
293.609005
 30
0.0
 11
313.796672
 21
297.95748
 31
0.0
  0
LINE
  8
LC-004-005-----0
  6
CONTINUOUS
  5
1C3
 10
309.266721
 20
293.710372
 30
0.0
 11
313.760579
 21
298.20423
 31
0.0
  0
LINE
  8
LC-004-005-----0
  6
CONTINUOUS
  5
1C4
 10
309.094844
 20
293.821338
 30
0.0
 11
313.703043
 21
298.429537
 31
0.0
  0
LINE
  8
LC-004-005-----0
  6
CONTINUOUS
  5
1C5
 10
308.93218
 20
293.941516
 30
0.0
 11
313.627655
 21
298.636991
 31
0.0
  0
LINE
  8
LC-004-005-----0
  6
CONTINUOUS
  5
1C6
 10
308.78025
 20
294.072429
 30
0.0
 11
313.536687
 21
298.828866
 31
0.0
  0
LINE
  8
LC-004-005-----0
  6
CONTINUOUS
  5
1C7
 10
308.640653
 20
294.215675
 30
0.0
 11
313.431623
 21
299.006645
 31
0.0
  0
LINE
  8
LC-004-005-----0
  6
CONTINUOUS
  5
1C8
 10
308.513433
 20
294.371297
 30
0.0
 11
313.313414
 21
299.171279
 31
0.0
  0
LINE
  8
LC-004-005-----0
  6
CONTINUOUS
  5
1C9
 10
308.398921
 20
294.539628
 30
0.0
 11
313.182623
 21
299.32333
 31
0.0
  0
LINE
  8
LC-004-005-----0
  6
CONTINUOUS
  5
1CA
 10
308.297783
 20
294.721333
 30
0.0
 11
313.039498
 21
299.463047
 31
0.0
  0
LINE
  8
LC-004-005-----0
  6
CONTINUOUS
  5
1CB
 10
308.211104
 20
294.917496
 30
0.0
 11
312.884147
 21
299.590539
 31
0.0
  0
LINE
  8
LC-004-005-----0
  6
CONTINUOUS
  5
1CC
 10
308.140558
 20
295.129793
 30
0.0
 11
312.718872
 21
299.708107
 31
0.0
  0
LINE
  8
LC-004-005-----0
  6
CONTINUOUS
  5
1CD
 10
308.088727
 20
295.360805
 30
0.0
 11
312.544288
 21
299.816366
 31
0.0
  0
LINE
  8
LC-004-005-----0
  6
CONTINUOUS
  5
1CE
 10
308.059743
 20
295.614664
 30
0.0
 11
312.359966
 21
299.914887
 31
0.0
  0
LINE
  8
LC-004-005-----0
  6
CONTINUOUS
  5
1CF
 10
308.055857
 20
295.893621
 30
0.0
 11
312.165313
 21
300.003077
 31
0.0
  0
LINE
  8
LC-004-005-----0
  6
CONTINUOUS
  5
1D0
 10
308.055857
 20
296.176463
 30
0.0
 11
311.959522
 21
300.080128
 31
0.0
  0
LINE
  8
LC-004-005-----0
  6
CONTINUOUS
  5
1D1
 10
308.055857
 20
296.459306
 30
0.0
 11
311.741498
 21
300.144947
 31
0.0
  0
LINE
  8
LC-004-005-----0
  6
CONTINUOUS
  5
1D2
 10
308.055857
 20
296.742149
 30
0.0
 11
311.509748
 21
300.196039
 31
0.0
  0
LINE
  8
LC-004-005-----0
  6
CONTINUOUS
  5
1D3
 10
308.055857
 20
297.024991
 30
0.0
 11
311.26217
 21
300.231304
 31
0.0
  0
LINE
  8
LC-004-005-----0
  6
CONTINUOUS
  5
1D4
 10
308.055857
 20
297.307834
 30
0.0
 11
310.995706
 21
300.247683
 31
0.0
  0
LINE
  8
LC-004-005-----0
  6
CONTINUOUS
  5
1D5
 10
308.055857
 20
297.590677
 30
0.0
 11
310.705634
 21
300.240454
 31
0.0
  0
LINE
  8
LC-004-005-----0
  6
CONTINUOUS
  5
1D6
 10
308.059465
 20
297.877127
 30
0.0
 11
310.383986
 21
300.201648
 31
0.0
  0
LINE
  8
LC-004-005-----0
  6
CONTINUOUS
  5
1D7
 10
308.100909
 20
298.201415
 30
0.0
 11
310.015209
 21
300.115714
 31
0.0
  0
LINE
  8
LC-004-005-----0
  6
CONTINUOUS
  5
1D8
 10
308.221042
 20
298.60439
 30
0.0
 11
309.558887
 21
299.942235
 31
0.0
  0
ENDBLK
  8
0
  5
1D9
  0
BLOCK
  8
0
  5
1DB
  2
*X37
 70
    65
 10
206.453478
 20
293.248331
 30
0.0
  3
*X37
  0
LINE
  8
LC-004-005-----0
  6
CONTINUOUS
  5
1DC
 10
211.50517
 20
293.812399
 30
0.0
 11
212.182177
 21
294.489407
 31
0.0
  0
LINE
  8
LC-004-005-----0
  6
CONTINUOUS
  5
1DD
 10
210.89467
 20
293.484742
 30
0.0
 11
212.443224
 21
295.033296
 31
0.0
  0
LINE
  8
LC-004-005-----0
  6
CONTINUOUS
  5
1DE
 10
210.474098
 20
293.347013
 30
0.0
 11
212.531268
 21
295.404182
 31
0.0
  0
LINE
  8
LC-004-005-----0
  6
CONTINUOUS
  5
1DF
 10
210.122812
 20
293.278569
 30
0.0
 11
212.556875
 21
295.712632
 31
0.0
  0
LINE
  8
LC-004-005-----0
  6
CONTINUOUS
  5
1E0
 10
209.812365
 20
293.250965
 30
0.0
 11
212.557152
 21
295.995752
 31
0.0
  0
LINE
  8
LC-004-005-----0
  6
CONTINUOUS
  5
1E1
 10
209.530447
 20
293.251889
 30
0.0
 11
212.557152
 21
296.278594
 31
0.0
  0
LINE
  8
LC-004-005-----0
  6
CONTINUOUS
  5
1E2
 10
209.270389
 20
293.274675
 30
0.0
 11
212.557152
 21
296.561437
 31
0.0
  0
LINE
  8
LC-004-005-----0
  6
CONTINUOUS
  5
1E3
 10
209.028111
 20
293.315239
 30
0.0
 11
212.557152
 21
296.84428
 31
0.0
  0
LINE
  8
LC-004-005-----0
  6
CONTINUOUS
  5
1E4
 10
208.80091
 20
293.370881
 30
0.0
 11
212.557152
 21
297.127123
 31
0.0
  0
LINE
  8
LC-004-005-----0
  6
CONTINUOUS
  5
1E5
 10
208.586909
 20
293.439722
 30
0.0
 11
212.557152
 21
297.409965
 31
0.0
  0
LINE
  8
LC-004-005-----0
  6
CONTINUOUS
  5
1E6
 10
208.384755
 20
293.520411
 30
0.0
 11
212.557152
 21
297.692808
 31
0.0
  0
LINE
  8
LC-004-005-----0
  6
CONTINUOUS
  5
1E7
 10
208.193457
 20
293.611956
 30
0.0
 11
212.54689
 21
297.965389
 31
0.0
  0
LINE
  8
LC-004-005-----0
  6
CONTINUOUS
  5
1E8
 10
208.012281
 20
293.713623
 30
0.0
 11
212.510069
 21
298.21141
 31
0.0
  0
LINE
  8
LC-004-005-----0
  6
CONTINUOUS
  5
1E9
 10
207.840691
 20
293.824876
 30
0.0
 11
212.451943
 21
298.436127
 31
0.0
  0
LINE
  8
LC-004-005-----0
  6
CONTINUOUS
  5
1EA
 10
207.678305
 20
293.945333
 30
0.0
 11
212.376049
 21
298.643077
 31
0.0
  0
LINE
  8
LC-004-005-----0
  6
CONTINUOUS
  5
1EB
 10
207.526754
 20
294.076624
 30
0.0
 11
212.284633
 21
298.834503
 31
0.0
  0
LINE
  8
LC-004-005-----0
  6
CONTINUOUS
  5
1EC
 10
207.387534
 20
294.220247
 30
0.0
 11
212.179155
 21
299.011868
 31
0.0
  0
LINE
  8
LC-004-005-----0
  6
CONTINUOUS
  5
1ED
 10
207.260696
 20
294.376251
 30
0.0
 11
212.060555
 21
299.17611
 31
0.0
  0
LINE
  8
LC-004-005-----0
  6
CONTINUOUS
  5
1EE
 10
207.146581
 20
294.544979
 30
0.0
 11
211.929385
 21
299.327783
 31
0.0
  0
LINE
  8
LC-004-005-----0
  6
CONTINUOUS
  5
1EF
 10
207.045866
 20
294.727107
 30
0.0
 11
211.785883
 21
299.467124
 31
0.0
  0
LINE
  8
LC-004-005-----0
  6
CONTINUOUS
  5
1F0
 10
206.959652
 20
294.923735
 30
0.0
 11
211.630184
 21
299.594267
 31
0.0
  0
LINE
  8
LC-004-005-----0
  6
CONTINUOUS
  5
1F1
 10
206.889634
 20
295.13656
 30
0.0
 11
211.464629
 21
299.711556
 31
0.0
  0
LINE
  8
LC-004-005-----0
  6
CONTINUOUS
  5
1F2
 10
206.83843
 20
295.368199
 30
0.0
 11
211.289755
 21
299.819524
 31
0.0
  0
LINE
  8
LC-004-005-----0
  6
CONTINUOUS
  5
1F3
 10
206.810235
 20
295.622847
 30
0.0
 11
211.105127
 21
299.917739
 31
0.0
  0
LINE
  8
LC-004-005-----0
  6
CONTINUOUS
  5
1F4
 10
206.806811
 20
295.902265
 30
0.0
 11
210.910147
 21
300.005601
 31
0.0
  0
LINE
  8
LC-004-005-----0
  6
CONTINUOUS
  5
1F5
 10
206.806811
 20
296.185108
 30
0.0
 11
210.703999
 21
300.082296
 31
0.0
  0
LINE
  8
LC-004-005-----0
  6
CONTINUOUS
  5
1F6
 10
206.806811
 20
296.467951
 30
0.0
 11
210.485581
 21
300.146721
 31
0.0
  0
LINE
  8
LC-004-005-----0
  6
CONTINUOUS
  5
1F7
 10
206.806811
 20
296.750793
 30
0.0
 11
210.253381
 21
300.197364
 31
0.0
  0
LINE
  8
LC-004-005-----0
  6
CONTINUOUS
  5
1F8
 10
206.806811
 20
297.033636
 30
0.0
 11
210.005278
 21
300.232103
 31
0.0
  0
LINE
  8
LC-004-005-----0
  6
CONTINUOUS
  5
1F9
 10
206.806811
 20
297.316479
 30
0.0
 11
209.738174
 21
300.247842
 31
0.0
  0
LINE
  8
LC-004-005-----0
  6
CONTINUOUS
  5
1FA
 10
206.806811
 20
297.599322
 30
0.0
 11
209.447278
 21
300.239789
 31
0.0
  0
LINE
  8
LC-004-005-----0
  6
CONTINUOUS
  5
1FB
 10
206.810951
 20
297.886305
 30
0.0
 11
209.124478
 21
300.199832
 31
0.0
  0
LINE
  8
LC-004-005-----0
  6
CONTINUOUS
  5
1FC
 10
206.854069
 20
298.212266
 30
0.0
 11
208.753848
 21
300.112044
 31
0.0
  0
LINE
  8
LC-004-005-----0
  6
CONTINUOUS
  5
1FD
 10
206.977875
 20
298.618914
 30
0.0
 11
208.293439
 21
299.934478
 31
0.0
  0
ENDBLK
  8
0
  5
1FE
  0
BLOCK
  8
0
  5
200
  2
*X38
 70
    65
 10
275.806667
 20
316.748331
 30
0.0
  3
*X38
  0
LINE
  8
LC-004-005-----0
  6
CONTINUOUS
  5
201
 10
277.257992
 20
316.855972
 30
0.0
 11
277.699026
 21
317.297006
 31
0.0
  0
LINE
  8
LC-004-005-----0
  6
CONTINUOUS
  5
202
 10
276.869484
 20
316.750306
 30
0.0
 11
277.804692
 21
317.685514
 31
0.0
  0
LINE
  8
LC-004-005-----0
  6
CONTINUOUS
  5
203
 10
276.605176
 20
316.768841
 30
0.0
 11
277.786157
 21
317.949822
 31
0.0
  0
LINE
  8
LC-004-005-----0
  6
CONTINUOUS
  5
204
 10
276.391897
 20
316.838405
 30
0.0
 11
277.716593
 21
318.163101
 31
0.0
  0
LINE
  8
LC-004-005-----0
  6
CONTINUOUS
  5
205
 10
276.213731
 20
316.943081
 30
0.0
 11
277.611916
 21
318.341267
 31
0.0
  0
LINE
  8
LC-004-005-----0
  6
CONTINUOUS
  5
206
 10
276.065175
 20
317.077369
 30
0.0
 11
277.477629
 21
318.489823
 31
0.0
  0
LINE
  8
LC-004-005-----0
  6
CONTINUOUS
  5
207
 10
275.945304
 20
317.24034
 30
0.0
 11
277.314658
 21
318.609694
 31
0.0
  0
LINE
  8
LC-004-005-----0
  6
CONTINUOUS
  5
208
 10
275.857047
 20
317.434926
 30
0.0
 11
277.120072
 21
318.697951
 31
0.0
  0
LINE
  8
LC-004-005-----0
  6
CONTINUOUS
  5
209
 10
275.809706
 20
317.670427
 30
0.0
 11
276.884571
 21
318.745292
 31
0.0
  0
LINE
  8
LC-004-005-----0
  6
CONTINUOUS
  5
20A
 10
275.833079
 20
317.976643
 30
0.0
 11
276.578355
 21
318.721919
 31
0.0
  0
ENDBLK
  8
0
  5
20B
  0
BLOCK
  8
0
  5
20D
  2
*X39
 70
    65
 10
201.306504
 20
291.748331
 30
0.0
  3
*X39
  0
LINE
  8
LC-004-005-----0
  6
CONTINUOUS
  5
20E
 10
308.718894
 20
291.748331
 30
0.0
 11
310.218894
 21
293.248331
 31
0.0
  0
LINE
  8
LC-004-005-----0
  6
CONTINUOUS
  5
20F
 10
306.306504
 20
292.164369
 30
0.0
 11
308.056028
 21
293.913892
 31
0.0
  0
LINE
  8
LC-004-005-----0
  6
CONTINUOUS
  5
210
 10
318.390467
 20
304.248331
 30
0.0
 11
318.967419
 21
304.825284
 31
0.0
  0
LINE
  8
LC-004-005-----0
  6
CONTINUOUS
  5
211
 10
306.306504
 20
294.992796
 30
0.0
 11
308.056028
 21
296.742319
 31
0.0
  0
LINE
  8
LC-004-005-----0
  6
CONTINUOUS
  5
212
 10
315.56204
 20
304.248331
 30
0.0
 11
318.06204
 21
306.748331
 31
0.0
  0
LINE
  8
LC-004-005-----0
  6
CONTINUOUS
  5
213
 10
306.306504
 20
297.821223
 30
0.0
 11
308.056028
 21
299.570746
 31
0.0
  0
LINE
  8
LC-004-005-----0
  6
CONTINUOUS
  5
214
 10
308.733613
 20
300.248331
 30
0.0
 11
310.556504
 21
302.071223
 31
0.0
  0
LINE
  8
LC-004-005-----0
  6
CONTINUOUS
  5
215
 10
312.733613
 20
304.248331
 30
0.0
 11
315.233613
 21
306.748331
 31
0.0
  0
LINE
  8
LC-004-005-----0
  6
CONTINUOUS
  5
216
 10
306.306504
 20
300.64965
 30
0.0
 11
312.405185
 21
306.748331
 31
0.0
  0
LINE
  8
LC-004-005-----0
  6
CONTINUOUS
  5
217
 10
306.306504
 20
303.478077
 30
0.0
 11
309.576758
 21
306.748331
 31
0.0
  0
LINE
  8
LC-004-005-----0
  6
CONTINUOUS
  5
218
 10
306.306504
 20
306.306504
 30
0.0
 11
308.306504
 21
308.306504
 31
0.0
  0
LINE
  8
LC-004-005-----0
  6
CONTINUOUS
  5
219
 10
306.306504
 20
309.134932
 30
0.0
 11
308.306504
 21
311.134932
 31
0.0
  0
LINE
  8
LC-004-005-----0
  6
CONTINUOUS
  5
21A
 10
306.299297
 20
311.956152
 30
0.0
 11
307.948757
 21
313.605611
 31
0.0
  0
LINE
  8
LC-004-005-----0
  6
CONTINUOUS
  5
21B
 10
305.405986
 20
313.891268
 30
0.0
 11
306.820244
 21
315.305526
 31
0.0
  0
LINE
  8
LC-004-005-----0
  6
CONTINUOUS
  5
21C
 10
303.431997
 20
314.745705
 30
0.0
 11
305.101364
 21
316.415073
 31
0.0
  0
LINE
  8
LC-004-005-----0
  6
CONTINUOUS
  5
21D
 10
300.606196
 20
314.748331
 30
0.0
 11
302.606196
 21
316.748331
 31
0.0
  0
LINE
  8
LC-004-005-----0
  6
CONTINUOUS
  5
21E
 10
297.777768
 20
314.748331
 30
0.0
 11
299.777768
 21
316.748331
 31
0.0
  0
LINE
  8
LC-004-005-----0
  6
CONTINUOUS
  5
21F
 10
294.949341
 20
314.748331
 30
0.0
 11
296.949341
 21
316.748331
 31
0.0
  0
LINE
  8
LC-004-005-----0
  6
CONTINUOUS
  5
220
 10
292.120914
 20
314.748331
 30
0.0
 11
294.120914
 21
316.748331
 31
0.0
  0
LINE
  8
LC-004-005-----0
  6
CONTINUOUS
  5
221
 10
289.292487
 20
314.748331
 30
0.0
 11
291.292487
 21
316.748331
 31
0.0
  0
LINE
  8
LC-004-005-----0
  6
CONTINUOUS
  5
222
 10
286.46406
 20
314.748331
 30
0.0
 11
288.46406
 21
316.748331
 31
0.0
  0
LINE
  8
LC-004-005-----0
  6
CONTINUOUS
  5
223
 10
283.635633
 20
314.748331
 30
0.0
 11
285.635633
 21
316.748331
 31
0.0
  0
LINE
  8
LC-004-005-----0
  6
CONTINUOUS
  5
224
 10
280.807206
 20
314.748331
 30
0.0
 11
282.807206
 21
316.748331
 31
0.0
  0
LINE
  8
LC-004-005-----0
  6
CONTINUOUS
  5
225
 10
277.978779
 20
314.748331
 30
0.0
 11
279.978779
 21
316.748331
 31
0.0
  0
LINE
  8
LC-004-005-----0
  6
CONTINUOUS
  5
226
 10
275.150351
 20
314.748331
 30
0.0
 11
277.150351
 21
316.748331
 31
0.0
  0
LINE
  8
LC-004-005-----0
  6
CONTINUOUS
  5
227
 10
272.321924
 20
314.748331
 30
0.0
 11
274.321924
 21
316.748331
 31
0.0
  0
LINE
  8
LC-004-005-----0
  6
CONTINUOUS
  5
228
 10
269.493497
 20
314.748331
 30
0.0
 11
271.493497
 21
316.748331
 31
0.0
  0
LINE
  8
LC-004-005-----0
  6
CONTINUOUS
  5
229
 10
266.66507
 20
314.748331
 30
0.0
 11
268.66507
 21
316.748331
 31
0.0
  0
LINE
  8
LC-004-005-----0
  6
CONTINUOUS
  5
22A
 10
268.806667
 20
316.889928
 30
0.0
 11
271.306667
 21
319.389928
 31
0.0
  0
LINE
  8
LC-004-005-----0
  6
CONTINUOUS
  5
22B
 10
263.836643
 20
314.748331
 30
0.0
 11
265.836643
 21
316.748331
 31
0.0
  0
LINE
  8
LC-004-005-----0
  6
CONTINUOUS
  5
22C
 10
268.806667
 20
319.718355
 30
0.0
 11
271.306667
 21
322.218355
 31
0.0
  0
LINE
  8
LC-004-005-----0
  6
CONTINUOUS
  5
22D
 10
261.008216
 20
314.748331
 30
0.0
 11
263.008216
 21
316.748331
 31
0.0
  0
LINE
  8
LC-004-005-----0
  6
CONTINUOUS
  5
22E
 10
268.806667
 20
322.546782
 30
0.0
 11
269.508216
 21
323.248331
 31
0.0
  0
LINE
  8
LC-004-005-----0
  6
CONTINUOUS
  5
22F
 10
258.179789
 20
314.748331
 30
0.0
 11
260.179789
 21
316.748331
 31
0.0
  0
LINE
  8
LC-004-005-----0
  6
CONTINUOUS
  5
230
 10
255.351362
 20
314.748331
 30
0.0
 11
257.351362
 21
316.748331
 31
0.0
  0
LINE
  8
LC-004-005-----0
  6
CONTINUOUS
  5
231
 10
252.522935
 20
314.748331
 30
0.0
 11
254.522935
 21
316.748331
 31
0.0
  0
LINE
  8
LC-004-005-----0
  6
CONTINUOUS
  5
232
 10
249.694507
 20
314.748331
 30
0.0
 11
251.694507
 21
316.748331
 31
0.0
  0
LINE
  8
LC-004-005-----0
  6
CONTINUOUS
  5
233
 10
246.86608
 20
314.748331
 30
0.0
 11
248.86608
 21
316.748331
 31
0.0
  0
LINE
  8
LC-004-005-----0
  6
CONTINUOUS
  5
234
 10
244.037653
 20
314.748331
 30
0.0
 11
246.037653
 21
316.748331
 31
0.0
  0
LINE
  8
LC-004-005-----0
  6
CONTINUOUS
  5
235
 10
241.209226
 20
314.748331
 30
0.0
 11
243.209226
 21
316.748331
 31
0.0
  0
LINE
  8
LC-004-005-----0
  6
CONTINUOUS
  5
236
 10
238.380799
 20
314.748331
 30
0.0
 11
240.380799
 21
316.748331
 31
0.0
  0
LINE
  8
LC-004-005-----0
  6
CONTINUOUS
  5
237
 10
212.552372
 20
291.748331
 30
0.0
 11
214.306504
 21
293.502464
 31
0.0
  0
LINE
  8
LC-004-005-----0
  6
CONTINUOUS
  5
238
 10
235.552372
 20
314.748331
 30
0.0
 11
237.552372
 21
316.748331
 31
0.0
  0
LINE
  8
LC-004-005-----0
  6
CONTINUOUS
  5
239
 10
210.056504
 20
292.080891
 30
0.0
 11
211.223945
 21
293.248331
 31
0.0
  0
LINE
  8
LC-004-005-----0
  6
CONTINUOUS
  5
23A
 10
212.556981
 20
294.581368
 30
0.0
 11
214.306504
 21
296.330891
 31
0.0
  0
LINE
  8
LC-004-005-----0
  6
CONTINUOUS
  5
23B
 10
232.723945
 20
314.748331
 30
0.0
 11
234.723945
 21
316.748331
 31
0.0
  0
LINE
  8
LC-004-005-----0
  6
CONTINUOUS
  5
23C
 10
212.556981
 20
297.409795
 30
0.0
 11
214.306504
 21
299.159318
 31
0.0
  0
LINE
  8
LC-004-005-----0
  6
CONTINUOUS
  5
23D
 10
229.895518
 20
314.748331
 30
0.0
 11
231.895518
 21
316.748331
 31
0.0
  0
LINE
  8
LC-004-005-----0
  6
CONTINUOUS
  5
23E
 10
212.556981
 20
300.238222
 30
0.0
 11
214.306504
 21
301.987745
 31
0.0
  0
LINE
  8
LC-004-005-----0
  6
CONTINUOUS
  5
23F
 10
227.06709
 20
314.748331
 30
0.0
 11
229.06709
 21
316.748331
 31
0.0
  0
LINE
  8
LC-004-005-----0
  6
CONTINUOUS
  5
240
 10
210.056504
 20
300.566172
 30
0.0
 11
214.306504
 21
304.816172
 31
0.0
  0
LINE
  8
LC-004-005-----0
  6
CONTINUOUS
  5
241
 10
224.238663
 20
314.748331
 30
0.0
 11
226.238663
 21
316.748331
 31
0.0
  0
LINE
  8
LC-004-005-----0
  6
CONTINUOUS
  5
242
 10
226.306667
 20
316.816335
 30
0.0
 11
228.806667
 21
319.316335
 31
0.0
  0
LINE
  8
LC-004-005-----0
  6
CONTINUOUS
  5
243
 10
210.056504
 20
303.394599
 30
0.0
 11
214.306504
 21
307.644599
 31
0.0
  0
LINE
  8
LC-004-005-----0
  6
CONTINUOUS
  5
244
 10
221.410236
 20
314.748331
 30
0.0
 11
223.410236
 21
316.748331
 31
0.0
  0
LINE
  8
LC-004-005-----0
  6
CONTINUOUS
  5
245
 10
226.306667
 20
319.644762
 30
0.0
 11
228.806667
 21
322.144762
 31
0.0
  0
LINE
  8
LC-004-005-----0
  6
CONTINUOUS
  5
246
 10
208.081809
 20
304.248331
 30
0.0
 11
210.581809
 21
306.748331
 31
0.0
  0
LINE
  8
LC-004-005-----0
  6
CONTINUOUS
  5
247
 10
212.306504
 20
308.473027
 30
0.0
 11
214.306504
 21
310.473027
 31
0.0
  0
LINE
  8
LC-004-005-----0
  6
CONTINUOUS
  5
248
 10
218.581809
 20
314.748331
 30
0.0
 11
220.581809
 21
316.748331
 31
0.0
  0
LINE
  8
LC-004-005-----0
  6
CONTINUOUS
  5
249
 10
226.306667
 20
322.473189
 30
0.0
 11
227.081809
 21
323.248331
 31
0.0
  0
LINE
  8
LC-004-005-----0
  6
CONTINUOUS
  5
24A
 10
205.253382
 20
304.248331
 30
0.0
 11
207.753382
 21
306.748331
 31
0.0
  0
LINE
  8
LC-004-005-----0
  6
CONTINUOUS
  5
24B
 10
212.306504
 20
311.301454
 30
0.0
 11
217.753382
 21
316.748331
 31
0.0
  0
LINE
  8
LC-004-005-----0
  6
CONTINUOUS
  5
24C
 10
202.424955
 20
304.248331
 30
0.0
 11
204.924955
 21
306.748331
 31
0.0
  0
LINE
  8
LC-004-005-----0
  6
CONTINUOUS
  5
24D
 10
201.424926
 20
306.07673
 30
0.0
 11
202.096528
 21
306.748331
 31
0.0
  0
ENDBLK
  8
0
  5
24E
  0
BLOCK
  8
0
  5
250
  2
BLK27
 70
    64
 10
0.0
 20
0.0
 30
0.0
  3
BLK27
  0
ENDBLK
  8
0
  5
251
  0
ENDSEC
  0
SECTION
  2
ENTITIES
  0
VIEWPORT
  8
LC-000
  5
3F1
 67
     1
 68
     1
 10
420.0
 20
297.0
 30
0.0
 40
840.0
 41
594.0
 69
     1
1001
ACAD
1000
MVIEW
1002
{
1070
    16
1010
0.0
1020
0.0
1030
0.0
1010
0.0
1020
0.0
1030
1.0
1040
0.0
1040
594.0
1040
420.0
1040
297.0
1040
50.0
1040
0.0
1040
0.0
1070
     0
1070
   100
1070
     1
1070
     1
1070
     0
1070
     0
1070
     0
1070
     0
1040
0.0
1040
0.0
1040
0.0
1040
1.0
1040
1.0
1040
0.0
1040
0.0
1070
     0
1002
{
1002
}
1002
}
  0
VIEWPORT
  8
0
  5
3F2
 67
     1
 68
     1
 10
0.0
 20
0.0
 30
0.0
 40
0.0
 41
0.0
 69
     1
1001
ACAD
1000
MVIEW
1002
{
1070
    16
1010
0.0
1020
0.0
1030
0.0
1010
0.0
1020
0.0
1030
1.0
1040
0.0
1040
594.0
1040
0.0
1040
0.0
1040
50.0
1040
0.0
1040
0.0
1070
     0
1070
   100
1070
     0
1070
     1
1070
     0
1070
     0
1070
     0
1070
     0
1040
0.0
1040
0.0
1040
0.0
1040
0.5
1040
0.5
1040
0.5
1040
0.5
1070
     0
1002
{
1002
}
1002
}
  0
INSERT
  8
0
  5
252
  2
*X0
 10
183.804675
 20
231.752492
 30
0.0
  0
INSERT
  8
0
  5
253
  2
*X1
 10
313.804207
 20
231.752492
 30
0.0
  0
DIMENSION
  8
0
  5
254
  2
*D2
 10
263.256744
 20
420.0
 30
0.0
 11
263.256744
 21
420.0
 31
0.0
 13
185.304675
 23
325.252566
 33
0.0
 14
335.304675
 24
325.252566
 34
0.0
  3
LC-DIM-L-0090-02-02
  0
INSERT
  8
0
  5
255
  2
*X3
 10
190.985153
 20
323.752566
 30
0.0
  0
INSERT
  8
0
  5
256
  2
*X4
 10
260.304675
 20
323.752566
 30
0.0
  0
INSERT
  8
0
  5
258
  2
BLK1
 10
0.0
 20
0.0
 30
0.0
  0
INSERT
  8
0
  5
259
  2
BLK2
 10
0.0
 20
0.0
 30
0.0
  0
INSERT
  8
0
  5
25A
  2
BLK3
 10
0.0
 20
0.0
 30
0.0
  0
INSERT
  8
0
  5
25B
  2
BLK4
 10
0.0
 20
0.0
 30
0.0
  0
INSERT
  8
0
  5
25C
  2
BLK5
 10
0.0
 20
0.0
 30
0.0
  0
INSERT
  8
0
  5
25D
  2
BLK6
 10
0.0
 20
0.0
 30
0.0
  0
INSERT
  8
0
  5
25E
  2
BLK7
 10
0.0
 20
0.0
 30
0.0
  0
INSERT
  8
0
  5
25F
  2
BLK8
 10
0.0
 20
0.0
 30
0.0
  0
INSERT
  8
0
  5
260
  2
BLK9
 10
0.0
 20
0.0
 30
0.0
  0
INSERT
  8
0
  5
261
  2
BLK10
 10
0.0
 20
0.0
 30
0.0
  0
INSERT
  8
0
  5
262
  2
BLK11
 10
0.0
 20
0.0
 30
0.0
  0
INSERT
  8
0
  5
263
  2
BLK12
 10
0.0
 20
0.0
 30
0.0
  0
INSERT
  8
0
  5
264
  2
BLK13
 10
0.0
 20
0.0
 30
0.0
  0
INSERT
  8
0
  5
265
  2
BLK14
 10
0.0
 20
0.0
 30
0.0
  0
INSERT
  8
0
  5
266
  2
BLK15
 10
0.0
 20
0.0
 30
0.0
  0
INSERT
  8
0
  5
267
  2
BLK16
 10
0.0
 20
0.0
 30
0.0
  0
INSERT
  8
0
  5
268
  2
BLK17
 10
0.0
 20
0.0
 30
0.0
  0
INSERT
  8
0
  5
26A
  2
BLK18
 10
0.0
 20
0.0
 30
0.0
  0
DIMENSION
  8
0
  5
26B
  2
*D23
 10
260.199228
 20
160.0
 30
0.0
 11
260.199228
 21
160.0
 31
0.0
  1
DN100
 13
208.270993
 23
207.913548
 33
0.0
 14
312.127463
 24
209.42315
 34
0.0
  3
LC-DIM-L-0090-02-02
  0
DIMENSION
  8
0
  5
26C
  2
*D24
 10
154.0
 20
271.752566
 30
0.0
 11
154.0
 21
271.752566
 31
0.0
 13
183.804675
 23
311.752566
 33
0.0
 14
193.804693
 24
231.752566
 34
0.0
 50
90.0
  3
LC-DIM-L-0090-02-02
  0
DIMENSION
  8
0
  5
26D
  2
*D25
 10
112.0
 20
279.252566
 30
0.0
 11
112.0
 21
279.252566
 31
0.0
 13
186.804675
 23
326.752566
 33
0.0
 14
193.804693
 24
231.752566
 34
0.0
 50
90.0
  3
LC-DIM-L-0090-02-02
  0
INSERT
  8
0
  5
26E
  2
BLK19
 10
0.0
 20
0.0
 30
0.0
  0
INSERT
  8
0
  5
26F
  2
BLK20
 10
0.0
 20
0.0
 30
0.0
  0
INSERT
  8
0
  5
270
  2
BLK21
 10
0.0
 20
0.0
 30
0.0
  0
INSERT
  8
0
  5
271
  2
BLK22
 10
0.0
 20
0.0
 30
0.0
  0
INSERT
  8
0
  5
272
  2
BLK23
 10
0.0
 20
0.0
 30
0.0
  0
INSERT
  8
0
  5
273
  2
BLK24
 10
0.0
 20
0.0
 30
0.0
  0
INSERT
  8
0
  5
274
  2
BLK25
 10
0.0
 20
0.0
 30
0.0
  0
INSERT
  8
0
  5
275
  2
BLK26
 10
0.0
 20
0.0
 30
0.0
  0
INSERT
  8
0
  5
276
  2
*X34
 10
193.879633
 20
227.552492
 30
0.0
  0
INSERT
  8
0
  5
277
  2
*X35
 10
312.127406
 20
227.550282
 30
0.0
  0
INSERT
  8
0
  5
278
  2
*X36
 10
307.702525
 20
293.248331
 30
0.0
  0
INSERT
  8
0
  5
279
  2
*X37
 10
206.453478
 20
293.248331
 30
0.0
  0
INSERT
  8
0
  5
27A
  2
*X38
 10
275.806667
 20
316.748331
 30
0.0
  0
INSERT
  8
0
  5
27B
  2
*X39
 10
201.306504
 20
291.748331
 30
0.0
  0
INSERT
  8
0
  5
27C
  2
BLK27
 10
0.0
 20
0.0
 30
0.0
  0
LINE
  8
LC-001-002-----0
  6
CONTINUOUS
  5
27E
 10
183.804675
 20
316.752566
 30
0.0
 11
183.804675
 21
311.752566
 31
0.0
  0
LINE
  8
LC-001-002-----0
  6
CONTINUOUS
  5
27F
 10
183.804675
 20
311.752566
 30
0.0
 11
189.304675
 21
311.752566
 31
0.0
  0
LINE
  8
LC-001-002-----0
  6
CONTINUOUS
  5
280
 10
189.304675
 20
315.752566
 30
0.0
 11
189.304675
 21
311.752566
 31
0.0
  0
LINE
  8
LC-001-002-----0
  6
CONTINUOUS
  5
281
 10
190.804675
 20
317.252566
 30
0.0
 11
192.307058
 21
317.252566
 31
0.0
  0
LINE
  8
LC-001-002-----0
  6
CONTINUOUS
  5
282
 10
190.004675
 20
321.752566
 30
0.0
 11
196.554675
 21
321.752566
 31
0.0
  0
LINE
  8
LC-001-002-----0
  6
CONTINUOUS
  5
283
 10
190.804675
 20
322.552566
 30
0.0
 11
196.554675
 21
322.552566
 31
0.0
  0
ARC
  8
LC-002-002-RND-0
  6
CONTINUOUS
  5
285
 10
192.307058
 20
315.752566
 30
0.0
 40
1.5
 50
359.998697
 51
90.0
  0
LINE
  8
LC-003-001-----0
  6
CONTINUOUS
  5
287
 10
333.804675
 20
326.752566
 30
0.0
 11
331.304674
 21
326.752566
 31
0.0
  0
ARC
  8
LC-001-002-----0
  6
CONTINUOUS
  5
288
 10
333.804675
 20
325.252566
 30
0.0
 40
1.5
 50
0.0
 51
90.000019
  0
ARC
  8
LC-001-002-----0
  6
CONTINUOUS
  5
289
 10
331.304675
 20
325.252566
 30
0.0
 40
1.5
 50
90.000019
 51
180.0
  0
ARC
  8
LC-003-001-----0
  6
CONTINUOUS
  5
28A
 10
331.304675
 20
325.252566
 30
0.0
 40
0.7
 50
90.0
 51
180.0
  0
ARC
  8
LC-002-002-RND-0
  6
CONTINUOUS
  5
28B
 10
199.029773
 20
299.749868
 30
0.0
 40
2.0
 50
90.002681
 51
180.0
  0
LINE
  8
LC-001-002-----0
  6
CONTINUOUS
  5
28C
 10
206.805142
 20
303.750232
 30
0.0
 11
206.805142
 21
291.748331
 31
0.0
  0
ARC
  8
LC-002-002-RND-0
  6
CONTINUOUS
  5
28D
 10
190.804675
 20
315.752566
 30
0.0
 40
1.5
 50
90.0
 51
180.0
  0
LINE
  8
LC-001-002-----0
  6
CONTINUOUS
  5
28E
 10
204.30494
 20
291.748331
 30
0.0
 11
206.805142
 21
291.748331
 31
0.0
  0
LINE
  8
LC-001-002-----0
  6
CONTINUOUS
  5
28F
 10
198.054675
 20
321.052566
 30
0.0
 11
198.054675
 21
320.052566
 31
0.0
  0
ARC
  8
LC-002-002-RND-0
  6
CONTINUOUS
  5
290
 10
196.554675
 20
321.052566
 30
0.0
 40
1.5
 50
0.0
 51
90.0
  0
LINE
  8
LC-001-002-----0
  6
CONTINUOUS
  5
291
 10
197.254675
 20
320.052566
 30
0.0
 11
226.306667
 21
320.052566
 31
0.0
  0
LINE
  8
LC-001-002-----0
  6
CONTINUOUS
  5
292
 10
197.254675
 20
321.052566
 30
0.0
 11
197.254675
 21
320.052566
 31
0.0
  0
LINE
  8
LC-001-002-----0
  6
CONTINUOUS
  5
293
 10
197.029716
 20
281.565436
 30
0.0
 11
318.776504
 21
281.564723
 31
0.0
  0
LINE
  8
LC-001-002-----0
  6
CONTINUOUS
  5
294
 10
201.056848
 20
303.749963
 30
0.0
 11
201.056848
 21
320.052566
 31
0.0
  0
ARC
  8
LC-002-002-RND-0
  6
CONTINUOUS
  5
295
 10
328.302291
 20
315.752566
 30
0.0
 40
1.5
 50
90.0
 51
180.001303
  0
LINE
  8
LC-001-002-----0
  6
CONTINUOUS
  5
296
 10
318.304502
 20
301.750022
 30
0.0
 11
321.57967
 21
301.749868
 31
0.0
  0
ARC
  8
LC-002-002-RND-0
  6
CONTINUOUS
  5
297
 10
202.30494
 20
299.750022
 30
0.0
 40
2.0
 50
0.0
 51
90.002681
  0
ARC
  8
LC-002-002-RND-0
  6
CONTINUOUS
  5
298
 10
321.579576
 20
299.749868
 30
0.0
 40
2.0
 50
360.0
 51
89.997319
  0
ARC
  8
LC-002-002-RND-0
  6
CONTINUOUS
  5
299
 10
196.554675
 20
321.052566
 30
0.0
 40
0.7
 50
0.0
 51
90.0
  0
ARC
  8
LC-003-001-----0
  6
CONTINUOUS
  5
29A
 10
333.804675
 20
325.252566
 30
0.0
 40
0.7
 50
0.000152
 51
90.0
  0
LINE
  8
LC-003-001-----0
  6
CONTINUOUS
  5
29B
 10
333.804675
 20
325.952566
 30
0.0
 11
331.304675
 21
325.952566
 31
0.0
  0
LINE
  8
LC-001-002-----0
  6
CONTINUOUS
  5
29C
 10
329.804675
 20
325.252566
 30
0.0
 11
329.804675
 21
322.552566
 31
0.0
  0
LINE
  8
LC-003-001-----0
  6
CONTINUOUS
  5
29D
 10
330.604675
 20
325.252566
 30
0.0
 11
330.604675
 21
321.752566
 31
0.0
  0
LINE
  8
LC-001-002-----0
  6
CONTINUOUS
  5
29E
 10
330.604675
 20
321.752566
 30
0.0
 11
324.054675
 21
321.752566
 31
0.0
  0
LINE
  8
LC-001-002-----0
  6
CONTINUOUS
  5
29F
 10
329.804675
 20
322.552566
 30
0.0
 11
324.054675
 21
322.552566
 31
0.0
  0
ARC
  8
LC-002-002-RND-0
  6
CONTINUOUS
  5
2A0
 10
324.054675
 20
321.052566
 30
0.0
 40
1.5
 50
90.0
 51
180.0
  0
ARC
  8
LC-002-002-RND-0
  6
CONTINUOUS
  5
2A1
 10
324.054675
 20
321.052566
 30
0.0
 40
0.7
 50
90.0
 51
180.0
  0
LINE
  8
LC-001-002-----0
  6
CONTINUOUS
  5
2A2
 10
323.354675
 20
321.052566
 30
0.0
 11
323.354675
 21
320.052566
 31
0.0
  0
LINE
  8
LC-001-002-----0
  6
CONTINUOUS
  5
2A3
 10
322.554675
 20
321.052566
 30
0.0
 11
322.554675
 21
320.052566
 31
0.0
  0
LINE
  8
LC-001-002-----0
  6
CONTINUOUS
  5
2A4
 10
323.354675
 20
320.052566
 30
0.0
 11
271.306667
 21
320.052566
 31
0.0
  0
LINE
  8
LC-001-002-----0
  6
CONTINUOUS
  5
2A5
 10
319.552501
 20
303.749963
 30
0.0
 11
319.552501
 21
320.052566
 31
0.0
  0
LINE
  8
LC-003-001-----0
  6
CONTINUOUS
  5
2A6
 10
334.504675
 20
325.252566
 30
0.0
 11
334.504675
 21
314.192382
 31
0.0
  0
LINE
  8
LC-001-002-----0
  6
CONTINUOUS
  5
2A7
 10
335.304675
 20
325.252566
 30
0.0
 11
335.304675
 21
314.192382
 31
0.0
  0
LINE
  8
LC-001-002-----0
  6
CONTINUOUS
  5
2A8
 10
335.304675
 20
314.192382
 30
0.0
 11
334.504675
 21
314.192382
 31
0.0
  0
LINE
  8
LC-001-002-----0
  6
CONTINUOUS
  5
2A9
 10
335.304675
 20
316.752566
 30
0.0
 11
336.804675
 21
316.752566
 31
0.0
  0
LINE
  8
LC-001-002-----0
  6
CONTINUOUS
  5
2AA
 10
336.804675
 20
316.752566
 30
0.0
 11
336.804675
 21
311.752566
 31
0.0
  0
LINE
  8
LC-001-002-----0
  6
CONTINUOUS
  5
2AB
 10
336.804675
 20
311.752566
 30
0.0
 11
331.304675
 21
311.752566
 31
0.0
  0
LINE
  8
LC-001-002-----0
  6
CONTINUOUS
  5
2AC
 10
331.304675
 20
315.752566
 30
0.0
 11
331.304675
 21
311.752566
 31
0.0
  0
ARC
  8
LC-002-002-RND-0
  6
CONTINUOUS
  5
2AD
 10
329.804675
 20
315.752566
 30
0.0
 40
1.5
 50
0.0
 51
90.0
  0
LINE
  8
LC-001-002-----0
  6
CONTINUOUS
  5
2AE
 10
329.804675
 20
317.252566
 30
0.0
 11
328.302291
 21
317.252566
 31
0.0
  0
ARC
  8
LC-002-002-RND-0
  6
CONTINUOUS
  5
2AF
 10
318.304409
 20
299.750022
 30
0.0
 40
2.0
 50
89.997319
 51
180.0
  0
LINE
  8
LC-001-002-----0
  6
CONTINUOUS
  5
2B0
 10
316.304409
 20
299.750022
 30
0.0
 11
316.304409
 21
291.748331
 31
0.0
  0
LINE
  8
LC-001-002-----0
  6
CONTINUOUS
  5
2B1
 10
316.304409
 20
291.748331
 30
0.0
 11
313.804207
 21
291.748331
 31
0.0
  0
ARC
  8
LC-001-002-----0
  6
CONTINUOUS
  5
2B2
 10
197.029326
 20
230.700282
 30
0.0
 40
3.15
 50
180.000558
 51
270.000558
  0
LINE
  8
LC-001-002-----0
  6
CONTINUOUS
  5
2B3
 10
197.029678
 20
231.752492
 30
0.0
 11
193.804693
 21
231.752566
 31
0.0
  0
LINE
  8
LC-001-002-----0
  6
DASHED
 62
     2
  5
2B5
 10
190.985153
 20
323.752566
 30
0.0
 11
304.407355
 21
403.171647
 31
0.0
  0
LINE
  8
LC-001-002-----0
  6
CONTINUOUS
  5
2B6
 10
190.804675
 20
325.252566
 30
0.0
 11
190.804675
 21
322.552566
 31
0.0
  0
LINE
  8
LC-001-002-----0
  6
CONTINUOUS
  5
2B7
 10
185.304675
 20
325.252566
 30
0.0
 11
185.304675
 21
314.192382
 31
0.0
  0
LINE
  8
LC-003-001-----0
  6
CONTINUOUS
  5
2B8
 10
186.804675
 20
326.752566
 30
0.0
 11
189.304675
 21
326.752566
 31
0.0
  0
ARC
  8
LC-001-002-----0
  6
CONTINUOUS
  5
2B9
 10
186.804675
 20
325.252566
 30
0.0
 40
1.5
 50
89.999981
 51
180.0
  0
ARC
  8
LC-003-001-----0
  6
CONTINUOUS
  5
2BA
 10
186.804675
 20
325.252566
 30
0.0
 40
0.7
 50
90.0
 51
179.999848
  0
LINE
  8
LC-003-001-----0
  6
CONTINUOUS
  5
2BB
 10
186.104675
 20
325.252566
 30
0.0
 11
186.104675
 21
314.192382
 31
0.0
  0
ARC
  8
LC-001-002-----0
  6
CONTINUOUS
  5
2BC
 10
189.304675
 20
325.252566
 30
0.0
 40
1.5
 50
0.0
 51
89.999981
  0
LINE
  8
LC-003-001-----0
  6
CONTINUOUS
  5
2BD
 10
186.804675
 20
325.952566
 30
0.0
 11
189.304675
 21
325.952566
 31
0.0
  0
ARC
  8
LC-003-001-----0
  6
CONTINUOUS
  5
2BE
 10
189.304675
 20
325.252566
 30
0.0
 40
0.7
 50
0.0
 51
90.0
  0
LINE
  8
LC-001-002-----0
  6
CONTINUOUS
  5
2BF
 10
185.304675
 20
314.192382
 30
0.0
 11
186.104675
 21
314.192382
 31
0.0
  0
LINE
  8
LC-003-001-----0
  6
DASHED
 62
     2
  5
2C0
 10
302.686626
 20
405.629103
 30
0.0
 11
190.985153
 21
327.414889
 31
0.0
  0
LINE
  8
LC-001-002-----0
  6
DASHED
 62
     2
  5
2C1
 10
302.686626
 20
405.629103
 30
0.0
 11
304.407355
 21
403.171647
 31
0.0
  0
LINE
  8
LC-001-002-----0
  6
CONTINUOUS
  5
2C2
 10
190.985153
 20
323.752566
 30
0.0
 11
329.448095
 21
323.752566
 31
0.0
  0
LINE
  8
LC-001-002-----0
  6
CONTINUOUS
  5
2C3
 10
190.985153
 20
327.414889
 30
0.0
 11
190.985153
 21
323.752566
 31
0.0
  0
LINE
  8
LC-001-002-----0
  6
CONTINUOUS
  5
2C4
 10
313.804207
 20
303.750232
 30
0.0
 11
313.804207
 21
291.748331
 31
0.0
  0
LINE
  8
LC-003-001-----0
  6
CONTINUOUS
  5
2C5
 10
313.804207
 20
303.750232
 30
0.0
 11
319.552501
 21
303.749963
 31
0.0
  0
LINE
  8
LC-003-001-----0
  6
CONTINUOUS
  5
2C6
 10
190.985153
 20
326.752566
 30
0.0
 11
260.304675
 21
326.752566
 31
0.0
  0
LINE
  8
LC-001-002-----0
  6
CONTINUOUS
  5
2C7
 10
329.448095
 20
326.752566
 30
0.0
 11
329.448095
 21
323.752566
 31
0.0
  0
LINE
  8
LC-003-001-----0
  6
CONTINUOUS
  5
2C8
 10
329.448095
 20
326.752566
 30
0.0
 11
260.304675
 21
326.752566
 31
0.0
  0
LINE
  8
LC-001-002-----0
  6
CONTINUOUS
  5
2C9
 10
193.879326
 20
230.700251
 30
0.0
 11
193.87935
 21
231.752564
 31
0.0
  0
LINE
  8
LC-001-002-----0
  6
CONTINUOUS
  5
2CA
 10
326.729909
 20
230.700251
 30
0.0
 11
326.729919
 21
231.750251
 31
0.0
  0
LINE
  8
LC-001-002-----0
  6
CONTINUOUS
 62
     2
  5
2CB
 10
231.084805
 20
442.168072
 30
0.0
 11
216.084805
 21
442.168072
 31
0.0
  0
LINE
  8
LC-001-002-----0
  6
CONTINUOUS
 62
     2
  5
2CC
 10
216.084805
 20
442.168072
 30
0.0
 11
216.084805
 21
427.168072
 31
0.0
  0
LINE
  8
LC-001-002-----0
  6
DASHED
 62
     2
  5
2CD
 10
208.270993
 20
277.588704
 30
0.0
 11
208.270993
 21
207.913548
 31
0.0
  0
LINE
  8
LC-001-002-----0
  6
DASHED
 62
     2
  5
2CE
 10
312.127463
 20
277.588704
 30
0.0
 11
312.127463
 21
209.42315
 31
0.0
  0
LINE
  8
LC-001-002-----0
  6
CONTINUOUS
  5
2CF
 10
442.804675
 20
487.252566
 30
0.0
 11
442.804675
 21
356.252566
 31
0.0
  0
ARC
  8
LC-001-002-----0
  6
CONTINUOUS
  5
2D0
 10
446.304675
 20
356.252566
 30
0.0
 40
3.5
 50
180.0
 51
270.000058
  0
LINE
  8
LC-001-002-----0
  6
CONTINUOUS
  5
2D1
 10
446.304675
 20
352.752566
 30
0.0
 11
511.804675
 21
352.752566
 31
0.0
  0
LINE
  8
LC-001-002-----0
  6
CONTINUOUS
  5
2D2
 10
442.804675
 20
386.002566
 30
0.0
 11
452.304675
 21
386.002566
 31
0.0
  0
LINE
  8
LC-001-002-----0
  6
CONTINUOUS
  5
2D3
 10
452.304675
 20
386.002566
 30
0.0
 11
452.304675
 21
370.502566
 31
0.0
  0
LINE
  8
LC-001-002-----0
  6
CONTINUOUS
  5
2D4
 10
452.304675
 20
370.502566
 30
0.0
 11
442.804675
 21
370.502566
 31
0.0
  0
LINE
  8
LC-001-002-----0
  6
DASHED
 62
     2
  5
2D5
 10
450.304675
 20
370.502566
 30
0.0
 11
450.304675
 21
386.002566
 31
0.0
  0
LINE
  8
LC-001-002-----0
  6
CONTINUOUS
  5
2D6
 10
577.304704
 20
352.752636
 30
0.0
 11
511.804705
 21
352.752678
 31
0.0
  0
ARC
  8
LC-001-002-----0
  6
CONTINUOUS
  5
2D7
 10
577.304707
 20
356.252636
 30
0.0
 40
3.5
 50
269.999963
 51
0.000021
  0
LINE
  8
LC-001-002-----0
  6
CONTINUOUS
  5
2D8
 10
580.804792
 20
487.252632
 30
0.0
 11
580.804707
 21
356.252633
 31
0.0
  0
LINE
  8
LC-001-002-----0
  6
CONTINUOUS
  5
2D9
 10
577.303489
 20
490.7482
 30
0.0
 11
511.803489
 21
490.748441
 31
0.0
  0
LINE
  8
LC-001-002-----0
  6
CONTINUOUS
  5
2DA
 10
446.303459
 20
490.748838
 30
0.0
 11
511.803459
 21
490.748554
 31
0.0
  0
ARC
  8
LC-001-002-----0
  6
CONTINUOUS
  5
2DB
 10
577.303476
 20
487.2482
 30
0.0
 40
3.5
 50
359.999579
 51
89.999789
  0
LINE
  8
LC-001-002-----0
  6
CONTINUOUS
  5
2DC
 10
452.303352
 20
457.498812
 30
0.0
 11
452.303419
 21
472.998812
 31
0.0
  0
LINE
  8
LC-001-002-----0
  6
DASHED
 62
     2
  5
2DD
 10
450.303419
 20
472.99882
 30
0.0
 11
450.303352
 21
457.49882
 31
0.0
  0
CIRCLE
  8
LC-001-002-----0
  6
CONTINUOUS
  5
2DE
 10
571.303323
 20
481.248191
 30
0.0
 40
3.5
  0
CIRCLE
  8
LC-001-002-----0
  6
CONTINUOUS
  5
2DF
 10
571.303323
 20
481.248191
 30
0.0
 40
5.0
  0
LINE
  8
LC-001-002-----0
  6
CONTINUOUS
  5
2E0
 10
225.503303
 20
-31.834007
 30
0.0
 11
225.503303
 21
-26.834007
 31
0.0
  0
ARC
  8
LC-001-002-----0
  6
CONTINUOUS
  5
2E1
 10
439.804675
 20
493.752566
 30
0.0
 40
3.0
 50
90.0
 51
179.999848
  0
LINE
  8
LC-001-002-----0
  6
CONTINUOUS
  5
2E2
 10
583.804675
 20
496.752566
 30
0.0
 11
439.804675
 21
496.752566
 31
0.0
  0
ARC
  8
LC-001-002-----0
  6
CONTINUOUS
  5
2E3
 10
583.804675
 20
493.752566
 30
0.0
 40
3.0
 50
0.0
 51
90.0
  0
ARC
  8
LC-001-002-----0
  6
CONTINUOUS
  5
2E4
 10
583.804675
 20
349.752566
 30
0.0
 40
3.0
 50
270.0
 51
0.0
  0
LINE
  8
LC-001-002-----0
  6
CONTINUOUS
  5
2E5
 10
586.804675
 20
349.752566
 30
0.0
 11
586.804675
 21
493.752566
 31
0.0
  0
LINE
  8
LC-001-002-----0
  6
CONTINUOUS
  5
2E6
 10
436.804675
 20
493.752566
 30
0.0
 11
436.804675
 21
349.752566
 31
0.0
  0
ARC
  8
LC-001-002-----0
  6
CONTINUOUS
  5
2E7
 10
439.804675
 20
349.752566
 30
0.0
 40
3.0
 50
180.0
 51
270.000058
  0
LINE
  8
LC-001-002-----0
  6
CONTINUOUS
  5
2E8
 10
439.804675
 20
346.752566
 30
0.0
 11
583.804675
 21
346.752566
 31
0.0
  0
ARC
  8
LC-001-002-----0
  6
CONTINUOUS
  5
2E9
 10
439.804675
 20
349.752566
 30
0.0
 40
4.5
 50
179.999848
 51
270.0
  0
ARC
  8
LC-001-002-----0
  6
CONTINUOUS
  5
2EA
 10
439.804675
 20
493.752566
 30
0.0
 40
4.5
 50
90.0
 51
179.999848
  0
LINE
  8
LC-001-002-----0
  6
CONTINUOUS
  5
2EB
 10
435.304675
 20
493.752566
 30
0.0
 11
435.304675
 21
349.752566
 31
0.0
  0
ARC
  8
LC-001-002-----0
  6
CONTINUOUS
  5
2EC
 10
583.804675
 20
493.752566
 30
0.0
 40
4.5
 50
0.0
 51
90.0
  0
LINE
  8
LC-001-002-----0
  6
CONTINUOUS
  5
2ED
 10
439.804675
 20
345.252566
 30
0.0
 11
583.804675
 21
345.252566
 31
0.0
  0
ARC
  8
LC-001-002-----0
  6
CONTINUOUS
  5
2EE
 10
583.804675
 20
349.752566
 30
0.0
 40
4.5
 50
270.0
 51
0.0
  0
LINE
  8
LC-001-002-----0
  6
CONTINUOUS
  5
2EF
 10
588.304675
 20
349.752566
 30
0.0
 11
588.304675
 21
493.752566
 31
0.0
  0
LINE
  8
LC-001-002-----0
  6
CONTINUOUS
  5
2F0
 10
197.029773
 20
257.728914
 30
0.0
 11
197.029773
 21
299.749868
 31
0.0
  0
LINE
  8
LC-001-002-----0
  6
DASHED
 62
     2
  5
2F1
 10
208.270993
 20
277.588704
 30
0.0
 11
312.127463
 21
277.588704
 31
0.0
  0
LINE
  8
LC-001-002-----0
  6
DASHED
 62
     2
  5
2F2
 10
211.270993
 20
277.588704
 30
0.0
 11
211.270993
 21
207.913548
 31
0.0
  0
LINE
  8
LC-001-002-----0
  6
DASHED
 62
     2
  5
2F3
 10
309.127463
 20
277.588704
 30
0.0
 11
309.127463
 21
210.091241
 31
0.0
  0
LINE
  8
LC-001-002-----0
  6
CONTINUOUS
 62
     2
  5
2F4
 10
208.270993
 20
207.913548
 30
0.0
 11
226.796869
 21
205.197995
 31
0.0
  0
LINE
  8
LC-001-002-----0
  6
CONTINUOUS
 62
     2
  5
2F5
 10
226.796869
 20
205.197995
 30
0.0
 11
241.258269
 21
213.331259
 31
0.0
  0
LINE
  8
LC-001-002-----0
  6
CONTINUOUS
 62
     2
  5
2F6
 10
241.258269
 20
213.331259
 30
0.0
 11
252.028099
 21
206.658642
 31
0.0
  0
LINE
  8
LC-001-002-----0
  6
CONTINUOUS
 62
     2
  5
2F7
 10
252.028099
 20
206.658642
 30
0.0
 11
268.708629
 21
212.636364
 31
0.0
  0
LINE
  8
LC-001-002-----0
  6
CONTINUOUS
 62
     2
  5
2F8
 10
268.708629
 20
212.636364
 30
0.0
 11
281.706672
 21
203.183252
 31
0.0
  0
LINE
  8
LC-001-002-----0
  6
CONTINUOUS
 62
     2
  5
2F9
 10
281.706672
 20
203.183252
 30
0.0
 11
300.53366
 21
212.005057
 31
0.0
  0
LINE
  8
LC-001-002-----0
  6
CONTINUOUS
 62
     2
  5
2FA
 10
300.53366
 20
212.005057
 30
0.0
 11
312.127463
 21
209.42315
 31
0.0
  0
LINE
  8
LC-001-002-----0
  6
CONTINUOUS
  5
2FB
 10
204.30494
 20
299.750022
 30
0.0
 11
204.30494
 21
291.748331
 31
0.0
  0
LINE
  8
LC-001-002-----0
  6
CONTINUOUS
  5
2FC
 10
326.804693
 20
231.75025
 30
0.0
 11
326.806603
 21
315.7526
 31
0.0
  0
LINE
  8
LC-001-002-----0
  6
CONTINUOUS
 62
     2
  5
2FD
 10
231.084805
 20
427.168072
 30
0.0
 11
216.084805
 21
427.168072
 31
0.0
  0
LINE
  8
LC-001-002-----0
  6
CONTINUOUS
  5
2FE
 10
193.804693
 20
231.752566
 30
0.0
 11
193.806603
 21
315.752532
 31
0.0
  0
LINE
  8
LC-001-002-----0
  6
CONTINUOUS
 62
     2
  5
2FF
 10
231.084805
 20
442.168072
 30
0.0
 11
231.084805
 21
427.168072
 31
0.0
  0
LINE
  8
LC-001-002-----0
  6
DASHDOT
 62
     2
  5
301
 10
260.304675
 20
326.752566
 30
0.0
 11
260.304675
 21
209.624679
 31
0.0
  0
ARC
  8
LC-001-002-----0
  6
CONTINUOUS
  5
302
 10
446.303444
 20
487.248838
 30
0.0
 40
3.5
 50
89.999522
 51
179.999752
  0
ARC
  8
LC-003-001-----0
  6
CONTINUOUS
  5
303
 10
446.304675
 20
487.248838
 30
0.0
 40
4.0
 50
89.999752
 51
180.0
  0
LINE
  8
LC-003-001-----0
  6
CONTINUOUS
  5
304
 10
446.304692
 20
491.248838
 30
0.0
 11
511.803461
 21
491.248554
 31
0.0
  0
LINE
  8
LC-003-001-----0
  6
CONTINUOUS
  5
305
 10
577.304807
 20
491.2482
 30
0.0
 11
511.803491
 21
491.248441
 31
0.0
  0
ARC
  8
LC-003-001-----0
  6
CONTINUOUS
  5
306
 10
577.304792
 20
487.2482
 30
0.0
 40
4.0
 50
0.000021
 51
89.999789
  0
LINE
  8
LC-003-001-----0
  6
CONTINUOUS
  5
307
 10
577.304704
 20
352.252636
 30
0.0
 11
511.804705
 21
352.252678
 31
0.0
  0
ARC
  8
LC-003-001-----0
  6
CONTINUOUS
  5
308
 10
577.304707
 20
356.252636
 30
0.0
 40
4.0
 50
269.999963
 51
0.000021
  0
LINE
  8
LC-003-001-----0
  6
CONTINUOUS
  5
309
 10
581.304792
 20
487.248197
 30
0.0
 11
581.304707
 21
356.252633
 31
0.0
  0
LINE
  8
LC-003-001-----0
  6
CONTINUOUS
  5
30A
 10
442.304675
 20
487.248838
 30
0.0
 11
442.304675
 21
356.252566
 31
0.0
  0
ARC
  8
LC-003-001-----0
  6
CONTINUOUS
  5
30B
 10
446.304675
 20
356.252566
 30
0.0
 40
4.0
 50
180.0
 51
270.000058
  0
LINE
  8
LC-003-001-----0
  6
CONTINUOUS
  5
30C
 10
446.304675
 20
352.252566
 30
0.0
 11
511.804675
 21
352.252566
 31
0.0
  0
CIRCLE
  8
LC-001-002-----0
  6
CONTINUOUS
  5
30D
 10
458.304675
 20
378.252566
 30
0.0
 40
6.0
  0
ARC
  8
LC-001-002-----0
  6
CONTINUOUS
  5
30E
 10
463.804672
 20
385.502516
 30
0.0
 40
0.5
 50
359.99981
 51
89.999752
  0
LINE
  8
LC-001-002-----0
  6
CONTINUOUS
  5
30F
 10
452.304675
 20
370.502566
 30
0.0
 11
463.804607
 21
370.502516
 31
0.0
  0
ARC
  8
LC-001-002-----0
  6
CONTINUOUS
  5
310
 10
463.804609
 20
371.002516
 30
0.0
 40
0.5
 50
269.999752
 51
359.99981
  0
LINE
  8
LC-003-001-----0
  6
CONTINUOUS
  5
311
 10
464.304609
 20
371.002514
 30
0.0
 11
464.304672
 21
385.502514
 31
0.0
  0
CIRCLE
  8
LC-001-002-----0
  6
CONTINUOUS
  5
312
 10
458.304675
 20
378.252566
 30
0.0
 40
3.25
  0
ARC
  8
LC-001-002-----0
  6
CONTINUOUS
  5
313
 10
463.803354
 20
457.998762
 30
0.0
 40
0.5
 50
269.999752
 51
359.99981
  0
LINE
  8
LC-001-002-----0
  6
CONTINUOUS
  5
314
 10
463.804675
 20
386.002516
 30
0.0
 11
452.304675
 21
386.002566
 31
0.0
  0
LINE
  8
LC-001-002-----0
  6
CONTINUOUS
  5
315
 10
442.803352
 20
457.498853
 30
0.0
 11
463.803352
 21
457.498762
 31
0.0
  0
LINE
  8
LC-001-002-----0
  6
CONTINUOUS
  5
316
 10
463.803419
 20
472.998762
 30
0.0
 11
442.803419
 21
472.998853
 31
0.0
  0
ARC
  8
LC-001-002-----0
  6
CONTINUOUS
  5
317
 10
463.803417
 20
472.498762
 30
0.0
 40
0.5
 50
359.99981
 51
89.999752
  0
LINE
  8
LC-003-001-----0
  6
CONTINUOUS
  5
318
 10
464.303354
 20
457.99876
 30
0.0
 11
464.303417
 21
472.49876
 31
0.0
  0
LINE
  8
LC-001-002-----0
  6
CONTINUOUS
  5
319
 10
202.304847
 20
301.750022
 30
0.0
 11
199.029679
 21
301.749868
 31
0.0
  0
LINE
  8
LC-003-001-----0
  6
CONTINUOUS
  5
31A
 10
206.805142
 20
303.750232
 30
0.0
 11
201.056848
 21
303.749963
 31
0.0
  0
LINE
  8
LC-001-002-----0
  6
CONTINUOUS
  5
31B
 10
185.304675
 20
316.752566
 30
0.0
 11
183.804675
 21
316.752566
 31
0.0
  0
LINE
  8
LC-003-001-----0
  6
CONTINUOUS
  5
31C
 10
190.004675
 20
325.252566
 30
0.0
 11
190.004675
 21
321.752566
 31
0.0
  0
CIRCLE
  8
LC-001-002-----0
  6
CONTINUOUS
  5
31D
 10
571.303323
 20
363.248191
 30
0.0
 40
3.5
  0
CIRCLE
  8
LC-001-002-----0
  6
CONTINUOUS
  5
31E
 10
571.303323
 20
363.248191
 30
0.0
 40
5.0
  0
CIRCLE
  8
LC-001-002-----0
  6
CONTINUOUS
  5
31F
 10
458.304675
 20
465.248853
 30
0.0
 40
6.0
  0
CIRCLE
  8
LC-001-002-----0
  6
CONTINUOUS
  5
320
 10
458.304675
 20
465.248853
 30
0.0
 40
3.25
  0
LINE
  8
LC-001-002-----0
  6
CONTINUOUS
  5
321
 10
315.305143
 20
276.565021
 30
0.0
 11
315.305202
 21
281.564743
 31
0.0
  0
LINE
  8
LC-003-001-----0
  6
CONTINUOUS
  5
322
 10
445.304675
 20
503.252566
 30
0.0
 11
445.304675
 21
498.252566
 31
0.0
  0
LINE
  8
LC-003-001-----0
  6
CONTINUOUS
  5
323
 10
575.304675
 20
503.252566
 30
0.0
 11
575.304675
 21
498.252566
 31
0.0
  0
LINE
  8
LC-003-001-----0
  6
CONTINUOUS
  5
324
 10
455.304675
 20
503.252566
 30
0.0
 11
455.304675
 21
498.252566
 31
0.0
  0
LINE
  8
LC-003-001-----0
  6
CONTINUOUS
  5
325
 10
565.304675
 20
503.252566
 30
0.0
 11
565.304675
 21
498.252566
 31
0.0
  0
ARC
  8
LC-001-002-----0
  6
CONTINUOUS
  5
326
 10
450.304675
 20
503.252566
 30
0.0
 40
5.0
 50
0.0
 51
179.999848
  0
ARC
  8
LC-001-002-----0
  6
CONTINUOUS
  5
327
 10
570.304675
 20
503.252566
 30
0.0
 40
5.0
 50
0.0
 51
179.999848
  0
CIRCLE
  8
LC-001-002-----0
  6
CONTINUOUS
  5
328
 10
570.304675
 20
503.252566
 30
0.0
 40
1.4
  0
CIRCLE
  8
LC-001-002-----0
  6
CONTINUOUS
  5
329
 10
450.304675
 20
503.252566
 30
0.0
 40
1.4
  0
CIRCLE
  8
LC-001-002-----0
  6
CONTINUOUS
  5
32A
 10
450.303154
 20
340.250892
 30
0.0
 40
1.4
  0
ARC
  8
LC-001-002-----0
  6
CONTINUOUS
  5
32B
 10
450.303154
 20
340.250892
 30
0.0
 40
5.0
 50
179.999906
 51
359.999696
  0
LINE
  8
LC-003-001-----0
  6
CONTINUOUS
  5
32C
 10
455.303154
 20
340.250865
 30
0.0
 11
455.30318
 21
345.250865
 31
0.0
  0
LINE
  8
LC-003-001-----0
  6
CONTINUOUS
  5
32D
 10
445.303154
 20
340.250918
 30
0.0
 11
445.30318
 21
345.250918
 31
0.0
  0
CIRCLE
  8
LC-001-002-----0
  6
CONTINUOUS
  5
32E
 10
570.303154
 20
340.250255
 30
0.0
 40
1.4
  0
ARC
  8
LC-001-002-----0
  6
CONTINUOUS
  5
32F
 10
570.303154
 20
340.250255
 30
0.0
 40
5.0
 50
179.999906
 51
359.999696
  0
LINE
  8
LC-003-001-----0
  6
CONTINUOUS
  5
330
 10
565.303154
 20
340.250281
 30
0.0
 11
565.30318
 21
345.250281
 31
0.0
  0
LINE
  8
LC-003-001-----0
  6
CONTINUOUS
  5
331
 10
575.303154
 20
340.250228
 30
0.0
 11
575.30318
 21
345.250228
 31
0.0
  0
LINE
  8
LC-001-002-----0
  6
CONTINUOUS
  5
332
 10
319.681952
 20
272.611463
 30
0.0
 11
315.305143
 21
276.564969
 31
0.0
  0
LINE
  8
LC-001-002-----0
  6
CONTINUOUS
  5
333
 10
200.928241
 20
272.612855
 30
0.0
 11
205.305143
 21
276.566259
 31
0.0
  0
LINE
  8
LC-001-002-----0
  6
CONTINUOUS
  5
334
 10
205.305143
 20
276.566311
 30
0.0
 11
205.305202
 21
281.566032
 31
0.0
  0
ARC
  8
LC-002-002-RND-0
  6
CONTINUOUS
  5
335
 10
201.31935
 20
271.972907
 30
0.0
 40
0.75
 50
121.431492
 51
269.999252
  0
LINE
  8
LC-001-002-----0
  6
CONTINUOUS
  5
336
 10
439.804675
 20
498.252566
 30
0.0
 11
583.804675
 21
498.252566
 31
0.0
  0
LINE
  8
LC-003-001-----0
  6
CONTINUOUS
  5
337
 10
445.304675
 20
313.252566
 30
0.0
 11
445.304675
 21
308.252566
 31
0.0
  0
LINE
  8
LC-003-001-----0
  6
CONTINUOUS
  5
338
 10
575.304675
 20
313.252566
 30
0.0
 11
575.304675
 21
308.252566
 31
0.0
  0
LINE
  8
LC-003-001-----0
  6
CONTINUOUS
  5
339
 10
455.304675
 20
313.252566
 30
0.0
 11
455.304675
 21
308.252566
 31
0.0
  0
LINE
  8
LC-003-001-----0
  6
CONTINUOUS
  5
33A
 10
565.304675
 20
313.252566
 30
0.0
 11
565.304675
 21
308.252566
 31
0.0
  0
ARC
  8
LC-001-002-----0
  6
CONTINUOUS
  5
33B
 10
450.304675
 20
313.252566
 30
0.0
 40
5.0
 50
0.0
 51
179.999848
  0
ARC
  8
LC-001-002-----0
  6
CONTINUOUS
  5
33C
 10
570.304675
 20
313.252566
 30
0.0
 40
5.0
 50
0.0
 51
179.999848
  0
CIRCLE
  8
LC-001-002-----0
  6
CONTINUOUS
  5
33D
 10
570.304675
 20
313.252566
 30
0.0
 40
1.4
  0
CIRCLE
  8
LC-001-002-----0
  6
CONTINUOUS
  5
33E
 10
450.304675
 20
313.252566
 30
0.0
 40
1.4
  0
CIRCLE
  8
LC-001-002-----0
  6
CONTINUOUS
  5
33F
 10
450.303154
 20
150.250892
 30
0.0
 40
1.4
  0
ARC
  8
LC-001-002-----0
  6
CONTINUOUS
  5
340
 10
450.303154
 20
150.250892
 30
0.0
 40
5.0
 50
179.999906
 51
359.999696
  0
LINE
  8
LC-003-001-----0
  6
CONTINUOUS
  5
341
 10
455.303154
 20
150.250865
 30
0.0
 11
455.30318
 21
155.250865
 31
0.0
  0
LINE
  8
LC-003-001-----0
  6
CONTINUOUS
  5
342
 10
445.303154
 20
150.250918
 30
0.0
 11
445.30318
 21
155.250918
 31
0.0
  0
CIRCLE
  8
LC-001-002-----0
  6
CONTINUOUS
  5
343
 10
570.303154
 20
150.250255
 30
0.0
 40
1.4
  0
ARC
  8
LC-001-002-----0
  6
CONTINUOUS
  5
344
 10
570.303154
 20
150.250255
 30
0.0
 40
5.0
 50
179.999906
 51
359.999696
  0
LINE
  8
LC-003-001-----0
  6
CONTINUOUS
  5
345
 10
565.303154
 20
150.250281
 30
0.0
 11
565.30318
 21
155.250281
 31
0.0
  0
LINE
  8
LC-003-001-----0
  6
CONTINUOUS
  5
346
 10
575.303154
 20
150.250228
 30
0.0
 11
575.30318
 21
155.250228
 31
0.0
  0
LINE
  8
LC-003-001-----0
  6
CONTINUOUS
  5
347
 10
446.304692
 20
301.248838
 30
0.0
 11
511.803461
 21
301.248554
 31
0.0
  0
LINE
  8
LC-003-001-----0
  6
CONTINUOUS
  5
348
 10
577.304807
 20
301.2482
 30
0.0
 11
511.803491
 21
301.248441
 31
0.0
  0
LINE
  8
LC-001-002-----0
  6
CONTINUOUS
  5
349
 10
583.804675
 20
306.752566
 30
0.0
 11
439.804675
 21
306.752566
 31
0.0
  0
LINE
  8
LC-001-002-----0
  6
CONTINUOUS
  5
34A
 10
439.804675
 20
308.252566
 30
0.0
 11
583.804675
 21
308.252566
 31
0.0
  0
LINE
  8
LC-001-002-----0
  6
CONTINUOUS
  5
34B
 10
435.304675
 20
303.752566
 30
0.0
 11
435.304675
 21
159.752566
 31
0.0
  0
LINE
  8
LC-001-002-----0
  6
CONTINUOUS
  5
34C
 10
436.804675
 20
303.752566
 30
0.0
 11
436.804675
 21
159.752566
 31
0.0
  0
LINE
  8
LC-001-002-----0
  6
CONTINUOUS
  5
34D
 10
439.804675
 20
155.252566
 30
0.0
 11
583.804675
 21
155.252566
 31
0.0
  0
LINE
  8
LC-001-002-----0
  6
CONTINUOUS
  5
34E
 10
439.804675
 20
156.752566
 30
0.0
 11
583.804675
 21
156.752566
 31
0.0
  0
LINE
  8
LC-003-001-----0
  6
CONTINUOUS
  5
34F
 10
446.304675
 20
162.252566
 30
0.0
 11
511.804675
 21
162.252566
 31
0.0
  0
LINE
  8
LC-001-002-----0
  6
CONTINUOUS
  5
350
 10
586.804675
 20
159.752566
 30
0.0
 11
586.804675
 21
303.752566
 31
0.0
  0
LINE
  8
LC-001-002-----0
  6
CONTINUOUS
  5
351
 10
588.304675
 20
159.752566
 30
0.0
 11
588.304675
 21
303.752566
 31
0.0
  0
ARC
  8
LC-001-002-----0
  6
CONTINUOUS
  5
352
 10
439.804675
 20
303.752566
 30
0.0
 40
4.5
 50
90.0
 51
179.999848
  0
ARC
  8
LC-001-002-----0
  6
CONTINUOUS
  5
353
 10
439.804675
 20
303.752566
 30
0.0
 40
3.0
 50
90.0
 51
179.999848
  0
ARC
  8
LC-001-002-----0
  6
CONTINUOUS
  5
354
 10
583.804675
 20
303.752566
 30
0.0
 40
3.0
 50
0.0
 51
90.0
  0
ARC
  8
LC-001-002-----0
  6
CONTINUOUS
  5
355
 10
583.804675
 20
303.752566
 30
0.0
 40
4.5
 50
0.0
 51
90.0
  0
ARC
  8
LC-003-001-----0
  6
CONTINUOUS
  5
356
 10
446.304675
 20
297.248838
 30
0.0
 40
4.0
 50
89.999752
 51
180.0
  0
ARC
  8
LC-003-001-----0
  6
CONTINUOUS
  5
357
 10
577.304792
 20
297.2482
 30
0.0
 40
4.0
 50
0.000021
 51
89.999789
  0
ARC
  8
LC-001-002-----0
  6
CONTINUOUS
  5
358
 10
439.804675
 20
159.752566
 30
0.0
 40
3.0
 50
180.0
 51
270.000058
  0
ARC
  8
LC-001-002-----0
  6
CONTINUOUS
  5
359
 10
439.804675
 20
159.752566
 30
0.0
 40
4.5
 50
179.999848
 51
270.0
  0
ARC
  8
LC-003-001-----0
  6
CONTINUOUS
  5
35A
 10
446.304675
 20
166.252566
 30
0.0
 40
4.0
 50
180.0
 51
270.000058
  0
ARC
  8
LC-003-001-----0
  6
CONTINUOUS
  5
35B
 10
577.304707
 20
166.252636
 30
0.0
 40
4.0
 50
269.999963
 51
0.000021
  0
ARC
  8
LC-001-002-----0
  6
CONTINUOUS
  5
35C
 10
583.804675
 20
159.752566
 30
0.0
 40
4.5
 50
270.0
 51
0.0
  0
ARC
  8
LC-001-002-----0
  6
CONTINUOUS
  5
35D
 10
583.804675
 20
159.752566
 30
0.0
 40
3.0
 50
270.0
 51
0.0
  0
LINE
  8
LC-003-001-----0
  6
CONTINUOUS
  5
35E
 10
442.304675
 20
297.248838
 30
0.0
 11
442.304675
 21
166.252566
 31
0.0
  0
LINE
  8
LC-003-001-----0
  6
CONTINUOUS
  5
35F
 10
446.304675
 20
162.252566
 30
0.0
 11
511.804675
 21
162.252566
 31
0.0
  0
LINE
  8
LC-003-001-----0
  6
CONTINUOUS
  5
360
 10
577.304704
 20
162.252636
 30
0.0
 11
511.804705
 21
162.252678
 31
0.0
  0
LINE
  8
LC-003-001-----0
  6
CONTINUOUS
  5
361
 10
581.304792
 20
297.248197
 30
0.0
 11
581.304756
 21
241.292044
 31
0.0
  0
ARC
  8
LC-001-002-----0
  6
CONTINUOUS
  5
362
 10
584.304704
 20
231.752636
 30
0.0
 40
10.0
 50
107.457293
 51
252.542632
  0
LINE
  8
LC-003-001-----0
  6
CONTINUOUS
  5
363
 10
581.304743
 20
222.213231
 30
0.0
 11
581.304707
 21
166.252633
 31
0.0
  0
LINE
  8
LC-001-002-----0
  6
DASHED
 62
     2
  5
364
 10
231.533248
 20
603.453872
 30
0.0
 11
232.967251
 21
601.405902
 31
0.0
  0
ARC
  8
LC-002-002-RND-0
  6
CONTINUOUS
  5
365
 10
319.290828
 20
271.971524
 30
0.0
 40
0.75
 50
269.999404
 51
58.567164
  0
LINE
  8
LC-001-002-----0
  6
CONTINUOUS
  5
366
 10
312.127406
 20
271.221601
 30
0.0
 11
319.29082
 21
271.221524
 31
0.0
  0
LINE
  8
LC-001-002-----0
  6
CONTINUOUS
  5
367
 10
323.579707
 20
231.750282
 30
0.0
 11
323.579978
 21
257.727679
 31
0.0
  0
LINE
  8
LC-001-002-----0
  6
CONTINUOUS
  5
368
 10
312.292159
 20
233.326252
 30
0.0
 11
323.579878
 21
227.550282
 31
0.0
  0
LINE
  8
LC-001-002-----0
  6
CONTINUOUS
  5
369
 10
452.304675
 20
282.998812
 30
0.0
 11
442.304675
 21
282.998855
 31
0.0
  0
LINE
  8
LC-001-002-----0
  6
CONTINUOUS
  5
36A
 10
442.304675
 20
267.498855
 30
0.0
 11
452.304675
 21
267.498812
 31
0.0
  0
LINE
  8
LC-001-002-----0
  6
CONTINUOUS
  5
36B
 10
442.304675
 20
196.002566
 30
0.0
 11
452.304675
 21
196.002566
 31
0.0
  0
LINE
  8
LC-001-002-----0
  6
CONTINUOUS
  5
36C
 10
452.304675
 20
180.502566
 30
0.0
 11
442.304675
 21
180.502566
 31
0.0
  0
LINE
  8
LC-001-002-----0
  6
CONTINUOUS
  5
36D
 10
452.304675
 20
282.998812
 30
0.0
 11
452.304675
 21
267.498855
 31
0.0
  0
LINE
  8
LC-001-002-----0
  6
CONTINUOUS
  5
36E
 10
452.304675
 20
196.002566
 30
0.0
 11
452.304675
 21
180.502566
 31
0.0
  0
CIRCLE
  8
LC-001-002-----0
  6
CONTINUOUS
  5
36F
 10
571.303323
 20
291.248191
 30
0.0
 40
5.0
  0
CIRCLE
  8
LC-001-002-----0
  6
CONTINUOUS
  5
370
 10
571.303323
 20
173.248191
 30
0.0
 40
5.0
  0
LINE
  8
LC-001-002-----0
  6
CONTINUOUS
  5
371
 10
567.277461
 20
170.282989
 30
0.0
 11
574.268526
 21
177.274054
 31
0.0
  0
LINE
  8
LC-001-002-----0
  6
CONTINUOUS
  5
372
 10
568.29812
 20
169.182327
 30
0.0
 11
575.369187
 21
176.253395
 31
0.0
  0
LINE
  8
LC-001-002-----0
  6
CONTINUOUS
  5
373
 10
567.277461
 20
288.282989
 30
0.0
 11
574.268526
 21
295.274054
 31
0.0
  0
LINE
  8
LC-001-002-----0
  6
CONTINUOUS
  5
374
 10
568.338121
 20
287.222328
 30
0.0
 11
575.329186
 21
294.213394
 31
0.0
  0
LINE
  8
LC-001-002-----0
  6
CONTINUOUS
  5
375
 10
310.556504
 20
304.248331
 30
0.0
 11
318.865687
 21
304.248331
 31
0.0
  0
LINE
  8
LC-001-002-----0
  6
CONTINUOUS
  5
376
 10
319.306504
 20
306.748331
 30
0.0
 11
308.306504
 21
306.748331
 31
0.0
  0
LINE
  8
LC-001-002-----0
  6
CONTINUOUS
  5
377
 10
310.556504
 20
304.248331
 30
0.0
 11
310.556504
 21
300.248331
 31
0.0
  0
LINE
  8
LC-001-002-----0
  6
CONTINUOUS
  5
378
 10
310.556504
 20
291.748331
 30
0.0
 11
260.306504
 21
291.748331
 31
0.0
  0
LINE
  8
LC-001-002-----0
  6
CONTINUOUS
  5
379
 10
308.306504
 20
311.748331
 30
0.0
 11
308.306504
 21
306.748331
 31
0.0
  0
LINE
  8
LC-001-002-----0
  6
CONTINUOUS
  5
37A
 10
303.306504
 20
316.748331
 30
0.0
 11
271.306667
 21
316.748331
 31
0.0
  0
ARC
  8
LC-002-002-RND-0
  6
CONTINUOUS
  5
37B
 10
303.306504
 20
311.748331
 30
0.0
 40
5.0
 50
0.0
 51
90.0
  0
LINE
  8
LC-001-002-----0
  6
CONTINUOUS
  5
37C
 10
303.306504
 20
314.748331
 30
0.0
 11
260.306504
 21
314.748331
 31
0.0
  0
ARC
  8
LC-002-002-RND-0
  6
CONTINUOUS
  5
37D
 10
303.306504
 20
311.748331
 30
0.0
 40
3.0
 50
0.0
 51
90.0
  0
LINE
  8
LC-001-002-----0
  6
CONTINUOUS
  5
37E
 10
306.306504
 20
291.748331
 30
0.0
 11
306.306504
 21
311.748331
 31
0.0
  0
LINE
  8
LC-001-002-----0
  6
CONTINUOUS
  5
37F
 10
308.056028
 20
293.248331
 30
0.0
 11
308.056028
 21
295.748331
 31
0.0
  0
LINE
  8
LC-001-002-----0
  6
CONTINUOUS
  5
380
 10
308.056028
 20
300.248331
 30
0.0
 11
310.556504
 21
300.248331
 31
0.0
  0
LINE
  8
LC-001-002-----0
  6
CONTINUOUS
  5
381
 10
308.056028
 20
293.248331
 30
0.0
 11
310.556504
 21
293.248331
 31
0.0
  0
LINE
  8
LC-001-002-----0
  6
CONTINUOUS
  5
382
 10
310.556504
 20
293.248331
 30
0.0
 11
310.556504
 21
291.748331
 31
0.0
  0
LINE
  8
LC-001-002-----0
  6
CONTINUOUS
  5
383
 10
319.306504
 20
306.748331
 30
0.0
 11
318.865687
 21
304.248331
 31
0.0
  0
ARC
  8
LC-001-002-----0
  6
CONTINUOUS
  5
384
 10
310.931028
 20
297.019828
 30
0.0
 40
3.228503
 50
51.747848
 51
128.252152
  0
ARC
  8
LC-001-002-----0
  6
CONTINUOUS
  5
385
 10
310.356678
 20
297.748331
 30
0.0
 40
2.300821
 50
128.252152
 51
180.0
  0
ARC
  8
LC-001-002-----0
  6
CONTINUOUS
  5
386
 10
311.505377
 20
297.748331
 30
0.0
 40
2.300821
 50
0.0
 51
51.747848
  0
ARC
  8
LC-001-002-----0
  6
CONTINUOUS
  5
387
 10
310.356678
 20
295.748331
 30
0.0
 40
2.300821
 50
180.0
 51
231.747848
  0
ARC
  8
LC-001-002-----0
  6
CONTINUOUS
  5
388
 10
310.931028
 20
296.476834
 30
0.0
 40
3.228503
 50
231.747848
 51
308.252152
  0
ARC
  8
LC-001-002-----0
  6
CONTINUOUS
  5
389
 10
311.505377
 20
295.748331
 30
0.0
 40
2.300821
 50
308.252152
 51
0.0
  0
LINE
  8
LC-001-002-----0
  6
CONTINUOUS
  5
38A
 10
308.056028
 20
297.748331
 30
0.0
 11
308.056028
 21
300.248331
 31
0.0
  0
LINE
  8
LC-001-002-----0
  6
CONTINUOUS
  5
38B
 10
308.056028
 20
297.748331
 30
0.0
 11
308.056028
 21
295.748331
 31
0.0
  0
LINE
  8
LC-001-002-----0
  6
CONTINUOUS
  5
38C
 10
271.306667
 20
316.748331
 30
0.0
 11
271.306667
 21
323.248331
 31
0.0
  0
LINE
  8
LC-001-002-----0
  6
CONTINUOUS
  5
38D
 10
271.306667
 20
323.248331
 30
0.0
 11
226.306667
 21
323.248331
 31
0.0
  0
LINE
  8
LC-001-002-----0
  6
CONTINUOUS
  5
38E
 10
268.806667
 20
316.748331
 30
0.0
 11
268.806667
 21
323.248331
 31
0.0
  0
LINE
  8
LC-001-002-----0
  6
CONTINUOUS
  5
38F
 10
268.806667
 20
316.748331
 30
0.0
 11
260.306504
 21
316.748331
 31
0.0
  0
LINE
  8
LC-001-002-----0
  6
CONTINUOUS
  5
390
 10
228.806667
 20
316.748331
 30
0.0
 11
228.806667
 21
323.248331
 31
0.0
  0
LINE
  8
LC-001-002-----0
  6
CONTINUOUS
  5
391
 10
226.306667
 20
316.748331
 30
0.0
 11
226.306667
 21
323.248331
 31
0.0
  0
LINE
  8
LC-001-002-----0
  6
CONTINUOUS
  5
392
 10
217.306504
 20
314.748331
 30
0.0
 11
260.306504
 21
314.748331
 31
0.0
  0
LINE
  8
LC-001-002-----0
  6
CONTINUOUS
  5
393
 10
217.306504
 20
316.748331
 30
0.0
 11
226.306667
 21
316.748331
 31
0.0
  0
ARC
  8
LC-002-002-RND-0
  6
CONTINUOUS
  5
394
 10
217.306504
 20
311.748331
 30
0.0
 40
3.0
 50
90.0
 51
180.0
  0
ARC
  8
LC-002-002-RND-0
  6
CONTINUOUS
  5
395
 10
217.306504
 20
311.748331
 30
0.0
 40
5.0
 50
90.0
 51
180.0
  0
LINE
  8
LC-001-002-----0
  6
CONTINUOUS
  5
396
 10
212.306504
 20
311.748331
 30
0.0
 11
212.306504
 21
306.748331
 31
0.0
  0
LINE
  8
LC-001-002-----0
  6
CONTINUOUS
  5
397
 10
214.306504
 20
291.748331
 30
0.0
 11
214.306504
 21
311.748331
 31
0.0
  0
LINE
  8
LC-001-002-----0
  6
CONTINUOUS
  5
398
 10
210.056504
 20
291.748331
 30
0.0
 11
260.306504
 21
291.748331
 31
0.0
  0
LINE
  8
LC-001-002-----0
  6
CONTINUOUS
  5
399
 10
201.306504
 20
306.748331
 30
0.0
 11
212.306504
 21
306.748331
 31
0.0
  0
LINE
  8
LC-001-002-----0
  6
CONTINUOUS
  5
39A
 10
201.306504
 20
306.748331
 30
0.0
 11
201.747322
 21
304.248331
 31
0.0
  0
LINE
  8
LC-001-002-----0
  6
CONTINUOUS
  5
39B
 10
210.056504
 20
304.248331
 30
0.0
 11
201.747322
 21
304.248331
 31
0.0
  0
LINE
  8
LC-001-002-----0
  6
CONTINUOUS
  5
39C
 10
210.056504
 20
304.248331
 30
0.0
 11
210.056504
 21
300.248331
 31
0.0
  0
LINE
  8
LC-001-002-----0
  6
CONTINUOUS
  5
39D
 10
212.556981
 20
300.248331
 30
0.0
 11
210.056504
 21
300.248331
 31
0.0
  0
LINE
  8
LC-001-002-----0
  6
CONTINUOUS
  5
39E
 10
212.556981
 20
293.248331
 30
0.0
 11
212.556981
 21
298.248331
 31
0.0
  0
LINE
  8
LC-001-002-----0
  6
CONTINUOUS
  5
39F
 10
212.556981
 20
293.248331
 30
0.0
 11
210.056504
 21
293.248331
 31
0.0
  0
LINE
  8
LC-001-002-----0
  6
CONTINUOUS
  5
3A0
 10
210.056504
 20
293.248331
 30
0.0
 11
210.056504
 21
291.748331
 31
0.0
  0
ARC
  8
LC-001-002-----0
  6
CONTINUOUS
  5
3A1
 10
209.681981
 20
297.019828
 30
0.0
 40
3.228503
 50
51.747848
 51
128.252152
  0
ARC
  8
LC-001-002-----0
  6
CONTINUOUS
  5
3A2
 10
210.256331
 20
297.748331
 30
0.0
 40
2.300821
 50
0.0
 51
51.747848
  0
ARC
  8
LC-001-002-----0
  6
CONTINUOUS
  5
3A3
 10
209.107631
 20
297.748331
 30
0.0
 40
2.300821
 50
128.252152
 51
180.0
  0
ARC
  8
LC-001-002-----0
  6
CONTINUOUS
  5
3A4
 10
210.256331
 20
295.748331
 30
0.0
 40
2.300821
 50
308.252152
 51
0.0
  0
ARC
  8
LC-001-002-----0
  6
CONTINUOUS
  5
3A5
 10
209.681981
 20
296.476834
 30
0.0
 40
3.228503
 50
231.747848
 51
308.252152
  0
ARC
  8
LC-001-002-----0
  6
CONTINUOUS
  5
3A6
 10
209.107631
 20
295.748331
 30
0.0
 40
2.300821
 50
180.0
 51
231.747848
  0
LINE
  8
LC-001-002-----0
  6
CONTINUOUS
  5
3A7
 10
212.556981
 20
300.248331
 30
0.0
 11
212.556981
 21
298.248331
 31
0.0
  0
LINE
  8
LC-001-002-----0
  6
CONTINUOUS
  5
3A8
 10
228.806667
 20
316.748331
 30
0.0
 11
260.306504
 21
316.748331
 31
0.0
  0
CIRCLE
  8
LC-001-002-----0
  6
CONTINUOUS
  5
3A9
 10
276.806667
 20
317.748331
 30
0.0
 40
1.0
  0
LINE
  8
LC-001-002-----0
  6
CONTINUOUS
  5
3AA
 10
271.306667
 20
318.94476
 30
0.0
 11
276.806667
 21
318.748331
 31
0.0
  0
LINE
  8
LC-001-002-----0
  6
CONTINUOUS
  5
3AB
 10
271.306667
 20
316.94476
 30
0.0
 11
276.806667
 21
316.748331
 31
0.0
  0
CIRCLE
  8
LC-001-002-----0
  6
CONTINUOUS
  5
3AC
 10
511.804675
 20
421.752566
 30
0.0
 40
59.0
  0
CIRCLE
  8
LC-001-002-----0
  6
CONTINUOUS
  5
3AD
 10
511.804675
 20
421.752566
 30
0.0
 40
48.0
  0
CIRCLE
  8
LC-001-002-----0
  6
CONTINUOUS
  5
3AE
 10
500.304675
 20
421.752566
 30
0.0
 40
20.0
  0
CIRCLE
  8
LC-001-002-----0
  6
CONTINUOUS
  5
3AF
 10
500.304675
 20
421.752566
 30
0.0
 40
22.5
  0
LINE
  8
LC-001-002-----0
  6
CONTINUOUS
  5
3B0
 10
501.304675
 20
439.252566
 30
0.0
 11
501.304675
 21
441.72755
 31
0.0
  0
LINE
  8
LC-001-002-----0
  6
CONTINUOUS
  5
3B1
 10
499.304675
 20
439.252566
 30
0.0
 11
499.304675
 21
441.72755
 31
0.0
  0
LINE
  8
LC-001-002-----0
  6
CONTINUOUS
  5
3B2
 10
499.304675
 20
439.252566
 30
0.0
 11
501.304675
 21
439.252566
 31
0.0
  0
LINE
  8
LC-001-002-----0
  6
DASHED
 62
     2
  5
3B3
 10
499.304675
 20
444.230332
 30
0.0
 11
499.304675
 21
441.72755
 31
0.0
  0
LINE
  8
LC-001-002-----0
  6
DASHED
 62
     2
  5
3B4
 10
501.304675
 20
444.230332
 30
0.0
 11
501.304675
 21
441.72755
 31
0.0
  0
LINE
  8
LC-001-002-----0
  6
CONTINUOUS
  5
3B5
 10
499.304675
 20
404.252566
 30
0.0
 11
501.304675
 21
404.252566
 31
0.0
  0
LINE
  8
LC-001-002-----0
  6
CONTINUOUS
  5
3B6
 10
499.304675
 20
404.252566
 30
0.0
 11
499.304675
 21
401.777581
 31
0.0
  0
LINE
  8
LC-001-002-----0
  6
CONTINUOUS
  5
3B7
 10
501.304675
 20
404.252566
 30
0.0
 11
501.304675
 21
401.777581
 31
0.0
  0
LINE
  8
LC-001-002-----0
  6
DASHED
 62
     2
  5
3B8
 10
501.304675
 20
399.274799
 30
0.0
 11
501.304675
 21
401.777581
 31
0.0
  0
LINE
  8
LC-001-002-----0
  6
DASHED
 62
     2
  5
3B9
 10
499.304675
 20
399.274799
 30
0.0
 11
499.304675
 21
401.777581
 31
0.0
  0
ARC
  8
LC-002-002-RND-0
  6
CONTINUOUS
  5
3BA
 10
502.304675
 20
446.672437
 30
0.0
 40
3.0
 50
85.411434
 51
180.0
  0
LINE
  8
LC-001-002-----0
  6
CONTINUOUS
  5
3BB
 10
499.304675
 20
444.230332
 30
0.0
 11
499.304675
 21
446.672437
 31
0.0
  0
LINE
  8
LC-001-002-----0
  6
CONTINUOUS
  5
3BC
 10
499.304675
 20
399.274799
 30
0.0
 11
499.304675
 21
396.832694
 31
0.0
  0
ARC
  8
LC-001-002-----0
  6
CONTINUOUS
  5
3BD
 10
500.304675
 20
421.752566
 30
0.0
 40
28.0
 50
274.588566
 51
85.411434
  0
ARC
  8
LC-002-002-RND-0
  6
CONTINUOUS
  5
3BE
 10
502.304675
 20
396.832694
 30
0.0
 40
3.0
 50
180.0
 51
274.588566
  0
LINE
  8
LC-001-002-----0
  6
CONTINUOUS
  5
3BF
 10
501.304675
 20
399.274799
 30
0.0
 11
501.304675
 21
396.832694
 31
0.0
  0
ARC
  8
LC-002-002-RND-0
  6
CONTINUOUS
  5
3C0
 10
502.304675
 20
396.832694
 30
0.0
 40
1.0
 50
180.0
 51
274.588566
  0
ARC
  8
LC-001-002-----0
  6
CONTINUOUS
  5
3C1
 10
500.304675
 20
421.752566
 30
0.0
 40
26.0
 50
274.588566
 51
85.411434
  0
ARC
  8
LC-002-002-RND-0
  6
CONTINUOUS
  5
3C2
 10
502.304675
 20
446.672437
 30
0.0
 40
1.0
 50
85.411434
 51
180.0
  0
LINE
  8
LC-001-002-----0
  6
CONTINUOUS
  5
3C3
 10
501.304675
 20
444.230332
 30
0.0
 11
501.304675
 21
446.672437
 31
0.0
  0
CIRCLE
  8
LC-001-002-----0
  6
CONTINUOUS
  5
3C4
 10
248.806667
 20
318.748331
 30
0.0
 40
1.0
  0
LINE
  8
LC-001-002-----0
  6
CONTINUOUS
  5
3C5
 10
312.292224
 20
239.626255
 30
0.0
 11
319.414213
 21
239.626178
 31
0.0
  0
LINE
  8
LC-001-002-----0
  6
CONTINUOUS
  5
3C6
 10
312.29229
 20
245.926252
 30
0.0
 11
319.414279
 21
245.926178
 31
0.0
  0
LINE
  8
LC-001-002-----0
  6
CONTINUOUS
  5
3C7
 10
312.29235
 20
252.226255
 30
0.0
 11
319.414344
 21
252.226178
 31
0.0
  0
ARC
  8
LC-008-000-----0
  6
CONTINUOUS
 62
     1
  5
3C8
 10
319.414158
 20
234.341689
 30
0.0
 40
1.015511
 50
269.999785
 51
59.99943
  0
ARC
  8
LC-008-000-----0
  6
CONTINUOUS
 62
     1
  5
3C9
 10
319.414224
 20
240.641689
 30
0.0
 40
1.015511
 50
269.999785
 51
59.99943
  0
ARC
  8
LC-008-000-----0
  6
CONTINUOUS
 62
     1
  5
3CA
 10
319.414289
 20
246.941689
 30
0.0
 40
1.015511
 50
269.999785
 51
59.99943
  0
ARC
  8
LC-008-000-----0
  6
CONTINUOUS
 62
     1
  5
3CB
 10
319.414355
 20
253.241689
 30
0.0
 40
1.015511
 50
269.999785
 51
59.99943
  0
ARC
  8
LC-001-002-----0
  6
CONTINUOUS
  5
3CC
 10
323.579909
 20
230.700282
 30
0.0
 40
3.15
 50
269.999442
 51
359.999442
  0
LINE
  8
LC-001-002-----0
  6
CONTINUOUS
  5
3CD
 10
326.804522
 20
231.75025
 30
0.0
 11
323.579919
 21
231.750282
 31
0.0
  0
LINE
  8
LC-001-002-----0
  6
CONTINUOUS
  5
3CE
 10
312.292159
 20
233.326255
 30
0.0
 11
319.414148
 21
233.326178
 31
0.0
  0
LINE
  8
LC-001-002-----0
  6
CONTINUOUS
  5
3CF
 10
312.237374
 20
258.558034
 30
0.0
 11
319.359363
 21
258.55796
 31
0.0
  0
ARC
  8
LC-008-000-----0
  6
CONTINUOUS
 62
     1
  5
3D0
 10
319.359373
 20
259.573471
 30
0.0
 40
1.015511
 50
269.999785
 51
59.99943
  0
LINE
  8
LC-001-002-----0
  6
CONTINUOUS
  5
3D1
 10
312.182393
 20
264.889819
 30
0.0
 11
319.304382
 21
264.889742
 31
0.0
  0
ARC
  8
LC-008-000-----0
  6
CONTINUOUS
 62
     1
  5
3D2
 10
319.304392
 20
265.905253
 30
0.0
 40
1.015511
 50
269.999785
 51
59.99943
  0
LINE
  8
LC-001-002-----0
  6
CONTINUOUS
  5
3D3
 10
323.579978
 20
257.727679
 30
0.0
 11
323.580513
 21
299.749868
 31
0.0
  0
LINE
  8
LC-001-002-----0
  6
CONTINUOUS
  5
3D4
 10
323.580214
 20
281.565121
 30
0.0
 11
318.776504
 21
281.565115
 31
0.0
  0
LINE
  8
LC-001-002-----0
  6
CONTINUOUS
  5
3D5
 10
319.921922
 20
235.221143
 30
0.0
 11
312.292224
 21
239.626252
 31
0.0
  0
LINE
  8
LC-001-002-----0
  6
CONTINUOUS
  5
3D6
 10
312.29229
 20
245.926252
 30
0.0
 11
319.921988
 21
241.521143
 31
0.0
  0
LINE
  8
LC-001-002-----0
  6
CONTINUOUS
  5
3D7
 10
319.922053
 20
247.821143
 30
0.0
 11
312.292355
 21
252.226252
 31
0.0
  0
LINE
  8
LC-001-002-----0
  6
CONTINUOUS
  5
3D8
 10
319.922119
 20
254.121143
 30
0.0
 11
312.237374
 21
258.558034
 31
0.0
  0
LINE
  8
LC-001-002-----0
  6
CONTINUOUS
  5
3D9
 10
319.867138
 20
260.452925
 30
0.0
 11
312.182393
 21
264.889816
 31
0.0
  0
LINE
  8
LC-001-002-----0
  6
CONTINUOUS
  5
3DA
 10
319.812157
 20
266.784707
 30
0.0
 11
312.127412
 21
271.221598
 31
0.0
  0
LINE
  8
LC-001-002-----0
  6
CONTINUOUS
  5
3DB
 10
208.317656
 20
245.927586
 30
0.0
 11
201.195301
 21
245.927669
 31
0.0
  0
LINE
  8
LC-001-002-----0
  6
CONTINUOUS
  5
3DC
 10
208.369749
 20
258.557585
 30
0.0
 11
201.140385
 21
258.55767
 31
0.0
  0
LINE
  8
LC-001-002-----0
  6
CONTINUOUS
  5
3DD
 10
197.029709
 20
231.752566
 30
0.0
 11
197.029979
 21
257.728914
 31
0.0
  0
LINE
  8
LC-001-002-----0
  6
CONTINUOUS
  5
3DE
 10
200.632651
 20
260.454206
 30
0.0
 11
208.311683
 21
264.887586
 31
0.0
  0
LINE
  8
LC-001-002-----0
  6
CONTINUOUS
  5
3DF
 10
200.687632
 20
254.122424
 30
0.0
 11
208.369749
 21
258.557585
 31
0.0
  0
LINE
  8
LC-001-002-----0
  6
CONTINUOUS
  5
3E0
 10
208.317357
 20
252.227375
 30
0.0
 11
201.19536
 21
252.227449
 31
0.0
  0
LINE
  8
LC-001-002-----0
  6
CONTINUOUS
  5
3E1
 10
200.687567
 20
247.822424
 30
0.0
 11
208.317357
 21
252.227375
 31
0.0
  0
LINE
  8
LC-001-002-----0
  6
CONTINUOUS
  5
3E2
 10
208.317656
 20
245.927586
 30
0.0
 11
200.687502
 21
241.522424
 31
0.0
  0
LINE
  8
LC-001-002-----0
  6
CONTINUOUS
  5
3E3
 10
208.317226
 20
239.627375
 30
0.0
 11
201.195237
 21
239.627449
 31
0.0
  0
LINE
  8
LC-001-002-----0
  6
CONTINUOUS
  5
3E4
 10
200.687436
 20
235.222424
 30
0.0
 11
208.317226
 21
239.627375
 31
0.0
  0
LINE
  8
LC-001-002-----0
  6
CONTINUOUS
  5
3E5
 10
208.317572
 20
233.327586
 30
0.0
 11
201.19517
 21
233.327669
 31
0.0
  0
LINE
  8
LC-001-002-----0
  6
CONTINUOUS
  5
3E6
 10
208.317572
 20
233.327586
 30
0.0
 11
197.029592
 21
227.552492
 31
0.0
  0
ARC
  8
LC-008-000-----0
  6
CONTINUOUS
 62
     1
  5
3E7
 10
201.195182
 20
234.34296
 30
0.0
 40
1.015511
 50
119.999379
 51
269.998965
  0
ARC
  8
LC-008-000-----0
  6
CONTINUOUS
 62
     1
  5
3E8
 10
201.195314
 20
240.642635
 30
0.0
 40
1.015511
 50
119.999417
 51
269.999002
  0
ARC
  8
LC-008-000-----0
  6
CONTINUOUS
 62
     1
  5
3E9
 10
201.195313
 20
246.94296
 30
0.0
 40
1.015511
 50
119.999379
 51
269.998965
  0
ARC
  8
LC-008-000-----0
  6
CONTINUOUS
 62
     1
  5
3EA
 10
201.195379
 20
253.24296
 30
0.0
 40
1.015511
 50
119.999379
 51
269.998965
  0
ARC
  8
LC-008-000-----0
  6
CONTINUOUS
 62
     1
  5
3EB
 10
201.140397
 20
259.574742
 30
0.0
 40
1.015511
 50
119.999379
 51
269.998965
  0
ARC
  8
LC-008-000-----0
  6
CONTINUOUS
 62
     1
  5
3EC
 10
201.085416
 20
265.906524
 30
0.0
 40
1.015511
 50
119.999379
 51
269.998965
  0
LINE
  8
LC-001-002-----0
  6
CONTINUOUS
  5
3ED
 10
208.270937
 20
271.227586
 30
0.0
 11
201.319341
 21
271.227668
 31
0.0
  0
LINE
  8
LC-001-002-----0
  6
CONTINUOUS
  5
3EE
 10
208.311683
 20
264.887586
 30
0.0
 11
201.085404
 21
264.88767
 31
0.0
  0
LINE
  8
LC-001-002-----0
  6
CONTINUOUS
  5
3EF
 10
200.57767
 20
266.785988
 30
0.0
 11
208.270937
 21
271.227586
 31
0.0
  0
ENDSEC
  0
EOF
