  0
SECTION
  2
HEADER
  9
$ACADVER
  1
AC1015
  9
$ACADMAINTVER
 70
     6
  9
$DWGCODEPAGE
  3
ANSI_1252
  9
$INSBASE
 10
0.0
 20
0.0
 30
0.0
  9
$EXTMIN
 10
-85.953968
 20
-82.115996
 30
0.0
  9
$EXTMAX
 10
754.046032
 20
511.884004
 30
0.0
  9
$LIMMIN
 10
-85.953968
 20
-82.115996
  9
$LIMMAX
 10
754.046032
 20
511.884004
  9
$ORTHOMODE
 70
     0
  9
$REGENMODE
 70
     1
  9
$FILLMODE
 70
     1
  9
$QTEXTMODE
 70
     0
  9
$MIRRTEXT
 70
     1
  9
$LTSCALE
 40
2.0
  9
$ATTMODE
 70
     1
  9
$TEXTSIZE
 40
2.5
  9
$TRACEWID
 40
1.0
  9
$TEXTSTYLE
  7
Standard
  9
$CLAYER
  8
0
  9
$CELTYPE
  6
ByLayer
  9
$CECOLOR
 62
     7
  9
$CELTSCALE
 40
1.0
  9
$DISPSILH
 70
     0
  9
$DIMSCALE
 40
2.0
  9
$DIMASZ
 40
3.5
  9
$DIMEXO
 40
0.625
  9
$DIMDLI
 40
3.75
  9
$DIMRND
 40
0.0
  9
$DIMDLE
 40
0.0
  9
$DIMEXE
 40
1.25
  9
$DIMTP
 40
0.0
  9
$DIMTM
 40
0.0
  9
$DIMTXT
 40
3.5
  9
$DIMCEN
 40
2.5
  9
$DIMTSZ
 40
0.0
  9
$DIMTOL
 70
     0
  9
$DIMLIM
 70
     0
  9
$DIMTIH
 70
     0
  9
$DIMTOH
 70
     0
  9
$DIMSE1
 70
     0
  9
$DIMSE2
 70
     0
  9
$DIMTAD
 70
     1
  9
$DIMZIN
 70
     8
  9
$DIMBLK
  1

  9
$DIMASO
 70
     1
  9
$DIMSHO
 70
     1
  9
$DIMPOST
  1

  9
$DIMAPOST
  1

  9
$DIMALT
 70
     0
  9
$DIMALTD
 70
     3
  9
$DIMALTF
 40
0.03937
  9
$DIMLFAC
 40
1.0
  9
$DIMTOFL
 70
     1
  9
$DIMTVP
 40
0.0
  9
$DIMTIX
 70
     0
  9
$DIMSOXD
 70
     0
  9
$DIMSAH
 70
     0
  9
$DIMBLK1
  1

  9
$DIMBLK2
  1

  9
$DIMSTYLE
  2
ISO-25
  9
$DIMCLRD
 70
     0
  9
$DIMCLRE
 70
     0
  9
$DIMCLRT
 70
     0
  9
$DIMTFAC
 40
1.0
  9
$DIMGAP
 40
0.625
  9
$DIMJUST
 70
     0
  9
$DIMSD1
 70
     0
  9
$DIMSD2
 70
     0
  9
$DIMTOLJ
 70
     0
  9
$DIMTZIN
 70
     8
  9
$DIMALTZ
 70
     0
  9
$DIMALTTZ
 70
     0
  9
$DIMUPT
 70
     0
  9
$DIMDEC
 70
     2
  9
$DIMTDEC
 70
     2
  9
$DIMALTU
 70
     2
  9
$DIMALTTD
 70
     3
  9
$DIMTXSTY
  7
Standard
  9
$DIMAUNIT
 70
     0
  9
$DIMADEC
 70
     0
  9
$DIMALTRND
 40
0.0
  9
$DIMAZIN
 70
     0
  9
$DIMDSEP
 70
    44
  9
$DIMATFIT
 70
     3
  9
$DIMFRAC
 70
     0
  9
$DIMLDRBLK
  1

  9
$DIMLUNIT
 70
     2
  9
$DIMLWD
 70
    -2
  9
$DIMLWE
 70
    -2
  9
$DIMTMOVE
 70
     0
  9
$LUNITS
 70
     2
  9
$LUPREC
 70
     4
  9
$SKETCHINC
 40
1.0
  9
$FILLETRAD
 40
10.0
  9
$AUNITS
 70
     0
  9
$AUPREC
 70
     0
  9
$MENU
  1
.
  9
$ELEVATION
 40
0.0
  9
$PELEVATION
 40
0.0
  9
$THICKNESS
 40
0.0
  9
$LIMCHECK
 70
     0
  9
$CHAMFERA
 40
10.0
  9
$CHAMFERB
 40
10.0
  9
$CHAMFERC
 40
20.0
  9
$CHAMFERD
 40
0.0
  9
$SKPOLY
 70
     0
  9
$TDCREATE
 40
2455898.282066864
  9
$TDUCREATE
 40
2455898.240400197
  9
$TDUPDATE
 40
2455898.282066875
  9
$TDUUPDATE
 40
2455898.240400208
  9
$TDINDWG
 40
0.0000000116
  9
$TDUSRTIMER
 40
0.0000000116
  9
$USRTIMER
 70
     1
  9
$ANGBASE
 50
0.0
  9
$ANGDIR
 70
     0
  9
$PDMODE
 70
     0
  9
$PDSIZE
 40
0.0
  9
$PLINEWID
 40
0.0
  9
$SPLFRAME
 70
     0
  9
$SPLINETYPE
 70
     6
  9
$SPLINESEGS
 70
     8
  9
$HANDSEED
  5
766
  9
$SURFTAB1
 70
     6
  9
$SURFTAB2
 70
     6
  9
$SURFTYPE
 70
     6
  9
$SURFU
 70
     6
  9
$SURFV
 70
     6
  9
$UCSBASE
  2

  9
$UCSNAME
  2

  9
$UCSORG
 10
0.0
 20
0.0
 30
0.0
  9
$UCSXDIR
 10
1.0
 20
0.0
 30
0.0
  9
$UCSYDIR
 10
0.0
 20
1.0
 30
0.0
  9
$UCSORTHOREF
  2

  9
$UCSORTHOVIEW
 70
     0
  9
$UCSORGTOP
 10
0.0
 20
0.0
 30
0.0
  9
$UCSORGBOTTOM
 10
0.0
 20
0.0
 30
0.0
  9
$UCSORGLEFT
 10
0.0
 20
0.0
 30
0.0
  9
$UCSORGRIGHT
 10
0.0
 20
0.0
 30
0.0
  9
$UCSORGFRONT
 10
0.0
 20
0.0
 30
0.0
  9
$UCSORGBACK
 10
0.0
 20
0.0
 30
0.0
  9
$PUCSBASE
  2

  9
$PUCSNAME
  2

  9
$PUCSORG
 10
0.0
 20
0.0
 30
0.0
  9
$PUCSXDIR
 10
1.0
 20
0.0
 30
0.0
  9
$PUCSYDIR
 10
0.0
 20
1.0
 30
0.0
  9
$PUCSORTHOREF
  2

  9
$PUCSORTHOVIEW
 70
     0
  9
$PUCSORGTOP
 10
0.0
 20
0.0
 30
0.0
  9
$PUCSORGBOTTOM
 10
0.0
 20
0.0
 30
0.0
  9
$PUCSORGLEFT
 10
0.0
 20
0.0
 30
0.0
  9
$PUCSORGRIGHT
 10
0.0
 20
0.0
 30
0.0
  9
$PUCSORGFRONT
 10
0.0
 20
0.0
 30
0.0
  9
$PUCSORGBACK
 10
0.0
 20
0.0
 30
0.0
  9
$USERI1
 70
     0
  9
$USERI2
 70
     0
  9
$USERI3
 70
     0
  9
$USERI4
 70
     0
  9
$USERI5
 70
     0
  9
$USERR1
 40
0.0
  9
$USERR2
 40
0.0
  9
$USERR3
 40
0.0
  9
$USERR4
 40
0.0
  9
$USERR5
 40
0.0
  9
$WORLDVIEW
 70
     1
  9
$SHADEDGE
 70
     3
  9
$SHADEDIF
 70
    70
  9
$TILEMODE
 70
     1
  9
$MAXACTVP
 70
    64
  9
$PINSBASE
 10
0.0
 20
0.0
 30
0.0
  9
$PLIMCHECK
 70
     0
  9
$PEXTMIN
 10
-85.953968
 20
-82.115996
 30
0.0
  9
$PEXTMAX
 10
754.046032
 20
511.884004
 30
0.0
  9
$PLIMMIN
 10
-85.953968
 20
-82.115996
  9
$PLIMMAX
 10
754.046032
 20
511.884004
  9
$UNITMODE
 70
     0
  9
$VISRETAIN
 70
     1
  9
$PLINEGEN
 70
     0
  9
$PSLTSCALE
 70
     1
  9
$TREEDEPTH
 70
  3020
  9
$CMLSTYLE
  2
Standard
  9
$CMLJUST
 70
     0
  9
$CMLSCALE
 40
20.0
  9
$PROXYGRAPHICS
 70
     1
  9
$MEASUREMENT
 70
     1
  9
$CELWEIGHT
370
    -1
  9
$ENDCAPS
280
     0
  9
$JOINSTYLE
280
     0
  9
$LWDISPLAY
290
     0
  9
$INSUNITS
 70
     4
  9
$HYPERLINKBASE
  1

  9
$STYLESHEET
  1

  9
$XEDIT
290
     1
  9
$CEPSNTYPE
380
     0
  9
$PSTYLEMODE
290
     1
  9
$FINGERPRINTGUID
  2
{FAEB1C30-E019-11D5-929B-00C0DF256EC4}
  9
$VERSIONGUID
  2
{FAEB1C32-E019-11D5-929B-00C0DF256EC4}
  9
$EXTNAMES
290
     1
  9
$PSVPSCALE
 40
0.0
  9
$OLESTARTUP
290
     0
  0
ENDSEC
  0
SECTION
  2
CLASSES
  0
CLASS
  1
ACDBDICTIONARYWDFLT
  2
AcDbDictionaryWithDefault
  3
ObjectDBX Classes
 90
        0
280
     0
281
     0
  0
CLASS
  1
ACDBPLACEHOLDER
  2
AcDbPlaceHolder
  3
ObjectDBX Classes
 90
        0
280
     0
281
     0
  0
CLASS
  1
LAYOUT
  2
AcDbLayout
  3
ObjectDBX Classes
 90
        0
280
     0
281
     0
  0
ENDSEC
  0
SECTION
  2
TABLES
  0
TABLE
  2
VPORT
  5
8
330
0
100
AcDbSymbolTable
 70
     2
  0
VPORT
  5
29
330
8
100
AcDbSymbolTableRecord
100
AcDbViewportTableRecord
  2
*ACTIVE
 70
     0
 10
0.0
 20
0.0
 11
1.0
 21
1.0
 12
334.046032
 22
214.884004
 13
0.0
 23
0.0
 14
1.0
 24
1.0
 15
0.0
 25
0.0
 16
0.0
 26
0.0
 36
1.0
 17
0.0
 27
0.0
 37
0.0
 40
594.0
 41
1.414141
 42
50.0
 43
0.0
 44
0.0
 50
0.0
 51
0.0
 71
    16
 72
   100
 73
     1
 74
     0
 75
     0
 76
     0
 77
     0
 78
     0
281
     0
 65
     0
110
0.0
120
0.0
130
0.0
111
1.0
121
0.0
131
0.0
112
0.0
122
1.0
132
0.0
 79
     0
146
0.0
  0
ENDTAB
  0
TABLE
  2
LTYPE
  5
5
330
0
100
AcDbSymbolTable
 70
     3
  0
LTYPE
  5
14
330
5
100
AcDbSymbolTableRecord
100
AcDbLinetypeTableRecord
  2
ByBlock
 70
     0
  3

 72
    65
 73
     0
 40
0.0
  0
LTYPE
  5
15
330
5
100
AcDbSymbolTableRecord
100
AcDbLinetypeTableRecord
  2
ByLayer
 70
     0
  3

 72
    65
 73
     0
 40
0.0
  0
LTYPE
  5
16
330
5
100
AcDbSymbolTableRecord
100
AcDbLinetypeTableRecord
  2
Continuous
 70
     0
  3
Solid line
 72
    65
 73
     0
 40
0.0
  0
LTYPE
  5
2A
330
5
100
AcDbSymbolTableRecord
100
AcDbLinetypeTableRecord
  2
DASHED
 70
     0
  3
__ __ __ __ __
 72
    65
 73
     2
 40
6.25
 49
5.0
 74
     4
 75
     0
340
0
 46
1.0
 50
0.0
 44
0.0
 45
0.0
 49
-1.25
 74
     4
 75
     0
340
0
 46
1.0
 50
0.0
 44
0.0
 45
0.0
  0
LTYPE
  5
62D
330
5
100
AcDbSymbolTableRecord
100
AcDbLinetypeTableRecord
  2
DASHDOT
 70
     0
  3
__ . __ . __ . __ . __
 72
    65
 73
     4
 40
7.5
 49
5.0
 74
     4
 75
     0
340
0
 46
1.0
 50
0.0
 44
0.0
 45
0.0
 49
-1.25
 74
     4
 75
     0
340
0
 46
1.0
 50
0.0
 44
0.0
 45
0.0
 49
0.0
 74
     4
 75
     0
340
0
 46
1.0
 50
0.0
 44
0.0
 45
0.0
 49
-1.25
 74
     4
 75
     0
340
0
 46
1.0
 50
0.0
 44
0.0
 45
0.0
  0
ENDTAB
  0
TABLE
  2
LAYER
  5
2
330
0
100
AcDbSymbolTable
 70
     8
  0
LAYER
  5
10
330
2
100
AcDbSymbolTableRecord
100
AcDbLayerTableRecord
  2
0
 70
     0
 62
     7
  6
Continuous
370
    -3
390
F
  0
LAYER
  5
2B
330
2
100
AcDbSymbolTableRecord
100
AcDbLayerTableRecord
  2
LC-INFO-1-2-mm-A3-0
 70
     1
 62
     7
  6
ByBlock
370
    -3
390
F
  0
LAYER
  5
2C
330
2
100
AcDbSymbolTableRecord
100
AcDbLayerTableRecord
  2
LC-CUT-HIDDEN
 70
     0
 62
     7
  6
DASHED
370
    -3
390
F
  0
LAYER
  5
2D
330
2
100
AcDbSymbolTableRecord
100
AcDbLayerTableRecord
  2
LC-VIEWPORT
 70
     0
 62
     7
  6
ByBlock
370
    -3
390
F
  0
LAYER
  5
2E
330
2
100
AcDbSymbolTableRecord
100
AcDbLayerTableRecord
  2
LC-3D-HIDDEN
 70
     0
 62
     9
  6
DASHED
370
    -3
390
F
  0
LAYER
  5
30
330
2
100
AcDbSymbolTableRecord
100
AcDbLayerTableRecord
  2
LC-001-100-D00-0
 70
     0
 62
     1
  6
ByBlock
370
    -3
390
F
  0
LAYER
  5
620
330
2
100
AcDbSymbolTableRecord
100
AcDbLayerTableRecord
  2
Defpoints
 70
     0
 62
     7
  6
Continuous
290
     0
370
    -3
390
F
  0
LAYER
  5
6A2
330
2
100
AcDbSymbolTableRecord
100
AcDbLayerTableRecord
  2
LC-002-003-----0
 70
     0
 62
     2
  6
ByBlock
370
    -3
390
F
  0
ENDTAB
  0
TABLE
  2
STYLE
  5
3
330
0
100
AcDbSymbolTable
 70
     3
  0
STYLE
  5
11
330
3
100
AcDbSymbolTableRecord
100
AcDbTextStyleTableRecord
  2
Standard
 70
     0
 40
0.0
 41
1.0
 50
0.0
 71
     0
 42
2.5
  3
txt
  4

  0
STYLE
  5
2F
330
3
100
AcDbSymbolTableRecord
100
AcDbTextStyleTableRecord
  2
LCTX15-400-0-0-Arial
 70
     0
 40
0.0
 41
0.8
 50
0.0
 71
     0
 42
3.5
  3

  4

1001
ACAD
1000
Arial
1071
 16777218
  0
STYLE
  5
61D
330
3
100
AcDbSymbolTableRecord
100
AcDbTextStyleTableRecord
  2
LCTX15-400-0-0pDIN-Schrift
 70
     0
 40
2.5
 41
0.8
 50
15.0
 71
     0
 42
3.5
  3
STANDARD
  4

  0
ENDTAB
  0
TABLE
  2
VIEW
  5
6
330
0
100
AcDbSymbolTable
 70
     0
  0
ENDTAB
  0
TABLE
  2
UCS
  5
7
330
0
100
AcDbSymbolTable
 70
     0
  0
ENDTAB
  0
TABLE
  2
APPID
  5
9
330
0
100
AcDbSymbolTable
 70
     1
  0
APPID
  5
12
330
9
100
AcDbSymbolTableRecord
100
AcDbRegAppTableRecord
  2
ACAD
 70
     0
  0
ENDTAB
  0
TABLE
  2
DIMSTYLE
  5
A
330
0
100
AcDbSymbolTable
 70
     2
100
AcDbDimStyleTable
  0
DIMSTYLE
105
27
330
A
100
AcDbSymbolTableRecord
100
AcDbDimStyleTableRecord
  2
ISO-25
 70
     0
 41
2.5
 42
0.625
 43
3.75
 44
1.25
 73
     0
 74
     0
 77
     1
 78
     8
140
2.5
141
2.5
143
0.03937
147
0.625
171
     3
172
     1
271
     2
272
     2
274
     3
278
    44
283
     0
284
     8
340
11
  0
DIMSTYLE
105
61E
102
{ACAD_REACTORS
330
61F
330
6A3
330
6B1
330
6BF
330
6CC
330
6DA
330
6E8
330
6F5
330
702
330
70F
330
71D
330
72B
330
739
330
746
330
755
102
}
330
A
100
AcDbSymbolTableRecord
100
AcDbDimStyleTableRecord
  2
LC-DIM-L-0140-02-02
 70
     0
 40
2.0
 41
14.0
 42
0.0
 43
7.5
 44
1.8
 73
     0
 74
     0
 77
     1
 78
     8
 79
     2
140
14.0
141
0.0
146
0.71
147
1.5
176
     2
177
     2
178
     2
179
     2
271
     2
278
    44
289
     1
340
61D
  0
ENDTAB
  0
TABLE
  2
BLOCK_RECORD
  5
1
330
0
100
AcDbSymbolTable
 70
    71
  0
BLOCK_RECORD
  5
1F
330
1
100
AcDbSymbolTableRecord
100
AcDbBlockTableRecord
  2
*Model_Space
340
22
  0
BLOCK_RECORD
  5
1B
330
1
100
AcDbSymbolTableRecord
100
AcDbBlockTableRecord
  2
*Paper_Space
340
1E
  0
BLOCK_RECORD
  5
23
330
1
100
AcDbSymbolTableRecord
100
AcDbBlockTableRecord
  2
*Paper_Space0
340
26
  0
BLOCK_RECORD
  5
44
330
1
100
AcDbSymbolTableRecord
100
AcDbBlockTableRecord
  2
POLY1
340
0
102
{BLKREFS
331
51
102
}
  0
BLOCK_RECORD
  5
52
330
1
100
AcDbSymbolTableRecord
100
AcDbBlockTableRecord
  2
POLY2
340
0
102
{BLKREFS
331
5F
102
}
  0
BLOCK_RECORD
  5
60
330
1
100
AcDbSymbolTableRecord
100
AcDbBlockTableRecord
  2
POLY3
340
0
102
{BLKREFS
331
6D
102
}
  0
BLOCK_RECORD
  5
6E
330
1
100
AcDbSymbolTableRecord
100
AcDbBlockTableRecord
  2
POLY4
340
0
102
{BLKREFS
331
7B
102
}
  0
BLOCK_RECORD
  5
7C
330
1
100
AcDbSymbolTableRecord
100
AcDbBlockTableRecord
  2
KLON1
340
0
102
{BLKREFS
331
81
102
}
  0
BLOCK_RECORD
  5
82
330
1
100
AcDbSymbolTableRecord
100
AcDbBlockTableRecord
  2
KLON2
340
0
102
{BLKREFS
331
87
102
}
  0
BLOCK_RECORD
  5
88
330
1
100
AcDbSymbolTableRecord
100
AcDbBlockTableRecord
  2
KLON3
340
0
102
{BLKREFS
331
8D
102
}
  0
BLOCK_RECORD
  5
8E
330
1
100
AcDbSymbolTableRecord
100
AcDbBlockTableRecord
  2
KLON4
340
0
102
{BLKREFS
331
93
102
}
  0
BLOCK_RECORD
  5
111
330
1
100
AcDbSymbolTableRecord
100
AcDbBlockTableRecord
  2
POLY5
340
0
102
{BLKREFS
331
120
102
}
  0
BLOCK_RECORD
  5
124
330
1
100
AcDbSymbolTableRecord
100
AcDbBlockTableRecord
  2
POLY6
340
0
102
{BLKREFS
331
133
102
}
  0
BLOCK_RECORD
  5
138
330
1
100
AcDbSymbolTableRecord
100
AcDbBlockTableRecord
  2
POLY7
340
0
102
{BLKREFS
331
147
102
}
  0
BLOCK_RECORD
  5
14F
330
1
100
AcDbSymbolTableRecord
100
AcDbBlockTableRecord
  2
POLY8
340
0
102
{BLKREFS
331
15A
102
}
  0
BLOCK_RECORD
  5
161
330
1
100
AcDbSymbolTableRecord
100
AcDbBlockTableRecord
  2
POLY9
340
0
102
{BLKREFS
331
16C
102
}
  0
BLOCK_RECORD
  5
171
330
1
100
AcDbSymbolTableRecord
100
AcDbBlockTableRecord
  2
POLY10
340
0
102
{BLKREFS
331
17C
102
}
  0
BLOCK_RECORD
  5
185
330
1
100
AcDbSymbolTableRecord
100
AcDbBlockTableRecord
  2
POLY11
340
0
102
{BLKREFS
331
192
102
}
  0
BLOCK_RECORD
  5
1D9
330
1
100
AcDbSymbolTableRecord
100
AcDbBlockTableRecord
  2
POLY12
340
0
102
{BLKREFS
331
1E6
102
}
  0
BLOCK_RECORD
  5
1E9
330
1
100
AcDbSymbolTableRecord
100
AcDbBlockTableRecord
  2
POLY13
340
0
102
{BLKREFS
331
1FA
102
}
  0
BLOCK_RECORD
  5
20F
330
1
100
AcDbSymbolTableRecord
100
AcDbBlockTableRecord
  2
POLY14
340
0
102
{BLKREFS
331
21A
102
}
  0
BLOCK_RECORD
  5
249
330
1
100
AcDbSymbolTableRecord
100
AcDbBlockTableRecord
  2
POLY15
340
0
102
{BLKREFS
331
254
102
}
  0
BLOCK_RECORD
  5
258
330
1
100
AcDbSymbolTableRecord
100
AcDbBlockTableRecord
  2
POLY16
340
0
102
{BLKREFS
331
263
102
}
  0
BLOCK_RECORD
  5
2E2
330
1
100
AcDbSymbolTableRecord
100
AcDbBlockTableRecord
  2
POLY17
340
0
102
{BLKREFS
331
2F1
102
}
  0
BLOCK_RECORD
  5
368
330
1
100
AcDbSymbolTableRecord
100
AcDbBlockTableRecord
  2
POLY18
340
0
102
{BLKREFS
331
37B
102
}
  0
BLOCK_RECORD
  5
37F
330
1
100
AcDbSymbolTableRecord
100
AcDbBlockTableRecord
  2
POLY19
340
0
102
{BLKREFS
331
38C
102
}
  0
BLOCK_RECORD
  5
40D
330
1
100
AcDbSymbolTableRecord
100
AcDbBlockTableRecord
  2
KLON5
340
0
102
{BLKREFS
331
412
102
}
  0
BLOCK_RECORD
  5
413
330
1
100
AcDbSymbolTableRecord
100
AcDbBlockTableRecord
  2
KLON6
340
0
102
{BLKREFS
331
418
102
}
  0
BLOCK_RECORD
  5
43E
330
1
100
AcDbSymbolTableRecord
100
AcDbBlockTableRecord
  2
POLY20
340
0
102
{BLKREFS
331
449
102
}
  0
BLOCK_RECORD
  5
44F
330
1
100
AcDbSymbolTableRecord
100
AcDbBlockTableRecord
  2
POLY21
340
0
102
{BLKREFS
331
45A
102
}
  0
BLOCK_RECORD
  5
45D
330
1
100
AcDbSymbolTableRecord
100
AcDbBlockTableRecord
  2
POLY22
340
0
102
{BLKREFS
331
46A
102
}
  0
BLOCK_RECORD
  5
4AD
330
1
100
AcDbSymbolTableRecord
100
AcDbBlockTableRecord
  2
POLY23
340
0
102
{BLKREFS
331
4BA
102
}
  0
BLOCK_RECORD
  5
4FD
330
1
100
AcDbSymbolTableRecord
100
AcDbBlockTableRecord
  2
POLY24
340
0
102
{BLKREFS
331
508
102
}
  0
BLOCK_RECORD
  5
51E
330
1
100
AcDbSymbolTableRecord
100
AcDbBlockTableRecord
  2
KLON7
340
0
102
{BLKREFS
331
544
102
}
  0
BLOCK_RECORD
  5
545
330
1
100
AcDbSymbolTableRecord
100
AcDbBlockTableRecord
  2
KLON8
340
0
102
{BLKREFS
331
56A
102
}
  0
BLOCK_RECORD
  5
56B
330
1
100
AcDbSymbolTableRecord
100
AcDbBlockTableRecord
  2
KLON9
340
0
102
{BLKREFS
331
587
102
}
  0
BLOCK_RECORD
  5
588
330
1
100
AcDbSymbolTableRecord
100
AcDbBlockTableRecord
  2
KLON10
340
0
102
{BLKREFS
331
590
102
}
  0
BLOCK_RECORD
  5
591
330
1
100
AcDbSymbolTableRecord
100
AcDbBlockTableRecord
  2
KLON11
340
0
102
{BLKREFS
331
596
102
}
  0
BLOCK_RECORD
  5
597
330
1
100
AcDbSymbolTableRecord
100
AcDbBlockTableRecord
  2
KLON12
340
0
102
{BLKREFS
331
59E
102
}
  0
BLOCK_RECORD
  5
59F
330
1
100
AcDbSymbolTableRecord
100
AcDbBlockTableRecord
  2
KLON13
340
0
102
{BLKREFS
331
5A4
102
}
  0
BLOCK_RECORD
  5
5A5
330
1
100
AcDbSymbolTableRecord
100
AcDbBlockTableRecord
  2
KLON14
340
0
102
{BLKREFS
331
5AA
102
}
  0
BLOCK_RECORD
  5
5AB
330
1
100
AcDbSymbolTableRecord
100
AcDbBlockTableRecord
  2
KLON15
340
0
102
{BLKREFS
331
5B3
102
}
  0
BLOCK_RECORD
  5
5B4
330
1
100
AcDbSymbolTableRecord
100
AcDbBlockTableRecord
  2
KLON16
340
0
102
{BLKREFS
331
5BC
102
}
  0
BLOCK_RECORD
  5
5BD
330
1
100
AcDbSymbolTableRecord
100
AcDbBlockTableRecord
  2
KLON17
340
0
102
{BLKREFS
331
5C3
102
}
  0
BLOCK_RECORD
  5
5C4
330
1
100
AcDbSymbolTableRecord
100
AcDbBlockTableRecord
  2
KLON18
340
0
102
{BLKREFS
331
5CA
102
}
  0
BLOCK_RECORD
  5
5CB
330
1
100
AcDbSymbolTableRecord
100
AcDbBlockTableRecord
  2
KLON19
340
0
102
{BLKREFS
331
5D1
102
}
  0
BLOCK_RECORD
  5
5D5
330
1
100
AcDbSymbolTableRecord
100
AcDbBlockTableRecord
  2
KLON20
340
0
102
{BLKREFS
331
5DA
102
}
  0
BLOCK_RECORD
  5
5DB
330
1
100
AcDbSymbolTableRecord
100
AcDbBlockTableRecord
  2
KLON21
340
0
102
{BLKREFS
331
5E0
102
}
  0
BLOCK_RECORD
  5
5E1
330
1
100
AcDbSymbolTableRecord
100
AcDbBlockTableRecord
  2
KLON22
340
0
102
{BLKREFS
331
5E6
102
}
  0
BLOCK_RECORD
  5
5E7
330
1
100
AcDbSymbolTableRecord
100
AcDbBlockTableRecord
  2
KLON23
340
0
102
{BLKREFS
331
5ED
102
}
  0
BLOCK_RECORD
  5
5EE
330
1
100
AcDbSymbolTableRecord
100
AcDbBlockTableRecord
  2
KLON24
340
0
102
{BLKREFS
331
5F4
102
}
  0
BLOCK_RECORD
  5
5F6
330
1
100
AcDbSymbolTableRecord
100
AcDbBlockTableRecord
  2
KLON25
340
0
102
{BLKREFS
331
5FB
102
}
  0
BLOCK_RECORD
  5
5FC
330
1
100
AcDbSymbolTableRecord
100
AcDbBlockTableRecord
  2
KLON26
340
0
102
{BLKREFS
331
602
102
}
  0
BLOCK_RECORD
  5
603
330
1
100
AcDbSymbolTableRecord
100
AcDbBlockTableRecord
  2
KLON27
340
0
102
{BLKREFS
331
60F
102
}
  0
BLOCK_RECORD
  5
610
330
1
100
AcDbSymbolTableRecord
100
AcDbBlockTableRecord
  2
KLON28
340
0
102
{BLKREFS
331
61A
102
}
  0
BLOCK_RECORD
  5
621
330
1
100
AcDbSymbolTableRecord
100
AcDbBlockTableRecord
  2
*D53
340
0
  0
BLOCK_RECORD
  5
631
330
1
100
AcDbSymbolTableRecord
100
AcDbBlockTableRecord
  2
POLY25
340
0
102
{BLKREFS
331
63C
102
}
  0
BLOCK_RECORD
  5
64A
330
1
100
AcDbSymbolTableRecord
100
AcDbBlockTableRecord
  2
POLY26
340
0
102
{BLKREFS
331
657
102
}
  0
BLOCK_RECORD
  5
65A
330
1
100
AcDbSymbolTableRecord
100
AcDbBlockTableRecord
  2
POLY27
340
0
102
{BLKREFS
331
66B
102
}
  0
BLOCK_RECORD
  5
6A4
330
1
100
AcDbSymbolTableRecord
100
AcDbBlockTableRecord
  2
*D57
340
0
  0
BLOCK_RECORD
  5
6B2
330
1
100
AcDbSymbolTableRecord
100
AcDbBlockTableRecord
  2
*D58
340
0
  0
BLOCK_RECORD
  5
6C0
330
1
100
AcDbSymbolTableRecord
100
AcDbBlockTableRecord
  2
*D59
340
0
  0
BLOCK_RECORD
  5
6CD
330
1
100
AcDbSymbolTableRecord
100
AcDbBlockTableRecord
  2
*D60
340
0
  0
BLOCK_RECORD
  5
6DB
330
1
100
AcDbSymbolTableRecord
100
AcDbBlockTableRecord
  2
*D61
340
0
  0
BLOCK_RECORD
  5
6E9
330
1
100
AcDbSymbolTableRecord
100
AcDbBlockTableRecord
  2
*D62
340
0
  0
BLOCK_RECORD
  5
6F6
330
1
100
AcDbSymbolTableRecord
100
AcDbBlockTableRecord
  2
*D63
340
0
  0
BLOCK_RECORD
  5
703
330
1
100
AcDbSymbolTableRecord
100
AcDbBlockTableRecord
  2
*D64
340
0
  0
BLOCK_RECORD
  5
710
330
1
100
AcDbSymbolTableRecord
100
AcDbBlockTableRecord
  2
*D65
340
0
  0
BLOCK_RECORD
  5
71E
330
1
100
AcDbSymbolTableRecord
100
AcDbBlockTableRecord
  2
*D66
340
0
  0
BLOCK_RECORD
  5
72C
330
1
100
AcDbSymbolTableRecord
100
AcDbBlockTableRecord
  2
*D67
340
0
  0
BLOCK_RECORD
  5
73A
330
1
100
AcDbSymbolTableRecord
100
AcDbBlockTableRecord
  2
*D68
340
0
  0
BLOCK_RECORD
  5
747
330
1
100
AcDbSymbolTableRecord
100
AcDbBlockTableRecord
  2
*D69
340
0
  0
BLOCK_RECORD
  5
756
330
1
100
AcDbSymbolTableRecord
100
AcDbBlockTableRecord
  2
*D70
340
0
  0
ENDTAB
  0
ENDSEC
  0
SECTION
  2
BLOCKS
  0
BLOCK
  5
20
330
1F
100
AcDbEntity
  8
0
100
AcDbBlockBegin
  2
*Model_Space
 70
     0
 71
     0
 10
0.0
 20
0.0
 30
0.0
  3
*Model_Space
  1

  0
ENDBLK
  5
21
330
1F
100
AcDbEntity
  8
0
100
AcDbBlockEnd
  0
BLOCK
  5
1C
330
1B
100
AcDbEntity
 67
     1
  8
0
100
AcDbBlockBegin
  2
*Paper_Space
 70
     0
 71
     0
 10
0.0
 20
0.0
 30
0.0
  3
*Paper_Space
  1

  0
ENDBLK
  5
1D
330
1B
100
AcDbEntity
 67
     1
  8
0
100
AcDbBlockEnd
  0
BLOCK
  5
24
330
23
100
AcDbEntity
  8
0
100
AcDbBlockBegin
  2
*Paper_Space0
 70
     0
 71
     0
 10
0.0
 20
0.0
 30
0.0
  3
*Paper_Space0
  1

  0
ENDBLK
  5
25
330
23
100
AcDbEntity
  8
0
100
AcDbBlockEnd
  0
BLOCK
  5
45
330
44
100
AcDbEntity
  8
0
100
AcDbBlockBegin
  2
POLY1
 70
     0
 71
     0
 10
0.0
 20
0.0
 30
0.0
  3
POLY1
  1

  4
POLY1
  0
LINE
  5
47
330
44
100
AcDbEntity
  8
LC-001-100-D00-0
 62
     7
370
    50
100
AcDbLine
 10
314.123529
 20
-77.363996
 30
0.0
 11
314.123529
 21
-77.363996
 31
0.0
  0
LINE
  5
48
330
44
100
AcDbEntity
  8
LC-001-100-D00-0
 62
     7
370
    50
100
AcDbLine
 10
314.123529
 20
-77.363996
 30
0.0
 11
314.123525
 21
-77.349949
 31
0.0
  0
LINE
  5
49
330
44
100
AcDbEntity
  8
LC-001-100-D00-0
 62
     7
370
    50
100
AcDbLine
 10
314.123525
 20
-77.349949
 30
0.0
 11
314.123525
 21
-77.349949
 31
0.0
  0
LINE
  5
4A
330
44
100
AcDbEntity
  8
LC-001-100-D00-0
 62
     7
370
    50
100
AcDbLine
 10
314.123525
 20
-77.349949
 30
0.0
 11
314.123221
 21
-76.390641
 31
0.0
  0
LINE
  5
4B
330
44
100
AcDbEntity
  8
LC-001-100-D00-0
 62
     7
370
    50
100
AcDbLine
 10
314.123221
 20
-76.390641
 30
0.0
 11
314.123221
 21
-76.390641
 31
0.0
  0
LINE
  5
4C
330
44
100
AcDbEntity
  8
LC-001-100-D00-0
 62
     7
370
    50
100
AcDbLine
 10
314.123221
 20
-76.390641
 30
0.0
 11
314.059394
 21
-73.930948
 31
0.0
  0
LINE
  5
4D
330
44
100
AcDbEntity
  8
LC-001-100-D00-0
 62
     7
370
    50
100
AcDbLine
 10
314.059394
 20
-73.930948
 30
0.0
 11
314.059394
 21
-73.930948
 31
0.0
  0
LINE
  5
4E
330
44
100
AcDbEntity
  8
LC-001-100-D00-0
 62
     7
370
    50
100
AcDbLine
 10
314.059394
 20
-73.930948
 30
0.0
 11
313.727247
 21
-71.490203
 31
0.0
  0
LINE
  5
4F
330
44
100
AcDbEntity
  8
LC-001-100-D00-0
 62
     7
370
    50
100
AcDbLine
 10
313.727247
 20
-71.490203
 30
0.0
 11
313.727247
 21
-71.490203
 31
0.0
  0
LINE
  5
50
330
44
100
AcDbEntity
  8
LC-001-100-D00-0
 62
     7
370
    50
100
AcDbLine
 10
313.727247
 20
-71.490203
 30
0.0
 11
313.52353
 21
-69.993209
 31
0.0
  0
ENDBLK
  5
46
330
44
100
AcDbEntity
  8
0
100
AcDbBlockEnd
  0
BLOCK
  5
53
330
52
100
AcDbEntity
  8
0
100
AcDbBlockBegin
  2
POLY2
 70
     0
 71
     0
 10
0.0
 20
0.0
 30
0.0
  3
POLY2
  1

  4
POLY2
  0
LINE
  5
55
330
52
100
AcDbEntity
  8
LC-001-100-D00-0
 62
     7
370
    50
100
AcDbLine
 10
268.023531
 20
-31.263998
 30
0.0
 11
268.023531
 21
-31.263998
 31
0.0
  0
LINE
  5
56
330
52
100
AcDbEntity
  8
LC-001-100-D00-0
 62
     7
370
    50
100
AcDbLine
 10
268.023531
 20
-31.263998
 30
0.0
 11
268.009484
 21
-31.264003
 31
0.0
  0
LINE
  5
57
330
52
100
AcDbEntity
  8
LC-001-100-D00-0
 62
     7
370
    50
100
AcDbLine
 10
268.009484
 20
-31.264003
 30
0.0
 11
268.009484
 21
-31.264003
 31
0.0
  0
LINE
  5
58
330
52
100
AcDbEntity
  8
LC-001-100-D00-0
 62
     7
370
    50
100
AcDbLine
 10
268.009484
 20
-31.264003
 30
0.0
 11
267.050175
 21
-31.264307
 31
0.0
  0
LINE
  5
59
330
52
100
AcDbEntity
  8
LC-001-100-D00-0
 62
     7
370
    50
100
AcDbLine
 10
267.050175
 20
-31.264307
 30
0.0
 11
267.050175
 21
-31.264307
 31
0.0
  0
LINE
  5
5A
330
52
100
AcDbEntity
  8
LC-001-100-D00-0
 62
     7
370
    50
100
AcDbLine
 10
267.050175
 20
-31.264307
 30
0.0
 11
264.590482
 21
-31.328133
 31
0.0
  0
LINE
  5
5B
330
52
100
AcDbEntity
  8
LC-001-100-D00-0
 62
     7
370
    50
100
AcDbLine
 10
264.590482
 20
-31.328133
 30
0.0
 11
264.590482
 21
-31.328133
 31
0.0
  0
LINE
  5
5C
330
52
100
AcDbEntity
  8
LC-001-100-D00-0
 62
     7
370
    50
100
AcDbLine
 10
264.590482
 20
-31.328133
 30
0.0
 11
262.149738
 21
-31.66028
 31
0.0
  0
LINE
  5
5D
330
52
100
AcDbEntity
  8
LC-001-100-D00-0
 62
     7
370
    50
100
AcDbLine
 10
262.149738
 20
-31.66028
 30
0.0
 11
262.149738
 21
-31.66028
 31
0.0
  0
LINE
  5
5E
330
52
100
AcDbEntity
  8
LC-001-100-D00-0
 62
     7
370
    50
100
AcDbLine
 10
262.149738
 20
-31.66028
 30
0.0
 11
260.652744
 21
-31.863997
 31
0.0
  0
ENDBLK
  5
54
330
52
100
AcDbEntity
  8
0
100
AcDbBlockEnd
  0
BLOCK
  5
61
330
60
100
AcDbEntity
  8
0
100
AcDbBlockBegin
  2
POLY3
 70
     0
 71
     0
 10
0.0
 20
0.0
 30
0.0
  3
POLY3
  1

  4
POLY3
  0
LINE
  5
63
330
60
100
AcDbEntity
  8
LC-001-100-D00-0
 62
     7
370
    50
100
AcDbLine
 10
222.523532
 20
-70.030929
 30
0.0
 11
222.523532
 21
-70.030929
 31
0.0
  0
LINE
  5
64
330
60
100
AcDbEntity
  8
LC-001-100-D00-0
 62
     7
370
    50
100
AcDbLine
 10
222.523532
 20
-70.030929
 30
0.0
 11
222.319706
 21
-71.515349
 31
0.0
  0
LINE
  5
65
330
60
100
AcDbEntity
  8
LC-001-100-D00-0
 62
     7
370
    50
100
AcDbLine
 10
222.319706
 20
-71.515349
 30
0.0
 11
222.319706
 21
-71.515349
 31
0.0
  0
LINE
  5
66
330
60
100
AcDbEntity
  8
LC-001-100-D00-0
 62
     7
370
    50
100
AcDbLine
 10
222.319706
 20
-71.515349
 30
0.0
 11
221.986296
 21
-73.9435
 31
0.0
  0
LINE
  5
67
330
60
100
AcDbEntity
  8
LC-001-100-D00-0
 62
     7
370
    50
100
AcDbLine
 10
221.986296
 20
-73.9435
 30
0.0
 11
221.986296
 21
-73.9435
 31
0.0
  0
LINE
  5
68
330
60
100
AcDbEntity
  8
LC-001-100-D00-0
 62
     7
370
    50
100
AcDbLine
 10
221.986296
 20
-73.9435
 30
0.0
 11
221.923843
 21
-76.390641
 31
0.0
  0
LINE
  5
69
330
60
100
AcDbEntity
  8
LC-001-100-D00-0
 62
     7
370
    50
100
AcDbLine
 10
221.923843
 20
-76.390641
 30
0.0
 11
221.923843
 21
-76.390641
 31
0.0
  0
LINE
  5
6A
330
60
100
AcDbEntity
  8
LC-001-100-D00-0
 62
     7
370
    50
100
AcDbLine
 10
221.923843
 20
-76.390641
 30
0.0
 11
221.923537
 21
-77.349949
 31
0.0
  0
LINE
  5
6B
330
60
100
AcDbEntity
  8
LC-001-100-D00-0
 62
     7
370
    50
100
AcDbLine
 10
221.923537
 20
-77.349949
 30
0.0
 11
221.923537
 21
-77.349949
 31
0.0
  0
LINE
  5
6C
330
60
100
AcDbEntity
  8
LC-001-100-D00-0
 62
     7
370
    50
100
AcDbLine
 10
221.923537
 20
-77.349949
 30
0.0
 11
221.923533
 21
-77.363996
 31
0.0
  0
ENDBLK
  5
62
330
60
100
AcDbEntity
  8
0
100
AcDbBlockEnd
  0
BLOCK
  5
6F
330
6E
100
AcDbEntity
  8
0
100
AcDbBlockBegin
  2
POLY4
 70
     0
 71
     0
 10
0.0
 20
0.0
 30
0.0
  3
POLY4
  1

  4
POLY4
  0
LINE
  5
71
330
6E
100
AcDbEntity
  8
LC-001-100-D00-0
 62
     7
370
    50
100
AcDbLine
 10
275.356597
 20
-31.863997
 30
0.0
 11
275.356597
 21
-31.863997
 31
0.0
  0
LINE
  5
72
330
6E
100
AcDbEntity
  8
LC-001-100-D00-0
 62
     7
370
    50
100
AcDbLine
 10
275.356597
 20
-31.863997
 30
0.0
 11
273.872178
 21
-31.660171
 31
0.0
  0
LINE
  5
73
330
6E
100
AcDbEntity
  8
LC-001-100-D00-0
 62
     7
370
    50
100
AcDbLine
 10
273.872178
 20
-31.660171
 30
0.0
 11
273.872178
 21
-31.660171
 31
0.0
  0
LINE
  5
74
330
6E
100
AcDbEntity
  8
LC-001-100-D00-0
 62
     7
370
    50
100
AcDbLine
 10
273.872178
 20
-31.660171
 30
0.0
 11
271.444027
 21
-31.326761
 31
0.0
  0
LINE
  5
75
330
6E
100
AcDbEntity
  8
LC-001-100-D00-0
 62
     7
370
    50
100
AcDbLine
 10
271.444027
 20
-31.326761
 30
0.0
 11
271.444027
 21
-31.326761
 31
0.0
  0
LINE
  5
76
330
6E
100
AcDbEntity
  8
LC-001-100-D00-0
 62
     7
370
    50
100
AcDbLine
 10
271.444027
 20
-31.326761
 30
0.0
 11
268.996886
 21
-31.264309
 31
0.0
  0
LINE
  5
77
330
6E
100
AcDbEntity
  8
LC-001-100-D00-0
 62
     7
370
    50
100
AcDbLine
 10
268.996886
 20
-31.264309
 30
0.0
 11
268.996886
 21
-31.264309
 31
0.0
  0
LINE
  5
78
330
6E
100
AcDbEntity
  8
LC-001-100-D00-0
 62
     7
370
    50
100
AcDbLine
 10
268.996886
 20
-31.264309
 30
0.0
 11
268.037578
 21
-31.264003
 31
0.0
  0
LINE
  5
79
330
6E
100
AcDbEntity
  8
LC-001-100-D00-0
 62
     7
370
    50
100
AcDbLine
 10
268.037578
 20
-31.264003
 30
0.0
 11
268.037578
 21
-31.264003
 31
0.0
  0
LINE
  5
7A
330
6E
100
AcDbEntity
  8
LC-001-100-D00-0
 62
     7
370
    50
100
AcDbLine
 10
268.037578
 20
-31.264003
 30
0.0
 11
268.023531
 21
-31.263998
 31
0.0
  0
ENDBLK
  5
70
330
6E
100
AcDbEntity
  8
0
100
AcDbBlockEnd
  0
BLOCK
  5
7D
330
7C
100
AcDbEntity
  8
0
100
AcDbBlockBegin
  2
KLON1
 70
     0
 71
     0
 10
0.0
 20
0.0
 30
0.0
  3
KLON1
  1

  4
KLON1
  0
LINE
  5
7F
330
7C
100
AcDbEntity
  8
LC-001-100-D00-0
 62
     7
370
    15
100
AcDbLine
 10
243.442847
 20
-38.363995
 30
0.0
 11
240.339504
 21
-40.502029
 31
0.0
  0
LINE
  5
80
330
7C
100
AcDbEntity
  8
LC-001-100-D00-0
 62
     7
370
    15
100
AcDbLine
 10
240.339504
 20
-40.502029
 30
0.0
 11
239.027834
 21
-41.52464
 31
0.0
  0
ENDBLK
  5
7E
330
7C
100
AcDbEntity
  8
0
100
AcDbBlockEnd
  0
BLOCK
  5
83
330
82
100
AcDbEntity
  8
0
100
AcDbBlockBegin
  2
KLON2
 70
     0
 71
     0
 10
0.0
 20
0.0
 30
0.0
  3
KLON2
  1

  4
KLON2
  0
LINE
  5
85
330
82
100
AcDbEntity
  8
LC-001-100-D00-0
 62
     7
370
    15
100
AcDbLine
 10
232.184173
 20
-48.3683
 30
0.0
 11
231.161564
 21
-49.679969
 31
0.0
  0
LINE
  5
86
330
82
100
AcDbEntity
  8
LC-001-100-D00-0
 62
     7
370
    15
100
AcDbLine
 10
231.161564
 20
-49.679969
 30
0.0
 11
229.02353
 21
-52.783313
 31
0.0
  0
ENDBLK
  5
84
330
82
100
AcDbEntity
  8
0
100
AcDbBlockEnd
  0
BLOCK
  5
89
330
88
100
AcDbEntity
  8
0
100
AcDbBlockBegin
  2
KLON3
 70
     0
 71
     0
 10
0.0
 20
0.0
 30
0.0
  3
KLON3
  1

  4
KLON3
  0
LINE
  5
8B
330
88
100
AcDbEntity
  8
LC-001-100-D00-0
 62
     7
370
    15
100
AcDbLine
 10
307.023532
 20
-52.783313
 30
0.0
 11
304.885498
 21
-49.679969
 31
0.0
  0
LINE
  5
8C
330
88
100
AcDbEntity
  8
LC-001-100-D00-0
 62
     7
370
    15
100
AcDbLine
 10
304.885498
 20
-49.679969
 30
0.0
 11
303.862887
 21
-48.3683
 31
0.0
  0
ENDBLK
  5
8A
330
88
100
AcDbEntity
  8
0
100
AcDbBlockEnd
  0
BLOCK
  5
8F
330
8E
100
AcDbEntity
  8
0
100
AcDbBlockBegin
  2
KLON4
 70
     0
 71
     0
 10
0.0
 20
0.0
 30
0.0
  3
KLON4
  1

  4
KLON4
  0
LINE
  5
91
330
8E
100
AcDbEntity
  8
LC-001-100-D00-0
 62
     7
370
    15
100
AcDbLine
 10
297.019227
 20
-41.52464
 30
0.0
 11
295.707556
 21
-40.502029
 31
0.0
  0
LINE
  5
92
330
8E
100
AcDbEntity
  8
LC-001-100-D00-0
 62
     7
370
    15
100
AcDbLine
 10
295.707556
 20
-40.502029
 30
0.0
 11
292.604214
 21
-38.363995
 31
0.0
  0
ENDBLK
  5
90
330
8E
100
AcDbEntity
  8
0
100
AcDbBlockEnd
  0
BLOCK
  5
112
330
111
100
AcDbEntity
  8
0
100
AcDbBlockBegin
  2
POLY5
 70
     0
 71
     0
 10
0.0
 20
0.0
 30
0.0
  3
POLY5
  1

  4
POLY5
  0
LINE
  5
114
330
111
100
AcDbEntity
  8
LC-001-100-D00-0
 62
     7
370
    50
100
AcDbLine
 10
360.169097
 20
18.317105
 30
0.0
 11
360.169097
 21
18.317105
 31
0.0
  0
LINE
  5
115
330
111
100
AcDbEntity
  8
LC-001-100-D00-0
 62
     7
370
    50
100
AcDbLine
 10
360.169097
 20
18.317105
 30
0.0
 11
360.331465
 21
17.817184
 31
0.0
  0
LINE
  5
116
330
111
100
AcDbEntity
  8
LC-001-100-D00-0
 62
     7
370
    50
100
AcDbLine
 10
360.331465
 20
17.817184
 30
0.0
 11
360.331465
 21
17.817184
 31
0.0
  0
LINE
  5
117
330
111
100
AcDbEntity
  8
LC-001-100-D00-0
 62
     7
370
    50
100
AcDbLine
 10
360.331465
 20
17.817184
 30
0.0
 11
360.656243
 21
16.817211
 31
0.0
  0
LINE
  5
118
330
111
100
AcDbEntity
  8
LC-001-100-D00-0
 62
     7
370
    50
100
AcDbLine
 10
360.656243
 20
16.817211
 30
0.0
 11
360.656243
 21
16.817211
 31
0.0
  0
LINE
  5
119
330
111
100
AcDbEntity
  8
LC-001-100-D00-0
 62
     7
370
    50
100
AcDbLine
 10
360.656243
 20
16.817211
 30
0.0
 11
361.737397
 21
15.636786
 31
0.0
  0
LINE
  5
11A
330
111
100
AcDbEntity
  8
LC-001-100-D00-0
 62
     7
370
    50
100
AcDbLine
 10
361.737397
 20
15.636786
 30
0.0
 11
361.737397
 21
15.636786
 31
0.0
  0
LINE
  5
11B
330
111
100
AcDbEntity
  8
LC-001-100-D00-0
 62
     7
370
    50
100
AcDbLine
 10
361.737397
 20
15.636786
 30
0.0
 11
362.826847
 21
15.010198
 31
0.0
  0
LINE
  5
11C
330
111
100
AcDbEntity
  8
LC-001-100-D00-0
 62
     7
370
    50
100
AcDbLine
 10
362.826847
 20
15.010198
 30
0.0
 11
362.826847
 21
15.010198
 31
0.0
  0
LINE
  5
11D
330
111
100
AcDbEntity
  8
LC-001-100-D00-0
 62
     7
370
    50
100
AcDbLine
 10
362.826847
 20
15.010198
 30
0.0
 11
363.516578
 21
14.830554
 31
0.0
  0
LINE
  5
11E
330
111
100
AcDbEntity
  8
LC-001-100-D00-0
 62
     7
370
    50
100
AcDbLine
 10
363.516578
 20
14.830554
 30
0.0
 11
363.516578
 21
14.830554
 31
0.0
  0
LINE
  5
11F
330
111
100
AcDbEntity
  8
LC-001-100-D00-0
 62
     7
370
    50
100
AcDbLine
 10
363.516578
 20
14.830554
 30
0.0
 11
363.704636
 21
14.781573
 31
0.0
  0
ENDBLK
  5
113
330
111
100
AcDbEntity
  8
0
100
AcDbBlockEnd
  0
BLOCK
  5
125
330
124
100
AcDbEntity
  8
0
100
AcDbBlockBegin
  2
POLY6
 70
     0
 71
     0
 10
0.0
 20
0.0
 30
0.0
  3
POLY6
  1

  4
POLY6
  0
LINE
  5
127
330
124
100
AcDbEntity
  8
LC-001-100-D00-0
 62
     7
370
    50
100
AcDbLine
 10
172.342426
 20
14.781573
 30
0.0
 11
172.342426
 21
14.781573
 31
0.0
  0
LINE
  5
128
330
124
100
AcDbEntity
  8
LC-001-100-D00-0
 62
     7
370
    50
100
AcDbLine
 10
172.342426
 20
14.781573
 30
0.0
 11
172.842351
 21
14.943937
 31
0.0
  0
LINE
  5
129
330
124
100
AcDbEntity
  8
LC-001-100-D00-0
 62
     7
370
    50
100
AcDbLine
 10
172.842351
 20
14.943937
 30
0.0
 11
172.842351
 21
14.943937
 31
0.0
  0
LINE
  5
12A
330
124
100
AcDbEntity
  8
LC-001-100-D00-0
 62
     7
370
    50
100
AcDbLine
 10
172.842351
 20
14.943937
 30
0.0
 11
173.842331
 21
15.268708
 31
0.0
  0
LINE
  5
12B
330
124
100
AcDbEntity
  8
LC-001-100-D00-0
 62
     7
370
    50
100
AcDbLine
 10
173.842331
 20
15.268708
 30
0.0
 11
173.842331
 21
15.268708
 31
0.0
  0
LINE
  5
12C
330
124
100
AcDbEntity
  8
LC-001-100-D00-0
 62
     7
370
    50
100
AcDbLine
 10
173.842331
 20
15.268708
 30
0.0
 11
175.022747
 21
16.349874
 31
0.0
  0
LINE
  5
12D
330
124
100
AcDbEntity
  8
LC-001-100-D00-0
 62
     7
370
    50
100
AcDbLine
 10
175.022747
 20
16.349874
 30
0.0
 11
175.022747
 21
16.349874
 31
0.0
  0
LINE
  5
12E
330
124
100
AcDbEntity
  8
LC-001-100-D00-0
 62
     7
370
    50
100
AcDbLine
 10
175.022747
 20
16.349874
 30
0.0
 11
175.649341
 21
17.439318
 31
0.0
  0
LINE
  5
12F
330
124
100
AcDbEntity
  8
LC-001-100-D00-0
 62
     7
370
    50
100
AcDbLine
 10
175.649341
 20
17.439318
 30
0.0
 11
175.649341
 21
17.439318
 31
0.0
  0
LINE
  5
130
330
124
100
AcDbEntity
  8
LC-001-100-D00-0
 62
     7
370
    50
100
AcDbLine
 10
175.649341
 20
17.439318
 30
0.0
 11
175.828984
 21
18.129047
 31
0.0
  0
LINE
  5
131
330
124
100
AcDbEntity
  8
LC-001-100-D00-0
 62
     7
370
    50
100
AcDbLine
 10
175.828984
 20
18.129047
 30
0.0
 11
175.828984
 21
18.129047
 31
0.0
  0
LINE
  5
132
330
124
100
AcDbEntity
  8
LC-001-100-D00-0
 62
     7
370
    50
100
AcDbLine
 10
175.828984
 20
18.129047
 30
0.0
 11
175.877965
 21
18.317105
 31
0.0
  0
ENDBLK
  5
126
330
124
100
AcDbEntity
  8
0
100
AcDbBlockEnd
  0
BLOCK
  5
139
330
138
100
AcDbEntity
  8
0
100
AcDbBlockBegin
  2
POLY7
 70
     0
 71
     0
 10
0.0
 20
0.0
 30
0.0
  3
POLY7
  1

  4
POLY7
  0
LINE
  5
13B
330
138
100
AcDbEntity
  8
LC-001-100-D00-0
 62
     7
370
    50
100
AcDbLine
 10
265.52353
 20
55.449517
 30
0.0
 11
265.52353
 21
55.449517
 31
0.0
  0
LINE
  5
13C
330
138
100
AcDbEntity
  8
LC-001-100-D00-0
 62
     7
370
    50
100
AcDbLine
 10
265.52353
 20
55.449517
 30
0.0
 11
265.991839
 21
55.210824
 31
0.0
  0
LINE
  5
13D
330
138
100
AcDbEntity
  8
LC-001-100-D00-0
 62
     7
370
    50
100
AcDbLine
 10
265.991839
 20
55.210824
 30
0.0
 11
265.991839
 21
55.210824
 31
0.0
  0
LINE
  5
13E
330
138
100
AcDbEntity
  8
LC-001-100-D00-0
 62
     7
370
    50
100
AcDbLine
 10
265.991839
 20
55.210824
 30
0.0
 11
266.928578
 21
54.733375
 31
0.0
  0
LINE
  5
13F
330
138
100
AcDbEntity
  8
LC-001-100-D00-0
 62
     7
370
    50
100
AcDbLine
 10
266.928578
 20
54.733375
 30
0.0
 11
266.928578
 21
54.733375
 31
0.0
  0
LINE
  5
140
330
138
100
AcDbEntity
  8
LC-001-100-D00-0
 62
     7
370
    50
100
AcDbLine
 10
266.928578
 20
54.733375
 30
0.0
 11
268.527756
 21
54.663218
 31
0.0
  0
LINE
  5
141
330
138
100
AcDbEntity
  8
LC-001-100-D00-0
 62
     7
370
    50
100
AcDbLine
 10
268.527756
 20
54.663218
 30
0.0
 11
268.527756
 21
54.663218
 31
0.0
  0
LINE
  5
142
330
138
100
AcDbEntity
  8
LC-001-100-D00-0
 62
     7
370
    50
100
AcDbLine
 10
268.527756
 20
54.663218
 30
0.0
 11
269.741184
 21
54.990479
 31
0.0
  0
LINE
  5
143
330
138
100
AcDbEntity
  8
LC-001-100-D00-0
 62
     7
370
    50
100
AcDbLine
 10
269.741184
 20
54.990479
 30
0.0
 11
269.741184
 21
54.990479
 31
0.0
  0
LINE
  5
144
330
138
100
AcDbEntity
  8
LC-001-100-D00-0
 62
     7
370
    50
100
AcDbLine
 10
269.741184
 20
54.990479
 30
0.0
 11
270.35592
 21
55.351172
 31
0.0
  0
LINE
  5
145
330
138
100
AcDbEntity
  8
LC-001-100-D00-0
 62
     7
370
    50
100
AcDbLine
 10
270.35592
 20
55.351172
 30
0.0
 11
270.35592
 21
55.351172
 31
0.0
  0
LINE
  5
146
330
138
100
AcDbEntity
  8
LC-001-100-D00-0
 62
     7
370
    50
100
AcDbLine
 10
270.35592
 20
55.351172
 30
0.0
 11
270.52353
 21
55.449517
 31
0.0
  0
ENDBLK
  5
13A
330
138
100
AcDbEntity
  8
0
100
AcDbBlockEnd
  0
BLOCK
  5
150
330
14F
100
AcDbEntity
  8
0
100
AcDbBlockBegin
  2
POLY8
 70
     0
 71
     0
 10
0.0
 20
0.0
 30
0.0
  3
POLY8
  1

  4
POLY8
  0
LINE
  5
152
330
14F
100
AcDbEntity
  8
LC-001-100-D00-0
 62
     7
370
    50
100
AcDbLine
 10
176.213249
 20
366.978706
 30
0.0
 11
176.213249
 21
366.978706
 31
0.0
  0
LINE
  5
153
330
14F
100
AcDbEntity
  8
LC-001-100-D00-0
 62
     7
370
    50
100
AcDbLine
 10
176.213249
 20
366.978706
 30
0.0
 11
176.364986
 21
367.761243
 31
0.0
  0
LINE
  5
154
330
14F
100
AcDbEntity
  8
LC-001-100-D00-0
 62
     7
370
    50
100
AcDbLine
 10
176.364986
 20
367.761243
 30
0.0
 11
176.364986
 21
367.761243
 31
0.0
  0
LINE
  5
155
330
14F
100
AcDbEntity
  8
LC-001-100-D00-0
 62
     7
370
    50
100
AcDbLine
 10
176.364986
 20
367.761243
 30
0.0
 11
178.127614
 21
375.323993
 31
0.0
  0
LINE
  5
156
330
14F
100
AcDbEntity
  8
LC-001-100-D00-0
 62
     7
370
    50
100
AcDbLine
 10
178.127614
 20
375.323993
 30
0.0
 11
178.127614
 21
375.323993
 31
0.0
  0
LINE
  5
157
330
14F
100
AcDbEntity
  8
LC-001-100-D00-0
 62
     7
370
    50
100
AcDbLine
 10
178.127614
 20
375.323993
 30
0.0
 11
178.817584
 21
378.887077
 31
0.0
  0
LINE
  5
158
330
14F
100
AcDbEntity
  8
LC-001-100-D00-0
 62
     7
370
    50
100
AcDbLine
 10
178.817584
 20
378.887077
 30
0.0
 11
178.817584
 21
378.887077
 31
0.0
  0
LINE
  5
159
330
14F
100
AcDbEntity
  8
LC-001-100-D00-0
 62
     7
370
    50
100
AcDbLine
 10
178.817584
 20
378.887077
 30
0.0
 11
179.356006
 21
381.667552
 31
0.0
  0
ENDBLK
  5
151
330
14F
100
AcDbEntity
  8
0
100
AcDbBlockEnd
  0
BLOCK
  5
162
330
161
100
AcDbEntity
  8
0
100
AcDbBlockBegin
  2
POLY9
 70
     0
 71
     0
 10
0.0
 20
0.0
 30
0.0
  3
POLY9
  1

  4
POLY9
  0
LINE
  5
164
330
161
100
AcDbEntity
  8
LC-001-100-D00-0
 62
     7
370
    50
100
AcDbLine
 10
201.098478
 20
259.846678
 30
0.0
 11
201.098478
 21
259.846678
 31
0.0
  0
LINE
  5
165
330
161
100
AcDbEntity
  8
LC-001-100-D00-0
 62
     7
370
    50
100
AcDbLine
 10
201.098478
 20
259.846678
 30
0.0
 11
200.88468
 21
259.96331
 31
0.0
  0
LINE
  5
166
330
161
100
AcDbEntity
  8
LC-001-100-D00-0
 62
     7
370
    50
100
AcDbLine
 10
200.88468
 20
259.96331
 30
0.0
 11
200.88468
 21
259.96331
 31
0.0
  0
LINE
  5
167
330
161
100
AcDbEntity
  8
LC-001-100-D00-0
 62
     7
370
    50
100
AcDbLine
 10
200.88468
 20
259.96331
 30
0.0
 11
200.521442
 21
260.161464
 31
0.0
  0
LINE
  5
168
330
161
100
AcDbEntity
  8
LC-001-100-D00-0
 62
     7
370
    50
100
AcDbLine
 10
200.521442
 20
260.161464
 30
0.0
 11
200.521442
 21
260.161464
 31
0.0
  0
LINE
  5
169
330
161
100
AcDbEntity
  8
LC-001-100-D00-0
 62
     7
370
    50
100
AcDbLine
 10
200.521442
 20
260.161464
 30
0.0
 11
200.168666
 21
260.361881
 31
0.0
  0
LINE
  5
16A
330
161
100
AcDbEntity
  8
LC-001-100-D00-0
 62
     7
370
    50
100
AcDbLine
 10
200.168666
 20
260.361881
 30
0.0
 11
200.168666
 21
260.361881
 31
0.0
  0
LINE
  5
16B
330
161
100
AcDbEntity
  8
LC-001-100-D00-0
 62
     7
370
    50
100
AcDbLine
 10
200.168666
 20
260.361881
 30
0.0
 11
200.023531
 21
260.444334
 31
0.0
  0
ENDBLK
  5
163
330
161
100
AcDbEntity
  8
0
100
AcDbBlockEnd
  0
BLOCK
  5
172
330
171
100
AcDbEntity
  8
0
100
AcDbBlockBegin
  2
POLY10
 70
     0
 71
     0
 10
0.0
 20
0.0
 30
0.0
  3
POLY10
  1

  4
POLY10
  0
LINE
  5
174
330
171
100
AcDbEntity
  8
LC-001-100-D00-0
 62
     7
370
    50
100
AcDbLine
 10
194.933104
 20
261.039521
 30
0.0
 11
194.933104
 21
261.039521
 31
0.0
  0
LINE
  5
175
330
171
100
AcDbEntity
  8
LC-001-100-D00-0
 62
     7
370
    50
100
AcDbLine
 10
194.933104
 20
261.039521
 30
0.0
 11
195.173004
 21
260.913389
 31
0.0
  0
LINE
  5
176
330
171
100
AcDbEntity
  8
LC-001-100-D00-0
 62
     7
370
    50
100
AcDbLine
 10
195.173004
 20
260.913389
 30
0.0
 11
195.173004
 21
260.913389
 31
0.0
  0
LINE
  5
177
330
171
100
AcDbEntity
  8
LC-001-100-D00-0
 62
     7
370
    50
100
AcDbLine
 10
195.173004
 20
260.913389
 30
0.0
 11
195.536851
 21
260.722089
 31
0.0
  0
LINE
  5
178
330
171
100
AcDbEntity
  8
LC-001-100-D00-0
 62
     7
370
    50
100
AcDbLine
 10
195.536851
 20
260.722089
 30
0.0
 11
195.536851
 21
260.722089
 31
0.0
  0
LINE
  5
179
330
171
100
AcDbEntity
  8
LC-001-100-D00-0
 62
     7
370
    50
100
AcDbLine
 10
195.536851
 20
260.722089
 30
0.0
 11
195.899867
 21
260.516821
 31
0.0
  0
LINE
  5
17A
330
171
100
AcDbEntity
  8
LC-001-100-D00-0
 62
     7
370
    50
100
AcDbLine
 10
195.899867
 20
260.516821
 30
0.0
 11
195.899867
 21
260.516821
 31
0.0
  0
LINE
  5
17B
330
171
100
AcDbEntity
  8
LC-001-100-D00-0
 62
     7
370
    50
100
AcDbLine
 10
195.899867
 20
260.516821
 30
0.0
 11
196.023531
 21
260.446895
 31
0.0
  0
ENDBLK
  5
173
330
171
100
AcDbEntity
  8
0
100
AcDbBlockEnd
  0
BLOCK
  5
186
330
185
100
AcDbEntity
  8
0
100
AcDbBlockBegin
  2
POLY11
 70
     0
 71
     0
 10
0.0
 20
0.0
 30
0.0
  3
POLY11
  1

  4
POLY11
  0
LINE
  5
188
330
185
100
AcDbEntity
  8
LC-001-100-D00-0
 62
     7
370
    50
100
AcDbLine
 10
222.374923
 20
376.717437
 30
0.0
 11
222.374923
 21
376.717437
 31
0.0
  0
LINE
  5
189
330
185
100
AcDbEntity
  8
LC-001-100-D00-0
 62
     7
370
    50
100
AcDbLine
 10
222.374923
 20
376.717437
 30
0.0
 11
222.355832
 21
376.734303
 31
0.0
  0
LINE
  5
18A
330
185
100
AcDbEntity
  8
LC-001-100-D00-0
 62
     7
370
    50
100
AcDbLine
 10
222.355832
 20
376.734303
 30
0.0
 11
222.355832
 21
376.734303
 31
0.0
  0
LINE
  5
18B
330
185
100
AcDbEntity
  8
LC-001-100-D00-0
 62
     7
370
    50
100
AcDbLine
 10
222.355832
 20
376.734303
 30
0.0
 11
222.208049
 21
376.864862
 31
0.0
  0
LINE
  5
18C
330
185
100
AcDbEntity
  8
LC-001-100-D00-0
 62
     7
370
    50
100
AcDbLine
 10
222.208049
 20
376.864862
 30
0.0
 11
222.208049
 21
376.864862
 31
0.0
  0
LINE
  5
18D
330
185
100
AcDbEntity
  8
LC-001-100-D00-0
 62
     7
370
    50
100
AcDbLine
 10
222.208049
 20
376.864862
 30
0.0
 11
221.91409
 21
376.951339
 31
0.0
  0
LINE
  5
18E
330
185
100
AcDbEntity
  8
LC-001-100-D00-0
 62
     7
370
    50
100
AcDbLine
 10
221.91409
 20
376.951339
 30
0.0
 11
221.91409
 21
376.951339
 31
0.0
  0
LINE
  5
18F
330
185
100
AcDbEntity
  8
LC-001-100-D00-0
 62
     7
370
    50
100
AcDbLine
 10
221.91409
 20
376.951339
 30
0.0
 11
221.653806
 21
376.957546
 31
0.0
  0
LINE
  5
190
330
185
100
AcDbEntity
  8
LC-001-100-D00-0
 62
     7
370
    50
100
AcDbLine
 10
221.653806
 20
376.957546
 30
0.0
 11
221.653806
 21
376.957546
 31
0.0
  0
LINE
  5
191
330
185
100
AcDbEntity
  8
LC-001-100-D00-0
 62
     7
370
    50
100
AcDbLine
 10
221.653806
 20
376.957546
 30
0.0
 11
221.564182
 21
376.959684
 31
0.0
  0
ENDBLK
  5
187
330
185
100
AcDbEntity
  8
0
100
AcDbBlockEnd
  0
BLOCK
  5
1DA
330
1D9
100
AcDbEntity
  8
0
100
AcDbBlockBegin
  2
POLY12
 70
     0
 71
     0
 10
0.0
 20
0.0
 30
0.0
  3
POLY12
  1

  4
POLY12
  0
LINE
  5
1DC
330
1D9
100
AcDbEntity
  8
LC-001-100-D00-0
 62
     7
370
    50
100
AcDbLine
 10
175.23157
 20
366.169043
 30
0.0
 11
175.23157
 21
366.169043
 31
0.0
  0
LINE
  5
1DD
330
1D9
100
AcDbEntity
  8
LC-001-100-D00-0
 62
     7
370
    50
100
AcDbLine
 10
175.23157
 20
366.169043
 30
0.0
 11
175.198841
 21
366.169043
 31
0.0
  0
LINE
  5
1DE
330
1D9
100
AcDbEntity
  8
LC-001-100-D00-0
 62
     7
370
    50
100
AcDbLine
 10
175.198841
 20
366.169043
 30
0.0
 11
175.198841
 21
366.169043
 31
0.0
  0
LINE
  5
1DF
330
1D9
100
AcDbEntity
  8
LC-001-100-D00-0
 62
     7
370
    50
100
AcDbLine
 10
175.198841
 20
366.169043
 30
0.0
 11
174.939476
 21
366.169043
 31
0.0
  0
LINE
  5
1E0
330
1D9
100
AcDbEntity
  8
LC-001-100-D00-0
 62
     7
370
    50
100
AcDbLine
 10
174.939476
 20
366.169043
 30
0.0
 11
174.939476
 21
366.169043
 31
0.0
  0
LINE
  5
1E1
330
1D9
100
AcDbEntity
  8
LC-001-100-D00-0
 62
     7
370
    50
100
AcDbLine
 10
174.939476
 20
366.169043
 30
0.0
 11
174.310113
 21
366.169043
 31
0.0
  0
LINE
  5
1E2
330
1D9
100
AcDbEntity
  8
LC-001-100-D00-0
 62
     7
370
    50
100
AcDbLine
 10
174.310113
 20
366.169043
 30
0.0
 11
174.310113
 21
366.169043
 31
0.0
  0
LINE
  5
1E3
330
1D9
100
AcDbEntity
  8
LC-001-100-D00-0
 62
     7
370
    50
100
AcDbLine
 10
174.310113
 20
366.169043
 30
0.0
 11
173.527651
 21
366.169043
 31
0.0
  0
LINE
  5
1E4
330
1D9
100
AcDbEntity
  8
LC-001-100-D00-0
 62
     7
370
    50
100
AcDbLine
 10
173.527651
 20
366.169043
 30
0.0
 11
173.527651
 21
366.169043
 31
0.0
  0
LINE
  5
1E5
330
1D9
100
AcDbEntity
  8
LC-001-100-D00-0
 62
     7
370
    50
100
AcDbLine
 10
173.527651
 20
366.169043
 30
0.0
 11
173.11025
 21
366.169043
 31
0.0
  0
ENDBLK
  5
1DB
330
1D9
100
AcDbEntity
  8
0
100
AcDbBlockEnd
  0
BLOCK
  5
1EA
330
1E9
100
AcDbEntity
  8
0
100
AcDbBlockBegin
  2
POLY13
 70
     0
 71
     0
 10
0.0
 20
0.0
 30
0.0
  3
POLY13
  1

  4
POLY13
  0
LINE
  5
1EC
330
1E9
100
AcDbEntity
  8
LC-001-100-D00-0
 62
     7
370
    50
100
AcDbLine
 10
170.95147
 20
366.910224
 30
0.0
 11
170.95147
 21
366.910224
 31
0.0
  0
LINE
  5
1ED
330
1E9
100
AcDbEntity
  8
LC-001-100-D00-0
 62
     7
370
    50
100
AcDbLine
 10
170.95147
 20
366.910224
 30
0.0
 11
170.963847
 21
366.80913
 31
0.0
  0
LINE
  5
1EE
330
1E9
100
AcDbEntity
  8
LC-001-100-D00-0
 62
     7
370
    50
100
AcDbLine
 10
170.963847
 20
366.80913
 30
0.0
 11
170.963847
 21
366.80913
 31
0.0
  0
LINE
  5
1EF
330
1E9
100
AcDbEntity
  8
LC-001-100-D00-0
 62
     7
370
    50
100
AcDbLine
 10
170.963847
 20
366.80913
 30
0.0
 11
170.988563
 21
366.607246
 31
0.0
  0
LINE
  5
1F0
330
1E9
100
AcDbEntity
  8
LC-001-100-D00-0
 62
     7
370
    50
100
AcDbLine
 10
170.988563
 20
366.607246
 30
0.0
 11
170.988563
 21
366.607246
 31
0.0
  0
LINE
  5
1F1
330
1E9
100
AcDbEntity
  8
LC-001-100-D00-0
 62
     7
370
    50
100
AcDbLine
 10
170.988563
 20
366.607246
 30
0.0
 11
171.058635
 21
366.37474
 31
0.0
  0
LINE
  5
1F2
330
1E9
100
AcDbEntity
  8
LC-001-100-D00-0
 62
     7
370
    50
100
AcDbLine
 10
171.058635
 20
366.37474
 30
0.0
 11
171.058635
 21
366.37474
 31
0.0
  0
LINE
  5
1F3
330
1E9
100
AcDbEntity
  8
LC-001-100-D00-0
 62
     7
370
    50
100
AcDbLine
 10
171.058635
 20
366.37474
 30
0.0
 11
171.144841
 21
366.209852
 31
0.0
  0
LINE
  5
1F4
330
1E9
100
AcDbEntity
  8
LC-001-100-D00-0
 62
     7
370
    50
100
AcDbLine
 10
171.144841
 20
366.209852
 30
0.0
 11
171.144841
 21
366.209852
 31
0.0
  0
LINE
  5
1F5
330
1E9
100
AcDbEntity
  8
LC-001-100-D00-0
 62
     7
370
    50
100
AcDbLine
 10
171.144841
 20
366.209852
 30
0.0
 11
171.207034
 21
366.16927
 31
0.0
  0
LINE
  5
1F6
330
1E9
100
AcDbEntity
  8
LC-001-100-D00-0
 62
     7
370
    50
100
AcDbLine
 10
171.207034
 20
366.16927
 30
0.0
 11
171.207034
 21
366.16927
 31
0.0
  0
LINE
  5
1F7
330
1E9
100
AcDbEntity
  8
LC-001-100-D00-0
 62
     7
370
    50
100
AcDbLine
 10
171.207034
 20
366.16927
 30
0.0
 11
171.238444
 21
366.169046
 31
0.0
  0
LINE
  5
1F8
330
1E9
100
AcDbEntity
  8
LC-001-100-D00-0
 62
     7
370
    50
100
AcDbLine
 10
171.238444
 20
366.169046
 30
0.0
 11
171.238444
 21
366.169046
 31
0.0
  0
LINE
  5
1F9
330
1E9
100
AcDbEntity
  8
LC-001-100-D00-0
 62
     7
370
    50
100
AcDbLine
 10
171.238444
 20
366.169046
 30
0.0
 11
171.238935
 21
366.169043
 31
0.0
  0
ENDBLK
  5
1EB
330
1E9
100
AcDbEntity
  8
0
100
AcDbBlockEnd
  0
BLOCK
  5
210
330
20F
100
AcDbEntity
  8
0
100
AcDbBlockBegin
  2
POLY14
 70
     0
 71
     0
 10
0.0
 20
0.0
 30
0.0
  3
POLY14
  1

  4
POLY14
  0
LINE
  5
212
330
20F
100
AcDbEntity
  8
LC-001-100-D00-0
 62
     7
370
    50
100
AcDbLine
 10
194.773531
 20
261.183341
 30
0.0
 11
194.773531
 21
261.183341
 31
0.0
  0
LINE
  5
213
330
20F
100
AcDbEntity
  8
LC-001-100-D00-0
 62
     7
370
    50
100
AcDbLine
 10
194.773531
 20
261.183341
 30
0.0
 11
194.773535
 21
261.182607
 31
0.0
  0
LINE
  5
214
330
20F
100
AcDbEntity
  8
LC-001-100-D00-0
 62
     7
370
    50
100
AcDbLine
 10
194.773535
 20
261.182607
 30
0.0
 11
194.773535
 21
261.182607
 31
0.0
  0
LINE
  5
215
330
20F
100
AcDbEntity
  8
LC-001-100-D00-0
 62
     7
370
    50
100
AcDbLine
 10
194.773535
 20
261.182607
 30
0.0
 11
194.773841
 21
261.131589
 31
0.0
  0
LINE
  5
216
330
20F
100
AcDbEntity
  8
LC-001-100-D00-0
 62
     7
370
    50
100
AcDbLine
 10
194.773841
 20
261.131589
 30
0.0
 11
194.773841
 21
261.131589
 31
0.0
  0
LINE
  5
217
330
20F
100
AcDbEntity
  8
LC-001-100-D00-0
 62
     7
370
    50
100
AcDbLine
 10
194.773841
 20
261.131589
 30
0.0
 11
194.873725
 21
261.084262
 31
0.0
  0
LINE
  5
218
330
20F
100
AcDbEntity
  8
LC-001-100-D00-0
 62
     7
370
    50
100
AcDbLine
 10
194.873725
 20
261.084262
 30
0.0
 11
194.873725
 21
261.084262
 31
0.0
  0
LINE
  5
219
330
20F
100
AcDbEntity
  8
LC-001-100-D00-0
 62
     7
370
    50
100
AcDbLine
 10
194.873725
 20
261.084262
 30
0.0
 11
194.972171
 21
261.037616
 31
0.0
  0
ENDBLK
  5
211
330
20F
100
AcDbEntity
  8
0
100
AcDbBlockEnd
  0
BLOCK
  5
24A
330
249
100
AcDbEntity
  8
0
100
AcDbBlockBegin
  2
POLY15
 70
     0
 71
     0
 10
0.0
 20
0.0
 30
0.0
  3
POLY15
  1

  4
POLY15
  0
LINE
  5
24C
330
249
100
AcDbEntity
  8
LC-001-100-D00-0
 62
     7
370
    50
100
AcDbLine
 10
195.112877
 20
265.838459
 30
0.0
 11
195.112877
 21
265.838459
 31
0.0
  0
LINE
  5
24D
330
249
100
AcDbEntity
  8
LC-001-100-D00-0
 62
     7
370
    50
100
AcDbLine
 10
195.112877
 20
265.838459
 30
0.0
 11
195.089711
 21
265.83647
 31
0.0
  0
LINE
  5
24E
330
249
100
AcDbEntity
  8
LC-001-100-D00-0
 62
     7
370
    50
100
AcDbLine
 10
195.089711
 20
265.83647
 30
0.0
 11
195.089711
 21
265.83647
 31
0.0
  0
LINE
  5
24F
330
249
100
AcDbEntity
  8
LC-001-100-D00-0
 62
     7
370
    50
100
AcDbLine
 10
195.089711
 20
265.83647
 30
0.0
 11
195.058299
 21
265.833773
 31
0.0
  0
LINE
  5
250
330
249
100
AcDbEntity
  8
LC-001-100-D00-0
 62
     7
370
    50
100
AcDbLine
 10
195.058299
 20
265.833773
 30
0.0
 11
195.058299
 21
265.833773
 31
0.0
  0
LINE
  5
251
330
249
100
AcDbEntity
  8
LC-001-100-D00-0
 62
     7
370
    50
100
AcDbLine
 10
195.058299
 20
265.833773
 30
0.0
 11
195.029856
 21
265.820849
 31
0.0
  0
LINE
  5
252
330
249
100
AcDbEntity
  8
LC-001-100-D00-0
 62
     7
370
    50
100
AcDbLine
 10
195.029856
 20
265.820849
 30
0.0
 11
195.029856
 21
265.820849
 31
0.0
  0
LINE
  5
253
330
249
100
AcDbEntity
  8
LC-001-100-D00-0
 62
     7
370
    50
100
AcDbLine
 10
195.029856
 20
265.820849
 30
0.0
 11
195.022389
 21
265.817456
 31
0.0
  0
ENDBLK
  5
24B
330
249
100
AcDbEntity
  8
0
100
AcDbBlockEnd
  0
BLOCK
  5
259
330
258
100
AcDbEntity
  8
0
100
AcDbBlockBegin
  2
POLY16
 70
     0
 71
     0
 10
0.0
 20
0.0
 30
0.0
  3
POLY16
  1

  4
POLY16
  0
LINE
  5
25B
330
258
100
AcDbEntity
  8
LC-001-100-D00-0
 62
     7
370
    50
100
AcDbLine
 10
201.024672
 20
265.817456
 30
0.0
 11
201.024672
 21
265.817456
 31
0.0
  0
LINE
  5
25C
330
258
100
AcDbEntity
  8
LC-001-100-D00-0
 62
     7
370
    50
100
AcDbLine
 10
201.024672
 20
265.817456
 30
0.0
 11
201.002998
 21
265.825869
 31
0.0
  0
LINE
  5
25D
330
258
100
AcDbEntity
  8
LC-001-100-D00-0
 62
     7
370
    50
100
AcDbLine
 10
201.002998
 20
265.825869
 30
0.0
 11
201.002998
 21
265.825869
 31
0.0
  0
LINE
  5
25E
330
258
100
AcDbEntity
  8
LC-001-100-D00-0
 62
     7
370
    50
100
AcDbLine
 10
201.002998
 20
265.825869
 30
0.0
 11
200.973609
 21
265.837277
 31
0.0
  0
LINE
  5
25F
330
258
100
AcDbEntity
  8
LC-001-100-D00-0
 62
     7
370
    50
100
AcDbLine
 10
200.973609
 20
265.837277
 30
0.0
 11
200.973609
 21
265.837277
 31
0.0
  0
LINE
  5
260
330
258
100
AcDbEntity
  8
LC-001-100-D00-0
 62
     7
370
    50
100
AcDbLine
 10
200.973609
 20
265.837277
 30
0.0
 11
200.942382
 21
265.838214
 31
0.0
  0
LINE
  5
261
330
258
100
AcDbEntity
  8
LC-001-100-D00-0
 62
     7
370
    50
100
AcDbLine
 10
200.942382
 20
265.838214
 30
0.0
 11
200.942382
 21
265.838214
 31
0.0
  0
LINE
  5
262
330
258
100
AcDbEntity
  8
LC-001-100-D00-0
 62
     7
370
    50
100
AcDbLine
 10
200.942382
 20
265.838214
 30
0.0
 11
200.934185
 21
265.838459
 31
0.0
  0
ENDBLK
  5
25A
330
258
100
AcDbEntity
  8
0
100
AcDbBlockEnd
  0
BLOCK
  5
2E3
330
2E2
100
AcDbEntity
  8
0
100
AcDbBlockBegin
  2
POLY17
 70
     0
 71
     0
 10
0.0
 20
0.0
 30
0.0
  3
POLY17
  1

  4
POLY17
  0
LINE
  5
2E5
330
2E2
100
AcDbEntity
  8
LC-001-100-D00-0
 62
     7
370
    50
100
AcDbLine
 10
267.477093
 20
428.469043
 30
0.0
 11
267.477093
 21
428.469043
 31
0.0
  0
LINE
  5
2E6
330
2E2
100
AcDbEntity
  8
LC-001-100-D00-0
 62
     7
370
    50
100
AcDbLine
 10
267.477093
 20
428.469043
 30
0.0
 11
267.471485
 21
428.469043
 31
0.0
  0
LINE
  5
2E7
330
2E2
100
AcDbEntity
  8
LC-001-100-D00-0
 62
     7
370
    50
100
AcDbLine
 10
267.471485
 20
428.469043
 30
0.0
 11
267.471485
 21
428.469043
 31
0.0
  0
LINE
  5
2E8
330
2E2
100
AcDbEntity
  8
LC-001-100-D00-0
 62
     7
370
    50
100
AcDbLine
 10
267.471485
 20
428.469043
 30
0.0
 11
267.462247
 21
428.469043
 31
0.0
  0
LINE
  5
2E9
330
2E2
100
AcDbEntity
  8
LC-001-100-D00-0
 62
     7
370
    50
100
AcDbLine
 10
267.462247
 20
428.469043
 30
0.0
 11
267.462247
 21
428.469043
 31
0.0
  0
LINE
  5
2EA
330
2E2
100
AcDbEntity
  8
LC-001-100-D00-0
 62
     7
370
    50
100
AcDbLine
 10
267.462247
 20
428.469043
 30
0.0
 11
267.449363
 21
428.469043
 31
0.0
  0
LINE
  5
2EB
330
2E2
100
AcDbEntity
  8
LC-001-100-D00-0
 62
     7
370
    50
100
AcDbLine
 10
267.449363
 20
428.469043
 30
0.0
 11
267.449363
 21
428.469043
 31
0.0
  0
LINE
  5
2EC
330
2E2
100
AcDbEntity
  8
LC-001-100-D00-0
 62
     7
370
    50
100
AcDbLine
 10
267.449363
 20
428.469043
 30
0.0
 11
267.438447
 21
428.469043
 31
0.0
  0
LINE
  5
2ED
330
2E2
100
AcDbEntity
  8
LC-001-100-D00-0
 62
     7
370
    50
100
AcDbLine
 10
267.438447
 20
428.469043
 30
0.0
 11
267.438447
 21
428.469043
 31
0.0
  0
LINE
  5
2EE
330
2E2
100
AcDbEntity
  8
LC-001-100-D00-0
 62
     7
370
    50
100
AcDbLine
 10
267.438447
 20
428.469043
 30
0.0
 11
267.431147
 21
428.469043
 31
0.0
  0
LINE
  5
2EF
330
2E2
100
AcDbEntity
  8
LC-001-100-D00-0
 62
     7
370
    50
100
AcDbLine
 10
267.431147
 20
428.469043
 30
0.0
 11
267.431147
 21
428.469043
 31
0.0
  0
LINE
  5
2F0
330
2E2
100
AcDbEntity
  8
LC-001-100-D00-0
 62
     7
370
    50
100
AcDbLine
 10
267.431147
 20
428.469043
 30
0.0
 11
267.427498
 21
428.469043
 31
0.0
  0
ENDBLK
  5
2E4
330
2E2
100
AcDbEntity
  8
0
100
AcDbBlockEnd
  0
BLOCK
  5
369
330
368
100
AcDbEntity
  8
0
100
AcDbBlockBegin
  2
POLY18
 70
     0
 71
     0
 10
0.0
 20
0.0
 30
0.0
  3
POLY18
  1

  4
POLY18
  0
LINE
  5
36B
330
368
100
AcDbEntity
  8
LC-001-100-D00-0
 62
     7
370
    50
100
AcDbLine
 10
221.525755
 20
375.469043
 30
0.0
 11
221.525755
 21
375.469043
 31
0.0
  0
LINE
  5
36C
330
368
100
AcDbEntity
  8
LC-001-100-D00-0
 62
     7
370
    50
100
AcDbLine
 10
221.525755
 20
375.469043
 30
0.0
 11
221.525899
 21
375.637794
 31
0.0
  0
LINE
  5
36D
330
368
100
AcDbEntity
  8
LC-001-100-D00-0
 62
     7
370
    50
100
AcDbLine
 10
221.525899
 20
375.637794
 30
0.0
 11
221.525899
 21
375.637794
 31
0.0
  0
LINE
  5
36E
330
368
100
AcDbEntity
  8
LC-001-100-D00-0
 62
     7
370
    50
100
AcDbLine
 10
221.525899
 20
375.637794
 30
0.0
 11
221.526187
 21
375.975297
 31
0.0
  0
LINE
  5
36F
330
368
100
AcDbEntity
  8
LC-001-100-D00-0
 62
     7
370
    50
100
AcDbLine
 10
221.526187
 20
375.975297
 30
0.0
 11
221.526187
 21
375.975297
 31
0.0
  0
LINE
  5
370
330
368
100
AcDbEntity
  8
LC-001-100-D00-0
 62
     7
370
    50
100
AcDbLine
 10
221.526187
 20
375.975297
 30
0.0
 11
221.529448
 21
376.422859
 31
0.0
  0
LINE
  5
371
330
368
100
AcDbEntity
  8
LC-001-100-D00-0
 62
     7
370
    50
100
AcDbLine
 10
221.529448
 20
376.422859
 30
0.0
 11
221.529448
 21
376.422859
 31
0.0
  0
LINE
  5
372
330
368
100
AcDbEntity
  8
LC-001-100-D00-0
 62
     7
370
    50
100
AcDbLine
 10
221.529448
 20
376.422859
 30
0.0
 11
221.536808
 21
376.769391
 31
0.0
  0
LINE
  5
373
330
368
100
AcDbEntity
  8
LC-001-100-D00-0
 62
     7
370
    50
100
AcDbLine
 10
221.536808
 20
376.769391
 30
0.0
 11
221.536808
 21
376.769391
 31
0.0
  0
LINE
  5
374
330
368
100
AcDbEntity
  8
LC-001-100-D00-0
 62
     7
370
    50
100
AcDbLine
 10
221.536808
 20
376.769391
 30
0.0
 11
221.549614
 21
376.925001
 31
0.0
  0
LINE
  5
375
330
368
100
AcDbEntity
  8
LC-001-100-D00-0
 62
     7
370
    50
100
AcDbLine
 10
221.549614
 20
376.925001
 30
0.0
 11
221.549614
 21
376.925001
 31
0.0
  0
LINE
  5
376
330
368
100
AcDbEntity
  8
LC-001-100-D00-0
 62
     7
370
    50
100
AcDbLine
 10
221.549614
 20
376.925001
 30
0.0
 11
221.55948
 21
376.987565
 31
0.0
  0
LINE
  5
377
330
368
100
AcDbEntity
  8
LC-001-100-D00-0
 62
     7
370
    50
100
AcDbLine
 10
221.55948
 20
376.987565
 30
0.0
 11
221.55948
 21
376.987565
 31
0.0
  0
LINE
  5
378
330
368
100
AcDbEntity
  8
LC-001-100-D00-0
 62
     7
370
    50
100
AcDbLine
 10
221.55948
 20
376.987565
 30
0.0
 11
221.564664
 21
376.96887
 31
0.0
  0
LINE
  5
379
330
368
100
AcDbEntity
  8
LC-001-100-D00-0
 62
     7
370
    50
100
AcDbLine
 10
221.564664
 20
376.96887
 30
0.0
 11
221.564664
 21
376.96887
 31
0.0
  0
LINE
  5
37A
330
368
100
AcDbEntity
  8
LC-001-100-D00-0
 62
     7
370
    50
100
AcDbLine
 10
221.564664
 20
376.96887
 30
0.0
 11
221.564689
 21
376.968783
 31
0.0
  0
ENDBLK
  5
36A
330
368
100
AcDbEntity
  8
0
100
AcDbBlockEnd
  0
BLOCK
  5
380
330
37F
100
AcDbEntity
  8
0
100
AcDbBlockBegin
  2
POLY19
 70
     0
 71
     0
 10
0.0
 20
0.0
 30
0.0
  3
POLY19
  1

  4
POLY19
  0
LINE
  5
382
330
37F
100
AcDbEntity
  8
LC-001-100-D00-0
 62
     7
370
    50
100
AcDbLine
 10
222.709429
 20
375.469043
 30
0.0
 11
222.709429
 21
375.469043
 31
0.0
  0
LINE
  5
383
330
37F
100
AcDbEntity
  8
LC-001-100-D00-0
 62
     7
370
    50
100
AcDbLine
 10
222.709429
 20
375.469043
 30
0.0
 11
222.660935
 21
375.469043
 31
0.0
  0
LINE
  5
384
330
37F
100
AcDbEntity
  8
LC-001-100-D00-0
 62
     7
370
    50
100
AcDbLine
 10
222.660935
 20
375.469043
 30
0.0
 11
222.660935
 21
375.469043
 31
0.0
  0
LINE
  5
385
330
37F
100
AcDbEntity
  8
LC-001-100-D00-0
 62
     7
370
    50
100
AcDbLine
 10
222.660935
 20
375.469043
 30
0.0
 11
222.512464
 21
375.469043
 31
0.0
  0
LINE
  5
386
330
37F
100
AcDbEntity
  8
LC-001-100-D00-0
 62
     7
370
    50
100
AcDbLine
 10
222.512464
 20
375.469043
 30
0.0
 11
222.512464
 21
375.469043
 31
0.0
  0
LINE
  5
387
330
37F
100
AcDbEntity
  8
LC-001-100-D00-0
 62
     7
370
    50
100
AcDbLine
 10
222.512464
 20
375.469043
 30
0.0
 11
222.181924
 21
375.469043
 31
0.0
  0
LINE
  5
388
330
37F
100
AcDbEntity
  8
LC-001-100-D00-0
 62
     7
370
    50
100
AcDbLine
 10
222.181924
 20
375.469043
 30
0.0
 11
222.181924
 21
375.469043
 31
0.0
  0
LINE
  5
389
330
37F
100
AcDbEntity
  8
LC-001-100-D00-0
 62
     7
370
    50
100
AcDbLine
 10
222.181924
 20
375.469043
 30
0.0
 11
221.900648
 21
375.469043
 31
0.0
  0
LINE
  5
38A
330
37F
100
AcDbEntity
  8
LC-001-100-D00-0
 62
     7
370
    50
100
AcDbLine
 10
221.900648
 20
375.469043
 30
0.0
 11
221.900648
 21
375.469043
 31
0.0
  0
LINE
  5
38B
330
37F
100
AcDbEntity
  8
LC-001-100-D00-0
 62
     7
370
    50
100
AcDbLine
 10
221.900648
 20
375.469043
 30
0.0
 11
221.785322
 21
375.469043
 31
0.0
  0
ENDBLK
  5
381
330
37F
100
AcDbEntity
  8
0
100
AcDbBlockEnd
  0
BLOCK
  5
40E
330
40D
100
AcDbEntity
  8
0
100
AcDbBlockBegin
  2
KLON5
 70
     0
 71
     0
 10
0.0
 20
0.0
 30
0.0
  3
KLON5
  1

  4
KLON5
  0
LINE
  5
410
330
40D
100
AcDbEntity
  8
LC-001-100-D00-0
 62
     7
370
    15
100
AcDbLine
 10
208.626561
 20
261.838459
 30
0.0
 11
208.961723
 21
261.169303
 31
0.0
  0
LINE
  5
411
330
40D
100
AcDbEntity
  8
LC-001-100-D00-0
 62
     7
370
    15
100
AcDbLine
 10
208.961723
 20
261.169303
 30
0.0
 11
209.127436
 21
260.838459
 31
0.0
  0
ENDBLK
  5
40F
330
40D
100
AcDbEntity
  8
0
100
AcDbBlockEnd
  0
BLOCK
  5
414
330
413
100
AcDbEntity
  8
0
100
AcDbBlockBegin
  2
KLON6
 70
     0
 71
     0
 10
0.0
 20
0.0
 30
0.0
  3
KLON6
  1

  4
KLON6
  0
LINE
  5
416
330
413
100
AcDbEntity
  8
LC-001-100-D00-0
 62
     7
370
    15
100
AcDbLine
 10
326.919626
 20
260.838459
 30
0.0
 11
327.085338
 21
261.169303
 31
0.0
  0
LINE
  5
417
330
413
100
AcDbEntity
  8
LC-001-100-D00-0
 62
     7
370
    15
100
AcDbLine
 10
327.085338
 20
261.169303
 30
0.0
 11
327.4205
 21
261.838459
 31
0.0
  0
ENDBLK
  5
415
330
413
100
AcDbEntity
  8
0
100
AcDbBlockEnd
  0
BLOCK
  5
43F
330
43E
100
AcDbEntity
  8
0
100
AcDbBlockBegin
  2
POLY20
 70
     0
 71
     0
 10
0.0
 20
0.0
 30
0.0
  3
POLY20
  1

  4
POLY20
  0
LINE
  5
441
330
43E
100
AcDbEntity
  8
LC-001-100-D00-0
 62
     7
370
    50
100
AcDbLine
 10
248.238564
 20
239.669043
 30
0.0
 11
248.238564
 21
239.669043
 31
0.0
  0
LINE
  5
442
330
43E
100
AcDbEntity
  8
LC-001-100-D00-0
 62
     7
370
    50
100
AcDbLine
 10
248.238564
 20
239.669043
 30
0.0
 11
248.273262
 21
240.807881
 31
0.0
  0
LINE
  5
443
330
43E
100
AcDbEntity
  8
LC-001-100-D00-0
 62
     7
370
    50
100
AcDbLine
 10
248.273262
 20
240.807881
 30
0.0
 11
248.273262
 21
240.807881
 31
0.0
  0
LINE
  5
444
330
43E
100
AcDbEntity
  8
LC-001-100-D00-0
 62
     7
370
    50
100
AcDbLine
 10
248.273262
 20
240.807881
 30
0.0
 11
248.333845
 21
242.796279
 31
0.0
  0
LINE
  5
445
330
43E
100
AcDbEntity
  8
LC-001-100-D00-0
 62
     7
370
    50
100
AcDbLine
 10
248.333845
 20
242.796279
 30
0.0
 11
248.333845
 21
242.796279
 31
0.0
  0
LINE
  5
446
330
43E
100
AcDbEntity
  8
LC-001-100-D00-0
 62
     7
370
    50
100
AcDbLine
 10
248.333845
 20
242.796279
 30
0.0
 11
248.861174
 21
244.458741
 31
0.0
  0
LINE
  5
447
330
43E
100
AcDbEntity
  8
LC-001-100-D00-0
 62
     7
370
    50
100
AcDbLine
 10
248.861174
 20
244.458741
 30
0.0
 11
248.861174
 21
244.458741
 31
0.0
  0
LINE
  5
448
330
43E
100
AcDbEntity
  8
LC-001-100-D00-0
 62
     7
370
    50
100
AcDbLine
 10
248.861174
 20
244.458741
 30
0.0
 11
249.08648
 21
245.169043
 31
0.0
  0
ENDBLK
  5
440
330
43E
100
AcDbEntity
  8
0
100
AcDbBlockEnd
  0
BLOCK
  5
450
330
44F
100
AcDbEntity
  8
0
100
AcDbBlockBegin
  2
POLY21
 70
     0
 71
     0
 10
0.0
 20
0.0
 30
0.0
  3
POLY21
  1

  4
POLY21
  0
LINE
  5
452
330
44F
100
AcDbEntity
  8
LC-001-100-D00-0
 62
     7
370
    50
100
AcDbLine
 10
333.292081
 20
258.434047
 30
0.0
 11
333.292081
 21
258.434047
 31
0.0
  0
LINE
  5
453
330
44F
100
AcDbEntity
  8
LC-001-100-D00-0
 62
     7
370
    50
100
AcDbLine
 10
333.292081
 20
258.434047
 30
0.0
 11
333.212398
 21
258.582243
 31
0.0
  0
LINE
  5
454
330
44F
100
AcDbEntity
  8
LC-001-100-D00-0
 62
     7
370
    50
100
AcDbLine
 10
333.212398
 20
258.582243
 30
0.0
 11
333.212398
 21
258.582243
 31
0.0
  0
LINE
  5
455
330
44F
100
AcDbEntity
  8
LC-001-100-D00-0
 62
     7
370
    50
100
AcDbLine
 10
333.212398
 20
258.582243
 30
0.0
 11
333.062752
 21
258.860559
 31
0.0
  0
LINE
  5
456
330
44F
100
AcDbEntity
  8
LC-001-100-D00-0
 62
     7
370
    50
100
AcDbLine
 10
333.062752
 20
258.860559
 30
0.0
 11
333.062752
 21
258.860559
 31
0.0
  0
LINE
  5
457
330
44F
100
AcDbEntity
  8
LC-001-100-D00-0
 62
     7
370
    50
100
AcDbLine
 10
333.062752
 20
258.860559
 30
0.0
 11
333.036026
 21
258.910508
 31
0.0
  0
LINE
  5
458
330
44F
100
AcDbEntity
  8
LC-001-100-D00-0
 62
     7
370
    50
100
AcDbLine
 10
333.036026
 20
258.910508
 30
0.0
 11
333.036026
 21
258.910508
 31
0.0
  0
LINE
  5
459
330
44F
100
AcDbEntity
  8
LC-001-100-D00-0
 62
     7
370
    50
100
AcDbLine
 10
333.036026
 20
258.910508
 30
0.0
 11
333.023531
 21
258.93386
 31
0.0
  0
ENDBLK
  5
451
330
44F
100
AcDbEntity
  8
0
100
AcDbBlockEnd
  0
BLOCK
  5
45E
330
45D
100
AcDbEntity
  8
0
100
AcDbBlockBegin
  2
POLY22
 70
     0
 71
     0
 10
0.0
 20
0.0
 30
0.0
  3
POLY22
  1

  4
POLY22
  0
LINE
  5
460
330
45D
100
AcDbEntity
  8
LC-001-100-D00-0
 62
     7
370
    50
100
AcDbLine
 10
203.023531
 20
258.93386
 30
0.0
 11
203.023531
 21
258.93386
 31
0.0
  0
LINE
  5
461
330
45D
100
AcDbEntity
  8
LC-001-100-D00-0
 62
     7
370
    50
100
AcDbLine
 10
203.023531
 20
258.93386
 30
0.0
 11
203.023205
 21
258.933254
 31
0.0
  0
LINE
  5
462
330
45D
100
AcDbEntity
  8
LC-001-100-D00-0
 62
     7
370
    50
100
AcDbLine
 10
203.023205
 20
258.933254
 30
0.0
 11
203.023205
 21
258.933254
 31
0.0
  0
LINE
  5
463
330
45D
100
AcDbEntity
  8
LC-001-100-D00-0
 62
     7
370
    50
100
AcDbLine
 10
203.023205
 20
258.933254
 30
0.0
 11
203.020689
 21
258.928563
 31
0.0
  0
LINE
  5
464
330
45D
100
AcDbEntity
  8
LC-001-100-D00-0
 62
     7
370
    50
100
AcDbLine
 10
203.020689
 20
258.928563
 30
0.0
 11
203.020689
 21
258.928563
 31
0.0
  0
LINE
  5
465
330
45D
100
AcDbEntity
  8
LC-001-100-D00-0
 62
     7
370
    50
100
AcDbLine
 10
203.020689
 20
258.928563
 30
0.0
 11
202.958814
 21
258.813013
 31
0.0
  0
LINE
  5
466
330
45D
100
AcDbEntity
  8
LC-001-100-D00-0
 62
     7
370
    50
100
AcDbLine
 10
202.958814
 20
258.813013
 30
0.0
 11
202.958814
 21
258.813013
 31
0.0
  0
LINE
  5
467
330
45D
100
AcDbEntity
  8
LC-001-100-D00-0
 62
     7
370
    50
100
AcDbLine
 10
202.958814
 20
258.813013
 30
0.0
 11
202.821916
 21
258.558493
 31
0.0
  0
LINE
  5
468
330
45D
100
AcDbEntity
  8
LC-001-100-D00-0
 62
     7
370
    50
100
AcDbLine
 10
202.821916
 20
258.558493
 30
0.0
 11
202.821916
 21
258.558493
 31
0.0
  0
LINE
  5
469
330
45D
100
AcDbEntity
  8
LC-001-100-D00-0
 62
     7
370
    50
100
AcDbLine
 10
202.821916
 20
258.558493
 30
0.0
 11
202.754981
 21
258.434047
 31
0.0
  0
ENDBLK
  5
45F
330
45D
100
AcDbEntity
  8
0
100
AcDbBlockEnd
  0
BLOCK
  5
4AE
330
4AD
100
AcDbEntity
  8
0
100
AcDbBlockBegin
  2
POLY23
 70
     0
 71
     0
 10
0.0
 20
0.0
 30
0.0
  3
POLY23
  1

  4
POLY23
  0
LINE
  5
4B0
330
4AD
100
AcDbEntity
  8
LC-001-100-D00-0
 62
     7
370
    50
100
AcDbLine
 10
343.023531
 20
258.934047
 30
0.0
 11
343.023531
 21
258.934047
 31
0.0
  0
LINE
  5
4B1
330
4AD
100
AcDbEntity
  8
LC-001-100-D00-0
 62
     7
370
    50
100
AcDbLine
 10
343.023531
 20
258.934047
 30
0.0
 11
343.02312
 21
258.933382
 31
0.0
  0
LINE
  5
4B2
330
4AD
100
AcDbEntity
  8
LC-001-100-D00-0
 62
     7
370
    50
100
AcDbLine
 10
343.02312
 20
258.933382
 30
0.0
 11
343.02312
 21
258.933382
 31
0.0
  0
LINE
  5
4B3
330
4AD
100
AcDbEntity
  8
LC-001-100-D00-0
 62
     7
370
    50
100
AcDbLine
 10
343.02312
 20
258.933382
 30
0.0
 11
343.019985
 21
258.928311
 31
0.0
  0
LINE
  5
4B4
330
4AD
100
AcDbEntity
  8
LC-001-100-D00-0
 62
     7
370
    50
100
AcDbLine
 10
343.019985
 20
258.928311
 30
0.0
 11
343.019985
 21
258.928311
 31
0.0
  0
LINE
  5
4B5
330
4AD
100
AcDbEntity
  8
LC-001-100-D00-0
 62
     7
370
    50
100
AcDbLine
 10
343.019985
 20
258.928311
 30
0.0
 11
342.946887
 21
258.810265
 31
0.0
  0
LINE
  5
4B6
330
4AD
100
AcDbEntity
  8
LC-001-100-D00-0
 62
     7
370
    50
100
AcDbLine
 10
342.946887
 20
258.810265
 30
0.0
 11
342.946887
 21
258.810265
 31
0.0
  0
LINE
  5
4B7
330
4AD
100
AcDbEntity
  8
LC-001-100-D00-0
 62
     7
370
    50
100
AcDbLine
 10
342.946887
 20
258.810265
 30
0.0
 11
342.788775
 21
258.553928
 31
0.0
  0
LINE
  5
4B8
330
4AD
100
AcDbEntity
  8
LC-001-100-D00-0
 62
     7
370
    50
100
AcDbLine
 10
342.788775
 20
258.553928
 30
0.0
 11
342.788775
 21
258.553928
 31
0.0
  0
LINE
  5
4B9
330
4AD
100
AcDbEntity
  8
LC-001-100-D00-0
 62
     7
370
    50
100
AcDbLine
 10
342.788775
 20
258.553928
 30
0.0
 11
342.714831
 21
258.434047
 31
0.0
  0
ENDBLK
  5
4AF
330
4AD
100
AcDbEntity
  8
0
100
AcDbBlockEnd
  0
BLOCK
  5
4FE
330
4FD
100
AcDbEntity
  8
0
100
AcDbBlockBegin
  2
POLY24
 70
     0
 71
     0
 10
0.0
 20
0.0
 30
0.0
  3
POLY24
  1

  4
POLY24
  0
LINE
  5
500
330
4FD
100
AcDbEntity
  8
LC-001-100-D00-0
 62
     7
370
    50
100
AcDbLine
 10
193.33223
 20
258.434047
 30
0.0
 11
193.33223
 21
258.434047
 31
0.0
  0
LINE
  5
501
330
4FD
100
AcDbEntity
  8
LC-001-100-D00-0
 62
     7
370
    50
100
AcDbLine
 10
193.33223
 20
258.434047
 30
0.0
 11
193.239931
 21
258.583636
 31
0.0
  0
LINE
  5
502
330
4FD
100
AcDbEntity
  8
LC-001-100-D00-0
 62
     7
370
    50
100
AcDbLine
 10
193.239931
 20
258.583636
 30
0.0
 11
193.239931
 21
258.583636
 31
0.0
  0
LINE
  5
503
330
4FD
100
AcDbEntity
  8
LC-001-100-D00-0
 62
     7
370
    50
100
AcDbLine
 10
193.239931
 20
258.583636
 30
0.0
 11
193.067334
 21
258.863361
 31
0.0
  0
LINE
  5
504
330
4FD
100
AcDbEntity
  8
LC-001-100-D00-0
 62
     7
370
    50
100
AcDbLine
 10
193.067334
 20
258.863361
 30
0.0
 11
193.067334
 21
258.863361
 31
0.0
  0
LINE
  5
505
330
4FD
100
AcDbEntity
  8
LC-001-100-D00-0
 62
     7
370
    50
100
AcDbLine
 10
193.067334
 20
258.863361
 30
0.0
 11
193.037439
 21
258.911603
 31
0.0
  0
LINE
  5
506
330
4FD
100
AcDbEntity
  8
LC-001-100-D00-0
 62
     7
370
    50
100
AcDbLine
 10
193.037439
 20
258.911603
 30
0.0
 11
193.037439
 21
258.911603
 31
0.0
  0
LINE
  5
507
330
4FD
100
AcDbEntity
  8
LC-001-100-D00-0
 62
     7
370
    50
100
AcDbLine
 10
193.037439
 20
258.911603
 30
0.0
 11
193.023531
 21
258.934047
 31
0.0
  0
ENDBLK
  5
4FF
330
4FD
100
AcDbEntity
  8
0
100
AcDbBlockEnd
  0
BLOCK
  5
51F
330
51E
100
AcDbEntity
  8
0
100
AcDbBlockBegin
  2
KLON7
 70
     0
 71
     0
 10
0.0
 20
0.0
 30
0.0
  3
KLON7
  1

  4
KLON7
  0
LINE
  5
521
330
51E
100
AcDbEntity
  8
LC-001-100-D00-0
 62
     7
370
    25
100
AcDbLine
 10
244.64786
 20
114.169043
 30
0.0
 11
246.023531
 21
115.544714
 31
0.0
  0
LINE
  5
522
330
51E
100
AcDbEntity
  8
LC-001-100-D00-0
 62
     7
370
    25
100
AcDbLine
 10
243.023531
 20
121.52497
 30
0.0
 11
246.023531
 21
124.52497
 31
0.0
  0
LINE
  5
523
330
51E
100
AcDbEntity
  8
LC-001-100-D00-0
 62
     7
370
    25
100
AcDbLine
 10
243.023531
 20
130.505226
 30
0.0
 11
246.023531
 21
133.505226
 31
0.0
  0
LINE
  5
524
330
51E
100
AcDbEntity
  8
LC-001-100-D00-0
 62
     7
370
    25
100
AcDbLine
 10
243.023531
 20
139.485482
 30
0.0
 11
246.023531
 21
142.485482
 31
0.0
  0
LINE
  5
525
330
51E
100
AcDbEntity
  8
LC-001-100-D00-0
 62
     7
370
    25
100
AcDbLine
 10
243.023531
 20
148.465738
 30
0.0
 11
246.023531
 21
151.465738
 31
0.0
  0
LINE
  5
526
330
51E
100
AcDbEntity
  8
LC-001-100-D00-0
 62
     7
370
    25
100
AcDbLine
 10
243.023531
 20
157.445994
 30
0.0
 11
246.023531
 21
160.445994
 31
0.0
  0
LINE
  5
527
330
51E
100
AcDbEntity
  8
LC-001-100-D00-0
 62
     7
370
    25
100
AcDbLine
 10
243.023531
 20
166.42625
 30
0.0
 11
246.023531
 21
169.42625
 31
0.0
  0
LINE
  5
528
330
51E
100
AcDbEntity
  8
LC-001-100-D00-0
 62
     7
370
    25
100
AcDbLine
 10
239.786067
 20
172.169043
 30
0.0
 11
242.314573
 21
174.697549
 31
0.0
  0
LINE
  5
529
330
51E
100
AcDbEntity
  8
LC-001-100-D00-0
 62
     7
370
    25
100
AcDbLine
 10
243.495025
 20
175.878
 30
0.0
 11
246.023531
 21
178.406506
 31
0.0
  0
LINE
  5
52A
330
51E
100
AcDbEntity
  8
LC-001-100-D00-0
 62
     7
370
    25
100
AcDbLine
 10
230.805811
 20
172.169043
 30
0.0
 11
233.305811
 21
174.669043
 31
0.0
  0
LINE
  5
52B
330
51E
100
AcDbEntity
  8
LC-001-100-D00-0
 62
     7
370
    25
100
AcDbLine
 10
243.523531
 20
184.886763
 30
0.0
 11
246.023531
 21
187.386763
 31
0.0
  0
LINE
  5
52C
330
51E
100
AcDbEntity
  8
LC-001-100-D00-0
 62
     7
370
    25
100
AcDbLine
 10
221.825555
 20
172.169043
 30
0.0
 11
224.325555
 21
174.669043
 31
0.0
  0
LINE
  5
52D
330
51E
100
AcDbEntity
  8
LC-001-100-D00-0
 62
     7
370
    25
100
AcDbLine
 10
243.523531
 20
193.867019
 30
0.0
 11
246.023531
 21
196.367019
 31
0.0
  0
LINE
  5
52E
330
51E
100
AcDbEntity
  8
LC-001-100-D00-0
 62
     7
370
    25
100
AcDbLine
 10
216.091571
 20
175.415315
 30
0.0
 11
218.457619
 21
177.781363
 31
0.0
  0
LINE
  5
52F
330
51E
100
AcDbEntity
  8
LC-001-100-D00-0
 62
     7
370
    25
100
AcDbLine
 10
243.523531
 20
202.847275
 30
0.0
 11
246.023531
 21
205.347275
 31
0.0
  0
LINE
  5
530
330
51E
100
AcDbEntity
  8
LC-001-100-D00-0
 62
     7
370
    25
100
AcDbLine
 10
214.193808
 20
182.497808
 30
0.0
 11
216.559836
 21
184.863836
 31
0.0
  0
LINE
  5
531
330
51E
100
AcDbEntity
  8
LC-001-100-D00-0
 62
     7
370
    25
100
AcDbLine
 10
243.523531
 20
211.827531
 30
0.0
 11
246.023531
 21
214.327531
 31
0.0
  0
LINE
  5
532
330
51E
100
AcDbEntity
  8
LC-001-100-D00-0
 62
     7
370
    25
100
AcDbLine
 10
213.023531
 20
190.307787
 30
0.0
 11
216.023531
 21
193.307787
 31
0.0
  0
LINE
  5
533
330
51E
100
AcDbEntity
  8
LC-001-100-D00-0
 62
     7
370
    25
100
AcDbLine
 10
243.523531
 20
220.807787
 30
0.0
 11
246.023531
 21
223.307787
 31
0.0
  0
LINE
  5
534
330
51E
100
AcDbEntity
  8
LC-001-100-D00-0
 62
     7
370
    25
100
AcDbLine
 10
213.023531
 20
199.288043
 30
0.0
 11
216.023531
 21
202.288043
 31
0.0
  0
LINE
  5
535
330
51E
100
AcDbEntity
  8
LC-001-100-D00-0
 62
     7
370
    25
100
AcDbLine
 10
243.523531
 20
229.788043
 30
0.0
 11
246.023531
 21
232.288043
 31
0.0
  0
LINE
  5
536
330
51E
100
AcDbEntity
  8
LC-001-100-D00-0
 62
     7
370
    25
100
AcDbLine
 10
213.023531
 20
208.268299
 30
0.0
 11
216.023531
 21
211.268299
 31
0.0
  0
LINE
  5
537
330
51E
100
AcDbEntity
  8
LC-001-100-D00-0
 62
     7
370
    25
100
AcDbLine
 10
213.023531
 20
217.248555
 30
0.0
 11
216.023531
 21
220.248555
 31
0.0
  0
LINE
  5
538
330
51E
100
AcDbEntity
  8
LC-001-100-D00-0
 62
     7
370
    25
100
AcDbLine
 10
213.023531
 20
226.228812
 30
0.0
 11
216.023531
 21
229.228812
 31
0.0
  0
LINE
  5
539
330
51E
100
AcDbEntity
  8
LC-001-100-D00-0
 62
     7
370
    25
100
AcDbLine
 10
207.122129
 20
229.307666
 30
0.0
 11
209.983506
 21
232.169043
 31
0.0
  0
LINE
  5
53A
330
51E
100
AcDbEntity
  8
LC-001-100-D00-0
 62
     7
370
    25
100
AcDbLine
 10
205.023531
 20
236.189324
 30
0.0
 11
208.023531
 21
239.189324
 31
0.0
  0
LINE
  5
53B
330
51E
100
AcDbEntity
  8
LC-001-100-D00-0
 62
     7
370
    25
100
AcDbLine
 10
202.948451
 20
243.0945
 30
0.0
 11
208.023531
 21
248.16958
 31
0.0
  0
LINE
  5
53C
330
51E
100
AcDbEntity
  8
LC-001-100-D00-0
 62
     7
370
    25
100
AcDbLine
 10
193.968195
 20
243.0945
 30
0.0
 11
196.307742
 21
245.434047
 31
0.0
  0
LINE
  5
53D
330
51E
100
AcDbEntity
  8
LC-001-100-D00-0
 62
     7
370
    25
100
AcDbLine
 10
200.523531
 20
249.649836
 30
0.0
 11
208.023531
 21
257.149836
 31
0.0
  0
LINE
  5
53E
330
51E
100
AcDbEntity
  8
LC-001-100-D00-0
 62
     7
370
    25
100
AcDbLine
 10
192.023531
 20
250.130092
 30
0.0
 11
195.523531
 21
253.630092
 31
0.0
  0
LINE
  5
53F
330
51E
100
AcDbEntity
  8
LC-001-100-D00-0
 62
     7
370
    25
100
AcDbLine
 10
185.507682
 20
252.5945
 30
0.0
 11
187.84723
 21
254.934047
 31
0.0
  0
LINE
  5
540
330
51E
100
AcDbEntity
  8
LC-001-100-D00-0
 62
     7
370
    25
100
AcDbLine
 10
179.717736
 20
255.784809
 30
0.0
 11
182.520703
 21
258.587777
 31
0.0
  0
LINE
  5
541
330
51E
100
AcDbEntity
  8
LC-001-100-D00-0
 62
     7
370
    25
100
AcDbLine
 10
172.840164
 20
257.887494
 30
0.0
 11
175.643132
 21
260.690462
 31
0.0
  0
LINE
  5
542
330
51E
100
AcDbEntity
  8
LC-001-100-D00-0
 62
     7
370
    25
100
AcDbLine
 10
165.962593
 20
259.990178
 30
0.0
 11
168.76556
 21
262.793146
 31
0.0
  0
LINE
  5
543
330
51E
100
AcDbEntity
  8
LC-001-100-D00-0
 62
     7
370
    25
100
AcDbLine
 10
158.188021
 20
261.195863
 30
0.0
 11
161.630402
 21
264.638244
 31
0.0
  0
ENDBLK
  5
520
330
51E
100
AcDbEntity
  8
0
100
AcDbBlockEnd
  0
BLOCK
  5
546
330
545
100
AcDbEntity
  8
0
100
AcDbBlockBegin
  2
KLON8
 70
     0
 71
     0
 10
0.0
 20
0.0
 30
0.0
  3
KLON8
  1

  4
KLON8
  0
LINE
  5
548
330
545
100
AcDbEntity
  8
LC-001-100-D00-0
 62
     7
370
    50
100
AcDbLine
 10
290.023531
 20
114.643433
 30
0.0
 11
293.014157
 21
117.634059
 31
0.0
  0
LINE
  5
549
330
545
100
AcDbEntity
  8
LC-001-100-D00-0
 62
     7
370
    50
100
AcDbLine
 10
290.023531
 20
123.623689
 30
0.0
 11
293.023531
 21
126.623689
 31
0.0
  0
LINE
  5
54A
330
545
100
AcDbEntity
  8
LC-001-100-D00-0
 62
     7
370
    50
100
AcDbLine
 10
290.023531
 20
132.603945
 30
0.0
 11
293.023531
 21
135.603945
 31
0.0
  0
LINE
  5
54B
330
545
100
AcDbEntity
  8
LC-001-100-D00-0
 62
     7
370
    50
100
AcDbLine
 10
290.023531
 20
141.584201
 30
0.0
 11
293.023531
 21
144.584201
 31
0.0
  0
LINE
  5
54C
330
545
100
AcDbEntity
  8
LC-001-100-D00-0
 62
     7
370
    50
100
AcDbLine
 10
290.023531
 20
150.564458
 30
0.0
 11
293.023531
 21
153.564458
 31
0.0
  0
LINE
  5
54D
330
545
100
AcDbEntity
  8
LC-001-100-D00-0
 62
     7
370
    50
100
AcDbLine
 10
311.628116
 20
172.169043
 30
0.0
 11
314.128116
 21
174.669043
 31
0.0
  0
LINE
  5
54E
330
545
100
AcDbEntity
  8
LC-001-100-D00-0
 62
     7
370
    50
100
AcDbLine
 10
317.717191
 20
178.258118
 30
0.0
 11
321.815323
 21
182.356249
 31
0.0
  0
LINE
  5
54F
330
545
100
AcDbEntity
  8
LC-001-100-D00-0
 62
     7
370
    50
100
AcDbLine
 10
290.023531
 20
159.544714
 30
0.0
 11
293.023531
 21
162.544714
 31
0.0
  0
LINE
  5
550
330
545
100
AcDbEntity
  8
LC-001-100-D00-0
 62
     7
370
    50
100
AcDbLine
 10
302.64786
 20
172.169043
 30
0.0
 11
305.14786
 21
174.669043
 31
0.0
  0
LINE
  5
551
330
545
100
AcDbEntity
  8
LC-001-100-D00-0
 62
     7
370
    50
100
AcDbLine
 10
320.023531
 20
189.544714
 30
0.0
 11
323.023531
 21
192.544714
 31
0.0
  0
LINE
  5
552
330
545
100
AcDbEntity
  8
LC-001-100-D00-0
 62
     7
370
    50
100
AcDbLine
 10
290.023531
 20
168.52497
 30
0.0
 11
293.023531
 21
171.52497
 31
0.0
  0
LINE
  5
553
330
545
100
AcDbEntity
  8
LC-001-100-D00-0
 62
     7
370
    50
100
AcDbLine
 10
293.667604
 20
172.169043
 30
0.0
 11
296.167604
 21
174.669043
 31
0.0
  0
LINE
  5
554
330
545
100
AcDbEntity
  8
LC-001-100-D00-0
 62
     7
370
    50
100
AcDbLine
 10
320.023531
 20
198.52497
 30
0.0
 11
323.023531
 21
201.52497
 31
0.0
  0
LINE
  5
555
330
545
100
AcDbEntity
  8
LC-001-100-D00-0
 62
     7
370
    50
100
AcDbLine
 10
290.023531
 20
177.505226
 30
0.0
 11
292.523531
 21
180.005226
 31
0.0
  0
LINE
  5
556
330
545
100
AcDbEntity
  8
LC-001-100-D00-0
 62
     7
370
    50
100
AcDbLine
 10
320.023531
 20
207.505226
 30
0.0
 11
323.023531
 21
210.505226
 31
0.0
  0
LINE
  5
557
330
545
100
AcDbEntity
  8
LC-001-100-D00-0
 62
     7
370
    50
100
AcDbLine
 10
373.566256
 20
261.047951
 30
0.0
 11
377.250475
 21
264.732171
 31
0.0
  0
LINE
  5
558
330
545
100
AcDbEntity
  8
LC-001-100-D00-0
 62
     7
370
    50
100
AcDbLine
 10
290.023531
 20
186.485482
 30
0.0
 11
292.523531
 21
188.985482
 31
0.0
  0
LINE
  5
559
330
545
100
AcDbEntity
  8
LC-001-100-D00-0
 62
     7
370
    50
100
AcDbLine
 10
320.023531
 20
216.485482
 30
0.0
 11
323.023531
 21
219.485482
 31
0.0
  0
LINE
  5
55A
330
545
100
AcDbEntity
  8
LC-001-100-D00-0
 62
     7
370
    50
100
AcDbLine
 10
360.641099
 20
257.103051
 30
0.0
 11
365.912715
 21
262.374667
 31
0.0
  0
LINE
  5
55B
330
545
100
AcDbEntity
  8
LC-001-100-D00-0
 62
     7
370
    50
100
AcDbLine
 10
290.023531
 20
195.465738
 30
0.0
 11
292.523531
 21
197.965738
 31
0.0
  0
LINE
  5
55C
330
545
100
AcDbEntity
  8
LC-001-100-D00-0
 62
     7
370
    50
100
AcDbLine
 10
320.023531
 20
225.465738
 30
0.0
 11
323.023531
 21
228.465738
 31
0.0
  0
LINE
  5
55D
330
545
100
AcDbEntity
  8
LC-001-100-D00-0
 62
     7
370
    50
100
AcDbLine
 10
323.726835
 20
229.169043
 30
0.0
 11
326.726835
 21
232.169043
 31
0.0
  0
LINE
  5
55E
330
545
100
AcDbEntity
  8
LC-001-100-D00-0
 62
     7
370
    50
100
AcDbLine
 10
328.023531
 20
233.465738
 30
0.0
 11
331.023531
 21
236.465738
 31
0.0
  0
LINE
  5
55F
330
545
100
AcDbEntity
  8
LC-001-100-D00-0
 62
     7
370
    50
100
AcDbLine
 10
336.863309
 20
242.305517
 30
0.0
 11
339.99184
 21
245.434047
 31
0.0
  0
LINE
  5
560
330
545
100
AcDbEntity
  8
LC-001-100-D00-0
 62
     7
370
    50
100
AcDbLine
 10
340.523531
 20
245.965738
 30
0.0
 11
344.023531
 21
249.465738
 31
0.0
  0
LINE
  5
561
330
545
100
AcDbEntity
  8
LC-001-100-D00-0
 62
     7
370
    50
100
AcDbLine
 10
347.152293
 20
252.5945
 30
0.0
 11
349.49184
 21
254.934047
 31
0.0
  0
LINE
  5
562
330
545
100
AcDbEntity
  8
LC-001-100-D00-0
 62
     7
370
    50
100
AcDbLine
 10
351.023531
 20
256.465738
 30
0.0
 11
352.99184
 21
258.434047
 31
0.0
  0
LINE
  5
563
330
545
100
AcDbEntity
  8
LC-001-100-D00-0
 62
     7
370
    50
100
AcDbLine
 10
290.023531
 20
204.445994
 30
0.0
 11
292.523531
 21
206.945994
 31
0.0
  0
LINE
  5
564
330
545
100
AcDbEntity
  8
LC-001-100-D00-0
 62
     7
370
    50
100
AcDbLine
 10
328.023531
 20
242.445994
 30
0.0
 11
335.523531
 21
249.945994
 31
0.0
  0
LINE
  5
565
330
545
100
AcDbEntity
  8
LC-001-100-D00-0
 62
     7
370
    50
100
AcDbLine
 10
340.523531
 20
254.945994
 30
0.0
 11
344.011584
 21
258.434047
 31
0.0
  0
LINE
  5
566
330
545
100
AcDbEntity
  8
LC-001-100-D00-0
 62
     7
370
    50
100
AcDbLine
 10
290.023531
 20
213.42625
 30
0.0
 11
292.523531
 21
215.92625
 31
0.0
  0
LINE
  5
567
330
545
100
AcDbEntity
  8
LC-001-100-D00-0
 62
     7
370
    50
100
AcDbLine
 10
328.023531
 20
251.42625
 30
0.0
 11
335.031328
 21
258.434047
 31
0.0
  0
LINE
  5
568
330
545
100
AcDbEntity
  8
LC-001-100-D00-0
 62
     7
370
    50
100
AcDbLine
 10
290.023531
 20
222.406506
 30
0.0
 11
292.523531
 21
224.906506
 31
0.0
  0
LINE
  5
569
330
545
100
AcDbEntity
  8
LC-001-100-D00-0
 62
     7
370
    50
100
AcDbLine
 10
290.023531
 20
231.386763
 30
0.0
 11
292.523531
 21
233.886763
 31
0.0
  0
ENDBLK
  5
547
330
545
100
AcDbEntity
  8
0
100
AcDbBlockEnd
  0
BLOCK
  5
56C
330
56B
100
AcDbEntity
  8
0
100
AcDbBlockBegin
  2
KLON9
 70
     0
 71
     0
 10
0.0
 20
0.0
 30
0.0
  3
KLON9
  1

  4
KLON9
  0
LINE
  5
56E
330
56B
100
AcDbEntity
  8
LC-001-100-D00-0
 62
     7
370
    25
100
AcDbLine
 10
306.023531
 20
193.505226
 30
0.0
 11
307.523531
 21
195.005226
 31
0.0
  0
LINE
  5
56F
330
56B
100
AcDbEntity
  8
LC-001-100-D00-0
 62
     7
370
    25
100
AcDbLine
 10
306.023531
 20
202.485482
 30
0.0
 11
307.523531
 21
203.985482
 31
0.0
  0
LINE
  5
570
330
56B
100
AcDbEntity
  8
LC-001-100-D00-0
 62
     7
370
    25
100
AcDbLine
 10
306.023531
 20
211.465738
 30
0.0
 11
307.523531
 21
212.965738
 31
0.0
  0
LINE
  5
571
330
56B
100
AcDbEntity
  8
LC-001-100-D00-0
 62
     7
370
    25
100
AcDbLine
 10
306.023531
 20
220.445994
 30
0.0
 11
307.523531
 21
221.945994
 31
0.0
  0
LINE
  5
572
330
56B
100
AcDbEntity
  8
LC-001-100-D00-0
 62
     7
370
    25
100
AcDbLine
 10
298.266323
 20
221.669043
 30
0.0
 11
307.523531
 21
230.92625
 31
0.0
  0
LINE
  5
573
330
56B
100
AcDbEntity
  8
LC-001-100-D00-0
 62
     7
370
    25
100
AcDbLine
 10
293.001661
 20
225.384637
 30
0.0
 11
307.521226
 21
239.904202
 31
0.0
  0
LINE
  5
574
330
56B
100
AcDbEntity
  8
LC-001-100-D00-0
 62
     7
370
    25
100
AcDbLine
 10
292.523531
 20
233.886763
 30
0.0
 11
305.285138
 21
246.64837
 31
0.0
  0
LINE
  5
575
330
56B
100
AcDbEntity
  8
LC-001-100-D00-0
 62
     7
370
    25
100
AcDbLine
 10
286.023531
 20
236.367019
 30
0.0
 11
300.323674
 21
250.667162
 31
0.0
  0
LINE
  5
576
330
56B
100
AcDbEntity
  8
LC-001-100-D00-0
 62
     7
370
    25
100
AcDbLine
 10
228.523531
 20
187.847275
 30
0.0
 11
230.023531
 21
189.347275
 31
0.0
  0
LINE
  5
577
330
56B
100
AcDbEntity
  8
LC-001-100-D00-0
 62
     7
370
    25
100
AcDbLine
 10
286.023531
 20
245.347275
 30
0.0
 11
292.345299
 21
251.669043
 31
0.0
  0
LINE
  5
578
330
56B
100
AcDbEntity
  8
LC-001-100-D00-0
 62
     7
370
    25
100
AcDbLine
 10
228.523531
 20
196.827531
 30
0.0
 11
230.023531
 21
198.327531
 31
0.0
  0
LINE
  5
579
330
56B
100
AcDbEntity
  8
LC-001-100-D00-0
 62
     7
370
    25
100
AcDbLine
 10
281.365043
 20
249.669043
 30
0.0
 11
283.365043
 21
251.669043
 31
0.0
  0
LINE
  5
57A
330
56B
100
AcDbEntity
  8
LC-001-100-D00-0
 62
     7
370
    25
100
AcDbLine
 10
228.523531
 20
205.807787
 30
0.0
 11
230.023531
 21
207.307787
 31
0.0
  0
LINE
  5
57B
330
56B
100
AcDbEntity
  8
LC-001-100-D00-0
 62
     7
370
    25
100
AcDbLine
 10
272.384786
 20
249.669043
 30
0.0
 11
280.307749
 21
257.592005
 31
0.0
  0
LINE
  5
57C
330
56B
100
AcDbEntity
  8
LC-001-100-D00-0
 62
     7
370
    25
100
AcDbLine
 10
228.523531
 20
214.788043
 30
0.0
 11
230.023531
 21
216.288043
 31
0.0
  0
LINE
  5
57D
330
56B
100
AcDbEntity
  8
LC-001-100-D00-0
 62
     7
370
    25
100
AcDbLine
 10
263.40453
 20
249.669043
 30
0.0
 11
275.098927
 21
261.363439
 31
0.0
  0
LINE
  5
57E
330
56B
100
AcDbEntity
  8
LC-001-100-D00-0
 62
     7
370
    25
100
AcDbLine
 10
228.523531
 20
223.768299
 30
0.0
 11
230.023531
 21
225.268299
 31
0.0
  0
LINE
  5
57F
330
56B
100
AcDbEntity
  8
LC-001-100-D00-0
 62
     7
370
    25
100
AcDbLine
 10
254.424274
 20
249.669043
 30
0.0
 11
266.424274
 21
261.669043
 31
0.0
  0
LINE
  5
580
330
56B
100
AcDbEntity
  8
LC-001-100-D00-0
 62
     7
370
    25
100
AcDbLine
 10
228.523531
 20
232.748555
 30
0.0
 11
230.023531
 21
234.248555
 31
0.0
  0
LINE
  5
581
330
56B
100
AcDbEntity
  8
LC-001-100-D00-0
 62
     7
370
    25
100
AcDbLine
 10
245.444018
 20
249.669043
 30
0.0
 11
247.444018
 21
251.669043
 31
0.0
  0
LINE
  5
582
330
56B
100
AcDbEntity
  8
LC-001-100-D00-0
 62
     7
370
    25
100
AcDbLine
 10
228.741728
 20
241.947009
 30
0.0
 11
231.235372
 21
244.440652
 31
0.0
  0
LINE
  5
583
330
56B
100
AcDbEntity
  8
LC-001-100-D00-0
 62
     7
370
    25
100
AcDbLine
 10
235.251921
 20
248.457202
 30
0.0
 11
238.245564
 21
251.450845
 31
0.0
  0
LINE
  5
584
330
56B
100
AcDbEntity
  8
LC-001-100-D00-0
 62
     7
370
    25
100
AcDbLine
 10
274.384786
 20
251.669043
 30
0.0
 11
277.364784
 21
254.649041
 31
0.0
  0
LINE
  5
585
330
56B
100
AcDbEntity
  8
LC-001-100-D00-0
 62
     7
370
    25
100
AcDbLine
 10
265.40453
 20
251.669043
 30
0.0
 11
271.40453
 21
257.669043
 31
0.0
  0
LINE
  5
586
330
56B
100
AcDbEntity
  8
LC-001-100-D00-0
 62
     7
370
    25
100
AcDbLine
 10
258.36231
 20
253.607079
 30
0.0
 11
262.335495
 21
257.580263
 31
0.0
  0
ENDBLK
  5
56D
330
56B
100
AcDbEntity
  8
0
100
AcDbBlockEnd
  0
BLOCK
  5
589
330
588
100
AcDbEntity
  8
0
100
AcDbBlockBegin
  2
KLON10
 70
     0
 71
     0
 10
0.0
 20
0.0
 30
0.0
  3
KLON10
  1

  4
KLON10
  0
LINE
  5
58B
330
588
100
AcDbEntity
  8
LC-001-100-D00-0
 62
     7
370
    25
100
AcDbLine
 10
366.19356
 20
262.655511
 30
0.0
 11
368.376508
 21
264.838459
 31
0.0
  0
LINE
  5
58C
330
588
100
AcDbEntity
  8
LC-001-100-D00-0
 62
     7
370
    25
100
AcDbLine
 10
354.924486
 20
260.366693
 30
0.0
 11
359.396252
 21
264.838459
 31
0.0
  0
LINE
  5
58D
330
588
100
AcDbEntity
  8
LC-001-100-D00-0
 62
     7
370
    25
100
AcDbLine
 10
344.915996
 20
259.338459
 30
0.0
 11
350.415996
 21
264.838459
 31
0.0
  0
LINE
  5
58E
330
588
100
AcDbEntity
  8
LC-001-100-D00-0
 62
     7
370
    25
100
AcDbLine
 10
335.93574
 20
259.338459
 30
0.0
 11
341.43574
 21
264.838459
 31
0.0
  0
LINE
  5
58F
330
588
100
AcDbEntity
  8
LC-001-100-D00-0
 62
     7
370
    25
100
AcDbLine
 10
331.523531
 20
263.906506
 30
0.0
 11
332.455484
 21
264.838459
 31
0.0
  0
ENDBLK
  5
58A
330
588
100
AcDbEntity
  8
0
100
AcDbBlockEnd
  0
BLOCK
  5
592
330
591
100
AcDbEntity
  8
0
100
AcDbBlockBegin
  2
KLON11
 70
     0
 71
     0
 10
0.0
 20
0.0
 30
0.0
  3
KLON11
  1

  4
KLON11
  0
LINE
  5
594
330
591
100
AcDbEntity
  8
LC-001-100-D00-0
 62
     7
370
    50
100
AcDbLine
 10
201.523531
 20
259.630092
 30
0.0
 11
203.731898
 21
261.838459
 31
0.0
  0
LINE
  5
595
330
591
100
AcDbEntity
  8
LC-001-100-D00-0
 62
     7
370
    50
100
AcDbLine
 10
204.273531
 20
262.380092
 30
0.0
 11
204.523531
 21
262.630092
 31
0.0
  0
ENDBLK
  5
593
330
591
100
AcDbEntity
  8
0
100
AcDbBlockEnd
  0
BLOCK
  5
598
330
597
100
AcDbEntity
  8
0
100
AcDbBlockBegin
  2
KLON12
 70
     0
 71
     0
 10
0.0
 20
0.0
 30
0.0
  3
KLON12
  1

  4
KLON12
  0
LINE
  5
59A
330
597
100
AcDbEntity
  8
LC-001-100-D00-0
 62
     7
370
    25
100
AcDbLine
 10
192.251642
 20
259.338459
 30
0.0
 11
194.523531
 21
261.610348
 31
0.0
  0
LINE
  5
59B
330
597
100
AcDbEntity
  8
LC-001-100-D00-0
 62
     7
370
    25
100
AcDbLine
 10
183.844179
 20
259.911253
 30
0.0
 11
188.771386
 21
264.838459
 31
0.0
  0
LINE
  5
59C
330
597
100
AcDbEntity
  8
LC-001-100-D00-0
 62
     7
370
    25
100
AcDbLine
 10
176.151274
 20
261.198604
 30
0.0
 11
179.79113
 21
264.838459
 31
0.0
  0
LINE
  5
59D
330
597
100
AcDbEntity
  8
LC-001-100-D00-0
 62
     7
370
    25
100
AcDbLine
 10
168.914888
 20
262.942474
 30
0.0
 11
170.810873
 21
264.838459
 31
0.0
  0
ENDBLK
  5
599
330
597
100
AcDbEntity
  8
0
100
AcDbBlockEnd
  0
BLOCK
  5
5A0
330
59F
100
AcDbEntity
  8
0
100
AcDbBlockBegin
  2
KLON13
 70
     0
 71
     0
 10
0.0
 20
0.0
 30
0.0
  3
KLON13
  1

  4
KLON13
  0
LINE
  5
5A2
330
59F
100
AcDbEntity
  8
LC-001-100-D00-0
 62
     7
370
    50
100
AcDbLine
 10
323.72163
 20
256.104605
 30
0.0
 11
328.023531
 21
260.406506
 31
0.0
  0
LINE
  5
5A3
330
59F
100
AcDbEntity
  8
LC-001-100-D00-0
 62
     7
370
    50
100
AcDbLine
 10
324.023531
 20
265.386763
 30
0.0
 11
329.023345
 21
270.386577
 31
0.0
  0
ENDBLK
  5
5A1
330
59F
100
AcDbEntity
  8
0
100
AcDbBlockEnd
  0
BLOCK
  5
5A6
330
5A5
100
AcDbEntity
  8
0
100
AcDbBlockBegin
  2
KLON14
 70
     0
 71
     0
 10
0.0
 20
0.0
 30
0.0
  3
KLON14
  1

  4
KLON14
  0
LINE
  5
5A8
330
5A5
100
AcDbEntity
  8
LC-001-100-D00-0
 62
     7
370
    25
100
AcDbLine
 10
207.023531
 20
256.149836
 30
0.0
 11
212.023531
 21
261.149836
 31
0.0
  0
LINE
  5
5A9
330
5A5
100
AcDbEntity
  8
LC-001-100-D00-0
 62
     7
370
    25
100
AcDbLine
 10
207.023531
 20
265.130092
 30
0.0
 11
213.586659
 21
271.69322
 31
0.0
  0
ENDBLK
  5
5A7
330
5A5
100
AcDbEntity
  8
0
100
AcDbBlockEnd
  0
BLOCK
  5
5AC
330
5AB
100
AcDbEntity
  8
0
100
AcDbBlockBegin
  2
KLON15
 70
     0
 71
     0
 10
0.0
 20
0.0
 30
0.0
  3
KLON15
  1

  4
KLON15
  0
LINE
  5
5AE
330
5AB
100
AcDbEntity
  8
LC-001-100-D00-0
 62
     7
370
    25
100
AcDbLine
 10
311.873531
 20
378.960348
 30
0.0
 11
313.873531
 21
380.960348
 31
0.0
  0
LINE
  5
5AF
330
5AB
100
AcDbEntity
  8
LC-001-100-D00-0
 62
     7
370
    25
100
AcDbLine
 10
311.873531
 20
387.940604
 30
0.0
 11
313.873531
 21
389.940604
 31
0.0
  0
LINE
  5
5B0
330
5AB
100
AcDbEntity
  8
LC-001-100-D00-0
 62
     7
370
    25
100
AcDbLine
 10
311.873531
 20
396.920861
 30
0.0
 11
313.873531
 21
398.920861
 31
0.0
  0
LINE
  5
5B1
330
5AB
100
AcDbEntity
  8
LC-001-100-D00-0
 62
     7
370
    25
100
AcDbLine
 10
311.873531
 20
405.901117
 30
0.0
 11
313.873531
 21
407.901117
 31
0.0
  0
LINE
  5
5B2
330
5AB
100
AcDbEntity
  8
LC-001-100-D00-0
 62
     7
370
    25
100
AcDbLine
 10
311.873531
 20
414.881373
 30
0.0
 11
313.873531
 21
416.881373
 31
0.0
  0
ENDBLK
  5
5AD
330
5AB
100
AcDbEntity
  8
0
100
AcDbBlockEnd
  0
BLOCK
  5
5B5
330
5B4
100
AcDbEntity
  8
0
100
AcDbBlockBegin
  2
KLON16
 70
     0
 71
     0
 10
0.0
 20
0.0
 30
0.0
  3
KLON16
  1

  4
KLON16
  0
LINE
  5
5B7
330
5B4
100
AcDbEntity
  8
LC-001-100-D00-0
 62
     7
370
    25
100
AcDbLine
 10
222.173531
 20
379.06291
 30
0.0
 11
224.173531
 21
381.06291
 31
0.0
  0
LINE
  5
5B8
330
5B4
100
AcDbEntity
  8
LC-001-100-D00-0
 62
     7
370
    25
100
AcDbLine
 10
222.173531
 20
388.043166
 30
0.0
 11
224.173531
 21
390.043166
 31
0.0
  0
LINE
  5
5B9
330
5B4
100
AcDbEntity
  8
LC-001-100-D00-0
 62
     7
370
    25
100
AcDbLine
 10
222.173531
 20
397.023422
 30
0.0
 11
224.173531
 21
399.023422
 31
0.0
  0
LINE
  5
5BA
330
5B4
100
AcDbEntity
  8
LC-001-100-D00-0
 62
     7
370
    25
100
AcDbLine
 10
222.173531
 20
406.003678
 30
0.0
 11
224.173531
 21
408.003678
 31
0.0
  0
LINE
  5
5BB
330
5B4
100
AcDbEntity
  8
LC-001-100-D00-0
 62
     7
370
    25
100
AcDbLine
 10
222.173531
 20
414.983934
 30
0.0
 11
224.421049
 21
417.231452
 31
0.0
  0
ENDBLK
  5
5B6
330
5B4
100
AcDbEntity
  8
0
100
AcDbBlockEnd
  0
BLOCK
  5
5BE
330
5BD
100
AcDbEntity
  8
0
100
AcDbBlockBegin
  2
KLON17
 70
     0
 71
     0
 10
0.0
 20
0.0
 30
0.0
  3
KLON17
  1

  4
KLON17
  0
LINE
  5
5C0
330
5BD
100
AcDbEntity
  8
LC-001-100-D00-0
 62
     7
370
    25
100
AcDbLine
 10
219.31045
 20
376.199829
 30
0.0
 11
221.523531
 21
378.41291
 31
0.0
  0
LINE
  5
5C1
330
5BD
100
AcDbEntity
  8
LC-001-100-D00-0
 62
     7
370
    25
100
AcDbLine
 10
212.799408
 20
378.669043
 30
0.0
 11
214.799408
 21
380.669043
 31
0.0
  0
LINE
  5
5C2
330
5BD
100
AcDbEntity
  8
LC-001-100-D00-0
 62
     7
370
    25
100
AcDbLine
 10
203.819152
 20
378.669043
 30
0.0
 11
205.819152
 21
380.669043
 31
0.0
  0
ENDBLK
  5
5BF
330
5BD
100
AcDbEntity
  8
0
100
AcDbBlockEnd
  0
BLOCK
  5
5C5
330
5C4
100
AcDbEntity
  8
0
100
AcDbBlockBegin
  2
KLON18
 70
     0
 71
     0
 10
0.0
 20
0.0
 30
0.0
  3
KLON18
  1

  4
KLON18
  0
LINE
  5
5C7
330
5C4
100
AcDbEntity
  8
LC-001-100-D00-0
 62
     7
370
    25
100
AcDbLine
 10
338.522994
 20
378.669043
 30
0.0
 11
339.023531
 21
379.16958
 31
0.0
  0
LINE
  5
5C8
330
5C4
100
AcDbEntity
  8
LC-001-100-D00-0
 62
     7
370
    25
100
AcDbLine
 10
329.542737
 20
378.669043
 30
0.0
 11
331.542737
 21
380.669043
 31
0.0
  0
LINE
  5
5C9
330
5C4
100
AcDbEntity
  8
LC-001-100-D00-0
 62
     7
370
    25
100
AcDbLine
 10
320.562481
 20
378.669043
 30
0.0
 11
322.562481
 21
380.669043
 31
0.0
  0
ENDBLK
  5
5C6
330
5C4
100
AcDbEntity
  8
0
100
AcDbBlockEnd
  0
BLOCK
  5
5CC
330
5CB
100
AcDbEntity
  8
0
100
AcDbBlockBegin
  2
KLON19
 70
     0
 71
     0
 10
0.0
 20
0.0
 30
0.0
  3
KLON19
  1

  4
KLON19
  0
LINE
  5
5CE
330
5CB
100
AcDbEntity
  8
LC-001-100-D00-0
 62
     7
370
    25
100
AcDbLine
 10
271.579664
 20
428.469043
 30
0.0
 11
273.079664
 21
429.969043
 31
0.0
  0
LINE
  5
5CF
330
5CB
100
AcDbEntity
  8
LC-001-100-D00-0
 62
     7
370
    25
100
AcDbLine
 10
260.099408
 20
425.969043
 30
0.0
 11
260.523531
 21
426.393166
 31
0.0
  0
LINE
  5
5D0
330
5CB
100
AcDbEntity
  8
LC-001-100-D00-0
 62
     7
370
    25
100
AcDbLine
 10
262.599408
 20
428.469043
 30
0.0
 11
264.099408
 21
429.969043
 31
0.0
  0
ENDBLK
  5
5CD
330
5CB
100
AcDbEntity
  8
0
100
AcDbBlockEnd
  0
BLOCK
  5
5D6
330
5D5
100
AcDbEntity
  8
0
100
AcDbBlockBegin
  2
KLON20
 70
     0
 71
     0
 10
0.0
 20
0.0
 30
0.0
  3
KLON20
  1

  4
KLON20
  0
LINE
  5
5D8
330
5D5
100
AcDbEntity
  8
LC-001-100-D00-0
 62
     7
370
    25
100
AcDbLine
 10
296.020433
 20
425.969043
 30
0.0
 11
296.523531
 21
426.472141
 31
0.0
  0
LINE
  5
5D9
330
5D5
100
AcDbEntity
  8
LC-001-100-D00-0
 62
     7
370
    25
100
AcDbLine
 10
298.520433
 20
428.469043
 30
0.0
 11
299.717107
 21
429.665717
 31
0.0
  0
ENDBLK
  5
5D7
330
5D5
100
AcDbEntity
  8
0
100
AcDbBlockEnd
  0
BLOCK
  5
5DC
330
5DB
100
AcDbEntity
  8
0
100
AcDbBlockBegin
  2
KLON21
 70
     0
 71
     0
 10
0.0
 20
0.0
 30
0.0
  3
KLON21
  1

  4
KLON21
  0
LINE
  5
5DE
330
5DB
100
AcDbEntity
  8
LC-001-100-D00-0
 62
     7
370
    25
100
AcDbLine
 10
223.178384
 20
424.969043
 30
0.0
 11
224.023531
 21
425.81419
 31
0.0
  0
LINE
  5
5DF
330
5DB
100
AcDbEntity
  8
LC-001-100-D00-0
 62
     7
370
    25
100
AcDbLine
 10
226.667906
 20
428.458566
 30
0.0
 11
227.817474
 21
429.608134
 31
0.0
  0
ENDBLK
  5
5DD
330
5DB
100
AcDbEntity
  8
0
100
AcDbBlockEnd
  0
BLOCK
  5
5E2
330
5E1
100
AcDbEntity
  8
0
100
AcDbBlockBegin
  2
KLON22
 70
     0
 71
     0
 10
0.0
 20
0.0
 30
0.0
  3
KLON22
  1

  4
KLON22
  0
LINE
  5
5E4
330
5E1
100
AcDbEntity
  8
LC-001-100-D00-0
 62
     7
370
    25
100
AcDbLine
 10
312.980945
 20
424.969043
 30
0.0
 11
313.523531
 21
425.511629
 31
0.0
  0
LINE
  5
5E5
330
5E1
100
AcDbEntity
  8
LC-001-100-D00-0
 62
     7
370
    25
100
AcDbLine
 10
307.095264
 20
428.063618
 30
0.0
 11
308.928956
 21
429.89731
 31
0.0
  0
ENDBLK
  5
5E3
330
5E1
100
AcDbEntity
  8
0
100
AcDbBlockEnd
  0
BLOCK
  5
5E8
330
5E7
100
AcDbEntity
  8
0
100
AcDbBlockBegin
  2
KLON23
 70
     0
 71
     0
 10
0.0
 20
0.0
 30
0.0
  3
KLON23
  1

  4
KLON23
  0
LINE
  5
5EA
330
5E7
100
AcDbEntity
  8
LC-001-100-D00-0
 62
     7
370
    25
100
AcDbLine
 10
224.823531
 20
417.633934
 30
0.0
 11
225.523531
 21
418.333935
 31
0.0
  0
LINE
  5
5EB
330
5E7
100
AcDbEntity
  8
LC-001-100-D00-0
 62
     7
370
    25
100
AcDbLine
 10
221.223531
 20
423.01419
 30
0.0
 11
221.923531
 21
423.71419
 31
0.0
  0
LINE
  5
5EC
330
5E7
100
AcDbEntity
  8
LC-001-100-D00-0
 62
     7
370
    25
100
AcDbLine
 10
218.02353
 20
428.794446
 30
0.0
 11
219.929448
 21
430.700364
 31
0.0
  0
ENDBLK
  5
5E9
330
5E7
100
AcDbEntity
  8
0
100
AcDbBlockEnd
  0
BLOCK
  5
5EF
330
5EE
100
AcDbEntity
  8
0
100
AcDbBlockBegin
  2
KLON24
 70
     0
 71
     0
 10
0.0
 20
0.0
 30
0.0
  3
KLON24
  1

  4
KLON24
  0
LINE
  5
5F1
330
5EE
100
AcDbEntity
  8
LC-001-100-D00-0
 62
     7
370
    25
100
AcDbLine
 10
311.261201
 20
414.269043
 30
0.0
 11
311.745243
 21
414.753085
 31
0.0
  0
LINE
  5
5F2
330
5EE
100
AcDbEntity
  8
LC-001-100-D00-0
 62
     7
370
    25
100
AcDbLine
 10
314.12353
 20
426.111629
 30
0.0
 11
314.823531
 21
426.811629
 31
0.0
  0
LINE
  5
5F3
330
5EE
100
AcDbEntity
  8
LC-001-100-D00-0
 62
     7
370
    25
100
AcDbLine
 10
317.285483
 20
429.273581
 30
0.0
 11
317.819598
 21
429.807696
 31
0.0
  0
ENDBLK
  5
5F0
330
5EE
100
AcDbEntity
  8
0
100
AcDbBlockEnd
  0
BLOCK
  5
5F7
330
5F6
100
AcDbEntity
  8
0
100
AcDbBlockBegin
  2
KLON25
 70
     0
 71
     0
 10
0.0
 20
0.0
 30
0.0
  3
KLON25
  1

  4
KLON25
  0
LINE
  5
5F9
330
5F6
100
AcDbEntity
  8
LC-001-100-D00-0
 62
     7
370
    50
100
AcDbLine
 10
326.726835
 20
232.169043
 30
0.0
 11
327.273531
 21
232.715738
 31
0.0
  0
LINE
  5
5FA
330
5F6
100
AcDbEntity
  8
LC-001-100-D00-0
 62
     7
370
    50
100
AcDbLine
 10
320.073531
 20
234.495994
 30
0.0
 11
322.746579
 21
237.169043
 31
0.0
  0
ENDBLK
  5
5F8
330
5F6
100
AcDbEntity
  8
0
100
AcDbBlockEnd
  0
BLOCK
  5
5FD
330
5FC
100
AcDbEntity
  8
0
100
AcDbBlockBegin
  2
KLON26
 70
     0
 71
     0
 10
0.0
 20
0.0
 30
0.0
  3
KLON26
  1

  4
KLON26
  0
LINE
  5
5FF
330
5FC
100
AcDbEntity
  8
LC-001-100-D00-0
 62
     7
370
    25
100
AcDbLine
 10
196.664063
 20
245.790369
 30
0.0
 11
200.023531
 21
249.149836
 31
0.0
  0
LINE
  5
600
330
5FC
100
AcDbEntity
  8
LC-001-100-D00-0
 62
     7
370
    25
100
AcDbLine
 10
196.023531
 20
254.130092
 30
0.0
 11
200.023531
 21
258.130092
 31
0.0
  0
LINE
  5
601
330
5FC
100
AcDbEntity
  8
LC-001-100-D00-0
 62
     7
370
    25
100
AcDbLine
 10
194.751642
 20
261.838459
 30
0.0
 11
196.751642
 21
263.838459
 31
0.0
  0
ENDBLK
  5
5FE
330
5FC
100
AcDbEntity
  8
0
100
AcDbBlockEnd
  0
BLOCK
  5
604
330
603
100
AcDbEntity
  8
0
100
AcDbBlockBegin
  2
KLON27
 70
     0
 71
     0
 10
0.0
 20
0.0
 30
0.0
  3
KLON27
  1

  4
KLON27
  0
LINE
  5
606
330
603
100
AcDbEntity
  8
LC-001-100-D00-0
 62
     7
370
    50
100
AcDbLine
 10
212.299408
 20
378.169043
 30
0.0
 11
212.776765
 21
378.6464
 31
0.0
  0
LINE
  5
607
330
603
100
AcDbEntity
  8
LC-001-100-D00-0
 62
     7
370
    50
100
AcDbLine
 10
203.319152
 20
378.169043
 30
0.0
 11
203.819152
 21
378.669043
 31
0.0
  0
LINE
  5
608
330
603
100
AcDbEntity
  8
LC-001-100-D00-0
 62
     7
370
    50
100
AcDbLine
 10
194.338896
 20
378.169043
 30
0.0
 11
194.838896
 21
378.669043
 31
0.0
  0
LINE
  5
609
330
603
100
AcDbEntity
  8
LC-001-100-D00-0
 62
     7
370
    50
100
AcDbLine
 10
187.855299
 20
380.665702
 30
0.0
 11
188.208852
 21
381.019255
 31
0.0
  0
LINE
  5
60A
330
603
100
AcDbEntity
  8
LC-001-100-D00-0
 62
     7
370
    50
100
AcDbLine
 10
181.878383
 20
383.669043
 30
0.0
 11
182.378383
 21
384.169043
 31
0.0
  0
LINE
  5
60B
330
603
100
AcDbEntity
  8
LC-001-100-D00-0
 62
     7
370
    50
100
AcDbLine
 10
172.898127
 20
383.669043
 30
0.0
 11
173.398127
 21
384.169043
 31
0.0
  0
LINE
  5
60C
330
603
100
AcDbEntity
  8
LC-001-100-D00-0
 62
     7
370
    50
100
AcDbLine
 10
163.917871
 20
383.669043
 30
0.0
 11
164.417871
 21
384.169043
 31
0.0
  0
LINE
  5
60D
330
603
100
AcDbEntity
  8
LC-001-100-D00-0
 62
     7
370
    50
100
AcDbLine
 10
154.937615
 20
383.669043
 30
0.0
 11
155.437615
 21
384.169043
 31
0.0
  0
LINE
  5
60E
330
603
100
AcDbEntity
  8
LC-001-100-D00-0
 62
     7
370
    50
100
AcDbLine
 10
145.957359
 20
383.669043
 30
0.0
 11
146.457359
 21
384.169043
 31
0.0
  0
ENDBLK
  5
605
330
603
100
AcDbEntity
  8
0
100
AcDbBlockEnd
  0
BLOCK
  5
611
330
610
100
AcDbEntity
  8
0
100
AcDbBlockBegin
  2
KLON28
 70
     0
 71
     0
 10
0.0
 20
0.0
 30
0.0
  3
KLON28
  1

  4
KLON28
  0
LINE
  5
613
330
610
100
AcDbEntity
  8
LC-001-100-D00-0
 62
     7
370
    50
100
AcDbLine
 10
388.424274
 20
383.669043
 30
0.0
 11
388.924274
 21
384.169043
 31
0.0
  0
LINE
  5
614
330
610
100
AcDbEntity
  8
LC-001-100-D00-0
 62
     7
370
    50
100
AcDbLine
 10
379.444018
 20
383.669043
 30
0.0
 11
379.944018
 21
384.169043
 31
0.0
  0
LINE
  5
615
330
610
100
AcDbEntity
  8
LC-001-100-D00-0
 62
     7
370
    50
100
AcDbLine
 10
370.463762
 20
383.669043
 30
0.0
 11
370.963762
 21
384.169043
 31
0.0
  0
LINE
  5
616
330
610
100
AcDbEntity
  8
LC-001-100-D00-0
 62
     7
370
    50
100
AcDbLine
 10
361.483506
 20
383.669043
 30
0.0
 11
361.983506
 21
384.169043
 31
0.0
  0
LINE
  5
617
330
610
100
AcDbEntity
  8
LC-001-100-D00-0
 62
     7
370
    50
100
AcDbLine
 10
352.50325
 20
383.669043
 30
0.0
 11
353.00325
 21
384.169043
 31
0.0
  0
LINE
  5
618
330
610
100
AcDbEntity
  8
LC-001-100-D00-0
 62
     7
370
    50
100
AcDbLine
 10
338.022994
 20
378.169043
 30
0.0
 11
338.522994
 21
378.669043
 31
0.0
  0
LINE
  5
619
330
610
100
AcDbEntity
  8
LC-001-100-D00-0
 62
     7
370
    50
100
AcDbLine
 10
329.042737
 20
378.169043
 30
0.0
 11
329.542737
 21
378.669043
 31
0.0
  0
ENDBLK
  5
612
330
610
100
AcDbEntity
  8
0
100
AcDbBlockEnd
  0
BLOCK
  5
62B
330
621
100
AcDbEntity
  8
0
100
AcDbBlockBegin
  2
*D53
 70
     1
 71
     0
 10
0.0
 20
0.0
 30
0.0
  3
*D53
  1

  0
LINE
  5
622
330
621
100
AcDbEntity
  8
LC-001-100-D00-0
 62
     2
370
    -2
100
AcDbLine
 10
418.023531
 20
384.169043
 30
0.0
 11
489.728702
 21
384.169043
 31
0.0
  0
LINE
  5
623
330
621
100
AcDbEntity
  8
LC-001-100-D00-0
 62
     2
370
    -2
100
AcDbLine
 10
380.457277
 20
264.838459
 30
0.0
 11
489.728702
 21
264.838459
 31
0.0
  0
LINE
  5
624
330
621
100
AcDbEntity
  8
LC-001-100-D00-0
 62
     2
370
    -2
100
AcDbLine
 10
486.128702
 20
356.169043
 30
0.0
 11
486.128702
 21
292.838459
 31
0.0
  0
SOLID
  5
625
330
621
100
AcDbEntity
  8
LC-001-100-D00-0
 62
     2
100
AcDbTrace
 10
490.795369
 20
356.169043
 30
0.0
 11
481.462035
 21
356.169043
 31
0.0
 12
486.128702
 22
384.169043
 32
0.0
 13
486.128702
 23
384.169043
 33
0.0
  0
SOLID
  5
626
330
621
100
AcDbEntity
  8
LC-001-100-D00-0
 62
     2
100
AcDbTrace
 10
481.462035
 20
292.838459
 30
0.0
 11
490.795369
 21
292.838459
 31
0.0
 12
486.128702
 22
264.838459
 32
0.0
 13
486.128702
 23
264.838459
 33
0.0
  0
MTEXT
  5
627
330
621
100
AcDbEntity
  8
LC-001-100-D00-0
 62
     2
100
AcDbMText
 10
455.328702
 20
314.65254
 30
0.0
 40
28.0
 41
0.0
 71
     5
 72
     1
  1
\A1;16,5-120
  7
LCTX15-400-0-0pDIN-Schrift
 11
6.123031769111886E-17
 21
1.0
 31
0.0
 73
     1
 44
1.0
  0
POINT
  5
628
330
621
100
AcDbEntity
  8
Defpoints
 62
     0
100
AcDbPoint
 10
418.023531
 20
384.169043
 30
0.0
  0
POINT
  5
629
330
621
100
AcDbEntity
  8
Defpoints
 62
     0
100
AcDbPoint
 10
380.457277
 20
264.838459
 30
0.0
  0
POINT
  5
62A
330
621
100
AcDbEntity
  8
Defpoints
 62
     0
100
AcDbPoint
 10
486.128702
 20
264.838459
 30
0.0
  0
ENDBLK
  5
62C
330
621
100
AcDbEntity
  8
0
100
AcDbBlockEnd
  0
BLOCK
  5
632
330
631
100
AcDbEntity
  8
0
100
AcDbBlockBegin
  2
POLY25
 70
     0
 71
     0
 10
0.0
 20
0.0
 30
0.0
  3
POLY25
  1

  4
POLY25
  0
LINE
  5
634
330
631
100
AcDbEntity
  8
LC-001-100-D00-0
 62
     7
370
    50
100
AcDbLine
 10
359.833813
 20
366.978706
 30
0.0
 11
359.833813
 21
366.978706
 31
0.0
  0
LINE
  5
635
330
631
100
AcDbEntity
  8
LC-001-100-D00-0
 62
     7
370
    50
100
AcDbLine
 10
359.833813
 20
366.978706
 30
0.0
 11
359.682076
 21
367.761243
 31
0.0
  0
LINE
  5
636
330
631
100
AcDbEntity
  8
LC-001-100-D00-0
 62
     7
370
    50
100
AcDbLine
 10
359.682076
 20
367.761243
 30
0.0
 11
359.682076
 21
367.761243
 31
0.0
  0
LINE
  5
637
330
631
100
AcDbEntity
  8
LC-001-100-D00-0
 62
     7
370
    50
100
AcDbLine
 10
359.682076
 20
367.761243
 30
0.0
 11
357.919448
 21
375.323993
 31
0.0
  0
LINE
  5
638
330
631
100
AcDbEntity
  8
LC-001-100-D00-0
 62
     7
370
    50
100
AcDbLine
 10
357.919448
 20
375.323993
 30
0.0
 11
357.919448
 21
375.323993
 31
0.0
  0
LINE
  5
639
330
631
100
AcDbEntity
  8
LC-001-100-D00-0
 62
     7
370
    50
100
AcDbLine
 10
357.919448
 20
375.323993
 30
0.0
 11
357.229478
 21
378.887077
 31
0.0
  0
LINE
  5
63A
330
631
100
AcDbEntity
  8
LC-001-100-D00-0
 62
     7
370
    50
100
AcDbLine
 10
357.229478
 20
378.887077
 30
0.0
 11
357.229478
 21
378.887077
 31
0.0
  0
LINE
  5
63B
330
631
100
AcDbEntity
  8
LC-001-100-D00-0
 62
     7
370
    50
100
AcDbLine
 10
357.229478
 20
378.887077
 30
0.0
 11
356.691056
 21
381.667552
 31
0.0
  0
ENDBLK
  5
633
330
631
100
AcDbEntity
  8
0
100
AcDbBlockEnd
  0
BLOCK
  5
64B
330
64A
100
AcDbEntity
  8
0
100
AcDbBlockBegin
  2
POLY26
 70
     0
 71
     0
 10
0.0
 20
0.0
 30
0.0
  3
POLY26
  1

  4
POLY26
  0
LINE
  5
64D
330
64A
100
AcDbEntity
  8
LC-001-100-D00-0
 62
     7
370
    50
100
AcDbLine
 10
360.815492
 20
366.169043
 30
0.0
 11
360.815492
 21
366.169043
 31
0.0
  0
LINE
  5
64E
330
64A
100
AcDbEntity
  8
LC-001-100-D00-0
 62
     7
370
    50
100
AcDbLine
 10
360.815492
 20
366.169043
 30
0.0
 11
360.84822
 21
366.169043
 31
0.0
  0
LINE
  5
64F
330
64A
100
AcDbEntity
  8
LC-001-100-D00-0
 62
     7
370
    50
100
AcDbLine
 10
360.84822
 20
366.169043
 30
0.0
 11
360.84822
 21
366.169043
 31
0.0
  0
LINE
  5
650
330
64A
100
AcDbEntity
  8
LC-001-100-D00-0
 62
     7
370
    50
100
AcDbLine
 10
360.84822
 20
366.169043
 30
0.0
 11
361.107585
 21
366.169043
 31
0.0
  0
LINE
  5
651
330
64A
100
AcDbEntity
  8
LC-001-100-D00-0
 62
     7
370
    50
100
AcDbLine
 10
361.107585
 20
366.169043
 30
0.0
 11
361.107585
 21
366.169043
 31
0.0
  0
LINE
  5
652
330
64A
100
AcDbEntity
  8
LC-001-100-D00-0
 62
     7
370
    50
100
AcDbLine
 10
361.107585
 20
366.169043
 30
0.0
 11
361.736948
 21
366.169043
 31
0.0
  0
LINE
  5
653
330
64A
100
AcDbEntity
  8
LC-001-100-D00-0
 62
     7
370
    50
100
AcDbLine
 10
361.736948
 20
366.169043
 30
0.0
 11
361.736948
 21
366.169043
 31
0.0
  0
LINE
  5
654
330
64A
100
AcDbEntity
  8
LC-001-100-D00-0
 62
     7
370
    50
100
AcDbLine
 10
361.736948
 20
366.169043
 30
0.0
 11
362.51941
 21
366.169043
 31
0.0
  0
LINE
  5
655
330
64A
100
AcDbEntity
  8
LC-001-100-D00-0
 62
     7
370
    50
100
AcDbLine
 10
362.51941
 20
366.169043
 30
0.0
 11
362.51941
 21
366.169043
 31
0.0
  0
LINE
  5
656
330
64A
100
AcDbEntity
  8
LC-001-100-D00-0
 62
     7
370
    50
100
AcDbLine
 10
362.51941
 20
366.169043
 30
0.0
 11
362.936812
 21
366.169043
 31
0.0
  0
ENDBLK
  5
64C
330
64A
100
AcDbEntity
  8
0
100
AcDbBlockEnd
  0
BLOCK
  5
65B
330
65A
100
AcDbEntity
  8
0
100
AcDbBlockBegin
  2
POLY27
 70
     0
 71
     0
 10
0.0
 20
0.0
 30
0.0
  3
POLY27
  1

  4
POLY27
  0
LINE
  5
65D
330
65A
100
AcDbEntity
  8
LC-001-100-D00-0
 62
     7
370
    50
100
AcDbLine
 10
365.095591
 20
366.910224
 30
0.0
 11
365.095591
 21
366.910224
 31
0.0
  0
LINE
  5
65E
330
65A
100
AcDbEntity
  8
LC-001-100-D00-0
 62
     7
370
    50
100
AcDbLine
 10
365.095591
 20
366.910224
 30
0.0
 11
365.083214
 21
366.80913
 31
0.0
  0
LINE
  5
65F
330
65A
100
AcDbEntity
  8
LC-001-100-D00-0
 62
     7
370
    50
100
AcDbLine
 10
365.083214
 20
366.80913
 30
0.0
 11
365.083214
 21
366.80913
 31
0.0
  0
LINE
  5
660
330
65A
100
AcDbEntity
  8
LC-001-100-D00-0
 62
     7
370
    50
100
AcDbLine
 10
365.083214
 20
366.80913
 30
0.0
 11
365.058498
 21
366.607246
 31
0.0
  0
LINE
  5
661
330
65A
100
AcDbEntity
  8
LC-001-100-D00-0
 62
     7
370
    50
100
AcDbLine
 10
365.058498
 20
366.607246
 30
0.0
 11
365.058498
 21
366.607246
 31
0.0
  0
LINE
  5
662
330
65A
100
AcDbEntity
  8
LC-001-100-D00-0
 62
     7
370
    50
100
AcDbLine
 10
365.058498
 20
366.607246
 30
0.0
 11
364.988426
 21
366.37474
 31
0.0
  0
LINE
  5
663
330
65A
100
AcDbEntity
  8
LC-001-100-D00-0
 62
     7
370
    50
100
AcDbLine
 10
364.988426
 20
366.37474
 30
0.0
 11
364.988426
 21
366.37474
 31
0.0
  0
LINE
  5
664
330
65A
100
AcDbEntity
  8
LC-001-100-D00-0
 62
     7
370
    50
100
AcDbLine
 10
364.988426
 20
366.37474
 30
0.0
 11
364.90222
 21
366.209852
 31
0.0
  0
LINE
  5
665
330
65A
100
AcDbEntity
  8
LC-001-100-D00-0
 62
     7
370
    50
100
AcDbLine
 10
364.90222
 20
366.209852
 30
0.0
 11
364.90222
 21
366.209852
 31
0.0
  0
LINE
  5
666
330
65A
100
AcDbEntity
  8
LC-001-100-D00-0
 62
     7
370
    50
100
AcDbLine
 10
364.90222
 20
366.209852
 30
0.0
 11
364.840027
 21
366.16927
 31
0.0
  0
LINE
  5
667
330
65A
100
AcDbEntity
  8
LC-001-100-D00-0
 62
     7
370
    50
100
AcDbLine
 10
364.840027
 20
366.16927
 30
0.0
 11
364.840027
 21
366.16927
 31
0.0
  0
LINE
  5
668
330
65A
100
AcDbEntity
  8
LC-001-100-D00-0
 62
     7
370
    50
100
AcDbLine
 10
364.840027
 20
366.16927
 30
0.0
 11
364.808617
 21
366.169046
 31
0.0
  0
LINE
  5
669
330
65A
100
AcDbEntity
  8
LC-001-100-D00-0
 62
     7
370
    50
100
AcDbLine
 10
364.808617
 20
366.169046
 30
0.0
 11
364.808617
 21
366.169046
 31
0.0
  0
LINE
  5
66A
330
65A
100
AcDbEntity
  8
LC-001-100-D00-0
 62
     7
370
    50
100
AcDbLine
 10
364.808617
 20
366.169046
 30
0.0
 11
364.808127
 21
366.169043
 31
0.0
  0
ENDBLK
  5
65C
330
65A
100
AcDbEntity
  8
0
100
AcDbBlockEnd
  0
BLOCK
  5
6AF
330
6A4
100
AcDbEntity
  8
0
100
AcDbBlockBegin
  2
*D57
 70
     1
 71
     0
 10
0.0
 20
0.0
 30
0.0
  3
*D57
  1

  0
LINE
  5
6A5
330
6A4
100
AcDbEntity
  8
LC-002-003-----0
 62
     2
370
    -2
100
AcDbLine
 10
119.516591
 20
384.169043
 30
0.0
 11
57.425583
 21
384.169043
 31
0.0
  0
LINE
  5
6A6
330
6A4
100
AcDbEntity
  8
LC-002-003-----0
 62
     2
370
    -2
100
AcDbLine
 10
126.47035
 20
366.169043
 30
0.0
 11
57.425583
 21
366.169043
 31
0.0
  0
LINE
  5
6A7
330
6A4
100
AcDbEntity
  8
LC-002-003-----0
 62
     2
370
    -2
100
AcDbLine
 10
61.025583
 20
412.169043
 30
0.0
 11
61.025583
 21
440.169043
 31
0.0
  0
LINE
  5
6A8
330
6A4
100
AcDbEntity
  8
LC-002-003-----0
 62
     2
370
    -2
100
AcDbLine
 10
61.025583
 20
338.169043
 30
0.0
 11
61.025583
 21
344.001896
 31
0.0
  0
SOLID
  5
6A9
330
6A4
100
AcDbEntity
  8
LC-002-003-----0
 62
     2
100
AcDbTrace
 10
56.358917
 20
412.169043
 30
0.0
 11
65.69225
 21
412.169043
 31
0.0
 12
61.025583
 22
384.169043
 32
0.0
 13
61.025583
 23
384.169043
 33
0.0
  0
SOLID
  5
6AA
330
6A4
100
AcDbEntity
  8
LC-002-003-----0
 62
     2
100
AcDbTrace
 10
65.69225
 20
338.169043
 30
0.0
 11
56.358917
 21
338.169043
 31
0.0
 12
61.025583
 22
366.169043
 32
0.0
 13
61.025583
 23
366.169043
 33
0.0
  0
MTEXT
  5
6AB
330
6A4
100
AcDbEntity
  8
LC-002-003-----0
 62
     2
100
AcDbMText
 10
30.225583
 20
363.55062
 30
0.0
 40
28.0
 41
0.0
 71
     5
 72
     1
  1
\A1;18
  7
LCTX15-400-0-0pDIN-Schrift
 11
6.123031769111886E-17
 21
1.0
 31
0.0
 73
     1
 44
1.0
  0
POINT
  5
6AC
330
6A4
100
AcDbEntity
  8
Defpoints
 62
     0
100
AcDbPoint
 10
119.516591
 20
384.169043
 30
0.0
  0
POINT
  5
6AD
330
6A4
100
AcDbEntity
  8
Defpoints
 62
     0
100
AcDbPoint
 10
126.47035
 20
366.169043
 30
0.0
  0
POINT
  5
6AE
330
6A4
100
AcDbEntity
  8
Defpoints
 62
     0
100
AcDbPoint
 10
61.025583
 20
366.169043
 30
0.0
  0
ENDBLK
  5
6B0
330
6A4
100
AcDbEntity
  8
0
100
AcDbBlockEnd
  0
BLOCK
  5
6BD
330
6B2
100
AcDbEntity
  8
0
100
AcDbBlockBegin
  2
*D58
 70
     1
 71
     0
 10
0.0
 20
0.0
 30
0.0
  3
*D58
  1

  0
LINE
  5
6B3
330
6B2
100
AcDbEntity
  8
LC-002-003-----0
 62
     2
370
    -2
100
AcDbLine
 10
123.023531
 20
384.169043
 30
0.0
 11
101.779168
 21
384.169043
 31
0.0
  0
LINE
  5
6B4
330
6B2
100
AcDbEntity
  8
LC-002-003-----0
 62
     2
370
    -2
100
AcDbLine
 10
191.043812
 20
376.169043
 30
0.0
 11
101.779168
 21
376.169043
 31
0.0
  0
LINE
  5
6B5
330
6B2
100
AcDbEntity
  8
LC-002-003-----0
 62
     2
370
    -2
100
AcDbLine
 10
105.379168
 20
348.169043
 30
0.0
 11
105.379168
 21
320.169043
 31
0.0
  0
LINE
  5
6B6
330
6B2
100
AcDbEntity
  8
LC-002-003-----0
 62
     2
370
    -2
100
AcDbLine
 10
105.379168
 20
412.169043
 30
0.0
 11
105.379168
 21
397.766459
 31
0.0
  0
SOLID
  5
6B7
330
6B2
100
AcDbEntity
  8
LC-002-003-----0
 62
     2
100
AcDbTrace
 10
100.712502
 20
412.169043
 30
0.0
 11
110.045835
 21
412.169043
 31
0.0
 12
105.379168
 22
384.169043
 32
0.0
 13
105.379168
 23
384.169043
 33
0.0
  0
SOLID
  5
6B8
330
6B2
100
AcDbEntity
  8
LC-002-003-----0
 62
     2
100
AcDbTrace
 10
110.045835
 20
348.169043
 30
0.0
 11
100.712502
 21
348.169043
 31
0.0
 12
105.379168
 22
376.169043
 32
0.0
 13
105.379168
 23
376.169043
 33
0.0
  0
MTEXT
  5
6B9
330
6B2
100
AcDbEntity
  8
LC-002-003-----0
 62
     2
100
AcDbMText
 10
74.579168
 20
385.332266
 30
0.0
 40
28.0
 41
0.0
 71
     5
 72
     1
  1
\A1;8
  7
LCTX15-400-0-0pDIN-Schrift
 11
6.123031769111886E-17
 21
1.0
 31
0.0
 73
     1
 44
1.0
  0
POINT
  5
6BA
330
6B2
100
AcDbEntity
  8
Defpoints
 62
     0
100
AcDbPoint
 10
123.023531
 20
384.169043
 30
0.0
  0
POINT
  5
6BB
330
6B2
100
AcDbEntity
  8
Defpoints
 62
     0
100
AcDbPoint
 10
191.043812
 20
376.169043
 30
0.0
  0
POINT
  5
6BC
330
6B2
100
AcDbEntity
  8
Defpoints
 62
     0
100
AcDbPoint
 10
105.379168
 20
376.169043
 30
0.0
  0
ENDBLK
  5
6BE
330
6B2
100
AcDbEntity
  8
0
100
AcDbBlockEnd
  0
BLOCK
  5
6CA
330
6C0
100
AcDbEntity
  8
0
100
AcDbBlockBegin
  2
*D59
 70
     1
 71
     0
 10
0.0
 20
0.0
 30
0.0
  3
*D59
  1

  0
LINE
  5
6C1
330
6C0
100
AcDbEntity
  8
LC-002-003-----0
 62
     2
370
    -2
100
AcDbLine
 10
218.02353
 20
428.794446
 30
0.0
 11
218.02353
 21
441.66198
 31
0.0
  0
LINE
  5
6C2
330
6C0
100
AcDbEntity
  8
LC-002-003-----0
 62
     2
370
    -2
100
AcDbLine
 10
318.023531
 20
427.83016
 30
0.0
 11
318.023531
 21
441.66198
 31
0.0
  0
LINE
  5
6C3
330
6C0
100
AcDbEntity
  8
LC-002-003-----0
 62
     2
370
    -2
100
AcDbLine
 10
246.02353
 20
438.06198
 30
0.0
 11
290.023531
 21
438.06198
 31
0.0
  0
SOLID
  5
6C4
330
6C0
100
AcDbEntity
  8
LC-002-003-----0
 62
     2
100
AcDbTrace
 10
246.02353
 20
442.728647
 30
0.0
 11
246.02353
 21
433.395313
 31
0.0
 12
218.02353
 22
438.06198
 32
0.0
 13
218.02353
 23
438.06198
 33
0.0
  0
SOLID
  5
6C5
330
6C0
100
AcDbEntity
  8
LC-002-003-----0
 62
     2
100
AcDbTrace
 10
290.023531
 20
433.395313
 30
0.0
 11
290.023531
 21
442.728647
 31
0.0
 12
318.023531
 22
438.06198
 32
0.0
 13
318.023531
 23
438.06198
 33
0.0
  0
MTEXT
  5
6C6
330
6C0
100
AcDbEntity
  8
LC-002-003-----0
 62
     2
100
AcDbMText
 10
283.615512
 20
468.86198
 30
0.0
 40
28.0
 41
0.0
 71
     5
 72
     1
  1
\A1;100
  7
LCTX15-400-0-0pDIN-Schrift
 73
     1
 44
1.0
  0
POINT
  5
6C7
330
6C0
100
AcDbEntity
  8
Defpoints
 62
     0
100
AcDbPoint
 10
218.02353
 20
428.794446
 30
0.0
  0
POINT
  5
6C8
330
6C0
100
AcDbEntity
  8
Defpoints
 62
     0
100
AcDbPoint
 10
318.023531
 20
427.83016
 30
0.0
  0
POINT
  5
6C9
330
6C0
100
AcDbEntity
  8
Defpoints
 62
     0
100
AcDbPoint
 10
318.023531
 20
438.06198
 30
0.0
  0
ENDBLK
  5
6CB
330
6C0
100
AcDbEntity
  8
0
100
AcDbBlockEnd
  0
BLOCK
  5
6D8
330
6CD
100
AcDbEntity
  8
0
100
AcDbBlockBegin
  2
*D60
 70
     1
 71
     0
 10
0.0
 20
0.0
 30
0.0
  3
*D60
  1

  0
LINE
  5
6CE
330
6CD
100
AcDbEntity
  8
LC-002-003-----0
 62
     2
370
    -2
100
AcDbLine
 10
316.323531
 20
430.700364
 30
0.0
 11
474.016472
 21
430.700364
 31
0.0
  0
LINE
  5
6CF
330
6CD
100
AcDbEntity
  8
LC-002-003-----0
 62
     2
370
    -2
100
AcDbLine
 10
318.523531
 20
424.700364
 30
0.0
 11
474.016472
 21
424.700364
 31
0.0
  0
LINE
  5
6D0
330
6CD
100
AcDbEntity
  8
LC-002-003-----0
 62
     2
370
    -2
100
AcDbLine
 10
470.416472
 20
396.700364
 30
0.0
 11
470.416472
 21
368.700364
 31
0.0
  0
LINE
  5
6D1
330
6CD
100
AcDbEntity
  8
LC-002-003-----0
 62
     2
370
    -2
100
AcDbLine
 10
470.416472
 20
458.700364
 30
0.0
 11
470.416472
 21
451.936619
 31
0.0
  0
SOLID
  5
6D2
330
6CD
100
AcDbEntity
  8
LC-002-003-----0
 62
     2
100
AcDbTrace
 10
465.749805
 20
458.700364
 30
0.0
 11
475.083138
 21
458.700364
 31
0.0
 12
470.416472
 22
430.700364
 32
0.0
 13
470.416472
 23
430.700364
 33
0.0
  0
SOLID
  5
6D3
330
6CD
100
AcDbEntity
  8
LC-002-003-----0
 62
     2
100
AcDbTrace
 10
475.083138
 20
396.700364
 30
0.0
 11
465.749805
 21
396.700364
 31
0.0
 12
470.416472
 22
424.700364
 32
0.0
 13
470.416472
 23
424.700364
 33
0.0
  0
MTEXT
  5
6D4
330
6CD
100
AcDbEntity
  8
LC-002-003-----0
 62
     2
100
AcDbMText
 10
439.616472
 20
440.39046
 30
0.0
 40
28.0
 41
0.0
 71
     5
 72
     1
  1
\A1;6
  7
LCTX15-400-0-0pDIN-Schrift
 11
6.123031769111886E-17
 21
1.0
 31
0.0
 73
     1
 44
1.0
  0
POINT
  5
6D5
330
6CD
100
AcDbEntity
  8
Defpoints
 62
     0
100
AcDbPoint
 10
316.323531
 20
430.700364
 30
0.0
  0
POINT
  5
6D6
330
6CD
100
AcDbEntity
  8
Defpoints
 62
     0
100
AcDbPoint
 10
318.523531
 20
424.700364
 30
0.0
  0
POINT
  5
6D7
330
6CD
100
AcDbEntity
  8
Defpoints
 62
     0
100
AcDbPoint
 10
470.416472
 20
424.700364
 30
0.0
  0
ENDBLK
  5
6D9
330
6CD
100
AcDbEntity
  8
0
100
AcDbBlockEnd
  0
BLOCK
  5
6E6
330
6DB
100
AcDbEntity
  8
0
100
AcDbBlockBegin
  2
*D61
 70
     1
 71
     0
 10
0.0
 20
0.0
 30
0.0
  3
*D61
  1

  0
LINE
  5
6DC
330
6DB
100
AcDbEntity
  8
LC-002-003-----0
 62
     2
370
    -2
100
AcDbLine
 10
316.323531
 20
430.700364
 30
0.0
 11
538.875702
 21
430.700364
 31
0.0
  0
LINE
  5
6DD
330
6DB
100
AcDbEntity
  8
LC-002-003-----0
 62
     2
370
    -2
100
AcDbLine
 10
418.023531
 20
384.169043
 30
0.0
 11
538.875702
 21
384.169043
 31
0.0
  0
LINE
  5
6DE
330
6DB
100
AcDbEntity
  8
LC-002-003-----0
 62
     2
370
    -2
100
AcDbLine
 10
535.275702
 20
458.700364
 30
0.0
 11
535.275702
 21
486.700364
 31
0.0
  0
LINE
  5
6DF
330
6DB
100
AcDbEntity
  8
LC-002-003-----0
 62
     2
370
    -2
100
AcDbLine
 10
535.275702
 20
356.169043
 30
0.0
 11
535.275702
 21
317.650478
 31
0.0
  0
SOLID
  5
6E0
330
6DB
100
AcDbEntity
  8
LC-002-003-----0
 62
     2
100
AcDbTrace
 10
530.609035
 20
458.700364
 30
0.0
 11
539.942368
 21
458.700364
 31
0.0
 12
535.275702
 22
430.700364
 32
0.0
 13
535.275702
 23
430.700364
 33
0.0
  0
SOLID
  5
6E1
330
6DB
100
AcDbEntity
  8
LC-002-003-----0
 62
     2
100
AcDbTrace
 10
539.942368
 20
356.169043
 30
0.0
 11
530.609035
 21
356.169043
 31
0.0
 12
535.275702
 22
384.169043
 32
0.0
 13
535.275702
 23
384.169043
 33
0.0
  0
MTEXT
  5
6E2
330
6DB
100
AcDbEntity
  8
LC-002-003-----0
 62
     2
100
AcDbMText
 10
504.475702
 20
340.218004
 30
0.0
 40
28.0
 41
0.0
 71
     5
 72
     1
  1
\A1;45
  7
LCTX15-400-0-0pDIN-Schrift
 11
6.123031769111886E-17
 21
1.0
 31
0.0
 73
     1
 44
1.0
  0
POINT
  5
6E3
330
6DB
100
AcDbEntity
  8
Defpoints
 62
     0
100
AcDbPoint
 10
316.323531
 20
430.700364
 30
0.0
  0
POINT
  5
6E4
330
6DB
100
AcDbEntity
  8
Defpoints
 62
     0
100
AcDbPoint
 10
418.023531
 20
384.169043
 30
0.0
  0
POINT
  5
6E5
330
6DB
100
AcDbEntity
  8
Defpoints
 62
     0
100
AcDbPoint
 10
535.275702
 20
384.169043
 30
0.0
  0
ENDBLK
  5
6E7
330
6DB
100
AcDbEntity
  8
0
100
AcDbBlockEnd
  0
BLOCK
  5
6F3
330
6E9
100
AcDbEntity
  8
0
100
AcDbBlockBegin
  2
*D62
 70
     1
 71
     0
 10
0.0
 20
0.0
 30
0.0
  3
*D62
  1

  0
LINE
  5
6EA
330
6E9
100
AcDbEntity
  8
LC-002-003-----0
 62
     2
370
    -2
100
AcDbLine
 10
118.023531
 20
384.169043
 30
0.0
 11
118.023531
 21
484.15674
 31
0.0
  0
LINE
  5
6EB
330
6E9
100
AcDbEntity
  8
LC-002-003-----0
 62
     2
370
    -2
100
AcDbLine
 10
418.023531
 20
384.169043
 30
0.0
 11
418.023531
 21
484.15674
 31
0.0
  0
LINE
  5
6EC
330
6E9
100
AcDbEntity
  8
LC-002-003-----0
 62
     2
370
    -2
100
AcDbLine
 10
146.023531
 20
480.55674
 30
0.0
 11
390.023531
 21
480.55674
 31
0.0
  0
SOLID
  5
6ED
330
6E9
100
AcDbEntity
  8
LC-002-003-----0
 62
     2
100
AcDbTrace
 10
146.023531
 20
485.223407
 30
0.0
 11
146.023531
 21
475.890073
 31
0.0
 12
118.023531
 22
480.55674
 32
0.0
 13
118.023531
 23
480.55674
 33
0.0
  0
SOLID
  5
6EE
330
6E9
100
AcDbEntity
  8
LC-002-003-----0
 62
     2
100
AcDbTrace
 10
390.023531
 20
475.890073
 30
0.0
 11
390.023531
 21
485.223407
 31
0.0
 12
418.023531
 22
480.55674
 32
0.0
 13
418.023531
 23
480.55674
 33
0.0
  0
MTEXT
  5
6EF
330
6E9
100
AcDbEntity
  8
LC-002-003-----0
 62
     2
100
AcDbMText
 10
265.284577
 20
511.35674
 30
0.0
 40
28.0
 41
0.0
 71
     5
 72
     1
  1
%%c\A1;300
  7
LCTX15-400-0-0pDIN-Schrift
 73
     1
 44
1.0
  0
POINT
  5
6F0
330
6E9
100
AcDbEntity
  8
Defpoints
 62
     0
100
AcDbPoint
 10
118.023531
 20
384.169043
 30
0.0
  0
POINT
  5
6F1
330
6E9
100
AcDbEntity
  8
Defpoints
 62
     0
100
AcDbPoint
 10
418.023531
 20
384.169043
 30
0.0
  0
POINT
  5
6F2
330
6E9
100
AcDbEntity
  8
Defpoints
 62
     0
100
AcDbPoint
 10
418.023531
 20
480.55674
 30
0.0
  0
ENDBLK
  5
6F4
330
6E9
100
AcDbEntity
  8
0
100
AcDbBlockEnd
  0
BLOCK
  5
700
330
6F6
100
AcDbEntity
  8
0
100
AcDbBlockBegin
  2
*D63
 70
     1
 71
     0
 10
0.0
 20
0.0
 30
0.0
  3
*D63
  1

  0
LINE
  5
6F7
330
6F6
100
AcDbEntity
  8
LC-002-003-----0
 62
     2
370
    -2
100
AcDbLine
 10
153.523531
 20
261.356581
 30
0.0
 11
153.523531
 21
333.38766
 31
0.0
  0
LINE
  5
6F8
330
6F6
100
AcDbEntity
  8
LC-002-003-----0
 62
     2
370
    -2
100
AcDbLine
 10
382.523531
 20
261.356581
 30
0.0
 11
382.523531
 21
333.38766
 31
0.0
  0
LINE
  5
6F9
330
6F6
100
AcDbEntity
  8
LC-002-003-----0
 62
     2
370
    -2
100
AcDbLine
 10
181.523531
 20
329.78766
 30
0.0
 11
354.523531
 21
329.78766
 31
0.0
  0
SOLID
  5
6FA
330
6F6
100
AcDbEntity
  8
LC-002-003-----0
 62
     2
100
AcDbTrace
 10
181.523531
 20
334.454327
 30
0.0
 11
181.523531
 21
325.120993
 31
0.0
 12
153.523531
 22
329.78766
 32
0.0
 13
153.523531
 23
329.78766
 33
0.0
  0
SOLID
  5
6FB
330
6F6
100
AcDbEntity
  8
LC-002-003-----0
 62
     2
100
AcDbTrace
 10
354.523531
 20
325.120993
 30
0.0
 11
354.523531
 21
334.454327
 31
0.0
 12
382.523531
 22
329.78766
 32
0.0
 13
382.523531
 23
329.78766
 33
0.0
  0
MTEXT
  5
6FC
330
6F6
100
AcDbEntity
  8
LC-002-003-----0
 62
     2
100
AcDbMText
 10
260.920068
 20
360.58766
 30
0.0
 40
28.0
 41
0.0
 71
     5
 72
     1
  1
\A1;%%c230
  7
LCTX15-400-0-0pDIN-Schrift
 73
     1
 44
1.0
  0
POINT
  5
6FD
330
6F6
100
AcDbEntity
  8
Defpoints
 62
     0
100
AcDbPoint
 10
153.523531
 20
261.356581
 30
0.0
  0
POINT
  5
6FE
330
6F6
100
AcDbEntity
  8
Defpoints
 62
     0
100
AcDbPoint
 10
382.523531
 20
261.356581
 30
0.0
  0
POINT
  5
6FF
330
6F6
100
AcDbEntity
  8
Defpoints
 62
     0
100
AcDbPoint
 10
382.523531
 20
329.78766
 30
0.0
  0
ENDBLK
  5
701
330
6F6
100
AcDbEntity
  8
0
100
AcDbBlockEnd
  0
BLOCK
  5
70D
330
703
100
AcDbEntity
  8
0
100
AcDbBlockBegin
  2
*D64
 70
     1
 71
     0
 10
0.0
 20
0.0
 30
0.0
  3
*D64
  1

  0
LINE
  5
704
330
703
100
AcDbEntity
  8
LC-002-003-----0
 62
     2
370
    -2
100
AcDbLine
 10
213.023531
 20
241.169043
 30
0.0
 11
213.023531
 21
290.31078
 31
0.0
  0
LINE
  5
705
330
703
100
AcDbEntity
  8
LC-002-003-----0
 62
     2
370
    -2
100
AcDbLine
 10
323.023531
 20
241.169043
 30
0.0
 11
323.023531
 21
290.31078
 31
0.0
  0
LINE
  5
706
330
703
100
AcDbEntity
  8
LC-002-003-----0
 62
     2
370
    -2
100
AcDbLine
 10
241.023531
 20
286.71078
 30
0.0
 11
295.023531
 21
286.71078
 31
0.0
  0
SOLID
  5
707
330
703
100
AcDbEntity
  8
LC-002-003-----0
 62
     2
100
AcDbTrace
 10
241.023531
 20
291.377447
 30
0.0
 11
241.023531
 21
282.044113
 31
0.0
 12
213.023531
 22
286.71078
 32
0.0
 13
213.023531
 23
286.71078
 33
0.0
  0
SOLID
  5
708
330
703
100
AcDbEntity
  8
LC-002-003-----0
 62
     2
100
AcDbTrace
 10
295.023531
 20
282.044113
 30
0.0
 11
295.023531
 21
291.377447
 31
0.0
 12
323.023531
 22
286.71078
 32
0.0
 13
323.023531
 23
286.71078
 33
0.0
  0
MTEXT
  5
709
330
703
100
AcDbEntity
  8
LC-002-003-----0
 62
     2
100
AcDbMText
 10
266.157478
 20
317.51078
 30
0.0
 40
28.0
 41
0.0
 71
     5
 72
     1
  1
%%c\A1;110
  7
LCTX15-400-0-0pDIN-Schrift
 73
     1
 44
1.0
  0
POINT
  5
70A
330
703
100
AcDbEntity
  8
Defpoints
 62
     0
100
AcDbPoint
 10
213.023531
 20
241.169043
 30
0.0
  0
POINT
  5
70B
330
703
100
AcDbEntity
  8
Defpoints
 62
     0
100
AcDbPoint
 10
323.023531
 20
241.169043
 30
0.0
  0
POINT
  5
70C
330
703
100
AcDbEntity
  8
Defpoints
 62
     0
100
AcDbPoint
 10
323.023531
 20
286.71078
 30
0.0
  0
ENDBLK
  5
70E
330
703
100
AcDbEntity
  8
0
100
AcDbBlockEnd
  0
BLOCK
  5
71B
330
710
100
AcDbEntity
  8
0
100
AcDbBlockBegin
  2
*D65
 70
     1
 71
     0
 10
0.0
 20
0.0
 30
0.0
  3
*D65
  1

  0
LINE
  5
711
330
710
100
AcDbEntity
  8
LC-002-003-----0
 62
     2
370
    -2
100
AcDbLine
 10
243.023531
 20
117.669043
 30
0.0
 11
243.023531
 21
85.7721
 31
0.0
  0
LINE
  5
712
330
710
100
AcDbEntity
  8
LC-002-003-----0
 62
     2
370
    -2
100
AcDbLine
 10
293.023531
 20
117.669043
 30
0.0
 11
293.023531
 21
85.7721
 31
0.0
  0
LINE
  5
713
330
710
100
AcDbEntity
  8
LC-002-003-----0
 62
     2
370
    -2
100
AcDbLine
 10
215.023531
 20
89.3721
 30
0.0
 11
187.023531
 21
89.3721
 31
0.0
  0
LINE
  5
714
330
710
100
AcDbEntity
  8
LC-002-003-----0
 62
     2
370
    -2
100
AcDbLine
 10
321.023531
 20
89.3721
 30
0.0
 11
424.798553
 21
89.3721
 31
0.0
  0
SOLID
  5
715
330
710
100
AcDbEntity
  8
LC-002-003-----0
 62
     2
100
AcDbTrace
 10
215.023531
 20
84.705433
 30
0.0
 11
215.023531
 21
94.038767
 31
0.0
 12
243.023531
 22
89.3721
 32
0.0
 13
243.023531
 23
89.3721
 33
0.0
  0
SOLID
  5
716
330
710
100
AcDbEntity
  8
LC-002-003-----0
 62
     2
100
AcDbTrace
 10
321.023531
 20
94.038767
 30
0.0
 11
321.023531
 21
84.705433
 31
0.0
 12
293.023531
 22
89.3721
 32
0.0
 13
293.023531
 23
89.3721
 33
0.0
  0
MTEXT
  5
717
330
710
100
AcDbEntity
  8
LC-002-003-----0
 62
     2
100
AcDbMText
 10
378.761795
 20
120.1721
 30
0.0
 40
28.0
 41
0.0
 71
     5
 72
     1
  1
\A1;DN50
  7
LCTX15-400-0-0pDIN-Schrift
 73
     1
 44
1.0
  0
POINT
  5
718
330
710
100
AcDbEntity
  8
Defpoints
 62
     0
100
AcDbPoint
 10
243.023531
 20
117.669043
 30
0.0
  0
POINT
  5
719
330
710
100
AcDbEntity
  8
Defpoints
 62
     0
100
AcDbPoint
 10
293.023531
 20
117.669043
 30
0.0
  0
POINT
  5
71A
330
710
100
AcDbEntity
  8
Defpoints
 62
     0
100
AcDbPoint
 10
293.023531
 20
89.3721
 30
0.0
  0
ENDBLK
  5
71C
330
710
100
AcDbEntity
  8
0
100
AcDbBlockEnd
  0
BLOCK
  5
729
330
71E
100
AcDbEntity
  8
0
100
AcDbBlockBegin
  2
*D66
 70
     1
 71
     0
 10
0.0
 20
0.0
 30
0.0
  3
*D66
  1

  0
LINE
  5
71F
330
71E
100
AcDbEntity
  8
LC-002-003-----0
 62
     2
370
    -2
100
AcDbLine
 10
213.023531
 20
190.307787
 30
0.0
 11
213.023531
 21
138.74502
 31
0.0
  0
LINE
  5
720
330
71E
100
AcDbEntity
  8
LC-002-003-----0
 62
     2
370
    -2
100
AcDbLine
 10
323.023531
 20
192.544714
 30
0.0
 11
323.023531
 21
138.74502
 31
0.0
  0
LINE
  5
721
330
71E
100
AcDbEntity
  8
LC-002-003-----0
 62
     2
370
    -2
100
AcDbLine
 10
241.023531
 20
142.34502
 30
0.0
 11
295.023531
 21
142.34502
 31
0.0
  0
LINE
  5
722
330
71E
100
AcDbEntity
  8
LC-002-003-----0
 62
     2
370
    -2
100
AcDbLine
 10
323.023531
 20
142.34502
 30
0.0
 11
377.374092
 21
142.34502
 31
0.0
  0
SOLID
  5
723
330
71E
100
AcDbEntity
  8
LC-002-003-----0
 62
     2
100
AcDbTrace
 10
241.023531
 20
147.011687
 30
0.0
 11
241.023531
 21
137.678353
 31
0.0
 12
213.023531
 22
142.34502
 32
0.0
 13
213.023531
 23
142.34502
 33
0.0
  0
SOLID
  5
724
330
71E
100
AcDbEntity
  8
LC-002-003-----0
 62
     2
100
AcDbTrace
 10
295.023531
 20
137.678353
 30
0.0
 11
295.023531
 21
147.011687
 31
0.0
 12
323.023531
 22
142.34502
 32
0.0
 13
323.023531
 23
142.34502
 33
0.0
  0
MTEXT
  5
725
330
71E
100
AcDbEntity
  8
LC-002-003-----0
 62
     2
100
AcDbMText
 10
347.337335
 20
173.14502
 30
0.0
 40
28.0
 41
0.0
 71
     5
 72
     1
  1
%%c\A1;110
  7
LCTX15-400-0-0pDIN-Schrift
 73
     1
 44
1.0
  0
POINT
  5
726
330
71E
100
AcDbEntity
  8
Defpoints
 62
     0
100
AcDbPoint
 10
213.023531
 20
190.307787
 30
0.0
  0
POINT
  5
727
330
71E
100
AcDbEntity
  8
Defpoints
 62
     0
100
AcDbPoint
 10
323.023531
 20
192.544714
 30
0.0
  0
POINT
  5
728
330
71E
100
AcDbEntity
  8
Defpoints
 62
     0
100
AcDbPoint
 10
323.023531
 20
142.34502
 30
0.0
  0
ENDBLK
  5
72A
330
71E
100
AcDbEntity
  8
0
100
AcDbBlockEnd
  0
BLOCK
  5
737
330
72C
100
AcDbEntity
  8
0
100
AcDbBlockBegin
  2
*D67
 70
     1
 71
     0
 10
0.0
 20
0.0
 30
0.0
  3
*D67
  1

  0
LINE
  5
72D
330
72C
100
AcDbEntity
  8
LC-002-003-----0
 62
     2
370
    -2
100
AcDbLine
 10
205.023531
 20
232.169043
 30
0.0
 11
205.023531
 21
187.6431
 31
0.0
  0
LINE
  5
72E
330
72C
100
AcDbEntity
  8
LC-002-003-----0
 62
     2
370
    -2
100
AcDbLine
 10
331.023531
 20
232.169043
 30
0.0
 11
331.023531
 21
187.6431
 31
0.0
  0
LINE
  5
72F
330
72C
100
AcDbEntity
  8
LC-002-003-----0
 62
     2
370
    -2
100
AcDbLine
 10
233.023531
 20
191.2431
 30
0.0
 11
303.023531
 21
191.2431
 31
0.0
  0
LINE
  5
730
330
72C
100
AcDbEntity
  8
LC-002-003-----0
 62
     2
370
    -2
100
AcDbLine
 10
331.023531
 20
191.2431
 30
0.0
 11
392.392054
 21
191.2431
 31
0.0
  0
SOLID
  5
731
330
72C
100
AcDbEntity
  8
LC-002-003-----0
 62
     2
100
AcDbTrace
 10
233.023531
 20
195.909767
 30
0.0
 11
233.023531
 21
186.576433
 31
0.0
 12
205.023531
 22
191.2431
 32
0.0
 13
205.023531
 23
191.2431
 33
0.0
  0
SOLID
  5
732
330
72C
100
AcDbEntity
  8
LC-002-003-----0
 62
     2
100
AcDbTrace
 10
303.023531
 20
186.576433
 30
0.0
 11
303.023531
 21
195.909767
 31
0.0
 12
331.023531
 22
191.2431
 32
0.0
 13
331.023531
 23
191.2431
 33
0.0
  0
MTEXT
  5
733
330
72C
100
AcDbEntity
  8
LC-002-003-----0
 62
     2
100
AcDbMText
 10
362.176663
 20
222.0431
 30
0.0
 40
28.0
 41
0.0
 71
     5
 72
     1
  1
%%c\A1;126
  7
LCTX15-400-0-0pDIN-Schrift
 73
     1
 44
1.0
  0
POINT
  5
734
330
72C
100
AcDbEntity
  8
Defpoints
 62
     0
100
AcDbPoint
 10
205.023531
 20
232.169043
 30
0.0
  0
POINT
  5
735
330
72C
100
AcDbEntity
  8
Defpoints
 62
     0
100
AcDbPoint
 10
331.023531
 20
232.169043
 30
0.0
  0
POINT
  5
736
330
72C
100
AcDbEntity
  8
Defpoints
 62
     0
100
AcDbPoint
 10
331.023531
 20
191.2431
 30
0.0
  0
ENDBLK
  5
738
330
72C
100
AcDbEntity
  8
0
100
AcDbBlockEnd
  0
BLOCK
  5
744
330
73A
100
AcDbEntity
  8
0
100
AcDbBlockBegin
  2
*D68
 70
     1
 71
     0
 10
0.0
 20
0.0
 30
0.0
  3
*D68
  1

  0
LINE
  5
73B
330
73A
100
AcDbEntity
  8
LC-002-003-----0
 62
     2
370
    -2
100
AcDbLine
 10
155.589784
 20
264.838459
 30
0.0
 11
38.221746
 21
264.838459
 31
0.0
  0
LINE
  5
73C
330
73A
100
AcDbEntity
  8
LC-002-003-----0
 62
     2
370
    -2
100
AcDbLine
 10
219.26339
 20
172.169043
 30
0.0
 11
38.221746
 21
172.169043
 31
0.0
  0
LINE
  5
73D
330
73A
100
AcDbEntity
  8
LC-002-003-----0
 62
     2
370
    -2
100
AcDbLine
 10
41.821746
 20
236.838459
 30
0.0
 11
41.821746
 21
200.169043
 31
0.0
  0
SOLID
  5
73E
330
73A
100
AcDbEntity
  8
LC-002-003-----0
 62
     2
100
AcDbTrace
 10
46.488413
 20
236.838459
 30
0.0
 11
37.15508
 21
236.838459
 31
0.0
 12
41.821746
 22
264.838459
 32
0.0
 13
41.821746
 23
264.838459
 33
0.0
  0
SOLID
  5
73F
330
73A
100
AcDbEntity
  8
LC-002-003-----0
 62
     2
100
AcDbTrace
 10
37.15508
 20
200.169043
 30
0.0
 11
46.488413
 21
200.169043
 31
0.0
 12
41.821746
 22
172.169043
 32
0.0
 13
41.821746
 23
172.169043
 33
0.0
  0
MTEXT
  5
740
330
73A
100
AcDbEntity
  8
LC-002-003-----0
 62
     2
100
AcDbMText
 10
11.021746
 20
213.94578
 30
0.0
 40
28.0
 41
0.0
 71
     5
 72
     1
  1
\A1;93
  7
LCTX15-400-0-0pDIN-Schrift
 11
6.123031769111886E-17
 21
1.0
 31
0.0
 73
     1
 44
1.0
  0
POINT
  5
741
330
73A
100
AcDbEntity
  8
Defpoints
 62
     0
100
AcDbPoint
 10
155.589784
 20
264.838459
 30
0.0
  0
POINT
  5
742
330
73A
100
AcDbEntity
  8
Defpoints
 62
     0
100
AcDbPoint
 10
219.26339
 20
172.169043
 30
0.0
  0
POINT
  5
743
330
73A
100
AcDbEntity
  8
Defpoints
 62
     0
100
AcDbPoint
 10
41.821746
 20
172.169043
 30
0.0
  0
ENDBLK
  5
745
330
73A
100
AcDbEntity
  8
0
100
AcDbBlockEnd
  0
BLOCK
  5
753
330
747
100
AcDbEntity
  8
0
100
AcDbBlockBegin
  2
*D69
 70
     1
 71
     0
 10
0.0
 20
0.0
 30
0.0
  3
*D69
  1

  0
LINE
  5
748
330
747
100
AcDbEntity
  8
LC-002-003-----0
 62
     2
370
    -2
100
AcDbLine
 10
221.825555
 20
172.169043
 30
0.0
 11
86.231339
 21
172.169043
 31
0.0
  0
LINE
  5
749
330
747
100
AcDbEntity
  8
LC-002-003-----0
 62
     2
370
    -2
100
AcDbLine
 10
246.023531
 20
114.169043
 30
0.0
 11
86.231339
 21
114.169043
 31
0.0
  0
LINE
  5
74A
330
747
100
AcDbEntity
  8
LC-002-003-----0
 62
     2
370
    -2
100
AcDbLine
 10
89.831339
 20
200.169043
 30
0.0
 11
89.831339
 21
228.169043
 31
0.0
  0
LINE
  5
74B
330
747
100
AcDbEntity
  8
LC-002-003-----0
 62
     2
370
    -2
100
AcDbLine
 10
89.831339
 20
86.169043
 30
0.0
 11
89.831339
 21
58.169043
 31
0.0
  0
LINE
  5
74C
330
747
100
AcDbEntity
  8
LC-002-003-----0
 62
     2
370
    -2
100
AcDbLine
 10
89.831339
 20
172.169043
 30
0.0
 11
89.831339
 21
114.169043
 31
0.0
  0
SOLID
  5
74D
330
747
100
AcDbEntity
  8
LC-002-003-----0
 62
     2
100
AcDbTrace
 10
85.164672
 20
200.169043
 30
0.0
 11
94.498006
 21
200.169043
 31
0.0
 12
89.831339
 22
172.169043
 32
0.0
 13
89.831339
 23
172.169043
 33
0.0
  0
SOLID
  5
74E
330
747
100
AcDbEntity
  8
LC-002-003-----0
 62
     2
100
AcDbTrace
 10
94.498006
 20
86.169043
 30
0.0
 11
85.164672
 21
86.169043
 31
0.0
 12
89.831339
 22
114.169043
 32
0.0
 13
89.831339
 23
114.169043
 33
0.0
  0
MTEXT
  5
74F
330
747
100
AcDbEntity
  8
LC-002-003-----0
 62
     2
100
AcDbMText
 10
59.031339
 20
125.46354
 30
0.0
 40
28.0
 41
0.0
 71
     5
 72
     1
  1
\A1;58
  7
LCTX15-400-0-0pDIN-Schrift
 11
6.123031769111886E-17
 21
1.0
 31
0.0
 73
     1
 44
1.0
  0
POINT
  5
750
330
747
100
AcDbEntity
  8
Defpoints
 62
     0
100
AcDbPoint
 10
221.825555
 20
172.169043
 30
0.0
  0
POINT
  5
751
330
747
100
AcDbEntity
  8
Defpoints
 62
     0
100
AcDbPoint
 10
246.023531
 20
114.169043
 30
0.0
  0
POINT
  5
752
330
747
100
AcDbEntity
  8
Defpoints
 62
     0
100
AcDbPoint
 10
89.831339
 20
114.169043
 30
0.0
  0
ENDBLK
  5
754
330
747
100
AcDbEntity
  8
0
100
AcDbBlockEnd
  0
BLOCK
  5
762
330
756
100
AcDbEntity
  8
0
100
AcDbBlockBegin
  2
*D70
 70
     1
 71
     0
 10
0.0
 20
0.0
 30
0.0
  3
*D70
  1

  0
LINE
  5
757
330
756
100
AcDbEntity
  8
LC-002-003-----0
 62
     2
370
    -2
100
AcDbLine
 10
228.523531
 20
186.669043
 30
0.0
 11
142.097046
 21
186.669043
 31
0.0
  0
LINE
  5
758
330
756
100
AcDbEntity
  8
LC-002-003-----0
 62
     2
370
    -2
100
AcDbLine
 10
243.523531
 20
236.669043
 30
0.0
 11
142.097046
 21
236.669043
 31
0.0
  0
LINE
  5
759
330
756
100
AcDbEntity
  8
LC-002-003-----0
 62
     2
370
    -2
100
AcDbLine
 10
145.697046
 20
158.669043
 30
0.0
 11
145.697046
 21
130.669043
 31
0.0
  0
LINE
  5
75A
330
756
100
AcDbEntity
  8
LC-002-003-----0
 62
     2
370
    -2
100
AcDbLine
 10
145.697046
 20
264.669043
 30
0.0
 11
145.697046
 21
292.669043
 31
0.0
  0
LINE
  5
75B
330
756
100
AcDbEntity
  8
LC-002-003-----0
 62
     2
370
    -2
100
AcDbLine
 10
145.697046
 20
186.669043
 30
0.0
 11
145.697046
 21
236.669043
 31
0.0
  0
SOLID
  5
75C
330
756
100
AcDbEntity
  8
LC-002-003-----0
 62
     2
100
AcDbTrace
 10
150.363713
 20
158.669043
 30
0.0
 11
141.03038
 21
158.669043
 31
0.0
 12
145.697046
 22
186.669043
 32
0.0
 13
145.697046
 23
186.669043
 33
0.0
  0
SOLID
  5
75D
330
756
100
AcDbEntity
  8
LC-002-003-----0
 62
     2
100
AcDbTrace
 10
141.03038
 20
264.669043
 30
0.0
 11
150.363713
 21
264.669043
 31
0.0
 12
145.697046
 22
236.669043
 32
0.0
 13
145.697046
 23
236.669043
 33
0.0
  0
MTEXT
  5
75E
330
756
100
AcDbEntity
  8
LC-002-003-----0
 62
     2
100
AcDbMText
 10
114.897046
 20
198.22854
 30
0.0
 40
28.0
 41
0.0
 71
     5
 72
     1
  1
\A1;50
  7
LCTX15-400-0-0pDIN-Schrift
 11
6.123031769111886E-17
 21
1.0
 31
0.0
 73
     1
 44
1.0
  0
POINT
  5
75F
330
756
100
AcDbEntity
  8
Defpoints
 62
     0
100
AcDbPoint
 10
228.523531
 20
186.669043
 30
0.0
  0
POINT
  5
760
330
756
100
AcDbEntity
  8
Defpoints
 62
     0
100
AcDbPoint
 10
243.523531
 20
236.669043
 30
0.0
  0
POINT
  5
761
330
756
100
AcDbEntity
  8
Defpoints
 62
     0
100
AcDbPoint
 10
145.697046
 20
236.669043
 30
0.0
  0
ENDBLK
  5
763
330
756
100
AcDbEntity
  8
0
100
AcDbBlockEnd
  0
ENDSEC
  0
SECTION
  2
ENTITIES
  0
LINE
  5
31
330
1F
100
AcDbEntity
  8
LC-001-100-D00-0
 62
     7
370
    50
100
AcDbLine
 10
259.023531
 20
-75.363996
 30
0.0
 11
256.273531
 21
-75.363996
 31
0.0
  0
LINE
  5
32
330
1F
100
AcDbEntity
  8
LC-001-100-D00-0
 62
     7
370
    50
100
AcDbLine
 10
279.773531
 20
-75.363996
 30
0.0
 11
277.023531
 21
-75.363996
 31
0.0
  0
ARC
  5
33
330
1F
100
AcDbEntity
  8
LC-001-100-D00-0
 62
     7
370
    50
100
AcDbCircle
 10
254.523531
 20
-58.113996
 30
0.0
 40
16.50000000000001
100
AcDbArc
 50
78.547943
 51
123.55731
  0
ARC
  5
34
330
1F
100
AcDbEntity
  8
LC-001-100-D00-0
 62
     7
370
    50
100
AcDbCircle
 10
281.523531
 20
-58.113996
 30
0.0
 40
16.5
100
AcDbArc
 50
56.44269
 51
101.452057
  0
LINE
  5
35
330
1F
100
AcDbEntity
  8
LC-001-100-D00-0
 62
     7
370
    50
100
AcDbLine
 10
221.923533
 20
-77.363996
 30
0.0
 11
221.923533
 21
-34.063997
 31
0.0
  0
ARC
  5
36
330
1F
100
AcDbEntity
  8
LC-001-100-D00-0
 62
     7
370
    50
100
AcDbCircle
 10
224.723531
 20
-34.063996
 30
0.0
 40
2.799999893266715
100
AcDbArc
 50
90.0
 51
180.0
  0
ARC
  5
37
330
1F
100
AcDbEntity
  8
LC-001-100-D00-0
 62
     7
370
    50
100
AcDbCircle
 10
224.723531
 20
-34.063996
 30
0.0
 40
6.700000445210335
100
AcDbArc
 50
90.0
 51
180.0
  0
LINE
  5
38
330
1F
100
AcDbEntity
  8
LC-001-100-D00-0
 62
     7
370
    50
100
AcDbLine
 10
311.32353
 20
-27.363995
 30
0.0
 11
224.723532
 21
-27.363995
 31
0.0
  0
LINE
  5
39
330
1F
100
AcDbEntity
  8
LC-001-100-D00-0
 62
     7
370
    50
100
AcDbLine
 10
318.023532
 20
-77.363996
 30
0.0
 11
318.023532
 21
-34.063997
 31
0.0
  0
LINE
  5
3A
330
1F
100
AcDbEntity
  8
LC-001-100-D00-0
 62
     7
370
    50
100
AcDbLine
 10
218.02353
 20
-77.363996
 30
0.0
 11
218.02353
 21
-34.063997
 31
0.0
  0
ARC
  5
3B
330
1F
100
AcDbEntity
  8
LC-001-100-D00-0
 62
     7
370
    50
100
AcDbCircle
 10
311.323531
 20
-34.063996
 30
0.0
 40
6.700000445210321
100
AcDbArc
 50
0.0
 51
90.0
  0
LINE
  5
3C
330
1F
100
AcDbEntity
  8
LC-001-100-D00-0
 62
     7
370
    50
100
AcDbLine
 10
311.32353
 20
-31.263998
 30
0.0
 11
224.723532
 21
-31.263998
 31
0.0
  0
ARC
  5
3D
330
1F
100
AcDbEntity
  8
LC-001-100-D00-0
 62
     7
370
    50
100
AcDbCircle
 10
311.323531
 20
-34.063996
 30
0.0
 40
2.799999893266715
100
AcDbArc
 50
0.0
 51
90.0
  0
LINE
  5
3E
330
1F
100
AcDbEntity
  8
LC-001-100-D00-0
 62
     7
370
    50
100
AcDbLine
 10
314.123529
 20
-77.363996
 30
0.0
 11
314.123529
 21
-34.063997
 31
0.0
  0
ARC
  5
3F
330
1F
100
AcDbEntity
  8
LC-001-100-D00-0
 62
     7
370
    50
100
AcDbCircle
 10
224.723531
 20
-34.063996
 30
0.0
 40
7.20000070326671
100
AcDbArc
 50
90.0
 51
180.0
  0
ARC
  5
40
330
1F
100
AcDbEntity
  8
LC-001-100-D00-0
 62
     7
370
    50
100
AcDbCircle
 10
311.323531
 20
-34.063996
 30
0.0
 40
7.20000070326671
100
AcDbArc
 50
0.0
 51
90.0
  0
LINE
  5
41
330
1F
100
AcDbEntity
  8
LC-001-100-D00-0
 62
     7
370
    50
100
AcDbLine
 10
311.32353
 20
-26.863994
 30
0.0
 11
224.723532
 21
-26.863994
 31
0.0
  0
LINE
  5
42
330
1F
100
AcDbEntity
  8
LC-001-100-D00-0
 62
     7
370
    50
100
AcDbLine
 10
318.523533
 20
-77.363996
 30
0.0
 11
318.523533
 21
-34.063997
 31
0.0
  0
LINE
  5
43
330
1F
100
AcDbEntity
  8
LC-001-100-D00-0
 62
     7
370
    50
100
AcDbLine
 10
217.523529
 20
-77.363996
 30
0.0
 11
217.523529
 21
-34.063997
 31
0.0
  0
INSERT
  5
51
330
1F
100
AcDbEntity
  8
LC-001-100-D00-0
 62
     7
370
    50
100
AcDbBlockReference
  2
POLY1
 10
0.0
 20
0.0
 30
0.0
  0
INSERT
  5
5F
330
1F
100
AcDbEntity
  8
LC-001-100-D00-0
 62
     7
370
    50
100
AcDbBlockReference
  2
POLY2
 10
0.0
 20
0.0
 30
0.0
  0
INSERT
  5
6D
330
1F
100
AcDbEntity
  8
LC-001-100-D00-0
 62
     7
370
    50
100
AcDbBlockReference
  2
POLY3
 10
0.0
 20
0.0
 30
0.0
  0
INSERT
  5
7B
330
1F
100
AcDbEntity
  8
LC-001-100-D00-0
 62
     7
370
    50
100
AcDbBlockReference
  2
POLY4
 10
0.0
 20
0.0
 30
0.0
  0
INSERT
  5
81
330
1F
100
AcDbEntity
  8
LC-001-100-D00-0
 62
     7
370
    50
100
AcDbBlockReference
  2
KLON1
 10
0.0
 20
0.0
 30
0.0
  0
INSERT
  5
87
330
1F
100
AcDbEntity
  8
LC-001-100-D00-0
 62
     7
370
    50
100
AcDbBlockReference
  2
KLON2
 10
0.0
 20
0.0
 30
0.0
  0
INSERT
  5
8D
330
1F
100
AcDbEntity
  8
LC-001-100-D00-0
 62
     7
370
    50
100
AcDbBlockReference
  2
KLON3
 10
0.0
 20
0.0
 30
0.0
  0
INSERT
  5
93
330
1F
100
AcDbEntity
  8
LC-001-100-D00-0
 62
     7
370
    50
100
AcDbBlockReference
  2
KLON4
 10
0.0
 20
0.0
 30
0.0
  0
ARC
  5
94
330
1F
100
AcDbEntity
  8
LC-001-100-D00-0
 62
     7
370
    50
100
AcDbCircle
 10
268.023531
 20
-77.363996
 30
0.0
 40
42.49999948020022
100
AcDbArc
 50
23.415512
 51
38.892145
  0
ARC
  5
95
330
1F
100
AcDbEntity
  8
LC-001-100-D00-0
 62
     7
370
    50
100
AcDbCircle
 10
268.023531
 20
-77.363996
 30
0.0
 40
42.4999994802002
100
AcDbArc
 50
51.107855
 51
66.584488
  0
ARC
  5
96
330
1F
100
AcDbEntity
  8
LC-001-100-D00-0
 62
     7
370
    50
100
AcDbCircle
 10
268.023531
 20
-77.363996
 30
0.0
 40
42.49999948020016
100
AcDbArc
 50
113.415512
 51
128.892145
  0
ARC
  5
97
330
1F
100
AcDbEntity
  8
LC-001-100-D00-0
 62
     7
370
    50
100
AcDbCircle
 10
268.023531
 20
-77.363996
 30
0.0
 40
42.49999948020012
100
AcDbArc
 50
141.107855
 51
156.584488
  0
ARC
  5
98
330
1F
100
AcDbEntity
  8
LC-001-100-D00-0
 62
     7
370
    50
100
AcDbCircle
 10
268.023531
 20
-77.363996
 30
0.0
 40
42.14972099999998
100
AcDbArc
 50
22.290439
 51
38.454497
  0
ARC
  5
99
330
1F
100
AcDbEntity
  8
LC-001-100-D00-0
 62
     7
370
    50
100
AcDbCircle
 10
268.023531
 20
-77.363996
 30
0.0
 40
42.14972100000006
100
AcDbArc
 50
51.545503
 51
67.709561
  0
ARC
  5
9A
330
1F
100
AcDbEntity
  8
LC-001-100-D00-0
 62
     7
370
    50
100
AcDbCircle
 10
268.023531
 20
-77.363996
 30
0.0
 40
42.14972100000001
100
AcDbArc
 50
112.290439
 51
128.454497
  0
ARC
  5
9B
330
1F
100
AcDbEntity
  8
LC-001-100-D00-0
 62
     7
370
    50
100
AcDbCircle
 10
268.023531
 20
-77.363996
 30
0.0
 40
42.14972099999992
100
AcDbArc
 50
141.545503
 51
157.709561
  0
ARC
  5
9C
330
1F
100
AcDbEntity
  8
LC-001-100-D00-0
 62
     7
370
    50
100
AcDbCircle
 10
256.273531
 20
-77.363996
 30
0.0
 40
2.0
100
AcDbArc
 50
90.0
 51
180.0
  0
ARC
  5
9D
330
1F
100
AcDbEntity
  8
LC-001-100-D00-0
 62
     7
370
    50
100
AcDbCircle
 10
279.773531
 20
-77.363996
 30
0.0
 40
2.000000000000284
100
AcDbArc
 50
0.0
 51
90.0
  0
ARC
  5
9E
330
1F
100
AcDbEntity
  8
LC-001-100-D00-0
 62
     7
370
    50
100
AcDbCircle
 10
268.023531
 20
-77.363996
 30
0.0
 40
39.49999999999996
100
AcDbArc
 50
146.661999
 51
170.873941
  0
ARC
  5
9F
330
1F
100
AcDbEntity
  8
LC-001-100-D00-0
 62
     7
370
    50
100
AcDbCircle
 10
268.023531
 20
-77.363996
 30
0.0
 40
39.5
100
AcDbArc
 50
99.126059
 51
117.36856
  0
ARC
  5
A0
330
1F
100
AcDbEntity
  8
LC-001-100-D00-0
 62
     7
370
    50
100
AcDbCircle
 10
268.023531
 20
-77.363996
 30
0.0
 40
39.50000000000001
100
AcDbArc
 50
62.63144
 51
80.873941
  0
ARC
  5
A1
330
1F
100
AcDbEntity
  8
LC-001-100-D00-0
 62
     7
370
    50
100
AcDbCircle
 10
268.023531
 20
-77.363996
 30
0.0
 40
39.50000000000003
100
AcDbArc
 50
9.126059
 51
33.338001
  0
ARC
  5
A2
330
1F
100
AcDbEntity
  8
LC-001-100-D00-0
 62
     7
370
    50
100
AcDbCircle
 10
256.023531
 20
-73.863996
 30
0.0
 40
3.000000000000114
100
AcDbArc
 50
0.0
 51
180.0
  0
LINE
  5
A3
330
1F
100
AcDbEntity
  8
LC-001-100-D00-0
 62
     7
370
    50
100
AcDbLine
 10
253.02353
 20
-73.863996
 30
0.0
 11
253.02353
 21
-77.363996
 31
0.0
  0
LINE
  5
A4
330
1F
100
AcDbEntity
  8
LC-001-100-D00-0
 62
     7
370
    50
100
AcDbLine
 10
277.023531
 20
-73.863996
 30
0.0
 11
277.023531
 21
-77.363996
 31
0.0
  0
LINE
  5
A5
330
1F
100
AcDbEntity
  8
LC-001-100-D00-0
 62
     7
370
    50
100
AcDbLine
 10
241.02353
 20
-62.363997
 30
0.0
 11
241.02353
 21
-77.363996
 31
0.0
  0
LINE
  5
A6
330
1F
100
AcDbEntity
  8
LC-001-100-D00-0
 62
     7
370
    50
100
AcDbLine
 10
259.023531
 20
-77.363996
 30
0.0
 11
259.023531
 21
-73.863996
 31
0.0
  0
LINE
  5
A7
330
1F
100
AcDbEntity
  8
LC-001-100-D00-0
 62
     7
370
    50
100
AcDbLine
 10
235.023531
 20
-77.363996
 30
0.0
 11
235.023531
 21
-51.363996
 31
0.0
  0
ARC
  5
A8
330
1F
100
AcDbEntity
  8
LC-001-100-D00-0
 62
     7
370
    50
100
AcDbCircle
 10
280.023531
 20
-73.863996
 30
0.0
 40
3.000000000000227
100
AcDbArc
 50
0.0
 51
180.0
  0
ARC
  5
A9
330
1F
100
AcDbEntity
  8
LC-001-100-D00-0
 62
     7
370
    50
100
AcDbCircle
 10
294.023531
 20
-41.363996
 30
0.0
 40
3.000000000000114
100
AcDbArc
 50
270.0
 51
90.0
  0
LINE
  5
AA
330
1F
100
AcDbEntity
  8
LC-001-100-D00-0
 62
     7
370
    50
100
AcDbLine
 10
294.023531
 20
-38.363995
 30
0.0
 11
242.02353
 21
-38.363995
 31
0.0
  0
ARC
  5
AB
330
1F
100
AcDbEntity
  8
LC-001-100-D00-0
 62
     7
370
    50
100
AcDbCircle
 10
232.023531
 20
-51.363996
 30
0.0
 40
3.0
100
AcDbArc
 50
0.0
 51
180.0
  0
LINE
  5
AC
330
1F
100
AcDbEntity
  8
LC-001-100-D00-0
 62
     7
370
    50
100
AcDbLine
 10
313.52353
 20
-34.363995
 30
0.0
 11
313.52353
 21
-77.363996
 31
0.0
  0
ARC
  5
AD
330
1F
100
AcDbEntity
  8
LC-001-100-D00-0
 62
     7
370
    50
100
AcDbCircle
 10
244.023531
 20
-62.363996
 30
0.0
 40
3.000000000000171
100
AcDbArc
 50
0.0
 51
180.0
  0
ARC
  5
AE
330
1F
100
AcDbEntity
  8
LC-001-100-D00-0
 62
     7
370
    50
100
AcDbCircle
 10
292.023531
 20
-62.363996
 30
0.0
 40
3.000000000000171
100
AcDbArc
 50
0.0
 51
180.0
  0
LINE
  5
AF
330
1F
100
AcDbEntity
  8
LC-001-100-D00-0
 62
     7
370
    50
100
AcDbLine
 10
247.023531
 20
-77.363996
 30
0.0
 11
247.023531
 21
-62.363997
 31
0.0
  0
LINE
  5
B0
330
1F
100
AcDbEntity
  8
LC-001-100-D00-0
 62
     7
370
    50
100
AcDbLine
 10
301.023531
 20
-51.363996
 30
0.0
 11
301.023531
 21
-77.363996
 31
0.0
  0
LINE
  5
B1
330
1F
100
AcDbEntity
  8
LC-001-100-D00-0
 62
     7
370
    50
100
AcDbLine
 10
289.023531
 20
-62.363997
 30
0.0
 11
289.023531
 21
-77.363996
 31
0.0
  0
LINE
  5
B2
330
1F
100
AcDbEntity
  8
LC-001-100-D00-0
 62
     7
370
    50
100
AcDbLine
 10
283.023532
 20
-77.363996
 30
0.0
 11
283.023532
 21
-73.863996
 31
0.0
  0
LINE
  5
B3
330
1F
100
AcDbEntity
  8
LC-001-100-D00-0
 62
     7
370
    50
100
AcDbLine
 10
222.523532
 20
-77.363996
 30
0.0
 11
222.523532
 21
-34.363995
 31
0.0
  0
LINE
  5
B4
330
1F
100
AcDbEntity
  8
LC-001-100-D00-0
 62
     7
370
    50
100
AcDbLine
 10
242.02353
 20
-44.363996
 30
0.0
 11
294.023531
 21
-44.363996
 31
0.0
  0
ARC
  5
B5
330
1F
100
AcDbEntity
  8
LC-001-100-D00-0
 62
     7
370
    50
100
AcDbCircle
 10
225.023531
 20
-34.363996
 30
0.0
 40
2.5
100
AcDbArc
 50
90.0
 51
180.0
  0
ARC
  5
B6
330
1F
100
AcDbEntity
  8
LC-001-100-D00-0
 62
     7
370
    50
100
AcDbCircle
 10
304.023531
 20
-51.363996
 30
0.0
 40
3.000000000000057
100
AcDbArc
 50
0.0
 51
180.0
  0
LINE
  5
B7
330
1F
100
AcDbEntity
  8
LC-001-100-D00-0
 62
     7
370
    50
100
AcDbLine
 10
225.023529
 20
-31.863997
 30
0.0
 11
311.023532
 21
-31.863997
 31
0.0
  0
LINE
  5
B8
330
1F
100
AcDbEntity
  8
LC-001-100-D00-0
 62
     7
370
    50
100
AcDbLine
 10
307.023532
 20
-77.363996
 30
0.0
 11
307.023532
 21
-51.363996
 31
0.0
  0
ARC
  5
B9
330
1F
100
AcDbEntity
  8
LC-001-100-D00-0
 62
     7
370
    50
100
AcDbCircle
 10
242.023531
 20
-41.363996
 30
0.0
 40
3.000000000000171
100
AcDbArc
 50
90.0
 51
270.0
  0
LINE
  5
BA
330
1F
100
AcDbEntity
  8
LC-001-100-D00-0
 62
     7
370
    50
100
AcDbLine
 10
253.02353
 20
-56.363996
 30
0.0
 11
283.023532
 21
-56.363996
 31
0.0
  0
ARC
  5
BB
330
1F
100
AcDbEntity
  8
LC-001-100-D00-0
 62
     7
370
    50
100
AcDbCircle
 10
283.023531
 20
-53.363996
 30
0.0
 40
3.0
100
AcDbArc
 50
270.0
 51
90.0
  0
LINE
  5
BC
330
1F
100
AcDbEntity
  8
LC-001-100-D00-0
 62
     7
370
    50
100
AcDbLine
 10
283.023532
 20
-50.363995
 30
0.0
 11
253.02353
 21
-50.363995
 31
0.0
  0
ARC
  5
BD
330
1F
100
AcDbEntity
  8
LC-001-100-D00-0
 62
     7
370
    50
100
AcDbCircle
 10
253.023531
 20
-53.363996
 30
0.0
 40
3.000000000000057
100
AcDbArc
 50
90.0
 51
270.0
  0
LINE
  5
BE
330
1F
100
AcDbEntity
  8
LC-001-100-D00-0
 62
     7
370
    50
100
AcDbLine
 10
229.02353
 20
-51.363996
 30
0.0
 11
229.02353
 21
-77.363996
 31
0.0
  0
ARC
  5
BF
330
1F
100
AcDbEntity
  8
LC-001-100-D00-0
 62
     7
370
    50
100
AcDbCircle
 10
311.023531
 20
-34.363996
 30
0.0
 40
2.500000000000227
100
AcDbArc
 50
0.0
 51
90.0
  0
LINE
  5
C0
330
1F
100
AcDbEntity
  8
LC-001-100-D00-0
 62
     7
370
    50
100
AcDbLine
 10
295.02353
 20
-77.363996
 30
0.0
 11
295.02353
 21
-62.363997
 31
0.0
  0
LINE
  5
C1
330
1F
100
AcDbEntity
  8
LC-001-100-D00-0
 62
     7
370
    50
100
AcDbLine
 10
273.023531
 20
-38.363995
 30
0.0
 11
273.023531
 21
-40.837126
 31
0.0
  0
LINE
  5
C2
330
1F
100
AcDbEntity
  8
LC-001-100-D00-0
 62
     7
370
    50
100
AcDbLine
 10
263.023531
 20
-38.363995
 30
0.0
 11
263.023531
 21
-40.837126
 31
0.0
  0
ARC
  5
C3
330
1F
100
AcDbEntity
  8
LC-001-100-D00-0
 62
     7
370
    50
100
AcDbCircle
 10
268.023531
 20
-77.363996
 30
0.0
 40
70.99999999999994
100
AcDbArc
 50
0.0
 51
180.0
  0
ARC
  5
C4
330
1F
100
AcDbEntity
  8
LC-001-100-D00-0
 62
     7
370
    50
100
AcDbCircle
 10
137.255223
 20
-36.514886
 30
0.0
 40
6.090074414334596
100
AcDbArc
 50
342.652357
 51
162.652357
  0
ARC
  5
C5
330
1F
100
AcDbEntity
  8
LC-001-100-D00-0
 62
     7
370
    50
100
AcDbCircle
 10
137.255223
 20
-36.514886
 30
0.0
 40
7.000000000000064
100
AcDbArc
 50
342.652357
 51
162.652357
  0
ARC
  5
C6
330
1F
100
AcDbEntity
  8
LC-001-100-D00-0
 62
     7
370
    50
100
AcDbCircle
 10
381.134761
 20
-0.066845
 30
0.0
 40
6.090074414334516
100
AcDbArc
 50
34.347643
 51
214.347643
  0
ARC
  5
C7
330
1F
100
AcDbEntity
  8
LC-001-100-D00-0
 62
     7
370
    50
100
AcDbCircle
 10
381.134761
 20
-0.066845
 30
0.0
 40
6.999999999999999
100
AcDbArc
 50
34.347643
 51
214.347643
  0
ARC
  5
C8
330
1F
100
AcDbEntity
  8
LC-001-100-D00-0
 62
     7
370
    50
100
AcDbCircle
 10
402.662588
 20
-52.039618
 30
0.0
 40
6.090074414334499
100
AcDbArc
 50
190.652357
 51
10.652357
  0
ARC
  5
C9
330
1F
100
AcDbEntity
  8
LC-001-100-D00-0
 62
     7
370
    50
100
AcDbCircle
 10
402.662588
 20
-52.039618
 30
0.0
 40
6.999999999999951
100
AcDbArc
 50
190.652357
 51
10.652357
  0
ARC
  5
CA
330
1F
100
AcDbEntity
  8
LC-001-100-D00-0
 62
     7
370
    50
100
AcDbCircle
 10
268.023531
 20
-77.363996
 30
0.0
 40
127.5000000000001
100
AcDbArc
 50
0.0
 51
180.0
  0
ARC
  5
CB
330
1F
100
AcDbEntity
  8
LC-001-100-D00-0
 62
     7
370
    50
100
AcDbCircle
 10
268.023531
 20
-77.363996
 30
0.0
 40
149.9999999999999
100
AcDbArc
 50
0.0
 51
180.0
  0
CIRCLE
  5
CC
330
1F
100
AcDbEntity
  8
LC-001-100-D00-0
 62
     7
370
    50
100
AcDbCircle
 10
268.023531
 20
59.636004
 30
0.0
 40
8.0
  0
CIRCLE
  5
CD
330
1F
100
AcDbEntity
  8
LC-001-100-D00-0
 62
     7
370
    50
100
AcDbCircle
 10
364.89716
 20
19.509633
 30
0.0
 40
8.0
  0
ARC
  5
CE
330
1F
100
AcDbEntity
  8
LC-001-100-D00-0
 62
     7
370
    50
100
AcDbCircle
 10
405.023531
 20
-77.363996
 30
0.0
 40
8.000000000000568
100
AcDbArc
 50
0.0
 51
180.0
  0
ARC
  5
CF
330
1F
100
AcDbEntity
  8
LC-001-100-D00-0
 62
     7
370
    50
100
AcDbCircle
 10
131.023531
 20
-77.363996
 30
0.0
 40
8.0
100
AcDbArc
 50
0.0
 51
180.0
  0
CIRCLE
  5
D0
330
1F
100
AcDbEntity
  8
LC-001-100-D00-0
 62
     7
370
    50
100
AcDbCircle
 10
171.149902
 20
19.509633
 30
0.0
 40
8.0
  0
ARC
  5
D1
330
1F
100
AcDbEntity
  8
LC-001-100-D00-0
 62
     7
370
    50
100
AcDbCircle
 10
293.347909
 20
57.275062
 30
0.0
 40
7.000000000000012
100
AcDbArc
 50
79.347643
 51
259.347643
  0
ARC
  5
D2
330
1F
100
AcDbEntity
  8
LC-001-100-D00-0
 62
     7
370
    50
100
AcDbCircle
 10
268.023531
 20
-77.363996
 30
0.0
 40
130.0
100
AcDbArc
 50
72.652357
 51
79.347643
  0
ARC
  5
D3
330
1F
100
AcDbEntity
  8
LC-001-100-D00-0
 62
     7
370
    50
100
AcDbCircle
 10
308.872641
 20
53.404311
 30
0.0
 40
7.000000000000035
100
AcDbArc
 50
252.652357
 51
72.652357
  0
ARC
  5
D4
330
1F
100
AcDbEntity
  8
LC-001-100-D00-0
 62
     7
370
    50
100
AcDbCircle
 10
268.023531
 20
-77.363996
 30
0.0
 40
144.0000000000001
100
AcDbArc
 50
72.652357
 51
79.347643
  0
ARC
  5
D5
330
1F
100
AcDbEntity
  8
LC-001-100-D00-0
 62
     7
370
    50
100
AcDbCircle
 10
331.606005
 20
43.987843
 30
0.0
 40
7.000000000000028
100
AcDbArc
 50
62.347643
 51
242.347643
  0
ARC
  5
D6
330
1F
100
AcDbEntity
  8
LC-001-100-D00-0
 62
     7
370
    50
100
AcDbCircle
 10
268.023531
 20
-77.363996
 30
0.0
 40
130.0000000000001
100
AcDbArc
 50
55.652357
 51
62.347643
  0
ARC
  5
D7
330
1F
100
AcDbEntity
  8
LC-001-100-D00-0
 62
     7
370
    50
100
AcDbCircle
 10
345.320682
 20
35.747234
 30
0.0
 40
7.000000000000022
100
AcDbArc
 50
235.652357
 51
55.652357
  0
ARC
  5
D8
330
1F
100
AcDbEntity
  8
LC-001-100-D00-0
 62
     7
370
    50
100
AcDbCircle
 10
268.023531
 20
-77.363996
 30
0.0
 40
144.0000000000001
100
AcDbArc
 50
55.652357
 51
62.347643
  0
ARC
  5
D9
330
1F
100
AcDbEntity
  8
LC-001-100-D00-0
 62
     7
370
    50
100
AcDbCircle
 10
268.023531
 20
-77.363996
 30
0.0
 40
130.0000000000001
100
AcDbArc
 50
27.652357
 51
34.347643
  0
ARC
  5
DA
330
1F
100
AcDbEntity
  8
LC-001-100-D00-0
 62
     7
370
    50
100
AcDbCircle
 10
389.37537
 20
-13.781522
 30
0.0
 40
7.00000000000006
100
AcDbArc
 50
207.652357
 51
27.652357
  0
ARC
  5
DB
330
1F
100
AcDbEntity
  8
LC-001-100-D00-0
 62
     7
370
    50
100
AcDbCircle
 10
268.023531
 20
-77.363996
 30
0.0
 40
144.0000000000001
100
AcDbArc
 50
27.652357
 51
34.347643
  0
ARC
  5
DC
330
1F
100
AcDbEntity
  8
LC-001-100-D00-0
 62
     7
370
    50
100
AcDbCircle
 10
398.791838
 20
-36.514886
 30
0.0
 40
7.000000000000121
100
AcDbArc
 50
17.347643
 51
197.347643
  0
ARC
  5
DD
330
1F
100
AcDbEntity
  8
LC-001-100-D00-0
 62
     7
370
    50
100
AcDbCircle
 10
268.023531
 20
-77.363996
 30
0.0
 40
130.0000000000001
100
AcDbArc
 50
10.652357
 51
17.347643
  0
ARC
  5
DE
330
1F
100
AcDbEntity
  8
LC-001-100-D00-0
 62
     7
370
    50
100
AcDbCircle
 10
268.023531
 20
-77.363996
 30
0.0
 40
144.0000000000002
100
AcDbArc
 50
10.652357
 51
17.347643
  0
ARC
  5
DF
330
1F
100
AcDbEntity
  8
LC-001-100-D00-0
 62
     7
370
    50
100
AcDbCircle
 10
133.384473
 20
-52.039618
 30
0.0
 40
7.000000000000035
100
AcDbArc
 50
169.347643
 51
349.347643
  0
ARC
  5
E0
330
1F
100
AcDbEntity
  8
LC-001-100-D00-0
 62
     7
370
    50
100
AcDbCircle
 10
268.023531
 20
-77.363996
 30
0.0
 40
130.0
100
AcDbArc
 50
162.652357
 51
169.347643
  0
ARC
  5
E1
330
1F
100
AcDbEntity
  8
LC-001-100-D00-0
 62
     7
370
    50
100
AcDbCircle
 10
268.023531
 20
-77.363996
 30
0.0
 40
144.0
100
AcDbArc
 50
162.652357
 51
169.347643
  0
ARC
  5
E2
330
1F
100
AcDbEntity
  8
LC-001-100-D00-0
 62
     7
370
    50
100
AcDbCircle
 10
146.671691
 20
-13.781522
 30
0.0
 40
7.000000000000052
100
AcDbArc
 50
152.347643
 51
332.347643
  0
ARC
  5
E3
330
1F
100
AcDbEntity
  8
LC-001-100-D00-0
 62
     7
370
    50
100
AcDbCircle
 10
268.023531
 20
-77.363996
 30
0.0
 40
130.0
100
AcDbArc
 50
145.652357
 51
152.347643
  0
ARC
  5
E4
330
1F
100
AcDbEntity
  8
LC-001-100-D00-0
 62
     7
370
    50
100
AcDbCircle
 10
154.9123
 20
-0.066845
 30
0.0
 40
7.000000000000015
100
AcDbArc
 50
325.652357
 51
145.652357
  0
ARC
  5
E5
330
1F
100
AcDbEntity
  8
LC-001-100-D00-0
 62
     7
370
    50
100
AcDbCircle
 10
268.023531
 20
-77.363996
 30
0.0
 40
144.0
100
AcDbArc
 50
145.652357
 51
152.347643
  0
ARC
  5
E6
330
1F
100
AcDbEntity
  8
LC-001-100-D00-0
 62
     7
370
    50
100
AcDbCircle
 10
190.72638
 20
35.747234
 30
0.0
 40
7.000000000000022
100
AcDbArc
 50
124.347643
 51
304.347643
  0
ARC
  5
E7
330
1F
100
AcDbEntity
  8
LC-001-100-D00-0
 62
     7
370
    50
100
AcDbCircle
 10
268.023531
 20
-77.363996
 30
0.0
 40
130.0
100
AcDbArc
 50
117.652357
 51
124.347643
  0
ARC
  5
E8
330
1F
100
AcDbEntity
  8
LC-001-100-D00-0
 62
     7
370
    50
100
AcDbCircle
 10
204.441056
 20
43.987843
 30
0.0
 40
7.000000000000028
100
AcDbArc
 50
297.652357
 51
117.652357
  0
ARC
  5
E9
330
1F
100
AcDbEntity
  8
LC-001-100-D00-0
 62
     7
370
    50
100
AcDbCircle
 10
268.023531
 20
-77.363996
 30
0.0
 40
144.0
100
AcDbArc
 50
117.652357
 51
124.347643
  0
ARC
  5
EA
330
1F
100
AcDbEntity
  8
LC-001-100-D00-0
 62
     7
370
    50
100
AcDbCircle
 10
227.174421
 20
53.404311
 30
0.0
 40
7.000000000000008
100
AcDbArc
 50
107.347643
 51
287.347643
  0
ARC
  5
EB
330
1F
100
AcDbEntity
  8
LC-001-100-D00-0
 62
     7
370
    50
100
AcDbCircle
 10
268.023531
 20
-77.363996
 30
0.0
 40
130.0
100
AcDbArc
 50
100.652357
 51
107.347643
  0
ARC
  5
EC
330
1F
100
AcDbEntity
  8
LC-001-100-D00-0
 62
     7
370
    50
100
AcDbCircle
 10
242.699152
 20
57.275062
 30
0.0
 40
7.00000000000004
100
AcDbArc
 50
280.652357
 51
100.652357
  0
ARC
  5
ED
330
1F
100
AcDbEntity
  8
LC-001-100-D00-0
 62
     7
370
    50
100
AcDbCircle
 10
268.023531
 20
-77.363996
 30
0.0
 40
144.0000000000001
100
AcDbArc
 50
100.652357
 51
107.347643
  0
ARC
  5
EE
330
1F
100
AcDbEntity
  8
LC-001-100-D00-0
 62
     7
370
    50
100
AcDbCircle
 10
204.441056
 20
43.987843
 30
0.0
 40
6.090074414334529
100
AcDbArc
 50
297.652357
 51
117.652357
  0
ARC
  5
EF
330
1F
100
AcDbEntity
  8
LC-001-100-D00-0
 62
     7
370
    50
100
AcDbCircle
 10
268.023531
 20
-77.363996
 30
0.0
 40
143.0900744143345
100
AcDbArc
 50
117.652357
 51
124.347643
  0
ARC
  5
F0
330
1F
100
AcDbEntity
  8
LC-001-100-D00-0
 62
     7
370
    50
100
AcDbCircle
 10
268.023531
 20
-77.363996
 30
0.0
 40
130.9099255856656
100
AcDbArc
 50
55.652357
 51
62.347643
  0
ARC
  5
F1
330
1F
100
AcDbEntity
  8
LC-001-100-D00-0
 62
     7
370
    50
100
AcDbCircle
 10
331.606005
 20
43.987843
 30
0.0
 40
6.090074414334502
100
AcDbArc
 50
62.347643
 51
242.347643
  0
ARC
  5
F2
330
1F
100
AcDbEntity
  8
LC-001-100-D00-0
 62
     7
370
    50
100
AcDbCircle
 10
227.174421
 20
53.404311
 30
0.0
 40
6.09007441433447
100
AcDbArc
 50
107.347643
 51
287.347643
  0
ARC
  5
F3
330
1F
100
AcDbEntity
  8
LC-001-100-D00-0
 62
     7
370
    50
100
AcDbCircle
 10
268.023531
 20
-77.363996
 30
0.0
 40
130.9099255856656
100
AcDbArc
 50
27.652357
 51
34.347643
  0
ARC
  5
F4
330
1F
100
AcDbEntity
  8
LC-001-100-D00-0
 62
     7
370
    50
100
AcDbCircle
 10
268.023531
 20
-77.363996
 30
0.0
 40
130.9099255856655
100
AcDbArc
 50
117.652357
 51
124.347643
  0
ARC
  5
F5
330
1F
100
AcDbEntity
  8
LC-001-100-D00-0
 62
     7
370
    50
100
AcDbCircle
 10
190.72638
 20
35.747234
 30
0.0
 40
6.090074414334461
100
AcDbArc
 50
124.347643
 51
304.347643
  0
ARC
  5
F6
330
1F
100
AcDbEntity
  8
LC-001-100-D00-0
 62
     7
370
    50
100
AcDbCircle
 10
268.023531
 20
-77.363996
 30
0.0
 40
143.0900744143345
100
AcDbArc
 50
162.652357
 51
169.347643
  0
ARC
  5
F7
330
1F
100
AcDbEntity
  8
LC-001-100-D00-0
 62
     7
370
    50
100
AcDbCircle
 10
146.671691
 20
-13.781522
 30
0.0
 40
6.090074414334554
100
AcDbArc
 50
152.347643
 51
332.347643
  0
ARC
  5
F8
330
1F
100
AcDbEntity
  8
LC-001-100-D00-0
 62
     7
370
    50
100
AcDbCircle
 10
171.149902
 20
19.509633
 30
0.0
 40
7.33012701892218
100
AcDbArc
 50
334.941359
 51
295.058641
  0
ARC
  5
F9
330
1F
100
AcDbEntity
  8
LC-001-100-D00-0
 62
     7
370
    50
100
AcDbCircle
 10
268.023531
 20
-77.363996
 30
0.0
 40
143.0900744143345
100
AcDbArc
 50
100.652357
 51
107.347643
  0
ARC
  5
FA
330
1F
100
AcDbEntity
  8
LC-001-100-D00-0
 62
     7
370
    50
100
AcDbCircle
 10
242.699152
 20
57.275062
 30
0.0
 40
6.090074414334529
100
AcDbArc
 50
280.652357
 51
100.652357
  0
ARC
  5
FB
330
1F
100
AcDbEntity
  8
LC-001-100-D00-0
 62
     7
370
    50
100
AcDbCircle
 10
131.023531
 20
-77.363996
 30
0.0
 40
7.330127018922165
100
AcDbArc
 50
19.941359
 51
180.0
  0
ARC
  5
FC
330
1F
100
AcDbEntity
  8
LC-001-100-D00-0
 62
     7
370
    50
100
AcDbCircle
 10
268.023531
 20
-77.363996
 30
0.0
 40
130.9099255856656
100
AcDbArc
 50
10.652357
 51
17.347643
  0
ARC
  5
FD
330
1F
100
AcDbEntity
  8
LC-001-100-D00-0
 62
     7
370
    50
100
AcDbCircle
 10
268.023531
 20
-77.363996
 30
0.0
 40
130.9099255856656
100
AcDbArc
 50
145.652357
 51
152.347643
  0
ARC
  5
FE
330
1F
100
AcDbEntity
  8
LC-001-100-D00-0
 62
     7
370
    50
100
AcDbCircle
 10
268.023531
 20
-77.363996
 30
0.0
 40
143.0900744143346
100
AcDbArc
 50
10.652357
 51
17.347643
  0
ARC
  5
FF
330
1F
100
AcDbEntity
  8
LC-001-100-D00-0
 62
     7
370
    50
100
AcDbCircle
 10
398.791838
 20
-36.514886
 30
0.0
 40
6.090074414334532
100
AcDbArc
 50
17.347643
 51
197.347643
  0
ARC
  5
100
330
1F
100
AcDbEntity
  8
LC-001-100-D00-0
 62
     7
370
    50
100
AcDbCircle
 10
133.384473
 20
-52.039618
 30
0.0
 40
6.090074414334495
100
AcDbArc
 50
169.347643
 51
349.347643
  0
ARC
  5
101
330
1F
100
AcDbEntity
  8
LC-001-100-D00-0
 62
     7
370
    50
100
AcDbCircle
 10
268.023531
 20
-77.363996
 30
0.0
 40
130.9099255856656
100
AcDbArc
 50
162.652357
 51
169.347643
  0
ARC
  5
102
330
1F
100
AcDbEntity
  8
LC-001-100-D00-0
 62
     7
370
    50
100
AcDbCircle
 10
268.023531
 20
-77.363996
 30
0.0
 40
143.0900744143346
100
AcDbArc
 50
27.652357
 51
34.347643
  0
ARC
  5
103
330
1F
100
AcDbEntity
  8
LC-001-100-D00-0
 62
     7
370
    50
100
AcDbCircle
 10
293.347909
 20
57.275062
 30
0.0
 40
6.090074414334501
100
AcDbArc
 50
79.347643
 51
259.347643
  0
ARC
  5
104
330
1F
100
AcDbEntity
  8
LC-001-100-D00-0
 62
     7
370
    50
100
AcDbCircle
 10
268.023531
 20
-77.363996
 30
0.0
 40
130.9099255856655
100
AcDbArc
 50
72.652357
 51
79.347643
  0
ARC
  5
105
330
1F
100
AcDbEntity
  8
LC-001-100-D00-0
 62
     7
370
    50
100
AcDbCircle
 10
268.023531
 20
59.636004
 30
0.0
 40
7.330127018922228
100
AcDbArc
 50
289.941359
 51
250.058641
  0
ARC
  5
106
330
1F
100
AcDbEntity
  8
LC-001-100-D00-0
 62
     7
370
    50
100
AcDbCircle
 10
308.872641
 20
53.404311
 30
0.0
 40
6.090074414334541
100
AcDbArc
 50
252.652357
 51
72.652357
  0
ARC
  5
107
330
1F
100
AcDbEntity
  8
LC-001-100-D00-0
 62
     7
370
    50
100
AcDbCircle
 10
268.023531
 20
-77.363996
 30
0.0
 40
143.0900744143346
100
AcDbArc
 50
55.652357
 51
62.347643
  0
ARC
  5
108
330
1F
100
AcDbEntity
  8
LC-001-100-D00-0
 62
     7
370
    50
100
AcDbCircle
 10
345.320682
 20
35.747234
 30
0.0
 40
6.09007441433454
100
AcDbArc
 50
235.652357
 51
55.652357
  0
ARC
  5
109
330
1F
100
AcDbEntity
  8
LC-001-100-D00-0
 62
     7
370
    50
100
AcDbCircle
 10
389.37537
 20
-13.781522
 30
0.0
 40
6.090074414334604
100
AcDbArc
 50
207.652357
 51
27.652357
  0
ARC
  5
10A
330
1F
100
AcDbEntity
  8
LC-001-100-D00-0
 62
     7
370
    50
100
AcDbCircle
 10
268.023531
 20
-77.363996
 30
0.0
 40
143.0900744143345
100
AcDbArc
 50
145.652357
 51
152.347643
  0
ARC
  5
10B
330
1F
100
AcDbEntity
  8
LC-001-100-D00-0
 62
     7
370
    50
100
AcDbCircle
 10
405.023531
 20
-77.363996
 30
0.0
 40
7.330127018922553
100
AcDbArc
 50
0.0
 51
160.058641
  0
ARC
  5
10C
330
1F
100
AcDbEntity
  8
LC-001-100-D00-0
 62
     7
370
    50
100
AcDbCircle
 10
268.023531
 20
-77.363996
 30
0.0
 40
130.9099255856656
100
AcDbArc
 50
100.652357
 51
107.347643
  0
ARC
  5
10D
330
1F
100
AcDbEntity
  8
LC-001-100-D00-0
 62
     7
370
    50
100
AcDbCircle
 10
154.9123
 20
-0.066845
 30
0.0
 40
6.090074414334516
100
AcDbArc
 50
325.652357
 51
145.652357
  0
ARC
  5
10E
330
1F
100
AcDbEntity
  8
LC-001-100-D00-0
 62
     7
370
    50
100
AcDbCircle
 10
364.89716
 20
19.509633
 30
0.0
 40
7.330127018922219
100
AcDbArc
 50
244.941359
 51
205.058641
  0
ARC
  5
10F
330
1F
100
AcDbEntity
  8
LC-001-100-D00-0
 62
     7
370
    50
100
AcDbCircle
 10
268.023531
 20
-77.363996
 30
0.0
 40
143.0900744143345
100
AcDbArc
 50
72.652357
 51
79.347643
  0
LINE
  5
110
330
1F
100
AcDbEntity
  8
LC-001-100-D00-0
 62
     7
370
    50
100
AcDbLine
 10
400.837048
 20
-74.863996
 30
0.0
 11
398.132904
 21
-74.863996
 31
0.0
  0
INSERT
  5
120
330
1F
100
AcDbEntity
  8
LC-001-100-D00-0
 62
     7
370
    50
100
AcDbBlockReference
  2
POLY5
 10
0.0
 20
0.0
 30
0.0
  0
LINE
  5
121
330
1F
100
AcDbEntity
  8
LC-001-100-D00-0
 62
     7
370
    50
100
AcDbLine
 10
360.169097
 20
18.317105
 30
0.0
 11
358.25698
 21
16.404988
 31
0.0
  0
LINE
  5
122
330
1F
100
AcDbEntity
  8
LC-001-100-D00-0
 62
     7
370
    50
100
AcDbLine
 10
363.704636
 20
14.781573
 30
0.0
 11
361.792519
 21
12.869456
 31
0.0
  0
LINE
  5
123
330
1F
100
AcDbEntity
  8
LC-001-100-D00-0
 62
     7
370
    50
100
AcDbLine
 10
135.210021
 20
-74.863996
 30
0.0
 11
137.914157
 21
-74.863996
 31
0.0
  0
INSERT
  5
133
330
1F
100
AcDbEntity
  8
LC-001-100-D00-0
 62
     7
370
    50
100
AcDbBlockReference
  2
POLY6
 10
0.0
 20
0.0
 30
0.0
  0
LINE
  5
134
330
1F
100
AcDbEntity
  8
LC-001-100-D00-0
 62
     7
370
    50
100
AcDbLine
 10
172.342426
 20
14.781573
 30
0.0
 11
174.254543
 21
12.869456
 31
0.0
  0
LINE
  5
135
330
1F
100
AcDbEntity
  8
LC-001-100-D00-0
 62
     7
370
    50
100
AcDbLine
 10
175.877965
 20
18.317105
 30
0.0
 11
177.790082
 21
16.404988
 31
0.0
  0
LINE
  5
136
330
1F
100
AcDbEntity
  8
LC-001-100-D00-0
 62
     7
370
    50
100
AcDbLine
 10
270.52353
 20
55.449517
 30
0.0
 11
270.52353
 21
52.745374
 31
0.0
  0
LINE
  5
137
330
1F
100
AcDbEntity
  8
LC-001-100-D00-0
 62
     7
370
    50
100
AcDbLine
 10
265.52353
 20
55.449517
 30
0.0
 11
265.52353
 21
52.745374
 31
0.0
  0
INSERT
  5
147
330
1F
100
AcDbEntity
  8
LC-001-100-D00-0
 62
     7
370
    50
100
AcDbBlockReference
  2
POLY7
 10
0.0
 20
0.0
 30
0.0
  0
ARC
  5
148
330
1F
100
AcDbEntity
  8
LC-001-100-D00-0
 62
     7
370
    50
100
AcDbCircle
 10
405.023531
 20
-77.363996
 30
0.0
 40
4.918584287043814
100
AcDbArc
 50
0.0
 51
149.450915
  0
ARC
  5
149
330
1F
100
AcDbEntity
  8
LC-001-100-D00-0
 62
     7
370
    50
100
AcDbCircle
 10
364.89716
 20
19.509633
 30
0.0
 40
4.918584287042106
100
AcDbArc
 50
255.549085
 51
194.450915
  0
ARC
  5
14A
330
1F
100
AcDbEntity
  8
LC-001-100-D00-0
 62
     7
370
    50
100
AcDbCircle
 10
171.149902
 20
19.509633
 30
0.0
 40
4.918584287042051
100
AcDbArc
 50
345.549085
 51
284.450915
  0
ARC
  5
14B
330
1F
100
AcDbEntity
  8
LC-001-100-D00-0
 62
     7
370
    50
100
AcDbCircle
 10
131.023531
 20
-77.363996
 30
0.0
 40
4.918584287042137
100
AcDbArc
 50
30.549085
 51
180.0
  0
ARC
  5
14C
330
1F
100
AcDbEntity
  8
LC-001-100-D00-0
 62
     7
370
    50
100
AcDbCircle
 10
268.023531
 20
59.636004
 30
0.0
 40
4.918584287042088
100
AcDbArc
 50
300.549085
 51
239.450915
  0
ARC
  5
14D
330
1F
100
AcDbEntity
  8
LC-001-100-D00-0
 62
     7
370
    50
100
AcDbCircle
 10
268.023531
 20
-77.363996
 30
0.0
 40
82.96446609406729
100
AcDbArc
 50
0.0
 51
180.0
  0
ARC
  5
14E
330
1F
100
AcDbEntity
  8
LC-001-100-D00-0
 62
     7
370
    50
100
AcDbCircle
 10
268.023531
 20
-77.363996
 30
0.0
 40
77.46446609406723
100
AcDbArc
 50
0.0
 51
180.0
  0
INSERT
  5
15A
330
1F
100
AcDbEntity
  8
LC-001-100-D00-0
 62
     7
370
    50
100
AcDbBlockReference
  2
POLY8
 10
0.0
 20
0.0
 30
0.0
  0
LINE
  5
15B
330
1F
100
AcDbEntity
  8
LC-001-100-D00-0
 62
     7
370
    50
100
AcDbLine
 10
165.159521
 20
368.669043
 30
0.0
 11
165.630795
 21
366.910224
 31
0.0
  0
ARC
  5
15C
330
1F
100
AcDbEntity
  8
LC-001-100-D00-0
 62
     7
370
    50
100
AcDbCircle
 10
166.596721
 20
367.169043
 30
0.0
 40
1.00000000000003
100
AcDbArc
 50
195.0
 51
270.0
  0
ARC
  5
15D
330
1F
100
AcDbEntity
  8
LC-001-100-D00-0
 62
     7
370
    50
100
AcDbCircle
 10
175.23157
 20
367.169043
 30
0.0
 40
1.0
100
AcDbArc
 50
270.0
 51
349.026724
  0
LINE
  5
15E
330
1F
100
AcDbEntity
  8
LC-001-100-D00-0
 62
     7
370
    50
100
AcDbLine
 10
200.33664
 20
257.267448
 30
0.0
 11
200.023531
 21
257.444334
 31
0.0
  0
LINE
  5
15F
330
1F
100
AcDbEntity
  8
LC-001-100-D00-0
 62
     7
370
    50
100
AcDbLine
 10
200.33664
 20
254.267448
 30
0.0
 11
200.023531
 21
254.444334
 31
0.0
  0
LINE
  5
160
330
1F
100
AcDbEntity
  8
LC-001-100-D00-0
 62
     7
370
    50
100
AcDbLine
 10
200.33664
 20
248.267448
 30
0.0
 11
200.023531
 21
248.444334
 31
0.0
  0
INSERT
  5
16C
330
1F
100
AcDbEntity
  8
LC-001-100-D00-0
 62
     7
370
    50
100
AcDbBlockReference
  2
POLY9
 10
0.0
 20
0.0
 30
0.0
  0
LINE
  5
16D
330
1F
100
AcDbEntity
  8
LC-001-100-D00-0
 62
     7
370
    50
100
AcDbLine
 10
200.33664
 20
251.267448
 30
0.0
 11
200.023531
 21
251.444334
 31
0.0
  0
LINE
  5
16E
330
1F
100
AcDbEntity
  8
LC-001-100-D00-0
 62
     7
370
    50
100
AcDbLine
 10
195.791023
 20
251.577317
 30
0.0
 11
196.023531
 21
251.446895
 31
0.0
  0
LINE
  5
16F
330
1F
100
AcDbEntity
  8
LC-001-100-D00-0
 62
     7
370
    50
100
AcDbLine
 10
195.791023
 20
257.577317
 30
0.0
 11
196.023531
 21
257.446895
 31
0.0
  0
LINE
  5
170
330
1F
100
AcDbEntity
  8
LC-001-100-D00-0
 62
     7
370
    50
100
AcDbLine
 10
195.791023
 20
254.577317
 30
0.0
 11
196.023531
 21
254.446895
 31
0.0
  0
INSERT
  5
17C
330
1F
100
AcDbEntity
  8
LC-001-100-D00-0
 62
     7
370
    50
100
AcDbBlockReference
  2
POLY10
 10
0.0
 20
0.0
 30
0.0
  0
LINE
  5
17D
330
1F
100
AcDbEntity
  8
LC-001-100-D00-0
 62
     7
370
    50
100
AcDbLine
 10
195.791023
 20
248.577317
 30
0.0
 11
196.023531
 21
248.446895
 31
0.0
  0
LINE
  5
17E
330
1F
100
AcDbEntity
  8
LC-001-100-D00-0
 62
     7
370
    50
100
AcDbLine
 10
249.08648
 20
245.169043
 30
0.0
 11
268.011966
 21
245.169043
 31
0.0
  0
LINE
  5
17F
330
1F
100
AcDbEntity
  8
LC-001-100-D00-0
 62
     7
370
    50
100
AcDbLine
 10
268.043243
 20
245.169043
 30
0.0
 11
286.023531
 21
245.169043
 31
0.0
  0
LINE
  5
180
330
1F
100
AcDbEntity
  8
LC-001-100-D00-0
 62
     7
370
    50
100
AcDbLine
 10
237.580798
 20
428.456543
 30
0.0
 11
237.580798
 21
428.469043
 31
0.0
  0
ARC
  5
181
330
1F
100
AcDbEntity
  8
LC-001-100-D00-0
 62
     7
370
    50
100
AcDbCircle
 10
299.523531
 20
427.469043
 30
0.0
 40
1.000000000000008
100
AcDbArc
 50
120.0
 51
180.0
  0
ARC
  5
182
330
1F
100
AcDbEntity
  8
LC-001-100-D00-0
 62
     7
370
    50
100
AcDbCircle
 10
236.523531
 20
427.469043
 30
0.0
 40
1.000000000000057
100
AcDbArc
 50
0.0
 51
60.0
  0
LINE
  5
183
330
1F
100
AcDbEntity
  8
LC-001-100-D00-0
 62
     7
370
    50
100
AcDbLine
 10
298.523531
 20
425.969043
 30
0.0
 11
298.523531
 21
427.469043
 31
0.0
  0
LINE
  5
184
330
1F
100
AcDbEntity
  8
LC-001-100-D00-0
 62
     7
370
    50
100
AcDbLine
 10
237.523531
 20
427.469043
 30
0.0
 11
237.523531
 21
425.969043
 31
0.0
  0
INSERT
  5
192
330
1F
100
AcDbEntity
  8
LC-001-100-D00-0
 62
     7
370
    50
100
AcDbBlockReference
  2
POLY11
 10
0.0
 20
0.0
 30
0.0
  0
LINE
  5
193
330
1F
100
AcDbEntity
  8
LC-001-100-D00-0
 62
     7
370
    50
100
AcDbLine
 10
340.81662
 20
264.838459
 30
0.0
 11
340.81662
 21
264.938459
 31
0.0
  0
LINE
  5
194
330
1F
100
AcDbEntity
  8
LC-001-100-D00-0
 62
     7
370
    50
100
AcDbLine
 10
336.512303
 20
264.938459
 30
0.0
 11
336.512303
 21
264.838459
 31
0.0
  0
LINE
  5
195
330
1F
100
AcDbEntity
  8
LC-001-100-D00-0
 62
     7
370
    50
100
AcDbLine
 10
138.353658
 20
381.669043
 30
0.0
 11
139.023531
 21
384.169043
 31
0.0
  0
LINE
  5
196
330
1F
100
AcDbEntity
  8
LC-001-100-D00-0
 62
     7
370
    50
100
AcDbLine
 10
137.914159
 20
381.669043
 30
0.0
 11
123.693404
 21
381.669043
 31
0.0
  0
LINE
  5
197
330
1F
100
AcDbEntity
  8
LC-001-100-D00-0
 62
     7
370
    50
100
AcDbLine
 10
123.023531
 20
384.169043
 30
0.0
 11
123.693404
 21
381.669043
 31
0.0
  0
LINE
  5
198
330
1F
100
AcDbEntity
  8
LC-001-100-D00-0
 62
     7
370
    50
100
AcDbLine
 10
139.023531
 20
384.169043
 30
0.0
 11
123.023531
 21
384.169043
 31
0.0
  0
LINE
  5
199
330
1F
100
AcDbEntity
  8
LC-001-100-D00-0
 62
     7
370
    50
100
AcDbLine
 10
139.023531
 20
384.169043
 30
0.0
 11
140.523531
 21
384.169043
 31
0.0
  0
LINE
  5
19A
330
1F
100
AcDbEntity
  8
LC-001-100-D00-0
 62
     7
370
    50
100
AcDbLine
 10
140.523531
 20
383.669043
 30
0.0
 11
140.523531
 21
384.169043
 31
0.0
  0
LINE
  5
19B
330
1F
100
AcDbEntity
  8
LC-001-100-D00-0
 62
     7
370
    50
100
AcDbLine
 10
140.523531
 20
383.669043
 30
0.0
 11
184.851958
 21
383.669043
 31
0.0
  0
LINE
  5
19C
330
1F
100
AcDbEntity
  8
LC-001-100-D00-0
 62
     7
370
    50
100
AcDbLine
 10
184.851958
 20
383.669043
 30
0.0
 11
190.351958
 21
378.169043
 31
0.0
  0
LINE
  5
19D
330
1F
100
AcDbEntity
  8
LC-001-100-D00-0
 62
     7
370
    50
100
AcDbLine
 10
212.339883
 20
378.169043
 30
0.0
 11
190.351958
 21
378.169043
 31
0.0
  0
LINE
  5
19E
330
1F
100
AcDbEntity
  8
LC-001-100-D00-0
 62
     7
370
    50
100
AcDbLine
 10
212.778556
 20
375.098332
 30
0.0
 11
212.339883
 21
378.169043
 31
0.0
  0
LINE
  5
19F
330
1F
100
AcDbEntity
  8
LC-001-100-D00-0
 62
     7
370
    50
100
AcDbLine
 10
212.778556
 20
375.098332
 30
0.0
 11
213.273531
 21
375.169043
 31
0.0
  0
LINE
  5
1A0
330
1F
100
AcDbEntity
  8
LC-001-100-D00-0
 62
     7
370
    50
100
AcDbLine
 10
213.273531
 20
375.169043
 30
0.0
 11
214.423531
 21
375.169043
 31
0.0
  0
LINE
  5
1A1
330
1F
100
AcDbEntity
  8
LC-001-100-D00-0
 62
     7
370
    50
100
AcDbLine
 10
214.423531
 20
375.169043
 30
0.0
 11
215.523531
 21
374.069043
 31
0.0
  0
LINE
  5
1A2
330
1F
100
AcDbEntity
  8
LC-001-100-D00-0
 62
     7
370
    50
100
AcDbLine
 10
215.523531
 20
374.069043
 30
0.0
 11
215.523531
 21
237.169043
 31
0.0
  0
LINE
  5
1A3
330
1F
100
AcDbEntity
  8
LC-001-100-D00-0
 62
     7
370
    50
100
AcDbLine
 10
215.523531
 20
237.169043
 30
0.0
 11
214.095327
 21
237.169043
 31
0.0
  0
LINE
  5
1A4
330
1F
100
AcDbEntity
  8
LC-001-100-D00-0
 62
     7
370
    50
100
AcDbLine
 10
214.095327
 20
237.169043
 30
0.0
 11
213.023531
 21
241.169043
 31
0.0
  0
LINE
  5
1A5
330
1F
100
AcDbEntity
  8
LC-001-100-D00-0
 62
     7
370
    50
100
AcDbLine
 10
213.023531
 20
241.169043
 30
0.0
 11
213.023531
 21
373.169043
 31
0.0
  0
LINE
  5
1A6
330
1F
100
AcDbEntity
  8
LC-001-100-D00-0
 62
     7
370
    50
100
AcDbLine
 10
210.023531
 20
376.169043
 30
0.0
 11
213.023531
 21
373.169043
 31
0.0
  0
LINE
  5
1A7
330
1F
100
AcDbEntity
  8
LC-001-100-D00-0
 62
     7
370
    50
100
AcDbLine
 10
210.023531
 20
376.169043
 30
0.0
 11
189.523531
 21
376.169043
 31
0.0
  0
LINE
  5
1A8
330
1F
100
AcDbEntity
  8
LC-001-100-D00-0
 62
     7
370
    50
100
AcDbLine
 10
184.023531
 20
381.669043
 30
0.0
 11
189.523531
 21
376.169043
 31
0.0
  0
LINE
  5
1A9
330
1F
100
AcDbEntity
  8
LC-001-100-D00-0
 62
     7
370
    50
100
AcDbLine
 10
140.853658
 20
381.669043
 30
0.0
 11
184.023531
 21
381.669043
 31
0.0
  0
LINE
  5
1AA
330
1F
100
AcDbEntity
  8
LC-001-100-D00-0
 62
     7
370
    50
100
AcDbLine
 10
136.899044
 20
366.910224
 30
0.0
 11
140.853658
 21
381.669043
 31
0.0
  0
ARC
  5
1AB
330
1F
100
AcDbEntity
  8
LC-001-100-D00-0
 62
     7
370
    50
100
AcDbCircle
 10
135.933118
 20
367.169043
 30
0.0
 40
1.000000000000114
100
AcDbArc
 50
270.0
 51
345.0
  0
LINE
  5
1AC
330
1F
100
AcDbEntity
  8
LC-001-100-D00-0
 62
     7
370
    50
100
AcDbLine
 10
135.933118
 20
366.169043
 30
0.0
 11
126.47035
 21
366.169043
 31
0.0
  0
ARC
  5
1AD
330
1F
100
AcDbEntity
  8
LC-001-100-D00-0
 62
     7
370
    50
100
AcDbCircle
 10
126.47035
 20
367.169043
 30
0.0
 40
1.000000000000003
100
AcDbArc
 50
195.0
 51
270.0
  0
LINE
  5
1AE
330
1F
100
AcDbEntity
  8
LC-001-100-D00-0
 62
     7
370
    50
100
AcDbLine
 10
125.504424
 20
366.910224
 30
0.0
 11
125.03315
 21
368.669043
 31
0.0
  0
LINE
  5
1AF
330
1F
100
AcDbEntity
  8
LC-001-100-D00-0
 62
     7
370
    50
100
AcDbLine
 10
134.870318
 20
368.669043
 30
0.0
 11
125.03315
 21
368.669043
 31
0.0
  0
LINE
  5
1B0
330
1F
100
AcDbEntity
  8
LC-001-100-D00-0
 62
     7
370
    50
100
AcDbLine
 10
138.353658
 20
381.669043
 30
0.0
 11
134.870318
 21
368.669043
 31
0.0
  0
LINE
  5
1B1
330
1F
100
AcDbEntity
  8
LC-001-100-D00-0
 62
     7
370
    50
100
AcDbLine
 10
412.353658
 20
381.669043
 30
0.0
 11
413.023531
 21
384.169043
 31
0.0
  0
LINE
  5
1B2
330
1F
100
AcDbEntity
  8
LC-001-100-D00-0
 62
     7
370
    50
100
AcDbLine
 10
412.353658
 20
381.669043
 30
0.0
 11
398.132902
 21
381.669043
 31
0.0
  0
LINE
  5
1B3
330
1F
100
AcDbEntity
  8
LC-001-100-D00-0
 62
     7
370
    50
100
AcDbLine
 10
397.023531
 20
384.169043
 30
0.0
 11
397.693404
 21
381.669043
 31
0.0
  0
LINE
  5
1B4
330
1F
100
AcDbEntity
  8
LC-001-100-D00-0
 62
     7
370
    50
100
AcDbLine
 10
413.023531
 20
384.169043
 30
0.0
 11
397.023531
 21
384.169043
 31
0.0
  0
LINE
  5
1B5
330
1F
100
AcDbEntity
  8
LC-001-100-D00-0
 62
     7
370
    50
100
AcDbLine
 10
352.023531
 20
381.669043
 30
0.0
 11
395.193404
 21
381.669043
 31
0.0
  0
LINE
  5
1B6
330
1F
100
AcDbEntity
  8
LC-001-100-D00-0
 62
     7
370
    50
100
AcDbLine
 10
346.523531
 20
376.169043
 30
0.0
 11
352.023531
 21
381.669043
 31
0.0
  0
LINE
  5
1B7
330
1F
100
AcDbEntity
  8
LC-001-100-D00-0
 62
     7
370
    50
100
AcDbLine
 10
346.523531
 20
376.169043
 30
0.0
 11
326.023531
 21
376.169043
 31
0.0
  0
LINE
  5
1B8
330
1F
100
AcDbEntity
  8
LC-001-100-D00-0
 62
     7
370
    50
100
AcDbLine
 10
323.023531
 20
373.169043
 30
0.0
 11
326.023531
 21
376.169043
 31
0.0
  0
LINE
  5
1B9
330
1F
100
AcDbEntity
  8
LC-001-100-D00-0
 62
     7
370
    50
100
AcDbLine
 10
323.023531
 20
373.169043
 30
0.0
 11
323.023531
 21
241.169043
 31
0.0
  0
LINE
  5
1BA
330
1F
100
AcDbEntity
  8
LC-001-100-D00-0
 62
     7
370
    50
100
AcDbLine
 10
323.023531
 20
241.169043
 30
0.0
 11
321.951734
 21
237.169043
 31
0.0
  0
LINE
  5
1BB
330
1F
100
AcDbEntity
  8
LC-001-100-D00-0
 62
     7
370
    50
100
AcDbLine
 10
321.951734
 20
237.169043
 30
0.0
 11
320.523531
 21
237.169043
 31
0.0
  0
LINE
  5
1BC
330
1F
100
AcDbEntity
  8
LC-001-100-D00-0
 62
     7
370
    50
100
AcDbLine
 10
320.523531
 20
237.169043
 30
0.0
 11
320.523531
 21
281.11078
 31
0.0
  0
LINE
  5
1BD
330
1F
100
AcDbEntity
  8
LC-001-100-D00-0
 62
     7
370
    50
100
AcDbLine
 10
320.523531
 20
331.51078
 30
0.0
 11
320.523531
 21
374.069043
 31
0.0
  0
LINE
  5
1BE
330
1F
100
AcDbEntity
  8
LC-001-100-D00-0
 62
     7
370
    50
100
AcDbLine
 10
320.523531
 20
374.069043
 30
0.0
 11
321.623531
 21
375.169043
 31
0.0
  0
LINE
  5
1BF
330
1F
100
AcDbEntity
  8
LC-001-100-D00-0
 62
     7
370
    50
100
AcDbLine
 10
321.623531
 20
375.169043
 30
0.0
 11
322.773531
 21
375.169043
 31
0.0
  0
LINE
  5
1C0
330
1F
100
AcDbEntity
  8
LC-001-100-D00-0
 62
     7
370
    50
100
AcDbLine
 10
322.773531
 20
375.169043
 30
0.0
 11
323.268505
 21
375.098332
 31
0.0
  0
LINE
  5
1C1
330
1F
100
AcDbEntity
  8
LC-001-100-D00-0
 62
     7
370
    50
100
AcDbLine
 10
323.707178
 20
378.169043
 30
0.0
 11
323.268505
 21
375.098332
 31
0.0
  0
LINE
  5
1C2
330
1F
100
AcDbEntity
  8
LC-001-100-D00-0
 62
     7
370
    50
100
AcDbLine
 10
345.695104
 20
378.169043
 30
0.0
 11
323.707178
 21
378.169043
 31
0.0
  0
LINE
  5
1C3
330
1F
100
AcDbEntity
  8
LC-001-100-D00-0
 62
     7
370
    50
100
AcDbLine
 10
345.695104
 20
378.169043
 30
0.0
 11
351.195104
 21
383.669043
 31
0.0
  0
LINE
  5
1C4
330
1F
100
AcDbEntity
  8
LC-001-100-D00-0
 62
     7
370
    50
100
AcDbLine
 10
351.195104
 20
383.669043
 30
0.0
 11
395.523531
 21
383.669043
 31
0.0
  0
LINE
  5
1C5
330
1F
100
AcDbEntity
  8
LC-001-100-D00-0
 62
     7
370
    50
100
AcDbLine
 10
395.523531
 20
384.169043
 30
0.0
 11
395.523531
 21
383.669043
 31
0.0
  0
LINE
  5
1C6
330
1F
100
AcDbEntity
  8
LC-001-100-D00-0
 62
     7
370
    50
100
AcDbLine
 10
395.523531
 20
384.169043
 30
0.0
 11
397.023531
 21
384.169043
 31
0.0
  0
LINE
  5
1C7
330
1F
100
AcDbEntity
  8
LC-001-100-D00-0
 62
     7
370
    50
100
AcDbLine
 10
134.138222
 20
368.669043
 30
0.0
 11
137.914159
 21
381.669043
 31
0.0
  0
LINE
  5
1C8
330
1F
100
AcDbEntity
  8
LC-001-100-D00-0
 62
     7
370
    50
100
AcDbLine
 10
418.023531
 20
384.169043
 30
0.0
 11
418.023531
 21
382.669043
 31
0.0
  0
ARC
  5
1C9
330
1F
100
AcDbEntity
  8
LC-001-100-D00-0
 62
     7
370
    50
100
AcDbCircle
 10
417.023531
 20
382.669043
 30
0.0
 40
1.0
100
AcDbArc
 50
270.0
 51
0.0
  0
LINE
  5
1CA
330
1F
100
AcDbEntity
  8
LC-001-100-D00-0
 62
     7
370
    50
100
AcDbLine
 10
413.023531
 20
384.169043
 30
0.0
 11
418.023531
 21
384.169043
 31
0.0
  0
LINE
  5
1CB
330
1F
100
AcDbEntity
  8
LC-001-100-D00-0
 62
     7
370
    50
100
AcDbLine
 10
412.353658
 20
381.669043
 30
0.0
 11
417.023531
 21
381.669043
 31
0.0
  0
LINE
  5
1CC
330
1F
100
AcDbEntity
  8
LC-001-100-D00-0
 62
     7
370
    50
100
AcDbLine
 10
118.023531
 20
382.669043
 30
0.0
 11
118.023531
 21
384.169043
 31
0.0
  0
LINE
  5
1CD
330
1F
100
AcDbEntity
  8
LC-001-100-D00-0
 62
     7
370
    50
100
AcDbLine
 10
215.523531
 20
374.069043
 30
0.0
 11
218.550826
 21
374.069043
 31
0.0
  0
LINE
  5
1CE
330
1F
100
AcDbEntity
  8
LC-001-100-D00-0
 62
     7
370
    50
100
AcDbLine
 10
317.783177
 20
374.069043
 30
0.0
 11
320.523531
 21
374.069043
 31
0.0
  0
LINE
  5
1CF
330
1F
100
AcDbEntity
  8
LC-001-100-D00-0
 62
     7
370
    50
100
AcDbLine
 10
214.423531
 20
375.169043
 30
0.0
 11
321.623531
 21
375.169043
 31
0.0
  0
LINE
  5
1D0
330
1F
100
AcDbEntity
  8
LC-001-100-D00-0
 62
     7
370
    50
100
AcDbLine
 10
215.973531
 20
237.169043
 30
0.0
 11
221.945086
 21
237.169043
 31
0.0
  0
LINE
  5
1D1
330
1F
100
AcDbEntity
  8
LC-001-100-D00-0
 62
     7
370
    50
100
AcDbLine
 10
223.584909
 20
237.169043
 30
0.0
 11
228.523531
 21
237.169043
 31
0.0
  0
LINE
  5
1D2
330
1F
100
AcDbEntity
  8
LC-001-100-D00-0
 62
     7
370
    50
100
AcDbLine
 10
307.523531
 20
237.169043
 30
0.0
 11
312.462152
 21
237.169043
 31
0.0
  0
LINE
  5
1D3
330
1F
100
AcDbEntity
  8
LC-001-100-D00-0
 62
     7
370
    50
100
AcDbLine
 10
314.101975
 20
237.169043
 30
0.0
 11
320.058519
 21
237.169043
 31
0.0
  0
ARC
  5
1D4
330
1F
100
AcDbEntity
  8
LC-001-100-D00-0
 62
     7
370
    50
100
AcDbCircle
 10
119.023531
 20
382.669043
 30
0.0
 40
1.0
100
AcDbArc
 50
180.0
 51
270.0
  0
LINE
  5
1D5
330
1F
100
AcDbEntity
  8
LC-001-100-D00-0
 62
     7
370
    50
100
AcDbLine
 10
118.023531
 20
384.169043
 30
0.0
 11
123.023531
 21
384.169043
 31
0.0
  0
LINE
  5
1D6
330
1F
100
AcDbEntity
  8
LC-001-100-D00-0
 62
     7
370
    50
100
AcDbLine
 10
119.023531
 20
381.669043
 30
0.0
 11
123.693404
 21
381.669043
 31
0.0
  0
LINE
  5
1D7
330
1F
100
AcDbEntity
  8
LC-001-100-D00-0
 62
     7
370
    50
100
AcDbLine
 10
171.30554
 20
368.669043
 30
0.0
 11
170.970246
 21
367.169043
 31
0.0
  0
LINE
  5
1D8
330
1F
100
AcDbEntity
  8
LC-001-100-D00-0
 62
     7
370
    50
100
AcDbLine
 10
171.270632
 20
368.669043
 30
0.0
 11
174.254545
 21
381.669043
 31
0.0
  0
INSERT
  5
1E6
330
1F
100
AcDbEntity
  8
LC-001-100-D00-0
 62
     7
370
    50
100
AcDbBlockReference
  2
POLY12
 10
0.0
 20
0.0
 30
0.0
  0
LINE
  5
1E7
330
1F
100
AcDbEntity
  8
LC-001-100-D00-0
 62
     7
370
    50
100
AcDbLine
 10
170.95147
 20
366.910224
 30
0.0
 11
170.970246
 21
367.169043
 31
0.0
  0
LINE
  5
1E8
330
1F
100
AcDbEntity
  8
LC-001-100-D00-0
 62
     7
370
    50
100
AcDbLine
 10
173.11025
 20
366.169043
 30
0.0
 11
171.238935
 21
366.169043
 31
0.0
  0
INSERT
  5
1FA
330
1F
100
AcDbEntity
  8
LC-001-100-D00-0
 62
     7
370
    50
100
AcDbBlockReference
  2
POLY13
 10
0.0
 20
0.0
 30
0.0
  0
LINE
  5
1FB
330
1F
100
AcDbEntity
  8
LC-001-100-D00-0
 62
     7
370
    50
100
AcDbLine
 10
165.159521
 20
368.669043
 30
0.0
 11
171.30554
 21
368.669043
 31
0.0
  0
LINE
  5
1FC
330
1F
100
AcDbEntity
  8
LC-001-100-D00-0
 62
     7
370
    50
100
AcDbLine
 10
171.238935
 20
366.169043
 30
0.0
 11
166.596721
 21
366.169043
 31
0.0
  0
LINE
  5
1FD
330
1F
100
AcDbEntity
  8
LC-001-100-D00-0
 62
     7
370
    50
100
AcDbLine
 10
345.487997
 20
378.669043
 30
0.0
 11
350.987997
 21
384.169043
 31
0.0
  0
LINE
  5
1FE
330
1F
100
AcDbEntity
  8
LC-001-100-D00-0
 62
     7
370
    50
100
AcDbLine
 10
323.273531
 20
378.669043
 30
0.0
 11
322.773531
 21
375.169043
 31
0.0
  0
LINE
  5
1FF
330
1F
100
AcDbEntity
  8
LC-001-100-D00-0
 62
     7
370
    50
100
AcDbLine
 10
345.487997
 20
378.669043
 30
0.0
 11
323.273531
 21
378.669043
 31
0.0
  0
LINE
  5
200
330
1F
100
AcDbEntity
  8
LC-001-100-D00-0
 62
     7
370
    50
100
AcDbLine
 10
350.987997
 20
384.169043
 30
0.0
 11
395.523531
 21
384.169043
 31
0.0
  0
LINE
  5
201
330
1F
100
AcDbEntity
  8
LC-001-100-D00-0
 62
     7
370
    50
100
AcDbLine
 10
213.273531
 20
375.169043
 30
0.0
 11
212.773531
 21
378.669043
 31
0.0
  0
LINE
  5
202
330
1F
100
AcDbEntity
  8
LC-001-100-D00-0
 62
     7
370
    50
100
AcDbLine
 10
185.059065
 20
384.169043
 30
0.0
 11
190.559065
 21
378.669043
 31
0.0
  0
LINE
  5
203
330
1F
100
AcDbEntity
  8
LC-001-100-D00-0
 62
     7
370
    50
100
AcDbLine
 10
185.059065
 20
384.169043
 30
0.0
 11
222.173531
 21
384.169043
 31
0.0
  0
LINE
  5
204
330
1F
100
AcDbEntity
  8
LC-001-100-D00-0
 62
     7
370
    50
100
AcDbLine
 10
313.873531
 20
384.169043
 30
0.0
 11
350.987997
 21
384.169043
 31
0.0
  0
LINE
  5
205
330
1F
100
AcDbEntity
  8
LC-001-100-D00-0
 62
     7
370
    50
100
AcDbLine
 10
212.773531
 20
378.669043
 30
0.0
 11
190.559065
 21
378.669043
 31
0.0
  0
LINE
  5
206
330
1F
100
AcDbEntity
  8
LC-001-100-D00-0
 62
     7
370
    50
100
AcDbLine
 10
140.523531
 20
384.169043
 30
0.0
 11
185.059065
 21
384.169043
 31
0.0
  0
LINE
  5
207
330
1F
100
AcDbEntity
  8
LC-001-100-D00-0
 62
     7
370
    50
100
AcDbLine
 10
200.023531
 20
257.33405
 30
0.0
 11
201.273531
 21
256.683341
 31
0.0
  0
LINE
  5
208
330
1F
100
AcDbEntity
  8
LC-001-100-D00-0
 62
     7
370
    50
100
AcDbLine
 10
194.773531
 20
258.183341
 30
0.0
 11
196.023531
 21
258.83405
 31
0.0
  0
LINE
  5
209
330
1F
100
AcDbEntity
  8
LC-001-100-D00-0
 62
     7
370
    50
100
AcDbLine
 10
200.023531
 20
254.33405
 30
0.0
 11
201.273531
 21
253.683341
 31
0.0
  0
LINE
  5
20A
330
1F
100
AcDbEntity
  8
LC-001-100-D00-0
 62
     7
370
    50
100
AcDbLine
 10
194.773531
 20
255.183341
 30
0.0
 11
196.023531
 21
255.83405
 31
0.0
  0
LINE
  5
20B
330
1F
100
AcDbEntity
  8
LC-001-100-D00-0
 62
     7
370
    50
100
AcDbLine
 10
200.023531
 20
248.33405
 30
0.0
 11
201.273531
 21
247.683341
 31
0.0
  0
LINE
  5
20C
330
1F
100
AcDbEntity
  8
LC-001-100-D00-0
 62
     7
370
    50
100
AcDbLine
 10
194.773531
 20
249.183341
 30
0.0
 11
196.023531
 21
249.83405
 31
0.0
  0
LINE
  5
20D
330
1F
100
AcDbEntity
  8
LC-001-100-D00-0
 62
     7
370
    50
100
AcDbLine
 10
200.023531
 20
260.33405
 30
0.0
 11
201.273531
 21
259.683341
 31
0.0
  0
LINE
  5
20E
330
1F
100
AcDbEntity
  8
LC-001-100-D00-0
 62
     7
370
    50
100
AcDbLine
 10
194.773531
 20
261.183341
 30
0.0
 11
196.023531
 21
261.83405
 31
0.0
  0
INSERT
  5
21A
330
1F
100
AcDbEntity
  8
LC-001-100-D00-0
 62
     7
370
    50
100
AcDbBlockReference
  2
POLY14
 10
0.0
 20
0.0
 30
0.0
  0
LINE
  5
21B
330
1F
100
AcDbEntity
  8
LC-001-100-D00-0
 62
     7
370
    50
100
AcDbLine
 10
201.061952
 20
259.847718
 30
0.0
 11
201.273531
 21
259.683341
 31
0.0
  0
LINE
  5
21C
330
1F
100
AcDbEntity
  8
LC-001-100-D00-0
 62
     7
370
    50
100
AcDbLine
 10
200.023531
 20
251.33405
 30
0.0
 11
201.273531
 21
250.683341
 31
0.0
  0
LINE
  5
21D
330
1F
100
AcDbEntity
  8
LC-001-100-D00-0
 62
     7
370
    50
100
AcDbLine
 10
194.773531
 20
252.183341
 30
0.0
 11
196.023531
 21
252.83405
 31
0.0
  0
LINE
  5
21E
330
1F
100
AcDbEntity
  8
LC-001-100-D00-0
 62
     7
370
    50
100
AcDbLine
 10
201.273531
 20
250.683341
 30
0.0
 11
200.023531
 21
250.032632
 31
0.0
  0
LINE
  5
21F
330
1F
100
AcDbEntity
  8
LC-001-100-D00-0
 62
     7
370
    50
100
AcDbLine
 10
196.023531
 20
251.532632
 30
0.0
 11
194.773531
 21
252.183341
 31
0.0
  0
LINE
  5
220
330
1F
100
AcDbEntity
  8
LC-001-100-D00-0
 62
     7
370
    50
100
AcDbLine
 10
201.273531
 20
256.683341
 30
0.0
 11
200.023531
 21
256.032632
 31
0.0
  0
LINE
  5
221
330
1F
100
AcDbEntity
  8
LC-001-100-D00-0
 62
     7
370
    50
100
AcDbLine
 10
196.023531
 20
257.532632
 30
0.0
 11
194.773531
 21
258.183341
 31
0.0
  0
LINE
  5
222
330
1F
100
AcDbEntity
  8
LC-001-100-D00-0
 62
     7
370
    50
100
AcDbLine
 10
201.273531
 20
253.683341
 30
0.0
 11
200.023531
 21
253.032632
 31
0.0
  0
LINE
  5
223
330
1F
100
AcDbEntity
  8
LC-001-100-D00-0
 62
     7
370
    50
100
AcDbLine
 10
196.023531
 20
254.532632
 30
0.0
 11
194.773531
 21
255.183341
 31
0.0
  0
LINE
  5
224
330
1F
100
AcDbEntity
  8
LC-001-100-D00-0
 62
     7
370
    50
100
AcDbLine
 10
201.273531
 20
259.683341
 30
0.0
 11
200.023531
 21
259.032632
 31
0.0
  0
LINE
  5
225
330
1F
100
AcDbEntity
  8
LC-001-100-D00-0
 62
     7
370
    50
100
AcDbLine
 10
196.023531
 20
260.532632
 30
0.0
 11
194.773531
 21
261.183341
 31
0.0
  0
LINE
  5
226
330
1F
100
AcDbEntity
  8
LC-001-100-D00-0
 62
     7
370
    50
100
AcDbLine
 10
201.273531
 20
247.683341
 30
0.0
 11
200.023531
 21
247.032632
 31
0.0
  0
LINE
  5
227
330
1F
100
AcDbEntity
  8
LC-001-100-D00-0
 62
     7
370
    50
100
AcDbLine
 10
196.023531
 20
248.532632
 30
0.0
 11
194.773531
 21
249.183341
 31
0.0
  0
LINE
  5
228
330
1F
100
AcDbEntity
  8
LC-001-100-D00-0
 62
     7
370
    50
100
AcDbLine
 10
200.023531
 20
246.238875
 30
0.0
 11
200.023531
 21
247.032632
 31
0.0
  0
LINE
  5
229
330
1F
100
AcDbEntity
  8
LC-001-100-D00-0
 62
     7
370
    50
100
AcDbLine
 10
196.023531
 20
248.532632
 30
0.0
 11
196.023531
 21
246.238875
 31
0.0
  0
LINE
  5
22A
330
1F
100
AcDbEntity
  8
LC-001-100-D00-0
 62
     7
370
    50
100
AcDbLine
 10
200.023531
 20
251.33405
 30
0.0
 11
200.023531
 21
253.032632
 31
0.0
  0
LINE
  5
22B
330
1F
100
AcDbEntity
  8
LC-001-100-D00-0
 62
     7
370
    50
100
AcDbLine
 10
196.023531
 20
254.532632
 30
0.0
 11
196.023531
 21
252.83405
 31
0.0
  0
LINE
  5
22C
330
1F
100
AcDbEntity
  8
LC-001-100-D00-0
 62
     7
370
    50
100
AcDbLine
 10
200.023531
 20
254.33405
 30
0.0
 11
200.023531
 21
256.032632
 31
0.0
  0
LINE
  5
22D
330
1F
100
AcDbEntity
  8
LC-001-100-D00-0
 62
     7
370
    50
100
AcDbLine
 10
196.023531
 20
257.532632
 30
0.0
 11
196.023531
 21
255.83405
 31
0.0
  0
LINE
  5
22E
330
1F
100
AcDbEntity
  8
LC-001-100-D00-0
 62
     7
370
    50
100
AcDbLine
 10
200.023531
 20
248.33405
 30
0.0
 11
200.023531
 21
250.032632
 31
0.0
  0
LINE
  5
22F
330
1F
100
AcDbEntity
  8
LC-001-100-D00-0
 62
     7
370
    50
100
AcDbLine
 10
196.023531
 20
251.532632
 30
0.0
 11
196.023531
 21
249.83405
 31
0.0
  0
LINE
  5
230
330
1F
100
AcDbEntity
  8
LC-001-100-D00-0
 62
     7
370
    50
100
AcDbLine
 10
200.023531
 20
257.33405
 30
0.0
 11
200.023531
 21
259.032632
 31
0.0
  0
LINE
  5
231
330
1F
100
AcDbEntity
  8
LC-001-100-D00-0
 62
     7
370
    50
100
AcDbLine
 10
196.023531
 20
260.532632
 30
0.0
 11
196.023531
 21
258.83405
 31
0.0
  0
LINE
  5
232
330
1F
100
AcDbEntity
  8
LC-001-100-D00-0
 62
     7
370
    50
100
AcDbLine
 10
200.023531
 20
260.33405
 30
0.0
 11
200.023531
 21
261.838459
 31
0.0
  0
LINE
  5
233
330
1F
100
AcDbEntity
  8
LC-001-100-D00-0
 62
     7
370
    50
100
AcDbLine
 10
196.023531
 20
261.838459
 30
0.0
 11
196.023531
 21
261.83405
 31
0.0
  0
LINE
  5
234
330
1F
100
AcDbEntity
  8
LC-001-100-D00-0
 62
     7
370
    50
100
AcDbLine
 10
198.023531
 20
244.838459
 30
0.0
 11
200.023531
 21
246.238875
 31
0.0
  0
LINE
  5
235
330
1F
100
AcDbEntity
  8
LC-001-100-D00-0
 62
     7
370
    50
100
AcDbLine
 10
196.023531
 20
246.238875
 30
0.0
 11
198.023531
 21
244.838459
 31
0.0
  0
LINE
  5
236
330
1F
100
AcDbEntity
  8
LC-001-100-D00-0
 62
     7
370
    50
100
AcDbLine
 10
203.273531
 20
261.838459
 30
0.0
 11
203.273531
 21
264.638459
 31
0.0
  0
LINE
  5
237
330
1F
100
AcDbEntity
  8
LC-001-100-D00-0
 62
     7
370
    50
100
AcDbLine
 10
192.773531
 20
264.638459
 30
0.0
 11
192.773531
 21
261.838459
 31
0.0
  0
ARC
  5
238
330
1F
100
AcDbEntity
  8
LC-001-100-D00-0
 62
     7
370
    50
100
AcDbCircle
 10
198.023531
 20
259.713459
 30
0.0
 40
6.82023643285201
100
AcDbArc
 50
48.715289
 51
56.644353
  0
LINE
  5
239
330
1F
100
AcDbEntity
  8
LC-001-100-D00-0
 62
     7
370
    50
100
AcDbLine
 10
203.073531
 20
264.838459
 30
0.0
 11
202.523531
 21
264.838459
 31
0.0
  0
ARC
  5
23A
330
1F
100
AcDbEntity
  8
LC-001-100-D00-0
 62
     7
370
    50
100
AcDbCircle
 10
203.073531
 20
264.638459
 30
0.0
 40
0.1999999999999886
100
AcDbArc
 50
0.0
 51
90.0
  0
ARC
  5
23B
330
1F
100
AcDbEntity
  8
LC-001-100-D00-0
 62
     7
370
    50
100
AcDbCircle
 10
192.973531
 20
264.638459
 30
0.0
 40
0.2000000000000455
100
AcDbArc
 50
90.0
 51
180.0
  0
LINE
  5
23C
330
1F
100
AcDbEntity
  8
LC-001-100-D00-0
 62
     7
370
    50
100
AcDbLine
 10
193.523531
 20
264.838459
 30
0.0
 11
192.973531
 21
264.838459
 31
0.0
  0
ARC
  5
23D
330
1F
100
AcDbEntity
  8
LC-001-100-D00-0
 62
     7
370
    50
100
AcDbCircle
 10
198.023531
 20
259.713459
 30
0.0
 40
6.820236432851962
100
AcDbArc
 50
123.355647
 51
131.284711
  0
LINE
  5
23E
330
1F
100
AcDbEntity
  8
LC-001-100-D00-0
 62
     7
370
    50
100
AcDbLine
 10
194.273531
 20
265.410224
 30
0.0
 11
194.273531
 21
264.338459
 31
0.0
  0
LINE
  5
23F
330
1F
100
AcDbEntity
  8
LC-001-100-D00-0
 62
     7
370
    50
100
AcDbLine
 10
196.250098
 20
264.338459
 30
0.0
 11
194.273531
 21
264.338459
 31
0.0
  0
LINE
  5
240
330
1F
100
AcDbEntity
  8
LC-001-100-D00-0
 62
     7
370
    50
100
AcDbLine
 10
201.773531
 20
264.338459
 30
0.0
 11
199.796963
 21
264.338459
 31
0.0
  0
LINE
  5
241
330
1F
100
AcDbEntity
  8
LC-001-100-D00-0
 62
     7
370
    50
100
AcDbLine
 10
201.773531
 20
264.338459
 30
0.0
 11
201.773531
 21
265.410224
 31
0.0
  0
LINE
  5
242
330
1F
100
AcDbEntity
  8
LC-001-100-D00-0
 62
     7
370
    50
100
AcDbLine
 10
199.796963
 20
263.838459
 30
0.0
 11
199.796963
 21
264.338459
 31
0.0
  0
LINE
  5
243
330
1F
100
AcDbEntity
  8
LC-001-100-D00-0
 62
     7
370
    50
100
AcDbLine
 10
199.796963
 20
263.838459
 30
0.0
 11
196.250098
 21
263.838459
 31
0.0
  0
LINE
  5
244
330
1F
100
AcDbEntity
  8
LC-001-100-D00-0
 62
     7
370
    50
100
AcDbLine
 10
196.250098
 20
263.838459
 30
0.0
 11
196.250098
 21
264.338459
 31
0.0
  0
LINE
  5
245
330
1F
100
AcDbEntity
  8
LC-001-100-D00-0
 62
     7
370
    50
100
AcDbLine
 10
200.023531
 20
261.838459
 30
0.0
 11
203.273531
 21
261.838459
 31
0.0
  0
LINE
  5
246
330
1F
100
AcDbEntity
  8
LC-001-100-D00-0
 62
     7
370
    50
100
AcDbLine
 10
192.773531
 20
261.838459
 30
0.0
 11
196.023531
 21
261.838459
 31
0.0
  0
ARC
  5
247
330
1F
100
AcDbEntity
  8
LC-001-100-D00-0
 62
     7
370
    50
100
AcDbCircle
 10
198.023531
 20
259.713459
 30
0.0
 40
6.801883930206413
100
AcDbArc
 50
56.54253
 51
63.818118
  0
ARC
  5
248
330
1F
100
AcDbEntity
  8
LC-001-100-D00-0
 62
     7
370
    50
100
AcDbCircle
 10
198.023531
 20
259.713459
 30
0.0
 40
6.801883930206511
100
AcDbArc
 50
116.181882
 51
123.45747
  0
INSERT
  5
254
330
1F
100
AcDbEntity
  8
LC-001-100-D00-0
 62
     7
370
    50
100
AcDbBlockReference
  2
POLY15
 10
0.0
 20
0.0
 30
0.0
  0
LINE
  5
255
330
1F
100
AcDbEntity
  8
LC-001-100-D00-0
 62
     7
370
    50
100
AcDbLine
 10
196.250098
 20
265.838459
 30
0.0
 11
195.112877
 21
265.838459
 31
0.0
  0
LINE
  5
256
330
1F
100
AcDbEntity
  8
LC-001-100-D00-0
 62
     7
370
    50
100
AcDbLine
 10
196.250098
 20
265.838459
 30
0.0
 11
196.250098
 21
264.338459
 31
0.0
  0
LINE
  5
257
330
1F
100
AcDbEntity
  8
LC-001-100-D00-0
 62
     7
370
    50
100
AcDbLine
 10
200.934185
 20
265.838459
 30
0.0
 11
199.796963
 21
265.838459
 31
0.0
  0
INSERT
  5
263
330
1F
100
AcDbEntity
  8
LC-001-100-D00-0
 62
     7
370
    50
100
AcDbBlockReference
  2
POLY16
 10
0.0
 20
0.0
 30
0.0
  0
LINE
  5
264
330
1F
100
AcDbEntity
  8
LC-001-100-D00-0
 62
     7
370
    50
100
AcDbLine
 10
199.796963
 20
265.838459
 30
0.0
 11
199.796963
 21
264.338459
 31
0.0
  0
LINE
  5
265
330
1F
100
AcDbEntity
  8
LC-001-100-D00-0
 62
     7
370
    50
100
AcDbLine
 10
197.353982
 20
265.838459
 30
0.0
 11
198.69308
 21
265.838459
 31
0.0
  0
LINE
  5
266
330
1F
100
AcDbEntity
  8
LC-001-100-D00-0
 62
     7
370
    50
100
AcDbLine
 10
198.996193
 20
265.838459
 30
0.0
 11
198.69308
 21
265.838459
 31
0.0
  0
LINE
  5
267
330
1F
100
AcDbEntity
  8
LC-001-100-D00-0
 62
     7
370
    50
100
AcDbLine
 10
197.050868
 20
265.838459
 30
0.0
 11
197.353982
 21
265.838459
 31
0.0
  0
LINE
  5
268
330
1F
100
AcDbEntity
  8
LC-001-100-D00-0
 62
     7
370
    50
100
AcDbLine
 10
198.996193
 20
265.838459
 30
0.0
 11
199.796963
 21
265.838459
 31
0.0
  0
LINE
  5
269
330
1F
100
AcDbEntity
  8
LC-001-100-D00-0
 62
     7
370
    50
100
AcDbLine
 10
197.050868
 20
265.838459
 30
0.0
 11
196.250098
 21
265.838459
 31
0.0
  0
LINE
  5
26A
330
1F
100
AcDbEntity
  8
LC-001-100-D00-0
 62
     7
370
    50
100
AcDbLine
 10
208.773531
 20
237.169043
 30
0.0
 11
208.773531
 21
232.169043
 31
0.0
  0
LINE
  5
26B
330
1F
100
AcDbEntity
  8
LC-001-100-D00-0
 62
     7
370
    50
100
AcDbLine
 10
327.273531
 20
232.169043
 30
0.0
 11
327.273531
 21
237.169043
 31
0.0
  0
LINE
  5
26C
330
1F
100
AcDbEntity
  8
LC-001-100-D00-0
 62
     7
370
    50
100
AcDbLine
 10
320.073531
 20
237.169043
 30
0.0
 11
320.073531
 21
232.169043
 31
0.0
  0
LINE
  5
26D
330
1F
100
AcDbEntity
  8
LC-001-100-D00-0
 62
     7
370
    50
100
AcDbLine
 10
320.073531
 20
232.169043
 30
0.0
 11
327.273531
 21
232.169043
 31
0.0
  0
LINE
  5
26E
330
1F
100
AcDbEntity
  8
LC-001-100-D00-0
 62
     7
370
    50
100
AcDbLine
 10
327.273531
 20
237.169043
 30
0.0
 11
320.073531
 21
237.169043
 31
0.0
  0
LINE
  5
26F
330
1F
100
AcDbEntity
  8
LC-001-100-D00-0
 62
     7
370
    50
100
AcDbLine
 10
320.058519
 20
232.169043
 30
0.0
 11
320.058519
 21
237.169043
 31
0.0
  0
LINE
  5
270
330
1F
100
AcDbEntity
  8
LC-001-100-D00-0
 62
     7
370
    50
100
AcDbLine
 10
320.058519
 20
237.169043
 30
0.0
 11
320.073531
 21
237.169043
 31
0.0
  0
LINE
  5
271
330
1F
100
AcDbEntity
  8
LC-001-100-D00-0
 62
     7
370
    50
100
AcDbLine
 10
215.988542
 20
232.169043
 30
0.0
 11
215.988542
 21
237.169043
 31
0.0
  0
LINE
  5
272
330
1F
100
AcDbEntity
  8
LC-001-100-D00-0
 62
     7
370
    50
100
AcDbLine
 10
215.973531
 20
232.169043
 30
0.0
 11
215.973531
 21
237.169043
 31
0.0
  0
LINE
  5
273
330
1F
100
AcDbEntity
  8
LC-001-100-D00-0
 62
     7
370
    50
100
AcDbLine
 10
215.973531
 20
237.169043
 30
0.0
 11
215.988542
 21
237.169043
 31
0.0
  0
LINE
  5
274
330
1F
100
AcDbEntity
  8
LC-001-100-D00-0
 62
     7
370
    50
100
AcDbLine
 10
208.773531
 20
232.169043
 30
0.0
 11
215.973531
 21
232.169043
 31
0.0
  0
LINE
  5
275
330
1F
100
AcDbEntity
  8
LC-001-100-D00-0
 62
     7
370
    50
100
AcDbLine
 10
215.973531
 20
237.169043
 30
0.0
 11
208.773531
 21
237.169043
 31
0.0
  0
LINE
  5
276
330
1F
100
AcDbEntity
  8
LC-001-100-D00-0
 62
     7
370
    50
100
AcDbLine
 10
318.649781
 20
232.169043
 30
0.0
 11
318.649781
 21
237.169043
 31
0.0
  0
LINE
  5
277
330
1F
100
AcDbEntity
  8
LC-001-100-D00-0
 62
     7
370
    50
100
AcDbLine
 10
217.397281
 20
232.169043
 30
0.0
 11
217.397281
 21
237.169043
 31
0.0
  0
LINE
  5
278
330
1F
100
AcDbEntity
  8
LC-001-100-D00-0
 62
     7
370
    50
100
AcDbLine
 10
313.712152
 20
232.169043
 30
0.0
 11
313.712152
 21
237.169043
 31
0.0
  0
LINE
  5
279
330
1F
100
AcDbEntity
  8
LC-001-100-D00-0
 62
     7
370
    50
100
AcDbLine
 10
312.462152
 20
232.169043
 30
0.0
 11
312.462152
 21
237.169043
 31
0.0
  0
LINE
  5
27A
330
1F
100
AcDbEntity
  8
LC-001-100-D00-0
 62
     7
370
    50
100
AcDbLine
 10
312.462152
 20
237.169043
 30
0.0
 11
313.712152
 21
237.169043
 31
0.0
  0
LINE
  5
27B
330
1F
100
AcDbEntity
  8
LC-001-100-D00-0
 62
     7
370
    50
100
AcDbLine
 10
313.712152
 20
237.169043
 30
0.0
 11
314.101975
 21
237.169043
 31
0.0
  0
LINE
  5
27C
330
1F
100
AcDbEntity
  8
LC-001-100-D00-0
 62
     7
370
    50
100
AcDbLine
 10
223.584909
 20
232.169043
 30
0.0
 11
223.584909
 21
237.169043
 31
0.0
  0
LINE
  5
27D
330
1F
100
AcDbEntity
  8
LC-001-100-D00-0
 62
     7
370
    50
100
AcDbLine
 10
222.334909
 20
232.169043
 30
0.0
 11
222.334909
 21
237.169043
 31
0.0
  0
LINE
  5
27E
330
1F
100
AcDbEntity
  8
LC-001-100-D00-0
 62
     7
370
    50
100
AcDbLine
 10
222.334909
 20
237.169043
 30
0.0
 11
223.584909
 21
237.169043
 31
0.0
  0
LINE
  5
27F
330
1F
100
AcDbEntity
  8
LC-001-100-D00-0
 62
     7
370
    50
100
AcDbLine
 10
221.945086
 20
237.169043
 30
0.0
 11
222.334909
 21
237.169043
 31
0.0
  0
ARC
  5
280
330
1F
100
AcDbEntity
  8
LC-001-100-D00-0
 62
     7
370
    50
100
AcDbCircle
 10
311.72353
 20
419.469043
 30
0.0
 40
0.5
100
AcDbArc
 50
90.0
 51
180.0
  0
ARC
  5
281
330
1F
100
AcDbEntity
  8
LC-001-100-D00-0
 62
     7
370
    50
100
AcDbCircle
 10
224.323531
 20
419.469043
 30
0.0
 40
0.5
100
AcDbArc
 50
0.0
 51
90.0
  0
LINE
  5
282
330
1F
100
AcDbEntity
  8
LC-001-100-D00-0
 62
     7
370
    50
100
AcDbLine
 10
310.787377
 20
410.700364
 30
0.0
 11
225.259685
 21
410.700364
 31
0.0
  0
LINE
  5
283
330
1F
100
AcDbEntity
  8
LC-001-100-D00-0
 62
     7
370
    50
100
AcDbLine
 10
225.259685
 20
410.700364
 30
0.0
 11
225.87381
 21
411.059733
 31
0.0
  0
LINE
  5
284
330
1F
100
AcDbEntity
  8
LC-001-100-D00-0
 62
     7
370
    50
100
AcDbLine
 10
310.173252
 20
411.059733
 30
0.0
 11
225.87381
 21
411.059733
 31
0.0
  0
LINE
  5
285
330
1F
100
AcDbEntity
  8
LC-001-100-D00-0
 62
     7
370
    50
100
AcDbLine
 10
310.173252
 20
411.059733
 30
0.0
 11
310.787377
 21
410.700364
 31
0.0
  0
ARC
  5
286
330
1F
100
AcDbEntity
  8
LC-001-100-D00-0
 62
     7
370
    50
100
AcDbCircle
 10
313.12353
 20
421.669043
 30
0.0
 40
1.0
100
AcDbArc
 50
270.0
 51
0.0
  0
ARC
  5
287
330
1F
100
AcDbEntity
  8
LC-001-100-D00-0
 62
     7
370
    50
100
AcDbCircle
 10
222.923531
 20
421.669043
 30
0.0
 40
1.0
100
AcDbArc
 50
180.0
 51
270.0
  0
LINE
  5
288
330
1F
100
AcDbEntity
  8
LC-001-100-D00-0
 62
     7
370
    50
100
AcDbLine
 10
311.341346
 20
414.269043
 30
0.0
 11
310.173252
 21
411.059733
 31
0.0
  0
LINE
  5
289
330
1F
100
AcDbEntity
  8
LC-001-100-D00-0
 62
     7
370
    50
100
AcDbLine
 10
225.87381
 20
411.059733
 30
0.0
 11
224.705716
 21
414.269043
 31
0.0
  0
LINE
  5
28A
330
1F
100
AcDbEntity
  8
LC-001-100-D00-0
 62
     7
370
    50
100
AcDbLine
 10
311.22353
 20
414.969043
 30
0.0
 11
311.22353
 21
419.469043
 31
0.0
  0
LINE
  5
28B
330
1F
100
AcDbEntity
  8
LC-001-100-D00-0
 62
     7
370
    50
100
AcDbLine
 10
224.823531
 20
419.469043
 30
0.0
 11
224.823531
 21
414.969043
 31
0.0
  0
ARC
  5
28C
330
1F
100
AcDbEntity
  8
LC-001-100-D00-0
 62
     7
370
    50
100
AcDbCircle
 10
313.12353
 20
421.669043
 30
0.0
 40
1.700000173266631
100
AcDbArc
 50
270.0
 51
0.0
  0
ARC
  5
28D
330
1F
100
AcDbEntity
  8
LC-001-100-D00-0
 62
     7
370
    50
100
AcDbCircle
 10
222.923531
 20
421.669043
 30
0.0
 40
1.700000173266631
100
AcDbArc
 50
180.0
 51
270.0
  0
LINE
  5
28E
330
1F
100
AcDbEntity
  8
LC-001-100-D00-0
 62
     7
370
    50
100
AcDbLine
 10
314.12353
 20
424.969043
 30
0.0
 11
314.12353
 21
421.669043
 31
0.0
  0
LINE
  5
28F
330
1F
100
AcDbEntity
  8
LC-001-100-D00-0
 62
     7
370
    50
100
AcDbLine
 10
221.923531
 20
421.669043
 30
0.0
 11
221.923531
 21
424.969043
 31
0.0
  0
LINE
  5
290
330
1F
100
AcDbEntity
  8
LC-001-100-D00-0
 62
     7
370
    50
100
AcDbLine
 10
314.823531
 20
421.669043
 30
0.0
 11
314.823531
 21
424.269043
 31
0.0
  0
LINE
  5
291
330
1F
100
AcDbEntity
  8
LC-001-100-D00-0
 62
     7
370
    50
100
AcDbLine
 10
311.72353
 20
419.969043
 30
0.0
 11
313.12353
 21
419.969043
 31
0.0
  0
ARC
  5
292
330
1F
100
AcDbEntity
  8
LC-001-100-D00-0
 62
     7
370
    50
100
AcDbCircle
 10
311.198531
 20
414.169043
 30
0.0
 40
0.8000000000008866
100
AcDbArc
 50
340.0
 51
90.0
  0
LINE
  5
293
330
1F
100
AcDbEntity
  8
LC-001-100-D00-0
 62
     7
370
    50
100
AcDbLine
 10
310.787377
 20
410.700364
 30
0.0
 11
311.950285
 21
413.895427
 31
0.0
  0
LINE
  5
294
330
1F
100
AcDbEntity
  8
LC-001-100-D00-0
 62
     7
370
    50
100
AcDbLine
 10
310.52353
 20
414.269043
 30
0.0
 11
311.341346
 21
414.269043
 31
0.0
  0
LINE
  5
295
330
1F
100
AcDbEntity
  8
LC-001-100-D00-0
 62
     7
370
    50
100
AcDbLine
 10
310.52353
 20
419.469043
 30
0.0
 11
310.52353
 21
414.269043
 31
0.0
  0
ARC
  5
296
330
1F
100
AcDbEntity
  8
LC-001-100-D00-0
 62
     7
370
    50
100
AcDbCircle
 10
311.72353
 20
419.469043
 30
0.0
 40
1.200000173266631
100
AcDbArc
 50
90.0
 51
180.0
  0
LINE
  5
297
330
1F
100
AcDbEntity
  8
LC-001-100-D00-0
 62
     7
370
    50
100
AcDbLine
 10
311.198531
 20
414.969043
 30
0.0
 11
311.22353
 21
414.969043
 31
0.0
  0
LINE
  5
298
330
1F
100
AcDbEntity
  8
LC-001-100-D00-0
 62
     7
370
    50
100
AcDbLine
 10
313.12353
 20
420.669043
 30
0.0
 11
311.72353
 21
420.669043
 31
0.0
  0
LINE
  5
299
330
1F
100
AcDbEntity
  8
LC-001-100-D00-0
 62
     7
370
    50
100
AcDbLine
 10
317.323531
 20
429.000364
 30
0.0
 11
317.323531
 21
426.659956
 31
0.0
  0
LINE
  5
29A
330
1F
100
AcDbEntity
  8
LC-001-100-D00-0
 62
     7
370
    50
100
AcDbLine
 10
318.023531
 20
426.659956
 30
0.0
 11
318.023531
 21
429.000364
 31
0.0
  0
ARC
  5
29B
330
1F
100
AcDbEntity
  8
LC-001-100-D00-0
 62
     7
370
    50
100
AcDbCircle
 10
316.323531
 20
429.000364
 30
0.0
 40
1.700000276787478
100
AcDbArc
 50
0.0
 51
90.0
  0
ARC
  5
29C
330
1F
100
AcDbEntity
  8
LC-001-100-D00-0
 62
     7
370
    50
100
AcDbCircle
 10
315.823531
 20
429.000364
 30
0.0
 40
1.000000170054136
100
AcDbArc
 50
90.0
 51
180.0
  0
ARC
  5
29D
330
1F
100
AcDbEntity
  8
LC-001-100-D00-0
 62
     7
370
    50
100
AcDbCircle
 10
319.523531
 20
426.659956
 30
0.0
 40
2.200000173266687
100
AcDbArc
 50
180.0
 51
242.964321
  0
LINE
  5
29E
330
1F
100
AcDbEntity
  8
LC-001-100-D00-0
 62
     7
370
    50
100
AcDbLine
 10
314.823531
 20
429.000364
 30
0.0
 11
314.823531
 21
424.269043
 31
0.0
  0
LINE
  5
29F
330
1F
100
AcDbEntity
  8
LC-001-100-D00-0
 62
     7
370
    50
100
AcDbLine
 10
316.323531
 20
430.000364
 30
0.0
 11
315.823531
 21
430.000364
 31
0.0
  0
ARC
  5
2A0
330
1F
100
AcDbEntity
  8
LC-001-100-D00-0
 62
     7
370
    50
100
AcDbCircle
 10
316.323531
 20
429.000364
 30
0.0
 40
1.000000000000682
100
AcDbArc
 50
0.0
 51
90.0
  0
ARC
  5
2A1
330
1F
100
AcDbEntity
  8
LC-001-100-D00-0
 62
     7
370
    50
100
AcDbCircle
 10
315.823531
 20
429.000364
 30
0.0
 40
1.700000276787478
100
AcDbArc
 50
90.0
 51
180.0
  0
ARC
  5
2A2
330
1F
100
AcDbEntity
  8
LC-001-100-D00-0
 62
     7
370
    50
100
AcDbCircle
 10
319.523531
 20
426.659956
 30
0.0
 40
1.499999896479324
100
AcDbArc
 50
180.0
 51
228.1897
  0
LINE
  5
2A3
330
1F
100
AcDbEntity
  8
LC-001-100-D00-0
 62
     7
370
    50
100
AcDbLine
 10
315.823531
 20
430.700364
 30
0.0
 11
316.323531
 21
430.700364
 31
0.0
  0
LINE
  5
2A4
330
1F
100
AcDbEntity
  8
LC-001-100-D00-0
 62
     7
370
    50
100
AcDbLine
 10
314.12353
 20
429.000364
 30
0.0
 11
314.12353
 21
424.969043
 31
0.0
  0
LINE
  5
2A5
330
1F
100
AcDbEntity
  8
LC-001-100-D00-0
 62
     7
370
    50
100
AcDbLine
 10
318.523531
 20
424.700364
 30
0.0
 11
318.523531
 21
425.541922
 31
0.0
  0
ARC
  5
2A6
330
1F
100
AcDbEntity
  8
LC-001-100-D00-0
 62
     7
370
    50
100
AcDbCircle
 10
224.848531
 20
414.169043
 30
0.0
 40
0.800000000000864
100
AcDbArc
 50
90.0
 51
200.0
  0
ARC
  5
2A7
330
1F
100
AcDbEntity
  8
LC-001-100-D00-0
 62
     7
370
    50
100
AcDbCircle
 10
224.323531
 20
419.469043
 30
0.0
 40
1.200000173266574
100
AcDbArc
 50
0.0
 51
90.0
  0
LINE
  5
2A8
330
1F
100
AcDbEntity
  8
LC-001-100-D00-0
 62
     7
370
    50
100
AcDbLine
 10
311.72353
 20
420.669043
 30
0.0
 11
224.323531
 21
420.669043
 31
0.0
  0
LINE
  5
2A9
330
1F
100
AcDbEntity
  8
LC-001-100-D00-0
 62
     7
370
    50
100
AcDbLine
 10
224.096777
 20
413.895427
 30
0.0
 11
225.259685
 21
410.700364
 31
0.0
  0
LINE
  5
2AA
330
1F
100
AcDbEntity
  8
LC-001-100-D00-0
 62
     7
370
    50
100
AcDbLine
 10
221.223531
 20
424.269043
 30
0.0
 11
221.223531
 21
421.669043
 31
0.0
  0
LINE
  5
2AB
330
1F
100
AcDbEntity
  8
LC-001-100-D00-0
 62
     7
370
    50
100
AcDbLine
 10
225.523531
 20
414.269043
 30
0.0
 11
225.523531
 21
419.469043
 31
0.0
  0
LINE
  5
2AC
330
1F
100
AcDbEntity
  8
LC-001-100-D00-0
 62
     7
370
    50
100
AcDbLine
 10
310.52353
 20
414.269043
 30
0.0
 11
225.523531
 21
414.269043
 31
0.0
  0
ARC
  5
2AD
330
1F
100
AcDbEntity
  8
LC-001-100-D00-0
 62
     7
370
    50
100
AcDbCircle
 10
216.523531
 20
426.659956
 30
0.0
 40
1.499999896479297
100
AcDbArc
 50
311.8103
 51
0.0
  0
LINE
  5
2AE
330
1F
100
AcDbEntity
  8
LC-001-100-D00-0
 62
     7
370
    50
100
AcDbLine
 10
218.02353
 20
426.659956
 30
0.0
 11
218.02353
 21
429.000364
 31
0.0
  0
ARC
  5
2AF
330
1F
100
AcDbEntity
  8
LC-001-100-D00-0
 62
     7
370
    50
100
AcDbCircle
 10
219.723531
 20
429.000364
 30
0.0
 40
1.700000276787478
100
AcDbArc
 50
90.0
 51
180.0
  0
ARC
  5
2B0
330
1F
100
AcDbEntity
  8
LC-001-100-D00-0
 62
     7
370
    50
100
AcDbCircle
 10
220.223531
 20
429.000364
 30
0.0
 40
1.700000276787478
100
AcDbArc
 50
0.0
 51
90.0
  0
LINE
  5
2B1
330
1F
100
AcDbEntity
  8
LC-001-100-D00-0
 62
     7
370
    50
100
AcDbLine
 10
221.923531
 20
429.000364
 30
0.0
 11
221.923531
 21
424.969043
 31
0.0
  0
LINE
  5
2B2
330
1F
100
AcDbEntity
  8
LC-001-100-D00-0
 62
     7
370
    50
100
AcDbLine
 10
221.223531
 20
424.269043
 30
0.0
 11
221.223531
 21
429.000364
 31
0.0
  0
ARC
  5
2B3
330
1F
100
AcDbEntity
  8
LC-001-100-D00-0
 62
     7
370
    50
100
AcDbCircle
 10
220.223531
 20
429.000364
 30
0.0
 40
1.000000170054136
100
AcDbArc
 50
0.0
 51
90.0
  0
ARC
  5
2B4
330
1F
100
AcDbEntity
  8
LC-001-100-D00-0
 62
     7
370
    50
100
AcDbCircle
 10
219.723531
 20
429.000364
 30
0.0
 40
1.0
100
AcDbArc
 50
90.0
 51
180.0
  0
LINE
  5
2B5
330
1F
100
AcDbEntity
  8
LC-001-100-D00-0
 62
     7
370
    50
100
AcDbLine
 10
218.723531
 20
429.000364
 30
0.0
 11
218.723531
 21
426.659956
 31
0.0
  0
ARC
  5
2B6
330
1F
100
AcDbEntity
  8
LC-001-100-D00-0
 62
     7
370
    50
100
AcDbCircle
 10
216.523531
 20
426.659956
 30
0.0
 40
2.200000173266687
100
AcDbArc
 50
297.035679
 51
0.0
  0
LINE
  5
2B7
330
1F
100
AcDbEntity
  8
LC-001-100-D00-0
 62
     7
370
    50
100
AcDbLine
 10
217.52353
 20
424.700364
 30
0.0
 11
217.52353
 21
425.541922
 31
0.0
  0
LINE
  5
2B8
330
1F
100
AcDbEntity
  8
LC-001-100-D00-0
 62
     7
370
    50
100
AcDbLine
 10
222.923531
 20
419.969043
 30
0.0
 11
224.323531
 21
419.969043
 31
0.0
  0
LINE
  5
2B9
330
1F
100
AcDbEntity
  8
LC-001-100-D00-0
 62
     7
370
    50
100
AcDbLine
 10
224.705716
 20
414.269043
 30
0.0
 11
225.523531
 21
414.269043
 31
0.0
  0
LINE
  5
2BA
330
1F
100
AcDbEntity
  8
LC-001-100-D00-0
 62
     7
370
    50
100
AcDbLine
 10
224.823531
 20
414.969043
 30
0.0
 11
224.848531
 21
414.969043
 31
0.0
  0
LINE
  5
2BB
330
1F
100
AcDbEntity
  8
LC-001-100-D00-0
 62
     7
370
    50
100
AcDbLine
 10
224.323531
 20
420.669043
 30
0.0
 11
222.923531
 21
420.669043
 31
0.0
  0
LINE
  5
2BC
330
1F
100
AcDbEntity
  8
LC-001-100-D00-0
 62
     7
370
    50
100
AcDbLine
 10
220.223531
 20
430.000364
 30
0.0
 11
219.723531
 21
430.000364
 31
0.0
  0
LINE
  5
2BD
330
1F
100
AcDbEntity
  8
LC-001-100-D00-0
 62
     7
370
    50
100
AcDbLine
 10
219.723531
 20
430.700364
 30
0.0
 11
220.223531
 21
430.700364
 31
0.0
  0
LINE
  5
2BE
330
1F
100
AcDbEntity
  8
LC-001-100-D00-0
 62
     7
370
    50
100
AcDbLine
 10
221.923531
 20
424.969043
 30
0.0
 11
222.523531
 21
424.969043
 31
0.0
  0
LINE
  5
2BF
330
1F
100
AcDbEntity
  8
LC-001-100-D00-0
 62
     7
370
    50
100
AcDbLine
 10
224.023531
 20
424.969043
 30
0.0
 11
249.346273
 21
424.969043
 31
0.0
  0
LINE
  5
2C0
330
1F
100
AcDbEntity
  8
LC-001-100-D00-0
 62
     7
370
    50
100
AcDbLine
 10
286.700789
 20
424.969043
 30
0.0
 11
312.023531
 21
424.969043
 31
0.0
  0
LINE
  5
2C1
330
1F
100
AcDbEntity
  8
LC-001-100-D00-0
 62
     7
370
    50
100
AcDbLine
 10
313.523531
 20
424.969043
 30
0.0
 11
314.12353
 21
424.969043
 31
0.0
  0
LINE
  5
2C2
330
1F
100
AcDbEntity
  8
LC-001-100-D00-0
 62
     7
370
    50
100
AcDbLine
 10
221.158866
 20
424.700364
 30
0.0
 11
217.52353
 21
424.700364
 31
0.0
  0
LINE
  5
2C3
330
1F
100
AcDbEntity
  8
LC-001-100-D00-0
 62
     7
370
    50
100
AcDbLine
 10
224.723531
 20
430.700364
 30
0.0
 11
220.223531
 21
430.700364
 31
0.0
  0
LINE
  5
2C4
330
1F
100
AcDbEntity
  8
LC-001-100-D00-0
 62
     7
370
    50
100
AcDbLine
 10
318.523531
 20
424.700364
 30
0.0
 11
314.894339
 21
424.700364
 31
0.0
  0
LINE
  5
2C5
330
1F
100
AcDbEntity
  8
LC-001-100-D00-0
 62
     7
370
    50
100
AcDbLine
 10
315.823531
 20
430.700364
 30
0.0
 11
311.323531
 21
430.700364
 31
0.0
  0
LINE
  5
2C6
330
1F
100
AcDbEntity
  8
LC-001-100-D00-0
 62
     7
370
    50
100
AcDbLine
 10
311.323531
 20
430.700364
 30
0.0
 11
224.723531
 21
430.700364
 31
0.0
  0
LINE
  5
2C7
330
1F
100
AcDbEntity
  8
LC-001-100-D00-0
 62
     7
370
    50
100
AcDbLine
 10
274.523531
 20
429.969043
 30
0.0
 11
270.023492
 21
429.969043
 31
0.0
  0
ARC
  5
2C8
330
1F
100
AcDbEntity
  8
LC-001-100-D00-0
 62
     7
370
    50
100
AcDbCircle
 10
274.523531
 20
427.469043
 30
0.0
 40
2.5
100
AcDbArc
 50
0.0
 51
90.0
  0
LINE
  5
2C9
330
1F
100
AcDbEntity
  8
LC-001-100-D00-0
 62
     7
370
    50
100
AcDbLine
 10
277.023531
 20
425.969043
 30
0.0
 11
277.023531
 21
427.469043
 31
0.0
  0
LINE
  5
2CA
330
1F
100
AcDbEntity
  8
LC-001-100-D00-0
 62
     7
370
    50
100
AcDbLine
 10
275.523531
 20
425.969043
 30
0.0
 11
277.023531
 21
425.969043
 31
0.0
  0
LINE
  5
2CB
330
1F
100
AcDbEntity
  8
LC-001-100-D00-0
 62
     7
370
    50
100
AcDbLine
 10
275.523531
 20
425.969043
 30
0.0
 11
275.523531
 21
427.469043
 31
0.0
  0
ARC
  5
2CC
330
1F
100
AcDbEntity
  8
LC-001-100-D00-0
 62
     7
370
    50
100
AcDbCircle
 10
274.523531
 20
427.469043
 30
0.0
 40
1.0
100
AcDbArc
 50
0.0
 51
90.0
  0
LINE
  5
2CD
330
1F
100
AcDbEntity
  8
LC-001-100-D00-0
 62
     7
370
    50
100
AcDbLine
 10
274.523531
 20
428.469043
 30
0.0
 11
269.878261
 21
428.469043
 31
0.0
  0
LINE
  5
2CE
330
1F
100
AcDbEntity
  8
LC-001-100-D00-0
 62
     7
370
    50
100
AcDbLine
 10
269.878261
 20
428.569043
 30
0.0
 11
269.878261
 21
428.469043
 31
0.0
  0
LINE
  5
2CF
330
1F
100
AcDbEntity
  8
LC-001-100-D00-0
 62
     7
370
    50
100
AcDbLine
 10
269.473416
 20
428.569043
 30
0.0
 11
269.878261
 21
428.569043
 31
0.0
  0
LINE
  5
2D0
330
1F
100
AcDbEntity
  8
LC-001-100-D00-0
 62
     7
370
    50
100
AcDbLine
 10
269.473416
 20
428.469043
 30
0.0
 11
269.473416
 21
428.569043
 31
0.0
  0
LINE
  5
2D1
330
1F
100
AcDbEntity
  8
LC-001-100-D00-0
 62
     7
370
    50
100
AcDbLine
 10
269.473416
 20
428.469043
 30
0.0
 11
268.00099
 21
428.469043
 31
0.0
  0
LINE
  5
2D2
330
1F
100
AcDbEntity
  8
LC-001-100-D00-0
 62
     7
370
    50
100
AcDbLine
 10
268.00099
 20
428.569043
 30
0.0
 11
268.00099
 21
428.469043
 31
0.0
  0
LINE
  5
2D3
330
1F
100
AcDbEntity
  8
LC-001-100-D00-0
 62
     7
370
    50
100
AcDbLine
 10
267.427498
 20
428.569043
 30
0.0
 11
268.00099
 21
428.569043
 31
0.0
  0
LINE
  5
2D4
330
1F
100
AcDbEntity
  8
LC-001-100-D00-0
 62
     7
370
    50
100
AcDbLine
 10
267.427498
 20
428.469043
 30
0.0
 11
267.427498
 21
428.569043
 31
0.0
  0
LINE
  5
2D5
330
1F
100
AcDbEntity
  8
LC-001-100-D00-0
 62
     7
370
    50
100
AcDbLine
 10
267.427498
 20
428.469043
 30
0.0
 11
266.827855
 21
428.469043
 31
0.0
  0
LINE
  5
2D6
330
1F
100
AcDbEntity
  8
LC-001-100-D00-0
 62
     7
370
    50
100
AcDbLine
 10
266.827855
 20
428.569043
 30
0.0
 11
266.827855
 21
428.469043
 31
0.0
  0
LINE
  5
2D7
330
1F
100
AcDbEntity
  8
LC-001-100-D00-0
 62
     7
370
    50
100
AcDbLine
 10
266.379137
 20
428.569043
 30
0.0
 11
266.827855
 21
428.569043
 31
0.0
  0
LINE
  5
2D8
330
1F
100
AcDbEntity
  8
LC-001-100-D00-0
 62
     7
370
    50
100
AcDbLine
 10
266.379137
 20
428.469043
 30
0.0
 11
266.379137
 21
428.569043
 31
0.0
  0
LINE
  5
2D9
330
1F
100
AcDbEntity
  8
LC-001-100-D00-0
 62
     7
370
    50
100
AcDbLine
 10
266.379137
 20
428.469043
 30
0.0
 11
261.523531
 21
428.469043
 31
0.0
  0
ARC
  5
2DA
330
1F
100
AcDbEntity
  8
LC-001-100-D00-0
 62
     7
370
    50
100
AcDbCircle
 10
261.523531
 20
427.469043
 30
0.0
 40
1.0
100
AcDbArc
 50
90.0
 51
180.0
  0
LINE
  5
2DB
330
1F
100
AcDbEntity
  8
LC-001-100-D00-0
 62
     7
370
    50
100
AcDbLine
 10
260.523531
 20
427.469043
 30
0.0
 11
260.523531
 21
425.969043
 31
0.0
  0
LINE
  5
2DC
330
1F
100
AcDbEntity
  8
LC-001-100-D00-0
 62
     7
370
    50
100
AcDbLine
 10
259.023531
 20
425.969043
 30
0.0
 11
260.523531
 21
425.969043
 31
0.0
  0
LINE
  5
2DD
330
1F
100
AcDbEntity
  8
LC-001-100-D00-0
 62
     7
370
    50
100
AcDbLine
 10
259.023531
 20
427.469043
 30
0.0
 11
259.023531
 21
425.969043
 31
0.0
  0
ARC
  5
2DE
330
1F
100
AcDbEntity
  8
LC-001-100-D00-0
 62
     7
370
    50
100
AcDbCircle
 10
261.523531
 20
427.469043
 30
0.0
 40
2.499999999999886
100
AcDbArc
 50
90.0
 51
180.0
  0
LINE
  5
2DF
330
1F
100
AcDbEntity
  8
LC-001-100-D00-0
 62
     7
370
    50
100
AcDbLine
 10
266.02357
 20
429.969043
 30
0.0
 11
261.523531
 21
429.969043
 31
0.0
  0
LINE
  5
2E0
330
1F
100
AcDbEntity
  8
LC-001-100-D00-0
 62
     7
370
    50
100
AcDbLine
 10
270.023492
 20
429.969043
 30
0.0
 11
266.02357
 21
429.969043
 31
0.0
  0
LINE
  5
2E1
330
1F
100
AcDbEntity
  8
LC-001-100-D00-0
 62
     7
370
    50
100
AcDbLine
 10
267.477093
 20
428.569043
 30
0.0
 11
267.477093
 21
428.469043
 31
0.0
  0
INSERT
  5
2F1
330
1F
100
AcDbEntity
  8
LC-001-100-D00-0
 62
     7
370
    50
100
AcDbBlockReference
  2
POLY17
 10
0.0
 20
0.0
 30
0.0
  0
LINE
  5
2F2
330
1F
100
AcDbEntity
  8
LC-001-100-D00-0
 62
     7
370
    50
100
AcDbLine
 10
312.023531
 20
427.469043
 30
0.0
 11
312.023531
 21
424.969043
 31
0.0
  0
ARC
  5
2F3
330
1F
100
AcDbEntity
  8
LC-001-100-D00-0
 62
     7
370
    50
100
AcDbCircle
 10
311.023531
 20
427.469043
 30
0.0
 40
1.0
100
AcDbArc
 50
0.0
 51
90.0
  0
ARC
  5
2F4
330
1F
100
AcDbEntity
  8
LC-001-100-D00-0
 62
     7
370
    50
100
AcDbCircle
 10
309.523531
 20
427.469043
 30
0.0
 40
1.0
100
AcDbArc
 50
90.0
 51
180.0
  0
LINE
  5
2F5
330
1F
100
AcDbEntity
  8
LC-001-100-D00-0
 62
     7
370
    50
100
AcDbLine
 10
308.523531
 20
427.469043
 30
0.0
 11
308.523531
 21
425.969043
 31
0.0
  0
LINE
  5
2F6
330
1F
100
AcDbEntity
  8
LC-001-100-D00-0
 62
     7
370
    50
100
AcDbLine
 10
307.023531
 20
425.969043
 30
0.0
 11
308.523531
 21
425.969043
 31
0.0
  0
LINE
  5
2F7
330
1F
100
AcDbEntity
  8
LC-001-100-D00-0
 62
     7
370
    50
100
AcDbLine
 10
307.023531
 20
427.469043
 30
0.0
 11
307.023531
 21
425.969043
 31
0.0
  0
ARC
  5
2F8
330
1F
100
AcDbEntity
  8
LC-001-100-D00-0
 62
     7
370
    50
100
AcDbCircle
 10
309.523531
 20
427.469043
 30
0.0
 40
2.5
100
AcDbArc
 50
90.0
 51
180.0
  0
ARC
  5
2F9
330
1F
100
AcDbEntity
  8
LC-001-100-D00-0
 62
     7
370
    50
100
AcDbCircle
 10
311.023531
 20
427.469043
 30
0.0
 40
2.500000000000057
100
AcDbArc
 50
0.0
 51
90.0
  0
LINE
  5
2FA
330
1F
100
AcDbEntity
  8
LC-001-100-D00-0
 62
     7
370
    50
100
AcDbLine
 10
313.523531
 20
427.469043
 30
0.0
 11
313.523531
 21
424.969043
 31
0.0
  0
LINE
  5
2FB
330
1F
100
AcDbEntity
  8
LC-001-100-D00-0
 62
     7
370
    50
100
AcDbLine
 10
313.523531
 20
424.969043
 30
0.0
 11
312.023531
 21
424.969043
 31
0.0
  0
LINE
  5
2FC
330
1F
100
AcDbEntity
  8
LC-001-100-D00-0
 62
     7
370
    50
100
AcDbLine
 10
311.023531
 20
428.469043
 30
0.0
 11
309.523531
 21
428.469043
 31
0.0
  0
LINE
  5
2FD
330
1F
100
AcDbEntity
  8
LC-001-100-D00-0
 62
     7
370
    50
100
AcDbLine
 10
311.023531
 20
429.969043
 30
0.0
 11
309.523531
 21
429.969043
 31
0.0
  0
LINE
  5
2FE
330
1F
100
AcDbEntity
  8
LC-001-100-D00-0
 62
     7
370
    50
100
AcDbLine
 10
222.523531
 20
424.969043
 30
0.0
 11
222.523531
 21
427.469043
 31
0.0
  0
ARC
  5
2FF
330
1F
100
AcDbEntity
  8
LC-001-100-D00-0
 62
     7
370
    50
100
AcDbCircle
 10
225.023531
 20
427.469043
 30
0.0
 40
2.5
100
AcDbArc
 50
90.0
 51
180.0
  0
ARC
  5
300
330
1F
100
AcDbEntity
  8
LC-001-100-D00-0
 62
     7
370
    50
100
AcDbCircle
 10
226.523531
 20
427.469043
 30
0.0
 40
2.500000000000227
100
AcDbArc
 50
0.0
 51
90.0
  0
LINE
  5
301
330
1F
100
AcDbEntity
  8
LC-001-100-D00-0
 62
     7
370
    50
100
AcDbLine
 10
229.023531
 20
425.969043
 30
0.0
 11
229.023531
 21
427.469043
 31
0.0
  0
LINE
  5
302
330
1F
100
AcDbEntity
  8
LC-001-100-D00-0
 62
     7
370
    50
100
AcDbLine
 10
227.523531
 20
425.969043
 30
0.0
 11
229.023531
 21
425.969043
 31
0.0
  0
LINE
  5
303
330
1F
100
AcDbEntity
  8
LC-001-100-D00-0
 62
     7
370
    50
100
AcDbLine
 10
227.523531
 20
425.969043
 30
0.0
 11
227.523531
 21
427.469043
 31
0.0
  0
ARC
  5
304
330
1F
100
AcDbEntity
  8
LC-001-100-D00-0
 62
     7
370
    50
100
AcDbCircle
 10
226.523531
 20
427.469043
 30
0.0
 40
1.000000000000227
100
AcDbArc
 50
0.0
 51
90.0
  0
ARC
  5
305
330
1F
100
AcDbEntity
  8
LC-001-100-D00-0
 62
     7
370
    50
100
AcDbCircle
 10
225.023531
 20
427.469043
 30
0.0
 40
1.0
100
AcDbArc
 50
90.0
 51
180.0
  0
LINE
  5
306
330
1F
100
AcDbEntity
  8
LC-001-100-D00-0
 62
     7
370
    50
100
AcDbLine
 10
224.023531
 20
424.969043
 30
0.0
 11
224.023531
 21
427.469043
 31
0.0
  0
LINE
  5
307
330
1F
100
AcDbEntity
  8
LC-001-100-D00-0
 62
     7
370
    50
100
AcDbLine
 10
224.023531
 20
424.969043
 30
0.0
 11
222.523531
 21
424.969043
 31
0.0
  0
LINE
  5
308
330
1F
100
AcDbEntity
  8
LC-001-100-D00-0
 62
     7
370
    50
100
AcDbLine
 10
226.523531
 20
428.469043
 30
0.0
 11
225.023531
 21
428.469043
 31
0.0
  0
LINE
  5
309
330
1F
100
AcDbEntity
  8
LC-001-100-D00-0
 62
     7
370
    50
100
AcDbLine
 10
226.523531
 20
429.969043
 30
0.0
 11
225.023531
 21
429.969043
 31
0.0
  0
ARC
  5
30A
330
1F
100
AcDbEntity
  8
LC-001-100-D00-0
 62
     7
370
    50
100
AcDbCircle
 10
249.523531
 20
427.469043
 30
0.0
 40
2.5
100
AcDbArc
 50
90.0
 51
180.0
  0
ARC
  5
30B
330
1F
100
AcDbEntity
  8
LC-001-100-D00-0
 62
     7
370
    50
100
AcDbCircle
 10
250.523531
 20
427.469043
 30
0.0
 40
2.500000000000227
100
AcDbArc
 50
0.0
 51
90.0
  0
LINE
  5
30C
330
1F
100
AcDbEntity
  8
LC-001-100-D00-0
 62
     7
370
    50
100
AcDbLine
 10
253.023531
 20
425.969043
 30
0.0
 11
253.023531
 21
427.469043
 31
0.0
  0
LINE
  5
30D
330
1F
100
AcDbEntity
  8
LC-001-100-D00-0
 62
     7
370
    50
100
AcDbLine
 10
251.523531
 20
425.969043
 30
0.0
 11
253.023531
 21
425.969043
 31
0.0
  0
LINE
  5
30E
330
1F
100
AcDbEntity
  8
LC-001-100-D00-0
 62
     7
370
    50
100
AcDbLine
 10
251.523531
 20
425.969043
 30
0.0
 11
251.523531
 21
427.469043
 31
0.0
  0
ARC
  5
30F
330
1F
100
AcDbEntity
  8
LC-001-100-D00-0
 62
     7
370
    50
100
AcDbCircle
 10
250.523531
 20
427.469043
 30
0.0
 40
1.0
100
AcDbArc
 50
0.0
 51
90.0
  0
ARC
  5
310
330
1F
100
AcDbEntity
  8
LC-001-100-D00-0
 62
     7
370
    50
100
AcDbCircle
 10
249.523531
 20
427.469043
 30
0.0
 40
1.000000000000114
100
AcDbArc
 50
90.0
 51
180.0
  0
LINE
  5
311
330
1F
100
AcDbEntity
  8
LC-001-100-D00-0
 62
     7
370
    50
100
AcDbLine
 10
248.523531
 20
427.469043
 30
0.0
 11
248.523531
 21
425.969043
 31
0.0
  0
LINE
  5
312
330
1F
100
AcDbEntity
  8
LC-001-100-D00-0
 62
     7
370
    50
100
AcDbLine
 10
247.023531
 20
425.969043
 30
0.0
 11
248.523531
 21
425.969043
 31
0.0
  0
LINE
  5
313
330
1F
100
AcDbEntity
  8
LC-001-100-D00-0
 62
     7
370
    50
100
AcDbLine
 10
247.023531
 20
427.469043
 30
0.0
 11
247.023531
 21
425.969043
 31
0.0
  0
LINE
  5
314
330
1F
100
AcDbEntity
  8
LC-001-100-D00-0
 62
     7
370
    50
100
AcDbLine
 10
250.523531
 20
428.469043
 30
0.0
 11
249.523531
 21
428.469043
 31
0.0
  0
LINE
  5
315
330
1F
100
AcDbEntity
  8
LC-001-100-D00-0
 62
     7
370
    50
100
AcDbLine
 10
250.523531
 20
429.969043
 30
0.0
 11
249.523531
 21
429.969043
 31
0.0
  0
ARC
  5
316
330
1F
100
AcDbEntity
  8
LC-001-100-D00-0
 62
     7
370
    50
100
AcDbCircle
 10
286.523531
 20
427.469043
 30
0.0
 40
0.9999999999999432
100
AcDbArc
 50
0.0
 51
90.0
  0
ARC
  5
317
330
1F
100
AcDbEntity
  8
LC-001-100-D00-0
 62
     7
370
    50
100
AcDbCircle
 10
285.523531
 20
427.469043
 30
0.0
 40
1.000000000000227
100
AcDbArc
 50
90.0
 51
180.0
  0
LINE
  5
318
330
1F
100
AcDbEntity
  8
LC-001-100-D00-0
 62
     7
370
    50
100
AcDbLine
 10
284.523531
 20
427.469043
 30
0.0
 11
284.523531
 21
425.969043
 31
0.0
  0
LINE
  5
319
330
1F
100
AcDbEntity
  8
LC-001-100-D00-0
 62
     7
370
    50
100
AcDbLine
 10
283.023531
 20
425.969043
 30
0.0
 11
284.523531
 21
425.969043
 31
0.0
  0
LINE
  5
31A
330
1F
100
AcDbEntity
  8
LC-001-100-D00-0
 62
     7
370
    50
100
AcDbLine
 10
283.023531
 20
427.469043
 30
0.0
 11
283.023531
 21
425.969043
 31
0.0
  0
ARC
  5
31B
330
1F
100
AcDbEntity
  8
LC-001-100-D00-0
 62
     7
370
    50
100
AcDbCircle
 10
285.523531
 20
427.469043
 30
0.0
 40
2.500000000000114
100
AcDbArc
 50
90.0
 51
180.0
  0
ARC
  5
31C
330
1F
100
AcDbEntity
  8
LC-001-100-D00-0
 62
     7
370
    50
100
AcDbCircle
 10
286.523531
 20
427.469043
 30
0.0
 40
2.499999999999886
100
AcDbArc
 50
0.0
 51
90.0
  0
LINE
  5
31D
330
1F
100
AcDbEntity
  8
LC-001-100-D00-0
 62
     7
370
    50
100
AcDbLine
 10
289.023531
 20
425.969043
 30
0.0
 11
289.023531
 21
427.469043
 31
0.0
  0
LINE
  5
31E
330
1F
100
AcDbEntity
  8
LC-001-100-D00-0
 62
     7
370
    50
100
AcDbLine
 10
287.523531
 20
425.969043
 30
0.0
 11
289.023531
 21
425.969043
 31
0.0
  0
LINE
  5
31F
330
1F
100
AcDbEntity
  8
LC-001-100-D00-0
 62
     7
370
    50
100
AcDbLine
 10
287.523531
 20
425.969043
 30
0.0
 11
287.523531
 21
427.469043
 31
0.0
  0
LINE
  5
320
330
1F
100
AcDbEntity
  8
LC-001-100-D00-0
 62
     7
370
    50
100
AcDbLine
 10
286.523531
 20
428.469043
 30
0.0
 11
285.523531
 21
428.469043
 31
0.0
  0
LINE
  5
321
330
1F
100
AcDbEntity
  8
LC-001-100-D00-0
 62
     7
370
    50
100
AcDbLine
 10
286.523531
 20
429.969043
 30
0.0
 11
285.523531
 21
429.969043
 31
0.0
  0
ARC
  5
322
330
1F
100
AcDbEntity
  8
LC-001-100-D00-0
 62
     7
370
    50
100
AcDbCircle
 10
298.523531
 20
427.469043
 30
0.0
 40
1.000000000000057
100
AcDbArc
 50
0.0
 51
90.0
  0
ARC
  5
323
330
1F
100
AcDbEntity
  8
LC-001-100-D00-0
 62
     7
370
    50
100
AcDbCircle
 10
297.523531
 20
427.469043
 30
0.0
 40
1.000000000000114
100
AcDbArc
 50
90.0
 51
180.0
  0
LINE
  5
324
330
1F
100
AcDbEntity
  8
LC-001-100-D00-0
 62
     7
370
    50
100
AcDbLine
 10
295.023531
 20
425.969043
 30
0.0
 11
296.523531
 21
425.969043
 31
0.0
  0
ARC
  5
325
330
1F
100
AcDbEntity
  8
LC-001-100-D00-0
 62
     7
370
    50
100
AcDbCircle
 10
297.523531
 20
427.469043
 30
0.0
 40
2.500000000000227
100
AcDbArc
 50
90.0
 51
180.0
  0
ARC
  5
326
330
1F
100
AcDbEntity
  8
LC-001-100-D00-0
 62
     7
370
    50
100
AcDbCircle
 10
298.523531
 20
427.469043
 30
0.0
 40
2.500000000000114
100
AcDbArc
 50
0.0
 51
90.0
  0
LINE
  5
327
330
1F
100
AcDbEntity
  8
LC-001-100-D00-0
 62
     7
370
    50
100
AcDbLine
 10
301.023531
 20
425.969043
 30
0.0
 11
301.023531
 21
427.469043
 31
0.0
  0
LINE
  5
328
330
1F
100
AcDbEntity
  8
LC-001-100-D00-0
 62
     7
370
    50
100
AcDbLine
 10
299.523531
 20
425.969043
 30
0.0
 11
301.023531
 21
425.969043
 31
0.0
  0
LINE
  5
329
330
1F
100
AcDbEntity
  8
LC-001-100-D00-0
 62
     7
370
    50
100
AcDbLine
 10
299.523531
 20
425.969043
 30
0.0
 11
299.523531
 21
427.469043
 31
0.0
  0
LINE
  5
32A
330
1F
100
AcDbEntity
  8
LC-001-100-D00-0
 62
     7
370
    50
100
AcDbLine
 10
296.523531
 20
427.469043
 30
0.0
 11
296.523531
 21
425.969043
 31
0.0
  0
LINE
  5
32B
330
1F
100
AcDbEntity
  8
LC-001-100-D00-0
 62
     7
370
    50
100
AcDbLine
 10
295.023531
 20
427.469043
 30
0.0
 11
295.023531
 21
425.969043
 31
0.0
  0
LINE
  5
32C
330
1F
100
AcDbEntity
  8
LC-001-100-D00-0
 62
     7
370
    50
100
AcDbLine
 10
298.523531
 20
428.469043
 30
0.0
 11
297.523531
 21
428.469043
 31
0.0
  0
LINE
  5
32D
330
1F
100
AcDbEntity
  8
LC-001-100-D00-0
 62
     7
370
    50
100
AcDbLine
 10
298.523531
 20
429.969043
 30
0.0
 11
297.523531
 21
429.969043
 31
0.0
  0
ARC
  5
32E
330
1F
100
AcDbEntity
  8
LC-001-100-D00-0
 62
     7
370
    50
100
AcDbCircle
 10
237.523531
 20
427.469043
 30
0.0
 40
2.5
100
AcDbArc
 50
90.0
 51
180.0
  0
ARC
  5
32F
330
1F
100
AcDbEntity
  8
LC-001-100-D00-0
 62
     7
370
    50
100
AcDbCircle
 10
238.523531
 20
427.469043
 30
0.0
 40
2.500000000000114
100
AcDbArc
 50
0.0
 51
90.0
  0
LINE
  5
330
330
1F
100
AcDbEntity
  8
LC-001-100-D00-0
 62
     7
370
    50
100
AcDbLine
 10
241.023531
 20
425.969043
 30
0.0
 11
241.023531
 21
427.469043
 31
0.0
  0
ARC
  5
331
330
1F
100
AcDbEntity
  8
LC-001-100-D00-0
 62
     7
370
    50
100
AcDbCircle
 10
238.523531
 20
427.469043
 30
0.0
 40
1.000000000000114
100
AcDbArc
 50
0.0
 51
90.0
  0
ARC
  5
332
330
1F
100
AcDbEntity
  8
LC-001-100-D00-0
 62
     7
370
    50
100
AcDbCircle
 10
237.523531
 20
427.469043
 30
0.0
 40
1.0
100
AcDbArc
 50
90.0
 51
180.0
  0
LINE
  5
333
330
1F
100
AcDbEntity
  8
LC-001-100-D00-0
 62
     7
370
    50
100
AcDbLine
 10
235.023531
 20
425.969043
 30
0.0
 11
236.523531
 21
425.969043
 31
0.0
  0
LINE
  5
334
330
1F
100
AcDbEntity
  8
LC-001-100-D00-0
 62
     7
370
    50
100
AcDbLine
 10
236.523531
 20
427.469043
 30
0.0
 11
236.523531
 21
425.969043
 31
0.0
  0
LINE
  5
335
330
1F
100
AcDbEntity
  8
LC-001-100-D00-0
 62
     7
370
    50
100
AcDbLine
 10
239.523531
 20
425.969043
 30
0.0
 11
241.023531
 21
425.969043
 31
0.0
  0
LINE
  5
336
330
1F
100
AcDbEntity
  8
LC-001-100-D00-0
 62
     7
370
    50
100
AcDbLine
 10
239.523531
 20
425.969043
 30
0.0
 11
239.523531
 21
427.469043
 31
0.0
  0
LINE
  5
337
330
1F
100
AcDbEntity
  8
LC-001-100-D00-0
 62
     7
370
    50
100
AcDbLine
 10
235.023531
 20
427.469043
 30
0.0
 11
235.023531
 21
425.969043
 31
0.0
  0
LINE
  5
338
330
1F
100
AcDbEntity
  8
LC-001-100-D00-0
 62
     7
370
    50
100
AcDbLine
 10
238.523531
 20
428.469043
 30
0.0
 11
237.523531
 21
428.469043
 31
0.0
  0
LINE
  5
339
330
1F
100
AcDbEntity
  8
LC-001-100-D00-0
 62
     7
370
    50
100
AcDbLine
 10
238.523531
 20
429.969043
 30
0.0
 11
237.523531
 21
429.969043
 31
0.0
  0
LINE
  5
33A
330
1F
100
AcDbEntity
  8
LC-001-100-D00-0
 62
     7
370
    50
100
AcDbLine
 10
267.82598
 20
428.469043
 30
0.0
 11
267.477093
 21
428.469043
 31
0.0
  0
LINE
  5
33B
330
1F
100
AcDbEntity
  8
LC-001-100-D00-0
 62
     7
370
    50
100
AcDbLine
 10
266.827855
 20
428.469043
 30
0.0
 11
266.379137
 21
428.469043
 31
0.0
  0
LINE
  5
33C
330
1F
100
AcDbEntity
  8
LC-001-100-D00-0
 62
     7
370
    50
100
AcDbLine
 10
277.023531
 20
425.969043
 30
0.0
 11
283.023531
 21
425.969043
 31
0.0
  0
LINE
  5
33D
330
1F
100
AcDbEntity
  8
LC-001-100-D00-0
 62
     7
370
    50
100
AcDbLine
 10
250.523531
 20
429.969043
 30
0.0
 11
261.523531
 21
429.969043
 31
0.0
  0
LINE
  5
33E
330
1F
100
AcDbEntity
  8
LC-001-100-D00-0
 62
     7
370
    50
100
AcDbLine
 10
253.023531
 20
425.969043
 30
0.0
 11
259.023531
 21
425.969043
 31
0.0
  0
LINE
  5
33F
330
1F
100
AcDbEntity
  8
LC-001-100-D00-0
 62
     7
370
    50
100
AcDbLine
 10
274.523531
 20
429.969043
 30
0.0
 11
285.523531
 21
429.969043
 31
0.0
  0
LINE
  5
340
330
1F
100
AcDbEntity
  8
LC-001-100-D00-0
 62
     7
370
    50
100
AcDbLine
 10
286.523531
 20
429.969043
 30
0.0
 11
297.523531
 21
429.969043
 31
0.0
  0
LINE
  5
341
330
1F
100
AcDbEntity
  8
LC-001-100-D00-0
 62
     7
370
    50
100
AcDbLine
 10
289.023531
 20
425.969043
 30
0.0
 11
295.023531
 21
425.969043
 31
0.0
  0
LINE
  5
342
330
1F
100
AcDbEntity
  8
LC-001-100-D00-0
 62
     7
370
    50
100
AcDbLine
 10
241.023531
 20
425.969043
 30
0.0
 11
247.023531
 21
425.969043
 31
0.0
  0
LINE
  5
343
330
1F
100
AcDbEntity
  8
LC-001-100-D00-0
 62
     7
370
    50
100
AcDbLine
 10
238.523531
 20
429.969043
 30
0.0
 11
249.523531
 21
429.969043
 31
0.0
  0
LINE
  5
344
330
1F
100
AcDbEntity
  8
LC-001-100-D00-0
 62
     7
370
    50
100
AcDbLine
 10
287.523531
 20
425.969043
 30
0.0
 11
284.523531
 21
425.969043
 31
0.0
  0
LINE
  5
345
330
1F
100
AcDbEntity
  8
LC-001-100-D00-0
 62
     7
370
    50
100
AcDbLine
 10
251.523531
 20
425.969043
 30
0.0
 11
248.523531
 21
425.969043
 31
0.0
  0
LINE
  5
346
330
1F
100
AcDbEntity
  8
LC-001-100-D00-0
 62
     7
370
    50
100
AcDbLine
 10
275.523531
 20
425.969043
 30
0.0
 11
260.523531
 21
425.969043
 31
0.0
  0
LINE
  5
347
330
1F
100
AcDbEntity
  8
LC-001-100-D00-0
 62
     7
370
    50
100
AcDbLine
 10
301.023531
 20
425.969043
 30
0.0
 11
307.023531
 21
425.969043
 31
0.0
  0
LINE
  5
348
330
1F
100
AcDbEntity
  8
LC-001-100-D00-0
 62
     7
370
    50
100
AcDbLine
 10
298.523531
 20
429.969043
 30
0.0
 11
309.523531
 21
429.969043
 31
0.0
  0
LINE
  5
349
330
1F
100
AcDbEntity
  8
LC-001-100-D00-0
 62
     7
370
    50
100
AcDbLine
 10
229.023531
 20
425.969043
 30
0.0
 11
235.023531
 21
425.969043
 31
0.0
  0
LINE
  5
34A
330
1F
100
AcDbEntity
  8
LC-001-100-D00-0
 62
     7
370
    50
100
AcDbLine
 10
226.523531
 20
429.969043
 30
0.0
 11
237.523531
 21
429.969043
 31
0.0
  0
LINE
  5
34B
330
1F
100
AcDbEntity
  8
LC-001-100-D00-0
 62
     7
370
    50
100
AcDbLine
 10
298.523531
 20
425.969043
 30
0.0
 11
296.523531
 21
425.969043
 31
0.0
  0
LINE
  5
34C
330
1F
100
AcDbEntity
  8
LC-001-100-D00-0
 62
     7
370
    50
100
AcDbLine
 10
239.523531
 20
425.969043
 30
0.0
 11
237.523531
 21
425.969043
 31
0.0
  0
LINE
  5
34D
330
1F
100
AcDbEntity
  8
LC-001-100-D00-0
 62
     7
370
    50
100
AcDbLine
 10
286.700789
 20
424.969043
 30
0.0
 11
249.346273
 21
424.969043
 31
0.0
  0
LINE
  5
34E
330
1F
100
AcDbEntity
  8
LC-001-100-D00-0
 62
     7
370
    50
100
AcDbLine
 10
339.023531
 20
378.669043
 30
0.0
 11
339.023531
 21
380.669043
 31
0.0
  0
LINE
  5
34F
330
1F
100
AcDbEntity
  8
LC-001-100-D00-0
 62
     7
370
    50
100
AcDbLine
 10
197.023531
 20
380.669043
 30
0.0
 11
197.023531
 21
378.669043
 31
0.0
  0
LINE
  5
350
330
1F
100
AcDbEntity
  8
LC-001-100-D00-0
 62
     7
370
    50
100
AcDbLine
 10
219.273531
 20
378.669043
 30
0.0
 11
219.273531
 21
376.469043
 31
0.0
  0
LINE
  5
351
330
1F
100
AcDbEntity
  8
LC-001-100-D00-0
 62
     7
370
    50
100
AcDbLine
 10
316.773531
 20
376.469043
 30
0.0
 11
316.773531
 21
378.669043
 31
0.0
  0
ARC
  5
352
330
1F
100
AcDbEntity
  8
LC-001-100-D00-0
 62
     7
370
    50
100
AcDbCircle
 10
220.273531
 20
376.469043
 30
0.0
 40
1.0
100
AcDbArc
 50
180.0
 51
270.0
  0
ARC
  5
353
330
1F
100
AcDbEntity
  8
LC-001-100-D00-0
 62
     7
370
    50
100
AcDbCircle
 10
315.773531
 20
376.469043
 30
0.0
 40
1.000000000000114
100
AcDbArc
 50
270.0
 51
0.0
  0
LINE
  5
354
330
1F
100
AcDbEntity
  8
LC-001-100-D00-0
 62
     7
370
    50
100
AcDbLine
 10
315.523531
 20
380.669043
 30
0.0
 11
315.523531
 21
379.169043
 31
0.0
  0
LINE
  5
355
330
1F
100
AcDbEntity
  8
LC-001-100-D00-0
 62
     7
370
    50
100
AcDbLine
 10
314.980999
 20
379.169043
 30
0.0
 11
315.523531
 21
379.169043
 31
0.0
  0
LINE
  5
356
330
1F
100
AcDbEntity
  8
LC-001-100-D00-0
 62
     7
370
    50
100
AcDbLine
 10
313.564034
 20
376.313987
 30
0.0
 11
313.564034
 21
375.469043
 31
0.0
  0
LINE
  5
357
330
1F
100
AcDbEntity
  8
LC-001-100-D00-0
 62
     7
370
    50
100
AcDbLine
 10
220.523531
 20
379.169043
 30
0.0
 11
222.173531
 21
379.169043
 31
0.0
  0
LINE
  5
358
330
1F
100
AcDbEntity
  8
LC-001-100-D00-0
 62
     7
370
    50
100
AcDbLine
 10
220.523531
 20
379.169043
 30
0.0
 11
220.523531
 21
380.669043
 31
0.0
  0
LINE
  5
359
330
1F
100
AcDbEntity
  8
LC-001-100-D00-0
 62
     7
370
    50
100
AcDbLine
 10
313.564034
 20
375.469043
 30
0.0
 11
314.002707
 21
375.469043
 31
0.0
  0
LINE
  5
35A
330
1F
100
AcDbEntity
  8
LC-001-100-D00-0
 62
     7
370
    50
100
AcDbLine
 10
220.523531
 20
380.669043
 30
0.0
 11
222.173531
 21
380.669043
 31
0.0
  0
LINE
  5
35B
330
1F
100
AcDbEntity
  8
LC-001-100-D00-0
 62
     7
370
    50
100
AcDbLine
 10
313.873531
 20
380.669043
 30
0.0
 11
315.523531
 21
380.669043
 31
0.0
  0
LINE
  5
35C
330
1F
100
AcDbEntity
  8
LC-001-100-D00-0
 62
     7
370
    50
100
AcDbLine
 10
220.523531
 20
379.169043
 30
0.0
 11
221.023531
 21
378.669043
 31
0.0
  0
LINE
  5
35D
330
1F
100
AcDbEntity
  8
LC-001-100-D00-0
 62
     7
370
    50
100
AcDbLine
 10
221.523531
 20
378.669043
 30
0.0
 11
221.023531
 21
378.669043
 31
0.0
  0
LINE
  5
35E
330
1F
100
AcDbEntity
  8
LC-001-100-D00-0
 62
     7
370
    50
100
AcDbLine
 10
221.523531
 20
375.469043
 30
0.0
 11
221.523531
 21
378.669043
 31
0.0
  0
LINE
  5
35F
330
1F
100
AcDbEntity
  8
LC-001-100-D00-0
 62
     7
370
    50
100
AcDbLine
 10
220.273531
 20
375.469043
 30
0.0
 11
221.523531
 21
375.469043
 31
0.0
  0
LINE
  5
360
330
1F
100
AcDbEntity
  8
LC-001-100-D00-0
 62
     7
370
    50
100
AcDbLine
 10
197.023531
 20
378.669043
 30
0.0
 11
219.273531
 21
378.669043
 31
0.0
  0
LINE
  5
361
330
1F
100
AcDbEntity
  8
LC-001-100-D00-0
 62
     7
370
    50
100
AcDbLine
 10
220.523531
 20
380.669043
 30
0.0
 11
197.023531
 21
380.669043
 31
0.0
  0
LINE
  5
362
330
1F
100
AcDbEntity
  8
LC-001-100-D00-0
 62
     7
370
    50
100
AcDbLine
 10
314.523531
 20
378.669043
 30
0.0
 11
314.523531
 21
375.469043
 31
0.0
  0
LINE
  5
363
330
1F
100
AcDbEntity
  8
LC-001-100-D00-0
 62
     7
370
    50
100
AcDbLine
 10
315.023531
 20
378.669043
 30
0.0
 11
314.523531
 21
378.669043
 31
0.0
  0
LINE
  5
364
330
1F
100
AcDbEntity
  8
LC-001-100-D00-0
 62
     7
370
    50
100
AcDbLine
 10
315.023531
 20
378.669043
 30
0.0
 11
315.523531
 21
379.169043
 31
0.0
  0
LINE
  5
365
330
1F
100
AcDbEntity
  8
LC-001-100-D00-0
 62
     7
370
    50
100
AcDbLine
 10
314.523531
 20
375.469043
 30
0.0
 11
315.773531
 21
375.469043
 31
0.0
  0
LINE
  5
366
330
1F
100
AcDbEntity
  8
LC-001-100-D00-0
 62
     7
370
    50
100
AcDbLine
 10
316.773531
 20
378.669043
 30
0.0
 11
339.023531
 21
378.669043
 31
0.0
  0
LINE
  5
367
330
1F
100
AcDbEntity
  8
LC-001-100-D00-0
 62
     7
370
    50
100
AcDbLine
 10
339.023531
 20
380.669043
 30
0.0
 11
315.523531
 21
380.669043
 31
0.0
  0
INSERT
  5
37B
330
1F
100
AcDbEntity
  8
LC-001-100-D00-0
 62
     7
370
    50
100
AcDbBlockReference
  2
POLY18
 10
0.0
 20
0.0
 30
0.0
  0
LINE
  5
37C
330
1F
100
AcDbEntity
  8
LC-001-100-D00-0
 62
     7
370
    50
100
AcDbLine
 10
222.173531
 20
378.669043
 30
0.0
 11
221.523531
 21
378.669043
 31
0.0
  0
LINE
  5
37D
330
1F
100
AcDbEntity
  8
LC-001-100-D00-0
 62
     7
370
    50
100
AcDbLine
 10
221.525755
 20
375.469043
 30
0.0
 11
221.523531
 21
375.469043
 31
0.0
  0
LINE
  5
37E
330
1F
100
AcDbEntity
  8
LC-001-100-D00-0
 62
     7
370
    50
100
AcDbLine
 10
314.491866
 20
378.669043
 30
0.0
 11
314.980999
 21
379.169043
 31
0.0
  0
INSERT
  5
38C
330
1F
100
AcDbEntity
  8
LC-001-100-D00-0
 62
     7
370
    50
100
AcDbBlockReference
  2
POLY19
 10
0.0
 20
0.0
 30
0.0
  0
LINE
  5
38D
330
1F
100
AcDbEntity
  8
LC-001-100-D00-0
 62
     7
370
    50
100
AcDbLine
 10
314.002707
 20
378.669043
 30
0.0
 11
314.002707
 21
375.469043
 31
0.0
  0
LINE
  5
38E
330
1F
100
AcDbEntity
  8
LC-001-100-D00-0
 62
     7
370
    50
100
AcDbLine
 10
314.002707
 20
378.669043
 30
0.0
 11
314.523531
 21
378.669043
 31
0.0
  0
LINE
  5
38F
330
1F
100
AcDbEntity
  8
LC-001-100-D00-0
 62
     7
370
    50
100
AcDbLine
 10
314.523531
 20
375.469043
 30
0.0
 11
314.002707
 21
375.469043
 31
0.0
  0
LINE
  5
390
330
1F
100
AcDbEntity
  8
LC-001-100-D00-0
 62
     7
370
    50
100
AcDbLine
 10
313.564034
 20
375.469043
 30
0.0
 11
313.337632
 21
375.469043
 31
0.0
  0
LINE
  5
391
330
1F
100
AcDbEntity
  8
LC-001-100-D00-0
 62
     7
370
    50
100
AcDbLine
 10
313.873531
 20
377.469043
 30
0.0
 11
313.873531
 21
419.969043
 31
0.0
  0
LINE
  5
392
330
1F
100
AcDbEntity
  8
LC-001-100-D00-0
 62
     7
370
    50
100
AcDbLine
 10
222.173531
 20
419.969043
 30
0.0
 11
222.173531
 21
377.469043
 31
0.0
  0
LINE
  5
393
330
1F
100
AcDbEntity
  8
LC-001-100-D00-0
 62
     7
370
    50
100
AcDbLine
 10
313.337632
 20
375.469043
 30
0.0
 11
313.873531
 21
377.469043
 31
0.0
  0
LINE
  5
394
330
1F
100
AcDbEntity
  8
LC-001-100-D00-0
 62
     7
370
    50
100
AcDbLine
 10
222.173531
 20
377.469043
 30
0.0
 11
222.709429
 21
375.469043
 31
0.0
  0
LINE
  5
395
330
1F
100
AcDbEntity
  8
LC-001-100-D00-0
 62
     7
370
    50
100
AcDbLine
 10
311.873531
 20
419.969043
 30
0.0
 11
311.873531
 21
418.469043
 31
0.0
  0
LINE
  5
396
330
1F
100
AcDbEntity
  8
LC-001-100-D00-0
 62
     7
370
    50
100
AcDbLine
 10
311.873531
 20
418.469043
 30
0.0
 11
311.22353
 21
418.469043
 31
0.0
  0
LINE
  5
397
330
1F
100
AcDbEntity
  8
LC-001-100-D00-0
 62
     7
370
    50
100
AcDbLine
 10
224.823531
 20
418.469043
 30
0.0
 11
224.173531
 21
418.469043
 31
0.0
  0
LINE
  5
398
330
1F
100
AcDbEntity
  8
LC-001-100-D00-0
 62
     7
370
    50
100
AcDbLine
 10
224.173531
 20
418.469043
 30
0.0
 11
224.173531
 21
419.969043
 31
0.0
  0
LINE
  5
399
330
1F
100
AcDbEntity
  8
LC-001-100-D00-0
 62
     7
370
    50
100
AcDbLine
 10
311.873531
 20
418.469043
 30
0.0
 11
311.273531
 21
415.469043
 31
0.0
  0
LINE
  5
39A
330
1F
100
AcDbEntity
  8
LC-001-100-D00-0
 62
     7
370
    50
100
AcDbLine
 10
311.273531
 20
415.469043
 30
0.0
 11
311.22353
 21
415.469043
 31
0.0
  0
LINE
  5
39B
330
1F
100
AcDbEntity
  8
LC-001-100-D00-0
 62
     7
370
    50
100
AcDbLine
 10
224.823531
 20
415.469043
 30
0.0
 11
224.773531
 21
415.469043
 31
0.0
  0
LINE
  5
39C
330
1F
100
AcDbEntity
  8
LC-001-100-D00-0
 62
     7
370
    50
100
AcDbLine
 10
224.773531
 20
415.469043
 30
0.0
 11
224.173531
 21
418.469043
 31
0.0
  0
LINE
  5
39D
330
1F
100
AcDbEntity
  8
LC-001-100-D00-0
 62
     7
370
    50
100
AcDbLine
 10
311.873531
 20
415.469043
 30
0.0
 11
311.873531
 21
375.469043
 31
0.0
  0
LINE
  5
39E
330
1F
100
AcDbEntity
  8
LC-001-100-D00-0
 62
     7
370
    50
100
AcDbLine
 10
224.173531
 20
375.469043
 30
0.0
 11
224.173531
 21
415.469043
 31
0.0
  0
LINE
  5
39F
330
1F
100
AcDbEntity
  8
LC-001-100-D00-0
 62
     7
370
    50
100
AcDbLine
 10
311.873531
 20
375.469043
 30
0.0
 11
224.173531
 21
375.469043
 31
0.0
  0
LINE
  5
3A0
330
1F
100
AcDbEntity
  8
LC-001-100-D00-0
 62
     7
370
    50
100
AcDbLine
 10
311.273531
 20
415.469043
 30
0.0
 11
311.873531
 21
415.469043
 31
0.0
  0
LINE
  5
3A1
330
1F
100
AcDbEntity
  8
LC-001-100-D00-0
 62
     7
370
    50
100
AcDbLine
 10
311.873531
 20
375.469043
 30
0.0
 11
313.337632
 21
375.469043
 31
0.0
  0
LINE
  5
3A2
330
1F
100
AcDbEntity
  8
LC-001-100-D00-0
 62
     7
370
    50
100
AcDbLine
 10
313.873531
 20
419.969043
 30
0.0
 11
311.873531
 21
419.969043
 31
0.0
  0
LINE
  5
3A3
330
1F
100
AcDbEntity
  8
LC-001-100-D00-0
 62
     7
370
    50
100
AcDbLine
 10
224.173531
 20
415.469043
 30
0.0
 11
224.773531
 21
415.469043
 31
0.0
  0
LINE
  5
3A4
330
1F
100
AcDbEntity
  8
LC-001-100-D00-0
 62
     7
370
    50
100
AcDbLine
 10
222.709429
 20
375.469043
 30
0.0
 11
224.173531
 21
375.469043
 31
0.0
  0
LINE
  5
3A5
330
1F
100
AcDbEntity
  8
LC-001-100-D00-0
 62
     7
370
    50
100
AcDbLine
 10
224.173531
 20
419.969043
 30
0.0
 11
222.173531
 21
419.969043
 31
0.0
  0
ARC
  5
3A6
330
1F
100
AcDbEntity
  8
LC-001-100-D00-0
 62
     7
370
    50
100
AcDbCircle
 10
210.023331
 20
270.338459
 30
0.0
 40
3.000000000000028
100
AcDbArc
 50
89.996183
 51
179.338624
  0
ARC
  5
3A7
330
1F
100
AcDbEntity
  8
LC-001-100-D00-0
 62
     7
370
    50
100
AcDbCircle
 10
326.023731
 20
270.338459
 30
0.0
 40
3.000000000000022
100
AcDbArc
 50
0.661376
 51
90.003817
  0
ARC
  5
3A8
330
1F
100
AcDbEntity
  8
LC-001-100-D00-0
 62
     7
370
    50
100
AcDbCircle
 10
210.023531
 20
263.838591
 30
0.0
 40
1.0
100
AcDbArc
 50
270.0
 51
89.070278
  0
ARC
  5
3A9
330
1F
100
AcDbEntity
  8
LC-001-100-D00-0
 62
     7
370
    50
100
AcDbCircle
 10
326.023531
 20
263.838591
 30
0.0
 40
0.9999999999999748
100
AcDbArc
 50
90.929722
 51
270.0
  0
ARC
  5
3AA
330
1F
100
AcDbEntity
  8
LC-001-100-D00-0
 62
     7
370
    50
100
AcDbCircle
 10
210.526622
 20
257.840774
 30
0.0
 40
2.500000000000061
100
AcDbArc
 50
306.781403
 51
53.218597
  0
LINE
  5
3AB
330
1F
100
AcDbEntity
  8
LC-001-100-D00-0
 62
     7
370
    50
100
AcDbLine
 10
212.023531
 20
259.843088
 30
0.0
 11
213.023531
 21
259.843088
 31
0.0
  0
LINE
  5
3AC
330
1F
100
AcDbEntity
  8
LC-001-100-D00-0
 62
     7
370
    50
100
AcDbLine
 10
323.023531
 20
259.843088
 30
0.0
 11
324.023531
 21
259.843088
 31
0.0
  0
ARC
  5
3AD
330
1F
100
AcDbEntity
  8
LC-001-100-D00-0
 62
     7
370
    50
100
AcDbCircle
 10
325.52044
 20
257.840774
 30
0.0
 40
2.500000000000061
100
AcDbArc
 50
126.781403
 51
233.218597
  0
LINE
  5
3AE
330
1F
100
AcDbEntity
  8
LC-001-100-D00-0
 62
     7
370
    50
100
AcDbLine
 10
212.023531
 20
255.838459
 30
0.0
 11
213.023531
 21
255.838459
 31
0.0
  0
LINE
  5
3AF
330
1F
100
AcDbEntity
  8
LC-001-100-D00-0
 62
     7
370
    50
100
AcDbLine
 10
323.023531
 20
255.838459
 30
0.0
 11
324.023531
 21
255.838459
 31
0.0
  0
LINE
  5
3B0
330
1F
100
AcDbEntity
  8
LC-001-100-D00-0
 62
     7
370
    50
100
AcDbLine
 10
212.023531
 20
255.838459
 30
0.0
 11
212.023531
 21
253.338459
 31
0.0
  0
LINE
  5
3B1
330
1F
100
AcDbEntity
  8
LC-001-100-D00-0
 62
     7
370
    50
100
AcDbLine
 10
324.023531
 20
253.338459
 30
0.0
 11
324.023531
 21
255.838459
 31
0.0
  0
LINE
  5
3B2
330
1F
100
AcDbEntity
  8
LC-001-100-D00-0
 62
     7
370
    50
100
AcDbLine
 10
212.023531
 20
253.338459
 30
0.0
 11
213.023531
 21
253.338459
 31
0.0
  0
LINE
  5
3B3
330
1F
100
AcDbEntity
  8
LC-001-100-D00-0
 62
     7
370
    50
100
AcDbLine
 10
323.023531
 20
253.338459
 30
0.0
 11
324.023531
 21
253.338459
 31
0.0
  0
LINE
  5
3B4
330
1F
100
AcDbEntity
  8
LC-001-100-D00-0
 62
     7
370
    50
100
AcDbLine
 10
207.023531
 20
264.838459
 30
0.0
 11
207.023531
 21
270.373088
 31
0.0
  0
LINE
  5
3B5
330
1F
100
AcDbEntity
  8
LC-001-100-D00-0
 62
     7
370
    50
100
AcDbLine
 10
329.023531
 20
270.373088
 30
0.0
 11
329.023531
 21
264.838459
 31
0.0
  0
ARC
  5
3B6
330
1F
100
AcDbEntity
  8
LC-001-100-D00-0
 62
     7
370
    50
100
AcDbCircle
 10
212.348105
 20
272.838459
 30
0.0
 40
0.5000000000000072
100
AcDbArc
 50
29.999972
 51
90.0
  0
ARC
  5
3B7
330
1F
100
AcDbEntity
  8
LC-001-100-D00-0
 62
     7
370
    50
100
AcDbCircle
 10
323.698957
 20
272.838459
 30
0.0
 40
0.5
100
AcDbArc
 50
90.0
 51
150.000028
  0
LINE
  5
3B8
330
1F
100
AcDbEntity
  8
LC-001-100-D00-0
 62
     7
370
    50
100
AcDbLine
 10
212.348105
 20
273.338459
 30
0.0
 11
213.023531
 21
273.338459
 31
0.0
  0
LINE
  5
3B9
330
1F
100
AcDbEntity
  8
LC-001-100-D00-0
 62
     7
370
    50
100
AcDbLine
 10
323.023531
 20
273.338459
 30
0.0
 11
323.698957
 21
273.338459
 31
0.0
  0
LINE
  5
3BA
330
1F
100
AcDbEntity
  8
LC-001-100-D00-0
 62
     7
370
    50
100
AcDbLine
 10
320.523531
 20
268.33846
 30
0.0
 11
323.265944
 21
273.088459
 31
0.0
  0
LINE
  5
3BB
330
1F
100
AcDbEntity
  8
LC-001-100-D00-0
 62
     7
370
    50
100
AcDbLine
 10
212.781118
 20
273.088459
 30
0.0
 11
215.523531
 21
268.33846
 31
0.0
  0
LINE
  5
3BC
330
1F
100
AcDbEntity
  8
LC-001-100-D00-0
 62
     7
370
    50
100
AcDbLine
 10
329.023531
 20
254.338459
 30
0.0
 11
328.023531
 21
253.338459
 31
0.0
  0
LINE
  5
3BD
330
1F
100
AcDbEntity
  8
LC-001-100-D00-0
 62
     7
370
    50
100
AcDbLine
 10
208.023531
 20
253.338459
 30
0.0
 11
207.023531
 21
254.338459
 31
0.0
  0
LINE
  5
3BE
330
1F
100
AcDbEntity
  8
LC-001-100-D00-0
 62
     7
370
    50
100
AcDbLine
 10
207.023531
 20
256.343088
 30
0.0
 11
208.023531
 21
257.343088
 31
0.0
  0
LINE
  5
3BF
330
1F
100
AcDbEntity
  8
LC-001-100-D00-0
 62
     7
370
    50
100
AcDbLine
 10
328.023531
 20
257.343088
 30
0.0
 11
329.023531
 21
256.343088
 31
0.0
  0
LINE
  5
3C0
330
1F
100
AcDbEntity
  8
LC-001-100-D00-0
 62
     7
370
    50
100
AcDbLine
 10
207.023531
 20
254.338459
 30
0.0
 11
207.023531
 21
256.343088
 31
0.0
  0
LINE
  5
3C1
330
1F
100
AcDbEntity
  8
LC-001-100-D00-0
 62
     7
370
    50
100
AcDbLine
 10
329.023531
 20
256.343088
 30
0.0
 11
329.023531
 21
254.338459
 31
0.0
  0
LINE
  5
3C2
330
1F
100
AcDbEntity
  8
LC-001-100-D00-0
 62
     7
370
    50
100
AcDbLine
 10
327.023531
 20
260.838459
 30
0.0
 11
327.523531
 21
261.838459
 31
0.0
  0
LINE
  5
3C3
330
1F
100
AcDbEntity
  8
LC-001-100-D00-0
 62
     7
370
    50
100
AcDbLine
 10
208.523531
 20
261.838459
 30
0.0
 11
209.023531
 21
260.838459
 31
0.0
  0
LINE
  5
3C4
330
1F
100
AcDbEntity
  8
LC-001-100-D00-0
 62
     7
370
    50
100
AcDbLine
 10
208.523531
 20
261.838459
 30
0.0
 11
208.626561
 21
261.838459
 31
0.0
  0
LINE
  5
3C5
330
1F
100
AcDbEntity
  8
LC-001-100-D00-0
 62
     7
370
    50
100
AcDbLine
 10
327.4205
 20
261.838459
 30
0.0
 11
327.523531
 21
261.838459
 31
0.0
  0
LINE
  5
3C6
330
1F
100
AcDbEntity
  8
LC-001-100-D00-0
 62
     7
370
    50
100
AcDbLine
 10
208.023531
 20
257.343088
 30
0.0
 11
208.023531
 21
261.838459
 31
0.0
  0
LINE
  5
3C7
330
1F
100
AcDbEntity
  8
LC-001-100-D00-0
 62
     7
370
    50
100
AcDbLine
 10
328.023531
 20
261.838459
 30
0.0
 11
328.023531
 21
257.343088
 31
0.0
  0
LINE
  5
3C8
330
1F
100
AcDbEntity
  8
LC-001-100-D00-0
 62
     7
370
    50
100
AcDbLine
 10
209.523531
 20
260.838459
 30
0.0
 11
209.523531
 21
262.838591
 31
0.0
  0
LINE
  5
3C9
330
1F
100
AcDbEntity
  8
LC-001-100-D00-0
 62
     7
370
    50
100
AcDbLine
 10
326.523531
 20
262.838591
 30
0.0
 11
326.523531
 21
260.838459
 31
0.0
  0
LINE
  5
3CA
330
1F
100
AcDbEntity
  8
LC-001-100-D00-0
 62
     7
370
    50
100
AcDbLine
 10
212.023531
 20
269.527789
 30
0.0
 11
212.023531
 21
259.843088
 31
0.0
  0
LINE
  5
3CB
330
1F
100
AcDbEntity
  8
LC-001-100-D00-0
 62
     7
370
    50
100
AcDbLine
 10
212.023531
 20
269.527789
 30
0.0
 11
213.023531
 21
269.527789
 31
0.0
  0
LINE
  5
3CC
330
1F
100
AcDbEntity
  8
LC-001-100-D00-0
 62
     7
370
    50
100
AcDbLine
 10
323.023531
 20
269.527789
 30
0.0
 11
324.023531
 21
269.527789
 31
0.0
  0
LINE
  5
3CD
330
1F
100
AcDbEntity
  8
LC-001-100-D00-0
 62
     7
370
    50
100
AcDbLine
 10
324.023531
 20
259.843088
 30
0.0
 11
324.023531
 21
269.527789
 31
0.0
  0
ARC
  5
3CE
330
1F
100
AcDbEntity
  8
LC-001-100-D00-0
 62
     7
370
    50
100
AcDbCircle
 10
212.522376
 20
269.493829
 30
0.0
 40
0.50000000000004
100
AcDbArc
 50
59.847133
 51
176.1055
  0
ARC
  5
3CF
330
1F
100
AcDbEntity
  8
LC-001-100-D00-0
 62
     7
370
    50
100
AcDbCircle
 10
323.524685
 20
269.493829
 30
0.0
 40
0.500000000000087
100
AcDbArc
 50
3.8945
 51
120.152867
  0
LINE
  5
3D0
330
1F
100
AcDbEntity
  8
LC-001-100-D00-0
 62
     7
370
    50
100
AcDbLine
 10
323.273531
 20
269.926174
 30
0.0
 11
320.523531
 21
268.33846
 31
0.0
  0
LINE
  5
3D1
330
1F
100
AcDbEntity
  8
LC-001-100-D00-0
 62
     7
370
    50
100
AcDbLine
 10
215.523531
 20
268.33846
 30
0.0
 11
212.773531
 21
269.926174
 31
0.0
  0
LINE
  5
3D2
330
1F
100
AcDbEntity
  8
LC-001-100-D00-0
 62
     7
370
    50
100
AcDbLine
 10
326.023531
 20
262.838591
 30
0.0
 11
326.523531
 21
262.838591
 31
0.0
  0
LINE
  5
3D3
330
1F
100
AcDbEntity
  8
LC-001-100-D00-0
 62
     7
370
    50
100
AcDbLine
 10
326.523531
 20
260.838459
 30
0.0
 11
327.023531
 21
260.838459
 31
0.0
  0
LINE
  5
3D4
330
1F
100
AcDbEntity
  8
LC-001-100-D00-0
 62
     7
370
    50
100
AcDbLine
 10
327.523531
 20
261.838459
 30
0.0
 11
328.023531
 21
261.838459
 31
0.0
  0
LINE
  5
3D5
330
1F
100
AcDbEntity
  8
LC-001-100-D00-0
 62
     7
370
    50
100
AcDbLine
 10
328.023531
 20
253.338459
 30
0.0
 11
324.023531
 21
253.338459
 31
0.0
  0
LINE
  5
3D6
330
1F
100
AcDbEntity
  8
LC-001-100-D00-0
 62
     7
370
    50
100
AcDbLine
 10
323.698957
 20
273.338459
 30
0.0
 11
326.023531
 21
273.338459
 31
0.0
  0
LINE
  5
3D7
330
1F
100
AcDbEntity
  8
LC-001-100-D00-0
 62
     7
370
    50
100
AcDbLine
 10
329.023531
 20
264.838459
 30
0.0
 11
326.007305
 21
264.838459
 31
0.0
  0
LINE
  5
3D8
330
1F
100
AcDbEntity
  8
LC-001-100-D00-0
 62
     7
370
    50
100
AcDbLine
 10
209.523531
 20
262.838591
 30
0.0
 11
210.023531
 21
262.838591
 31
0.0
  0
LINE
  5
3D9
330
1F
100
AcDbEntity
  8
LC-001-100-D00-0
 62
     7
370
    50
100
AcDbLine
 10
209.023531
 20
260.838459
 30
0.0
 11
209.523531
 21
260.838459
 31
0.0
  0
LINE
  5
3DA
330
1F
100
AcDbEntity
  8
LC-001-100-D00-0
 62
     7
370
    50
100
AcDbLine
 10
208.023531
 20
261.838459
 30
0.0
 11
208.523531
 21
261.838459
 31
0.0
  0
LINE
  5
3DB
330
1F
100
AcDbEntity
  8
LC-001-100-D00-0
 62
     7
370
    50
100
AcDbLine
 10
212.023531
 20
253.338459
 30
0.0
 11
208.023531
 21
253.338459
 31
0.0
  0
LINE
  5
3DC
330
1F
100
AcDbEntity
  8
LC-001-100-D00-0
 62
     7
370
    50
100
AcDbLine
 10
210.023531
 20
273.338459
 30
0.0
 11
212.348105
 21
273.338459
 31
0.0
  0
LINE
  5
3DD
330
1F
100
AcDbEntity
  8
LC-001-100-D00-0
 62
     7
370
    50
100
AcDbLine
 10
210.039757
 20
264.838459
 30
0.0
 11
207.023531
 21
264.838459
 31
0.0
  0
ARC
  5
3DE
330
1F
100
AcDbEntity
  8
LC-001-100-D00-0
 62
     7
370
    50
100
AcDbCircle
 10
164.223474
 20
264.584969
 30
0.0
 40
0.2000000000000513
100
AcDbArc
 50
181.366653
 51
258.470429
  0
ARC
  5
3DF
330
1F
100
AcDbEntity
  8
LC-001-100-D00-0
 62
     7
370
    50
100
AcDbCircle
 10
371.823588
 20
264.584969
 30
0.0
 40
0.2000000000000644
100
AcDbArc
 50
281.529571
 51
358.633347
  0
LINE
  5
3E0
330
1F
100
AcDbEntity
  8
LC-001-100-D00-0
 62
     7
370
    50
100
AcDbLine
 10
363.281301
 20
261.765144
 30
0.0
 11
371.863562
 21
264.389005
 31
0.0
  0
LINE
  5
3E1
330
1F
100
AcDbEntity
  8
LC-001-100-D00-0
 62
     7
370
    50
100
AcDbLine
 10
164.183499
 20
264.389005
 30
0.0
 11
172.76576
 21
261.765144
 31
0.0
  0
LINE
  5
3E2
330
1F
100
AcDbEntity
  8
LC-001-100-D00-0
 62
     7
370
    50
100
AcDbLine
 10
164.023531
 20
264.838459
 30
0.0
 11
164.023531
 21
264.580199
 31
0.0
  0
LINE
  5
3E3
330
1F
100
AcDbEntity
  8
LC-001-100-D00-0
 62
     7
370
    50
100
AcDbLine
 10
372.023531
 20
264.580199
 30
0.0
 11
372.023531
 21
264.838459
 31
0.0
  0
LINE
  5
3E4
330
1F
100
AcDbEntity
  8
LC-001-100-D00-0
 62
     7
370
    50
100
AcDbLine
 10
348.780003
 20
259.338459
 30
0.0
 11
363.281301
 21
261.765144
 31
0.0
  0
LINE
  5
3E5
330
1F
100
AcDbEntity
  8
LC-001-100-D00-0
 62
     7
370
    50
100
AcDbLine
 10
172.76576
 20
261.765144
 30
0.0
 11
187.267058
 21
259.338459
 31
0.0
  0
LINE
  5
3E6
330
1F
100
AcDbEntity
  8
LC-001-100-D00-0
 62
     7
370
    50
100
AcDbLine
 10
191.773531
 20
264.838459
 30
0.0
 11
191.773531
 21
261.838459
 31
0.0
  0
LINE
  5
3E7
330
1F
100
AcDbEntity
  8
LC-001-100-D00-0
 62
     7
370
    50
100
AcDbLine
 10
194.523531
 20
261.838459
 30
0.0
 11
191.773531
 21
261.838459
 31
0.0
  0
LINE
  5
3E8
330
1F
100
AcDbEntity
  8
LC-001-100-D00-0
 62
     7
370
    50
100
AcDbLine
 10
194.523531
 20
261.838459
 30
0.0
 11
194.523531
 21
259.338459
 31
0.0
  0
LINE
  5
3E9
330
1F
100
AcDbEntity
  8
LC-001-100-D00-0
 62
     7
370
    50
100
AcDbLine
 10
187.267058
 20
259.338459
 30
0.0
 11
194.523531
 21
259.338459
 31
0.0
  0
LINE
  5
3EA
330
1F
100
AcDbEntity
  8
LC-001-100-D00-0
 62
     7
370
    50
100
AcDbLine
 10
191.773531
 20
264.838459
 30
0.0
 11
164.023531
 21
264.838459
 31
0.0
  0
LINE
  5
3EB
330
1F
100
AcDbEntity
  8
LC-001-100-D00-0
 62
     7
370
    50
100
AcDbLine
 10
337.273212
 20
264.938459
 30
0.0
 11
337.273212
 21
264.838459
 31
0.0
  0
LINE
  5
3EC
330
1F
100
AcDbEntity
  8
LC-001-100-D00-0
 62
     7
370
    50
100
AcDbLine
 10
337.273212
 20
264.938459
 30
0.0
 11
337.444634
 21
264.938459
 31
0.0
  0
LINE
  5
3ED
330
1F
100
AcDbEntity
  8
LC-001-100-D00-0
 62
     7
370
    50
100
AcDbLine
 10
337.444634
 20
264.938459
 30
0.0
 11
337.444634
 21
264.838459
 31
0.0
  0
LINE
  5
3EE
330
1F
100
AcDbEntity
  8
LC-001-100-D00-0
 62
     7
370
    50
100
AcDbLine
 10
337.884368
 20
264.838459
 30
0.0
 11
337.444634
 21
264.838459
 31
0.0
  0
LINE
  5
3EF
330
1F
100
AcDbEntity
  8
LC-001-100-D00-0
 62
     7
370
    50
100
AcDbLine
 10
337.884368
 20
264.838459
 30
0.0
 11
337.884368
 21
264.938459
 31
0.0
  0
LINE
  5
3F0
330
1F
100
AcDbEntity
  8
LC-001-100-D00-0
 62
     7
370
    50
100
AcDbLine
 10
337.884368
 20
264.938459
 30
0.0
 11
338.05579
 21
264.938459
 31
0.0
  0
LINE
  5
3F1
330
1F
100
AcDbEntity
  8
LC-001-100-D00-0
 62
     7
370
    50
100
AcDbLine
 10
338.05579
 20
264.938459
 30
0.0
 11
338.05579
 21
264.838459
 31
0.0
  0
LINE
  5
3F2
330
1F
100
AcDbEntity
  8
LC-001-100-D00-0
 62
     7
370
    50
100
AcDbLine
 10
331.523531
 20
259.338459
 30
0.0
 11
331.523531
 21
264.838459
 31
0.0
  0
LINE
  5
3F3
330
1F
100
AcDbEntity
  8
LC-001-100-D00-0
 62
     7
370
    50
100
AcDbLine
 10
331.523531
 20
259.338459
 30
0.0
 11
348.780003
 21
259.338459
 31
0.0
  0
LINE
  5
3F4
330
1F
100
AcDbEntity
  8
LC-001-100-D00-0
 62
     7
370
    50
100
AcDbLine
 10
337.273212
 20
264.838459
 30
0.0
 11
331.523531
 21
264.838459
 31
0.0
  0
LINE
  5
3F5
330
1F
100
AcDbEntity
  8
LC-001-100-D00-0
 62
     7
370
    50
100
AcDbLine
 10
372.023531
 20
264.838459
 30
0.0
 11
338.05579
 21
264.838459
 31
0.0
  0
LINE
  5
3F6
330
1F
100
AcDbEntity
  8
LC-001-100-D00-0
 62
     7
370
    50
100
AcDbLine
 10
204.273531
 20
261.838459
 30
0.0
 11
204.273531
 21
264.838459
 31
0.0
  0
LINE
  5
3F7
330
1F
100
AcDbEntity
  8
LC-001-100-D00-0
 62
     7
370
    50
100
AcDbLine
 10
204.273531
 20
264.838459
 30
0.0
 11
203.073531
 21
264.838459
 31
0.0
  0
LINE
  5
3F8
330
1F
100
AcDbEntity
  8
LC-001-100-D00-0
 62
     7
370
    50
100
AcDbLine
 10
192.973531
 20
264.838459
 30
0.0
 11
191.773531
 21
264.838459
 31
0.0
  0
LINE
  5
3F9
330
1F
100
AcDbEntity
  8
LC-001-100-D00-0
 62
     7
370
    50
100
AcDbLine
 10
201.523531
 20
259.338459
 30
0.0
 11
201.523531
 21
261.838459
 31
0.0
  0
LINE
  5
3FA
330
1F
100
AcDbEntity
  8
LC-001-100-D00-0
 62
     7
370
    50
100
AcDbLine
 10
201.523531
 20
259.338459
 30
0.0
 11
200.645994
 21
259.338459
 31
0.0
  0
LINE
  5
3FB
330
1F
100
AcDbEntity
  8
LC-001-100-D00-0
 62
     7
370
    50
100
AcDbLine
 10
196.023531
 20
259.338459
 30
0.0
 11
194.523531
 21
259.338459
 31
0.0
  0
LINE
  5
3FC
330
1F
100
AcDbEntity
  8
LC-001-100-D00-0
 62
     7
370
    50
100
AcDbLine
 10
207.090197
 20
261.838459
 30
0.0
 11
208.023531
 21
261.838459
 31
0.0
  0
LINE
  5
3FD
330
1F
100
AcDbEntity
  8
LC-001-100-D00-0
 62
     7
370
    50
100
AcDbLine
 10
204.523531
 20
264.838459
 30
0.0
 11
204.523531
 21
259.338459
 31
0.0
  0
LINE
  5
3FE
330
1F
100
AcDbEntity
  8
LC-001-100-D00-0
 62
     7
370
    50
100
AcDbLine
 10
207.023531
 20
264.838459
 30
0.0
 11
204.523531
 21
264.838459
 31
0.0
  0
LINE
  5
3FF
330
1F
100
AcDbEntity
  8
LC-001-100-D00-0
 62
     7
370
    50
100
AcDbLine
 10
204.273531
 20
261.838459
 30
0.0
 11
201.523531
 21
261.838459
 31
0.0
  0
LINE
  5
400
330
1F
100
AcDbEntity
  8
LC-001-100-D00-0
 62
     7
370
    50
100
AcDbLine
 10
201.523531
 20
259.338459
 30
0.0
 11
204.523531
 21
259.338459
 31
0.0
  0
LINE
  5
401
330
1F
100
AcDbEntity
  8
LC-001-100-D00-0
 62
     7
370
    50
100
AcDbLine
 10
204.523531
 20
264.838459
 30
0.0
 11
204.273531
 21
264.838459
 31
0.0
  0
LINE
  5
402
330
1F
100
AcDbEntity
  8
LC-001-100-D00-0
 62
     7
370
    50
100
AcDbLine
 10
329.440197
 20
261.838459
 30
0.0
 11
329.440197
 21
259.93412
 31
0.0
  0
LINE
  5
403
330
1F
100
AcDbEntity
  8
LC-001-100-D00-0
 62
     7
370
    50
100
AcDbLine
 10
328.023531
 20
261.838459
 30
0.0
 11
329.440197
 21
261.838459
 31
0.0
  0
LINE
  5
404
330
1F
100
AcDbEntity
  8
LC-001-100-D00-0
 62
     7
370
    50
100
AcDbLine
 10
331.523531
 20
264.838459
 30
0.0
 11
329.023531
 21
264.838459
 31
0.0
  0
LINE
  5
405
330
1F
100
AcDbEntity
  8
LC-001-100-D00-0
 62
     7
370
    50
100
AcDbLine
 10
340.273102
 20
264.938459
 30
0.0
 11
340.273102
 21
264.838459
 31
0.0
  0
LINE
  5
406
330
1F
100
AcDbEntity
  8
LC-001-100-D00-0
 62
     7
370
    50
100
AcDbLine
 10
338.05579
 20
264.938459
 30
0.0
 11
340.273102
 21
264.938459
 31
0.0
  0
LINE
  5
407
330
1F
100
AcDbEntity
  8
LC-001-100-D00-0
 62
     7
370
    50
100
AcDbLine
 10
184.706596
 20
264.938459
 30
0.0
 11
184.706596
 21
264.838459
 31
0.0
  0
LINE
  5
408
330
1F
100
AcDbEntity
  8
LC-001-100-D00-0
 62
     7
370
    50
100
AcDbLine
 10
185.992453
 20
264.938459
 30
0.0
 11
185.992453
 21
264.838459
 31
0.0
  0
LINE
  5
409
330
1F
100
AcDbEntity
  8
LC-001-100-D00-0
 62
     7
370
    50
100
AcDbLine
 10
183.345017
 20
264.938459
 30
0.0
 11
183.345017
 21
264.838459
 31
0.0
  0
LINE
  5
40A
330
1F
100
AcDbEntity
  8
LC-001-100-D00-0
 62
     7
370
    50
100
AcDbLine
 10
337.444634
 20
264.938459
 30
0.0
 11
337.884368
 21
264.938459
 31
0.0
  0
LINE
  5
40B
330
1F
100
AcDbEntity
  8
LC-001-100-D00-0
 62
     7
370
    50
100
AcDbLine
 10
186.889889
 20
264.938459
 30
0.0
 11
186.889889
 21
264.838459
 31
0.0
  0
LINE
  5
40C
330
1F
100
AcDbEntity
  8
LC-001-100-D00-0
 62
     7
370
    50
100
AcDbLine
 10
186.889889
 20
264.938459
 30
0.0
 11
185.992453
 21
264.938459
 31
0.0
  0
INSERT
  5
412
330
1F
100
AcDbEntity
  8
LC-001-100-D00-0
 62
     7
370
    50
100
AcDbBlockReference
  2
KLON5
 10
0.0
 20
0.0
 30
0.0
  0
INSERT
  5
418
330
1F
100
AcDbEntity
  8
LC-001-100-D00-0
 62
     7
370
    50
100
AcDbBlockReference
  2
KLON6
 10
0.0
 20
0.0
 30
0.0
  0
LINE
  5
419
330
1F
100
AcDbEntity
  8
LC-001-100-D00-0
 62
     7
370
    50
100
AcDbLine
 10
340.770175
 20
264.938459
 30
0.0
 11
340.273102
 21
264.938459
 31
0.0
  0
LINE
  5
41A
330
1F
100
AcDbEntity
  8
LC-001-100-D00-0
 62
     7
370
    50
100
AcDbLine
 10
336.520673
 20
264.938459
 30
0.0
 11
337.273212
 21
264.938459
 31
0.0
  0
LINE
  5
41B
330
1F
100
AcDbEntity
  8
LC-001-100-D00-0
 62
     7
370
    50
100
AcDbLine
 10
340.81662
 20
264.938459
 30
0.0
 11
340.770175
 21
264.938459
 31
0.0
  0
LINE
  5
41C
330
1F
100
AcDbEntity
  8
LC-001-100-D00-0
 62
     7
370
    50
100
AcDbLine
 10
336.520673
 20
264.938459
 30
0.0
 11
336.512303
 21
264.938459
 31
0.0
  0
LINE
  5
41D
330
1F
100
AcDbEntity
  8
LC-001-100-D00-0
 62
     7
370
    50
100
AcDbLine
 10
277.773531
 20
251.669043
 30
0.0
 11
277.773531
 21
252.669043
 31
0.0
  0
ARC
  5
41E
330
1F
100
AcDbEntity
  8
LC-001-100-D00-0
 62
     7
370
    50
100
AcDbCircle
 10
272.773531
 20
252.669043
 30
0.0
 40
5.000000000000057
100
AcDbArc
 50
0.0
 51
90.0
  0
LINE
  5
41F
330
1F
100
AcDbEntity
  8
LC-001-100-D00-0
 62
     7
370
    50
100
AcDbLine
 10
263.273531
 20
257.669043
 30
0.0
 11
272.773531
 21
257.669043
 31
0.0
  0
ARC
  5
420
330
1F
100
AcDbEntity
  8
LC-001-100-D00-0
 62
     7
370
    50
100
AcDbCircle
 10
263.273531
 20
252.669043
 30
0.0
 40
5.000000000000057
100
AcDbArc
 50
90.0
 51
180.0
  0
LINE
  5
421
330
1F
100
AcDbEntity
  8
LC-001-100-D00-0
 62
     7
370
    50
100
AcDbLine
 10
258.273531
 20
251.669043
 30
0.0
 11
258.273531
 21
252.669043
 31
0.0
  0
LINE
  5
422
330
1F
100
AcDbEntity
  8
LC-001-100-D00-0
 62
     7
370
    50
100
AcDbLine
 10
258.273531
 20
251.669043
 30
0.0
 11
277.773531
 21
251.669043
 31
0.0
  0
LINE
  5
423
330
1F
100
AcDbEntity
  8
LC-001-100-D00-0
 62
     7
370
    50
100
AcDbLine
 10
254.273531
 20
252.669043
 30
0.0
 11
254.273531
 21
251.669043
 31
0.0
  0
ARC
  5
424
330
1F
100
AcDbEntity
  8
LC-001-100-D00-0
 62
     7
370
    50
100
AcDbCircle
 10
263.273531
 20
252.669043
 30
0.0
 40
9.000000000000057
100
AcDbArc
 50
90.0
 51
180.0
  0
LINE
  5
425
330
1F
100
AcDbEntity
  8
LC-001-100-D00-0
 62
     7
370
    50
100
AcDbLine
 10
272.773531
 20
261.669043
 30
0.0
 11
263.273531
 21
261.669043
 31
0.0
  0
ARC
  5
426
330
1F
100
AcDbEntity
  8
LC-001-100-D00-0
 62
     7
370
    50
100
AcDbCircle
 10
272.773531
 20
252.669043
 30
0.0
 40
9.000000000000057
100
AcDbArc
 50
0.0
 51
90.0
  0
LINE
  5
427
330
1F
100
AcDbEntity
  8
LC-001-100-D00-0
 62
     7
370
    50
100
AcDbLine
 10
281.773531
 20
252.669043
 30
0.0
 11
281.773531
 21
251.669043
 31
0.0
  0
LINE
  5
428
330
1F
100
AcDbEntity
  8
LC-001-100-D00-0
 62
     7
370
    50
100
AcDbLine
 10
281.773531
 20
251.669043
 30
0.0
 11
295.523531
 21
251.669043
 31
0.0
  0
ARC
  5
429
330
1F
100
AcDbEntity
  8
LC-001-100-D00-0
 62
     7
370
    50
100
AcDbCircle
 10
295.523531
 20
239.669043
 30
0.0
 40
12.0
100
AcDbArc
 50
0.0
 51
90.0
  0
LINE
  5
42A
330
1F
100
AcDbEntity
  8
LC-001-100-D00-0
 62
     7
370
    50
100
AcDbLine
 10
307.523531
 20
239.669043
 30
0.0
 11
307.523531
 21
186.669043
 31
0.0
  0
LINE
  5
42B
330
1F
100
AcDbEntity
  8
LC-001-100-D00-0
 62
     7
370
    50
100
AcDbLine
 10
307.523531
 20
186.669043
 30
0.0
 11
306.023531
 21
186.669043
 31
0.0
  0
LINE
  5
42C
330
1F
100
AcDbEntity
  8
LC-001-100-D00-0
 62
     7
370
    50
100
AcDbLine
 10
306.023531
 20
186.669043
 30
0.0
 11
306.023531
 21
221.669043
 31
0.0
  0
LINE
  5
42D
330
1F
100
AcDbEntity
  8
LC-001-100-D00-0
 62
     7
370
    50
100
AcDbLine
 10
306.023531
 20
221.669043
 30
0.0
 11
293.997251
 21
221.669043
 31
0.0
  0
LINE
  5
42E
330
1F
100
AcDbEntity
  8
LC-001-100-D00-0
 62
     7
370
    50
100
AcDbLine
 10
293.997251
 20
221.669043
 30
0.0
 11
292.523531
 21
227.169043
 31
0.0
  0
LINE
  5
42F
330
1F
100
AcDbEntity
  8
LC-001-100-D00-0
 62
     7
370
    50
100
AcDbLine
 10
292.523531
 20
227.169043
 30
0.0
 11
292.523531
 21
236.669043
 31
0.0
  0
LINE
  5
430
330
1F
100
AcDbEntity
  8
LC-001-100-D00-0
 62
     7
370
    50
100
AcDbLine
 10
292.523531
 20
236.669043
 30
0.0
 11
290.023531
 21
236.669043
 31
0.0
  0
LINE
  5
431
330
1F
100
AcDbEntity
  8
LC-001-100-D00-0
 62
     7
370
    50
100
AcDbLine
 10
290.023531
 20
234.169043
 30
0.0
 11
290.023531
 21
236.669043
 31
0.0
  0
LINE
  5
432
330
1F
100
AcDbEntity
  8
LC-001-100-D00-0
 62
     7
370
    50
100
AcDbLine
 10
289.487632
 20
232.169043
 30
0.0
 11
290.023531
 21
234.169043
 31
0.0
  0
LINE
  5
433
330
1F
100
AcDbEntity
  8
LC-001-100-D00-0
 62
     7
370
    50
100
AcDbLine
 10
286.023531
 20
232.169043
 30
0.0
 11
289.487632
 21
232.169043
 31
0.0
  0
LINE
  5
434
330
1F
100
AcDbEntity
  8
LC-001-100-D00-0
 62
     7
370
    50
100
AcDbLine
 10
286.023531
 20
232.169043
 30
0.0
 11
286.023531
 21
249.669043
 31
0.0
  0
LINE
  5
435
330
1F
100
AcDbEntity
  8
LC-001-100-D00-0
 62
     7
370
    50
100
AcDbLine
 10
286.023531
 20
249.669043
 30
0.0
 11
240.023531
 21
249.669043
 31
0.0
  0
ARC
  5
436
330
1F
100
AcDbEntity
  8
LC-001-100-D00-0
 62
     7
370
    50
100
AcDbCircle
 10
240.023531
 20
239.669043
 30
0.0
 40
10.0
100
AcDbArc
 50
90.0
 51
180.0
  0
LINE
  5
437
330
1F
100
AcDbEntity
  8
LC-001-100-D00-0
 62
     7
370
    50
100
AcDbLine
 10
230.023531
 20
239.669043
 30
0.0
 11
230.023531
 21
186.669043
 31
0.0
  0
LINE
  5
438
330
1F
100
AcDbEntity
  8
LC-001-100-D00-0
 62
     7
370
    50
100
AcDbLine
 10
230.023531
 20
186.669043
 30
0.0
 11
228.523531
 21
186.669043
 31
0.0
  0
LINE
  5
439
330
1F
100
AcDbEntity
  8
LC-001-100-D00-0
 62
     7
370
    50
100
AcDbLine
 10
228.523531
 20
186.669043
 30
0.0
 11
228.523531
 21
239.669043
 31
0.0
  0
ARC
  5
43A
330
1F
100
AcDbEntity
  8
LC-001-100-D00-0
 62
     7
370
    50
100
AcDbCircle
 10
240.523531
 20
239.669043
 30
0.0
 40
12.0
100
AcDbArc
 50
90.0
 51
180.0
  0
LINE
  5
43B
330
1F
100
AcDbEntity
  8
LC-001-100-D00-0
 62
     7
370
    50
100
AcDbLine
 10
240.523531
 20
251.669043
 30
0.0
 11
254.273531
 21
251.669043
 31
0.0
  0
LINE
  5
43C
330
1F
100
AcDbEntity
  8
LC-001-100-D00-0
 62
     7
370
    50
100
AcDbLine
 10
230.023531
 20
186.669043
 30
0.0
 11
243.523531
 21
186.669043
 31
0.0
  0
LINE
  5
43D
330
1F
100
AcDbEntity
  8
LC-001-100-D00-0
 62
     7
370
    50
100
AcDbLine
 10
292.523531
 20
186.669043
 30
0.0
 11
306.023531
 21
186.669043
 31
0.0
  0
INSERT
  5
449
330
1F
100
AcDbEntity
  8
LC-001-100-D00-0
 62
     7
370
    50
100
AcDbBlockReference
  2
POLY20
 10
0.0
 20
0.0
 30
0.0
  0
LINE
  5
44A
330
1F
100
AcDbEntity
  8
LC-001-100-D00-0
 62
     7
370
    50
100
AcDbLine
 10
259.757297
 20
232.169043
 30
0.0
 11
259.855547
 21
245.169043
 31
0.0
  0
LINE
  5
44B
330
1F
100
AcDbEntity
  8
LC-001-100-D00-0
 62
     7
370
    50
100
AcDbLine
 10
258.289765
 20
232.169043
 30
0.0
 11
259.757297
 21
232.169043
 31
0.0
  0
LINE
  5
44C
330
1F
100
AcDbEntity
  8
LC-001-100-D00-0
 62
     7
370
    50
100
AcDbLine
 10
258.289765
 20
232.169043
 30
0.0
 11
258.191515
 21
245.169043
 31
0.0
  0
LINE
  5
44D
330
1F
100
AcDbEntity
  8
LC-001-100-D00-0
 62
     7
370
    50
100
AcDbLine
 10
256.557714
 20
232.169043
 30
0.0
 11
258.289765
 21
232.169043
 31
0.0
  0
LINE
  5
44E
330
1F
100
AcDbEntity
  8
LC-001-100-D00-0
 62
     7
370
    50
100
AcDbLine
 10
256.283618
 20
234.105675
 30
0.0
 11
256.557714
 21
232.169043
 31
0.0
  0
INSERT
  5
45A
330
1F
100
AcDbEntity
  8
LC-001-100-D00-0
 62
     7
370
    50
100
AcDbBlockReference
  2
POLY21
 10
0.0
 20
0.0
 30
0.0
  0
LINE
  5
45B
330
1F
100
AcDbEntity
  8
LC-001-100-D00-0
 62
     7
370
    50
100
AcDbLine
 10
333.023531
 20
258.434047
 30
0.0
 11
333.023531
 21
258.93386
 31
0.0
  0
LINE
  5
45C
330
1F
100
AcDbEntity
  8
LC-001-100-D00-0
 62
     7
370
    50
100
AcDbLine
 10
203.023531
 20
258.93386
 30
0.0
 11
203.023639
 21
258.934047
 31
0.0
  0
INSERT
  5
46A
330
1F
100
AcDbEntity
  8
LC-001-100-D00-0
 62
     7
370
    50
100
AcDbBlockReference
  2
POLY22
 10
0.0
 20
0.0
 30
0.0
  0
LINE
  5
46B
330
1F
100
AcDbEntity
  8
LC-001-100-D00-0
 62
     7
370
    50
100
AcDbLine
 10
333.023423
 20
258.934047
 30
0.0
 11
333.023531
 21
258.93386
 31
0.0
  0
LINE
  5
46C
330
1F
100
AcDbEntity
  8
LC-001-100-D00-0
 62
     7
370
    50
100
AcDbLine
 10
203.023639
 20
258.934047
 30
0.0
 11
204.023531
 21
258.934047
 31
0.0
  0
LINE
  5
46D
330
1F
100
AcDbEntity
  8
LC-001-100-D00-0
 62
     7
370
    50
100
AcDbLine
 10
332.023531
 20
258.934047
 30
0.0
 11
333.023423
 21
258.934047
 31
0.0
  0
LINE
  5
46E
330
1F
100
AcDbEntity
  8
LC-001-100-D00-0
 62
     7
370
    50
100
AcDbLine
 10
373.182777
 20
264.597347
 30
0.0
 11
380.457277
 21
264.838459
 31
0.0
  0
LINE
  5
46F
330
1F
100
AcDbEntity
  8
LC-001-100-D00-0
 62
     7
370
    50
100
AcDbLine
 10
162.864285
 20
264.597347
 30
0.0
 11
164.023531
 21
264.597347
 31
0.0
  0
LINE
  5
470
330
1F
100
AcDbEntity
  8
LC-001-100-D00-0
 62
     7
370
    50
100
AcDbLine
 10
372.023531
 20
264.597347
 30
0.0
 11
373.182777
 21
264.597347
 31
0.0
  0
LINE
  5
471
330
1F
100
AcDbEntity
  8
LC-001-100-D00-0
 62
     7
370
    50
100
AcDbLine
 10
155.589784
 20
264.838459
 30
0.0
 11
162.864285
 21
264.597347
 31
0.0
  0
LINE
  5
472
330
1F
100
AcDbEntity
  8
LC-001-100-D00-0
 62
     7
370
    50
100
AcDbLine
 10
155.589784
 20
264.838459
 30
0.0
 11
164.023531
 21
264.838459
 31
0.0
  0
LINE
  5
473
330
1F
100
AcDbEntity
  8
LC-001-100-D00-0
 62
     7
370
    50
100
AcDbLine
 10
372.023531
 20
264.838459
 30
0.0
 11
380.457277
 21
264.838459
 31
0.0
  0
LINE
  5
474
330
1F
100
AcDbEntity
  8
LC-001-100-D00-0
 62
     7
370
    50
100
AcDbLine
 10
353.674803
 20
254.97324
 30
0.0
 11
373.541498
 21
261.047098
 31
0.0
  0
LINE
  5
475
330
1F
100
AcDbEntity
  8
LC-001-100-D00-0
 62
     7
370
    50
100
AcDbLine
 10
162.505564
 20
261.047098
 30
0.0
 11
182.372258
 21
254.97324
 31
0.0
  0
ARC
  5
476
330
1F
100
AcDbEntity
  8
LC-001-100-D00-0
 62
     7
370
    50
100
AcDbCircle
 10
155.523531
 20
262.839557
 30
0.0
 40
2.000000000000045
100
AcDbArc
 50
88.101637
 51
180.0
  0
ARC
  5
477
330
1F
100
AcDbEntity
  8
LC-001-100-D00-0
 62
     7
370
    50
100
AcDbCircle
 10
380.523531
 20
262.839557
 30
0.0
 40
2.0
100
AcDbArc
 50
0.0
 51
91.898363
  0
LINE
  5
478
330
1F
100
AcDbEntity
  8
LC-001-100-D00-0
 62
     7
370
    50
100
AcDbLine
 10
153.523531
 20
261.356581
 30
0.0
 11
153.523531
 21
262.839557
 31
0.0
  0
LINE
  5
479
330
1F
100
AcDbEntity
  8
LC-001-100-D00-0
 62
     7
370
    50
100
AcDbLine
 10
382.523531
 20
262.839557
 30
0.0
 11
382.523531
 21
261.356581
 31
0.0
  0
LINE
  5
47A
330
1F
100
AcDbEntity
  8
LC-001-100-D00-0
 62
     7
370
    50
100
AcDbLine
 10
353.023531
 20
258.434047
 30
0.0
 11
373.182777
 21
264.597347
 31
0.0
  0
LINE
  5
47B
330
1F
100
AcDbEntity
  8
LC-001-100-D00-0
 62
     7
370
    50
100
AcDbLine
 10
162.864285
 20
264.597347
 30
0.0
 11
183.023531
 21
258.434047
 31
0.0
  0
LINE
  5
47C
330
1F
100
AcDbEntity
  8
LC-001-100-D00-0
 62
     7
370
    50
100
AcDbLine
 10
320.023531
 20
232.169043
 30
0.0
 11
320.023531
 21
187.062792
 31
0.0
  0
LINE
  5
47D
330
1F
100
AcDbEntity
  8
LC-001-100-D00-0
 62
     7
370
    50
100
AcDbLine
 10
320.023531
 20
232.169043
 30
0.0
 11
328.023531
 21
232.169043
 31
0.0
  0
LINE
  5
47E
330
1F
100
AcDbEntity
  8
LC-001-100-D00-0
 62
     7
370
    50
100
AcDbLine
 10
328.023531
 20
232.169043
 30
0.0
 11
328.023531
 21
258.934047
 31
0.0
  0
LINE
  5
47F
330
1F
100
AcDbEntity
  8
LC-001-100-D00-0
 62
     7
370
    50
100
AcDbLine
 10
328.023531
 20
258.934047
 30
0.0
 11
329.023637
 21
259.93412
 31
0.0
  0
LINE
  5
480
330
1F
100
AcDbEntity
  8
LC-001-100-D00-0
 62
     7
370
    50
100
AcDbLine
 10
332.023531
 20
259.93412
 30
0.0
 11
329.023637
 21
259.93412
 31
0.0
  0
LINE
  5
481
330
1F
100
AcDbEntity
  8
LC-001-100-D00-0
 62
     7
370
    50
100
AcDbLine
 10
332.023531
 20
259.93412
 30
0.0
 11
332.023531
 21
258.434047
 31
0.0
  0
LINE
  5
482
330
1F
100
AcDbEntity
  8
LC-001-100-D00-0
 62
     7
370
    50
100
AcDbLine
 10
332.023531
 20
258.434047
 30
0.0
 11
332.734748
 21
258.434047
 31
0.0
  0
LINE
  5
483
330
1F
100
AcDbEntity
  8
LC-001-100-D00-0
 62
     7
370
    50
100
AcDbLine
 10
332.734748
 20
258.434047
 30
0.0
 11
333.023423
 21
258.934047
 31
0.0
  0
LINE
  5
484
330
1F
100
AcDbEntity
  8
LC-001-100-D00-0
 62
     7
370
    50
100
AcDbLine
 10
333.023531
 20
258.434047
 30
0.0
 11
335.523531
 21
258.434047
 31
0.0
  0
LINE
  5
485
330
1F
100
AcDbEntity
  8
LC-001-100-D00-0
 62
     7
370
    50
100
AcDbLine
 10
335.523531
 20
258.434047
 30
0.0
 11
335.523531
 21
245.934047
 31
0.0
  0
LINE
  5
486
330
1F
100
AcDbEntity
  8
LC-001-100-D00-0
 62
     7
370
    50
100
AcDbLine
 10
335.523531
 20
245.934047
 30
0.0
 11
336.023531
 21
245.434047
 31
0.0
  0
LINE
  5
487
330
1F
100
AcDbEntity
  8
LC-001-100-D00-0
 62
     7
370
    50
100
AcDbLine
 10
340.023531
 20
245.434047
 30
0.0
 11
336.023531
 21
245.434047
 31
0.0
  0
LINE
  5
488
330
1F
100
AcDbEntity
  8
LC-001-100-D00-0
 62
     7
370
    50
100
AcDbLine
 10
340.023531
 20
245.434047
 30
0.0
 11
340.523531
 21
245.934047
 31
0.0
  0
LINE
  5
489
330
1F
100
AcDbEntity
  8
LC-001-100-D00-0
 62
     7
370
    50
100
AcDbLine
 10
340.523531
 20
245.934047
 30
0.0
 11
340.523531
 21
258.434047
 31
0.0
  0
LINE
  5
48A
330
1F
100
AcDbEntity
  8
LC-001-100-D00-0
 62
     7
370
    50
100
AcDbLine
 10
340.523531
 20
258.434047
 30
0.0
 11
343.023531
 21
258.434047
 31
0.0
  0
LINE
  5
48B
330
1F
100
AcDbEntity
  8
LC-001-100-D00-0
 62
     7
370
    50
100
AcDbLine
 10
343.023531
 20
258.934047
 30
0.0
 11
343.023531
 21
258.434047
 31
0.0
  0
LINE
  5
48C
330
1F
100
AcDbEntity
  8
LC-001-100-D00-0
 62
     7
370
    50
100
AcDbLine
 10
343.023531
 20
258.934047
 30
0.0
 11
343.312206
 21
258.434047
 31
0.0
  0
LINE
  5
48D
330
1F
100
AcDbEntity
  8
LC-001-100-D00-0
 62
     7
370
    50
100
AcDbLine
 10
343.312206
 20
258.434047
 30
0.0
 11
344.023531
 21
258.434047
 31
0.0
  0
LINE
  5
48E
330
1F
100
AcDbEntity
  8
LC-001-100-D00-0
 62
     7
370
    50
100
AcDbLine
 10
344.023531
 20
258.434047
 30
0.0
 11
344.023531
 21
254.934047
 31
0.0
  0
LINE
  5
48F
330
1F
100
AcDbEntity
  8
LC-001-100-D00-0
 62
     7
370
    50
100
AcDbLine
 10
344.023531
 20
254.934047
 30
0.0
 11
351.023531
 21
254.934047
 31
0.0
  0
LINE
  5
490
330
1F
100
AcDbEntity
  8
LC-001-100-D00-0
 62
     7
370
    50
100
AcDbLine
 10
351.023531
 20
254.934047
 30
0.0
 11
351.023531
 21
258.434047
 31
0.0
  0
LINE
  5
491
330
1F
100
AcDbEntity
  8
LC-001-100-D00-0
 62
     7
370
    50
100
AcDbLine
 10
351.023531
 20
258.434047
 30
0.0
 11
353.023531
 21
258.434047
 31
0.0
  0
LINE
  5
492
330
1F
100
AcDbEntity
  8
LC-001-100-D00-0
 62
     7
370
    50
100
AcDbLine
 10
373.541498
 20
261.047098
 30
0.0
 11
382.523531
 21
261.356581
 31
0.0
  0
LINE
  5
493
330
1F
100
AcDbEntity
  8
LC-001-100-D00-0
 62
     7
370
    50
100
AcDbLine
 10
350.996398
 20
252.5945
 30
0.0
 11
353.674803
 21
254.97324
 31
0.0
  0
LINE
  5
494
330
1F
100
AcDbEntity
  8
LC-001-100-D00-0
 62
     7
370
    50
100
AcDbLine
 10
344.023531
 20
252.5945
 30
0.0
 11
350.996398
 21
252.5945
 31
0.0
  0
LINE
  5
495
330
1F
100
AcDbEntity
  8
LC-001-100-D00-0
 62
     7
370
    50
100
AcDbLine
 10
344.023531
 20
252.5945
 30
0.0
 11
344.023531
 21
243.0945
 31
0.0
  0
LINE
  5
496
330
1F
100
AcDbEntity
  8
LC-001-100-D00-0
 62
     7
370
    50
100
AcDbLine
 10
340.921478
 20
243.0945
 30
0.0
 11
344.023531
 21
243.0945
 31
0.0
  0
ARC
  5
497
330
1F
100
AcDbEntity
  8
LC-001-100-D00-0
 62
     7
370
    50
100
AcDbCircle
 10
338.023531
 20
247.169043
 30
0.0
 40
5.000000000000004
100
AcDbArc
 50
234.578322
 51
305.421678
  0
LINE
  5
498
330
1F
100
AcDbEntity
  8
LC-001-100-D00-0
 62
     7
370
    50
100
AcDbLine
 10
331.023531
 20
243.0945
 30
0.0
 11
335.125583
 21
243.0945
 31
0.0
  0
LINE
  5
499
330
1F
100
AcDbEntity
  8
LC-001-100-D00-0
 62
     7
370
    50
100
AcDbLine
 10
331.023531
 20
232.169043
 30
0.0
 11
331.023531
 21
243.0945
 31
0.0
  0
ARC
  5
49A
330
1F
100
AcDbEntity
  8
LC-001-100-D00-0
 62
     7
370
    50
100
AcDbCircle
 10
328.023531
 20
232.169043
 30
0.0
 40
3.0
100
AcDbArc
 50
270.0
 51
0.0
  0
LINE
  5
49B
330
1F
100
AcDbEntity
  8
LC-001-100-D00-0
 62
     7
370
    50
100
AcDbLine
 10
328.023531
 20
229.169043
 30
0.0
 11
323.023531
 21
229.169043
 31
0.0
  0
LINE
  5
49C
330
1F
100
AcDbEntity
  8
LC-001-100-D00-0
 62
     7
370
    50
100
AcDbLine
 10
323.023531
 20
229.169043
 30
0.0
 11
323.023531
 21
186.86531
 31
0.0
  0
LINE
  5
49D
330
1F
100
AcDbEntity
  8
LC-001-100-D00-0
 62
     7
370
    50
100
AcDbLine
 10
323.023531
 20
186.86531
 30
0.0
 11
319.681448
 21
174.39258
 31
0.0
  0
ARC
  5
49E
330
1F
100
AcDbEntity
  8
LC-001-100-D00-0
 62
     7
370
    50
100
AcDbCircle
 10
316.783672
 20
175.169043
 30
0.0
 40
3.0
100
AcDbArc
 50
270.0
 51
344.999892
  0
LINE
  5
49F
330
1F
100
AcDbEntity
  8
LC-001-100-D00-0
 62
     7
370
    50
100
AcDbLine
 10
316.783672
 20
172.169043
 30
0.0
 11
293.023531
 21
172.169043
 31
0.0
  0
LINE
  5
4A0
330
1F
100
AcDbEntity
  8
LC-001-100-D00-0
 62
     7
370
    50
100
AcDbLine
 10
293.023531
 20
172.169043
 30
0.0
 11
293.023531
 21
117.669043
 31
0.0
  0
LINE
  5
4A1
330
1F
100
AcDbEntity
  8
LC-001-100-D00-0
 62
     7
370
    50
100
AcDbLine
 10
292.085709
 20
114.169043
 30
0.0
 11
293.023531
 21
117.669043
 31
0.0
  0
LINE
  5
4A2
330
1F
100
AcDbEntity
  8
LC-001-100-D00-0
 62
     7
370
    50
100
AcDbLine
 10
290.023531
 20
114.169043
 30
0.0
 11
292.085709
 21
114.169043
 31
0.0
  0
LINE
  5
4A3
330
1F
100
AcDbEntity
  8
LC-001-100-D00-0
 62
     7
370
    50
100
AcDbLine
 10
290.023531
 20
114.169043
 30
0.0
 11
290.023531
 21
236.669043
 31
0.0
  0
LINE
  5
4A4
330
1F
100
AcDbEntity
  8
LC-001-100-D00-0
 62
     7
370
    50
100
AcDbLine
 10
292.523531
 20
236.669043
 30
0.0
 11
292.523531
 21
176.169043
 31
0.0
  0
ARC
  5
4A5
330
1F
100
AcDbEntity
  8
LC-001-100-D00-0
 62
     7
370
    50
100
AcDbCircle
 10
294.023531
 20
176.169043
 30
0.0
 40
1.5
100
AcDbArc
 50
180.0
 51
270.0
  0
LINE
  5
4A6
330
1F
100
AcDbEntity
  8
LC-001-100-D00-0
 62
     7
370
    50
100
AcDbLine
 10
314.453512
 20
174.669043
 30
0.0
 11
294.023531
 21
174.669043
 31
0.0
  0
ARC
  5
4A7
330
1F
100
AcDbEntity
  8
LC-001-100-D00-0
 62
     7
370
    50
100
AcDbCircle
 10
314.453512
 20
177.669043
 30
0.0
 40
3.0
100
AcDbArc
 50
270.0
 51
344.999691
  0
LINE
  5
4A8
330
1F
100
AcDbEntity
  8
LC-001-100-D00-0
 62
     7
370
    50
100
AcDbLine
 10
319.972417
 20
186.674556
 30
0.0
 11
317.351286
 21
176.89257
 31
0.0
  0
ARC
  5
4A9
330
1F
100
AcDbEntity
  8
LC-001-100-D00-0
 62
     7
370
    50
100
AcDbCircle
 10
318.523531
 20
187.062792
 30
0.0
 40
1.50000000000004
100
AcDbArc
 50
344.999691
 51
0.0
  0
LINE
  5
4AA
330
1F
100
AcDbEntity
  8
LC-001-100-D00-0
 62
     7
370
    50
100
AcDbLine
 10
153.523531
 20
261.356581
 30
0.0
 11
162.505564
 21
261.047098
 31
0.0
  0
LINE
  5
4AB
330
1F
100
AcDbEntity
  8
LC-001-100-D00-0
 62
     7
370
    50
100
AcDbLine
 10
335.523531
 20
245.934047
 30
0.0
 11
340.523531
 21
245.934047
 31
0.0
  0
LINE
  5
4AC
330
1F
100
AcDbEntity
  8
LC-001-100-D00-0
 62
     7
370
    50
100
AcDbLine
 10
340.523531
 20
258.434047
 30
0.0
 11
335.523531
 21
258.434047
 31
0.0
  0
INSERT
  5
4BA
330
1F
100
AcDbEntity
  8
LC-001-100-D00-0
 62
     7
370
    50
100
AcDbBlockReference
  2
POLY23
 10
0.0
 20
0.0
 30
0.0
  0
LINE
  5
4BB
330
1F
100
AcDbEntity
  8
LC-001-100-D00-0
 62
     7
370
    50
100
AcDbLine
 10
203.023639
 20
258.934047
 30
0.0
 11
203.312314
 21
258.434047
 31
0.0
  0
LINE
  5
4BC
330
1F
100
AcDbEntity
  8
LC-001-100-D00-0
 62
     7
370
    50
100
AcDbLine
 10
204.023531
 20
258.434047
 30
0.0
 11
204.023531
 21
259.93412
 31
0.0
  0
LINE
  5
4BD
330
1F
100
AcDbEntity
  8
LC-001-100-D00-0
 62
     7
370
    50
100
AcDbLine
 10
193.023531
 20
258.934047
 30
0.0
 11
195.137816
 21
258.934047
 31
0.0
  0
LINE
  5
4BE
330
1F
100
AcDbEntity
  8
LC-001-100-D00-0
 62
     7
370
    50
100
AcDbLine
 10
192.734856
 20
258.434047
 30
0.0
 11
193.023531
 21
258.934047
 31
0.0
  0
LINE
  5
4BF
330
1F
100
AcDbEntity
  8
LC-001-100-D00-0
 62
     7
370
    50
100
AcDbLine
 10
340.909245
 20
258.934047
 30
0.0
 11
343.023531
 21
258.934047
 31
0.0
  0
LINE
  5
4C0
330
1F
100
AcDbEntity
  8
LC-001-100-D00-0
 62
     7
370
    50
100
AcDbLine
 10
182.372258
 20
254.97324
 30
0.0
 11
185.050663
 21
252.5945
 31
0.0
  0
LINE
  5
4C1
330
1F
100
AcDbEntity
  8
LC-001-100-D00-0
 62
     7
370
    50
100
AcDbLine
 10
213.023531
 20
186.86531
 30
0.0
 11
213.023531
 21
229.169043
 31
0.0
  0
LINE
  5
4C2
330
1F
100
AcDbEntity
  8
LC-001-100-D00-0
 62
     7
370
    50
100
AcDbLine
 10
208.023531
 20
258.934047
 30
0.0
 11
208.023531
 21
232.169043
 31
0.0
  0
LINE
  5
4C3
330
1F
100
AcDbEntity
  8
LC-001-100-D00-0
 62
     7
370
    50
100
AcDbLine
 10
207.090089
 20
259.93412
 30
0.0
 11
208.023531
 21
259.93412
 31
0.0
  0
LINE
  5
4C4
330
1F
100
AcDbEntity
  8
LC-001-100-D00-0
 62
     7
370
    50
100
AcDbLine
 10
328.023531
 20
259.93412
 30
0.0
 11
329.023637
 21
259.93412
 31
0.0
  0
LINE
  5
4C5
330
1F
100
AcDbEntity
  8
LC-001-100-D00-0
 62
     7
370
    50
100
AcDbLine
 10
207.023425
 20
259.93412
 30
0.0
 11
208.023531
 21
258.934047
 31
0.0
  0
LINE
  5
4C6
330
1F
100
AcDbEntity
  8
LC-001-100-D00-0
 62
     7
370
    50
100
AcDbLine
 10
185.023531
 20
258.434047
 30
0.0
 11
185.023531
 21
254.934047
 31
0.0
  0
LINE
  5
4C7
330
1F
100
AcDbEntity
  8
LC-001-100-D00-0
 62
     7
370
    50
100
AcDbLine
 10
185.023531
 20
258.434047
 30
0.0
 11
192.023531
 21
258.434047
 31
0.0
  0
LINE
  5
4C8
330
1F
100
AcDbEntity
  8
LC-001-100-D00-0
 62
     7
370
    50
100
AcDbLine
 10
344.023531
 20
258.434047
 30
0.0
 11
351.023531
 21
258.434047
 31
0.0
  0
LINE
  5
4C9
330
1F
100
AcDbEntity
  8
LC-001-100-D00-0
 62
     7
370
    50
100
AcDbLine
 10
216.365614
 20
174.39258
 30
0.0
 11
213.023531
 21
186.86531
 31
0.0
  0
LINE
  5
4CA
330
1F
100
AcDbEntity
  8
LC-001-100-D00-0
 62
     7
370
    50
100
AcDbLine
 10
192.023531
 20
254.934047
 30
0.0
 11
192.023531
 21
258.434047
 31
0.0
  0
LINE
  5
4CB
330
1F
100
AcDbEntity
  8
LC-001-100-D00-0
 62
     7
370
    50
100
AcDbLine
 10
205.023531
 20
243.0945
 30
0.0
 11
205.023531
 21
232.169043
 31
0.0
  0
LINE
  5
4CC
330
1F
100
AcDbEntity
  8
LC-001-100-D00-0
 62
     7
370
    50
100
AcDbLine
 10
243.023531
 20
117.669043
 30
0.0
 11
243.023531
 21
172.169043
 31
0.0
  0
LINE
  5
4CD
330
1F
100
AcDbEntity
  8
LC-001-100-D00-0
 62
     7
370
    50
100
AcDbLine
 10
216.023531
 20
187.062792
 30
0.0
 11
216.023531
 21
232.169043
 31
0.0
  0
LINE
  5
4CE
330
1F
100
AcDbEntity
  8
LC-001-100-D00-0
 62
     7
370
    50
100
AcDbLine
 10
216.023531
 20
232.169043
 30
0.0
 11
228.523531
 21
232.169043
 31
0.0
  0
LINE
  5
4CF
330
1F
100
AcDbEntity
  8
LC-001-100-D00-0
 62
     7
370
    50
100
AcDbLine
 10
307.523531
 20
232.169043
 30
0.0
 11
320.023531
 21
232.169043
 31
0.0
  0
LINE
  5
4D0
330
1F
100
AcDbEntity
  8
LC-001-100-D00-0
 62
     7
370
    50
100
AcDbLine
 10
243.523531
 20
176.169043
 30
0.0
 11
243.523531
 21
236.669043
 31
0.0
  0
ARC
  5
4D1
330
1F
100
AcDbEntity
  8
LC-001-100-D00-0
 62
     7
370
    50
100
AcDbCircle
 10
219.26339
 20
175.169043
 30
0.0
 40
3.000000000000007
100
AcDbArc
 50
195.000108
 51
270.0
  0
LINE
  5
4D2
330
1F
100
AcDbEntity
  8
LC-001-100-D00-0
 62
     7
370
    50
100
AcDbLine
 10
243.023531
 20
117.669043
 30
0.0
 11
243.961353
 21
114.169043
 31
0.0
  0
LINE
  5
4D3
330
1F
100
AcDbEntity
  8
LC-001-100-D00-0
 62
     7
370
    50
100
AcDbLine
 10
218.695776
 20
176.89257
 30
0.0
 11
216.074644
 21
186.674556
 31
0.0
  0
ARC
  5
4D4
330
1F
100
AcDbEntity
  8
LC-001-100-D00-0
 62
     7
370
    50
100
AcDbCircle
 10
217.523531
 20
187.062792
 30
0.0
 40
1.500000000000057
100
AcDbArc
 50
180.0
 51
195.000309
  0
ARC
  5
4D5
330
1F
100
AcDbEntity
  8
LC-001-100-D00-0
 62
     7
370
    50
100
AcDbCircle
 10
221.593549
 20
177.669043
 30
0.0
 40
3.00000000000001
100
AcDbArc
 50
195.000309
 51
270.0
  0
ARC
  5
4D6
330
1F
100
AcDbEntity
  8
LC-001-100-D00-0
 62
     7
370
    50
100
AcDbCircle
 10
242.023531
 20
176.169043
 30
0.0
 40
1.5
100
AcDbArc
 50
270.0
 51
0.0
  0
LINE
  5
4D7
330
1F
100
AcDbEntity
  8
LC-001-100-D00-0
 62
     7
370
    50
100
AcDbLine
 10
246.023531
 20
236.669043
 30
0.0
 11
246.023531
 21
114.169043
 31
0.0
  0
LINE
  5
4D8
330
1F
100
AcDbEntity
  8
LC-001-100-D00-0
 62
     7
370
    50
100
AcDbLine
 10
246.023531
 20
236.669043
 30
0.0
 11
256.255755
 21
236.669043
 31
0.0
  0
LINE
  5
4D9
330
1F
100
AcDbEntity
  8
LC-001-100-D00-0
 62
     7
370
    50
100
AcDbLine
 10
259.791306
 20
236.669043
 30
0.0
 11
286.023531
 21
236.669043
 31
0.0
  0
LINE
  5
4DA
330
1F
100
AcDbEntity
  8
LC-001-100-D00-0
 62
     7
370
    50
100
AcDbLine
 10
246.023531
 20
114.169043
 30
0.0
 11
290.023531
 21
114.169043
 31
0.0
  0
ARC
  5
4DB
330
1F
100
AcDbEntity
  8
LC-001-100-D00-0
 62
     7
370
    50
100
AcDbCircle
 10
208.023531
 20
232.169043
 30
0.0
 40
3.0
100
AcDbArc
 50
180.0
 51
270.0
  0
LINE
  5
4DC
330
1F
100
AcDbEntity
  8
LC-001-100-D00-0
 62
     7
370
    50
100
AcDbLine
 10
200.921478
 20
243.0945
 30
0.0
 11
205.023531
 21
243.0945
 31
0.0
  0
ARC
  5
4DD
330
1F
100
AcDbEntity
  8
LC-001-100-D00-0
 62
     7
370
    50
100
AcDbCircle
 10
198.023531
 20
247.169043
 30
0.0
 40
5.000000000000004
100
AcDbArc
 50
234.578322
 51
305.421678
  0
LINE
  5
4DE
330
1F
100
AcDbEntity
  8
LC-001-100-D00-0
 62
     7
370
    50
100
AcDbLine
 10
192.023531
 20
243.0945
 30
0.0
 11
195.125583
 21
243.0945
 31
0.0
  0
LINE
  5
4DF
330
1F
100
AcDbEntity
  8
LC-001-100-D00-0
 62
     7
370
    50
100
AcDbLine
 10
192.023531
 20
243.0945
 30
0.0
 11
192.023531
 21
252.5945
 31
0.0
  0
LINE
  5
4E0
330
1F
100
AcDbEntity
  8
LC-001-100-D00-0
 62
     7
370
    50
100
AcDbLine
 10
193.023531
 20
258.434047
 30
0.0
 11
193.023531
 21
258.934047
 31
0.0
  0
LINE
  5
4E1
330
1F
100
AcDbEntity
  8
LC-001-100-D00-0
 62
     7
370
    50
100
AcDbLine
 10
195.523531
 20
258.434047
 30
0.0
 11
195.523531
 21
245.934047
 31
0.0
  0
LINE
  5
4E2
330
1F
100
AcDbEntity
  8
LC-001-100-D00-0
 62
     7
370
    50
100
AcDbLine
 10
195.523531
 20
245.934047
 30
0.0
 11
196.023531
 21
245.434047
 31
0.0
  0
LINE
  5
4E3
330
1F
100
AcDbEntity
  8
LC-001-100-D00-0
 62
     7
370
    50
100
AcDbLine
 10
200.023531
 20
245.434047
 30
0.0
 11
196.023531
 21
245.434047
 31
0.0
  0
LINE
  5
4E4
330
1F
100
AcDbEntity
  8
LC-001-100-D00-0
 62
     7
370
    50
100
AcDbLine
 10
200.023531
 20
245.434047
 30
0.0
 11
200.523531
 21
245.934047
 31
0.0
  0
LINE
  5
4E5
330
1F
100
AcDbEntity
  8
LC-001-100-D00-0
 62
     7
370
    50
100
AcDbLine
 10
200.523531
 20
245.934047
 30
0.0
 11
200.523531
 21
258.434047
 31
0.0
  0
LINE
  5
4E6
330
1F
100
AcDbEntity
  8
LC-001-100-D00-0
 62
     7
370
    50
100
AcDbLine
 10
203.023531
 20
258.93386
 30
0.0
 11
203.023531
 21
258.434047
 31
0.0
  0
LINE
  5
4E7
330
1F
100
AcDbEntity
  8
LC-001-100-D00-0
 62
     7
370
    50
100
AcDbLine
 10
205.023531
 20
259.93412
 30
0.0
 11
205.023531
 21
262.93412
 31
0.0
  0
LINE
  5
4E8
330
1F
100
AcDbEntity
  8
LC-001-100-D00-0
 62
     7
370
    50
100
AcDbLine
 10
207.023531
 20
262.93412
 30
0.0
 11
205.023531
 21
262.93412
 31
0.0
  0
LINE
  5
4E9
330
1F
100
AcDbEntity
  8
LC-001-100-D00-0
 62
     7
370
    50
100
AcDbLine
 10
207.023531
 20
262.93412
 30
0.0
 11
207.023531
 21
259.93412
 31
0.0
  0
LINE
  5
4EA
330
1F
100
AcDbEntity
  8
LC-001-100-D00-0
 62
     7
370
    50
100
AcDbLine
 10
207.023531
 20
259.93412
 30
0.0
 11
207.023425
 21
259.93412
 31
0.0
  0
LINE
  5
4EB
330
1F
100
AcDbEntity
  8
LC-001-100-D00-0
 62
     7
370
    50
100
AcDbLine
 10
243.523531
 20
236.669043
 30
0.0
 11
246.023531
 21
236.669043
 31
0.0
  0
LINE
  5
4EC
330
1F
100
AcDbEntity
  8
LC-001-100-D00-0
 62
     7
370
    50
100
AcDbLine
 10
242.023531
 20
174.669043
 30
0.0
 11
221.593549
 21
174.669043
 31
0.0
  0
LINE
  5
4ED
330
1F
100
AcDbEntity
  8
LC-001-100-D00-0
 62
     7
370
    50
100
AcDbLine
 10
243.961353
 20
114.169043
 30
0.0
 11
246.023531
 21
114.169043
 31
0.0
  0
LINE
  5
4EE
330
1F
100
AcDbEntity
  8
LC-001-100-D00-0
 62
     7
370
    50
100
AcDbLine
 10
243.023531
 20
172.169043
 30
0.0
 11
219.26339
 21
172.169043
 31
0.0
  0
LINE
  5
4EF
330
1F
100
AcDbEntity
  8
LC-001-100-D00-0
 62
     7
370
    50
100
AcDbLine
 10
205.023531
 20
259.93412
 30
0.0
 11
204.023531
 21
259.93412
 31
0.0
  0
LINE
  5
4F0
330
1F
100
AcDbEntity
  8
LC-001-100-D00-0
 62
     7
370
    50
100
AcDbLine
 10
183.023531
 20
258.434047
 30
0.0
 11
185.023531
 21
258.434047
 31
0.0
  0
LINE
  5
4F1
330
1F
100
AcDbEntity
  8
LC-001-100-D00-0
 62
     7
370
    50
100
AcDbLine
 10
192.023531
 20
258.434047
 30
0.0
 11
192.734856
 21
258.434047
 31
0.0
  0
LINE
  5
4F2
330
1F
100
AcDbEntity
  8
LC-001-100-D00-0
 62
     7
370
    50
100
AcDbLine
 10
185.050663
 20
252.5945
 30
0.0
 11
192.023531
 21
252.5945
 31
0.0
  0
LINE
  5
4F3
330
1F
100
AcDbEntity
  8
LC-001-100-D00-0
 62
     7
370
    50
100
AcDbLine
 10
200.523531
 20
258.434047
 30
0.0
 11
203.023531
 21
258.434047
 31
0.0
  0
LINE
  5
4F4
330
1F
100
AcDbEntity
  8
LC-001-100-D00-0
 62
     7
370
    50
100
AcDbLine
 10
193.023531
 20
258.434047
 30
0.0
 11
195.523531
 21
258.434047
 31
0.0
  0
LINE
  5
4F5
330
1F
100
AcDbEntity
  8
LC-001-100-D00-0
 62
     7
370
    50
100
AcDbLine
 10
208.023531
 20
232.169043
 30
0.0
 11
216.023531
 21
232.169043
 31
0.0
  0
LINE
  5
4F6
330
1F
100
AcDbEntity
  8
LC-001-100-D00-0
 62
     7
370
    50
100
AcDbLine
 10
185.023531
 20
254.934047
 30
0.0
 11
192.023531
 21
254.934047
 31
0.0
  0
LINE
  5
4F7
330
1F
100
AcDbEntity
  8
LC-001-100-D00-0
 62
     7
370
    50
100
AcDbLine
 10
213.023531
 20
229.169043
 30
0.0
 11
208.023531
 21
229.169043
 31
0.0
  0
LINE
  5
4F8
330
1F
100
AcDbEntity
  8
LC-001-100-D00-0
 62
     7
370
    50
100
AcDbLine
 10
203.312314
 20
258.434047
 30
0.0
 11
204.023531
 21
258.434047
 31
0.0
  0
LINE
  5
4F9
330
1F
100
AcDbEntity
  8
LC-001-100-D00-0
 62
     7
370
    50
100
AcDbLine
 10
195.523531
 20
245.934047
 30
0.0
 11
196.458869
 21
245.934047
 31
0.0
  0
LINE
  5
4FA
330
1F
100
AcDbEntity
  8
LC-001-100-D00-0
 62
     7
370
    50
100
AcDbLine
 10
199.588193
 20
245.934047
 30
0.0
 11
200.523531
 21
245.934047
 31
0.0
  0
LINE
  5
4FB
330
1F
100
AcDbEntity
  8
LC-001-100-D00-0
 62
     7
370
    50
100
AcDbLine
 10
200.523531
 20
258.434047
 30
0.0
 11
200.023531
 21
258.434047
 31
0.0
  0
LINE
  5
4FC
330
1F
100
AcDbEntity
  8
LC-001-100-D00-0
 62
     7
370
    50
100
AcDbLine
 10
207.090197
 20
262.93412
 30
0.0
 11
207.090197
 21
259.93412
 31
0.0
  0
INSERT
  5
508
330
1F
100
AcDbEntity
  8
LC-001-100-D00-0
 62
     7
370
    50
100
AcDbBlockReference
  2
POLY24
 10
0.0
 20
0.0
 30
0.0
  0
LINE
  5
509
330
1F
100
AcDbEntity
  8
LC-001-100-D00-0
 62
     7
370
    50
100
AcDbLine
 10
207.023531
 20
262.93412
 30
0.0
 11
207.090197
 21
262.93412
 31
0.0
  0
LINE
  5
50A
330
1F
100
AcDbEntity
  8
LC-001-100-D00-0
 62
     7
370
    50
100
AcDbLine
 10
207.023531
 20
259.93412
 30
0.0
 11
207.090197
 21
259.93412
 31
0.0
  0
LINE
  5
50B
330
1F
100
AcDbEntity
  8
LC-001-100-D00-0
 62
     7
370
    50
100
AcDbLine
 10
201.13792
 20
258.934047
 30
0.0
 11
200.861022
 21
258.434047
 31
0.0
  0
LINE
  5
50C
330
1F
100
AcDbEntity
  8
LC-001-100-D00-0
 62
     7
370
    50
100
AcDbLine
 10
201.413627
 20
258.434047
 30
0.0
 11
201.13792
 21
258.934047
 31
0.0
  0
LINE
  5
50D
330
1F
100
AcDbEntity
  8
LC-001-100-D00-0
 62
     7
370
    50
100
AcDbLine
 10
201.13792
 20
258.934047
 30
0.0
 11
203.023639
 21
258.934047
 31
0.0
  0
LINE
  5
50E
330
1F
100
AcDbEntity
  8
LC-001-100-D00-0
 62
     7
370
    50
100
AcDbLine
 10
335.18604
 20
258.434047
 30
0.0
 11
334.909142
 21
258.934047
 31
0.0
  0
LINE
  5
50F
330
1F
100
AcDbEntity
  8
LC-001-100-D00-0
 62
     7
370
    50
100
AcDbLine
 10
334.909142
 20
258.934047
 30
0.0
 11
334.633434
 21
258.434047
 31
0.0
  0
LINE
  5
510
330
1F
100
AcDbEntity
  8
LC-001-100-D00-0
 62
     7
370
    50
100
AcDbLine
 10
333.023423
 20
258.934047
 30
0.0
 11
334.909142
 21
258.934047
 31
0.0
  0
LINE
  5
511
330
1F
100
AcDbEntity
  8
LC-001-100-D00-0
 62
     7
370
    50
100
AcDbLine
 10
195.394631
 20
258.506666
 30
0.0
 11
195.137816
 21
258.934047
 31
0.0
  0
LINE
  5
512
330
1F
100
AcDbEntity
  8
LC-001-100-D00-0
 62
     7
370
    50
100
AcDbLine
 10
195.137816
 20
258.934047
 30
0.0
 11
194.836174
 21
258.434047
 31
0.0
  0
LINE
  5
513
330
1F
100
AcDbEntity
  8
LC-001-100-D00-0
 62
     7
370
    50
100
AcDbLine
 10
341.210887
 20
258.434047
 30
0.0
 11
340.909245
 21
258.934047
 31
0.0
  0
LINE
  5
514
330
1F
100
AcDbEntity
  8
LC-001-100-D00-0
 62
     7
370
    50
100
AcDbLine
 10
340.909245
 20
258.934047
 30
0.0
 11
340.608793
 21
258.434047
 31
0.0
  0
LINE
  5
515
330
1F
100
AcDbEntity
  8
LC-001-100-D00-0
 62
     7
370
    50
100
AcDbLine
 10
195.137816
 20
258.934047
 30
0.0
 11
196.023531
 21
258.934047
 31
0.0
  0
LINE
  5
516
330
1F
100
AcDbEntity
  8
LC-001-100-D00-0
 62
     7
370
    50
100
AcDbLine
 10
338.852102
 20
258.934047
 30
0.0
 11
340.909245
 21
258.934047
 31
0.0
  0
LINE
  5
517
330
1F
100
AcDbEntity
  8
LC-001-100-D00-0
 62
     7
370
    50
100
AcDbLine
 10
200.023531
 20
258.934047
 30
0.0
 11
201.13792
 21
258.934047
 31
0.0
  0
LINE
  5
518
330
1F
100
AcDbEntity
  8
LC-001-100-D00-0
 62
     7
370
    50
100
AcDbLine
 10
334.909142
 20
258.934047
 30
0.0
 11
336.852106
 21
258.934047
 31
0.0
  0
LINE
  5
519
330
1F
100
AcDbEntity
  8
LC-001-100-D00-0
 62
     7
370
    50
100
AcDbLine
 10
336.852106
 20
258.934047
 30
0.0
 11
336.568146
 21
258.434047
 31
0.0
  0
LINE
  5
51A
330
1F
100
AcDbEntity
  8
LC-001-100-D00-0
 62
     7
370
    50
100
AcDbLine
 10
337.137248
 20
258.434047
 30
0.0
 11
336.852106
 21
258.934047
 31
0.0
  0
LINE
  5
51B
330
1F
100
AcDbEntity
  8
LC-001-100-D00-0
 62
     7
370
    50
100
AcDbLine
 10
338.852102
 20
258.934047
 30
0.0
 11
338.559898
 21
258.434047
 31
0.0
  0
LINE
  5
51C
330
1F
100
AcDbEntity
  8
LC-001-100-D00-0
 62
     7
370
    50
100
AcDbLine
 10
339.145496
 20
258.434047
 30
0.0
 11
338.852102
 21
258.934047
 31
0.0
  0
LINE
  5
51D
330
1F
100
AcDbEntity
  8
LC-001-100-D00-0
 62
     7
370
    50
100
AcDbLine
 10
336.852106
 20
258.934047
 30
0.0
 11
338.852102
 21
258.934047
 31
0.0
  0
INSERT
  5
544
330
1F
100
AcDbEntity
  8
LC-001-100-D00-0
 62
     7
370
    25
100
AcDbBlockReference
  2
KLON7
 10
0.0
 20
0.0
 30
0.0
  0
INSERT
  5
56A
330
1F
100
AcDbEntity
  8
LC-001-100-D00-0
 62
     7
370
    50
100
AcDbBlockReference
  2
KLON8
 10
0.0
 20
0.0
 30
0.0
  0
INSERT
  5
587
330
1F
100
AcDbEntity
  8
LC-001-100-D00-0
 62
     7
370
    25
100
AcDbBlockReference
  2
KLON9
 10
0.0
 20
0.0
 30
0.0
  0
INSERT
  5
590
330
1F
100
AcDbEntity
  8
LC-001-100-D00-0
 62
     7
370
    25
100
AcDbBlockReference
  2
KLON10
 10
0.0
 20
0.0
 30
0.0
  0
INSERT
  5
596
330
1F
100
AcDbEntity
  8
LC-001-100-D00-0
 62
     7
370
    50
100
AcDbBlockReference
  2
KLON11
 10
0.0
 20
0.0
 30
0.0
  0
INSERT
  5
59E
330
1F
100
AcDbEntity
  8
LC-001-100-D00-0
 62
     7
370
    25
100
AcDbBlockReference
  2
KLON12
 10
0.0
 20
0.0
 30
0.0
  0
INSERT
  5
5A4
330
1F
100
AcDbEntity
  8
LC-001-100-D00-0
 62
     7
370
    50
100
AcDbBlockReference
  2
KLON13
 10
0.0
 20
0.0
 30
0.0
  0
INSERT
  5
5AA
330
1F
100
AcDbEntity
  8
LC-001-100-D00-0
 62
     7
370
    25
100
AcDbBlockReference
  2
KLON14
 10
0.0
 20
0.0
 30
0.0
  0
INSERT
  5
5B3
330
1F
100
AcDbEntity
  8
LC-001-100-D00-0
 62
     7
370
    25
100
AcDbBlockReference
  2
KLON15
 10
0.0
 20
0.0
 30
0.0
  0
INSERT
  5
5BC
330
1F
100
AcDbEntity
  8
LC-001-100-D00-0
 62
     7
370
    25
100
AcDbBlockReference
  2
KLON16
 10
0.0
 20
0.0
 30
0.0
  0
INSERT
  5
5C3
330
1F
100
AcDbEntity
  8
LC-001-100-D00-0
 62
     7
370
    25
100
AcDbBlockReference
  2
KLON17
 10
0.0
 20
0.0
 30
0.0
  0
INSERT
  5
5CA
330
1F
100
AcDbEntity
  8
LC-001-100-D00-0
 62
     7
370
    25
100
AcDbBlockReference
  2
KLON18
 10
0.0
 20
0.0
 30
0.0
  0
INSERT
  5
5D1
330
1F
100
AcDbEntity
  8
LC-001-100-D00-0
 62
     7
370
    25
100
AcDbBlockReference
  2
KLON19
 10
0.0
 20
0.0
 30
0.0
  0
LINE
  5
5D2
330
1F
100
AcDbEntity
  8
LC-001-100-D00-0
 62
     7
370
    25
100
AcDbLine
 10
251.523531
 20
426.373422
 30
0.0
 11
252.995101
 21
427.844992
 31
0.0
  0
LINE
  5
5D3
330
1F
100
AcDbEntity
  8
LC-001-100-D00-0
 62
     7
370
    25
100
AcDbLine
 10
287.523531
 20
426.452397
 30
0.0
 11
288.983847
 21
427.912714
 31
0.0
  0
LINE
  5
5D4
330
1F
100
AcDbEntity
  8
LC-001-100-D00-0
 62
     7
370
    25
100
AcDbLine
 10
235.05518
 20
427.865583
 30
0.0
 11
237.12699
 21
429.937394
 31
0.0
  0
INSERT
  5
5DA
330
1F
100
AcDbEntity
  8
LC-001-100-D00-0
 62
     7
370
    25
100
AcDbBlockReference
  2
KLON20
 10
0.0
 20
0.0
 30
0.0
  0
INSERT
  5
5E0
330
1F
100
AcDbEntity
  8
LC-001-100-D00-0
 62
     7
370
    25
100
AcDbBlockReference
  2
KLON21
 10
0.0
 20
0.0
 30
0.0
  0
INSERT
  5
5E6
330
1F
100
AcDbEntity
  8
LC-001-100-D00-0
 62
     7
370
    25
100
AcDbBlockReference
  2
KLON22
 10
0.0
 20
0.0
 30
0.0
  0
INSERT
  5
5ED
330
1F
100
AcDbEntity
  8
LC-001-100-D00-0
 62
     7
370
    25
100
AcDbBlockReference
  2
KLON23
 10
0.0
 20
0.0
 30
0.0
  0
INSERT
  5
5F4
330
1F
100
AcDbEntity
  8
LC-001-100-D00-0
 62
     7
370
    25
100
AcDbBlockReference
  2
KLON24
 10
0.0
 20
0.0
 30
0.0
  0
LINE
  5
5F5
330
1F
100
AcDbEntity
  8
LC-001-100-D00-0
 62
     7
370
    50
100
AcDbLine
 10
209.983506
 20
232.169043
 30
0.0
 11
214.983506
 21
237.169043
 31
0.0
  0
INSERT
  5
5FB
330
1F
100
AcDbEntity
  8
LC-001-100-D00-0
 62
     7
370
    50
100
AcDbBlockReference
  2
KLON25
 10
0.0
 20
0.0
 30
0.0
  0
INSERT
  5
602
330
1F
100
AcDbEntity
  8
LC-001-100-D00-0
 62
     7
370
    25
100
AcDbBlockReference
  2
KLON26
 10
0.0
 20
0.0
 30
0.0
  0
INSERT
  5
60F
330
1F
100
AcDbEntity
  8
LC-001-100-D00-0
 62
     7
370
    50
100
AcDbBlockReference
  2
KLON27
 10
0.0
 20
0.0
 30
0.0
  0
INSERT
  5
61A
330
1F
100
AcDbEntity
  8
LC-001-100-D00-0
 62
     7
370
    50
100
AcDbBlockReference
  2
KLON28
 10
0.0
 20
0.0
 30
0.0
  0
LINE
  5
61B
330
1F
100
AcDbEntity
  8
LC-001-100-D00-0
 62
     7
370
    25
100
AcDbLine
 10
118.023531
 20
382.675983
 30
0.0
 11
119.516591
 21
384.169043
 31
0.0
  0
LINE
  5
61C
330
1F
100
AcDbEntity
  8
LC-001-100-D00-0
 62
     7
370
    25
100
AcDbLine
 10
413.365043
 20
381.669043
 30
0.0
 11
415.865043
 21
384.169043
 31
0.0
  0
DIMENSION
  5
61F
330
1F
100
AcDbEntity
  8
LC-001-100-D00-0
 62
     7
370
    25
100
AcDbDimension
  2
*D53
 10
486.128702
 20
264.838459
 30
0.0
 11
455.328702
 21
314.65254
 31
0.0
 70
   160
  1
16,5-120
 71
     5
 42
119.330583
 53
90.0
  3
LC-DIM-L-0140-02-02
100
AcDbAlignedDimension
 13
418.023531
 23
384.169043
 33
0.0
 14
380.457277
 24
264.838459
 34
0.0
 50
90.0
100
AcDbRotatedDimension
  0
LINE
  5
62E
330
1F
100
AcDbEntity
  8
LC-001-100-D00-0
  6
DASHDOT
 62
     7
370
    25
100
AcDbLine
 10
268.023531
 20
114.846211
 30
0.0
 11
268.023531
 21
281.11078
 31
0.0
  0
LINE
  5
62F
330
1F
100
AcDbEntity
  8
LC-001-100-D00-0
  6
DASHDOT
 62
     7
370
    25
100
AcDbLine
 10
268.023531
 20
374.58766
 30
0.0
 11
268.023531
 21
430.023196
 31
0.0
  0
LINE
  5
630
330
1F
100
AcDbEntity
  8
LC-001-100-D00-0
  6
DASHDOT
 62
     7
370
    25
100
AcDbLine
 10
118.023531
 20
-77.363996
 30
0.0
 11
418.023531
 21
-77.363996
 31
0.0
  0
INSERT
  5
63C
330
1F
100
AcDbEntity
  8
LC-001-100-D00-0
 62
     7
370
    50
100
AcDbBlockReference
  2
POLY25
 10
0.0
 20
0.0
 30
0.0
  0
LINE
  5
63D
330
1F
100
AcDbEntity
  8
LC-001-100-D00-0
 62
     7
370
    50
100
AcDbLine
 10
370.887541
 20
368.669043
 30
0.0
 11
370.416267
 21
366.910224
 31
0.0
  0
ARC
  5
63E
330
1F
100
AcDbEntity
  8
LC-001-100-D00-0
 62
     7
370
    50
100
AcDbCircle
 10
369.450341
 20
367.169043
 30
0.0
 40
1.000000000000057
100
AcDbArc
 50
270.0
 51
345.0
  0
ARC
  5
63F
330
1F
100
AcDbEntity
  8
LC-001-100-D00-0
 62
     7
370
    50
100
AcDbCircle
 10
360.815492
 20
367.169043
 30
0.0
 40
0.9999999999999986
100
AcDbArc
 50
190.973276
 51
270.0
  0
LINE
  5
640
330
1F
100
AcDbEntity
  8
LC-001-100-D00-0
 62
     7
370
    50
100
AcDbLine
 10
399.148017
 20
366.910224
 30
0.0
 11
395.193404
 21
381.669043
 31
0.0
  0
ARC
  5
641
330
1F
100
AcDbEntity
  8
LC-001-100-D00-0
 62
     7
370
    50
100
AcDbCircle
 10
400.113943
 20
367.169043
 30
0.0
 40
1.000000000000085
100
AcDbArc
 50
195.0
 51
270.0
  0
LINE
  5
642
330
1F
100
AcDbEntity
  8
LC-001-100-D00-0
 62
     7
370
    50
100
AcDbLine
 10
400.113943
 20
366.169043
 30
0.0
 11
409.576712
 21
366.169043
 31
0.0
  0
ARC
  5
643
330
1F
100
AcDbEntity
  8
LC-001-100-D00-0
 62
     7
370
    50
100
AcDbCircle
 10
409.576712
 20
367.169043
 30
0.0
 40
1.000000000000057
100
AcDbArc
 50
270.0
 51
345.0
  0
LINE
  5
644
330
1F
100
AcDbEntity
  8
LC-001-100-D00-0
 62
     7
370
    50
100
AcDbLine
 10
410.542638
 20
366.910224
 30
0.0
 11
411.013912
 21
368.669043
 31
0.0
  0
LINE
  5
645
330
1F
100
AcDbEntity
  8
LC-001-100-D00-0
 62
     7
370
    50
100
AcDbLine
 10
401.176743
 20
368.669043
 30
0.0
 11
411.013912
 21
368.669043
 31
0.0
  0
LINE
  5
646
330
1F
100
AcDbEntity
  8
LC-001-100-D00-0
 62
     7
370
    50
100
AcDbLine
 10
397.693404
 20
381.669043
 30
0.0
 11
401.176743
 21
368.669043
 31
0.0
  0
LINE
  5
647
330
1F
100
AcDbEntity
  8
LC-001-100-D00-0
 62
     7
370
    50
100
AcDbLine
 10
401.908839
 20
368.669043
 30
0.0
 11
398.132902
 21
381.669043
 31
0.0
  0
LINE
  5
648
330
1F
100
AcDbEntity
  8
LC-001-100-D00-0
 62
     7
370
    50
100
AcDbLine
 10
364.741521
 20
368.669043
 30
0.0
 11
365.076815
 21
367.169043
 31
0.0
  0
LINE
  5
649
330
1F
100
AcDbEntity
  8
LC-001-100-D00-0
 62
     7
370
    50
100
AcDbLine
 10
364.776429
 20
368.669043
 30
0.0
 11
361.792517
 21
381.669043
 31
0.0
  0
INSERT
  5
657
330
1F
100
AcDbEntity
  8
LC-001-100-D00-0
 62
     7
370
    50
100
AcDbBlockReference
  2
POLY26
 10
0.0
 20
0.0
 30
0.0
  0
LINE
  5
658
330
1F
100
AcDbEntity
  8
LC-001-100-D00-0
 62
     7
370
    50
100
AcDbLine
 10
365.095591
 20
366.910224
 30
0.0
 11
365.076815
 21
367.169043
 31
0.0
  0
LINE
  5
659
330
1F
100
AcDbEntity
  8
LC-001-100-D00-0
 62
     7
370
    50
100
AcDbLine
 10
362.936812
 20
366.169043
 30
0.0
 11
364.808127
 21
366.169043
 31
0.0
  0
INSERT
  5
66B
330
1F
100
AcDbEntity
  8
LC-001-100-D00-0
 62
     7
370
    50
100
AcDbBlockReference
  2
POLY27
 10
0.0
 20
0.0
 30
0.0
  0
LINE
  5
66C
330
1F
100
AcDbEntity
  8
LC-001-100-D00-0
 62
     7
370
    50
100
AcDbLine
 10
370.887541
 20
368.669043
 30
0.0
 11
364.741521
 21
368.669043
 31
0.0
  0
LINE
  5
66D
330
1F
100
AcDbEntity
  8
LC-001-100-D00-0
 62
     7
370
    50
100
AcDbLine
 10
364.808127
 20
366.169043
 30
0.0
 11
369.450341
 21
366.169043
 31
0.0
  0
LINE
  5
66E
330
1F
100
AcDbEntity
  8
LC-001-100-D00-0
 62
     7
370
    50
100
AcDbLine
 10
320.023531
 20
232.169043
 30
0.0
 11
307.523531
 21
232.169043
 31
0.0
  0
LINE
  5
66F
102
{ACAD_REACTORS
330
764
102
}
330
1F
100
AcDbEntity
  8
LC-001-100-D00-0
 62
     7
370
    25
100
AcDbLine
 10
215.523531
 20
243.92625
 30
0.0
 11
213.023531
 21
246.42625
 31
0.0
  0
LINE
  5
670
102
{ACAD_REACTORS
330
764
102
}
330
1F
100
AcDbEntity
  8
LC-001-100-D00-0
 62
     7
370
    25
100
AcDbLine
 10
215.523531
 20
252.906506
 30
0.0
 11
213.023531
 21
255.406506
 31
0.0
  0
LINE
  5
671
102
{ACAD_REACTORS
330
764
102
}
330
1F
100
AcDbEntity
  8
LC-001-100-D00-0
 62
     7
370
    25
100
AcDbLine
 10
215.523531
 20
261.886763
 30
0.0
 11
213.023531
 21
264.386763
 31
0.0
  0
LINE
  5
672
102
{ACAD_REACTORS
330
764
102
}
330
1F
100
AcDbEntity
  8
LC-001-100-D00-0
 62
     7
370
    25
100
AcDbLine
 10
215.523531
 20
270.867019
 30
0.0
 11
213.023531
 21
273.367019
 31
0.0
  0
LINE
  5
673
102
{ACAD_REACTORS
330
764
102
}
330
1F
100
AcDbEntity
  8
LC-001-100-D00-0
 62
     7
370
    25
100
AcDbLine
 10
215.523531
 20
279.847275
 30
0.0
 11
213.023531
 21
282.347275
 31
0.0
  0
LINE
  5
674
102
{ACAD_REACTORS
330
764
102
}
330
1F
100
AcDbEntity
  8
LC-001-100-D00-0
 62
     7
370
    25
100
AcDbLine
 10
215.523531
 20
288.827531
 30
0.0
 11
213.023531
 21
291.327531
 31
0.0
  0
LINE
  5
675
102
{ACAD_REACTORS
330
764
102
}
330
1F
100
AcDbEntity
  8
LC-001-100-D00-0
 62
     7
370
    25
100
AcDbLine
 10
137.013539
 20
367.337523
 30
0.0
 11
135.041851
 21
369.309211
 31
0.0
  0
LINE
  5
676
102
{ACAD_REACTORS
330
764
102
}
330
1F
100
AcDbEntity
  8
LC-001-100-D00-0
 62
     7
370
    25
100
AcDbLine
 10
215.523531
 20
297.807787
 30
0.0
 11
213.023531
 21
300.307787
 31
0.0
  0
LINE
  5
677
102
{ACAD_REACTORS
330
764
102
}
330
1F
100
AcDbEntity
  8
LC-001-100-D00-0
 62
     7
370
    25
100
AcDbLine
 10
138.91129
 20
374.420028
 30
0.0
 11
136.939602
 21
376.391716
 31
0.0
  0
LINE
  5
678
102
{ACAD_REACTORS
330
764
102
}
330
1F
100
AcDbEntity
  8
LC-001-100-D00-0
 62
     7
370
    25
100
AcDbLine
 10
215.523531
 20
306.788043
 30
0.0
 11
213.023531
 21
309.288043
 31
0.0
  0
LINE
  5
679
102
{ACAD_REACTORS
330
764
102
}
330
1F
100
AcDbEntity
  8
LC-001-100-D00-0
 62
     7
370
    25
100
AcDbLine
 10
140.809041
 20
381.502532
 30
0.0
 11
138.837354
 21
383.47422
 31
0.0
  0
LINE
  5
67A
102
{ACAD_REACTORS
330
764
102
}
330
1F
100
AcDbEntity
  8
LC-001-100-D00-0
 62
     7
370
    25
100
AcDbLine
 10
215.523531
 20
315.768299
 30
0.0
 11
213.023531
 21
318.268299
 31
0.0
  0
LINE
  5
67B
102
{ACAD_REACTORS
330
764
102
}
330
1F
100
AcDbEntity
  8
LC-001-100-D00-0
 62
     7
370
    25
100
AcDbLine
 10
149.622787
 20
381.669043
 30
0.0
 11
147.622787
 21
383.669043
 31
0.0
  0
LINE
  5
67C
102
{ACAD_REACTORS
330
764
102
}
330
1F
100
AcDbEntity
  8
LC-001-100-D00-0
 62
     7
370
    25
100
AcDbLine
 10
215.523531
 20
324.748555
 30
0.0
 11
213.023531
 21
327.248555
 31
0.0
  0
LINE
  5
67D
102
{ACAD_REACTORS
330
764
102
}
330
1F
100
AcDbEntity
  8
LC-001-100-D00-0
 62
     7
370
    25
100
AcDbLine
 10
158.603043
 20
381.669043
 30
0.0
 11
156.603043
 21
383.669043
 31
0.0
  0
LINE
  5
67E
102
{ACAD_REACTORS
330
764
102
}
330
1F
100
AcDbEntity
  8
LC-001-100-D00-0
 62
     7
370
    25
100
AcDbLine
 10
215.523531
 20
333.728812
 30
0.0
 11
213.023531
 21
336.228812
 31
0.0
  0
LINE
  5
67F
102
{ACAD_REACTORS
330
764
102
}
330
1F
100
AcDbEntity
  8
LC-001-100-D00-0
 62
     7
370
    25
100
AcDbLine
 10
167.5833
 20
381.669043
 30
0.0
 11
165.5833
 21
383.669043
 31
0.0
  0
LINE
  5
680
102
{ACAD_REACTORS
330
764
102
}
330
1F
100
AcDbEntity
  8
LC-001-100-D00-0
 62
     7
370
    25
100
AcDbLine
 10
215.523531
 20
342.709068
 30
0.0
 11
213.023531
 21
345.209068
 31
0.0
  0
LINE
  5
681
102
{ACAD_REACTORS
330
764
102
}
330
1F
100
AcDbEntity
  8
LC-001-100-D00-0
 62
     7
370
    25
100
AcDbLine
 10
176.563556
 20
381.669043
 30
0.0
 11
174.563556
 21
383.669043
 31
0.0
  0
LINE
  5
682
102
{ACAD_REACTORS
330
764
102
}
330
1F
100
AcDbEntity
  8
LC-001-100-D00-0
 62
     7
370
    25
100
AcDbLine
 10
215.523531
 20
351.689324
 30
0.0
 11
213.023531
 21
354.189324
 31
0.0
  0
LINE
  5
683
102
{ACAD_REACTORS
330
764
102
}
330
1F
100
AcDbEntity
  8
LC-001-100-D00-0
 62
     7
370
    25
100
AcDbLine
 10
191.043812
 20
376.169043
 30
0.0
 11
183.543812
 21
383.669043
 31
0.0
  0
LINE
  5
684
102
{ACAD_REACTORS
330
764
102
}
330
1F
100
AcDbEntity
  8
LC-001-100-D00-0
 62
     7
370
    25
100
AcDbLine
 10
215.523531
 20
360.66958
 30
0.0
 11
213.023531
 21
363.16958
 31
0.0
  0
LINE
  5
685
102
{ACAD_REACTORS
330
764
102
}
330
1F
100
AcDbEntity
  8
LC-001-100-D00-0
 62
     7
370
    25
100
AcDbLine
 10
200.024068
 20
376.169043
 30
0.0
 11
198.024068
 21
378.169043
 31
0.0
  0
LINE
  5
686
102
{ACAD_REACTORS
330
764
102
}
330
1F
100
AcDbEntity
  8
LC-001-100-D00-0
 62
     7
370
    25
100
AcDbLine
 10
215.523531
 20
369.649836
 30
0.0
 11
213.023531
 21
372.149836
 31
0.0
  0
LINE
  5
687
102
{ACAD_REACTORS
330
764
102
}
330
1F
100
AcDbEntity
  8
LC-001-100-D00-0
 62
     7
370
    25
100
AcDbLine
 10
209.004324
 20
376.169043
 30
0.0
 11
207.004324
 21
378.169043
 31
0.0
  0
LINE
  5
688
102
{ACAD_REACTORS
330
765
102
}
330
1F
100
AcDbEntity
  8
LC-001-100-D00-0
 62
     7
370
    25
100
AcDbLine
 10
320.523531
 20
243.92625
 30
0.0
 11
323.023531
 21
246.42625
 31
0.0
  0
LINE
  5
689
102
{ACAD_REACTORS
330
765
102
}
330
1F
100
AcDbEntity
  8
LC-001-100-D00-0
 62
     7
370
    25
100
AcDbLine
 10
320.523531
 20
252.906506
 30
0.0
 11
323.023531
 21
255.406506
 31
0.0
  0
LINE
  5
68A
102
{ACAD_REACTORS
330
765
102
}
330
1F
100
AcDbEntity
  8
LC-001-100-D00-0
 62
     7
370
    25
100
AcDbLine
 10
320.523531
 20
261.886763
 30
0.0
 11
323.023531
 21
264.386763
 31
0.0
  0
LINE
  5
68B
102
{ACAD_REACTORS
330
765
102
}
330
1F
100
AcDbEntity
  8
LC-001-100-D00-0
 62
     7
370
    25
100
AcDbLine
 10
320.523531
 20
270.867019
 30
0.0
 11
323.023531
 21
273.367019
 31
0.0
  0
LINE
  5
68C
102
{ACAD_REACTORS
330
765
102
}
330
1F
100
AcDbEntity
  8
LC-001-100-D00-0
 62
     7
370
    25
100
AcDbLine
 10
320.523531
 20
279.847275
 30
0.0
 11
321.787036
 21
281.11078
 31
0.0
  0
LINE
  5
68D
102
{ACAD_REACTORS
330
765
102
}
330
1F
100
AcDbEntity
  8
LC-001-100-D00-0
 62
     7
370
    25
100
AcDbLine
 10
323.020587
 20
282.344331
 30
0.0
 11
323.023531
 21
282.347275
 31
0.0
  0
LINE
  5
68E
102
{ACAD_REACTORS
330
765
102
}
330
1F
100
AcDbEntity
  8
LC-001-100-D00-0
 62
     7
370
    25
100
AcDbLine
 10
323.020587
 20
291.324587
 30
0.0
 11
323.023531
 21
291.327531
 31
0.0
  0
LINE
  5
68F
102
{ACAD_REACTORS
330
765
102
}
330
1F
100
AcDbEntity
  8
LC-001-100-D00-0
 62
     7
370
    25
100
AcDbLine
 10
399.033523
 20
367.337523
 30
0.0
 11
401.005211
 21
369.309211
 31
0.0
  0
LINE
  5
690
102
{ACAD_REACTORS
330
765
102
}
330
1F
100
AcDbEntity
  8
LC-001-100-D00-0
 62
     7
370
    25
100
AcDbLine
 10
323.020587
 20
300.304843
 30
0.0
 11
323.023531
 21
300.307787
 31
0.0
  0
LINE
  5
691
102
{ACAD_REACTORS
330
765
102
}
330
1F
100
AcDbEntity
  8
LC-001-100-D00-0
 62
     7
370
    25
100
AcDbLine
 10
397.135771
 20
374.420028
 30
0.0
 11
399.107459
 21
376.391716
 31
0.0
  0
LINE
  5
692
102
{ACAD_REACTORS
330
765
102
}
330
1F
100
AcDbEntity
  8
LC-001-100-D00-0
 62
     7
370
    25
100
AcDbLine
 10
323.020587
 20
309.285099
 30
0.0
 11
323.023531
 21
309.288043
 31
0.0
  0
LINE
  5
693
102
{ACAD_REACTORS
330
765
102
}
330
1F
100
AcDbEntity
  8
LC-001-100-D00-0
 62
     7
370
    25
100
AcDbLine
 10
395.23802
 20
381.502532
 30
0.0
 11
397.209708
 21
383.47422
 31
0.0
  0
LINE
  5
694
102
{ACAD_REACTORS
330
765
102
}
330
1F
100
AcDbEntity
  8
LC-001-100-D00-0
 62
     7
370
    25
100
AcDbLine
 10
323.020587
 20
318.265355
 30
0.0
 11
323.023531
 21
318.268299
 31
0.0
  0
LINE
  5
695
102
{ACAD_REACTORS
330
765
102
}
330
1F
100
AcDbEntity
  8
LC-001-100-D00-0
 62
     7
370
    25
100
AcDbLine
 10
386.424274
 20
381.669043
 30
0.0
 11
388.424274
 21
383.669043
 31
0.0
  0
LINE
  5
696
102
{ACAD_REACTORS
330
765
102
}
330
1F
100
AcDbEntity
  8
LC-001-100-D00-0
 62
     7
370
    25
100
AcDbLine
 10
323.020587
 20
327.245611
 30
0.0
 11
323.023531
 21
327.248555
 31
0.0
  0
LINE
  5
697
102
{ACAD_REACTORS
330
765
102
}
330
1F
100
AcDbEntity
  8
LC-001-100-D00-0
 62
     7
370
    25
100
AcDbLine
 10
377.444018
 20
381.669043
 30
0.0
 11
379.444018
 21
383.669043
 31
0.0
  0
LINE
  5
698
102
{ACAD_REACTORS
330
765
102
}
330
1F
100
AcDbEntity
  8
LC-001-100-D00-0
 62
     7
370
    25
100
AcDbLine
 10
320.523531
 20
333.728812
 30
0.0
 11
323.023531
 21
336.228812
 31
0.0
  0
LINE
  5
699
102
{ACAD_REACTORS
330
765
102
}
330
1F
100
AcDbEntity
  8
LC-001-100-D00-0
 62
     7
370
    25
100
AcDbLine
 10
368.463762
 20
381.669043
 30
0.0
 11
370.463762
 21
383.669043
 31
0.0
  0
LINE
  5
69A
102
{ACAD_REACTORS
330
765
102
}
330
1F
100
AcDbEntity
  8
LC-001-100-D00-0
 62
     7
370
    25
100
AcDbLine
 10
320.523531
 20
342.709068
 30
0.0
 11
323.023531
 21
345.209068
 31
0.0
  0
LINE
  5
69B
102
{ACAD_REACTORS
330
765
102
}
330
1F
100
AcDbEntity
  8
LC-001-100-D00-0
 62
     7
370
    25
100
AcDbLine
 10
359.483506
 20
381.669043
 30
0.0
 11
361.483506
 21
383.669043
 31
0.0
  0
LINE
  5
69C
102
{ACAD_REACTORS
330
765
102
}
330
1F
100
AcDbEntity
  8
LC-001-100-D00-0
 62
     7
370
    25
100
AcDbLine
 10
320.523531
 20
351.689324
 30
0.0
 11
323.023531
 21
354.189324
 31
0.0
  0
LINE
  5
69D
102
{ACAD_REACTORS
330
765
102
}
330
1F
100
AcDbEntity
  8
LC-001-100-D00-0
 62
     7
370
    25
100
AcDbLine
 10
345.00325
 20
376.169043
 30
0.0
 11
352.50325
 21
383.669043
 31
0.0
  0
LINE
  5
69E
102
{ACAD_REACTORS
330
765
102
}
330
1F
100
AcDbEntity
  8
LC-001-100-D00-0
 62
     7
370
    25
100
AcDbLine
 10
320.523531
 20
360.66958
 30
0.0
 11
323.023531
 21
363.16958
 31
0.0
  0
LINE
  5
69F
102
{ACAD_REACTORS
330
765
102
}
330
1F
100
AcDbEntity
  8
LC-001-100-D00-0
 62
     7
370
    25
100
AcDbLine
 10
336.022994
 20
376.169043
 30
0.0
 11
338.022994
 21
378.169043
 31
0.0
  0
LINE
  5
6A0
102
{ACAD_REACTORS
330
765
102
}
330
1F
100
AcDbEntity
  8
LC-001-100-D00-0
 62
     7
370
    25
100
AcDbLine
 10
320.523531
 20
369.649836
 30
0.0
 11
323.023531
 21
372.149836
 31
0.0
  0
LINE
  5
6A1
102
{ACAD_REACTORS
330
765
102
}
330
1F
100
AcDbEntity
  8
LC-001-100-D00-0
 62
     7
370
    25
100
AcDbLine
 10
327.042737
 20
376.169043
 30
0.0
 11
329.042737
 21
378.169043
 31
0.0
  0
DIMENSION
  5
6A3
330
1F
100
AcDbEntity
  8
LC-002-003-----0
 62
     7
370
    25
100
AcDbDimension
  2
*D57
 10
61.025583
 20
366.169043
 30
0.0
 11
30.225583
 21
363.55062
 31
0.0
 70
   160
 71
     5
 42
18.0
 53
90.0
  3
LC-DIM-L-0140-02-02
100
AcDbAlignedDimension
 13
119.516591
 23
384.169043
 33
0.0
 14
126.47035
 24
366.169043
 34
0.0
 50
90.0
100
AcDbRotatedDimension
  0
DIMENSION
  5
6B1
330
1F
100
AcDbEntity
  8
LC-002-003-----0
 62
     7
370
    25
100
AcDbDimension
  2
*D58
 10
105.379168
 20
376.169043
 30
0.0
 11
74.579168
 21
385.332266
 31
0.0
 70
   160
 71
     5
 42
8.0
 53
90.0
  3
LC-DIM-L-0140-02-02
100
AcDbAlignedDimension
 13
123.023531
 23
384.169043
 33
0.0
 14
191.043812
 24
376.169043
 34
0.0
 50
90.0
100
AcDbRotatedDimension
  0
DIMENSION
  5
6BF
330
1F
100
AcDbEntity
  8
LC-002-003-----0
 62
     7
370
    25
100
AcDbDimension
  2
*D59
 10
318.023531
 20
438.06198
 30
0.0
 11
283.615512
 21
468.86198
 31
0.0
 70
   160
 71
     5
 42
100.000001
  3
LC-DIM-L-0140-02-02
100
AcDbAlignedDimension
 13
218.02353
 23
428.794446
 33
0.0
 14
318.023531
 24
427.83016
 34
0.0
100
AcDbRotatedDimension
  0
DIMENSION
  5
6CC
330
1F
100
AcDbEntity
  8
LC-002-003-----0
 62
     7
370
    25
100
AcDbDimension
  2
*D60
 10
470.416472
 20
424.700364
 30
0.0
 11
439.616472
 21
440.39046
 31
0.0
 70
   160
 71
     5
 42
6.0
 53
90.0
  3
LC-DIM-L-0140-02-02
100
AcDbAlignedDimension
 13
316.323531
 23
430.700364
 33
0.0
 14
318.523531
 24
424.700364
 34
0.0
 50
90.0
100
AcDbRotatedDimension
  0
DIMENSION
  5
6DA
330
1F
100
AcDbEntity
  8
LC-002-003-----0
 62
     7
370
    25
100
AcDbDimension
  2
*D61
 10
535.275702
 20
384.169043
 30
0.0
 11
504.475702
 21
340.218004
 31
0.0
 70
   160
  1
45
 71
     5
 42
46.531321
 53
90.0
  3
LC-DIM-L-0140-02-02
100
AcDbAlignedDimension
 13
316.323531
 23
430.700364
 33
0.0
 14
418.023531
 24
384.169043
 34
0.0
 50
90.0
100
AcDbRotatedDimension
  0
DIMENSION
  5
6E8
330
1F
100
AcDbEntity
  8
LC-002-003-----0
 62
     7
370
    25
100
AcDbDimension
  2
*D62
 10
418.023531
 20
480.55674
 30
0.0
 11
265.284577
 21
511.35674
 31
0.0
 70
   160
  1
%%c<>
 71
     5
 42
300.0
  3
LC-DIM-L-0140-02-02
100
AcDbAlignedDimension
 13
118.023531
 23
384.169043
 33
0.0
 14
418.023531
 24
384.169043
 34
0.0
100
AcDbRotatedDimension
  0
DIMENSION
  5
6F5
330
1F
100
AcDbEntity
  8
LC-002-003-----0
 62
     7
370
    25
100
AcDbDimension
  2
*D63
 10
382.523531
 20
329.78766
 30
0.0
 11
260.920068
 21
360.58766
 31
0.0
 70
   160
  1
%%c230
 71
     5
 42
229.0
  3
LC-DIM-L-0140-02-02
100
AcDbAlignedDimension
 13
153.523531
 23
261.356581
 33
0.0
 14
382.523531
 24
261.356581
 34
0.0
100
AcDbRotatedDimension
  0
DIMENSION
  5
702
330
1F
100
AcDbEntity
  8
LC-002-003-----0
 62
     7
370
    25
100
AcDbDimension
  2
*D64
 10
323.023531
 20
286.71078
 30
0.0
 11
266.157478
 21
317.51078
 31
0.0
 70
   160
  1
%%c<>
 71
     5
 42
110.0
  3
LC-DIM-L-0140-02-02
100
AcDbAlignedDimension
 13
213.023531
 23
241.169043
 33
0.0
 14
323.023531
 24
241.169043
 34
0.0
100
AcDbRotatedDimension
  0
DIMENSION
  5
70F
330
1F
100
AcDbEntity
  8
LC-002-003-----0
 62
     7
370
    25
100
AcDbDimension
  2
*D65
 10
293.023531
 20
89.3721
 30
0.0
 11
378.761795
 21
120.1721
 31
0.0
 70
   160
  1
DN50
 71
     5
 42
50.0
  3
LC-DIM-L-0140-02-02
100
AcDbAlignedDimension
 13
243.023531
 23
117.669043
 33
0.0
 14
293.023531
 24
117.669043
 34
0.0
100
AcDbRotatedDimension
  0
DIMENSION
  5
71D
330
1F
100
AcDbEntity
  8
LC-002-003-----0
 62
     7
370
    25
100
AcDbDimension
  2
*D66
 10
323.023531
 20
142.34502
 30
0.0
 11
347.337335
 21
173.14502
 31
0.0
 70
   160
  1
%%c<>
 71
     5
 42
110.0
  3
LC-DIM-L-0140-02-02
100
AcDbAlignedDimension
 13
213.023531
 23
190.307787
 33
0.0
 14
323.023531
 24
192.544714
 34
0.0
100
AcDbRotatedDimension
  0
DIMENSION
  5
72B
330
1F
100
AcDbEntity
  8
LC-002-003-----0
 62
     7
370
    25
100
AcDbDimension
  2
*D67
 10
331.023531
 20
191.2431
 30
0.0
 11
362.176663
 21
222.0431
 31
0.0
 70
   160
  1
%%c<>
 71
     5
 42
126.0
  3
LC-DIM-L-0140-02-02
100
AcDbAlignedDimension
 13
205.023531
 23
232.169043
 33
0.0
 14
331.023531
 24
232.169043
 34
0.0
100
AcDbRotatedDimension
  0
DIMENSION
  5
739
330
1F
100
AcDbEntity
  8
LC-002-003-----0
 62
     7
370
    25
100
AcDbDimension
  2
*D68
 10
41.821746
 20
172.169043
 30
0.0
 11
11.021746
 21
213.94578
 31
0.0
 70
   160
  1
93
 71
     5
 42
92.669417
 53
90.0
  3
LC-DIM-L-0140-02-02
100
AcDbAlignedDimension
 13
155.589784
 23
264.838459
 33
0.0
 14
219.26339
 24
172.169043
 34
0.0
 50
90.0
100
AcDbRotatedDimension
  0
DIMENSION
  5
746
330
1F
100
AcDbEntity
  8
LC-002-003-----0
 62
     7
370
    25
100
AcDbDimension
  2
*D69
 10
89.831339
 20
114.169043
 30
0.0
 11
59.031339
 21
125.46354
 31
0.0
 70
   160
 71
     5
 42
58.0
 53
90.0
  3
LC-DIM-L-0140-02-02
100
AcDbAlignedDimension
 13
221.825555
 23
172.169043
 33
0.0
 14
246.023531
 24
114.169043
 34
0.0
 50
90.0
100
AcDbRotatedDimension
  0
DIMENSION
  5
755
330
1F
100
AcDbEntity
  8
LC-002-003-----0
 62
     7
370
    25
100
AcDbDimension
  2
*D70
 10
145.697046
 20
236.669043
 30
0.0
 11
114.897046
 21
198.22854
 31
0.0
 70
   160
 71
     5
 42
50.0
 53
90.0
  3
LC-DIM-L-0140-02-02
100
AcDbAlignedDimension
 13
228.523531
 23
186.669043
 33
0.0
 14
243.523531
 24
236.669043
 34
0.0
 50
90.0
100
AcDbRotatedDimension
  0
ENDSEC
  0
SECTION
  2
OBJECTS
  0
DICTIONARY
  5
C
330
0
100
AcDbDictionary
281
     1
  3
ACAD_GROUP
350
D
  3
ACAD_LAYOUT
350
1A
  3
ACAD_MLINESTYLE
350
17
  3
ACAD_PLOTSETTINGS
350
19
  3
ACAD_PLOTSTYLENAME
350
E
  0
DICTIONARY
  5
D
102
{ACAD_REACTORS
330
C
102
}
330
C
100
AcDbDictionary
281
     1
  3
LCGROUP10
350
764
  3
LCGROUP46
350
765
  0
DICTIONARY
  5
1A
102
{ACAD_REACTORS
330
C
102
}
330
C
100
AcDbDictionary
281
     1
  3
Layout1
350
1E
  3
Layout2
350
26
  3
Model
350
22
  0
DICTIONARY
  5
17
102
{ACAD_REACTORS
330
C
102
}
330
C
100
AcDbDictionary
281
     1
  3
Standard
350
18
  0
DICTIONARY
  5
19
102
{ACAD_REACTORS
330
C
102
}
330
C
100
AcDbDictionary
281
     1
  0
ACDBDICTIONARYWDFLT
  5
E
102
{ACAD_REACTORS
330
C
102
}
330
C
100
AcDbDictionary
281
     1
  3
Normal
350
F
100
AcDbDictionaryWithDefault
340
F
  0
GROUP
  5
764
102
{ACAD_REACTORS
330
D
102
}
330
D
100
AcDbGroup
300
GRP10
 70
     1
 71
     1
340
66F
340
670
340
671
340
672
340
673
340
674
340
675
340
676
340
677
340
678
340
679
340
67A
340
67B
340
67C
340
67D
340
67E
340
67F
340
680
340
681
340
682
340
683
340
684
340
685
340
686
340
687
  0
GROUP
  5
765
102
{ACAD_REACTORS
330
D
102
}
330
D
100
AcDbGroup
300
GRP46
 70
     1
 71
     1
340
688
340
689
340
68A
340
68B
340
68C
340
68D
340
68E
340
68F
340
690
340
691
340
692
340
693
340
694
340
695
340
696
340
697
340
698
340
699
340
69A
340
69B
340
69C
340
69D
340
69E
340
69F
340
6A0
340
6A1
  0
LAYOUT
  5
1E
102
{ACAD_REACTORS
330
1A
102
}
330
1A
100
AcDbPlotSettings
  1

  2

  4

  6

 40
0.0
 41
0.0
 42
0.0
 43
0.0
 44
0.0
 45
0.0
 46
0.0
 47
0.0
 48
0.0
 49
0.0
140
0.0
141
0.0
142
1.0
143
1.0
 70
   688
 72
     0
 73
     0
 74
     5
  7

 75
    16
147
1.0
148
0.0
149
0.0
100
AcDbLayout
  1
Layout1
 70
     1
 71
     1
 10
-85.953968
 20
-82.115996
 11
754.046032
 21
511.884004
 12
0.0
 22
0.0
 32
0.0
 14
-85.953968
 24
-82.115996
 34
0.0
 15
754.046032
 25
511.884004
 35
0.0
146
0.0
 13
0.0
 23
0.0
 33
0.0
 16
1.0
 26
0.0
 36
0.0
 17
0.0
 27
1.0
 37
0.0
 76
     0
330
1B
  0
LAYOUT
  5
26
102
{ACAD_REACTORS
330
1A
102
}
330
1A
100
AcDbPlotSettings
  1

  2

  4

  6

 40
0.0
 41
0.0
 42
0.0
 43
0.0
 44
0.0
 45
0.0
 46
0.0
 47
0.0
 48
0.0
 49
0.0
140
0.0
141
0.0
142
1.0
143
1.0
 70
   688
 72
     0
 73
     0
 74
     5
  7

 75
    16
147
1.0
148
0.0
149
0.0
100
AcDbLayout
  1
Layout2
 70
     1
 71
     2
 10
0.0
 20
0.0
 11
0.0
 21
0.0
 12
0.0
 22
0.0
 32
0.0
 14
0.0
 24
0.0
 34
0.0
 15
0.0
 25
0.0
 35
0.0
146
0.0
 13
0.0
 23
0.0
 33
0.0
 16
1.0
 26
0.0
 36
0.0
 17
0.0
 27
1.0
 37
0.0
 76
     0
330
23
  0
LAYOUT
  5
22
102
{ACAD_REACTORS
330
1A
102
}
330
1A
100
AcDbPlotSettings
  1

  2

  4

  6

 40
0.0
 41
0.0
 42
0.0
 43
0.0
 44
0.0
 45
0.0
 46
0.0
 47
0.0
 48
0.0
 49
0.0
140
0.0
141
0.0
142
1.0
143
1.0
 70
  1776
 72
     0
 73
     0
 74
     0
  7

 75
     0
147
1.0
148
0.0
149
0.0
100
AcDbLayout
  1
Model
 70
     1
 71
     0
 10
-85.953968
 20
-82.115996
 11
754.046032
 21
511.884004
 12
0.0
 22
0.0
 32
0.0
 14
-85.953968
 24
-82.115996
 34
0.0
 15
754.046032
 25
511.884004
 35
0.0
146
0.0
 13
0.0
 23
0.0
 33
0.0
 16
1.0
 26
0.0
 36
0.0
 17
0.0
 27
1.0
 37
0.0
 76
     0
330
1F
  0
MLINESTYLE
  5
18
102
{ACAD_REACTORS
330
17
102
}
330
17
100
AcDbMlineStyle
  2
Standard
 70
     0
  3

 62
   256
 51
90.0
 52
90.0
 71
     2
 49
0.5
 62
   256
  6
BYLAYER
 49
-0.5
 62
   256
  6
BYLAYER
  0
ACDBPLACEHOLDER
  5
F
102
{ACAD_REACTORS
330
E
102
}
330
E
  0
ENDSEC
  0
EOF
