  0
SECTION
  2
HEADER
  9
$ACADVER
  1
AC1015
  9
$ACADMAINTVER
 70
     6
  9
$DWGCODEPAGE
  3
ANSI_1252
  9
$INSBASE
 10
0.0
 20
0.0
 30
0.0
  9
$EXTMIN
 10
-211.828463
 20
-175.08915
 30
0.0
  9
$EXTMAX
 10
628.171537
 20
418.91085
 30
0.0
  9
$LIMMIN
 10
-211.828463
 20
-175.08915
  9
$LIMMAX
 10
628.171537
 20
418.91085
  9
$ORTHOMODE
 70
     0
  9
$REGENMODE
 70
     1
  9
$FILLMODE
 70
     1
  9
$QTEXTMODE
 70
     0
  9
$MIRRTEXT
 70
     1
  9
$LTSCALE
 40
2.0
  9
$ATTMODE
 70
     1
  9
$TEXTSIZE
 40
2.5
  9
$TRACEWID
 40
1.0
  9
$TEXTSTYLE
  7
Standard
  9
$CLAYER
  8
0
  9
$CELTYPE
  6
ByLayer
  9
$CECOLOR
 62
     7
  9
$CELTSCALE
 40
1.0
  9
$DISPSILH
 70
     0
  9
$DIMSCALE
 40
2.0
  9
$DIMASZ
 40
3.5
  9
$DIMEXO
 40
0.625
  9
$DIMDLI
 40
3.75
  9
$DIMRND
 40
0.0
  9
$DIMDLE
 40
0.0
  9
$DIMEXE
 40
1.25
  9
$DIMTP
 40
0.0
  9
$DIMTM
 40
0.0
  9
$DIMTXT
 40
3.5
  9
$DIMCEN
 40
2.5
  9
$DIMTSZ
 40
0.0
  9
$DIMTOL
 70
     0
  9
$DIMLIM
 70
     0
  9
$DIMTIH
 70
     0
  9
$DIMTOH
 70
     0
  9
$DIMSE1
 70
     0
  9
$DIMSE2
 70
     0
  9
$DIMTAD
 70
     1
  9
$DIMZIN
 70
     8
  9
$DIMBLK
  1

  9
$DIMASO
 70
     1
  9
$DIMSHO
 70
     1
  9
$DIMPOST
  1

  9
$DIMAPOST
  1

  9
$DIMALT
 70
     0
  9
$DIMALTD
 70
     3
  9
$DIMALTF
 40
0.03937
  9
$DIMLFAC
 40
1.0
  9
$DIMTOFL
 70
     1
  9
$DIMTVP
 40
0.0
  9
$DIMTIX
 70
     0
  9
$DIMSOXD
 70
     0
  9
$DIMSAH
 70
     0
  9
$DIMBLK1
  1

  9
$DIMBLK2
  1

  9
$DIMSTYLE
  2
ISO-25
  9
$DIMCLRD
 70
     0
  9
$DIMCLRE
 70
     0
  9
$DIMCLRT
 70
     0
  9
$DIMTFAC
 40
1.0
  9
$DIMGAP
 40
0.625
  9
$DIMJUST
 70
     0
  9
$DIMSD1
 70
     0
  9
$DIMSD2
 70
     0
  9
$DIMTOLJ
 70
     0
  9
$DIMTZIN
 70
     8
  9
$DIMALTZ
 70
     0
  9
$DIMALTTZ
 70
     0
  9
$DIMUPT
 70
     0
  9
$DIMDEC
 70
     2
  9
$DIMTDEC
 70
     2
  9
$DIMALTU
 70
     2
  9
$DIMALTTD
 70
     3
  9
$DIMTXSTY
  7
Standard
  9
$DIMAUNIT
 70
     0
  9
$DIMADEC
 70
     0
  9
$DIMALTRND
 40
0.0
  9
$DIMAZIN
 70
     0
  9
$DIMDSEP
 70
    44
  9
$DIMATFIT
 70
     3
  9
$DIMFRAC
 70
     0
  9
$DIMLDRBLK
  1

  9
$DIMLUNIT
 70
     2
  9
$DIMLWD
 70
    -2
  9
$DIMLWE
 70
    -2
  9
$DIMTMOVE
 70
     0
  9
$LUNITS
 70
     2
  9
$LUPREC
 70
     4
  9
$SKETCHINC
 40
1.0
  9
$FILLETRAD
 40
10.0
  9
$AUNITS
 70
     0
  9
$AUPREC
 70
     0
  9
$MENU
  1
.
  9
$ELEVATION
 40
0.0
  9
$PELEVATION
 40
0.0
  9
$THICKNESS
 40
0.0
  9
$LIMCHECK
 70
     0
  9
$CHAMFERA
 40
10.0
  9
$CHAMFERB
 40
10.0
  9
$CHAMFERC
 40
20.0
  9
$CHAMFERD
 40
0.0
  9
$SKPOLY
 70
     0
  9
$TDCREATE
 40
2455898.373638449
  9
$TDUCREATE
 40
2455898.331971782
  9
$TDUPDATE
 40
2455898.373638461
  9
$TDUUPDATE
 40
2455898.331971794
  9
$TDINDWG
 40
0.0000000116
  9
$TDUSRTIMER
 40
0.0000000116
  9
$USRTIMER
 70
     1
  9
$ANGBASE
 50
0.0
  9
$ANGDIR
 70
     0
  9
$PDMODE
 70
     0
  9
$PDSIZE
 40
0.0
  9
$PLINEWID
 40
0.0
  9
$SPLFRAME
 70
     0
  9
$SPLINETYPE
 70
     6
  9
$SPLINESEGS
 70
     8
  9
$HANDSEED
  5
4C0
  9
$SURFTAB1
 70
     6
  9
$SURFTAB2
 70
     6
  9
$SURFTYPE
 70
     6
  9
$SURFU
 70
     6
  9
$SURFV
 70
     6
  9
$UCSBASE
  2

  9
$UCSNAME
  2

  9
$UCSORG
 10
0.0
 20
0.0
 30
0.0
  9
$UCSXDIR
 10
1.0
 20
0.0
 30
0.0
  9
$UCSYDIR
 10
0.0
 20
1.0
 30
0.0
  9
$UCSORTHOREF
  2

  9
$UCSORTHOVIEW
 70
     0
  9
$UCSORGTOP
 10
0.0
 20
0.0
 30
0.0
  9
$UCSORGBOTTOM
 10
0.0
 20
0.0
 30
0.0
  9
$UCSORGLEFT
 10
0.0
 20
0.0
 30
0.0
  9
$UCSORGRIGHT
 10
0.0
 20
0.0
 30
0.0
  9
$UCSORGFRONT
 10
0.0
 20
0.0
 30
0.0
  9
$UCSORGBACK
 10
0.0
 20
0.0
 30
0.0
  9
$PUCSBASE
  2

  9
$PUCSNAME
  2

  9
$PUCSORG
 10
0.0
 20
0.0
 30
0.0
  9
$PUCSXDIR
 10
1.0
 20
0.0
 30
0.0
  9
$PUCSYDIR
 10
0.0
 20
1.0
 30
0.0
  9
$PUCSORTHOREF
  2

  9
$PUCSORTHOVIEW
 70
     0
  9
$PUCSORGTOP
 10
0.0
 20
0.0
 30
0.0
  9
$PUCSORGBOTTOM
 10
0.0
 20
0.0
 30
0.0
  9
$PUCSORGLEFT
 10
0.0
 20
0.0
 30
0.0
  9
$PUCSORGRIGHT
 10
0.0
 20
0.0
 30
0.0
  9
$PUCSORGFRONT
 10
0.0
 20
0.0
 30
0.0
  9
$PUCSORGBACK
 10
0.0
 20
0.0
 30
0.0
  9
$USERI1
 70
     0
  9
$USERI2
 70
     0
  9
$USERI3
 70
     0
  9
$USERI4
 70
     0
  9
$USERI5
 70
     0
  9
$USERR1
 40
0.0
  9
$USERR2
 40
0.0
  9
$USERR3
 40
0.0
  9
$USERR4
 40
0.0
  9
$USERR5
 40
0.0
  9
$WORLDVIEW
 70
     1
  9
$SHADEDGE
 70
     3
  9
$SHADEDIF
 70
    70
  9
$TILEMODE
 70
     1
  9
$MAXACTVP
 70
    64
  9
$PINSBASE
 10
0.0
 20
0.0
 30
0.0
  9
$PLIMCHECK
 70
     0
  9
$PEXTMIN
 10
-211.828463
 20
-175.08915
 30
0.0
  9
$PEXTMAX
 10
628.171537
 20
418.91085
 30
0.0
  9
$PLIMMIN
 10
-211.828463
 20
-175.08915
  9
$PLIMMAX
 10
628.171537
 20
418.91085
  9
$UNITMODE
 70
     0
  9
$VISRETAIN
 70
     1
  9
$PLINEGEN
 70
     0
  9
$PSLTSCALE
 70
     1
  9
$TREEDEPTH
 70
  3020
  9
$CMLSTYLE
  2
Standard
  9
$CMLJUST
 70
     0
  9
$CMLSCALE
 40
20.0
  9
$PROXYGRAPHICS
 70
     1
  9
$MEASUREMENT
 70
     1
  9
$CELWEIGHT
370
    -1
  9
$ENDCAPS
280
     0
  9
$JOINSTYLE
280
     0
  9
$LWDISPLAY
290
     0
  9
$INSUNITS
 70
     4
  9
$HYPERLINKBASE
  1

  9
$STYLESHEET
  1

  9
$XEDIT
290
     1
  9
$CEPSNTYPE
380
     0
  9
$PSTYLEMODE
290
     1
  9
$FINGERPRINTGUID
  2
{FAEB1C30-E019-11D5-929B-00C0DF256EC4}
  9
$VERSIONGUID
  2
{FAEB1C32-E019-11D5-929B-00C0DF256EC4}
  9
$EXTNAMES
290
     1
  9
$PSVPSCALE
 40
0.0
  9
$OLESTARTUP
290
     0
  0
ENDSEC
  0
SECTION
  2
CLASSES
  0
CLASS
  1
ACDBDICTIONARYWDFLT
  2
AcDbDictionaryWithDefault
  3
ObjectDBX Classes
 90
        0
280
     0
281
     0
  0
CLASS
  1
ACDBPLACEHOLDER
  2
AcDbPlaceHolder
  3
ObjectDBX Classes
 90
        0
280
     0
281
     0
  0
CLASS
  1
LAYOUT
  2
AcDbLayout
  3
ObjectDBX Classes
 90
        0
280
     0
281
     0
  0
ENDSEC
  0
SECTION
  2
TABLES
  0
TABLE
  2
VPORT
  5
8
330
0
100
AcDbSymbolTable
 70
     2
  0
VPORT
  5
29
330
8
100
AcDbSymbolTableRecord
100
AcDbViewportTableRecord
  2
*ACTIVE
 70
     0
 10
0.0
 20
0.0
 11
1.0
 21
1.0
 12
208.171537
 22
121.91085
 13
0.0
 23
0.0
 14
1.0
 24
1.0
 15
0.0
 25
0.0
 16
0.0
 26
0.0
 36
1.0
 17
0.0
 27
0.0
 37
0.0
 40
594.0
 41
1.414141
 42
50.0
 43
0.0
 44
0.0
 50
0.0
 51
0.0
 71
    16
 72
   100
 73
     1
 74
     0
 75
     0
 76
     0
 77
     0
 78
     0
281
     0
 65
     0
110
0.0
120
0.0
130
0.0
111
1.0
121
0.0
131
0.0
112
0.0
122
1.0
132
0.0
 79
     0
146
0.0
  0
ENDTAB
  0
TABLE
  2
LTYPE
  5
5
330
0
100
AcDbSymbolTable
 70
     3
  0
LTYPE
  5
14
330
5
100
AcDbSymbolTableRecord
100
AcDbLinetypeTableRecord
  2
ByBlock
 70
     0
  3

 72
    65
 73
     0
 40
0.0
  0
LTYPE
  5
15
330
5
100
AcDbSymbolTableRecord
100
AcDbLinetypeTableRecord
  2
ByLayer
 70
     0
  3

 72
    65
 73
     0
 40
0.0
  0
LTYPE
  5
16
330
5
100
AcDbSymbolTableRecord
100
AcDbLinetypeTableRecord
  2
Continuous
 70
     0
  3
Solid line
 72
    65
 73
     0
 40
0.0
  0
LTYPE
  5
2A
330
5
100
AcDbSymbolTableRecord
100
AcDbLinetypeTableRecord
  2
DASHED
 70
     0
  3
__ __ __ __ __
 72
    65
 73
     2
 40
6.25
 49
5.0
 74
     4
 75
     0
340
0
 46
1.0
 50
0.0
 44
0.0
 45
0.0
 49
-1.25
 74
     4
 75
     0
340
0
 46
1.0
 50
0.0
 44
0.0
 45
0.0
  0
LTYPE
  5
30
330
5
100
AcDbSymbolTableRecord
100
AcDbLinetypeTableRecord
  2
DASHDOT
 70
     0
  3
__ . __ . __ . __ . __
 72
    65
 73
     4
 40
7.5
 49
5.0
 74
     4
 75
     0
340
0
 46
1.0
 50
0.0
 44
0.0
 45
0.0
 49
-1.25
 74
     4
 75
     0
340
0
 46
1.0
 50
0.0
 44
0.0
 45
0.0
 49
0.0
 74
     4
 75
     0
340
0
 46
1.0
 50
0.0
 44
0.0
 45
0.0
 49
-1.25
 74
     4
 75
     0
340
0
 46
1.0
 50
0.0
 44
0.0
 45
0.0
  0
ENDTAB
  0
TABLE
  2
LAYER
  5
2
330
0
100
AcDbSymbolTable
 70
    11
  0
LAYER
  5
10
330
2
100
AcDbSymbolTableRecord
100
AcDbLayerTableRecord
  2
0
 70
     0
 62
     7
  6
Continuous
370
    -3
390
F
  0
LAYER
  5
2B
330
2
100
AcDbSymbolTableRecord
100
AcDbLayerTableRecord
  2
LC-INFO-1-2-mm-A3-0
 70
     1
 62
     7
  6
ByBlock
370
    -3
390
F
  0
LAYER
  5
2C
330
2
100
AcDbSymbolTableRecord
100
AcDbLayerTableRecord
  2
LC-CUT-HIDDEN
 70
     0
 62
     7
  6
DASHED
370
    -3
390
F
  0
LAYER
  5
2D
330
2
100
AcDbSymbolTableRecord
100
AcDbLayerTableRecord
  2
LC-VIEWPORT
 70
     0
 62
     7
  6
ByBlock
370
    -3
390
F
  0
LAYER
  5
2E
330
2
100
AcDbSymbolTableRecord
100
AcDbLayerTableRecord
  2
LC-3D-HIDDEN
 70
     0
 62
     9
  6
DASHED
370
    -3
390
F
  0
LAYER
  5
31
330
2
100
AcDbSymbolTableRecord
100
AcDbLayerTableRecord
  2
LC-001-002-----0
 70
     0
 62
     2
  6
DASHDOT
370
    -3
390
F
  0
LAYER
  5
37
330
2
100
AcDbSymbolTableRecord
100
AcDbLayerTableRecord
  2
LC-002-100-D00-0
 70
     0
 62
     1
  6
ByBlock
370
    -3
390
F
  0
LAYER
  5
2B7
330
2
100
AcDbSymbolTableRecord
100
AcDbLayerTableRecord
  2
LC-003-005-----0
 70
     0
 62
     2
  6
ByBlock
370
    -3
390
F
  0
LAYER
  5
303
330
2
100
AcDbSymbolTableRecord
100
AcDbLayerTableRecord
  2
LC-004-003-----0
 70
     0
 62
     2
  6
ByBlock
370
    -3
390
F
  0
LAYER
  5
305
330
2
100
AcDbSymbolTableRecord
100
AcDbLayerTableRecord
  2
Defpoints
 70
     0
 62
     7
  6
Continuous
290
     0
370
    -3
390
F
  0
LAYER
  5
385
330
2
100
AcDbSymbolTableRecord
100
AcDbLayerTableRecord
  2
LC-005-002-RND-0
 70
     0
 62
     1
  6
ByBlock
370
    -3
390
F
  0
ENDTAB
  0
TABLE
  2
STYLE
  5
3
330
0
100
AcDbSymbolTable
 70
     3
  0
STYLE
  5
11
330
3
100
AcDbSymbolTableRecord
100
AcDbTextStyleTableRecord
  2
Standard
 70
     0
 40
0.0
 41
1.0
 50
0.0
 71
     0
 42
2.5
  3
txt
  4

  0
STYLE
  5
2F
330
3
100
AcDbSymbolTableRecord
100
AcDbTextStyleTableRecord
  2
LCTX15-400-0-0-Arial
 70
     0
 40
0.0
 41
0.9
 50
0.0
 71
     0
 42
3.5
  3

  4

1001
ACAD
1000
Arial
1071
 16777218
  0
STYLE
  5
301
330
3
100
AcDbSymbolTableRecord
100
AcDbTextStyleTableRecord
  2
LCTX15-400-0-0pDIN-Schrift
 70
     0
 40
2.5
 41
0.8
 50
15.0
 71
     0
 42
3.5
  3
STANDARD
  4

  0
ENDTAB
  0
TABLE
  2
VIEW
  5
6
330
0
100
AcDbSymbolTable
 70
     0
  0
ENDTAB
  0
TABLE
  2
UCS
  5
7
330
0
100
AcDbSymbolTable
 70
     0
  0
ENDTAB
  0
TABLE
  2
APPID
  5
9
330
0
100
AcDbSymbolTable
 70
     1
  0
APPID
  5
12
330
9
100
AcDbSymbolTableRecord
100
AcDbRegAppTableRecord
  2
ACAD
 70
     0
  0
ENDTAB
  0
TABLE
  2
DIMSTYLE
  5
A
330
0
100
AcDbSymbolTable
 70
     3
100
AcDbDimStyleTable
  0
DIMSTYLE
105
27
330
A
100
AcDbSymbolTableRecord
100
AcDbDimStyleTableRecord
  2
ISO-25
 70
     0
 41
2.5
 42
0.625
 43
3.75
 44
1.25
 73
     0
 74
     0
 77
     1
 78
     8
140
2.5
141
2.5
143
0.03937
147
0.625
171
     3
172
     1
271
     2
272
     2
274
     3
278
    44
283
     0
284
     8
340
11
  0
DIMSTYLE
105
302
102
{ACAD_REACTORS
330
304
330
322
330
32F
330
33C
330
349
330
438
330
446
102
}
330
A
100
AcDbSymbolTableRecord
100
AcDbDimStyleTableRecord
  2
LC-DIM-L-0140-02-02
 70
     0
 40
2.0
 41
14.0
 42
0.0
 43
7.5
 44
1.8
 73
     0
 74
     0
 77
     1
 78
     8
 79
     2
140
14.0
141
0.0
146
0.71
147
1.5
176
     2
177
     2
178
     2
179
     2
271
     2
278
    44
289
     1
340
301
  0
DIMSTYLE
105
314
102
{ACAD_REACTORS
330
315
102
}
330
A
100
AcDbSymbolTableRecord
100
AcDbDimStyleTableRecord
  2
LC-DIM-L-0140-01-02
 70
     0
 40
2.0
 41
14.0
 42
0.0
 43
7.5
 44
1.8
 73
     0
 74
     0
 77
     1
 78
     8
 79
     2
140
14.0
141
0.0
146
0.71
147
1.5
176
     2
177
     2
178
     2
179
     1
271
     1
278
    44
289
     1
340
301
  0
ENDTAB
  0
TABLE
  2
BLOCK_RECORD
  5
1
330
0
100
AcDbSymbolTable
 70
    42
  0
BLOCK_RECORD
  5
1F
330
1
100
AcDbSymbolTableRecord
100
AcDbBlockTableRecord
  2
*Model_Space
340
22
  0
BLOCK_RECORD
  5
1B
330
1
100
AcDbSymbolTableRecord
100
AcDbBlockTableRecord
  2
*Paper_Space
340
1E
  0
BLOCK_RECORD
  5
23
330
1
100
AcDbSymbolTableRecord
100
AcDbBlockTableRecord
  2
*Paper_Space0
340
26
  0
BLOCK_RECORD
  5
A4
330
1
100
AcDbSymbolTableRecord
100
AcDbBlockTableRecord
  2
POLY1
340
0
102
{BLKREFS
331
B3
102
}
  0
BLOCK_RECORD
  5
B5
330
1
100
AcDbSymbolTableRecord
100
AcDbBlockTableRecord
  2
POLY2
340
0
102
{BLKREFS
331
C4
102
}
  0
BLOCK_RECORD
  5
C7
330
1
100
AcDbSymbolTableRecord
100
AcDbBlockTableRecord
  2
POLY3
340
0
102
{BLKREFS
331
D6
102
}
  0
BLOCK_RECORD
  5
D9
330
1
100
AcDbSymbolTableRecord
100
AcDbBlockTableRecord
  2
POLY4
340
0
102
{BLKREFS
331
E8
102
}
  0
BLOCK_RECORD
  5
EB
330
1
100
AcDbSymbolTableRecord
100
AcDbBlockTableRecord
  2
POLY5
340
0
102
{BLKREFS
331
FA
102
}
  0
BLOCK_RECORD
  5
104
330
1
100
AcDbSymbolTableRecord
100
AcDbBlockTableRecord
  2
KLON1
340
0
102
{BLKREFS
331
109
102
}
  0
BLOCK_RECORD
  5
147
330
1
100
AcDbSymbolTableRecord
100
AcDbBlockTableRecord
  2
KLON2
340
0
102
{BLKREFS
331
14C
102
}
  0
BLOCK_RECORD
  5
164
330
1
100
AcDbSymbolTableRecord
100
AcDbBlockTableRecord
  2
POLY6
340
0
102
{BLKREFS
331
177
102
}
  0
BLOCK_RECORD
  5
179
330
1
100
AcDbSymbolTableRecord
100
AcDbBlockTableRecord
  2
POLY7
340
0
102
{BLKREFS
331
18C
102
}
  0
BLOCK_RECORD
  5
18E
330
1
100
AcDbSymbolTableRecord
100
AcDbBlockTableRecord
  2
POLY8
340
0
102
{BLKREFS
331
1A1
102
}
  0
BLOCK_RECORD
  5
1A3
330
1
100
AcDbSymbolTableRecord
100
AcDbBlockTableRecord
  2
POLY9
340
0
102
{BLKREFS
331
1B6
102
}
  0
BLOCK_RECORD
  5
1B8
330
1
100
AcDbSymbolTableRecord
100
AcDbBlockTableRecord
  2
POLY10
340
0
102
{BLKREFS
331
1CB
102
}
  0
BLOCK_RECORD
  5
1CD
330
1
100
AcDbSymbolTableRecord
100
AcDbBlockTableRecord
  2
POLY11
340
0
102
{BLKREFS
331
1DC
102
}
  0
BLOCK_RECORD
  5
1DD
330
1
100
AcDbSymbolTableRecord
100
AcDbBlockTableRecord
  2
POLY12
340
0
102
{BLKREFS
331
1EE
102
}
  0
BLOCK_RECORD
  5
207
330
1
100
AcDbSymbolTableRecord
100
AcDbBlockTableRecord
  2
POLY13
340
0
102
{BLKREFS
331
218
102
}
  0
BLOCK_RECORD
  5
277
330
1
100
AcDbSymbolTableRecord
100
AcDbBlockTableRecord
  2
KLON3
340
0
102
{BLKREFS
331
27E
102
}
  0
BLOCK_RECORD
  5
27F
330
1
100
AcDbSymbolTableRecord
100
AcDbBlockTableRecord
  2
KLON4
340
0
102
{BLKREFS
331
286
102
}
  0
BLOCK_RECORD
  5
287
330
1
100
AcDbSymbolTableRecord
100
AcDbBlockTableRecord
  2
KLON5
340
0
102
{BLKREFS
331
28D
102
}
  0
BLOCK_RECORD
  5
28E
330
1
100
AcDbSymbolTableRecord
100
AcDbBlockTableRecord
  2
KLON6
340
0
102
{BLKREFS
331
295
102
}
  0
BLOCK_RECORD
  5
296
330
1
100
AcDbSymbolTableRecord
100
AcDbBlockTableRecord
  2
KLON7
340
0
102
{BLKREFS
331
2A3
102
}
  0
BLOCK_RECORD
  5
2A4
330
1
100
AcDbSymbolTableRecord
100
AcDbBlockTableRecord
  2
KLON8
340
0
102
{BLKREFS
331
2B0
102
}
  0
BLOCK_RECORD
  5
2B4
330
1
100
AcDbSymbolTableRecord
100
AcDbBlockTableRecord
  2
*X122
340
0
102
{BLKREFS
331
2DA
102
}
  0
BLOCK_RECORD
  5
2DB
330
1
100
AcDbSymbolTableRecord
100
AcDbBlockTableRecord
  2
*X223
340
0
102
{BLKREFS
331
300
102
}
  0
BLOCK_RECORD
  5
306
330
1
100
AcDbSymbolTableRecord
100
AcDbBlockTableRecord
  2
*D24
340
0
  0
BLOCK_RECORD
  5
316
330
1
100
AcDbSymbolTableRecord
100
AcDbBlockTableRecord
  2
*D25
340
0
  0
BLOCK_RECORD
  5
323
330
1
100
AcDbSymbolTableRecord
100
AcDbBlockTableRecord
  2
*D26
340
0
  0
BLOCK_RECORD
  5
330
330
1
100
AcDbSymbolTableRecord
100
AcDbBlockTableRecord
  2
*D27
340
0
  0
BLOCK_RECORD
  5
33D
330
1
100
AcDbSymbolTableRecord
100
AcDbBlockTableRecord
  2
*D28
340
0
  0
BLOCK_RECORD
  5
34A
330
1
100
AcDbSymbolTableRecord
100
AcDbBlockTableRecord
  2
*D29
340
0
  0
BLOCK_RECORD
  5
356
330
1
100
AcDbSymbolTableRecord
100
AcDbBlockTableRecord
  2
*X330
340
0
102
{BLKREFS
331
35D
102
}
  0
BLOCK_RECORD
  5
377
330
1
100
AcDbSymbolTableRecord
100
AcDbBlockTableRecord
  2
*X431
340
0
102
{BLKREFS
331
382
102
}
  0
BLOCK_RECORD
  5
388
330
1
100
AcDbSymbolTableRecord
100
AcDbBlockTableRecord
  2
*X532
340
0
102
{BLKREFS
331
39F
102
}
  0
BLOCK_RECORD
  5
3BE
330
1
100
AcDbSymbolTableRecord
100
AcDbBlockTableRecord
  2
*X633
340
0
102
{BLKREFS
331
3C9
102
}
  0
BLOCK_RECORD
  5
3CE
330
1
100
AcDbSymbolTableRecord
100
AcDbBlockTableRecord
  2
*X734
340
0
102
{BLKREFS
331
3E4
102
}
  0
BLOCK_RECORD
  5
3F5
330
1
100
AcDbSymbolTableRecord
100
AcDbBlockTableRecord
  2
*X835
340
0
102
{BLKREFS
331
3FD
102
}
  0
BLOCK_RECORD
  5
414
330
1
100
AcDbSymbolTableRecord
100
AcDbBlockTableRecord
  2
*X936
340
0
102
{BLKREFS
331
41D
102
}
  0
BLOCK_RECORD
  5
41E
330
1
100
AcDbSymbolTableRecord
100
AcDbBlockTableRecord
  2
*X1037
340
0
102
{BLKREFS
331
437
102
}
  0
BLOCK_RECORD
  5
439
330
1
100
AcDbSymbolTableRecord
100
AcDbBlockTableRecord
  2
*D38
340
0
  0
BLOCK_RECORD
  5
447
330
1
100
AcDbSymbolTableRecord
100
AcDbBlockTableRecord
  2
*D39
340
0
  0
BLOCK_RECORD
  5
477
330
1
100
AcDbSymbolTableRecord
100
AcDbBlockTableRecord
  2
KLON9
340
0
102
{BLKREFS
331
47C
102
}
  0
BLOCK_RECORD
  5
487
330
1
100
AcDbSymbolTableRecord
100
AcDbBlockTableRecord
  2
POLY14
340
0
102
{BLKREFS
331
498
102
}
  0
ENDTAB
  0
ENDSEC
  0
SECTION
  2
BLOCKS
  0
BLOCK
  5
20
330
1F
100
AcDbEntity
  8
0
100
AcDbBlockBegin
  2
*Model_Space
 70
     0
 71
     0
 10
0.0
 20
0.0
 30
0.0
  3
*Model_Space
  1

  0
ENDBLK
  5
21
330
1F
100
AcDbEntity
  8
0
100
AcDbBlockEnd
  0
BLOCK
  5
1C
330
1B
100
AcDbEntity
 67
     1
  8
0
100
AcDbBlockBegin
  2
*Paper_Space
 70
     0
 71
     0
 10
0.0
 20
0.0
 30
0.0
  3
*Paper_Space
  1

  0
ENDBLK
  5
1D
330
1B
100
AcDbEntity
 67
     1
  8
0
100
AcDbBlockEnd
  0
BLOCK
  5
24
330
23
100
AcDbEntity
  8
0
100
AcDbBlockBegin
  2
*Paper_Space0
 70
     0
 71
     0
 10
0.0
 20
0.0
 30
0.0
  3
*Paper_Space0
  1

  0
ENDBLK
  5
25
330
23
100
AcDbEntity
  8
0
100
AcDbBlockEnd
  0
BLOCK
  5
A5
330
A4
100
AcDbEntity
  8
0
100
AcDbBlockBegin
  2
POLY1
 70
     0
 71
     0
 10
0.0
 20
0.0
 30
0.0
  3
POLY1
  1

  4
POLY1
  0
LINE
  5
A7
330
A4
100
AcDbEntity
  8
LC-002-100-D00-0
 62
     7
370
    50
100
AcDbLine
 10
38.358023
 20
-165.70915
 30
0.0
 11
38.358023
 21
-165.70915
 31
0.0
  0
LINE
  5
A8
330
A4
100
AcDbEntity
  8
LC-002-100-D00-0
 62
     7
370
    50
100
AcDbLine
 10
38.358023
 20
-165.70915
 30
0.0
 11
38.596602
 21
-165.241132
 31
0.0
  0
LINE
  5
A9
330
A4
100
AcDbEntity
  8
LC-002-100-D00-0
 62
     7
370
    50
100
AcDbLine
 10
38.596602
 20
-165.241132
 30
0.0
 11
38.596602
 21
-165.241132
 31
0.0
  0
LINE
  5
AA
330
A4
100
AcDbEntity
  8
LC-002-100-D00-0
 62
     7
370
    50
100
AcDbLine
 10
38.596602
 20
-165.241132
 30
0.0
 11
39.073823
 21
-164.304974
 31
0.0
  0
LINE
  5
AB
330
A4
100
AcDbEntity
  8
LC-002-100-D00-0
 62
     7
370
    50
100
AcDbLine
 10
39.073823
 20
-164.304974
 30
0.0
 11
39.073823
 21
-164.304974
 31
0.0
  0
LINE
  5
AC
330
A4
100
AcDbEntity
  8
LC-002-100-D00-0
 62
     7
370
    50
100
AcDbLine
 10
39.073823
 20
-164.304974
 30
0.0
 11
39.144454
 21
-162.706496
 31
0.0
  0
LINE
  5
AD
330
A4
100
AcDbEntity
  8
LC-002-100-D00-0
 62
     7
370
    50
100
AcDbLine
 10
39.144454
 20
-162.706496
 30
0.0
 11
39.144454
 21
-162.706496
 31
0.0
  0
LINE
  5
AE
330
A4
100
AcDbEntity
  8
LC-002-100-D00-0
 62
     7
370
    50
100
AcDbLine
 10
39.144454
 20
-162.706496
 30
0.0
 11
38.817598
 21
-161.492611
 31
0.0
  0
LINE
  5
AF
330
A4
100
AcDbEntity
  8
LC-002-100-D00-0
 62
     7
370
    50
100
AcDbLine
 10
38.817598
 20
-161.492611
 30
0.0
 11
38.817598
 21
-161.492611
 31
0.0
  0
LINE
  5
B0
330
A4
100
AcDbEntity
  8
LC-002-100-D00-0
 62
     7
370
    50
100
AcDbLine
 10
38.817598
 20
-161.492611
 30
0.0
 11
38.45666
 21
-160.877301
 31
0.0
  0
LINE
  5
B1
330
A4
100
AcDbEntity
  8
LC-002-100-D00-0
 62
     7
370
    50
100
AcDbLine
 10
38.45666
 20
-160.877301
 30
0.0
 11
38.45666
 21
-160.877301
 31
0.0
  0
LINE
  5
B2
330
A4
100
AcDbEntity
  8
LC-002-100-D00-0
 62
     7
370
    50
100
AcDbLine
 10
38.45666
 20
-160.877301
 30
0.0
 11
38.358023
 21
-160.70915
 31
0.0
  0
ENDBLK
  5
A6
330
A4
100
AcDbEntity
  8
0
100
AcDbBlockEnd
  0
BLOCK
  5
B6
330
B5
100
AcDbEntity
  8
0
100
AcDbBlockBegin
  2
POLY2
 70
     0
 71
     0
 10
0.0
 20
0.0
 30
0.0
  3
POLY2
  1

  4
POLY2
  0
LINE
  5
B8
330
B5
100
AcDbEntity
  8
LC-002-100-D00-0
 62
     7
370
    50
100
AcDbLine
 10
205.671537
 20
6.604363
 30
0.0
 11
205.671537
 21
6.604363
 31
0.0
  0
LINE
  5
B9
330
B5
100
AcDbEntity
  8
LC-002-100-D00-0
 62
     7
370
    50
100
AcDbLine
 10
205.671537
 20
6.604363
 30
0.0
 11
206.139555
 21
6.365784
 31
0.0
  0
LINE
  5
BA
330
B5
100
AcDbEntity
  8
LC-002-100-D00-0
 62
     7
370
    50
100
AcDbLine
 10
206.139555
 20
6.365784
 30
0.0
 11
206.139555
 21
6.365784
 31
0.0
  0
LINE
  5
BB
330
B5
100
AcDbEntity
  8
LC-002-100-D00-0
 62
     7
370
    50
100
AcDbLine
 10
206.139555
 20
6.365784
 30
0.0
 11
207.075713
 21
5.888564
 31
0.0
  0
LINE
  5
BC
330
B5
100
AcDbEntity
  8
LC-002-100-D00-0
 62
     7
370
    50
100
AcDbLine
 10
207.075713
 20
5.888564
 30
0.0
 11
207.075713
 21
5.888564
 31
0.0
  0
LINE
  5
BD
330
B5
100
AcDbEntity
  8
LC-002-100-D00-0
 62
     7
370
    50
100
AcDbLine
 10
207.075713
 20
5.888564
 30
0.0
 11
208.674191
 21
5.817933
 31
0.0
  0
LINE
  5
BE
330
B5
100
AcDbEntity
  8
LC-002-100-D00-0
 62
     7
370
    50
100
AcDbLine
 10
208.674191
 20
5.817933
 30
0.0
 11
208.674191
 21
5.817933
 31
0.0
  0
LINE
  5
BF
330
B5
100
AcDbEntity
  8
LC-002-100-D00-0
 62
     7
370
    50
100
AcDbLine
 10
208.674191
 20
5.817933
 30
0.0
 11
209.888076
 21
6.144789
 31
0.0
  0
LINE
  5
C0
330
B5
100
AcDbEntity
  8
LC-002-100-D00-0
 62
     7
370
    50
100
AcDbLine
 10
209.888076
 20
6.144789
 30
0.0
 11
209.888076
 21
6.144789
 31
0.0
  0
LINE
  5
C1
330
B5
100
AcDbEntity
  8
LC-002-100-D00-0
 62
     7
370
    50
100
AcDbLine
 10
209.888076
 20
6.144789
 30
0.0
 11
210.503386
 21
6.505727
 31
0.0
  0
LINE
  5
C2
330
B5
100
AcDbEntity
  8
LC-002-100-D00-0
 62
     7
370
    50
100
AcDbLine
 10
210.503386
 20
6.505727
 30
0.0
 11
210.503386
 21
6.505727
 31
0.0
  0
LINE
  5
C3
330
B5
100
AcDbEntity
  8
LC-002-100-D00-0
 62
     7
370
    50
100
AcDbLine
 10
210.503386
 20
6.505727
 30
0.0
 11
210.671537
 21
6.604363
 31
0.0
  0
ENDBLK
  5
B7
330
B5
100
AcDbEntity
  8
0
100
AcDbBlockEnd
  0
BLOCK
  5
C8
330
C7
100
AcDbEntity
  8
0
100
AcDbBlockBegin
  2
POLY3
 70
     0
 71
     0
 10
0.0
 20
0.0
 30
0.0
  3
POLY3
  1

  4
POLY3
  0
LINE
  5
CA
330
C7
100
AcDbEntity
  8
LC-002-100-D00-0
 62
     7
370
    50
100
AcDbLine
 10
86.327484
 20
-44.900628
 30
0.0
 11
86.327484
 21
-44.900628
 31
0.0
  0
LINE
  5
CB
330
C7
100
AcDbEntity
  8
LC-002-100-D00-0
 62
     7
370
    50
100
AcDbLine
 10
86.327484
 20
-44.900628
 30
0.0
 11
86.827122
 21
-44.738389
 31
0.0
  0
LINE
  5
CC
330
C7
100
AcDbEntity
  8
LC-002-100-D00-0
 62
     7
370
    50
100
AcDbLine
 10
86.827122
 20
-44.738389
 30
0.0
 11
86.827122
 21
-44.738389
 31
0.0
  0
LINE
  5
CD
330
C7
100
AcDbEntity
  8
LC-002-100-D00-0
 62
     7
370
    50
100
AcDbLine
 10
86.827122
 20
-44.738389
 30
0.0
 11
87.826529
 21
-44.413869
 31
0.0
  0
LINE
  5
CE
330
C7
100
AcDbEntity
  8
LC-002-100-D00-0
 62
     7
370
    50
100
AcDbLine
 10
87.826529
 20
-44.413869
 30
0.0
 11
87.826529
 21
-44.413869
 31
0.0
  0
LINE
  5
CF
330
C7
100
AcDbEntity
  8
LC-002-100-D00-0
 62
     7
370
    50
100
AcDbLine
 10
87.826529
 20
-44.413869
 30
0.0
 11
89.006774
 21
-43.333525
 31
0.0
  0
LINE
  5
D0
330
C7
100
AcDbEntity
  8
LC-002-100-D00-0
 62
     7
370
    50
100
AcDbLine
 10
89.006774
 20
-43.333525
 30
0.0
 11
89.006774
 21
-43.333525
 31
0.0
  0
LINE
  5
D1
330
C7
100
AcDbEntity
  8
LC-002-100-D00-0
 62
     7
370
    50
100
AcDbLine
 10
89.006774
 20
-43.333525
 30
0.0
 11
89.633988
 21
-42.244052
 31
0.0
  0
LINE
  5
D2
330
C7
100
AcDbEntity
  8
LC-002-100-D00-0
 62
     7
370
    50
100
AcDbLine
 10
89.633988
 20
-42.244052
 30
0.0
 11
89.633988
 21
-42.244052
 31
0.0
  0
LINE
  5
D3
330
C7
100
AcDbEntity
  8
LC-002-100-D00-0
 62
     7
370
    50
100
AcDbLine
 10
89.633988
 20
-42.244052
 30
0.0
 11
89.81386
 21
-41.553743
 31
0.0
  0
LINE
  5
D4
330
C7
100
AcDbEntity
  8
LC-002-100-D00-0
 62
     7
370
    50
100
AcDbLine
 10
89.81386
 20
-41.553743
 30
0.0
 11
89.81386
 21
-41.553743
 31
0.0
  0
LINE
  5
D5
330
C7
100
AcDbEntity
  8
LC-002-100-D00-0
 62
     7
370
    50
100
AcDbLine
 10
89.81386
 20
-41.553743
 30
0.0
 11
89.863015
 21
-41.365097
 31
0.0
  0
ENDBLK
  5
C9
330
C7
100
AcDbEntity
  8
0
100
AcDbBlockEnd
  0
BLOCK
  5
DA
330
D9
100
AcDbEntity
  8
0
100
AcDbBlockBegin
  2
POLY4
 70
     0
 71
     0
 10
0.0
 20
0.0
 30
0.0
  3
POLY4
  1

  4
POLY4
  0
LINE
  5
DC
330
D9
100
AcDbEntity
  8
LC-002-100-D00-0
 62
     7
370
    50
100
AcDbLine
 10
326.480059
 20
-41.365097
 30
0.0
 11
326.480059
 21
-41.365097
 31
0.0
  0
LINE
  5
DD
330
D9
100
AcDbEntity
  8
LC-002-100-D00-0
 62
     7
370
    50
100
AcDbLine
 10
326.480059
 20
-41.365097
 30
0.0
 11
326.642298
 21
-41.864735
 31
0.0
  0
LINE
  5
DE
330
D9
100
AcDbEntity
  8
LC-002-100-D00-0
 62
     7
370
    50
100
AcDbLine
 10
326.642298
 20
-41.864735
 30
0.0
 11
326.642298
 21
-41.864735
 31
0.0
  0
LINE
  5
DF
330
D9
100
AcDbEntity
  8
LC-002-100-D00-0
 62
     7
370
    50
100
AcDbLine
 10
326.642298
 20
-41.864735
 30
0.0
 11
326.966818
 21
-42.864142
 31
0.0
  0
LINE
  5
E0
330
D9
100
AcDbEntity
  8
LC-002-100-D00-0
 62
     7
370
    50
100
AcDbLine
 10
326.966818
 20
-42.864142
 30
0.0
 11
326.966818
 21
-42.864142
 31
0.0
  0
LINE
  5
E1
330
D9
100
AcDbEntity
  8
LC-002-100-D00-0
 62
     7
370
    50
100
AcDbLine
 10
326.966818
 20
-42.864142
 30
0.0
 11
328.047162
 21
-44.044388
 31
0.0
  0
LINE
  5
E2
330
D9
100
AcDbEntity
  8
LC-002-100-D00-0
 62
     7
370
    50
100
AcDbLine
 10
328.047162
 20
-44.044388
 30
0.0
 11
328.047162
 21
-44.044388
 31
0.0
  0
LINE
  5
E3
330
D9
100
AcDbEntity
  8
LC-002-100-D00-0
 62
     7
370
    50
100
AcDbLine
 10
328.047162
 20
-44.044388
 30
0.0
 11
329.136635
 21
-44.671601
 31
0.0
  0
LINE
  5
E4
330
D9
100
AcDbEntity
  8
LC-002-100-D00-0
 62
     7
370
    50
100
AcDbLine
 10
329.136635
 20
-44.671601
 30
0.0
 11
329.136635
 21
-44.671601
 31
0.0
  0
LINE
  5
E5
330
D9
100
AcDbEntity
  8
LC-002-100-D00-0
 62
     7
370
    50
100
AcDbLine
 10
329.136635
 20
-44.671601
 30
0.0
 11
329.826945
 21
-44.851474
 31
0.0
  0
LINE
  5
E6
330
D9
100
AcDbEntity
  8
LC-002-100-D00-0
 62
     7
370
    50
100
AcDbLine
 10
329.826945
 20
-44.851474
 30
0.0
 11
329.826945
 21
-44.851474
 31
0.0
  0
LINE
  5
E7
330
D9
100
AcDbEntity
  8
LC-002-100-D00-0
 62
     7
370
    50
100
AcDbLine
 10
329.826945
 20
-44.851474
 30
0.0
 11
330.01559
 21
-44.900628
 31
0.0
  0
ENDBLK
  5
DB
330
D9
100
AcDbEntity
  8
0
100
AcDbBlockEnd
  0
BLOCK
  5
EC
330
EB
100
AcDbEntity
  8
0
100
AcDbBlockBegin
  2
POLY5
 70
     0
 71
     0
 10
0.0
 20
0.0
 30
0.0
  3
POLY5
  1

  4
POLY5
  0
LINE
  5
EE
330
EB
100
AcDbEntity
  8
LC-002-100-D00-0
 62
     7
370
    50
100
AcDbLine
 10
377.985051
 20
-160.70915
 30
0.0
 11
377.985051
 21
-160.70915
 31
0.0
  0
LINE
  5
EF
330
EB
100
AcDbEntity
  8
LC-002-100-D00-0
 62
     7
370
    50
100
AcDbLine
 10
377.985051
 20
-160.70915
 30
0.0
 11
377.746472
 21
-161.177168
 31
0.0
  0
LINE
  5
F0
330
EB
100
AcDbEntity
  8
LC-002-100-D00-0
 62
     7
370
    50
100
AcDbLine
 10
377.746472
 20
-161.177168
 30
0.0
 11
377.746472
 21
-161.177168
 31
0.0
  0
LINE
  5
F1
330
EB
100
AcDbEntity
  8
LC-002-100-D00-0
 62
     7
370
    50
100
AcDbLine
 10
377.746472
 20
-161.177168
 30
0.0
 11
377.269251
 21
-162.113326
 31
0.0
  0
LINE
  5
F2
330
EB
100
AcDbEntity
  8
LC-002-100-D00-0
 62
     7
370
    50
100
AcDbLine
 10
377.269251
 20
-162.113326
 30
0.0
 11
377.269251
 21
-162.113326
 31
0.0
  0
LINE
  5
F3
330
EB
100
AcDbEntity
  8
LC-002-100-D00-0
 62
     7
370
    50
100
AcDbLine
 10
377.269251
 20
-162.113326
 30
0.0
 11
377.19862
 21
-163.711804
 31
0.0
  0
LINE
  5
F4
330
EB
100
AcDbEntity
  8
LC-002-100-D00-0
 62
     7
370
    50
100
AcDbLine
 10
377.19862
 20
-163.711804
 30
0.0
 11
377.19862
 21
-163.711804
 31
0.0
  0
LINE
  5
F5
330
EB
100
AcDbEntity
  8
LC-002-100-D00-0
 62
     7
370
    50
100
AcDbLine
 10
377.19862
 20
-163.711804
 30
0.0
 11
377.525476
 21
-164.925689
 31
0.0
  0
LINE
  5
F6
330
EB
100
AcDbEntity
  8
LC-002-100-D00-0
 62
     7
370
    50
100
AcDbLine
 10
377.525476
 20
-164.925689
 30
0.0
 11
377.525476
 21
-164.925689
 31
0.0
  0
LINE
  5
F7
330
EB
100
AcDbEntity
  8
LC-002-100-D00-0
 62
     7
370
    50
100
AcDbLine
 10
377.525476
 20
-164.925689
 30
0.0
 11
377.886414
 21
-165.540999
 31
0.0
  0
LINE
  5
F8
330
EB
100
AcDbEntity
  8
LC-002-100-D00-0
 62
     7
370
    50
100
AcDbLine
 10
377.886414
 20
-165.540999
 30
0.0
 11
377.886414
 21
-165.540999
 31
0.0
  0
LINE
  5
F9
330
EB
100
AcDbEntity
  8
LC-002-100-D00-0
 62
     7
370
    50
100
AcDbLine
 10
377.886414
 20
-165.540999
 30
0.0
 11
377.985051
 21
-165.70915
 31
0.0
  0
ENDBLK
  5
ED
330
EB
100
AcDbEntity
  8
0
100
AcDbBlockEnd
  0
BLOCK
  5
105
330
104
100
AcDbEntity
  8
0
100
AcDbBlockBegin
  2
KLON1
 70
     0
 71
     0
 10
0.0
 20
0.0
 30
0.0
  3
KLON1
  1

  4
KLON1
  0
LINE
  5
107
330
104
100
AcDbEntity
  8
LC-002-100-D00-0
 62
     7
370
    15
100
AcDbLine
 10
210.640397
 20
-96.504825
 30
0.0
 11
208.171537
 21
-96.459153
 31
0.0
  0
LINE
  5
108
330
104
100
AcDbEntity
  8
LC-002-100-D00-0
 62
     7
370
    15
100
AcDbLine
 10
208.171537
 20
-96.459153
 30
0.0
 11
205.702677
 21
-96.504825
 31
0.0
  0
ENDBLK
  5
106
330
104
100
AcDbEntity
  8
0
100
AcDbBlockEnd
  0
BLOCK
  5
148
330
147
100
AcDbEntity
  8
0
100
AcDbBlockBegin
  2
KLON2
 70
     0
 71
     0
 10
0.0
 20
0.0
 30
0.0
  3
KLON2
  1

  4
KLON2
  0
LINE
  5
14A
330
147
100
AcDbEntity
  8
LC-002-100-D00-0
 62
     7
370
    15
100
AcDbLine
 10
40.429879
 20
237.963489
 30
0.0
 11
39.215747
 21
233.432255
 31
0.0
  0
LINE
  5
14B
330
147
100
AcDbEntity
  8
LC-002-100-D00-0
 62
     7
370
    15
100
AcDbLine
 10
39.215747
 20
233.432255
 30
0.0
 11
38.018334
 21
228.963486
 31
0.0
  0
ENDBLK
  5
149
330
147
100
AcDbEntity
  8
0
100
AcDbBlockEnd
  0
BLOCK
  5
165
330
164
100
AcDbEntity
  8
0
100
AcDbBlockBegin
  2
POLY6
 70
     0
 71
     0
 10
0.0
 20
0.0
 30
0.0
  3
POLY6
  1

  4
POLY6
  0
LINE
  5
167
330
164
100
AcDbEntity
  8
LC-002-100-D00-0
 62
     7
370
    50
100
AcDbLine
 10
145.784117
 20
223.4184
 30
0.0
 11
145.784117
 21
223.4184
 31
0.0
  0
LINE
  5
168
330
164
100
AcDbEntity
  8
LC-002-100-D00-0
 62
     7
370
    50
100
AcDbLine
 10
145.784117
 20
223.4184
 30
0.0
 11
145.784956
 21
223.414817
 31
0.0
  0
LINE
  5
169
330
164
100
AcDbEntity
  8
LC-002-100-D00-0
 62
     7
370
    50
100
AcDbLine
 10
145.784956
 20
223.414817
 30
0.0
 11
145.784956
 21
223.414817
 31
0.0
  0
LINE
  5
16A
330
164
100
AcDbEntity
  8
LC-002-100-D00-0
 62
     7
370
    50
100
AcDbLine
 10
145.784956
 20
223.414817
 30
0.0
 11
145.821278
 21
223.259737
 31
0.0
  0
LINE
  5
16B
330
164
100
AcDbEntity
  8
LC-002-100-D00-0
 62
     7
370
    50
100
AcDbLine
 10
145.821278
 20
223.259737
 30
0.0
 11
145.821278
 21
223.259737
 31
0.0
  0
LINE
  5
16C
330
164
100
AcDbEntity
  8
LC-002-100-D00-0
 62
     7
370
    50
100
AcDbLine
 10
145.821278
 20
223.259737
 30
0.0
 11
145.703495
 21
223.076251
 31
0.0
  0
LINE
  5
16D
330
164
100
AcDbEntity
  8
LC-002-100-D00-0
 62
     7
370
    50
100
AcDbLine
 10
145.703495
 20
223.076251
 30
0.0
 11
145.703495
 21
223.076251
 31
0.0
  0
LINE
  5
16E
330
164
100
AcDbEntity
  8
LC-002-100-D00-0
 62
     7
370
    50
100
AcDbLine
 10
145.703495
 20
223.076251
 30
0.0
 11
145.403782
 21
222.959591
 31
0.0
  0
LINE
  5
16F
330
164
100
AcDbEntity
  8
LC-002-100-D00-0
 62
     7
370
    50
100
AcDbLine
 10
145.403782
 20
222.959591
 30
0.0
 11
145.403782
 21
222.959591
 31
0.0
  0
LINE
  5
170
330
164
100
AcDbEntity
  8
LC-002-100-D00-0
 62
     7
370
    50
100
AcDbLine
 10
145.403782
 20
222.959591
 30
0.0
 11
144.921401
 21
223.08101
 31
0.0
  0
LINE
  5
171
330
164
100
AcDbEntity
  8
LC-002-100-D00-0
 62
     7
370
    50
100
AcDbLine
 10
144.921401
 20
223.08101
 30
0.0
 11
144.921401
 21
223.08101
 31
0.0
  0
LINE
  5
172
330
164
100
AcDbEntity
  8
LC-002-100-D00-0
 62
     7
370
    50
100
AcDbLine
 10
144.921401
 20
223.08101
 30
0.0
 11
144.267081
 21
223.399162
 31
0.0
  0
LINE
  5
173
330
164
100
AcDbEntity
  8
LC-002-100-D00-0
 62
     7
370
    50
100
AcDbLine
 10
144.267081
 20
223.399162
 30
0.0
 11
144.267081
 21
223.399162
 31
0.0
  0
LINE
  5
174
330
164
100
AcDbEntity
  8
LC-002-100-D00-0
 62
     7
370
    50
100
AcDbLine
 10
144.267081
 20
223.399162
 30
0.0
 11
143.760184
 21
223.768748
 31
0.0
  0
LINE
  5
175
330
164
100
AcDbEntity
  8
LC-002-100-D00-0
 62
     7
370
    50
100
AcDbLine
 10
143.760184
 20
223.768748
 30
0.0
 11
143.760184
 21
223.768748
 31
0.0
  0
LINE
  5
176
330
164
100
AcDbEntity
  8
LC-002-100-D00-0
 62
     7
370
    50
100
AcDbLine
 10
143.760184
 20
223.768748
 30
0.0
 11
143.444355
 21
223.999023
 31
0.0
  0
ENDBLK
  5
166
330
164
100
AcDbEntity
  8
0
100
AcDbBlockEnd
  0
BLOCK
  5
17A
330
179
100
AcDbEntity
  8
0
100
AcDbBlockBegin
  2
POLY7
 70
     0
 71
     0
 10
0.0
 20
0.0
 30
0.0
  3
POLY7
  1

  4
POLY7
  0
LINE
  5
17C
330
179
100
AcDbEntity
  8
LC-002-100-D00-0
 62
     7
370
    50
100
AcDbLine
 10
173.34856
 20
223.999023
 30
0.0
 11
173.34856
 21
223.999023
 31
0.0
  0
LINE
  5
17D
330
179
100
AcDbEntity
  8
LC-002-100-D00-0
 62
     7
370
    50
100
AcDbLine
 10
173.34856
 20
223.999023
 30
0.0
 11
173.259201
 21
223.788028
 31
0.0
  0
LINE
  5
17E
330
179
100
AcDbEntity
  8
LC-002-100-D00-0
 62
     7
370
    50
100
AcDbLine
 10
173.259201
 20
223.788028
 30
0.0
 11
173.259201
 21
223.788028
 31
0.0
  0
LINE
  5
17F
330
179
100
AcDbEntity
  8
LC-002-100-D00-0
 62
     7
370
    50
100
AcDbLine
 10
173.259201
 20
223.788028
 30
0.0
 11
173.101392
 21
223.415411
 31
0.0
  0
LINE
  5
180
330
179
100
AcDbEntity
  8
LC-002-100-D00-0
 62
     7
370
    50
100
AcDbLine
 10
173.101392
 20
223.415411
 30
0.0
 11
173.101392
 21
223.415411
 31
0.0
  0
LINE
  5
181
330
179
100
AcDbEntity
  8
LC-002-100-D00-0
 62
     7
370
    50
100
AcDbLine
 10
173.101392
 20
223.415411
 30
0.0
 11
172.563992
 21
223.066673
 31
0.0
  0
LINE
  5
182
330
179
100
AcDbEntity
  8
LC-002-100-D00-0
 62
     7
370
    50
100
AcDbLine
 10
172.563992
 20
223.066673
 30
0.0
 11
172.563992
 21
223.066673
 31
0.0
  0
LINE
  5
183
330
179
100
AcDbEntity
  8
LC-002-100-D00-0
 62
     7
370
    50
100
AcDbLine
 10
172.563992
 20
223.066673
 30
0.0
 11
171.913071
 21
222.961748
 31
0.0
  0
LINE
  5
184
330
179
100
AcDbEntity
  8
LC-002-100-D00-0
 62
     7
370
    50
100
AcDbLine
 10
171.913071
 20
222.961748
 30
0.0
 11
171.913071
 21
222.961748
 31
0.0
  0
LINE
  5
185
330
179
100
AcDbEntity
  8
LC-002-100-D00-0
 62
     7
370
    50
100
AcDbLine
 10
171.913071
 20
222.961748
 30
0.0
 11
171.198726
 21
223.080481
 31
0.0
  0
LINE
  5
186
330
179
100
AcDbEntity
  8
LC-002-100-D00-0
 62
     7
370
    50
100
AcDbLine
 10
171.198726
 20
223.080481
 30
0.0
 11
171.198726
 21
223.080481
 31
0.0
  0
LINE
  5
187
330
179
100
AcDbEntity
  8
LC-002-100-D00-0
 62
     7
370
    50
100
AcDbLine
 10
171.198726
 20
223.080481
 30
0.0
 11
170.370064
 21
223.3994
 31
0.0
  0
LINE
  5
188
330
179
100
AcDbEntity
  8
LC-002-100-D00-0
 62
     7
370
    50
100
AcDbLine
 10
170.370064
 20
223.3994
 30
0.0
 11
170.370064
 21
223.3994
 31
0.0
  0
LINE
  5
189
330
179
100
AcDbEntity
  8
LC-002-100-D00-0
 62
     7
370
    50
100
AcDbLine
 10
170.370064
 20
223.3994
 30
0.0
 11
169.851037
 21
223.768839
 31
0.0
  0
LINE
  5
18A
330
179
100
AcDbEntity
  8
LC-002-100-D00-0
 62
     7
370
    50
100
AcDbLine
 10
169.851037
 20
223.768839
 30
0.0
 11
169.851037
 21
223.768839
 31
0.0
  0
LINE
  5
18B
330
179
100
AcDbEntity
  8
LC-002-100-D00-0
 62
     7
370
    50
100
AcDbLine
 10
169.851037
 20
223.768839
 30
0.0
 11
169.527649
 21
223.999023
 31
0.0
  0
ENDBLK
  5
17B
330
179
100
AcDbEntity
  8
0
100
AcDbBlockEnd
  0
BLOCK
  5
18F
330
18E
100
AcDbEntity
  8
0
100
AcDbBlockBegin
  2
POLY8
 70
     0
 71
     0
 10
0.0
 20
0.0
 30
0.0
  3
POLY8
  1

  4
POLY8
  0
LINE
  5
191
330
18E
100
AcDbEntity
  8
LC-002-100-D00-0
 62
     7
370
    50
100
AcDbLine
 10
210.377554
 20
223.999023
 30
0.0
 11
210.377554
 21
223.999023
 31
0.0
  0
LINE
  5
192
330
18E
100
AcDbEntity
  8
LC-002-100-D00-0
 62
     7
370
    50
100
AcDbLine
 10
210.377554
 20
223.999023
 30
0.0
 11
210.156106
 21
223.788027
 31
0.0
  0
LINE
  5
193
330
18E
100
AcDbEntity
  8
LC-002-100-D00-0
 62
     7
370
    50
100
AcDbLine
 10
210.156106
 20
223.788027
 30
0.0
 11
210.156106
 21
223.788027
 31
0.0
  0
LINE
  5
194
330
18E
100
AcDbEntity
  8
LC-002-100-D00-0
 62
     7
370
    50
100
AcDbLine
 10
210.156106
 20
223.788027
 30
0.0
 11
209.765031
 21
223.415409
 31
0.0
  0
LINE
  5
195
330
18E
100
AcDbEntity
  8
LC-002-100-D00-0
 62
     7
370
    50
100
AcDbLine
 10
209.765031
 20
223.415409
 30
0.0
 11
209.765031
 21
223.415409
 31
0.0
  0
LINE
  5
196
330
18E
100
AcDbEntity
  8
LC-002-100-D00-0
 62
     7
370
    50
100
AcDbLine
 10
209.765031
 20
223.415409
 30
0.0
 11
208.950881
 21
223.066674
 31
0.0
  0
LINE
  5
197
330
18E
100
AcDbEntity
  8
LC-002-100-D00-0
 62
     7
370
    50
100
AcDbLine
 10
208.950881
 20
223.066674
 30
0.0
 11
208.950881
 21
223.066674
 31
0.0
  0
LINE
  5
198
330
18E
100
AcDbEntity
  8
LC-002-100-D00-0
 62
     7
370
    50
100
AcDbLine
 10
208.950881
 20
223.066674
 30
0.0
 11
208.141084
 21
222.961748
 31
0.0
  0
LINE
  5
199
330
18E
100
AcDbEntity
  8
LC-002-100-D00-0
 62
     7
370
    50
100
AcDbLine
 10
208.141084
 20
222.961748
 30
0.0
 11
208.141084
 21
222.961748
 31
0.0
  0
LINE
  5
19A
330
18E
100
AcDbEntity
  8
LC-002-100-D00-0
 62
     7
370
    50
100
AcDbLine
 10
208.141084
 20
222.961748
 30
0.0
 11
207.38208
 21
223.080481
 31
0.0
  0
LINE
  5
19B
330
18E
100
AcDbEntity
  8
LC-002-100-D00-0
 62
     7
370
    50
100
AcDbLine
 10
207.38208
 20
223.080481
 30
0.0
 11
207.38208
 21
223.080481
 31
0.0
  0
LINE
  5
19C
330
18E
100
AcDbEntity
  8
LC-002-100-D00-0
 62
     7
370
    50
100
AcDbLine
 10
207.38208
 20
223.080481
 30
0.0
 11
206.602282
 21
223.399399
 31
0.0
  0
LINE
  5
19D
330
18E
100
AcDbEntity
  8
LC-002-100-D00-0
 62
     7
370
    50
100
AcDbLine
 10
206.602282
 20
223.399399
 30
0.0
 11
206.602282
 21
223.399399
 31
0.0
  0
LINE
  5
19E
330
18E
100
AcDbEntity
  8
LC-002-100-D00-0
 62
     7
370
    50
100
AcDbLine
 10
206.602282
 20
223.399399
 30
0.0
 11
206.209977
 21
223.768839
 31
0.0
  0
LINE
  5
19F
330
18E
100
AcDbEntity
  8
LC-002-100-D00-0
 62
     7
370
    50
100
AcDbLine
 10
206.209977
 20
223.768839
 30
0.0
 11
206.209977
 21
223.768839
 31
0.0
  0
LINE
  5
1A0
330
18E
100
AcDbEntity
  8
LC-002-100-D00-0
 62
     7
370
    50
100
AcDbLine
 10
206.209977
 20
223.768839
 30
0.0
 11
205.965546
 21
223.999023
 31
0.0
  0
ENDBLK
  5
190
330
18E
100
AcDbEntity
  8
0
100
AcDbBlockEnd
  0
BLOCK
  5
1A4
330
1A3
100
AcDbEntity
  8
0
100
AcDbBlockBegin
  2
POLY9
 70
     0
 71
     0
 10
0.0
 20
0.0
 30
0.0
  3
POLY9
  1

  4
POLY9
  0
LINE
  5
1A6
330
1A3
100
AcDbEntity
  8
LC-002-100-D00-0
 62
     7
370
    50
100
AcDbLine
 10
246.81545
 20
223.999023
 30
0.0
 11
246.81545
 21
223.999023
 31
0.0
  0
LINE
  5
1A7
330
1A3
100
AcDbEntity
  8
LC-002-100-D00-0
 62
     7
370
    50
100
AcDbLine
 10
246.81545
 20
223.999023
 30
0.0
 11
246.521253
 21
223.788028
 31
0.0
  0
LINE
  5
1A8
330
1A3
100
AcDbEntity
  8
LC-002-100-D00-0
 62
     7
370
    50
100
AcDbLine
 10
246.521253
 20
223.788028
 30
0.0
 11
246.521253
 21
223.788028
 31
0.0
  0
LINE
  5
1A9
330
1A3
100
AcDbEntity
  8
LC-002-100-D00-0
 62
     7
370
    50
100
AcDbLine
 10
246.521253
 20
223.788028
 30
0.0
 11
246.001702
 21
223.41541
 31
0.0
  0
LINE
  5
1AA
330
1A3
100
AcDbEntity
  8
LC-002-100-D00-0
 62
     7
370
    50
100
AcDbLine
 10
246.001702
 20
223.41541
 30
0.0
 11
246.001702
 21
223.41541
 31
0.0
  0
LINE
  5
1AB
330
1A3
100
AcDbEntity
  8
LC-002-100-D00-0
 62
     7
370
    50
100
AcDbLine
 10
246.001702
 20
223.41541
 30
0.0
 11
245.128945
 21
223.066674
 31
0.0
  0
LINE
  5
1AC
330
1A3
100
AcDbEntity
  8
LC-002-100-D00-0
 62
     7
370
    50
100
AcDbLine
 10
245.128945
 20
223.066674
 30
0.0
 11
245.128945
 21
223.066674
 31
0.0
  0
LINE
  5
1AD
330
1A3
100
AcDbEntity
  8
LC-002-100-D00-0
 62
     7
370
    50
100
AcDbLine
 10
245.128945
 20
223.066674
 30
0.0
 11
244.377259
 21
222.961748
 31
0.0
  0
LINE
  5
1AE
330
1A3
100
AcDbEntity
  8
LC-002-100-D00-0
 62
     7
370
    50
100
AcDbLine
 10
244.377259
 20
222.961748
 30
0.0
 11
244.377259
 21
222.961748
 31
0.0
  0
LINE
  5
1AF
330
1A3
100
AcDbEntity
  8
LC-002-100-D00-0
 62
     7
370
    50
100
AcDbLine
 10
244.377259
 20
222.961748
 30
0.0
 11
243.776972
 21
223.080481
 31
0.0
  0
LINE
  5
1B0
330
1A3
100
AcDbEntity
  8
LC-002-100-D00-0
 62
     7
370
    50
100
AcDbLine
 10
243.776972
 20
223.080481
 30
0.0
 11
243.776972
 21
223.080481
 31
0.0
  0
LINE
  5
1B1
330
1A3
100
AcDbEntity
  8
LC-002-100-D00-0
 62
     7
370
    50
100
AcDbLine
 10
243.776972
 20
223.080481
 30
0.0
 11
243.254988
 21
223.399399
 31
0.0
  0
LINE
  5
1B2
330
1A3
100
AcDbEntity
  8
LC-002-100-D00-0
 62
     7
370
    50
100
AcDbLine
 10
243.254988
 20
223.399399
 30
0.0
 11
243.254988
 21
223.399399
 31
0.0
  0
LINE
  5
1B3
330
1A3
100
AcDbEntity
  8
LC-002-100-D00-0
 62
     7
370
    50
100
AcDbLine
 10
243.254988
 20
223.399399
 30
0.0
 11
243.09452
 21
223.768839
 31
0.0
  0
LINE
  5
1B4
330
1A3
100
AcDbEntity
  8
LC-002-100-D00-0
 62
     7
370
    50
100
AcDbLine
 10
243.09452
 20
223.768839
 30
0.0
 11
243.09452
 21
223.768839
 31
0.0
  0
LINE
  5
1B5
330
1A3
100
AcDbEntity
  8
LC-002-100-D00-0
 62
     7
370
    50
100
AcDbLine
 10
243.09452
 20
223.768839
 30
0.0
 11
242.994539
 21
223.999023
 31
0.0
  0
ENDBLK
  5
1A5
330
1A3
100
AcDbEntity
  8
0
100
AcDbBlockEnd
  0
BLOCK
  5
1B9
330
1B8
100
AcDbEntity
  8
0
100
AcDbBlockBegin
  2
POLY10
 70
     0
 71
     0
 10
0.0
 20
0.0
 30
0.0
  3
POLY10
  1

  4
POLY10
  0
LINE
  5
1BB
330
1B8
100
AcDbEntity
  8
LC-002-100-D00-0
 62
     7
370
    50
100
AcDbLine
 10
272.898744
 20
223.999023
 30
0.0
 11
272.898744
 21
223.999023
 31
0.0
  0
LINE
  5
1BC
330
1B8
100
AcDbEntity
  8
LC-002-100-D00-0
 62
     7
370
    50
100
AcDbLine
 10
272.898744
 20
223.999023
 30
0.0
 11
272.610506
 21
223.787947
 31
0.0
  0
LINE
  5
1BD
330
1B8
100
AcDbEntity
  8
LC-002-100-D00-0
 62
     7
370
    50
100
AcDbLine
 10
272.610506
 20
223.787947
 30
0.0
 11
272.610506
 21
223.787947
 31
0.0
  0
LINE
  5
1BE
330
1B8
100
AcDbEntity
  8
LC-002-100-D00-0
 62
     7
370
    50
100
AcDbLine
 10
272.610506
 20
223.787947
 30
0.0
 11
272.101479
 21
223.415188
 31
0.0
  0
LINE
  5
1BF
330
1B8
100
AcDbEntity
  8
LC-002-100-D00-0
 62
     7
370
    50
100
AcDbLine
 10
272.101479
 20
223.415188
 30
0.0
 11
272.101479
 21
223.415188
 31
0.0
  0
LINE
  5
1C0
330
1B8
100
AcDbEntity
  8
LC-002-100-D00-0
 62
     7
370
    50
100
AcDbLine
 10
272.101479
 20
223.415188
 30
0.0
 11
271.405284
 21
223.06733
 31
0.0
  0
LINE
  5
1C1
330
1B8
100
AcDbEntity
  8
LC-002-100-D00-0
 62
     7
370
    50
100
AcDbLine
 10
271.405284
 20
223.06733
 30
0.0
 11
271.405284
 21
223.06733
 31
0.0
  0
LINE
  5
1C2
330
1B8
100
AcDbEntity
  8
LC-002-100-D00-0
 62
     7
370
    50
100
AcDbLine
 10
271.405284
 20
223.06733
 30
0.0
 11
270.908653
 21
222.959399
 31
0.0
  0
LINE
  5
1C3
330
1B8
100
AcDbEntity
  8
LC-002-100-D00-0
 62
     7
370
    50
100
AcDbLine
 10
270.908653
 20
222.959399
 30
0.0
 11
270.908653
 21
222.959399
 31
0.0
  0
LINE
  5
1C4
330
1B8
100
AcDbEntity
  8
LC-002-100-D00-0
 62
     7
370
    50
100
AcDbLine
 10
270.908653
 20
222.959399
 30
0.0
 11
270.642382
 21
223.087851
 31
0.0
  0
LINE
  5
1C5
330
1B8
100
AcDbEntity
  8
LC-002-100-D00-0
 62
     7
370
    50
100
AcDbLine
 10
270.642382
 20
223.087851
 30
0.0
 11
270.642382
 21
223.087851
 31
0.0
  0
LINE
  5
1C6
330
1B8
100
AcDbEntity
  8
LC-002-100-D00-0
 62
     7
370
    50
100
AcDbLine
 10
270.642382
 20
223.087851
 30
0.0
 11
270.530539
 21
223.252235
 31
0.0
  0
LINE
  5
1C7
330
1B8
100
AcDbEntity
  8
LC-002-100-D00-0
 62
     7
370
    50
100
AcDbLine
 10
270.530539
 20
223.252235
 30
0.0
 11
270.530539
 21
223.252235
 31
0.0
  0
LINE
  5
1C8
330
1B8
100
AcDbEntity
  8
LC-002-100-D00-0
 62
     7
370
    50
100
AcDbLine
 10
270.530539
 20
223.252235
 30
0.0
 11
270.567214
 21
223.406505
 31
0.0
  0
LINE
  5
1C9
330
1B8
100
AcDbEntity
  8
LC-002-100-D00-0
 62
     7
370
    50
100
AcDbLine
 10
270.567214
 20
223.406505
 30
0.0
 11
270.567214
 21
223.406505
 31
0.0
  0
LINE
  5
1CA
330
1B8
100
AcDbEntity
  8
LC-002-100-D00-0
 62
     7
370
    50
100
AcDbLine
 10
270.567214
 20
223.406505
 30
0.0
 11
270.572688
 21
223.429531
 31
0.0
  0
ENDBLK
  5
1BA
330
1B8
100
AcDbEntity
  8
0
100
AcDbBlockEnd
  0
BLOCK
  5
1CE
330
1CD
100
AcDbEntity
  8
0
100
AcDbBlockBegin
  2
POLY11
 70
     0
 71
     0
 10
0.0
 20
0.0
 30
0.0
  3
POLY11
  1

  4
POLY11
  0
LINE
  5
1D0
330
1CD
100
AcDbEntity
  8
LC-002-100-D00-0
 62
     7
370
    50
100
AcDbLine
 10
281.638439
 20
237.963498
 30
0.0
 11
281.638439
 21
237.963498
 31
0.0
  0
LINE
  5
1D1
330
1CD
100
AcDbEntity
  8
LC-002-100-D00-0
 62
     7
370
    50
100
AcDbLine
 10
281.638439
 20
237.963498
 30
0.0
 11
281.416643
 21
237.567739
 31
0.0
  0
LINE
  5
1D2
330
1CD
100
AcDbEntity
  8
LC-002-100-D00-0
 62
     7
370
    50
100
AcDbLine
 10
281.416643
 20
237.567739
 30
0.0
 11
281.416643
 21
237.567739
 31
0.0
  0
LINE
  5
1D3
330
1CD
100
AcDbEntity
  8
LC-002-100-D00-0
 62
     7
370
    50
100
AcDbLine
 10
281.416643
 20
237.567739
 30
0.0
 11
281.09945
 21
237.001758
 31
0.0
  0
LINE
  5
1D4
330
1CD
100
AcDbEntity
  8
LC-002-100-D00-0
 62
     7
370
    50
100
AcDbLine
 10
281.09945
 20
237.001758
 30
0.0
 11
281.09945
 21
237.001758
 31
0.0
  0
LINE
  5
1D5
330
1CD
100
AcDbEntity
  8
LC-002-100-D00-0
 62
     7
370
    50
100
AcDbLine
 10
281.09945
 20
237.001758
 30
0.0
 11
280.795855
 21
236.455567
 31
0.0
  0
LINE
  5
1D6
330
1CD
100
AcDbEntity
  8
LC-002-100-D00-0
 62
     7
370
    50
100
AcDbLine
 10
280.795855
 20
236.455567
 30
0.0
 11
280.795855
 21
236.455567
 31
0.0
  0
LINE
  5
1D7
330
1CD
100
AcDbEntity
  8
LC-002-100-D00-0
 62
     7
370
    50
100
AcDbLine
 10
280.795855
 20
236.455567
 30
0.0
 11
280.683843
 21
236.253631
 31
0.0
  0
LINE
  5
1D8
330
1CD
100
AcDbEntity
  8
LC-002-100-D00-0
 62
     7
370
    50
100
AcDbLine
 10
280.683843
 20
236.253631
 30
0.0
 11
280.683843
 21
236.253631
 31
0.0
  0
LINE
  5
1D9
330
1CD
100
AcDbEntity
  8
LC-002-100-D00-0
 62
     7
370
    50
100
AcDbLine
 10
280.683843
 20
236.253631
 30
0.0
 11
280.674436
 21
236.236657
 31
0.0
  0
LINE
  5
1DA
330
1CD
100
AcDbEntity
  8
LC-002-100-D00-0
 62
     7
370
    50
100
AcDbLine
 10
280.674436
 20
236.236657
 30
0.0
 11
280.674436
 21
236.236657
 31
0.0
  0
LINE
  5
1DB
330
1CD
100
AcDbEntity
  8
LC-002-100-D00-0
 62
     7
370
    50
100
AcDbLine
 10
280.674436
 20
236.236657
 30
0.0
 11
280.671547
 21
236.231446
 31
0.0
  0
ENDBLK
  5
1CF
330
1CD
100
AcDbEntity
  8
0
100
AcDbBlockEnd
  0
BLOCK
  5
1DE
330
1DD
100
AcDbEntity
  8
0
100
AcDbBlockBegin
  2
POLY12
 70
     0
 71
     0
 10
0.0
 20
0.0
 30
0.0
  3
POLY12
  1

  4
POLY12
  0
LINE
  5
1E0
330
1DD
100
AcDbEntity
  8
LC-002-100-D00-0
 62
     7
370
    50
100
AcDbLine
 10
135.671552
 20
236.231446
 30
0.0
 11
135.671552
 21
236.231446
 31
0.0
  0
LINE
  5
1E1
330
1DD
100
AcDbEntity
  8
LC-002-100-D00-0
 62
     7
370
    50
100
AcDbLine
 10
135.671552
 20
236.231446
 30
0.0
 11
135.670097
 21
236.234068
 31
0.0
  0
LINE
  5
1E2
330
1DD
100
AcDbEntity
  8
LC-002-100-D00-0
 62
     7
370
    50
100
AcDbLine
 10
135.670097
 20
236.234068
 30
0.0
 11
135.670097
 21
236.234068
 31
0.0
  0
LINE
  5
1E3
330
1DD
100
AcDbEntity
  8
LC-002-100-D00-0
 62
     7
370
    50
100
AcDbLine
 10
135.670097
 20
236.234068
 30
0.0
 11
135.665155
 21
236.242973
 31
0.0
  0
LINE
  5
1E4
330
1DD
100
AcDbEntity
  8
LC-002-100-D00-0
 62
     7
370
    50
100
AcDbLine
 10
135.665155
 20
236.242973
 30
0.0
 11
135.665155
 21
236.242973
 31
0.0
  0
LINE
  5
1E5
330
1DD
100
AcDbEntity
  8
LC-002-100-D00-0
 62
     7
370
    50
100
AcDbLine
 10
135.665155
 20
236.242973
 30
0.0
 11
135.59092
 21
236.376873
 31
0.0
  0
LINE
  5
1E6
330
1DD
100
AcDbEntity
  8
LC-002-100-D00-0
 62
     7
370
    50
100
AcDbLine
 10
135.59092
 20
236.376873
 30
0.0
 11
135.59092
 21
236.376873
 31
0.0
  0
LINE
  5
1E7
330
1DD
100
AcDbEntity
  8
LC-002-100-D00-0
 62
     7
370
    50
100
AcDbLine
 10
135.59092
 20
236.376873
 30
0.0
 11
135.351095
 21
236.808573
 31
0.0
  0
LINE
  5
1E8
330
1DD
100
AcDbEntity
  8
LC-002-100-D00-0
 62
     7
370
    50
100
AcDbLine
 10
135.351095
 20
236.808573
 30
0.0
 11
135.351095
 21
236.808573
 31
0.0
  0
LINE
  5
1E9
330
1DD
100
AcDbEntity
  8
LC-002-100-D00-0
 62
     7
370
    50
100
AcDbLine
 10
135.351095
 20
236.808573
 30
0.0
 11
135.023551
 21
237.395621
 31
0.0
  0
LINE
  5
1EA
330
1DD
100
AcDbEntity
  8
LC-002-100-D00-0
 62
     7
370
    50
100
AcDbLine
 10
135.023551
 20
237.395621
 30
0.0
 11
135.023551
 21
237.395621
 31
0.0
  0
LINE
  5
1EB
330
1DD
100
AcDbEntity
  8
LC-002-100-D00-0
 62
     7
370
    50
100
AcDbLine
 10
135.023551
 20
237.395621
 30
0.0
 11
134.774924
 21
237.838372
 31
0.0
  0
LINE
  5
1EC
330
1DD
100
AcDbEntity
  8
LC-002-100-D00-0
 62
     7
370
    50
100
AcDbLine
 10
134.774924
 20
237.838372
 30
0.0
 11
134.774924
 21
237.838372
 31
0.0
  0
LINE
  5
1ED
330
1DD
100
AcDbEntity
  8
LC-002-100-D00-0
 62
     7
370
    50
100
AcDbLine
 10
134.774924
 20
237.838372
 30
0.0
 11
134.70466
 21
237.963498
 31
0.0
  0
ENDBLK
  5
1DF
330
1DD
100
AcDbEntity
  8
0
100
AcDbBlockEnd
  0
BLOCK
  5
208
330
207
100
AcDbEntity
  8
0
100
AcDbBlockBegin
  2
POLY13
 70
     0
 71
     0
 10
0.0
 20
0.0
 30
0.0
  3
POLY13
  1

  4
POLY13
  0
LINE
  5
20A
330
207
100
AcDbEntity
  8
LC-002-100-D00-0
 62
     7
370
    50
100
AcDbLine
 10
85.445972
 20
226.463488
 30
0.0
 11
85.445972
 21
226.463488
 31
0.0
  0
LINE
  5
20B
330
207
100
AcDbEntity
  8
LC-002-100-D00-0
 62
     7
370
    50
100
AcDbLine
 10
85.445972
 20
226.463488
 30
0.0
 11
85.445481
 21
226.463492
 31
0.0
  0
LINE
  5
20C
330
207
100
AcDbEntity
  8
LC-002-100-D00-0
 62
     7
370
    50
100
AcDbLine
 10
85.445481
 20
226.463492
 30
0.0
 11
85.445481
 21
226.463492
 31
0.0
  0
LINE
  5
20D
330
207
100
AcDbEntity
  8
LC-002-100-D00-0
 62
     7
370
    50
100
AcDbLine
 10
85.445481
 20
226.463492
 30
0.0
 11
85.413994
 21
226.463695
 31
0.0
  0
LINE
  5
20E
330
207
100
AcDbEntity
  8
LC-002-100-D00-0
 62
     7
370
    50
100
AcDbLine
 10
85.413994
 20
226.463695
 30
0.0
 11
85.413994
 21
226.463695
 31
0.0
  0
LINE
  5
20F
330
207
100
AcDbEntity
  8
LC-002-100-D00-0
 62
     7
370
    50
100
AcDbLine
 10
85.413994
 20
226.463695
 30
0.0
 11
85.35191
 21
226.504317
 31
0.0
  0
LINE
  5
210
330
207
100
AcDbEntity
  8
LC-002-100-D00-0
 62
     7
370
    50
100
AcDbLine
 10
85.35191
 20
226.504317
 30
0.0
 11
85.35191
 21
226.504317
 31
0.0
  0
LINE
  5
211
330
207
100
AcDbEntity
  8
LC-002-100-D00-0
 62
     7
370
    50
100
AcDbLine
 10
85.35191
 20
226.504317
 30
0.0
 11
85.265665
 21
226.669185
 31
0.0
  0
LINE
  5
212
330
207
100
AcDbEntity
  8
LC-002-100-D00-0
 62
     7
370
    50
100
AcDbLine
 10
85.265665
 20
226.669185
 30
0.0
 11
85.265665
 21
226.669185
 31
0.0
  0
LINE
  5
213
330
207
100
AcDbEntity
  8
LC-002-100-D00-0
 62
     7
370
    50
100
AcDbLine
 10
85.265665
 20
226.669185
 30
0.0
 11
85.1956
 21
226.901695
 31
0.0
  0
LINE
  5
214
330
207
100
AcDbEntity
  8
LC-002-100-D00-0
 62
     7
370
    50
100
AcDbLine
 10
85.1956
 20
226.901695
 30
0.0
 11
85.1956
 21
226.901695
 31
0.0
  0
LINE
  5
215
330
207
100
AcDbEntity
  8
LC-002-100-D00-0
 62
     7
370
    50
100
AcDbLine
 10
85.1956
 20
226.901695
 30
0.0
 11
85.170883
 21
227.103578
 31
0.0
  0
LINE
  5
216
330
207
100
AcDbEntity
  8
LC-002-100-D00-0
 62
     7
370
    50
100
AcDbLine
 10
85.170883
 20
227.103578
 30
0.0
 11
85.170883
 21
227.103578
 31
0.0
  0
LINE
  5
217
330
207
100
AcDbEntity
  8
LC-002-100-D00-0
 62
     7
370
    50
100
AcDbLine
 10
85.170883
 20
227.103578
 30
0.0
 11
85.158506
 21
227.204672
 31
0.0
  0
ENDBLK
  5
209
330
207
100
AcDbEntity
  8
0
100
AcDbBlockEnd
  0
BLOCK
  5
278
330
277
100
AcDbEntity
  8
0
100
AcDbBlockBegin
  2
KLON3
 70
     0
 71
     0
 10
0.0
 20
0.0
 30
0.0
  3
KLON3
  1

  4
KLON3
  0
LINE
  5
27A
330
277
100
AcDbEntity
  8
LC-002-100-D00-0
 62
     7
370
    25
100
AcDbLine
 10
302.935247
 20
238.463496
 30
0.0
 11
304.935247
 21
240.463496
 31
0.0
  0
LINE
  5
27B
330
277
100
AcDbEntity
  8
LC-002-100-D00-0
 62
     7
370
    25
100
AcDbLine
 10
293.954991
 20
238.463496
 30
0.0
 11
295.954991
 21
240.463496
 31
0.0
  0
LINE
  5
27C
330
277
100
AcDbEntity
  8
LC-002-100-D00-0
 62
     7
370
    25
100
AcDbLine
 10
284.974735
 20
238.463496
 30
0.0
 11
286.974735
 21
240.463496
 31
0.0
  0
LINE
  5
27D
330
277
100
AcDbEntity
  8
LC-002-100-D00-0
 62
     7
370
    25
100
AcDbLine
 10
275.994479
 20
238.463496
 30
0.0
 11
277.994479
 21
240.463496
 31
0.0
  0
ENDBLK
  5
279
330
277
100
AcDbEntity
  8
0
100
AcDbBlockEnd
  0
BLOCK
  5
280
330
27F
100
AcDbEntity
  8
0
100
AcDbBlockBegin
  2
KLON4
 70
     0
 71
     0
 10
0.0
 20
0.0
 30
0.0
  3
KLON4
  1

  4
KLON4
  0
LINE
  5
282
330
27F
100
AcDbEntity
  8
LC-002-100-D00-0
 62
     7
370
    25
100
AcDbLine
 10
141.290637
 20
238.463496
 30
0.0
 11
143.17155
 21
240.344408
 31
0.0
  0
LINE
  5
283
330
27F
100
AcDbEntity
  8
LC-002-100-D00-0
 62
     7
370
    25
100
AcDbLine
 10
132.310381
 20
238.463496
 30
0.0
 11
134.310381
 21
240.463496
 31
0.0
  0
LINE
  5
284
330
27F
100
AcDbEntity
  8
LC-002-100-D00-0
 62
     7
370
    25
100
AcDbLine
 10
123.330124
 20
238.463496
 30
0.0
 11
125.330124
 21
240.463496
 31
0.0
  0
LINE
  5
285
330
27F
100
AcDbEntity
  8
LC-002-100-D00-0
 62
     7
370
    25
100
AcDbLine
 10
114.349868
 20
238.463496
 30
0.0
 11
116.349868
 21
240.463496
 31
0.0
  0
ENDBLK
  5
281
330
27F
100
AcDbEntity
  8
0
100
AcDbBlockEnd
  0
BLOCK
  5
288
330
287
100
AcDbEntity
  8
0
100
AcDbBlockBegin
  2
KLON5
 70
     0
 71
     0
 10
0.0
 20
0.0
 30
0.0
  3
KLON5
  1

  4
KLON5
  0
LINE
  5
28A
330
287
100
AcDbEntity
  8
LC-002-100-D00-0
 62
     7
370
    50
100
AcDbLine
 10
134.310381
 20
240.463496
 30
0.0
 11
134.510381
 21
240.663496
 31
0.0
  0
LINE
  5
28B
330
287
100
AcDbEntity
  8
LC-002-100-D00-0
 62
     7
370
    50
100
AcDbLine
 10
125.330124
 20
240.463496
 30
0.0
 11
125.530124
 21
240.663496
 31
0.0
  0
LINE
  5
28C
330
287
100
AcDbEntity
  8
LC-002-100-D00-0
 62
     7
370
    50
100
AcDbLine
 10
116.349868
 20
240.463496
 30
0.0
 11
116.549868
 21
240.663496
 31
0.0
  0
ENDBLK
  5
289
330
287
100
AcDbEntity
  8
0
100
AcDbBlockEnd
  0
BLOCK
  5
28F
330
28E
100
AcDbEntity
  8
0
100
AcDbBlockBegin
  2
KLON6
 70
     0
 71
     0
 10
0.0
 20
0.0
 30
0.0
  3
KLON6
  1

  4
KLON6
  0
LINE
  5
291
330
28E
100
AcDbEntity
  8
LC-002-100-D00-0
 62
     7
370
    50
100
AcDbLine
 10
304.935247
 20
240.463496
 30
0.0
 11
305.135247
 21
240.663496
 31
0.0
  0
LINE
  5
292
330
28E
100
AcDbEntity
  8
LC-002-100-D00-0
 62
     7
370
    50
100
AcDbLine
 10
295.954991
 20
240.463496
 30
0.0
 11
296.154991
 21
240.663496
 31
0.0
  0
LINE
  5
293
330
28E
100
AcDbEntity
  8
LC-002-100-D00-0
 62
     7
370
    50
100
AcDbLine
 10
286.974735
 20
240.463496
 30
0.0
 11
287.174735
 21
240.663496
 31
0.0
  0
LINE
  5
294
330
28E
100
AcDbEntity
  8
LC-002-100-D00-0
 62
     7
370
    50
100
AcDbLine
 10
277.994479
 20
240.463496
 30
0.0
 11
278.194479
 21
240.663496
 31
0.0
  0
ENDBLK
  5
290
330
28E
100
AcDbEntity
  8
0
100
AcDbBlockEnd
  0
BLOCK
  5
297
330
296
100
AcDbEntity
  8
0
100
AcDbBlockBegin
  2
KLON7
 70
     0
 71
     0
 10
0.0
 20
0.0
 30
0.0
  3
KLON7
  1

  4
KLON7
  0
LINE
  5
299
330
296
100
AcDbEntity
  8
LC-002-100-D00-0
 62
     7
370
    50
100
AcDbLine
 10
125.810381
 20
237.963493
 30
0.0
 11
126.310381
 21
238.463493
 31
0.0
  0
LINE
  5
29A
330
296
100
AcDbEntity
  8
LC-002-100-D00-0
 62
     7
370
    50
100
AcDbLine
 10
116.830124
 20
237.963493
 30
0.0
 11
117.330124
 21
238.463493
 31
0.0
  0
LINE
  5
29B
330
296
100
AcDbEntity
  8
LC-002-100-D00-0
 62
     7
370
    50
100
AcDbLine
 10
107.849868
 20
237.963493
 30
0.0
 11
108.349868
 21
238.463493
 31
0.0
  0
LINE
  5
29C
330
296
100
AcDbEntity
  8
LC-002-100-D00-0
 62
     7
370
    50
100
AcDbLine
 10
98.869612
 20
237.963493
 30
0.0
 11
99.369612
 21
238.463493
 31
0.0
  0
LINE
  5
29D
330
296
100
AcDbEntity
  8
LC-002-100-D00-0
 62
     7
370
    50
100
AcDbLine
 10
90.444666
 20
238.518803
 30
0.0
 11
90.79822
 21
238.872357
 31
0.0
  0
LINE
  5
29E
330
296
100
AcDbEntity
  8
LC-002-100-D00-0
 62
     7
370
    50
100
AcDbLine
 10
85.954538
 20
243.008931
 30
0.0
 11
86.308092
 21
243.362485
 31
0.0
  0
LINE
  5
29F
330
296
100
AcDbEntity
  8
LC-002-100-D00-0
 62
     7
370
    50
100
AcDbLine
 10
77.928844
 20
243.963493
 30
0.0
 11
78.428844
 21
244.463493
 31
0.0
  0
LINE
  5
2A0
330
296
100
AcDbEntity
  8
LC-002-100-D00-0
 62
     7
370
    50
100
AcDbLine
 10
68.948588
 20
243.963493
 30
0.0
 11
69.448588
 21
244.463493
 31
0.0
  0
LINE
  5
2A1
330
296
100
AcDbEntity
  8
LC-002-100-D00-0
 62
     7
370
    50
100
AcDbLine
 10
59.968332
 20
243.963493
 30
0.0
 11
60.468332
 21
244.463493
 31
0.0
  0
LINE
  5
2A2
330
296
100
AcDbEntity
  8
LC-002-100-D00-0
 62
     7
370
    50
100
AcDbLine
 10
50.988076
 20
243.963493
 30
0.0
 11
51.488076
 21
244.463493
 31
0.0
  0
ENDBLK
  5
298
330
296
100
AcDbEntity
  8
0
100
AcDbBlockEnd
  0
BLOCK
  5
2A5
330
2A4
100
AcDbEntity
  8
0
100
AcDbBlockBegin
  2
KLON8
 70
     0
 71
     0
 10
0.0
 20
0.0
 30
0.0
  3
KLON8
  1

  4
KLON8
  0
LINE
  5
2A7
330
2A4
100
AcDbEntity
  8
LC-002-100-D00-0
 62
     7
370
    50
100
AcDbLine
 10
365.29704
 20
243.963493
 30
0.0
 11
365.79704
 21
244.463493
 31
0.0
  0
LINE
  5
2A8
330
2A4
100
AcDbEntity
  8
LC-002-100-D00-0
 62
     7
370
    50
100
AcDbLine
 10
356.316784
 20
243.963493
 30
0.0
 11
356.816784
 21
244.463493
 31
0.0
  0
LINE
  5
2A9
330
2A4
100
AcDbEntity
  8
LC-002-100-D00-0
 62
     7
370
    50
100
AcDbLine
 10
347.336528
 20
243.963493
 30
0.0
 11
347.836528
 21
244.463493
 31
0.0
  0
LINE
  5
2AA
330
2A4
100
AcDbEntity
  8
LC-002-100-D00-0
 62
     7
370
    50
100
AcDbLine
 10
338.356271
 20
243.963493
 30
0.0
 11
338.856271
 21
244.463493
 31
0.0
  0
LINE
  5
2AB
330
2A4
100
AcDbEntity
  8
LC-002-100-D00-0
 62
     7
370
    50
100
AcDbLine
 10
323.376015
 20
237.963493
 30
0.0
 11
323.876015
 21
238.463493
 31
0.0
  0
LINE
  5
2AC
330
2A4
100
AcDbEntity
  8
LC-002-100-D00-0
 62
     7
370
    50
100
AcDbLine
 10
314.395759
 20
237.963493
 30
0.0
 11
314.895759
 21
238.463493
 31
0.0
  0
LINE
  5
2AD
330
2A4
100
AcDbEntity
  8
LC-002-100-D00-0
 62
     7
370
    50
100
AcDbLine
 10
305.415503
 20
237.963493
 30
0.0
 11
305.915503
 21
238.463493
 31
0.0
  0
LINE
  5
2AE
330
2A4
100
AcDbEntity
  8
LC-002-100-D00-0
 62
     7
370
    50
100
AcDbLine
 10
296.435247
 20
237.963493
 30
0.0
 11
296.935247
 21
238.463493
 31
0.0
  0
LINE
  5
2AF
330
2A4
100
AcDbEntity
  8
LC-002-100-D00-0
 62
     7
370
    50
100
AcDbLine
 10
287.454991
 20
237.963493
 30
0.0
 11
287.954991
 21
238.463493
 31
0.0
  0
ENDBLK
  5
2A6
330
2A4
100
AcDbEntity
  8
0
100
AcDbBlockEnd
  0
BLOCK
  5
2B5
330
2B4
100
AcDbEntity
  8
0
100
AcDbBlockBegin
  2
*X122
 70
     1
 71
     0
 10
0.0
 20
0.0
 30
0.0
  3
*X122
  1

  4
*X1
  0
LINE
  5
2B8
330
2B4
100
AcDbEntity
  8
LC-003-005-----0
 62
     7
370
    25
100
AcDbLine
 10
205.100577
 20
91.963492
 30
0.0
 11
208.17155
 21
95.034465
 31
0.0
  0
LINE
  5
2B9
330
2B4
100
AcDbEntity
  8
LC-003-005-----0
 62
     7
370
    25
100
AcDbLine
 10
199.443723
 20
91.963492
 30
0.0
 11
208.17155
 21
100.691319
 31
0.0
  0
LINE
  5
2BA
330
2B4
100
AcDbEntity
  8
LC-003-005-----0
 62
     7
370
    25
100
AcDbLine
 10
193.786869
 20
91.963492
 30
0.0
 11
208.17155
 21
106.348173
 31
0.0
  0
LINE
  5
2BB
330
2B4
100
AcDbEntity
  8
LC-003-005-----0
 62
     7
370
    25
100
AcDbLine
 10
188.130015
 20
91.963492
 30
0.0
 11
208.17155
 21
112.005027
 31
0.0
  0
LINE
  5
2BC
330
2B4
100
AcDbEntity
  8
LC-003-005-----0
 62
     7
370
    25
100
AcDbLine
 10
182.47316
 20
91.963492
 30
0.0
 11
208.17155
 21
117.661882
 31
0.0
  0
LINE
  5
2BD
330
2B4
100
AcDbEntity
  8
LC-003-005-----0
 62
     7
370
    25
100
AcDbLine
 10
176.816306
 20
91.963492
 30
0.0
 11
202.816306
 21
117.963492
 31
0.0
  0
LINE
  5
2BE
330
2B4
100
AcDbEntity
  8
LC-003-005-----0
 62
     7
370
    25
100
AcDbLine
 10
171.159452
 20
91.963492
 30
0.0
 11
197.159452
 21
117.963492
 31
0.0
  0
LINE
  5
2BF
330
2B4
100
AcDbEntity
  8
LC-003-005-----0
 62
     7
370
    25
100
AcDbLine
 10
165.502598
 20
91.963492
 30
0.0
 11
191.502598
 21
117.963492
 31
0.0
  0
LINE
  5
2C0
330
2B4
100
AcDbEntity
  8
LC-003-005-----0
 62
     7
370
    25
100
AcDbLine
 10
159.845743
 20
91.963492
 30
0.0
 11
185.845743
 21
117.963492
 31
0.0
  0
LINE
  5
2C1
330
2B4
100
AcDbEntity
  8
LC-003-005-----0
 62
     7
370
    25
100
AcDbLine
 10
154.188889
 20
91.963492
 30
0.0
 11
180.188889
 21
117.963492
 31
0.0
  0
LINE
  5
2C2
330
2B4
100
AcDbEntity
  8
LC-003-005-----0
 62
     7
370
    25
100
AcDbLine
 10
148.532035
 20
91.963492
 30
0.0
 11
174.532035
 21
117.963492
 31
0.0
  0
LINE
  5
2C3
330
2B4
100
AcDbEntity
  8
LC-003-005-----0
 62
     7
370
    25
100
AcDbLine
 10
142.875181
 20
91.963492
 30
0.0
 11
168.875181
 21
117.963492
 31
0.0
  0
LINE
  5
2C4
330
2B4
100
AcDbEntity
  8
LC-003-005-----0
 62
     7
370
    25
100
AcDbLine
 10
137.921562
 20
92.666728
 30
0.0
 11
163.218326
 21
117.963492
 31
0.0
  0
LINE
  5
2C5
330
2B4
100
AcDbEntity
  8
LC-003-005-----0
 62
     7
370
    25
100
AcDbLine
 10
137.921562
 20
98.323582
 30
0.0
 11
157.561472
 21
117.963492
 31
0.0
  0
LINE
  5
2C6
330
2B4
100
AcDbEntity
  8
LC-003-005-----0
 62
     7
370
    25
100
AcDbLine
 10
137.921562
 20
103.980437
 30
0.0
 11
151.904618
 21
117.963492
 31
0.0
  0
LINE
  5
2C7
330
2B4
100
AcDbEntity
  8
LC-003-005-----0
 62
     7
370
    25
100
AcDbLine
 10
137.921562
 20
109.637291
 30
0.0
 11
146.247764
 21
117.963492
 31
0.0
  0
LINE
  5
2C8
330
2B4
100
AcDbEntity
  8
LC-003-005-----0
 62
     7
370
    25
100
AcDbLine
 10
137.921562
 20
115.294145
 30
0.0
 11
140.590909
 21
117.963492
 31
0.0
  0
LINE
  5
2C9
330
2B4
100
AcDbEntity
  8
LC-003-005-----0
 62
     7
370
    25
100
AcDbLine
 10
208.17155
 20
114.269143
 30
0.0
 11
204.4772
 21
117.963492
 31
0.0
  0
LINE
  5
2CA
330
2B4
100
AcDbEntity
  8
LC-003-005-----0
 62
     7
370
    25
100
AcDbLine
 10
208.17155
 20
108.612288
 30
0.0
 11
198.820346
 21
117.963492
 31
0.0
  0
LINE
  5
2CB
330
2B4
100
AcDbEntity
  8
LC-003-005-----0
 62
     7
370
    25
100
AcDbLine
 10
208.17155
 20
102.955434
 30
0.0
 11
193.163491
 21
117.963492
 31
0.0
  0
LINE
  5
2CC
330
2B4
100
AcDbEntity
  8
LC-003-005-----0
 62
     7
370
    25
100
AcDbLine
 10
208.17155
 20
97.29858
 30
0.0
 11
187.506637
 21
117.963492
 31
0.0
  0
LINE
  5
2CD
330
2B4
100
AcDbEntity
  8
LC-003-005-----0
 62
     7
370
    25
100
AcDbLine
 10
207.849783
 20
91.963492
 30
0.0
 11
181.849783
 21
117.963492
 31
0.0
  0
LINE
  5
2CE
330
2B4
100
AcDbEntity
  8
LC-003-005-----0
 62
     7
370
    25
100
AcDbLine
 10
202.192929
 20
91.963492
 30
0.0
 11
176.192929
 21
117.963492
 31
0.0
  0
LINE
  5
2CF
330
2B4
100
AcDbEntity
  8
LC-003-005-----0
 62
     7
370
    25
100
AcDbLine
 10
196.536074
 20
91.963492
 30
0.0
 11
170.536074
 21
117.963492
 31
0.0
  0
LINE
  5
2D0
330
2B4
100
AcDbEntity
  8
LC-003-005-----0
 62
     7
370
    25
100
AcDbLine
 10
190.87922
 20
91.963492
 30
0.0
 11
164.87922
 21
117.963492
 31
0.0
  0
LINE
  5
2D1
330
2B4
100
AcDbEntity
  8
LC-003-005-----0
 62
     7
370
    25
100
AcDbLine
 10
185.222366
 20
91.963492
 30
0.0
 11
159.222366
 21
117.963492
 31
0.0
  0
LINE
  5
2D2
330
2B4
100
AcDbEntity
  8
LC-003-005-----0
 62
     7
370
    25
100
AcDbLine
 10
179.565512
 20
91.963492
 30
0.0
 11
153.565512
 21
117.963492
 31
0.0
  0
LINE
  5
2D3
330
2B4
100
AcDbEntity
  8
LC-003-005-----0
 62
     7
370
    25
100
AcDbLine
 10
173.908657
 20
91.963492
 30
0.0
 11
147.908657
 21
117.963492
 31
0.0
  0
LINE
  5
2D4
330
2B4
100
AcDbEntity
  8
LC-003-005-----0
 62
     7
370
    25
100
AcDbLine
 10
168.251803
 20
91.963492
 30
0.0
 11
142.251803
 21
117.963492
 31
0.0
  0
LINE
  5
2D5
330
2B4
100
AcDbEntity
  8
LC-003-005-----0
 62
     7
370
    25
100
AcDbLine
 10
162.594949
 20
91.963492
 30
0.0
 11
137.921562
 21
116.636879
 31
0.0
  0
LINE
  5
2D6
330
2B4
100
AcDbEntity
  8
LC-003-005-----0
 62
     7
370
    25
100
AcDbLine
 10
156.938095
 20
91.963492
 30
0.0
 11
137.921562
 21
110.980025
 31
0.0
  0
LINE
  5
2D7
330
2B4
100
AcDbEntity
  8
LC-003-005-----0
 62
     7
370
    25
100
AcDbLine
 10
151.28124
 20
91.963492
 30
0.0
 11
137.921562
 21
105.323171
 31
0.0
  0
LINE
  5
2D8
330
2B4
100
AcDbEntity
  8
LC-003-005-----0
 62
     7
370
    25
100
AcDbLine
 10
145.624386
 20
91.963492
 30
0.0
 11
137.921562
 21
99.666316
 31
0.0
  0
LINE
  5
2D9
330
2B4
100
AcDbEntity
  8
LC-003-005-----0
 62
     7
370
    25
100
AcDbLine
 10
139.967532
 20
91.963492
 30
0.0
 11
137.921562
 21
94.009462
 31
0.0
  0
ENDBLK
  5
2B6
330
2B4
100
AcDbEntity
  8
0
100
AcDbBlockEnd
  0
BLOCK
  5
2DC
330
2DB
100
AcDbEntity
  8
0
100
AcDbBlockBegin
  2
*X223
 70
     1
 71
     0
 10
0.0
 20
0.0
 30
0.0
  3
*X223
  1

  4
*X2
  0
LINE
  5
2DE
330
2DB
100
AcDbEntity
  8
LC-003-005-----0
 62
     7
370
    25
100
AcDbLine
 10
272.982828
 20
91.963492
 30
0.0
 11
278.421562
 21
97.402226
 31
0.0
  0
LINE
  5
2DF
330
2DB
100
AcDbEntity
  8
LC-003-005-----0
 62
     7
370
    25
100
AcDbLine
 10
267.325974
 20
91.963492
 30
0.0
 11
278.421562
 21
103.05908
 31
0.0
  0
LINE
  5
2E0
330
2DB
100
AcDbEntity
  8
LC-003-005-----0
 62
     7
370
    25
100
AcDbLine
 10
261.66912
 20
91.963492
 30
0.0
 11
278.421562
 21
108.715935
 31
0.0
  0
LINE
  5
2E1
330
2DB
100
AcDbEntity
  8
LC-003-005-----0
 62
     7
370
    25
100
AcDbLine
 10
256.012266
 20
91.963492
 30
0.0
 11
278.421562
 21
114.372789
 31
0.0
  0
LINE
  5
2E2
330
2DB
100
AcDbEntity
  8
LC-003-005-----0
 62
     7
370
    25
100
AcDbLine
 10
250.355411
 20
91.963492
 30
0.0
 11
276.355411
 21
117.963492
 31
0.0
  0
LINE
  5
2E3
330
2DB
100
AcDbEntity
  8
LC-003-005-----0
 62
     7
370
    25
100
AcDbLine
 10
244.698557
 20
91.963492
 30
0.0
 11
270.698557
 21
117.963492
 31
0.0
  0
LINE
  5
2E4
330
2DB
100
AcDbEntity
  8
LC-003-005-----0
 62
     7
370
    25
100
AcDbLine
 10
239.041703
 20
91.963492
 30
0.0
 11
265.041703
 21
117.963492
 31
0.0
  0
LINE
  5
2E5
330
2DB
100
AcDbEntity
  8
LC-003-005-----0
 62
     7
370
    25
100
AcDbLine
 10
233.384849
 20
91.963492
 30
0.0
 11
259.384849
 21
117.963492
 31
0.0
  0
LINE
  5
2E6
330
2DB
100
AcDbEntity
  8
LC-003-005-----0
 62
     7
370
    25
100
AcDbLine
 10
227.727994
 20
91.963492
 30
0.0
 11
253.727994
 21
117.963492
 31
0.0
  0
LINE
  5
2E7
330
2DB
100
AcDbEntity
  8
LC-003-005-----0
 62
     7
370
    25
100
AcDbLine
 10
222.07114
 20
91.963492
 30
0.0
 11
248.07114
 21
117.963492
 31
0.0
  0
LINE
  5
2E8
330
2DB
100
AcDbEntity
  8
LC-003-005-----0
 62
     7
370
    25
100
AcDbLine
 10
216.414286
 20
91.963492
 30
0.0
 11
242.414286
 21
117.963492
 31
0.0
  0
LINE
  5
2E9
330
2DB
100
AcDbEntity
  8
LC-003-005-----0
 62
     7
370
    25
100
AcDbLine
 10
210.757432
 20
91.963492
 30
0.0
 11
236.757432
 21
117.963492
 31
0.0
  0
LINE
  5
2EA
330
2DB
100
AcDbEntity
  8
LC-003-005-----0
 62
     7
370
    25
100
AcDbLine
 10
208.17155
 20
95.034465
 30
0.0
 11
231.100577
 21
117.963492
 31
0.0
  0
LINE
  5
2EB
330
2DB
100
AcDbEntity
  8
LC-003-005-----0
 62
     7
370
    25
100
AcDbLine
 10
208.17155
 20
100.691319
 30
0.0
 11
225.443723
 21
117.963492
 31
0.0
  0
LINE
  5
2EC
330
2DB
100
AcDbEntity
  8
LC-003-005-----0
 62
     7
370
    25
100
AcDbLine
 10
208.17155
 20
106.348173
 30
0.0
 11
219.786869
 21
117.963492
 31
0.0
  0
LINE
  5
2ED
330
2DB
100
AcDbEntity
  8
LC-003-005-----0
 62
     7
370
    25
100
AcDbLine
 10
208.17155
 20
112.005027
 30
0.0
 11
214.130015
 21
117.963492
 31
0.0
  0
LINE
  5
2EE
330
2DB
100
AcDbEntity
  8
LC-003-005-----0
 62
     7
370
    25
100
AcDbLine
 10
208.17155
 20
117.661882
 30
0.0
 11
208.47316
 21
117.963492
 31
0.0
  0
LINE
  5
2EF
330
2DB
100
AcDbEntity
  8
LC-003-005-----0
 62
     7
370
    25
100
AcDbLine
 10
278.421562
 20
117.558235
 30
0.0
 11
278.016305
 21
117.963492
 31
0.0
  0
LINE
  5
2F0
330
2DB
100
AcDbEntity
  8
LC-003-005-----0
 62
     7
370
    25
100
AcDbLine
 10
278.421562
 20
111.901381
 30
0.0
 11
272.359451
 21
117.963492
 31
0.0
  0
LINE
  5
2F1
330
2DB
100
AcDbEntity
  8
LC-003-005-----0
 62
     7
370
    25
100
AcDbLine
 10
278.421562
 20
106.244527
 30
0.0
 11
266.702597
 21
117.963492
 31
0.0
  0
LINE
  5
2F2
330
2DB
100
AcDbEntity
  8
LC-003-005-----0
 62
     7
370
    25
100
AcDbLine
 10
278.421562
 20
100.587673
 30
0.0
 11
261.045742
 21
117.963492
 31
0.0
  0
LINE
  5
2F3
330
2DB
100
AcDbEntity
  8
LC-003-005-----0
 62
     7
370
    25
100
AcDbLine
 10
278.421562
 20
94.930818
 30
0.0
 11
255.388888
 21
117.963492
 31
0.0
  0
LINE
  5
2F4
330
2DB
100
AcDbEntity
  8
LC-003-005-----0
 62
     7
370
    25
100
AcDbLine
 10
275.732034
 20
91.963492
 30
0.0
 11
249.732034
 21
117.963492
 31
0.0
  0
LINE
  5
2F5
330
2DB
100
AcDbEntity
  8
LC-003-005-----0
 62
     7
370
    25
100
AcDbLine
 10
270.07518
 20
91.963492
 30
0.0
 11
244.07518
 21
117.963492
 31
0.0
  0
LINE
  5
2F6
330
2DB
100
AcDbEntity
  8
LC-003-005-----0
 62
     7
370
    25
100
AcDbLine
 10
264.418325
 20
91.963492
 30
0.0
 11
238.418325
 21
117.963492
 31
0.0
  0
LINE
  5
2F7
330
2DB
100
AcDbEntity
  8
LC-003-005-----0
 62
     7
370
    25
100
AcDbLine
 10
258.761471
 20
91.963492
 30
0.0
 11
232.761471
 21
117.963492
 31
0.0
  0
LINE
  5
2F8
330
2DB
100
AcDbEntity
  8
LC-003-005-----0
 62
     7
370
    25
100
AcDbLine
 10
253.104617
 20
91.963492
 30
0.0
 11
227.104617
 21
117.963492
 31
0.0
  0
LINE
  5
2F9
330
2DB
100
AcDbEntity
  8
LC-003-005-----0
 62
     7
370
    25
100
AcDbLine
 10
247.447763
 20
91.963492
 30
0.0
 11
221.447763
 21
117.963492
 31
0.0
  0
LINE
  5
2FA
330
2DB
100
AcDbEntity
  8
LC-003-005-----0
 62
     7
370
    25
100
AcDbLine
 10
241.790908
 20
91.963492
 30
0.0
 11
215.790908
 21
117.963492
 31
0.0
  0
LINE
  5
2FB
330
2DB
100
AcDbEntity
  8
LC-003-005-----0
 62
     7
370
    25
100
AcDbLine
 10
236.134054
 20
91.963492
 30
0.0
 11
210.134054
 21
117.963492
 31
0.0
  0
LINE
  5
2FC
330
2DB
100
AcDbEntity
  8
LC-003-005-----0
 62
     7
370
    25
100
AcDbLine
 10
230.4772
 20
91.963492
 30
0.0
 11
208.17155
 21
114.269143
 31
0.0
  0
LINE
  5
2FD
330
2DB
100
AcDbEntity
  8
LC-003-005-----0
 62
     7
370
    25
100
AcDbLine
 10
224.820346
 20
91.963492
 30
0.0
 11
208.17155
 21
108.612288
 31
0.0
  0
LINE
  5
2FE
330
2DB
100
AcDbEntity
  8
LC-003-005-----0
 62
     7
370
    25
100
AcDbLine
 10
219.163491
 20
91.963492
 30
0.0
 11
208.17155
 21
102.955434
 31
0.0
  0
LINE
  5
2FF
330
2DB
100
AcDbEntity
  8
LC-003-005-----0
 62
     7
370
    25
100
AcDbLine
 10
213.506637
 20
91.963492
 30
0.0
 11
208.17155
 21
97.29858
 31
0.0
  0
ENDBLK
  5
2DD
330
2DB
100
AcDbEntity
  8
0
100
AcDbBlockEnd
  0
BLOCK
  5
312
330
306
100
AcDbEntity
  8
0
100
AcDbBlockBegin
  2
*D24
 70
     1
 71
     0
 10
0.0
 20
0.0
 30
0.0
  3
*D24
  1

  0
LINE
  5
307
330
306
100
AcDbEntity
  8
LC-004-003-----0
 62
     2
370
    -2
100
AcDbLine
 10
279.671562
 20
91.963492
 30
0.0
 11
331.859343
 21
91.963492
 31
0.0
  0
LINE
  5
308
330
306
100
AcDbEntity
  8
LC-004-003-----0
 62
     2
370
    -2
100
AcDbLine
 10
280.671562
 20
117.963492
 30
0.0
 11
331.859343
 21
117.963492
 31
0.0
  0
LINE
  5
309
330
306
100
AcDbEntity
  8
LC-004-003-----0
 62
     2
370
    -2
100
AcDbLine
 10
328.259343
 20
63.963492
 30
0.0
 11
328.259343
 21
35.963492
 31
0.0
  0
LINE
  5
30A
330
306
100
AcDbEntity
  8
LC-004-003-----0
 62
     2
370
    -2
100
AcDbLine
 10
328.259343
 20
145.963492
 30
0.0
 11
328.259343
 21
173.963492
 31
0.0
  0
LINE
  5
30B
330
306
100
AcDbEntity
  8
LC-004-003-----0
 62
     2
370
    -2
100
AcDbLine
 10
328.259343
 20
91.963492
 30
0.0
 11
328.259343
 21
117.963492
 31
0.0
  0
SOLID
  5
30C
330
306
100
AcDbEntity
  8
LC-004-003-----0
 62
     2
100
AcDbTrace
 10
332.92601
 20
63.963492
 30
0.0
 11
323.592676
 21
63.963492
 31
0.0
 12
328.259343
 22
91.963492
 32
0.0
 13
328.259343
 23
91.963492
 33
0.0
  0
SOLID
  5
30D
330
306
100
AcDbEntity
  8
LC-004-003-----0
 62
     2
100
AcDbTrace
 10
323.592676
 20
145.963492
 30
0.0
 11
332.92601
 21
145.963492
 31
0.0
 12
328.259343
 22
117.963492
 32
0.0
 13
328.259343
 23
117.963492
 33
0.0
  0
MTEXT
  5
30E
330
306
100
AcDbEntity
  8
LC-004-003-----0
 62
     2
100
AcDbMText
 10
297.459343
 20
104.963492
 30
0.0
 40
28.0
 41
0.0
 71
     5
 72
     1
  1
\A1;26
  7
LCTX15-400-0-0pDIN-Schrift
 11
6.123031769111886E-17
 21
1.0
 31
0.0
 73
     1
 44
1.0
  0
POINT
  5
30F
330
306
100
AcDbEntity
  8
Defpoints
 62
     0
100
AcDbPoint
 10
279.671562
 20
91.963492
 30
0.0
  0
POINT
  5
310
330
306
100
AcDbEntity
  8
Defpoints
 62
     0
100
AcDbPoint
 10
280.671562
 20
117.963492
 30
0.0
  0
POINT
  5
311
330
306
100
AcDbEntity
  8
Defpoints
 62
     0
100
AcDbPoint
 10
328.259343
 20
117.963492
 30
0.0
  0
ENDBLK
  5
313
330
306
100
AcDbEntity
  8
0
100
AcDbBlockEnd
  0
BLOCK
  5
320
330
316
100
AcDbEntity
  8
0
100
AcDbBlockBegin
  2
*D25
 70
     1
 71
     0
 10
0.0
 20
0.0
 30
0.0
  3
*D25
  1

  0
LINE
  5
317
330
316
100
AcDbEntity
  8
LC-002-100-D00-0
 62
     2
370
    -2
100
AcDbLine
 10
280.671562
 20
92.963492
 30
0.0
 11
280.671562
 21
157.849684
 31
0.0
  0
LINE
  5
318
330
316
100
AcDbEntity
  8
LC-002-100-D00-0
 62
     2
370
    -2
100
AcDbLine
 10
135.671562
 20
92.963492
 30
0.0
 11
135.671562
 21
157.849684
 31
0.0
  0
LINE
  5
319
330
316
100
AcDbEntity
  8
LC-002-100-D00-0
 62
     2
370
    -2
100
AcDbLine
 10
252.671562
 20
154.249684
 30
0.0
 11
163.671562
 21
154.249684
 31
0.0
  0
SOLID
  5
31A
330
316
100
AcDbEntity
  8
LC-002-100-D00-0
 62
     2
100
AcDbTrace
 10
252.671562
 20
149.583018
 30
0.0
 11
252.671562
 21
158.916351
 31
0.0
 12
280.671562
 22
154.249684
 32
0.0
 13
280.671562
 23
154.249684
 33
0.0
  0
SOLID
  5
31B
330
316
100
AcDbEntity
  8
LC-002-100-D00-0
 62
     2
100
AcDbTrace
 10
163.671562
 20
158.916351
 30
0.0
 11
163.671562
 21
149.583018
 31
0.0
 12
135.671562
 22
154.249684
 32
0.0
 13
135.671562
 23
154.249684
 33
0.0
  0
MTEXT
  5
31C
330
316
100
AcDbEntity
  8
LC-002-100-D00-0
 62
     2
100
AcDbMText
 10
208.171562
 20
185.049684
 30
0.0
 40
28.0
 41
0.0
 71
     5
 72
     1
  1
\A1;%%c145 
  7
LCTX15-400-0-0pDIN-Schrift
 73
     1
 44
1.0
  0
POINT
  5
31D
330
316
100
AcDbEntity
  8
Defpoints
 62
     0
100
AcDbPoint
 10
280.671562
 20
92.963492
 30
0.0
  0
POINT
  5
31E
330
316
100
AcDbEntity
  8
Defpoints
 62
     0
100
AcDbPoint
 10
135.671562
 20
92.963492
 30
0.0
  0
POINT
  5
31F
330
316
100
AcDbEntity
  8
Defpoints
 62
     0
100
AcDbPoint
 10
135.671562
 20
154.249684
 30
0.0
  0
ENDBLK
  5
321
330
316
100
AcDbEntity
  8
0
100
AcDbBlockEnd
  0
BLOCK
  5
32D
330
323
100
AcDbEntity
  8
0
100
AcDbBlockBegin
  2
*D26
 70
     1
 71
     0
 10
0.0
 20
0.0
 30
0.0
  3
*D26
  1

  0
LINE
  5
324
330
323
100
AcDbEntity
  8
LC-004-003-----0
 62
     2
370
    -2
100
AcDbLine
 10
20.671562
 20
241.963465
 30
0.0
 11
20.671562
 21
368.32085
 31
0.0
  0
LINE
  5
325
330
323
100
AcDbEntity
  8
LC-004-003-----0
 62
     2
370
    -2
100
AcDbLine
 10
395.671562
 20
241.963565
 30
0.0
 11
395.671562
 21
368.32085
 31
0.0
  0
LINE
  5
326
330
323
100
AcDbEntity
  8
LC-004-003-----0
 62
     2
370
    -2
100
AcDbLine
 10
48.671562
 20
364.72085
 30
0.0
 11
367.671562
 21
364.72085
 31
0.0
  0
SOLID
  5
327
330
323
100
AcDbEntity
  8
LC-004-003-----0
 62
     2
100
AcDbTrace
 10
48.671562
 20
369.387516
 30
0.0
 11
48.671562
 21
360.054183
 31
0.0
 12
20.671562
 22
364.72085
 32
0.0
 13
20.671562
 23
364.72085
 33
0.0
  0
SOLID
  5
328
330
323
100
AcDbEntity
  8
LC-004-003-----0
 62
     2
100
AcDbTrace
 10
367.671562
 20
360.054183
 30
0.0
 11
367.671562
 21
369.387516
 31
0.0
 12
395.671562
 22
364.72085
 32
0.0
 13
395.671562
 23
364.72085
 33
0.0
  0
MTEXT
  5
329
330
323
100
AcDbEntity
  8
LC-004-003-----0
 62
     2
100
AcDbMText
 10
194.905683
 20
395.52085
 30
0.0
 40
28.0
 41
0.0
 71
     5
 72
     1
  1
%%c\A1;375
  7
LCTX15-400-0-0pDIN-Schrift
 73
     1
 44
1.0
  0
POINT
  5
32A
330
323
100
AcDbEntity
  8
Defpoints
 62
     0
100
AcDbPoint
 10
20.671562
 20
241.963465
 30
0.0
  0
POINT
  5
32B
330
323
100
AcDbEntity
  8
Defpoints
 62
     0
100
AcDbPoint
 10
395.671562
 20
241.963565
 30
0.0
  0
POINT
  5
32C
330
323
100
AcDbEntity
  8
Defpoints
 62
     0
100
AcDbPoint
 10
395.671562
 20
364.72085
 30
0.0
  0
ENDBLK
  5
32E
330
323
100
AcDbEntity
  8
0
100
AcDbBlockEnd
  0
BLOCK
  5
33A
330
330
100
AcDbEntity
  8
0
100
AcDbBlockBegin
  2
*D27
 70
     1
 71
     0
 10
0.0
 20
0.0
 30
0.0
  3
*D27
  1

  0
LINE
  5
331
330
330
100
AcDbEntity
  8
LC-004-003-----0
 62
     2
370
    -2
100
AcDbLine
 10
135.671594
 20
233.83874
 30
0.0
 11
135.671594
 21
317.23685
 31
0.0
  0
LINE
  5
332
330
330
100
AcDbEntity
  8
LC-004-003-----0
 62
     2
370
    -2
100
AcDbLine
 10
280.671506
 20
233.83874
 30
0.0
 11
280.671506
 21
317.23685
 31
0.0
  0
LINE
  5
333
330
330
100
AcDbEntity
  8
LC-004-003-----0
 62
     2
370
    -2
100
AcDbLine
 10
163.671594
 20
313.63685
 30
0.0
 11
252.671506
 21
313.63685
 31
0.0
  0
SOLID
  5
334
330
330
100
AcDbEntity
  8
LC-004-003-----0
 62
     2
100
AcDbTrace
 10
163.671594
 20
318.303516
 30
0.0
 11
163.671594
 21
308.970183
 31
0.0
 12
135.671594
 22
313.63685
 32
0.0
 13
135.671594
 23
313.63685
 33
0.0
  0
SOLID
  5
335
330
330
100
AcDbEntity
  8
LC-004-003-----0
 62
     2
100
AcDbTrace
 10
252.671506
 20
308.970183
 30
0.0
 11
252.671506
 21
318.303516
 31
0.0
 12
280.671506
 22
313.63685
 32
0.0
 13
280.671506
 23
313.63685
 33
0.0
  0
MTEXT
  5
336
330
330
100
AcDbEntity
  8
LC-004-003-----0
 62
     2
100
AcDbMText
 10
193.136901
 20
344.43685
 30
0.0
 40
28.0
 41
0.0
 71
     5
 72
     1
  1
%%c\A1;145
  7
LCTX15-400-0-0pDIN-Schrift
 73
     1
 44
1.0
  0
POINT
  5
337
330
330
100
AcDbEntity
  8
Defpoints
 62
     0
100
AcDbPoint
 10
135.671594
 20
233.83874
 30
0.0
  0
POINT
  5
338
330
330
100
AcDbEntity
  8
Defpoints
 62
     0
100
AcDbPoint
 10
280.671506
 20
233.83874
 30
0.0
  0
POINT
  5
339
330
330
100
AcDbEntity
  8
Defpoints
 62
     0
100
AcDbPoint
 10
280.671506
 20
313.63685
 30
0.0
  0
ENDBLK
  5
33B
330
330
100
AcDbEntity
  8
0
100
AcDbBlockEnd
  0
BLOCK
  5
347
330
33D
100
AcDbEntity
  8
0
100
AcDbBlockBegin
  2
*D28
 70
     1
 71
     0
 10
0.0
 20
0.0
 30
0.0
  3
*D28
  1

  0
LINE
  5
33E
330
33D
100
AcDbEntity
  8
LC-004-003-----0
 62
     2
370
    -2
100
AcDbLine
 10
143.240783
 20
242.963493
 30
0.0
 11
143.240783
 21
261.40085
 31
0.0
  0
LINE
  5
33F
330
33D
100
AcDbEntity
  8
LC-004-003-----0
 62
     2
370
    -2
100
AcDbLine
 10
273.102316
 20
242.963493
 30
0.0
 11
273.102316
 21
261.40085
 31
0.0
  0
LINE
  5
340
330
33D
100
AcDbEntity
  8
LC-004-003-----0
 62
     2
370
    -2
100
AcDbLine
 10
171.240783
 20
257.80085
 30
0.0
 11
245.102316
 21
257.80085
 31
0.0
  0
SOLID
  5
341
330
33D
100
AcDbEntity
  8
LC-004-003-----0
 62
     2
100
AcDbTrace
 10
171.240783
 20
262.467516
 30
0.0
 11
171.240783
 21
253.134183
 31
0.0
 12
143.240783
 22
257.80085
 32
0.0
 13
143.240783
 23
257.80085
 33
0.0
  0
SOLID
  5
342
330
33D
100
AcDbEntity
  8
LC-004-003-----0
 62
     2
100
AcDbTrace
 10
245.102316
 20
253.134183
 30
0.0
 11
245.102316
 21
262.467516
 31
0.0
 12
273.102316
 22
257.80085
 32
0.0
 13
273.102316
 23
257.80085
 33
0.0
  0
MTEXT
  5
343
330
33D
100
AcDbEntity
  8
LC-004-003-----0
 62
     2
100
AcDbMText
 10
204.633985
 20
288.60085
 30
0.0
 40
28.0
 41
0.0
 71
     5
 72
     1
  1
\A1;%%c128,5
  7
LCTX15-400-0-0pDIN-Schrift
 73
     1
 44
1.0
  0
POINT
  5
344
330
33D
100
AcDbEntity
  8
Defpoints
 62
     0
100
AcDbPoint
 10
143.240783
 20
242.963493
 30
0.0
  0
POINT
  5
345
330
33D
100
AcDbEntity
  8
Defpoints
 62
     0
100
AcDbPoint
 10
273.102316
 20
242.963493
 30
0.0
  0
POINT
  5
346
330
33D
100
AcDbEntity
  8
Defpoints
 62
     0
100
AcDbPoint
 10
273.102316
 20
257.80085
 30
0.0
  0
ENDBLK
  5
348
330
33D
100
AcDbEntity
  8
0
100
AcDbBlockEnd
  0
BLOCK
  5
354
330
34A
100
AcDbEntity
  8
0
100
AcDbBlockBegin
  2
*D29
 70
     1
 71
     0
 10
0.0
 20
0.0
 30
0.0
  3
*D29
  1

  0
LINE
  5
34B
330
34A
100
AcDbEntity
  8
LC-004-003-----0
 62
     2
370
    -2
100
AcDbLine
 10
395.67155
 20
244.463488
 30
0.0
 11
449.672737
 21
244.463488
 31
0.0
  0
LINE
  5
34C
330
34A
100
AcDbEntity
  8
LC-004-003-----0
 62
     2
370
    -2
100
AcDbLine
 10
278.17155
 20
117.963492
 30
0.0
 11
449.672737
 21
117.963492
 31
0.0
  0
LINE
  5
34D
330
34A
100
AcDbEntity
  8
LC-004-003-----0
 62
     2
370
    -2
100
AcDbLine
 10
446.072737
 20
216.463488
 30
0.0
 11
446.072737
 21
145.963492
 31
0.0
  0
SOLID
  5
34E
330
34A
100
AcDbEntity
  8
LC-004-003-----0
 62
     2
100
AcDbTrace
 10
450.739404
 20
216.463488
 30
0.0
 11
441.40607
 21
216.463488
 31
0.0
 12
446.072737
 22
244.463488
 32
0.0
 13
446.072737
 23
244.463488
 33
0.0
  0
SOLID
  5
34F
330
34A
100
AcDbEntity
  8
LC-004-003-----0
 62
     2
100
AcDbTrace
 10
441.40607
 20
145.963492
 30
0.0
 11
450.739404
 21
145.963492
 31
0.0
 12
446.072737
 22
117.963492
 32
0.0
 13
446.072737
 23
117.963492
 33
0.0
  0
MTEXT
  5
350
330
34A
100
AcDbEntity
  8
LC-004-003-----0
 62
     2
100
AcDbMText
 10
415.272737
 20
172.99485
 30
0.0
 40
28.0
 41
0.0
 71
     5
 72
     1
  1
\A1;25-125
  7
LCTX15-400-0-0pDIN-Schrift
 11
6.123031769111886E-17
 21
1.0
 31
0.0
 73
     1
 44
1.0
  0
POINT
  5
351
330
34A
100
AcDbEntity
  8
Defpoints
 62
     0
100
AcDbPoint
 10
395.67155
 20
244.463488
 30
0.0
  0
POINT
  5
352
330
34A
100
AcDbEntity
  8
Defpoints
 62
     0
100
AcDbPoint
 10
278.17155
 20
117.963492
 30
0.0
  0
POINT
  5
353
330
34A
100
AcDbEntity
  8
Defpoints
 62
     0
100
AcDbPoint
 10
446.072737
 20
117.963492
 30
0.0
  0
ENDBLK
  5
355
330
34A
100
AcDbEntity
  8
0
100
AcDbBlockEnd
  0
BLOCK
  5
357
330
356
100
AcDbEntity
  8
0
100
AcDbBlockBegin
  2
*X330
 70
     1
 71
     0
 10
0.0
 20
0.0
 30
0.0
  3
*X330
  1

  4
*X3
  0
LINE
  5
359
330
356
100
AcDbEntity
  8
LC-003-005-----0
 62
     7
370
    25
100
AcDbLine
 10
296.170843
 20
77.181538
 30
0.0
 11
293.952945
 21
79.399435
 31
0.0
  0
LINE
  5
35A
330
356
100
AcDbEntity
  8
LC-003-005-----0
  6
DASHED
 62
     7
370
    25
100
AcDbLine
 10
295.562161
 20
72.133365
 30
0.0
 11
289.174959
 21
78.520567
 31
0.0
  0
LINE
  5
35B
330
356
100
AcDbEntity
  8
LC-003-005-----0
  6
DASHED
 62
     7
370
    25
100
AcDbLine
 10
294.768676
 20
70.098423
 30
0.0
 11
289.174959
 21
75.69214
 31
0.0
  0
LINE
  5
35C
330
356
100
AcDbEntity
  8
LC-003-005-----0
 62
     7
370
    25
100
AcDbLine
 10
294.122645
 20
65.0876
 30
0.0
 11
293.174959
 21
66.035286
 31
0.0
  0
ENDBLK
  5
358
330
356
100
AcDbEntity
  8
0
100
AcDbBlockEnd
  0
BLOCK
  5
378
330
377
100
AcDbEntity
  8
0
100
AcDbBlockBegin
  2
*X431
 70
     1
 71
     0
 10
0.0
 20
0.0
 30
0.0
  3
*X431
  1

  4
*X4
  0
LINE
  5
37A
330
377
100
AcDbEntity
  8
LC-003-005-----0
  6
DASHED
 62
     7
370
    25
100
AcDbLine
 10
291.19155
 20
82.160831
 30
0.0
 11
288.69155
 21
84.660831
 31
0.0
  0
LINE
  5
37B
330
377
100
AcDbEntity
  8
LC-003-005-----0
  6
DASHED
 62
     7
370
    25
100
AcDbLine
 10
287.091737
 20
86.260644
 30
0.0
 11
284.591737
 21
88.760644
 31
0.0
  0
LINE
  5
37C
330
377
100
AcDbEntity
  8
LC-003-005-----0
  6
DASHED
 62
     7
370
    25
100
AcDbLine
 10
286.174959
 20
84.348994
 30
0.0
 11
282.007051
 21
88.516902
 31
0.0
  0
LINE
  5
37D
330
377
100
AcDbEntity
  8
LC-003-005-----0
 62
     7
370
    25
100
AcDbLine
 10
286.174959
 20
78.69214
 30
0.0
 11
280.533696
 21
84.333403
 31
0.0
  0
LINE
  5
37E
330
377
100
AcDbEntity
  8
LC-003-005-----0
 62
     7
370
    25
100
AcDbLine
 10
286.174959
 20
75.863713
 30
0.0
 11
281.174959
 21
80.863713
 31
0.0
  0
LINE
  5
37F
330
377
100
AcDbEntity
  8
LC-003-005-----0
  6
DASHED
 62
     7
370
    25
100
AcDbLine
 10
286.174959
 20
70.206858
 30
0.0
 11
281.174959
 21
75.206858
 31
0.0
  0
LINE
  5
380
330
377
100
AcDbEntity
  8
LC-003-005-----0
  6
DASHED
 62
     7
370
    25
100
AcDbLine
 10
286.174959
 20
67.378431
 30
0.0
 11
281.174959
 21
72.378431
 31
0.0
  0
LINE
  5
381
330
377
100
AcDbEntity
  8
LC-003-005-----0
 62
     7
370
    25
100
AcDbLine
 10
282.61544
 20
65.281097
 30
0.0
 11
281.174959
 21
66.721577
 31
0.0
  0
ENDBLK
  5
379
330
377
100
AcDbEntity
  8
0
100
AcDbBlockEnd
  0
BLOCK
  5
389
330
388
100
AcDbEntity
  8
0
100
AcDbBlockBegin
  2
*X532
 70
     1
 71
     0
 10
0.0
 20
0.0
 30
0.0
  3
*X532
  1

  4
*X5
  0
LINE
  5
38B
330
388
100
AcDbEntity
  8
LC-003-005-----0
 62
     7
370
    25
100
AcDbLine
 10
282.552032
 20
53.449435
 30
0.0
 11
284.811762
 21
55.709165
 31
0.0
  0
LINE
  5
38C
330
388
100
AcDbEntity
  8
LC-003-005-----0
 62
     7
370
    25
100
AcDbLine
 10
281.174959
 20
54.900789
 30
0.0
 11
283.174959
 21
56.900789
 31
0.0
  0
LINE
  5
38D
330
388
100
AcDbEntity
  8
LC-003-005-----0
 62
     7
370
    25
100
AcDbLine
 10
284.27485
 20
58.00068
 30
0.0
 11
285.223714
 21
58.949544
 31
0.0
  0
LINE
  5
38E
330
388
100
AcDbEntity
  8
LC-003-005-----0
 62
     7
370
    25
100
AcDbLine
 10
291.253888
 20
64.979718
 30
0.0
 11
293.174959
 21
66.900789
 31
0.0
  0
LINE
  5
38F
330
388
100
AcDbEntity
  8
LC-003-005-----0
 62
     7
370
    25
100
AcDbLine
 10
281.174959
 20
57.729216
 30
0.0
 11
283.895178
 21
60.449435
 31
0.0
  0
LINE
  5
390
330
388
100
AcDbEntity
  8
LC-003-005-----0
 62
     7
370
    25
100
AcDbLine
 10
288.425461
 20
64.979718
 30
0.0
 11
292.564832
 21
69.119089
 31
0.0
  0
LINE
  5
391
330
388
100
AcDbEntity
  8
LC-003-005-----0
 62
     7
370
    25
100
AcDbLine
 10
281.174959
 20
60.557644
 30
0.0
 11
283.174959
 21
62.557644
 31
0.0
  0
LINE
  5
392
330
388
100
AcDbEntity
  8
LC-003-005-----0
 62
     7
370
    25
100
AcDbLine
 10
285.597034
 20
64.979718
 30
0.0
 11
291.578433
 21
70.961118
 31
0.0
  0
LINE
  5
393
330
388
100
AcDbEntity
  8
LC-003-005-----0
 62
     7
370
    25
100
AcDbLine
 10
300.016751
 20
79.399435
 30
0.0
 11
300.219162
 21
79.601847
 31
0.0
  0
LINE
  5
394
330
388
100
AcDbEntity
  8
LC-003-005-----0
 62
     7
370
    25
100
AcDbLine
 10
281.174959
 20
63.386071
 30
0.0
 11
283.690906
 21
65.902018
 31
0.0
  0
LINE
  5
395
330
388
100
AcDbEntity
  8
LC-003-005-----0
 62
     7
370
    25
100
AcDbLine
 10
286.174959
 20
68.386071
 30
0.0
 11
290.592035
 21
72.803146
 31
0.0
  0
LINE
  5
396
330
388
100
AcDbEntity
  8
LC-003-005-----0
 62
     7
370
    25
100
AcDbLine
 10
297.188324
 20
79.399435
 30
0.0
 11
299.738324
 21
81.949435
 31
0.0
  0
LINE
  5
397
330
388
100
AcDbEntity
  8
LC-003-005-----0
 62
     7
370
    25
100
AcDbLine
 10
286.174959
 20
71.214498
 30
0.0
 11
289.605637
 21
74.645175
 31
0.0
  0
LINE
  5
398
330
388
100
AcDbEntity
  8
LC-003-005-----0
 62
     7
370
    25
100
AcDbLine
 10
294.359897
 20
79.399435
 30
0.0
 11
296.909897
 21
81.949435
 31
0.0
  0
LINE
  5
399
330
388
100
AcDbEntity
  8
LC-003-005-----0
 62
     7
370
    25
100
AcDbLine
 10
286.174959
 20
74.042925
 30
0.0
 11
289.174959
 21
77.042925
 31
0.0
  0
LINE
  5
39A
330
388
100
AcDbEntity
  8
LC-003-005-----0
 62
     7
370
    25
100
AcDbLine
 10
291.531469
 20
79.399435
 30
0.0
 11
294.081469
 21
81.949435
 31
0.0
  0
LINE
  5
39B
330
388
100
AcDbEntity
  8
LC-003-005-----0
 62
     7
370
    25
100
AcDbLine
 10
286.174959
 20
76.871352
 30
0.0
 11
291.253042
 21
81.949435
 31
0.0
  0
LINE
  5
39C
330
388
100
AcDbEntity
  8
LC-003-005-----0
 62
     7
370
    25
100
AcDbLine
 10
286.174959
 20
79.699779
 30
0.0
 11
288.69155
 21
82.216369
 31
0.0
  0
LINE
  5
39D
330
388
100
AcDbEntity
  8
LC-003-005-----0
 62
     7
370
    25
100
AcDbLine
 10
286.174959
 20
82.528206
 30
0.0
 11
288.69155
 21
85.044797
 31
0.0
  0
LINE
  5
39E
330
388
100
AcDbEntity
  8
LC-003-005-----0
 62
     7
370
    25
100
AcDbLine
 10
286.174959
 20
85.356633
 30
0.0
 11
287.078969
 21
86.260644
 31
0.0
  0
ENDBLK
  5
38A
330
388
100
AcDbEntity
  8
0
100
AcDbBlockEnd
  0
BLOCK
  5
3BF
330
3BE
100
AcDbEntity
  8
0
100
AcDbBlockBegin
  2
*X633
 70
     1
 71
     0
 10
0.0
 20
0.0
 30
0.0
  3
*X633
  1

  4
*X6
  0
LINE
  5
3C1
330
3BE
100
AcDbEntity
  8
LC-003-005-----0
  6
DASHED
 62
     7
370
    25
100
AcDbLine
 10
135.16814
 20
82.620749
 30
0.0
 11
129.028245
 21
88.760644
 31
0.0
  0
LINE
  5
3C2
330
3BE
100
AcDbEntity
  8
LC-003-005-----0
  6
DASHED
 62
     7
370
    25
100
AcDbLine
 10
135.16814
 20
79.792322
 30
0.0
 11
130.16814
 21
84.792322
 31
0.0
  0
LINE
  5
3C3
330
3BE
100
AcDbEntity
  8
LC-003-005-----0
  6
DASHED
 62
     7
370
    25
100
AcDbLine
 10
128.699818
 20
86.260644
 30
0.0
 11
126.362183
 21
88.598278
 31
0.0
  0
LINE
  5
3C4
330
3BE
100
AcDbEntity
  8
LC-003-005-----0
 62
     7
370
    25
100
AcDbLine
 10
135.16814
 20
74.135467
 30
0.0
 11
130.16814
 21
79.135467
 31
0.0
  0
LINE
  5
3C5
330
3BE
100
AcDbEntity
  8
LC-003-005-----0
 62
     7
370
    25
100
AcDbLine
 10
127.354172
 20
81.949435
 30
0.0
 11
125.15155
 21
84.152058
 31
0.0
  0
LINE
  5
3C6
330
3BE
100
AcDbEntity
  8
LC-003-005-----0
 62
     7
370
    25
100
AcDbLine
 10
135.16814
 20
71.30704
 30
0.0
 11
130.16814
 21
76.30704
 31
0.0
  0
LINE
  5
3C7
330
3BE
100
AcDbEntity
  8
LC-003-005-----0
  6
DASHED
 62
     7
370
    25
100
AcDbLine
 10
135.16814
 20
65.650186
 30
0.0
 11
130.16814
 21
70.650186
 31
0.0
  0
LINE
  5
3C8
330
3BE
100
AcDbEntity
  8
LC-003-005-----0
  6
DASHED
 62
     7
370
    25
100
AcDbLine
 10
131.317017
 20
66.672882
 30
0.0
 11
130.16814
 21
67.821759
 31
0.0
  0
ENDBLK
  5
3C0
330
3BE
100
AcDbEntity
  8
0
100
AcDbBlockEnd
  0
BLOCK
  5
3CF
330
3CE
100
AcDbEntity
  8
0
100
AcDbBlockBegin
  2
*X734
 70
     1
 71
     0
 10
0.0
 20
0.0
 30
0.0
  3
*X734
  1

  4
*X7
  0
LINE
  5
3D1
330
3CE
100
AcDbEntity
  8
LC-003-005-----0
 62
     7
370
    25
100
AcDbLine
 10
132.645395
 20
53.449435
 30
0.0
 11
135.16814
 21
55.97218
 31
0.0
  0
LINE
  5
3D2
330
3CE
100
AcDbEntity
  8
LC-003-005-----0
 62
     7
370
    25
100
AcDbLine
 10
131.11814
 20
54.750607
 30
0.0
 11
132.266967
 21
55.899435
 31
0.0
  0
LINE
  5
3D3
330
3CE
100
AcDbEntity
  8
LC-003-005-----0
 62
     7
370
    25
100
AcDbLine
 10
133.16814
 20
56.800607
 30
0.0
 11
135.16814
 21
58.800607
 31
0.0
  0
LINE
  5
3D4
330
3CE
100
AcDbEntity
  8
LC-003-005-----0
 62
     7
370
    25
100
AcDbLine
 10
131.653199
 20
58.114093
 30
0.0
 11
135.16814
 21
61.629035
 31
0.0
  0
LINE
  5
3D5
330
3CE
100
AcDbEntity
  8
LC-003-005-----0
 62
     7
370
    25
100
AcDbLine
 10
133.16814
 20
62.457462
 30
0.0
 11
135.163051
 21
64.452373
 31
0.0
  0
LINE
  5
3D6
330
3CE
100
AcDbEntity
  8
LC-003-005-----0
 62
     7
370
    25
100
AcDbLine
 10
132.515055
 20
64.632804
 30
0.0
 11
133.3699
 21
65.487649
 31
0.0
  0
LINE
  5
3D7
330
3CE
100
AcDbEntity
  8
LC-003-005-----0
 62
     7
370
    25
100
AcDbLine
 10
130.033542
 20
64.979718
 30
0.0
 11
131.576749
 21
66.522925
 31
0.0
  0
LINE
  5
3D8
330
3CE
100
AcDbEntity
  8
LC-003-005-----0
 62
     7
370
    25
100
AcDbLine
 10
127.205115
 20
64.979718
 30
0.0
 11
130.16814
 21
67.942743
 31
0.0
  0
LINE
  5
3D9
330
3CE
100
AcDbEntity
  8
LC-003-005-----0
 62
     7
370
    25
100
AcDbLine
 10
124.376688
 20
64.979718
 30
0.0
 11
130.16814
 21
70.77117
 31
0.0
  0
LINE
  5
3DA
330
3CE
100
AcDbEntity
  8
LC-003-005-----0
 62
     7
370
    25
100
AcDbLine
 10
123.16814
 20
66.599597
 30
0.0
 11
130.16814
 21
73.599597
 31
0.0
  0
LINE
  5
3DB
330
3CE
100
AcDbEntity
  8
LC-003-005-----0
 62
     7
370
    25
100
AcDbLine
 10
124.837793
 20
71.097678
 30
0.0
 11
130.16814
 21
76.428024
 31
0.0
  0
LINE
  5
3DC
330
3CE
100
AcDbEntity
  8
LC-003-005-----0
 62
     7
370
    25
100
AcDbLine
 10
127.16814
 20
76.256452
 30
0.0
 11
130.16814
 21
79.256452
 31
0.0
  0
LINE
  5
3DD
330
3CE
100
AcDbEntity
  8
LC-003-005-----0
 62
     7
370
    25
100
AcDbLine
 10
127.16814
 20
79.084879
 30
0.0
 11
130.16814
 21
82.084879
 31
0.0
  0
LINE
  5
3DE
330
3CE
100
AcDbEntity
  8
LC-003-005-----0
 62
     7
370
    25
100
AcDbLine
 10
124.654269
 20
79.399435
 30
0.0
 11
127.204269
 21
81.949435
 31
0.0
  0
LINE
  5
3DF
330
3CE
100
AcDbEntity
  8
LC-003-005-----0
 62
     7
370
    25
100
AcDbLine
 10
127.65155
 20
82.396716
 30
0.0
 11
130.16814
 21
84.913306
 31
0.0
  0
LINE
  5
3E0
330
3CE
100
AcDbEntity
  8
LC-003-005-----0
 62
     7
370
    25
100
AcDbLine
 10
121.825842
 20
79.399435
 30
0.0
 11
124.375842
 21
81.949435
 31
0.0
  0
LINE
  5
3E1
330
3CE
100
AcDbEntity
  8
LC-003-005-----0
 62
     7
370
    25
100
AcDbLine
 10
127.65155
 20
85.225143
 30
0.0
 11
128.687051
 21
86.260644
 31
0.0
  0
LINE
  5
3E2
330
3CE
100
AcDbEntity
  8
LC-003-005-----0
 62
     7
370
    25
100
AcDbLine
 10
118.997415
 20
79.399435
 30
0.0
 11
121.547415
 21
81.949435
 31
0.0
  0
LINE
  5
3E3
330
3CE
100
AcDbEntity
  8
LC-003-005-----0
 62
     7
370
    25
100
AcDbLine
 10
116.168988
 20
79.399435
 30
0.0
 11
118.718988
 21
81.949435
 31
0.0
  0
ENDBLK
  5
3D0
330
3CE
100
AcDbEntity
  8
0
100
AcDbBlockEnd
  0
BLOCK
  5
3F6
330
3F5
100
AcDbEntity
  8
0
100
AcDbBlockBegin
  2
*X835
 70
     1
 71
     0
 10
0.0
 20
0.0
 30
0.0
  3
*X835
  1

  4
*X8
  0
LINE
  5
3F8
330
3F5
100
AcDbEntity
  8
LC-003-005-----0
 62
     7
370
    25
100
AcDbLine
 10
127.16814
 20
79.30704
 30
0.0
 11
127.075745
 21
79.399435
 31
0.0
  0
LINE
  5
3F9
330
3F5
100
AcDbEntity
  8
LC-003-005-----0
  6
DASHED
 62
     7
370
    25
100
AcDbLine
 10
126.540662
 20
74.277664
 30
0.0
 11
121.418891
 21
79.399435
 31
0.0
  0
LINE
  5
3FA
330
3F5
100
AcDbEntity
  8
LC-003-005-----0
  6
DASHED
 62
     7
370
    25
100
AcDbLine
 10
125.554263
 20
72.435635
 30
0.0
 11
120.172256
 21
77.817642
 31
0.0
  0
LINE
  5
3FB
330
3F5
100
AcDbEntity
  8
LC-003-005-----0
 62
     7
370
    25
100
AcDbLine
 10
123.581467
 20
68.751578
 30
0.0
 11
121.079806
 21
71.253238
 31
0.0
  0
LINE
  5
3FC
330
3F5
100
AcDbEntity
  8
LC-003-005-----0
 62
     7
370
    25
100
AcDbLine
 10
123.16814
 20
66.336478
 30
0.0
 11
121.672256
 21
67.832361
 31
0.0
  0
ENDBLK
  5
3F7
330
3F5
100
AcDbEntity
  8
0
100
AcDbBlockEnd
  0
BLOCK
  5
415
330
414
100
AcDbEntity
  8
0
100
AcDbBlockBegin
  2
*X936
 70
     1
 71
     0
 10
0.0
 20
0.0
 30
0.0
  3
*X936
  1

  4
*X9
  0
LINE
  5
417
330
414
100
AcDbEntity
  8
LC-003-005-----0
 62
     7
370
    25
100
AcDbLine
 10
280.000587
 20
33.927428
 30
0.0
 11
280.17155
 21
34.09839
 31
0.0
  0
LINE
  5
418
330
414
100
AcDbEntity
  8
LC-003-005-----0
 62
     7
370
    25
100
AcDbLine
 10
277.17216
 20
33.927428
 30
0.0
 11
280.17155
 21
36.926817
 31
0.0
  0
LINE
  5
419
330
414
100
AcDbEntity
  8
LC-003-005-----0
 62
     7
370
    25
100
AcDbLine
 10
274.343733
 20
33.927428
 30
0.0
 11
280.17155
 21
39.755244
 31
0.0
  0
LINE
  5
41A
330
414
100
AcDbEntity
  8
LC-003-005-----0
 62
     7
370
    25
100
AcDbLine
 10
273.671856
 20
36.083978
 30
0.0
 11
279.515306
 21
41.927428
 31
0.0
  0
LINE
  5
41B
330
414
100
AcDbEntity
  8
LC-003-005-----0
 62
     7
370
    25
100
AcDbLine
 10
273.671856
 20
38.912405
 30
0.0
 11
276.686879
 21
41.927428
 31
0.0
  0
LINE
  5
41C
330
414
100
AcDbEntity
  8
LC-003-005-----0
 62
     7
370
    25
100
AcDbLine
 10
273.671856
 20
41.740832
 30
0.0
 11
273.858452
 21
41.927428
 31
0.0
  0
ENDBLK
  5
416
330
414
100
AcDbEntity
  8
0
100
AcDbBlockEnd
  0
BLOCK
  5
41F
330
41E
100
AcDbEntity
  8
0
100
AcDbBlockBegin
  2
*X1037
 70
     1
 71
     0
 10
0.0
 20
0.0
 30
0.0
  3
*X1037
  1

  4
*X10
  0
LINE
  5
421
330
41E
100
AcDbEntity
  8
LC-003-005-----0
 62
     7
370
    25
100
AcDbLine
 10
188.834065
 20
38.927428
 30
0.0
 11
191.471676
 21
41.565039
 31
0.0
  0
LINE
  5
422
330
41E
100
AcDbEntity
  8
LC-003-005-----0
 62
     7
370
    25
100
AcDbLine
 10
186.005638
 20
38.927428
 30
0.0
 11
189.967044
 21
42.888833
 31
0.0
  0
LINE
  5
423
330
41E
100
AcDbEntity
  8
LC-003-005-----0
 62
     7
370
    25
100
AcDbLine
 10
183.177211
 20
38.927428
 30
0.0
 11
187.177211
 21
42.927428
 31
0.0
  0
LINE
  5
424
330
41E
100
AcDbEntity
  8
LC-003-005-----0
 62
     7
370
    25
100
AcDbLine
 10
180.348784
 20
38.927428
 30
0.0
 11
184.348784
 21
42.927428
 31
0.0
  0
LINE
  5
425
330
41E
100
AcDbEntity
  8
LC-003-005-----0
 62
     7
370
    25
100
AcDbLine
 10
177.520357
 20
38.927428
 30
0.0
 11
181.520357
 21
42.927428
 31
0.0
  0
LINE
  5
426
330
41E
100
AcDbEntity
  8
LC-003-005-----0
 62
     7
370
    25
100
AcDbLine
 10
174.69193
 20
38.927428
 30
0.0
 11
178.69193
 21
42.927428
 31
0.0
  0
LINE
  5
427
330
41E
100
AcDbEntity
  8
LC-003-005-----0
 62
     7
370
    25
100
AcDbLine
 10
172.863502
 20
39.927428
 30
0.0
 11
175.863502
 21
42.927428
 31
0.0
  0
LINE
  5
428
330
41E
100
AcDbEntity
  8
LC-003-005-----0
 62
     7
370
    25
100
AcDbLine
 10
170.035075
 20
39.927428
 30
0.0
 11
172.035075
 21
41.927428
 31
0.0
  0
LINE
  5
429
330
41E
100
AcDbEntity
  8
LC-003-005-----0
 62
     7
370
    25
100
AcDbLine
 10
167.206648
 20
39.927428
 30
0.0
 11
169.206648
 21
41.927428
 31
0.0
  0
LINE
  5
42A
330
41E
100
AcDbEntity
  8
LC-003-005-----0
 62
     7
370
    25
100
AcDbLine
 10
164.378221
 20
39.927428
 30
0.0
 11
166.378221
 21
41.927428
 31
0.0
  0
LINE
  5
42B
330
41E
100
AcDbEntity
  8
LC-003-005-----0
 62
     7
370
    25
100
AcDbLine
 10
161.549794
 20
39.927428
 30
0.0
 11
163.549794
 21
41.927428
 31
0.0
  0
LINE
  5
42C
330
41E
100
AcDbEntity
  8
LC-003-005-----0
 62
     7
370
    25
100
AcDbLine
 10
158.721367
 20
39.927428
 30
0.0
 11
160.721367
 21
41.927428
 31
0.0
  0
LINE
  5
42D
330
41E
100
AcDbEntity
  8
LC-003-005-----0
 62
     7
370
    25
100
AcDbLine
 10
155.89294
 20
39.927428
 30
0.0
 11
157.89294
 21
41.927428
 31
0.0
  0
LINE
  5
42E
330
41E
100
AcDbEntity
  8
LC-003-005-----0
 62
     7
370
    25
100
AcDbLine
 10
153.064513
 20
39.927428
 30
0.0
 11
155.064513
 21
41.927428
 31
0.0
  0
LINE
  5
42F
330
41E
100
AcDbEntity
  8
LC-003-005-----0
 62
     7
370
    25
100
AcDbLine
 10
150.236085
 20
39.927428
 30
0.0
 11
152.236085
 21
41.927428
 31
0.0
  0
LINE
  5
430
330
41E
100
AcDbEntity
  8
LC-003-005-----0
 62
     7
370
    25
100
AcDbLine
 10
147.407658
 20
39.927428
 30
0.0
 11
149.407658
 21
41.927428
 31
0.0
  0
LINE
  5
431
330
41E
100
AcDbEntity
  8
LC-003-005-----0
 62
     7
370
    25
100
AcDbLine
 10
144.579231
 20
39.927428
 30
0.0
 11
146.579231
 21
41.927428
 31
0.0
  0
LINE
  5
432
330
41E
100
AcDbEntity
  8
LC-003-005-----0
 62
     7
370
    25
100
AcDbLine
 10
135.750804
 20
33.927428
 30
0.0
 11
137.171244
 21
35.347867
 31
0.0
  0
LINE
  5
433
330
41E
100
AcDbEntity
  8
LC-003-005-----0
 62
     7
370
    25
100
AcDbLine
 10
141.750804
 20
39.927428
 30
0.0
 11
143.750804
 21
41.927428
 31
0.0
  0
LINE
  5
434
330
41E
100
AcDbEntity
  8
LC-003-005-----0
 62
     7
370
    25
100
AcDbLine
 10
135.671244
 20
36.676294
 30
0.0
 11
137.171244
 21
38.176294
 31
0.0
  0
LINE
  5
435
330
41E
100
AcDbEntity
  8
LC-003-005-----0
 62
     7
370
    25
100
AcDbLine
 10
138.922377
 20
39.927428
 30
0.0
 11
140.922377
 21
41.927428
 31
0.0
  0
LINE
  5
436
330
41E
100
AcDbEntity
  8
LC-003-005-----0
 62
     7
370
    25
100
AcDbLine
 10
135.671244
 20
39.504721
 30
0.0
 11
138.09395
 21
41.927428
 31
0.0
  0
ENDBLK
  5
420
330
41E
100
AcDbEntity
  8
0
100
AcDbBlockEnd
  0
BLOCK
  5
444
330
439
100
AcDbEntity
  8
0
100
AcDbBlockBegin
  2
*D38
 70
     1
 71
     0
 10
0.0
 20
0.0
 30
0.0
  3
*D38
  1

  0
LINE
  5
43A
330
439
100
AcDbEntity
  8
LC-004-003-----0
 62
     2
370
    -2
100
AcDbLine
 10
20.67155
 20
244.463488
 30
0.0
 11
72.272381
 21
244.463488
 31
0.0
  0
LINE
  5
43B
330
439
100
AcDbEntity
  8
LC-004-003-----0
 62
     2
370
    -2
100
AcDbLine
 10
90.171549
 20
235.963494
 30
0.0
 11
65.072381
 21
235.963494
 31
0.0
  0
LINE
  5
43C
330
439
100
AcDbEntity
  8
LC-004-003-----0
 62
     2
370
    -2
100
AcDbLine
 10
68.672381
 20
272.463488
 30
0.0
 11
68.672381
 21
300.463488
 31
0.0
  0
LINE
  5
43D
330
439
100
AcDbEntity
  8
LC-004-003-----0
 62
     2
370
    -2
100
AcDbLine
 10
68.672381
 20
207.963494
 30
0.0
 11
68.672381
 21
151.686092
 31
0.0
  0
SOLID
  5
43E
330
439
100
AcDbEntity
  8
LC-004-003-----0
 62
     2
100
AcDbTrace
 10
64.005714
 20
272.463488
 30
0.0
 11
73.339048
 21
272.463488
 31
0.0
 12
68.672381
 22
244.463488
 32
0.0
 13
68.672381
 23
244.463488
 33
0.0
  0
SOLID
  5
43F
330
439
100
AcDbEntity
  8
LC-004-003-----0
 62
     2
100
AcDbTrace
 10
73.339048
 20
207.963494
 30
0.0
 11
64.005714
 21
207.963494
 31
0.0
 12
68.672381
 22
235.963494
 32
0.0
 13
68.672381
 23
235.963494
 33
0.0
  0
MTEXT
  5
440
330
439
100
AcDbEntity
  8
LC-004-003-----0
 62
     2
100
AcDbMText
 10
37.872381
 20
180.12285
 30
0.0
 40
28.0
 41
0.0
 71
     5
 72
     1
  1
\A1;8,5
  7
LCTX15-400-0-0pDIN-Schrift
 11
6.123031769111886E-17
 21
1.0
 31
0.0
 73
     1
 44
1.0
  0
POINT
  5
441
330
439
100
AcDbEntity
  8
Defpoints
 62
     0
100
AcDbPoint
 10
20.67155
 20
244.463488
 30
0.0
  0
POINT
  5
442
330
439
100
AcDbEntity
  8
Defpoints
 62
     0
100
AcDbPoint
 10
90.171549
 20
235.963494
 30
0.0
  0
POINT
  5
443
330
439
100
AcDbEntity
  8
Defpoints
 62
     0
100
AcDbPoint
 10
68.672381
 20
235.963494
 30
0.0
  0
ENDBLK
  5
445
330
439
100
AcDbEntity
  8
0
100
AcDbBlockEnd
  0
BLOCK
  5
452
330
447
100
AcDbEntity
  8
0
100
AcDbBlockBegin
  2
*D39
 70
     1
 71
     0
 10
0.0
 20
0.0
 30
0.0
  3
*D39
  1

  0
LINE
  5
448
330
447
100
AcDbEntity
  8
LC-004-003-----0
 62
     2
370
    -2
100
AcDbLine
 10
20.67155
 20
244.463488
 30
0.0
 11
-4.144757
 21
244.463488
 31
0.0
  0
LINE
  5
449
330
447
100
AcDbEntity
  8
LC-004-003-----0
 62
     2
370
    -2
100
AcDbLine
 10
29.618371
 20
226.463488
 30
0.0
 11
-4.144757
 21
226.463488
 31
0.0
  0
LINE
  5
44A
330
447
100
AcDbEntity
  8
LC-004-003-----0
 62
     2
370
    -2
100
AcDbLine
 10
-0.544757
 20
272.463488
 30
0.0
 11
-0.544757
 21
300.463488
 31
0.0
  0
LINE
  5
44B
330
447
100
AcDbEntity
  8
LC-004-003-----0
 62
     2
370
    -2
100
AcDbLine
 10
-0.544757
 20
198.463488
 30
0.0
 11
-0.544757
 21
198.748125
 31
0.0
  0
SOLID
  5
44C
330
447
100
AcDbEntity
  8
LC-004-003-----0
 62
     2
100
AcDbTrace
 10
-5.211424
 20
272.463488
 30
0.0
 11
4.121909
 21
272.463488
 31
0.0
 12
-0.544757
 22
244.463488
 32
0.0
 13
-0.544757
 23
244.463488
 33
0.0
  0
SOLID
  5
44D
330
447
100
AcDbEntity
  8
LC-004-003-----0
 62
     2
100
AcDbTrace
 10
4.121909
 20
198.463488
 30
0.0
 11
-5.211424
 21
198.463488
 31
0.0
 12
-0.544757
 22
226.463488
 32
0.0
 13
-0.544757
 23
226.463488
 33
0.0
  0
MTEXT
  5
44E
330
447
100
AcDbEntity
  8
LC-004-003-----0
 62
     2
100
AcDbMText
 10
-31.344757
 20
218.296848
 30
0.0
 40
28.0
 41
0.0
 71
     5
 72
     1
  1
\A1;18
  7
LCTX15-400-0-0pDIN-Schrift
 11
6.123031769111886E-17
 21
1.0
 31
0.0
 73
     1
 44
1.0
  0
POINT
  5
44F
330
447
100
AcDbEntity
  8
Defpoints
 62
     0
100
AcDbPoint
 10
20.67155
 20
244.463488
 30
0.0
  0
POINT
  5
450
330
447
100
AcDbEntity
  8
Defpoints
 62
     0
100
AcDbPoint
 10
29.618371
 20
226.463488
 30
0.0
  0
POINT
  5
451
330
447
100
AcDbEntity
  8
Defpoints
 62
     0
100
AcDbPoint
 10
-0.544757
 20
226.463488
 30
0.0
  0
ENDBLK
  5
453
330
447
100
AcDbEntity
  8
0
100
AcDbBlockEnd
  0
BLOCK
  5
478
330
477
100
AcDbEntity
  8
0
100
AcDbBlockBegin
  2
KLON9
 70
     0
 71
     0
 10
0.0
 20
0.0
 30
0.0
  3
KLON9
  1

  4
KLON9
  0
LINE
  5
47A
330
477
100
AcDbEntity
  8
LC-002-100-D00-0
 62
     7
370
    15
100
AcDbLine
 10
375.91322
 20
237.963489
 30
0.0
 11
377.127352
 21
233.432255
 31
0.0
  0
LINE
  5
47B
330
477
100
AcDbEntity
  8
LC-002-100-D00-0
 62
     7
370
    15
100
AcDbLine
 10
377.127352
 20
233.432255
 30
0.0
 11
378.324765
 21
228.963486
 31
0.0
  0
ENDBLK
  5
479
330
477
100
AcDbEntity
  8
0
100
AcDbBlockEnd
  0
BLOCK
  5
488
330
487
100
AcDbEntity
  8
0
100
AcDbBlockBegin
  2
POLY14
 70
     0
 71
     0
 10
0.0
 20
0.0
 30
0.0
  3
POLY14
  1

  4
POLY14
  0
LINE
  5
48A
330
487
100
AcDbEntity
  8
LC-002-100-D00-0
 62
     7
370
    50
100
AcDbLine
 10
330.897127
 20
226.463488
 30
0.0
 11
330.897127
 21
226.463488
 31
0.0
  0
LINE
  5
48B
330
487
100
AcDbEntity
  8
LC-002-100-D00-0
 62
     7
370
    50
100
AcDbLine
 10
330.897127
 20
226.463488
 30
0.0
 11
330.897618
 21
226.463492
 31
0.0
  0
LINE
  5
48C
330
487
100
AcDbEntity
  8
LC-002-100-D00-0
 62
     7
370
    50
100
AcDbLine
 10
330.897618
 20
226.463492
 30
0.0
 11
330.897618
 21
226.463492
 31
0.0
  0
LINE
  5
48D
330
487
100
AcDbEntity
  8
LC-002-100-D00-0
 62
     7
370
    50
100
AcDbLine
 10
330.897618
 20
226.463492
 30
0.0
 11
330.929105
 21
226.463695
 31
0.0
  0
LINE
  5
48E
330
487
100
AcDbEntity
  8
LC-002-100-D00-0
 62
     7
370
    50
100
AcDbLine
 10
330.929105
 20
226.463695
 30
0.0
 11
330.929105
 21
226.463695
 31
0.0
  0
LINE
  5
48F
330
487
100
AcDbEntity
  8
LC-002-100-D00-0
 62
     7
370
    50
100
AcDbLine
 10
330.929105
 20
226.463695
 30
0.0
 11
330.991189
 21
226.504317
 31
0.0
  0
LINE
  5
490
330
487
100
AcDbEntity
  8
LC-002-100-D00-0
 62
     7
370
    50
100
AcDbLine
 10
330.991189
 20
226.504317
 30
0.0
 11
330.991189
 21
226.504317
 31
0.0
  0
LINE
  5
491
330
487
100
AcDbEntity
  8
LC-002-100-D00-0
 62
     7
370
    50
100
AcDbLine
 10
330.991189
 20
226.504317
 30
0.0
 11
331.077434
 21
226.669185
 31
0.0
  0
LINE
  5
492
330
487
100
AcDbEntity
  8
LC-002-100-D00-0
 62
     7
370
    50
100
AcDbLine
 10
331.077434
 20
226.669185
 30
0.0
 11
331.077434
 21
226.669185
 31
0.0
  0
LINE
  5
493
330
487
100
AcDbEntity
  8
LC-002-100-D00-0
 62
     7
370
    50
100
AcDbLine
 10
331.077434
 20
226.669185
 30
0.0
 11
331.147499
 21
226.901695
 31
0.0
  0
LINE
  5
494
330
487
100
AcDbEntity
  8
LC-002-100-D00-0
 62
     7
370
    50
100
AcDbLine
 10
331.147499
 20
226.901695
 30
0.0
 11
331.147499
 21
226.901695
 31
0.0
  0
LINE
  5
495
330
487
100
AcDbEntity
  8
LC-002-100-D00-0
 62
     7
370
    50
100
AcDbLine
 10
331.147499
 20
226.901695
 30
0.0
 11
331.172216
 21
227.103578
 31
0.0
  0
LINE
  5
496
330
487
100
AcDbEntity
  8
LC-002-100-D00-0
 62
     7
370
    50
100
AcDbLine
 10
331.172216
 20
227.103578
 30
0.0
 11
331.172216
 21
227.103578
 31
0.0
  0
LINE
  5
497
330
487
100
AcDbEntity
  8
LC-002-100-D00-0
 62
     7
370
    50
100
AcDbLine
 10
331.172216
 20
227.103578
 30
0.0
 11
331.184593
 21
227.204672
 31
0.0
  0
ENDBLK
  5
489
330
487
100
AcDbEntity
  8
0
100
AcDbBlockEnd
  0
ENDSEC
  0
SECTION
  2
ENTITIES
  0
LINE
  5
32
330
1F
100
AcDbEntity
  8
LC-001-002-----0
 62
     7
370
    25
100
AcDbLine
 10
208.17155
 20
91.963492
 30
0.0
 11
208.17155
 21
242.963493
 31
0.0
  0
LINE
  5
33
330
1F
100
AcDbEntity
  8
LC-001-002-----0
 62
     7
370
    25
100
AcDbLine
 10
208.171537
 20
-163.20915
 30
0.0
 11
208.171537
 21
24.29085
 31
0.0
  0
LINE
  5
34
330
1F
100
AcDbEntity
  8
LC-001-002-----0
  6
ByBlock
 62
     7
370
    50
100
AcDbLine
 10
40.429879
 20
237.963489
 30
0.0
 11
41.501674
 21
241.963491
 31
0.0
  0
LINE
  5
35
330
1F
100
AcDbEntity
  8
LC-001-002-----0
  6
ByBlock
 62
     7
370
    50
100
AcDbLine
 10
40.047064
 20
227.204673
 30
0.0
 11
44.001672
 21
241.963491
 31
0.0
  0
LINE
  5
36
330
1F
100
AcDbEntity
  8
LC-001-002-----0
  6
ByBlock
 62
     7
370
    50
100
AcDbLine
 10
92.26665
 20
235.963494
 30
0.0
 11
90.420321
 21
227.27314
 31
0.0
  0
ARC
  5
38
330
1F
100
AcDbEntity
  8
LC-002-100-D00-0
 62
     7
370
    50
100
AcDbCircle
 10
208.171537
 20
-163.20915
 30
0.0
 40
167.4099255856655
100
AcDbArc
 50
155.029589
 51
159.970411
  0
ARC
  5
39
330
1F
100
AcDbEntity
  8
LC-002-100-D00-0
 62
     7
370
    50
100
AcDbCircle
 10
208.171537
 20
-163.20915
 30
0.0
 40
166.5
100
AcDbArc
 50
155.029589
 51
159.970411
  0
ARC
  5
3A
330
1F
100
AcDbEntity
  8
LC-002-100-D00-0
 62
     7
370
    50
100
AcDbCircle
 10
208.171537
 20
-163.20915
 30
0.0
 40
180.5900744143345
100
AcDbArc
 50
110.029589
 51
114.970411
  0
ARC
  5
3B
330
1F
100
AcDbEntity
  8
LC-002-100-D00-0
 62
     7
370
    50
100
AcDbCircle
 10
208.171537
 20
-163.20915
 30
0.0
 40
181.5
100
AcDbArc
 50
110.029589
 51
114.970411
  0
ARC
  5
3C
330
1F
100
AcDbEntity
  8
LC-002-100-D00-0
 62
     7
370
    50
100
AcDbCircle
 10
134.717408
 20
-5.473641
 30
0.0
 40
6.590074414334525
100
AcDbArc
 50
114.970411
 51
294.970411
  0
ARC
  5
3D
330
1F
100
AcDbEntity
  8
LC-002-100-D00-0
 62
     7
370
    50
100
AcDbCircle
 10
134.717408
 20
-5.473641
 30
0.0
 40
7.500000000000061
100
AcDbArc
 50
114.970411
 51
294.970411
  0
ARC
  5
3E
330
1F
100
AcDbEntity
  8
LC-002-100-D00-0
 62
     7
370
    50
100
AcDbCircle
 10
208.171537
 20
-163.20915
 30
0.0
 40
167.4099255856655
100
AcDbArc
 50
142.529589
 51
147.470411
  0
ARC
  5
3F
330
1F
100
AcDbEntity
  8
LC-002-100-D00-0
 62
     7
370
    50
100
AcDbCircle
 10
208.171537
 20
-163.20915
 30
0.0
 40
166.5000000000001
100
AcDbArc
 50
142.529589
 51
147.470411
  0
ARC
  5
40
330
1F
100
AcDbEntity
  8
LC-002-100-D00-0
 62
     7
370
    50
100
AcDbCircle
 10
208.171537
 20
-163.20915
 30
0.0
 40
164.0000000000001
100
AcDbArc
 50
0.0
 51
180.0
  0
ARC
  5
41
330
1F
100
AcDbEntity
  8
LC-002-100-D00-0
 62
     7
370
    50
100
AcDbCircle
 10
208.171537
 20
-163.20915
 30
0.0
 40
187.5000000000001
100
AcDbArc
 50
0.0
 51
180.0
  0
CIRCLE
  5
42
330
1F
100
AcDbEntity
  8
LC-002-100-D00-0
 62
     7
370
    50
100
AcDbCircle
 10
208.171537
 20
10.79085
 30
0.0
 40
8.0
  0
CIRCLE
  5
43
330
1F
100
AcDbEntity
  8
LC-002-100-D00-0
 62
     7
370
    50
100
AcDbCircle
 10
331.208117
 20
-40.17257
 30
0.0
 40
8.0
  0
ARC
  5
44
330
1F
100
AcDbEntity
  8
LC-002-100-D00-0
 62
     7
370
    50
100
AcDbCircle
 10
382.171537
 20
-163.20915
 30
0.0
 40
7.999999999996362
100
AcDbArc
 50
0.0
 51
180.0
  0
ARC
  5
45
330
1F
100
AcDbEntity
  8
LC-002-100-D00-0
 62
     7
370
    50
100
AcDbCircle
 10
34.171537
 20
-163.20915
 30
0.0
 40
7.999999999999844
100
AcDbArc
 50
0.0
 51
180.0
  0
CIRCLE
  5
46
330
1F
100
AcDbEntity
  8
LC-002-100-D00-0
 62
     7
370
    50
100
AcDbCircle
 10
85.134957
 20
-40.17257
 30
0.0
 40
8.0
  0
ARC
  5
47
330
1F
100
AcDbEntity
  8
LC-002-100-D00-0
 62
     7
370
    50
100
AcDbCircle
 10
230.972181
 20
9.290504
 30
0.0
 40
7.500000000000068
100
AcDbArc
 50
82.470411
 51
262.470411
  0
ARC
  5
48
330
1F
100
AcDbEntity
  8
LC-002-100-D00-0
 62
     7
370
    50
100
AcDbCircle
 10
208.171537
 20
-163.20915
 30
0.0
 40
166.4999999999999
100
AcDbArc
 50
77.529589
 51
82.470411
  0
ARC
  5
49
330
1F
100
AcDbEntity
  8
LC-002-100-D00-0
 62
     7
370
    50
100
AcDbCircle
 10
245.744297
 20
6.685781
 30
0.0
 40
7.500000000000047
100
AcDbArc
 50
257.529589
 51
77.529589
  0
ARC
  5
4A
330
1F
100
AcDbEntity
  8
LC-002-100-D00-0
 62
     7
370
    50
100
AcDbCircle
 10
208.171537
 20
-163.20915
 30
0.0
 40
181.4999999999999
100
AcDbArc
 50
77.529589
 51
82.470411
  0
ARC
  5
4B
330
1F
100
AcDbEntity
  8
LC-002-100-D00-0
 62
     7
370
    50
100
AcDbCircle
 10
267.767473
 20
0.266611
 30
0.0
 40
7.499999999999981
100
AcDbArc
 50
69.970411
 51
249.970411
  0
ARC
  5
4C
330
1F
100
AcDbEntity
  8
LC-002-100-D00-0
 62
     7
370
    50
100
AcDbCircle
 10
208.171537
 20
-163.20915
 30
0.0
 40
166.5
100
AcDbArc
 50
65.029589
 51
69.970411
  0
ARC
  5
4D
330
1F
100
AcDbEntity
  8
LC-002-100-D00-0
 62
     7
370
    50
100
AcDbCircle
 10
281.625666
 20
-5.473641
 30
0.0
 40
7.499999999999988
100
AcDbArc
 50
245.029589
 51
65.029589
  0
ARC
  5
4E
330
1F
100
AcDbEntity
  8
LC-002-100-D00-0
 62
     7
370
    50
100
AcDbCircle
 10
208.171537
 20
-163.20915
 30
0.0
 40
181.5
100
AcDbArc
 50
65.029589
 51
69.970411
  0
ARC
  5
4F
330
1F
100
AcDbEntity
  8
LC-002-100-D00-0
 62
     7
370
    50
100
AcDbCircle
 10
301.737442
 20
-16.507339
 30
0.0
 40
7.499999999999999
100
AcDbArc
 50
57.470411
 51
237.470411
  0
ARC
  5
50
330
1F
100
AcDbEntity
  8
LC-002-100-D00-0
 62
     7
370
    50
100
AcDbCircle
 10
208.171537
 20
-163.20915
 30
0.0
 40
166.5
100
AcDbArc
 50
52.529589
 51
57.470411
  0
ARC
  5
51
330
1F
100
AcDbEntity
  8
LC-002-100-D00-0
 62
     7
370
    50
100
AcDbCircle
 10
314.024722
 20
-25.110985
 30
0.0
 40
7.500000000000028
100
AcDbArc
 50
232.529589
 51
52.529589
  0
ARC
  5
52
330
1F
100
AcDbEntity
  8
LC-002-100-D00-0
 62
     7
370
    50
100
AcDbCircle
 10
208.171537
 20
-163.20915
 30
0.0
 40
181.5
100
AcDbArc
 50
52.529589
 51
57.470411
  0
ARC
  5
53
330
1F
100
AcDbEntity
  8
LC-002-100-D00-0
 62
     7
370
    50
100
AcDbCircle
 10
346.269702
 20
-57.355965
 30
0.0
 40
7.500000000000012
100
AcDbArc
 50
37.470411
 51
217.470411
  0
ARC
  5
54
330
1F
100
AcDbEntity
  8
LC-002-100-D00-0
 62
     7
370
    50
100
AcDbCircle
 10
208.171537
 20
-163.20915
 30
0.0
 40
166.5000000000001
100
AcDbArc
 50
32.529589
 51
37.470411
  0
ARC
  5
55
330
1F
100
AcDbEntity
  8
LC-002-100-D00-0
 62
     7
370
    50
100
AcDbCircle
 10
354.873348
 20
-69.643245
 30
0.0
 40
7.500000000000062
100
AcDbArc
 50
212.529589
 51
32.529589
  0
ARC
  5
56
330
1F
100
AcDbEntity
  8
LC-002-100-D00-0
 62
     7
370
    50
100
AcDbCircle
 10
208.171537
 20
-163.20915
 30
0.0
 40
181.5000000000001
100
AcDbArc
 50
32.529589
 51
37.470411
  0
ARC
  5
57
330
1F
100
AcDbEntity
  8
LC-002-100-D00-0
 62
     7
370
    50
100
AcDbCircle
 10
365.907047
 20
-89.755021
 30
0.0
 40
7.499999999999999
100
AcDbArc
 50
24.970411
 51
204.970411
  0
ARC
  5
58
330
1F
100
AcDbEntity
  8
LC-002-100-D00-0
 62
     7
370
    50
100
AcDbCircle
 10
208.171537
 20
-163.20915
 30
0.0
 40
166.5000000000002
100
AcDbArc
 50
20.029589
 51
24.970411
  0
ARC
  5
59
330
1F
100
AcDbEntity
  8
LC-002-100-D00-0
 62
     7
370
    50
100
AcDbCircle
 10
371.647298
 20
-103.613214
 30
0.0
 40
7.500000000000011
100
AcDbArc
 50
200.029589
 51
20.029589
  0
ARC
  5
5A
330
1F
100
AcDbEntity
  8
LC-002-100-D00-0
 62
     7
370
    50
100
AcDbCircle
 10
208.171537
 20
-163.20915
 30
0.0
 40
181.5000000000001
100
AcDbArc
 50
20.029589
 51
24.970411
  0
ARC
  5
5B
330
1F
100
AcDbEntity
  8
LC-002-100-D00-0
 62
     7
370
    50
100
AcDbCircle
 10
378.066468
 20
-125.63639
 30
0.0
 40
7.500000000000104
100
AcDbArc
 50
12.470411
 51
192.470411
  0
ARC
  5
5C
330
1F
100
AcDbEntity
  8
LC-002-100-D00-0
 62
     7
370
    50
100
AcDbCircle
 10
208.171537
 20
-163.20915
 30
0.0
 40
166.5000000000001
100
AcDbArc
 50
7.529589
 51
12.470411
  0
ARC
  5
5D
330
1F
100
AcDbEntity
  8
LC-002-100-D00-0
 62
     7
370
    50
100
AcDbCircle
 10
380.671191
 20
-140.408507
 30
0.0
 40
7.500000000000012
100
AcDbArc
 50
187.529589
 51
7.529589
  0
ARC
  5
5E
330
1F
100
AcDbEntity
  8
LC-002-100-D00-0
 62
     7
370
    50
100
AcDbCircle
 10
208.171537
 20
-163.20915
 30
0.0
 40
181.5
100
AcDbArc
 50
7.529589
 51
12.470411
  0
ARC
  5
5F
330
1F
100
AcDbEntity
  8
LC-002-100-D00-0
 62
     7
370
    50
100
AcDbCircle
 10
35.671883
 20
-140.408507
 30
0.0
 40
7.500000000000012
100
AcDbArc
 50
172.470411
 51
352.470411
  0
ARC
  5
60
330
1F
100
AcDbEntity
  8
LC-002-100-D00-0
 62
     7
370
    50
100
AcDbCircle
 10
208.171537
 20
-163.20915
 30
0.0
 40
166.5
100
AcDbArc
 50
167.529589
 51
172.470411
  0
ARC
  5
61
330
1F
100
AcDbEntity
  8
LC-002-100-D00-0
 62
     7
370
    50
100
AcDbCircle
 10
38.276606
 20
-125.63639
 30
0.0
 40
7.500000000000014
100
AcDbArc
 50
347.529589
 51
167.529589
  0
ARC
  5
62
330
1F
100
AcDbEntity
  8
LC-002-100-D00-0
 62
     7
370
    50
100
AcDbCircle
 10
208.171537
 20
-163.20915
 30
0.0
 40
181.5
100
AcDbArc
 50
167.529589
 51
172.470411
  0
ARC
  5
63
330
1F
100
AcDbEntity
  8
LC-002-100-D00-0
 62
     7
370
    50
100
AcDbCircle
 10
44.695776
 20
-103.613214
 30
0.0
 40
7.500000000000011
100
AcDbArc
 50
159.970411
 51
339.970411
  0
ARC
  5
64
330
1F
100
AcDbEntity
  8
LC-002-100-D00-0
 62
     7
370
    50
100
AcDbCircle
 10
50.436028
 20
-89.755021
 30
0.0
 40
7.499999999999999
100
AcDbArc
 50
335.029589
 51
155.029589
  0
ARC
  5
65
330
1F
100
AcDbEntity
  8
LC-002-100-D00-0
 62
     7
370
    50
100
AcDbCircle
 10
208.171537
 20
-163.20915
 30
0.0
 40
181.5
100
AcDbArc
 50
155.029589
 51
159.970411
  0
ARC
  5
66
330
1F
100
AcDbEntity
  8
LC-002-100-D00-0
 62
     7
370
    50
100
AcDbCircle
 10
61.469726
 20
-69.643245
 30
0.0
 40
7.500000000000015
100
AcDbArc
 50
147.470411
 51
327.470411
  0
ARC
  5
67
330
1F
100
AcDbEntity
  8
LC-002-100-D00-0
 62
     7
370
    50
100
AcDbCircle
 10
70.073372
 20
-57.355965
 30
0.0
 40
7.500000000000012
100
AcDbArc
 50
322.529589
 51
142.529589
  0
ARC
  5
68
330
1F
100
AcDbEntity
  8
LC-002-100-D00-0
 62
     7
370
    50
100
AcDbCircle
 10
208.171537
 20
-163.20915
 30
0.0
 40
181.5
100
AcDbArc
 50
142.529589
 51
147.470411
  0
ARC
  5
69
330
1F
100
AcDbEntity
  8
LC-002-100-D00-0
 62
     7
370
    50
100
AcDbCircle
 10
102.318352
 20
-25.110985
 30
0.0
 40
7.500000000000153
100
AcDbArc
 50
127.470411
 51
307.470411
  0
ARC
  5
6A
330
1F
100
AcDbEntity
  8
LC-002-100-D00-0
 62
     7
370
    50
100
AcDbCircle
 10
208.171537
 20
-163.20915
 30
0.0
 40
166.4999999999999
100
AcDbArc
 50
122.529589
 51
127.470411
  0
ARC
  5
6B
330
1F
100
AcDbEntity
  8
LC-002-100-D00-0
 62
     7
370
    50
100
AcDbCircle
 10
114.605632
 20
-16.507339
 30
0.0
 40
7.500000000000078
100
AcDbArc
 50
302.529589
 51
122.529589
  0
ARC
  5
6C
330
1F
100
AcDbEntity
  8
LC-002-100-D00-0
 62
     7
370
    50
100
AcDbCircle
 10
208.171537
 20
-163.20915
 30
0.0
 40
181.5
100
AcDbArc
 50
122.529589
 51
127.470411
  0
ARC
  5
6D
330
1F
100
AcDbEntity
  8
LC-002-100-D00-0
 62
     7
370
    50
100
AcDbCircle
 10
208.171537
 20
-163.20915
 30
0.0
 40
166.4999999999999
100
AcDbArc
 50
110.029589
 51
114.970411
  0
ARC
  5
6E
330
1F
100
AcDbEntity
  8
LC-002-100-D00-0
 62
     7
370
    50
100
AcDbCircle
 10
148.575601
 20
0.266611
 30
0.0
 40
7.500000000000075
100
AcDbArc
 50
290.029589
 51
110.029589
  0
ARC
  5
6F
330
1F
100
AcDbEntity
  8
LC-002-100-D00-0
 62
     7
370
    50
100
AcDbCircle
 10
170.598777
 20
6.685781
 30
0.0
 40
7.499999999999981
100
AcDbArc
 50
102.470411
 51
282.470411
  0
ARC
  5
70
330
1F
100
AcDbEntity
  8
LC-002-100-D00-0
 62
     7
370
    50
100
AcDbCircle
 10
208.171537
 20
-163.20915
 30
0.0
 40
166.5
100
AcDbArc
 50
97.529589
 51
102.470411
  0
ARC
  5
71
330
1F
100
AcDbEntity
  8
LC-002-100-D00-0
 62
     7
370
    50
100
AcDbCircle
 10
185.370893
 20
9.290504
 30
0.0
 40
7.500000000000068
100
AcDbArc
 50
277.529589
 51
97.529589
  0
ARC
  5
72
330
1F
100
AcDbEntity
  8
LC-002-100-D00-0
 62
     7
370
    50
100
AcDbCircle
 10
208.171537
 20
-163.20915
 30
0.0
 40
181.4999999999999
100
AcDbArc
 50
97.529589
 51
102.470411
  0
ARC
  5
73
330
1F
100
AcDbEntity
  8
LC-002-100-D00-0
 62
     7
370
    50
100
AcDbCircle
 10
38.276606
 20
-125.63639
 30
0.0
 40
6.590074414334514
100
AcDbArc
 50
347.529589
 51
167.529589
  0
ARC
  5
74
330
1F
100
AcDbEntity
  8
LC-002-100-D00-0
 62
     7
370
    50
100
AcDbCircle
 10
34.171537
 20
-163.20915
 30
0.0
 40
7.330127018922192
100
AcDbArc
 50
19.941359
 51
180.0
  0
ARC
  5
75
330
1F
100
AcDbEntity
  8
LC-002-100-D00-0
 62
     7
370
    50
100
AcDbCircle
 10
85.134957
 20
-40.17257
 30
0.0
 40
7.330127018922248
100
AcDbArc
 50
334.941359
 51
295.058641
  0
ARC
  5
76
330
1F
100
AcDbEntity
  8
LC-002-100-D00-0
 62
     7
370
    50
100
AcDbCircle
 10
61.469726
 20
-69.643245
 30
0.0
 40
6.59007441433446
100
AcDbArc
 50
147.470411
 51
327.470411
  0
ARC
  5
77
330
1F
100
AcDbEntity
  8
LC-002-100-D00-0
 62
     7
370
    50
100
AcDbCircle
 10
114.605632
 20
-16.507339
 30
0.0
 40
6.590074414334571
100
AcDbArc
 50
302.529589
 51
122.529589
  0
ARC
  5
78
330
1F
100
AcDbEntity
  8
LC-002-100-D00-0
 62
     7
370
    50
100
AcDbCircle
 10
208.171537
 20
-163.20915
 30
0.0
 40
167.4099255856655
100
AcDbArc
 50
167.529589
 51
172.470411
  0
ARC
  5
79
330
1F
100
AcDbEntity
  8
LC-002-100-D00-0
 62
     7
370
    50
100
AcDbCircle
 10
70.073372
 20
-57.355965
 30
0.0
 40
6.590074414334463
100
AcDbArc
 50
322.529589
 51
142.529589
  0
ARC
  5
7A
330
1F
100
AcDbEntity
  8
LC-002-100-D00-0
 62
     7
370
    50
100
AcDbCircle
 10
35.671883
 20
-140.408507
 30
0.0
 40
6.59007441433451
100
AcDbArc
 50
172.470411
 51
352.470411
  0
ARC
  5
7B
330
1F
100
AcDbEntity
  8
LC-002-100-D00-0
 62
     7
370
    50
100
AcDbCircle
 10
208.171537
 20
-163.20915
 30
0.0
 40
180.5900744143345
100
AcDbArc
 50
155.029589
 51
159.970411
  0
ARC
  5
7C
330
1F
100
AcDbEntity
  8
LC-002-100-D00-0
 62
     7
370
    50
100
AcDbCircle
 10
50.436028
 20
-89.755021
 30
0.0
 40
6.590074414334525
100
AcDbArc
 50
335.029589
 51
155.029589
  0
ARC
  5
7D
330
1F
100
AcDbEntity
  8
LC-002-100-D00-0
 62
     7
370
    50
100
AcDbCircle
 10
44.695776
 20
-103.613214
 30
0.0
 40
6.590074414334495
100
AcDbArc
 50
159.970411
 51
339.970411
  0
ARC
  5
7E
330
1F
100
AcDbEntity
  8
LC-002-100-D00-0
 62
     7
370
    50
100
AcDbCircle
 10
208.171537
 20
-163.20915
 30
0.0
 40
180.5900744143346
100
AcDbArc
 50
122.529589
 51
127.470411
  0
ARC
  5
7F
330
1F
100
AcDbEntity
  8
LC-002-100-D00-0
 62
     7
370
    50
100
AcDbCircle
 10
208.171537
 20
-163.20915
 30
0.0
 40
180.5900744143345
100
AcDbArc
 50
142.529589
 51
147.470411
  0
ARC
  5
80
330
1F
100
AcDbEntity
  8
LC-002-100-D00-0
 62
     7
370
    50
100
AcDbCircle
 10
208.171537
 20
-163.20915
 30
0.0
 40
180.5900744143345
100
AcDbArc
 50
167.529589
 51
172.470411
  0
ARC
  5
81
330
1F
100
AcDbEntity
  8
LC-002-100-D00-0
 62
     7
370
    50
100
AcDbCircle
 10
208.171537
 20
-163.20915
 30
0.0
 40
167.4099255856655
100
AcDbArc
 50
122.529589
 51
127.470411
  0
ARC
  5
82
330
1F
100
AcDbEntity
  8
LC-002-100-D00-0
 62
     7
370
    50
100
AcDbCircle
 10
102.318352
 20
-25.110985
 30
0.0
 40
6.590074414334543
100
AcDbArc
 50
127.470411
 51
307.470411
  0
ARC
  5
83
330
1F
100
AcDbEntity
  8
LC-002-100-D00-0
 62
     7
370
    50
100
AcDbCircle
 10
208.171537
 20
-163.20915
 30
0.0
 40
167.4099255856656
100
AcDbArc
 50
65.029589
 51
69.970411
  0
ARC
  5
84
330
1F
100
AcDbEntity
  8
LC-002-100-D00-0
 62
     7
370
    50
100
AcDbCircle
 10
267.767473
 20
0.266611
 30
0.0
 40
6.590074414334558
100
AcDbArc
 50
69.970411
 51
249.970411
  0
ARC
  5
85
330
1F
100
AcDbEntity
  8
LC-002-100-D00-0
 62
     7
370
    50
100
AcDbCircle
 10
208.171537
 20
-163.20915
 30
0.0
 40
167.4099255856656
100
AcDbArc
 50
97.529589
 51
102.470411
  0
ARC
  5
86
330
1F
100
AcDbEntity
  8
LC-002-100-D00-0
 62
     7
370
    50
100
AcDbCircle
 10
281.625666
 20
-5.473641
 30
0.0
 40
6.590074414334449
100
AcDbArc
 50
245.029589
 51
65.029589
  0
ARC
  5
87
330
1F
100
AcDbEntity
  8
LC-002-100-D00-0
 62
     7
370
    50
100
AcDbCircle
 10
208.171537
 20
-163.20915
 30
0.0
 40
180.5900744143344
100
AcDbArc
 50
77.529589
 51
82.470411
  0
ARC
  5
88
330
1F
100
AcDbEntity
  8
LC-002-100-D00-0
 62
     7
370
    50
100
AcDbCircle
 10
208.171537
 20
-163.20915
 30
0.0
 40
180.5900744143345
100
AcDbArc
 50
65.029589
 51
69.970411
  0
ARC
  5
89
330
1F
100
AcDbEntity
  8
LC-002-100-D00-0
 62
     7
370
    50
100
AcDbCircle
 10
314.024722
 20
-25.110985
 30
0.0
 40
6.590074414334463
100
AcDbArc
 50
232.529589
 51
52.529589
  0
ARC
  5
8A
330
1F
100
AcDbEntity
  8
LC-002-100-D00-0
 62
     7
370
    50
100
AcDbCircle
 10
170.598777
 20
6.685781
 30
0.0
 40
6.590074414334508
100
AcDbArc
 50
102.470411
 51
282.470411
  0
ARC
  5
8B
330
1F
100
AcDbEntity
  8
LC-002-100-D00-0
 62
     7
370
    50
100
AcDbCircle
 10
208.171537
 20
-163.20915
 30
0.0
 40
167.4099255856655
100
AcDbArc
 50
7.529589
 51
12.470411
  0
ARC
  5
8C
330
1F
100
AcDbEntity
  8
LC-002-100-D00-0
 62
     7
370
    50
100
AcDbCircle
 10
208.171537
 20
-163.20915
 30
0.0
 40
180.5900744143344
100
AcDbArc
 50
52.529589
 51
57.470411
  0
ARC
  5
8D
330
1F
100
AcDbEntity
  8
LC-002-100-D00-0
 62
     7
370
    50
100
AcDbCircle
 10
185.370893
 20
9.290504
 30
0.0
 40
6.590074414334595
100
AcDbArc
 50
277.529589
 51
97.529589
  0
ARC
  5
8E
330
1F
100
AcDbEntity
  8
LC-002-100-D00-0
 62
     7
370
    50
100
AcDbCircle
 10
208.171537
 20
-163.20915
 30
0.0
 40
180.5900744143345
100
AcDbArc
 50
97.529589
 51
102.470411
  0
ARC
  5
8F
330
1F
100
AcDbEntity
  8
LC-002-100-D00-0
 62
     7
370
    50
100
AcDbCircle
 10
208.171537
 20
-163.20915
 30
0.0
 40
167.4099255856655
100
AcDbArc
 50
52.529589
 51
57.470411
  0
ARC
  5
90
330
1F
100
AcDbEntity
  8
LC-002-100-D00-0
 62
     7
370
    50
100
AcDbCircle
 10
301.737442
 20
-16.507339
 30
0.0
 40
6.590074414334475
100
AcDbArc
 50
57.470411
 51
237.470411
  0
ARC
  5
91
330
1F
100
AcDbEntity
  8
LC-002-100-D00-0
 62
     7
370
    50
100
AcDbCircle
 10
378.066468
 20
-125.63639
 30
0.0
 40
6.590074414334514
100
AcDbArc
 50
12.470411
 51
192.470411
  0
ARC
  5
92
330
1F
100
AcDbEntity
  8
LC-002-100-D00-0
 62
     7
370
    50
100
AcDbCircle
 10
208.171537
 20
-163.20915
 30
0.0
 40
180.5900744143345
100
AcDbArc
 50
7.529589
 51
12.470411
  0
ARC
  5
93
330
1F
100
AcDbEntity
  8
LC-002-100-D00-0
 62
     7
370
    50
100
AcDbCircle
 10
230.972181
 20
9.290504
 30
0.0
 40
6.590074414334539
100
AcDbArc
 50
82.470411
 51
262.470411
  0
ARC
  5
94
330
1F
100
AcDbEntity
  8
LC-002-100-D00-0
 62
     7
370
    50
100
AcDbCircle
 10
208.171537
 20
-163.20915
 30
0.0
 40
167.4099255856654
100
AcDbArc
 50
77.529589
 51
82.470411
  0
ARC
  5
95
330
1F
100
AcDbEntity
  8
LC-002-100-D00-0
 62
     7
370
    50
100
AcDbCircle
 10
208.171537
 20
-163.20915
 30
0.0
 40
167.4099255856656
100
AcDbArc
 50
20.029589
 51
24.970411
  0
ARC
  5
96
330
1F
100
AcDbEntity
  8
LC-002-100-D00-0
 62
     7
370
    50
100
AcDbCircle
 10
208.171537
 20
-163.20915
 30
0.0
 40
167.4099255856655
100
AcDbArc
 50
110.029589
 51
114.970411
  0
ARC
  5
97
330
1F
100
AcDbEntity
  8
LC-002-100-D00-0
 62
     7
370
    50
100
AcDbCircle
 10
208.171537
 20
10.79085
 30
0.0
 40
7.330127018922228
100
AcDbArc
 50
289.941359
 51
250.058641
  0
ARC
  5
98
330
1F
100
AcDbEntity
  8
LC-002-100-D00-0
 62
     7
370
    50
100
AcDbCircle
 10
371.647298
 20
-103.613214
 30
0.0
 40
6.590074414334549
100
AcDbArc
 50
200.029589
 51
20.029589
  0
ARC
  5
99
330
1F
100
AcDbEntity
  8
LC-002-100-D00-0
 62
     7
370
    50
100
AcDbCircle
 10
380.671191
 20
-140.408507
 30
0.0
 40
6.590074414334595
100
AcDbArc
 50
187.529589
 51
7.529589
  0
ARC
  5
9A
330
1F
100
AcDbEntity
  8
LC-002-100-D00-0
 62
     7
370
    50
100
AcDbCircle
 10
148.575601
 20
0.266611
 30
0.0
 40
6.590074414334486
100
AcDbArc
 50
290.029589
 51
110.029589
  0
ARC
  5
9B
330
1F
100
AcDbEntity
  8
LC-002-100-D00-0
 62
     7
370
    50
100
AcDbCircle
 10
365.907047
 20
-89.755021
 30
0.0
 40
6.590074414334461
100
AcDbArc
 50
24.970411
 51
204.970411
  0
ARC
  5
9C
330
1F
100
AcDbEntity
  8
LC-002-100-D00-0
 62
     7
370
    50
100
AcDbCircle
 10
245.744297
 20
6.685781
 30
0.0
 40
6.590074414334508
100
AcDbArc
 50
257.529589
 51
77.529589
  0
ARC
  5
9D
330
1F
100
AcDbEntity
  8
LC-002-100-D00-0
 62
     7
370
    50
100
AcDbCircle
 10
354.873348
 20
-69.643245
 30
0.0
 40
6.590074414334649
100
AcDbArc
 50
212.529589
 51
32.529589
  0
ARC
  5
9E
330
1F
100
AcDbEntity
  8
LC-002-100-D00-0
 62
     7
370
    50
100
AcDbCircle
 10
346.269702
 20
-57.355965
 30
0.0
 40
6.590074414334651
100
AcDbArc
 50
37.470411
 51
217.470411
  0
ARC
  5
9F
330
1F
100
AcDbEntity
  8
LC-002-100-D00-0
 62
     7
370
    50
100
AcDbCircle
 10
208.171537
 20
-163.20915
 30
0.0
 40
167.4099255856655
100
AcDbArc
 50
32.529589
 51
37.470411
  0
ARC
  5
A0
330
1F
100
AcDbEntity
  8
LC-002-100-D00-0
 62
     7
370
    50
100
AcDbCircle
 10
208.171537
 20
-163.20915
 30
0.0
 40
180.5900744143347
100
AcDbArc
 50
32.529589
 51
37.470411
  0
ARC
  5
A1
330
1F
100
AcDbEntity
  8
LC-002-100-D00-0
 62
     7
370
    50
100
AcDbCircle
 10
382.171537
 20
-163.20915
 30
0.0
 40
7.33012701891937
100
AcDbArc
 50
0.0
 51
160.058641
  0
ARC
  5
A2
330
1F
100
AcDbEntity
  8
LC-002-100-D00-0
 62
     7
370
    50
100
AcDbCircle
 10
331.208117
 20
-40.17257
 30
0.0
 40
7.330127018922244
100
AcDbArc
 50
244.941359
 51
205.058641
  0
ARC
  5
A3
330
1F
100
AcDbEntity
  8
LC-002-100-D00-0
 62
     7
370
    50
100
AcDbCircle
 10
208.171537
 20
-163.20915
 30
0.0
 40
180.5900744143345
100
AcDbArc
 50
20.029589
 51
24.970411
  0
INSERT
  5
B3
330
1F
100
AcDbEntity
  8
LC-002-100-D00-0
 62
     7
370
    50
100
AcDbBlockReference
  2
POLY1
 10
0.0
 20
0.0
 30
0.0
  0
LINE
  5
B4
330
1F
100
AcDbEntity
  8
LC-002-100-D00-0
 62
     7
370
    50
100
AcDbLine
 10
41.062167
 20
-160.70915
 30
0.0
 11
38.358023
 21
-160.70915
 31
0.0
  0
INSERT
  5
C4
330
1F
100
AcDbEntity
  8
LC-002-100-D00-0
 62
     7
370
    50
100
AcDbBlockReference
  2
POLY2
 10
0.0
 20
0.0
 30
0.0
  0
LINE
  5
C5
330
1F
100
AcDbEntity
  8
LC-002-100-D00-0
 62
     7
370
    50
100
AcDbLine
 10
210.671537
 20
3.90022
 30
0.0
 11
210.671537
 21
6.604363
 31
0.0
  0
LINE
  5
C6
330
1F
100
AcDbEntity
  8
LC-002-100-D00-0
 62
     7
370
    50
100
AcDbLine
 10
205.671537
 20
3.90022
 30
0.0
 11
205.671537
 21
6.604363
 31
0.0
  0
INSERT
  5
D6
330
1F
100
AcDbEntity
  8
LC-002-100-D00-0
 62
     7
370
    50
100
AcDbBlockReference
  2
POLY3
 10
0.0
 20
0.0
 30
0.0
  0
LINE
  5
D7
330
1F
100
AcDbEntity
  8
LC-002-100-D00-0
 62
     7
370
    50
100
AcDbLine
 10
91.775132
 20
-43.277214
 30
0.0
 11
89.863015
 21
-41.365097
 31
0.0
  0
LINE
  5
D8
330
1F
100
AcDbEntity
  8
LC-002-100-D00-0
 62
     7
370
    50
100
AcDbLine
 10
88.239601
 20
-46.812745
 30
0.0
 11
86.327484
 21
-44.900628
 31
0.0
  0
INSERT
  5
E8
330
1F
100
AcDbEntity
  8
LC-002-100-D00-0
 62
     7
370
    50
100
AcDbBlockReference
  2
POLY4
 10
0.0
 20
0.0
 30
0.0
  0
LINE
  5
E9
330
1F
100
AcDbEntity
  8
LC-002-100-D00-0
 62
     7
370
    50
100
AcDbLine
 10
328.103473
 20
-46.812745
 30
0.0
 11
330.01559
 21
-44.900628
 31
0.0
  0
LINE
  5
EA
330
1F
100
AcDbEntity
  8
LC-002-100-D00-0
 62
     7
370
    50
100
AcDbLine
 10
324.567942
 20
-43.277214
 30
0.0
 11
326.480059
 21
-41.365097
 31
0.0
  0
INSERT
  5
FA
330
1F
100
AcDbEntity
  8
LC-002-100-D00-0
 62
     7
370
    50
100
AcDbBlockReference
  2
POLY5
 10
0.0
 20
0.0
 30
0.0
  0
LINE
  5
FB
330
1F
100
AcDbEntity
  8
LC-002-100-D00-0
 62
     7
370
    50
100
AcDbLine
 10
375.280907
 20
-160.70915
 30
0.0
 11
377.985051
 21
-160.70915
 31
0.0
  0
ARC
  5
FC
330
1F
100
AcDbEntity
  8
LC-002-100-D00-0
 62
     7
370
    50
100
AcDbCircle
 10
34.171537
 20
-163.20915
 30
0.0
 40
4.918584287042073
100
AcDbArc
 50
30.549085
 51
180.0
  0
ARC
  5
FD
330
1F
100
AcDbEntity
  8
LC-002-100-D00-0
 62
     7
370
    50
100
AcDbCircle
 10
85.134957
 20
-40.17257
 30
0.0
 40
4.918584287042106
100
AcDbArc
 50
345.549085
 51
284.450915
  0
ARC
  5
FE
330
1F
100
AcDbEntity
  8
LC-002-100-D00-0
 62
     7
370
    50
100
AcDbCircle
 10
208.171537
 20
10.79085
 30
0.0
 40
4.918584287042088
100
AcDbArc
 50
300.549085
 51
239.450915
  0
ARC
  5
FF
330
1F
100
AcDbEntity
  8
LC-002-100-D00-0
 62
     7
370
    50
100
AcDbCircle
 10
331.208117
 20
-40.17257
 30
0.0
 40
4.918584287042051
100
AcDbArc
 50
255.549085
 51
194.450915
  0
ARC
  5
100
330
1F
100
AcDbEntity
  8
LC-002-100-D00-0
 62
     7
370
    50
100
AcDbCircle
 10
382.171537
 20
-163.20915
 30
0.0
 40
4.918584287037334
100
AcDbArc
 50
0.0
 51
149.450915
  0
ARC
  5
101
330
1F
100
AcDbEntity
  8
LC-002-100-D00-0
 62
     7
370
    50
100
AcDbCircle
 10
208.171537
 20
-163.20915
 30
0.0
 40
122.9644660940673
100
AcDbArc
 50
0.0
 51
180.0
  0
ARC
  5
102
330
1F
100
AcDbEntity
  8
LC-002-100-D00-0
 62
     7
370
    50
100
AcDbCircle
 10
208.171537
 20
-163.20915
 30
0.0
 40
116.9644660940672
100
AcDbArc
 50
0.0
 51
180.0
  0
ARC
  5
103
330
1F
100
AcDbEntity
  8
LC-002-100-D00-0
 62
     7
370
    50
100
AcDbCircle
 10
208.171537
 20
-163.20915
 30
0.0
 40
66.74999999999994
100
AcDbArc
 50
0.0
 51
2.119663
  0
INSERT
  5
109
330
1F
100
AcDbEntity
  8
LC-002-100-D00-0
 62
     7
370
    50
100
AcDbBlockReference
  2
KLON1
 10
0.0
 20
0.0
 30
0.0
  0
ARC
  5
10A
330
1F
100
AcDbEntity
  8
LC-002-100-D00-0
 62
     7
370
    50
100
AcDbCircle
 10
208.171537
 20
-163.20915
 30
0.0
 40
66.75000000000007
100
AcDbArc
 50
177.880337
 51
180.0
  0
ARC
  5
10B
330
1F
100
AcDbEntity
  8
LC-002-100-D00-0
 62
     7
370
    50
100
AcDbCircle
 10
208.171537
 20
-163.20915
 30
0.0
 40
98.00000000000006
100
AcDbArc
 50
0.0
 51
180.0
  0
ARC
  5
10C
330
1F
100
AcDbEntity
  8
LC-002-100-D00-0
 62
     7
370
    50
100
AcDbCircle
 10
208.171537
 20
-163.20915
 30
0.0
 40
65.00000000000006
100
AcDbArc
 50
92.644655
 51
177.355345
  0
ARC
  5
10D
330
1F
100
AcDbEntity
  8
LC-002-100-D00-0
 62
     7
370
    50
100
AcDbCircle
 10
143.171537
 20
-163.20915
 30
0.0
 40
3.000000000000016
100
AcDbArc
 50
88.677672
 51
124.618464
  0
ARC
  5
10E
330
1F
100
AcDbEntity
  8
LC-002-100-D00-0
 62
     7
370
    50
100
AcDbCircle
 10
208.171537
 20
-163.20915
 30
0.0
 40
66.75000000000004
100
AcDbArc
 50
92.119663
 51
177.880337
  0
ARC
  5
10F
330
1F
100
AcDbEntity
  8
LC-002-100-D00-0
 62
     7
370
    50
100
AcDbCircle
 10
208.171537
 20
-98.20915
 30
0.0
 40
3.000000000000054
100
AcDbArc
 50
145.381536
 51
181.322328
  0
ARC
  5
110
330
1F
100
AcDbEntity
  8
LC-002-100-D00-0
 62
     7
370
    50
100
AcDbCircle
 10
208.171537
 20
-163.20915
 30
0.0
 40
66.75000000000001
100
AcDbArc
 50
2.119663
 51
87.880337
  0
ARC
  5
111
330
1F
100
AcDbEntity
  8
LC-002-100-D00-0
 62
     7
370
    50
100
AcDbCircle
 10
273.171537
 20
-163.20915
 30
0.0
 40
2.999999999999991
100
AcDbArc
 50
55.381536
 51
91.322328
  0
ARC
  5
112
330
1F
100
AcDbEntity
  8
LC-002-100-D00-0
 62
     7
370
    50
100
AcDbCircle
 10
208.171537
 20
-163.20915
 30
0.0
 40
65.0
100
AcDbArc
 50
2.644655
 51
87.355345
  0
ARC
  5
113
330
1F
100
AcDbEntity
  8
LC-002-100-D00-0
 62
     7
370
    50
100
AcDbCircle
 10
208.171537
 20
-98.20915
 30
0.0
 40
3.000000000000017
100
AcDbArc
 50
358.677672
 51
34.618464
  0
ARC
  5
114
330
1F
100
AcDbEntity
  8
LC-002-100-D00-0
 62
     7
370
    50
100
AcDbCircle
 10
208.171537
 20
-163.20915
 30
0.0
 40
99.25000000000006
100
AcDbArc
 50
0.0
 51
180.0
  0
ARC
  5
115
330
1F
100
AcDbEntity
  8
LC-002-100-D00-0
 62
     7
370
    50
100
AcDbCircle
 10
208.171537
 20
-163.20915
 30
0.0
 40
65.00000000000006
100
AcDbArc
 50
177.355345
 51
180.0
  0
ARC
  5
116
330
1F
100
AcDbEntity
  8
LC-002-100-D00-0
 62
     7
370
    50
100
AcDbCircle
 10
208.171537
 20
-163.20915
 30
0.0
 40
65.0
100
AcDbArc
 50
87.355345
 51
92.644655
  0
ARC
  5
117
330
1F
100
AcDbEntity
  8
LC-002-100-D00-0
 62
     7
370
    50
100
AcDbCircle
 10
208.171537
 20
-163.20915
 30
0.0
 40
64.99999999999994
100
AcDbArc
 50
0.0
 51
2.644655
  0
LINE
  5
118
330
1F
100
AcDbEntity
  8
LC-002-100-D00-0
 62
     7
370
    50
100
AcDbLine
 10
270.412946
 20
-144.473965
 30
0.0
 11
271.441771
 21
-148.313592
 31
0.0
  0
ARC
  5
119
330
1F
100
AcDbEntity
  8
LC-002-100-D00-0
 62
     7
370
    50
100
AcDbCircle
 10
272.888567
 20
-145.868274
 30
0.0
 40
2.850000000000045
100
AcDbArc
 50
150.442697
 51
239.557303
  0
ARC
  5
11A
330
1F
100
AcDbEntity
  8
LC-002-100-D00-0
 62
     7
370
    50
100
AcDbCircle
 10
225.512413
 20
-98.49212
 30
0.0
 40
2.850000000000021
100
AcDbArc
 50
210.442697
 51
299.557303
  0
LINE
  5
11B
330
1F
100
AcDbEntity
  8
LC-002-100-D00-0
 62
     7
370
    50
100
AcDbLine
 10
223.067095
 20
-99.938917
 30
0.0
 11
226.906722
 21
-100.967741
 31
0.0
  0
LINE
  5
11C
330
1F
100
AcDbEntity
  8
LC-002-100-D00-0
 62
     7
370
    50
100
AcDbLine
 10
252.706585
 20
-115.8633
 30
0.0
 11
255.517388
 21
-118.674102
 31
0.0
  0
ARC
  5
11D
330
1F
100
AcDbEntity
  8
LC-002-100-D00-0
 62
     7
370
    50
100
AcDbCircle
 10
255.547691
 20
-115.832996
 30
0.0
 40
2.850000000000063
100
AcDbArc
 50
180.442697
 51
269.557303
  0
LINE
  5
11E
330
1F
100
AcDbEntity
  8
LC-002-100-D00-0
 62
     7
370
    50
100
AcDbLine
 10
160.825686
 20
-118.674102
 30
0.0
 11
163.636489
 21
-115.8633
 31
0.0
  0
ARC
  5
11F
330
1F
100
AcDbEntity
  8
LC-002-100-D00-0
 62
     7
370
    50
100
AcDbCircle
 10
160.795383
 20
-115.832996
 30
0.0
 40
2.850000000000025
100
AcDbArc
 50
270.442697
 51
359.557303
  0
LINE
  5
120
330
1F
100
AcDbEntity
  8
LC-002-100-D00-0
 62
     7
370
    50
100
AcDbLine
 10
189.436352
 20
-100.967741
 30
0.0
 11
193.275979
 21
-99.938917
 31
0.0
  0
ARC
  5
121
330
1F
100
AcDbEntity
  8
LC-002-100-D00-0
 62
     7
370
    50
100
AcDbCircle
 10
190.830661
 20
-98.49212
 30
0.0
 40
2.850000000000015
100
AcDbArc
 50
240.442697
 51
329.557303
  0
LINE
  5
122
330
1F
100
AcDbEntity
  8
LC-002-100-D00-0
 62
     7
370
    50
100
AcDbLine
 10
144.901303
 20
-148.313592
 30
0.0
 11
145.930128
 21
-144.473965
 31
0.0
  0
ARC
  5
123
330
1F
100
AcDbEntity
  8
LC-002-100-D00-0
 62
     7
370
    50
100
AcDbCircle
 10
143.454507
 20
-145.868274
 30
0.0
 40
2.850000000000027
100
AcDbArc
 50
300.442697
 51
29.557303
  0
LINE
  5
124
330
1F
100
AcDbEntity
  8
LC-002-100-D00-0
  6
DASHDOT
 62
     7
370
    25
100
AcDbLine
 10
20.671537
 20
-163.20915
 30
0.0
 11
395.671537
 21
-163.20915
 31
0.0
  0
LINE
  5
125
330
1F
100
AcDbEntity
  8
LC-002-100-D00-0
 62
     7
370
    50
100
AcDbLine
 10
270.556468
 20
235.963494
 30
0.0
 11
270.556468
 21
223.429531
 31
0.0
  0
LINE
  5
126
330
1F
100
AcDbEntity
  8
LC-002-100-D00-0
 62
     7
370
    50
100
AcDbLine
 10
145.786631
 20
223.4184
 30
0.0
 11
145.786631
 21
235.963494
 31
0.0
  0
LINE
  5
127
330
1F
100
AcDbEntity
  8
LC-002-100-D00-0
 62
     7
370
    50
100
AcDbLine
 10
79.366552
 20
228.963486
 30
0.0
 11
79.837831
 21
227.204672
 31
0.0
  0
ARC
  5
128
330
1F
100
AcDbEntity
  8
LC-002-100-D00-0
 62
     7
370
    50
100
AcDbCircle
 10
80.803756
 20
227.463491
 30
0.0
 40
1.00000000000003
100
AcDbArc
 50
195.0
 51
270.0
  0
ARC
  5
129
330
1F
100
AcDbEntity
  8
LC-002-100-D00-0
 62
     7
370
    50
100
AcDbCircle
 10
89.438605
 20
227.463491
 30
0.0
 40
1.0
100
AcDbArc
 50
270.0
 51
349.026724
  0
LINE
  5
12A
330
1F
100
AcDbEntity
  8
LC-002-100-D00-0
 62
     7
370
    50
100
AcDbLine
 10
270.038582
 20
239.963502
 30
0.0
 11
270.038582
 21
235.963494
 31
0.0
  0
LINE
  5
12B
330
1F
100
AcDbEntity
  8
LC-002-100-D00-0
 62
     7
370
    50
100
AcDbLine
 10
146.304517
 20
235.963494
 30
0.0
 11
146.304517
 21
239.963502
 31
0.0
  0
LINE
  5
12C
330
1F
100
AcDbEntity
  8
LC-002-100-D00-0
 62
     7
370
    50
100
AcDbLine
 10
41.501674
 20
241.963491
 30
0.0
 11
42.171556
 21
244.463488
 31
0.0
  0
LINE
  5
12D
330
1F
100
AcDbEntity
  8
LC-002-100-D00-0
 62
     7
370
    50
100
AcDbLine
 10
41.501674
 20
241.963491
 30
0.0
 11
26.84142
 21
241.963491
 31
0.0
  0
LINE
  5
12E
330
1F
100
AcDbEntity
  8
LC-002-100-D00-0
 62
     7
370
    50
100
AcDbLine
 10
26.171553
 20
244.463488
 30
0.0
 11
26.84142
 21
241.963491
 31
0.0
  0
LINE
  5
12F
330
1F
100
AcDbEntity
  8
LC-002-100-D00-0
 62
     7
370
    50
100
AcDbLine
 10
42.171556
 20
244.463488
 30
0.0
 11
26.171553
 21
244.463488
 31
0.0
  0
LINE
  5
130
330
1F
100
AcDbEntity
  8
LC-002-100-D00-0
 62
     7
370
    50
100
AcDbLine
 10
42.171556
 20
244.463488
 30
0.0
 11
44.171545
 21
244.463488
 31
0.0
  0
LINE
  5
131
330
1F
100
AcDbEntity
  8
LC-002-100-D00-0
 62
     7
370
    50
100
AcDbLine
 10
44.171545
 20
244.463488
 30
0.0
 11
44.171545
 21
243.963495
 31
0.0
  0
LINE
  5
132
330
1F
100
AcDbEntity
  8
LC-002-100-D00-0
 62
     7
370
    50
100
AcDbLine
 10
44.171545
 20
243.963495
 30
0.0
 11
84.999974
 21
243.963495
 31
0.0
  0
LINE
  5
133
330
1F
100
AcDbEntity
  8
LC-002-100-D00-0
 62
     7
370
    50
100
AcDbLine
 10
90.999979
 20
237.963498
 30
0.0
 11
84.999974
 21
243.963495
 31
0.0
  0
LINE
  5
134
330
1F
100
AcDbEntity
  8
LC-002-100-D00-0
 62
     7
370
    50
100
AcDbLine
 10
90.999979
 20
237.963498
 30
0.0
 11
134.67155
 21
237.963498
 31
0.0
  0
LINE
  5
135
330
1F
100
AcDbEntity
  8
LC-002-100-D00-0
 62
     7
370
    50
100
AcDbLine
 10
134.67155
 20
237.963498
 30
0.0
 11
135.671552
 21
236.231446
 31
0.0
  0
LINE
  5
136
330
1F
100
AcDbEntity
  8
LC-002-100-D00-0
 62
     7
370
    50
100
AcDbLine
 10
135.671552
 20
222.999021
 30
0.0
 11
135.671552
 21
236.231446
 31
0.0
  0
LINE
  5
137
330
1F
100
AcDbEntity
  8
LC-002-100-D00-0
 62
     7
370
    50
100
AcDbLine
 10
135.671552
 20
222.999021
 30
0.0
 11
138.171549
 21
220.499024
 31
0.0
  0
LINE
  5
138
330
1F
100
AcDbEntity
  8
LC-002-100-D00-0
 62
     7
370
    50
100
AcDbLine
 10
138.171549
 20
220.499024
 30
0.0
 11
138.171549
 21
91.963492
 31
0.0
  0
LINE
  5
139
330
1F
100
AcDbEntity
  8
LC-002-100-D00-0
 62
     7
370
    50
100
AcDbLine
 10
136.475395
 20
91.963492
 30
0.0
 11
138.171549
 21
91.963492
 31
0.0
  0
LINE
  5
13A
330
1F
100
AcDbEntity
  8
LC-002-100-D00-0
 62
     7
370
    50
100
AcDbLine
 10
135.671552
 20
94.963491
 30
0.0
 11
136.475395
 21
91.963492
 31
0.0
  0
LINE
  5
13B
330
1F
100
AcDbEntity
  8
LC-002-100-D00-0
 62
     7
370
    50
100
AcDbLine
 10
135.671552
 20
94.963491
 30
0.0
 11
135.671552
 21
219.463497
 31
0.0
  0
LINE
  5
13C
330
1F
100
AcDbEntity
  8
LC-002-100-D00-0
 62
     7
370
    50
100
AcDbLine
 10
135.671552
 20
219.463497
 30
0.0
 11
132.671553
 21
222.463489
 31
0.0
  0
LINE
  5
13D
330
1F
100
AcDbEntity
  8
LC-002-100-D00-0
 62
     7
370
    50
100
AcDbLine
 10
132.671553
 20
222.463489
 30
0.0
 11
132.671553
 21
234.963492
 31
0.0
  0
LINE
  5
13E
330
1F
100
AcDbEntity
  8
LC-002-100-D00-0
 62
     7
370
    50
100
AcDbLine
 10
132.671553
 20
234.963492
 30
0.0
 11
131.671551
 21
235.963494
 31
0.0
  0
LINE
  5
13F
330
1F
100
AcDbEntity
  8
LC-002-100-D00-0
 62
     7
370
    50
100
AcDbLine
 10
131.671551
 20
235.963494
 30
0.0
 11
90.171549
 21
235.963494
 31
0.0
  0
LINE
  5
140
330
1F
100
AcDbEntity
  8
LC-002-100-D00-0
 62
     7
370
    50
100
AcDbLine
 10
90.171549
 20
235.963494
 30
0.0
 11
84.171552
 21
241.963491
 31
0.0
  0
LINE
  5
141
330
1F
100
AcDbEntity
  8
LC-002-100-D00-0
 62
     7
370
    50
100
AcDbLine
 10
44.001672
 20
241.963491
 30
0.0
 11
84.171552
 21
241.963491
 31
0.0
  0
ARC
  5
142
330
1F
100
AcDbEntity
  8
LC-002-100-D00-0
 62
     7
370
    50
100
AcDbCircle
 10
39.081138
 20
227.463491
 30
0.0
 40
1.000000000000114
100
AcDbArc
 50
270.0
 51
345.0
  0
LINE
  5
143
330
1F
100
AcDbEntity
  8
LC-002-100-D00-0
 62
     7
370
    50
100
AcDbLine
 10
39.081138
 20
226.463488
 30
0.0
 11
29.618371
 21
226.463488
 31
0.0
  0
ARC
  5
144
330
1F
100
AcDbEntity
  8
LC-002-100-D00-0
 62
     7
370
    50
100
AcDbCircle
 10
29.61837
 20
227.463491
 30
0.0
 40
1.000000000000003
100
AcDbArc
 50
195.0
 51
270.0
  0
LINE
  5
145
330
1F
100
AcDbEntity
  8
LC-002-100-D00-0
 62
     7
370
    50
100
AcDbLine
 10
28.652448
 20
227.204672
 30
0.0
 11
28.181169
 21
228.963486
 31
0.0
  0
LINE
  5
146
330
1F
100
AcDbEntity
  8
LC-002-100-D00-0
 62
     7
370
    50
100
AcDbLine
 10
38.018334
 20
228.963486
 30
0.0
 11
28.181169
 21
228.963486
 31
0.0
  0
INSERT
  5
14C
330
1F
100
AcDbEntity
  8
LC-002-100-D00-0
 62
     7
370
    50
100
AcDbBlockReference
  2
KLON2
 10
0.0
 20
0.0
 30
0.0
  0
LINE
  5
14D
330
1F
100
AcDbEntity
  8
LC-002-100-D00-0
 62
     7
370
    50
100
AcDbLine
 10
41.062179
 20
241.963491
 30
0.0
 11
37.28624
 21
228.963486
 31
0.0
  0
LINE
  5
14E
330
1F
100
AcDbEntity
  8
LC-002-100-D00-0
 62
     7
370
    50
100
AcDbLine
 10
332.171548
 20
241.963491
 30
0.0
 11
326.17155
 21
235.963494
 31
0.0
  0
LINE
  5
14F
330
1F
100
AcDbEntity
  8
LC-002-100-D00-0
 62
     7
370
    50
100
AcDbLine
 10
326.17155
 20
235.963494
 30
0.0
 11
284.671548
 21
235.963494
 31
0.0
  0
LINE
  5
150
330
1F
100
AcDbEntity
  8
LC-002-100-D00-0
 62
     7
370
    50
100
AcDbLine
 10
284.671548
 20
235.963494
 30
0.0
 11
283.671546
 21
234.963492
 31
0.0
  0
LINE
  5
151
330
1F
100
AcDbEntity
  8
LC-002-100-D00-0
 62
     7
370
    50
100
AcDbLine
 10
283.671546
 20
234.963492
 30
0.0
 11
283.671546
 21
222.463489
 31
0.0
  0
LINE
  5
152
330
1F
100
AcDbEntity
  8
LC-002-100-D00-0
 62
     7
370
    50
100
AcDbLine
 10
283.671546
 20
222.463489
 30
0.0
 11
280.671547
 21
219.463497
 31
0.0
  0
LINE
  5
153
330
1F
100
AcDbEntity
  8
LC-002-100-D00-0
 62
     7
370
    50
100
AcDbLine
 10
280.671547
 20
219.463497
 30
0.0
 11
280.671547
 21
94.963491
 31
0.0
  0
LINE
  5
154
330
1F
100
AcDbEntity
  8
LC-002-100-D00-0
 62
     7
370
    50
100
AcDbLine
 10
279.867704
 20
91.963492
 30
0.0
 11
280.671547
 21
94.963491
 31
0.0
  0
LINE
  5
155
330
1F
100
AcDbEntity
  8
LC-002-100-D00-0
 62
     7
370
    50
100
AcDbLine
 10
278.17155
 20
91.963492
 30
0.0
 11
279.867704
 21
91.963492
 31
0.0
  0
LINE
  5
156
330
1F
100
AcDbEntity
  8
LC-002-100-D00-0
 62
     7
370
    50
100
AcDbLine
 10
278.17155
 20
91.963492
 30
0.0
 11
278.17155
 21
220.499024
 31
0.0
  0
LINE
  5
157
330
1F
100
AcDbEntity
  8
LC-002-100-D00-0
 62
     7
370
    50
100
AcDbLine
 10
278.17155
 20
220.499024
 30
0.0
 11
280.671547
 21
222.999021
 31
0.0
  0
LINE
  5
158
330
1F
100
AcDbEntity
  8
LC-002-100-D00-0
 62
     7
370
    50
100
AcDbLine
 10
280.671547
 20
236.231446
 30
0.0
 11
280.671547
 21
222.999021
 31
0.0
  0
LINE
  5
159
330
1F
100
AcDbEntity
  8
LC-002-100-D00-0
 62
     7
370
    50
100
AcDbLine
 10
280.671547
 20
236.231446
 30
0.0
 11
281.671549
 21
237.963498
 31
0.0
  0
LINE
  5
15A
330
1F
100
AcDbEntity
  8
LC-002-100-D00-0
 62
     7
370
    50
100
AcDbLine
 10
281.671549
 20
237.963498
 30
0.0
 11
325.34312
 21
237.963498
 31
0.0
  0
LINE
  5
15B
330
1F
100
AcDbEntity
  8
LC-002-100-D00-0
 62
     7
370
    50
100
AcDbLine
 10
331.343125
 20
243.963495
 30
0.0
 11
325.34312
 21
237.963498
 31
0.0
  0
LINE
  5
15C
330
1F
100
AcDbEntity
  8
LC-002-100-D00-0
 62
     7
370
    50
100
AcDbLine
 10
331.343125
 20
243.963495
 30
0.0
 11
372.171554
 21
243.963495
 31
0.0
  0
LINE
  5
15D
330
1F
100
AcDbEntity
  8
LC-002-100-D00-0
 62
     7
370
    50
100
AcDbLine
 10
372.171554
 20
243.963495
 30
0.0
 11
372.171554
 21
244.463488
 31
0.0
  0
LINE
  5
15E
330
1F
100
AcDbEntity
  8
LC-002-100-D00-0
 62
     7
370
    50
100
AcDbLine
 10
372.171554
 20
244.463488
 30
0.0
 11
374.171543
 21
244.463488
 31
0.0
  0
LINE
  5
15F
330
1F
100
AcDbEntity
  8
LC-002-100-D00-0
 62
     7
370
    50
100
AcDbLine
 10
374.171543
 20
244.463488
 30
0.0
 11
374.841425
 21
241.963491
 31
0.0
  0
LINE
  5
160
330
1F
100
AcDbEntity
  8
LC-002-100-D00-0
 62
     7
370
    50
100
AcDbLine
 10
332.171548
 20
241.963491
 30
0.0
 11
372.341427
 21
241.963491
 31
0.0
  0
LINE
  5
161
330
1F
100
AcDbEntity
  8
LC-002-100-D00-0
 62
     7
370
    50
100
AcDbLine
 10
138.171549
 20
220.499024
 30
0.0
 11
278.17155
 21
220.499024
 31
0.0
  0
LINE
  5
162
330
1F
100
AcDbEntity
  8
LC-002-100-D00-0
 62
     7
370
    50
100
AcDbLine
 10
138.171549
 20
91.963492
 30
0.0
 11
278.17155
 21
91.963492
 31
0.0
  0
LINE
  5
163
330
1F
100
AcDbEntity
  8
LC-002-100-D00-0
 62
     7
370
    50
100
AcDbLine
 10
135.671552
 20
223.999023
 30
0.0
 11
143.444355
 21
223.999023
 31
0.0
  0
INSERT
  5
177
330
1F
100
AcDbEntity
  8
LC-002-100-D00-0
 62
     7
370
    50
100
AcDbBlockReference
  2
POLY6
 10
0.0
 20
0.0
 30
0.0
  0
LINE
  5
178
330
1F
100
AcDbEntity
  8
LC-002-100-D00-0
 62
     7
370
    50
100
AcDbLine
 10
145.786631
 20
223.999023
 30
0.0
 11
169.527649
 21
223.999023
 31
0.0
  0
INSERT
  5
18C
330
1F
100
AcDbEntity
  8
LC-002-100-D00-0
 62
     7
370
    50
100
AcDbBlockReference
  2
POLY7
 10
0.0
 20
0.0
 30
0.0
  0
LINE
  5
18D
330
1F
100
AcDbEntity
  8
LC-002-100-D00-0
 62
     7
370
    50
100
AcDbLine
 10
173.34856
 20
223.999023
 30
0.0
 11
205.965546
 21
223.999023
 31
0.0
  0
INSERT
  5
1A1
330
1F
100
AcDbEntity
  8
LC-002-100-D00-0
 62
     7
370
    50
100
AcDbBlockReference
  2
POLY8
 10
0.0
 20
0.0
 30
0.0
  0
LINE
  5
1A2
330
1F
100
AcDbEntity
  8
LC-002-100-D00-0
 62
     7
370
    50
100
AcDbLine
 10
210.377554
 20
223.999023
 30
0.0
 11
242.994539
 21
223.999023
 31
0.0
  0
INSERT
  5
1B6
330
1F
100
AcDbEntity
  8
LC-002-100-D00-0
 62
     7
370
    50
100
AcDbBlockReference
  2
POLY9
 10
0.0
 20
0.0
 30
0.0
  0
LINE
  5
1B7
330
1F
100
AcDbEntity
  8
LC-002-100-D00-0
 62
     7
370
    50
100
AcDbLine
 10
246.81545
 20
223.999023
 30
0.0
 11
270.556468
 21
223.999023
 31
0.0
  0
INSERT
  5
1CB
330
1F
100
AcDbEntity
  8
LC-002-100-D00-0
 62
     7
370
    50
100
AcDbBlockReference
  2
POLY10
 10
0.0
 20
0.0
 30
0.0
  0
LINE
  5
1CC
330
1F
100
AcDbEntity
  8
LC-002-100-D00-0
 62
     7
370
    50
100
AcDbLine
 10
272.898744
 20
223.999023
 30
0.0
 11
280.671547
 21
223.999023
 31
0.0
  0
INSERT
  5
1DC
330
1F
100
AcDbEntity
  8
LC-002-100-D00-0
 62
     7
370
    50
100
AcDbBlockReference
  2
POLY11
 10
0.0
 20
0.0
 30
0.0
  0
INSERT
  5
1EE
330
1F
100
AcDbEntity
  8
LC-002-100-D00-0
 62
     7
370
    50
100
AcDbBlockReference
  2
POLY12
 10
0.0
 20
0.0
 30
0.0
  0
LINE
  5
1EF
330
1F
100
AcDbEntity
  8
LC-002-100-D00-0
 62
     7
370
    50
100
AcDbLine
 10
20.67155
 20
242.963493
 30
0.0
 11
20.67155
 21
244.463488
 31
0.0
  0
LINE
  5
1F0
330
1F
100
AcDbEntity
  8
LC-002-100-D00-0
 62
     7
370
    15
100
AcDbLine
 10
395.67155
 20
244.463488
 30
0.0
 11
395.67155
 21
242.963493
 31
0.0
  0
LINE
  5
1F1
330
1F
100
AcDbEntity
  8
LC-002-100-D00-0
 62
     7
370
    50
100
AcDbLine
 10
134.67155
 20
237.963498
 30
0.0
 11
134.70466
 21
237.963498
 31
0.0
  0
LINE
  5
1F2
330
1F
100
AcDbEntity
  8
LC-002-100-D00-0
 62
     7
370
    50
100
AcDbLine
 10
281.638439
 20
237.963498
 30
0.0
 11
281.671549
 21
237.963498
 31
0.0
  0
ARC
  5
1F3
330
1F
100
AcDbEntity
  8
LC-002-100-D00-0
 62
     7
370
    15
100
AcDbCircle
 10
394.67155
 20
242.963493
 30
0.0
 40
1.0
100
AcDbArc
 50
270.0
 51
0.0
  0
LINE
  5
1F4
330
1F
100
AcDbEntity
  8
LC-002-100-D00-0
 62
     7
370
    15
100
AcDbLine
 10
389.501679
 20
241.963491
 30
0.0
 11
390.171546
 21
244.463488
 31
0.0
  0
LINE
  5
1F5
330
1F
100
AcDbEntity
  8
LC-002-100-D00-0
 62
     7
370
    15
100
AcDbLine
 10
390.171546
 20
244.463488
 30
0.0
 11
395.67155
 21
244.463488
 31
0.0
  0
LINE
  5
1F6
330
1F
100
AcDbEntity
  8
LC-002-100-D00-0
 62
     7
370
    15
100
AcDbLine
 10
389.501679
 20
241.963491
 30
0.0
 11
394.671548
 21
241.963491
 31
0.0
  0
LINE
  5
1F7
330
1F
100
AcDbEntity
  8
LC-002-100-D00-0
 62
     7
370
    50
100
AcDbLine
 10
390.171546
 20
244.463488
 30
0.0
 11
374.171543
 21
244.463488
 31
0.0
  0
LINE
  5
1F8
330
1F
100
AcDbEntity
  8
LC-002-100-D00-0
 62
     7
370
    50
100
AcDbLine
 10
389.501679
 20
241.963491
 30
0.0
 11
375.28092
 21
241.963491
 31
0.0
  0
ARC
  5
1F9
330
1F
100
AcDbEntity
  8
LC-002-100-D00-0
 62
     7
370
    50
100
AcDbCircle
 10
21.67155
 20
242.963493
 30
0.0
 40
1.0
100
AcDbArc
 50
180.0
 51
270.0
  0
LINE
  5
1FA
330
1F
100
AcDbEntity
  8
LC-002-100-D00-0
 62
     7
370
    50
100
AcDbLine
 10
20.67155
 20
244.463488
 30
0.0
 11
26.171553
 21
244.463488
 31
0.0
  0
LINE
  5
1FB
330
1F
100
AcDbEntity
  8
LC-002-100-D00-0
 62
     7
370
    50
100
AcDbLine
 10
21.671552
 20
241.963491
 30
0.0
 11
26.84142
 21
241.963491
 31
0.0
  0
LINE
  5
1FC
330
1F
100
AcDbEntity
  8
LC-002-100-D00-0
 62
     7
370
    50
100
AcDbLine
 10
272.898744
 20
235.963494
 30
0.0
 11
272.898744
 21
223.999023
 31
0.0
  0
LINE
  5
1FD
330
1F
100
AcDbEntity
  8
LC-002-100-D00-0
 62
     7
370
    50
100
AcDbLine
 10
143.444355
 20
223.999023
 30
0.0
 11
143.444355
 21
235.963494
 31
0.0
  0
LINE
  5
1FE
330
1F
100
AcDbEntity
  8
LC-002-100-D00-0
 62
     7
370
    50
100
AcDbLine
 10
246.81545
 20
235.963494
 30
0.0
 11
246.81545
 21
223.999023
 31
0.0
  0
LINE
  5
1FF
330
1F
100
AcDbEntity
  8
LC-002-100-D00-0
 62
     7
370
    50
100
AcDbLine
 10
169.527649
 20
223.999023
 30
0.0
 11
169.527649
 21
235.963494
 31
0.0
  0
LINE
  5
200
330
1F
100
AcDbEntity
  8
LC-002-100-D00-0
 62
     7
370
    50
100
AcDbLine
 10
242.994539
 20
223.999023
 30
0.0
 11
242.994539
 21
235.963494
 31
0.0
  0
LINE
  5
201
330
1F
100
AcDbEntity
  8
LC-002-100-D00-0
 62
     7
370
    50
100
AcDbLine
 10
173.34856
 20
235.963494
 30
0.0
 11
173.34856
 21
223.999023
 31
0.0
  0
LINE
  5
202
330
1F
100
AcDbEntity
  8
LC-002-100-D00-0
 62
     7
370
    50
100
AcDbLine
 10
210.377554
 20
237.963498
 30
0.0
 11
210.377554
 21
223.999023
 31
0.0
  0
LINE
  5
203
330
1F
100
AcDbEntity
  8
LC-002-100-D00-0
 62
     7
370
    50
100
AcDbLine
 10
205.965546
 20
223.999023
 30
0.0
 11
205.965546
 21
237.963498
 31
0.0
  0
LINE
  5
204
330
1F
100
AcDbEntity
  8
LC-002-100-D00-0
 62
     7
370
    50
100
AcDbLine
 10
87.526772
 20
238.608271
 30
0.0
 11
85.479174
 21
228.970582
 31
0.0
  0
LINE
  5
205
330
1F
100
AcDbEntity
  8
LC-002-100-D00-0
 62
     7
370
    50
100
AcDbLine
 10
85.512573
 20
228.963486
 30
0.0
 11
85.177282
 21
227.46349
 31
0.0
  0
LINE
  5
206
330
1F
100
AcDbEntity
  8
LC-002-100-D00-0
 62
     7
370
    50
100
AcDbLine
 10
89.438605
 20
226.463488
 30
0.0
 11
85.445972
 21
226.463488
 31
0.0
  0
INSERT
  5
218
330
1F
100
AcDbEntity
  8
LC-002-100-D00-0
 62
     7
370
    50
100
AcDbBlockReference
  2
POLY13
 10
0.0
 20
0.0
 30
0.0
  0
LINE
  5
219
330
1F
100
AcDbEntity
  8
LC-002-100-D00-0
 62
     7
370
    50
100
AcDbLine
 10
85.158506
 20
227.204672
 30
0.0
 11
85.177282
 21
227.46349
 31
0.0
  0
LINE
  5
21A
330
1F
100
AcDbEntity
  8
LC-002-100-D00-0
 62
     7
370
    50
100
AcDbLine
 10
79.366552
 20
228.963486
 30
0.0
 11
85.512573
 21
228.963486
 31
0.0
  0
LINE
  5
21B
330
1F
100
AcDbEntity
  8
LC-002-100-D00-0
 62
     7
370
    50
100
AcDbLine
 10
85.445972
 20
226.463488
 30
0.0
 11
80.803754
 21
226.463488
 31
0.0
  0
LINE
  5
21C
330
1F
100
AcDbEntity
  8
LC-002-100-D00-0
 62
     7
370
    50
100
AcDbLine
 10
331.136014
 20
244.463488
 30
0.0
 11
325.136016
 21
238.463491
 31
0.0
  0
LINE
  5
21D
330
1F
100
AcDbEntity
  8
LC-002-100-D00-0
 62
     7
370
    50
100
AcDbLine
 10
281.671549
 20
237.963498
 30
0.0
 11
281.671549
 21
238.463491
 31
0.0
  0
LINE
  5
21E
330
1F
100
AcDbEntity
  8
LC-002-100-D00-0
 62
     7
370
    50
100
AcDbLine
 10
281.671549
 20
238.463491
 30
0.0
 11
325.136016
 21
238.463491
 31
0.0
  0
LINE
  5
21F
330
1F
100
AcDbEntity
  8
LC-002-100-D00-0
 62
     7
370
    50
100
AcDbLine
 10
331.136014
 20
244.463488
 30
0.0
 11
372.171554
 21
244.463488
 31
0.0
  0
LINE
  5
220
330
1F
100
AcDbEntity
  8
LC-002-100-D00-0
 62
     7
370
    50
100
AcDbLine
 10
91.207083
 20
238.463491
 30
0.0
 11
85.207085
 21
244.463488
 31
0.0
  0
LINE
  5
221
330
1F
100
AcDbEntity
  8
LC-002-100-D00-0
 62
     7
370
    50
100
AcDbLine
 10
85.207085
 20
244.463488
 30
0.0
 11
307.421553
 21
244.463488
 31
0.0
  0
LINE
  5
222
330
1F
100
AcDbEntity
  8
LC-002-100-D00-0
 62
     7
370
    50
100
AcDbLine
 10
307.421553
 20
244.463488
 30
0.0
 11
331.136014
 21
244.463488
 31
0.0
  0
LINE
  5
223
330
1F
100
AcDbEntity
  8
LC-002-100-D00-0
 62
     7
370
    50
100
AcDbLine
 10
134.67155
 20
238.463491
 30
0.0
 11
134.67155
 21
237.963498
 31
0.0
  0
LINE
  5
224
330
1F
100
AcDbEntity
  8
LC-002-100-D00-0
 62
     7
370
    50
100
AcDbLine
 10
91.207083
 20
238.463491
 30
0.0
 11
134.67155
 21
238.463491
 31
0.0
  0
LINE
  5
225
330
1F
100
AcDbEntity
  8
LC-002-100-D00-0
 62
     7
370
    50
100
AcDbLine
 10
44.171545
 20
244.463488
 30
0.0
 11
85.207085
 21
244.463488
 31
0.0
  0
LINE
  5
226
330
1F
100
AcDbEntity
  8
LC-002-100-D00-0
 62
     7
370
    50
100
AcDbLine
 10
274.921547
 20
240.663499
 30
0.0
 11
274.921547
 21
240.463495
 31
0.0
  0
LINE
  5
227
330
1F
100
AcDbEntity
  8
LC-002-100-D00-0
 62
     7
370
    50
100
AcDbLine
 10
306.171547
 20
240.663499
 30
0.0
 11
306.171547
 21
240.463495
 31
0.0
  0
LINE
  5
228
330
1F
100
AcDbEntity
  8
LC-002-100-D00-0
 62
     7
370
    50
100
AcDbLine
 10
306.171547
 20
240.463495
 30
0.0
 11
274.921547
 21
240.463495
 31
0.0
  0
LINE
  5
229
330
1F
100
AcDbEntity
  8
LC-002-100-D00-0
 62
     7
370
    50
100
AcDbLine
 10
306.171547
 20
240.663499
 30
0.0
 11
274.921547
 21
240.663499
 31
0.0
  0
LINE
  5
22A
330
1F
100
AcDbEntity
  8
LC-002-100-D00-0
 62
     7
370
    50
100
AcDbLine
 10
110.171552
 20
240.463495
 30
0.0
 11
110.171552
 21
240.663499
 31
0.0
  0
LINE
  5
22B
330
1F
100
AcDbEntity
  8
LC-002-100-D00-0
 62
     7
370
    50
100
AcDbLine
 10
141.421552
 20
240.463495
 30
0.0
 11
141.421552
 21
240.663499
 31
0.0
  0
LINE
  5
22C
330
1F
100
AcDbEntity
  8
LC-002-100-D00-0
 62
     7
370
    50
100
AcDbLine
 10
274.921547
 20
240.663499
 30
0.0
 11
274.875875
 21
240.663499
 31
0.0
  0
LINE
  5
22D
330
1F
100
AcDbEntity
  8
LC-002-100-D00-0
 62
     7
370
    50
100
AcDbLine
 10
210.64041
 20
240.663499
 30
0.0
 11
205.70269
 21
240.663499
 31
0.0
  0
LINE
  5
22E
330
1F
100
AcDbEntity
  8
LC-002-100-D00-0
 62
     7
370
    50
100
AcDbLine
 10
141.467224
 20
240.663499
 30
0.0
 11
141.421552
 21
240.663499
 31
0.0
  0
LINE
  5
22F
330
1F
100
AcDbEntity
  8
LC-002-100-D00-0
 62
     7
370
    50
100
AcDbLine
 10
141.421552
 20
240.463495
 30
0.0
 11
110.171552
 21
240.463495
 31
0.0
  0
LINE
  5
230
330
1F
100
AcDbEntity
  8
LC-002-100-D00-0
 62
     7
370
    50
100
AcDbLine
 10
141.421552
 20
240.663499
 30
0.0
 11
110.171552
 21
240.663499
 31
0.0
  0
LINE
  5
231
330
1F
100
AcDbEntity
  8
LC-002-100-D00-0
 62
     7
370
    50
100
AcDbLine
 10
108.921546
 20
240.463495
 30
0.0
 11
108.921546
 21
238.463491
 31
0.0
  0
LINE
  5
232
330
1F
100
AcDbEntity
  8
LC-002-100-D00-0
 62
     7
370
    50
100
AcDbLine
 10
143.171552
 20
240.463495
 30
0.0
 11
108.921546
 21
240.463495
 31
0.0
  0
LINE
  5
233
330
1F
100
AcDbEntity
  8
LC-002-100-D00-0
 62
     7
370
    50
100
AcDbLine
 10
143.171552
 20
238.463491
 30
0.0
 11
143.171552
 21
240.463495
 31
0.0
  0
LINE
  5
234
330
1F
100
AcDbEntity
  8
LC-002-100-D00-0
 62
     7
370
    50
100
AcDbLine
 10
108.921546
 20
238.463491
 30
0.0
 11
141.467224
 21
238.463491
 31
0.0
  0
LINE
  5
235
330
1F
100
AcDbEntity
  8
LC-002-100-D00-0
 62
     7
370
    50
100
AcDbLine
 10
273.102316
 20
238.463491
 30
0.0
 11
273.171547
 21
238.463491
 31
0.0
  0
LINE
  5
236
330
1F
100
AcDbEntity
  8
LC-002-100-D00-0
 62
     7
370
    50
100
AcDbLine
 10
273.102316
 20
238.463491
 30
0.0
 11
273.102316
 21
235.963494
 31
0.0
  0
LINE
  5
237
330
1F
100
AcDbEntity
  8
LC-002-100-D00-0
 62
     7
370
    50
100
AcDbLine
 10
271.444555
 20
235.963494
 30
0.0
 11
273.102316
 21
235.963494
 31
0.0
  0
LINE
  5
238
330
1F
100
AcDbEntity
  8
LC-002-100-D00-0
 62
     7
370
    50
100
AcDbLine
 10
271.444555
 20
235.963494
 30
0.0
 11
271.444555
 21
239.963502
 31
0.0
  0
LINE
  5
239
330
1F
100
AcDbEntity
  8
LC-002-100-D00-0
 62
     7
370
    50
100
AcDbLine
 10
255.525685
 20
235.963494
 30
0.0
 11
270.024623
 21
235.963494
 31
0.0
  0
LINE
  5
23A
330
1F
100
AcDbEntity
  8
LC-002-100-D00-0
 62
     7
370
    50
100
AcDbLine
 10
255.525685
 20
235.963494
 30
0.0
 11
255.525685
 21
239.963502
 31
0.0
  0
LINE
  5
23B
330
1F
100
AcDbEntity
  8
LC-002-100-D00-0
 62
     7
370
    50
100
AcDbLine
 10
252.697788
 20
239.963502
 30
0.0
 11
252.697788
 21
235.963494
 31
0.0
  0
LINE
  5
23C
330
1F
100
AcDbEntity
  8
LC-002-100-D00-0
 62
     7
370
    50
100
AcDbLine
 10
226.918313
 20
235.963494
 30
0.0
 11
252.697788
 21
235.963494
 31
0.0
  0
LINE
  5
23D
330
1F
100
AcDbEntity
  8
LC-002-100-D00-0
 62
     7
370
    50
100
AcDbLine
 10
226.918313
 20
235.963494
 30
0.0
 11
226.918313
 21
239.963502
 31
0.0
  0
LINE
  5
23E
330
1F
100
AcDbEntity
  8
LC-002-100-D00-0
 62
     7
370
    50
100
AcDbLine
 10
223.055337
 20
239.963502
 30
0.0
 11
223.055337
 21
235.963494
 31
0.0
  0
LINE
  5
23F
330
1F
100
AcDbEntity
  8
LC-002-100-D00-0
 62
     7
370
    50
100
AcDbLine
 10
211.170751
 20
235.963494
 30
0.0
 11
223.055337
 21
235.963494
 31
0.0
  0
LINE
  5
240
330
1F
100
AcDbEntity
  8
LC-002-100-D00-0
 62
     7
370
    50
100
AcDbLine
 10
211.170751
 20
235.963494
 30
0.0
 11
211.170751
 21
238.463491
 31
0.0
  0
LINE
  5
241
330
1F
100
AcDbEntity
  8
LC-002-100-D00-0
 62
     7
370
    50
100
AcDbLine
 10
205.172348
 20
238.463491
 30
0.0
 11
211.170751
 21
238.463491
 31
0.0
  0
LINE
  5
242
330
1F
100
AcDbEntity
  8
LC-002-100-D00-0
 62
     7
370
    50
100
AcDbLine
 10
205.172348
 20
238.463491
 30
0.0
 11
205.172348
 21
235.963494
 31
0.0
  0
LINE
  5
243
330
1F
100
AcDbEntity
  8
LC-002-100-D00-0
 62
     7
370
    50
100
AcDbLine
 10
193.287762
 20
235.963494
 30
0.0
 11
205.172348
 21
235.963494
 31
0.0
  0
LINE
  5
244
330
1F
100
AcDbEntity
  8
LC-002-100-D00-0
 62
     7
370
    50
100
AcDbLine
 10
193.287762
 20
235.963494
 30
0.0
 11
193.287762
 21
239.963502
 31
0.0
  0
LINE
  5
245
330
1F
100
AcDbEntity
  8
LC-002-100-D00-0
 62
     7
370
    50
100
AcDbLine
 10
189.424786
 20
239.963502
 30
0.0
 11
189.424786
 21
235.963494
 31
0.0
  0
LINE
  5
246
330
1F
100
AcDbEntity
  8
LC-002-100-D00-0
 62
     7
370
    50
100
AcDbLine
 10
163.645312
 20
235.963494
 30
0.0
 11
189.424786
 21
235.963494
 31
0.0
  0
LINE
  5
247
330
1F
100
AcDbEntity
  8
LC-002-100-D00-0
 62
     7
370
    50
100
AcDbLine
 10
163.645312
 20
235.963494
 30
0.0
 11
163.645312
 21
239.963502
 31
0.0
  0
LINE
  5
248
330
1F
100
AcDbEntity
  8
LC-002-100-D00-0
 62
     7
370
    50
100
AcDbLine
 10
160.817414
 20
239.963502
 30
0.0
 11
160.817414
 21
235.963494
 31
0.0
  0
LINE
  5
249
330
1F
100
AcDbEntity
  8
LC-002-100-D00-0
 62
     7
370
    50
100
AcDbLine
 10
146.318476
 20
235.963494
 30
0.0
 11
160.817414
 21
235.963494
 31
0.0
  0
LINE
  5
24A
330
1F
100
AcDbEntity
  8
LC-002-100-D00-0
 62
     7
370
    50
100
AcDbLine
 10
144.898544
 20
239.963502
 30
0.0
 11
144.898544
 21
235.963494
 31
0.0
  0
LINE
  5
24B
330
1F
100
AcDbEntity
  8
LC-002-100-D00-0
 62
     7
370
    50
100
AcDbLine
 10
143.240783
 20
235.963494
 30
0.0
 11
144.898544
 21
235.963494
 31
0.0
  0
LINE
  5
24C
330
1F
100
AcDbEntity
  8
LC-002-100-D00-0
 62
     7
370
    50
100
AcDbLine
 10
143.240783
 20
235.963494
 30
0.0
 11
143.240783
 21
238.463491
 31
0.0
  0
LINE
  5
24D
330
1F
100
AcDbEntity
  8
LC-002-100-D00-0
 62
     7
370
    50
100
AcDbLine
 10
143.171552
 20
238.463491
 30
0.0
 11
143.240783
 21
238.463491
 31
0.0
  0
LINE
  5
24E
330
1F
100
AcDbEntity
  8
LC-002-100-D00-0
 62
     7
370
    50
100
AcDbLine
 10
143.240783
 20
240.463495
 30
0.0
 11
143.171552
 21
240.463495
 31
0.0
  0
LINE
  5
24F
330
1F
100
AcDbEntity
  8
LC-002-100-D00-0
 62
     7
370
    50
100
AcDbLine
 10
143.240783
 20
240.463495
 30
0.0
 11
143.240783
 21
242.963493
 31
0.0
  0
LINE
  5
250
330
1F
100
AcDbEntity
  8
LC-002-100-D00-0
 62
     7
370
    50
100
AcDbLine
 10
143.240783
 20
242.963493
 30
0.0
 11
205.172348
 21
242.963493
 31
0.0
  0
LINE
  5
251
330
1F
100
AcDbEntity
  8
LC-002-100-D00-0
 62
     7
370
    50
100
AcDbLine
 10
205.172348
 20
242.963493
 30
0.0
 11
205.172348
 21
240.463495
 31
0.0
  0
LINE
  5
252
330
1F
100
AcDbEntity
  8
LC-002-100-D00-0
 62
     7
370
    50
100
AcDbLine
 10
211.170751
 20
240.463495
 30
0.0
 11
205.172348
 21
240.463495
 31
0.0
  0
LINE
  5
253
330
1F
100
AcDbEntity
  8
LC-002-100-D00-0
 62
     7
370
    50
100
AcDbLine
 10
211.170751
 20
240.463495
 30
0.0
 11
211.170751
 21
242.963493
 31
0.0
  0
LINE
  5
254
330
1F
100
AcDbEntity
  8
LC-002-100-D00-0
 62
     7
370
    50
100
AcDbLine
 10
211.170751
 20
242.963493
 30
0.0
 11
273.102316
 21
242.963493
 31
0.0
  0
LINE
  5
255
330
1F
100
AcDbEntity
  8
LC-002-100-D00-0
 62
     7
370
    50
100
AcDbLine
 10
273.102316
 20
242.963493
 30
0.0
 11
273.102316
 21
240.463495
 31
0.0
  0
LINE
  5
256
330
1F
100
AcDbEntity
  8
LC-002-100-D00-0
 62
     7
370
    50
100
AcDbLine
 10
273.171547
 20
240.463495
 30
0.0
 11
273.102316
 21
240.463495
 31
0.0
  0
LINE
  5
257
330
1F
100
AcDbEntity
  8
LC-002-100-D00-0
 62
     7
370
    50
100
AcDbLine
 10
273.171547
 20
240.463495
 30
0.0
 11
273.171547
 21
238.463491
 31
0.0
  0
LINE
  5
258
330
1F
100
AcDbEntity
  8
LC-002-100-D00-0
 62
     7
370
    50
100
AcDbLine
 10
307.421553
 20
238.463491
 30
0.0
 11
307.421553
 21
240.463495
 31
0.0
  0
LINE
  5
259
330
1F
100
AcDbEntity
  8
LC-002-100-D00-0
 62
     7
370
    50
100
AcDbLine
 10
273.171547
 20
238.463491
 30
0.0
 11
307.421553
 21
238.463491
 31
0.0
  0
LINE
  5
25A
330
1F
100
AcDbEntity
  8
LC-002-100-D00-0
 62
     7
370
    50
100
AcDbLine
 10
307.421553
 20
240.463495
 30
0.0
 11
273.171547
 21
240.463495
 31
0.0
  0
LINE
  5
25B
330
1F
100
AcDbEntity
  8
LC-002-100-D00-0
 62
     7
370
    50
100
AcDbLine
 10
143.240783
 20
242.963493
 30
0.0
 11
141.467224
 21
242.963493
 31
0.0
  0
LINE
  5
25C
330
1F
100
AcDbEntity
  8
LC-002-100-D00-0
 62
     7
370
    50
100
AcDbLine
 10
141.467224
 20
242.963493
 30
0.0
 11
141.467224
 21
240.463495
 31
0.0
  0
LINE
  5
25D
330
1F
100
AcDbEntity
  8
LC-002-100-D00-0
 62
     7
370
    50
100
AcDbLine
 10
274.875875
 20
242.963493
 30
0.0
 11
273.102316
 21
242.963493
 31
0.0
  0
LINE
  5
25E
330
1F
100
AcDbEntity
  8
LC-002-100-D00-0
 62
     7
370
    50
100
AcDbLine
 10
274.875875
 20
240.463495
 30
0.0
 11
274.875875
 21
242.963493
 31
0.0
  0
LINE
  5
25F
330
1F
100
AcDbEntity
  8
LC-002-100-D00-0
 62
     7
370
    50
100
AcDbLine
 10
141.467224
 20
235.963494
 30
0.0
 11
143.240783
 21
235.963494
 31
0.0
  0
LINE
  5
260
330
1F
100
AcDbEntity
  8
LC-002-100-D00-0
 62
     7
370
    50
100
AcDbLine
 10
141.467224
 20
238.463491
 30
0.0
 11
141.467224
 21
235.963494
 31
0.0
  0
LINE
  5
261
330
1F
100
AcDbEntity
  8
LC-002-100-D00-0
 62
     7
370
    50
100
AcDbLine
 10
274.875875
 20
235.963494
 30
0.0
 11
274.875875
 21
238.463491
 31
0.0
  0
LINE
  5
262
330
1F
100
AcDbEntity
  8
LC-002-100-D00-0
 62
     7
370
    50
100
AcDbLine
 10
273.102316
 20
235.963494
 30
0.0
 11
274.875875
 21
235.963494
 31
0.0
  0
LINE
  5
263
330
1F
100
AcDbEntity
  8
LC-002-100-D00-0
 62
     7
370
    50
100
AcDbLine
 10
271.444555
 20
239.963502
 30
0.0
 11
270.038582
 21
239.963502
 31
0.0
  0
LINE
  5
264
330
1F
100
AcDbEntity
  8
LC-002-100-D00-0
 62
     7
370
    50
100
AcDbLine
 10
271.444555
 20
235.963494
 30
0.0
 11
270.038582
 21
235.963494
 31
0.0
  0
LINE
  5
265
330
1F
100
AcDbEntity
  8
LC-002-100-D00-0
 62
     7
370
    50
100
AcDbLine
 10
146.304517
 20
239.963502
 30
0.0
 11
144.898544
 21
239.963502
 31
0.0
  0
LINE
  5
266
330
1F
100
AcDbEntity
  8
LC-002-100-D00-0
 62
     7
370
    50
100
AcDbLine
 10
146.304517
 20
235.963494
 30
0.0
 11
144.898544
 21
235.963494
 31
0.0
  0
LINE
  5
267
330
1F
100
AcDbEntity
  8
LC-002-100-D00-0
 62
     7
370
    50
100
AcDbLine
 10
255.525685
 20
239.963502
 30
0.0
 11
252.697788
 21
239.963502
 31
0.0
  0
LINE
  5
268
330
1F
100
AcDbEntity
  8
LC-002-100-D00-0
 62
     7
370
    50
100
AcDbLine
 10
255.525685
 20
235.963494
 30
0.0
 11
252.697788
 21
235.963494
 31
0.0
  0
LINE
  5
269
330
1F
100
AcDbEntity
  8
LC-002-100-D00-0
 62
     7
370
    50
100
AcDbLine
 10
163.645312
 20
239.963502
 30
0.0
 11
160.817414
 21
239.963502
 31
0.0
  0
LINE
  5
26A
330
1F
100
AcDbEntity
  8
LC-002-100-D00-0
 62
     7
370
    50
100
AcDbLine
 10
163.645312
 20
235.963494
 30
0.0
 11
160.817414
 21
235.963494
 31
0.0
  0
LINE
  5
26B
330
1F
100
AcDbEntity
  8
LC-002-100-D00-0
 62
     7
370
    50
100
AcDbLine
 10
226.918313
 20
239.963502
 30
0.0
 11
223.055337
 21
239.963502
 31
0.0
  0
LINE
  5
26C
330
1F
100
AcDbEntity
  8
LC-002-100-D00-0
 62
     7
370
    50
100
AcDbLine
 10
226.918313
 20
235.963494
 30
0.0
 11
223.055337
 21
235.963494
 31
0.0
  0
LINE
  5
26D
330
1F
100
AcDbEntity
  8
LC-002-100-D00-0
 62
     7
370
    50
100
AcDbLine
 10
193.287762
 20
239.963502
 30
0.0
 11
189.424786
 21
239.963502
 31
0.0
  0
LINE
  5
26E
330
1F
100
AcDbEntity
  8
LC-002-100-D00-0
 62
     7
370
    50
100
AcDbLine
 10
193.287762
 20
235.963494
 30
0.0
 11
189.424786
 21
235.963494
 31
0.0
  0
LINE
  5
26F
330
1F
100
AcDbEntity
  8
LC-002-100-D00-0
 62
     7
370
    50
100
AcDbLine
 10
211.170751
 20
242.963493
 30
0.0
 11
210.64041
 21
242.963493
 31
0.0
  0
LINE
  5
270
330
1F
100
AcDbEntity
  8
LC-002-100-D00-0
 62
     7
370
    50
100
AcDbLine
 10
210.64041
 20
242.963493
 30
0.0
 11
210.64041
 21
240.463495
 31
0.0
  0
LINE
  5
271
330
1F
100
AcDbEntity
  8
LC-002-100-D00-0
 62
     7
370
    50
100
AcDbLine
 10
210.64041
 20
235.963494
 30
0.0
 11
211.170751
 21
235.963494
 31
0.0
  0
LINE
  5
272
330
1F
100
AcDbEntity
  8
LC-002-100-D00-0
 62
     7
370
    50
100
AcDbLine
 10
210.64041
 20
238.463491
 30
0.0
 11
210.64041
 21
235.963494
 31
0.0
  0
LINE
  5
273
330
1F
100
AcDbEntity
  8
LC-002-100-D00-0
 62
     7
370
    50
100
AcDbLine
 10
205.70269
 20
235.963494
 30
0.0
 11
205.70269
 21
238.463491
 31
0.0
  0
LINE
  5
274
330
1F
100
AcDbEntity
  8
LC-002-100-D00-0
 62
     7
370
    50
100
AcDbLine
 10
205.172348
 20
235.963494
 30
0.0
 11
205.70269
 21
235.963494
 31
0.0
  0
LINE
  5
275
330
1F
100
AcDbEntity
  8
LC-002-100-D00-0
 62
     7
370
    50
100
AcDbLine
 10
205.70269
 20
242.963493
 30
0.0
 11
205.172348
 21
242.963493
 31
0.0
  0
LINE
  5
276
330
1F
100
AcDbEntity
  8
LC-002-100-D00-0
 62
     7
370
    50
100
AcDbLine
 10
205.70269
 20
240.463495
 30
0.0
 11
205.70269
 21
242.963493
 31
0.0
  0
INSERT
  5
27E
330
1F
100
AcDbEntity
  8
LC-002-100-D00-0
 62
     7
370
    25
100
AcDbBlockReference
  2
KLON3
 10
0.0
 20
0.0
 30
0.0
  0
INSERT
  5
286
330
1F
100
AcDbEntity
  8
LC-002-100-D00-0
 62
     7
370
    25
100
AcDbBlockReference
  2
KLON4
 10
0.0
 20
0.0
 30
0.0
  0
INSERT
  5
28D
330
1F
100
AcDbEntity
  8
LC-002-100-D00-0
 62
     7
370
    50
100
AcDbBlockReference
  2
KLON5
 10
0.0
 20
0.0
 30
0.0
  0
INSERT
  5
295
330
1F
100
AcDbEntity
  8
LC-002-100-D00-0
 62
     7
370
    50
100
AcDbBlockReference
  2
KLON6
 10
0.0
 20
0.0
 30
0.0
  0
INSERT
  5
2A3
330
1F
100
AcDbEntity
  8
LC-002-100-D00-0
 62
     7
370
    50
100
AcDbBlockReference
  2
KLON7
 10
0.0
 20
0.0
 30
0.0
  0
INSERT
  5
2B0
330
1F
100
AcDbEntity
  8
LC-002-100-D00-0
 62
     7
370
    50
100
AcDbBlockReference
  2
KLON8
 10
0.0
 20
0.0
 30
0.0
  0
LINE
  5
2B1
330
1F
100
AcDbEntity
  8
LC-002-100-D00-0
 62
     7
370
    25
100
AcDbLine
 10
22.047307
 20
241.963493
 30
0.0
 11
24.547307
 21
244.463493
 31
0.0
  0
LINE
  5
2B2
330
1F
100
AcDbEntity
  8
LC-002-100-D00-0
 62
     7
370
    25
100
AcDbLine
 10
390.237808
 20
241.963493
 30
0.0
 11
392.737808
 21
244.463493
 31
0.0
  0
LINE
  5
2B3
330
1F
100
AcDbEntity
  8
LC-001-002-----0
  6
ByBlock
 62
     7
370
    25
100
AcDbLine
 10
278.421562
 20
117.963492
 30
0.0
 11
137.921562
 21
117.963492
 31
0.0
  0
INSERT
  5
2DA
330
1F
100
AcDbEntity
  8
LC-003-005-----0
 62
     7
370
    25
100
AcDbBlockReference
  2
*X122
 10
0.0
 20
0.0
 30
0.0
  0
INSERT
  5
300
330
1F
100
AcDbEntity
  8
LC-003-005-----0
 62
     7
370
    25
100
AcDbBlockReference
  2
*X223
 10
0.0
 20
0.0
 30
0.0
  0
DIMENSION
  5
304
330
1F
100
AcDbEntity
  8
LC-004-003-----0
 62
     7
370
    25
100
AcDbDimension
  2
*D24
 10
328.259343
 20
117.963492
 30
0.0
 11
297.459343
 21
104.963492
 31
0.0
 70
   160
 71
     5
 42
26.0
 53
90.0
  3
LC-DIM-L-0140-02-02
100
AcDbAlignedDimension
 13
279.671562
 23
91.963492
 33
0.0
 14
280.671562
 24
117.963492
 34
0.0
 50
90.0
100
AcDbRotatedDimension
  0
DIMENSION
  5
315
330
1F
100
AcDbEntity
  8
LC-002-100-D00-0
 62
     7
370
    25
100
AcDbDimension
  2
*D25
 10
135.671562
 20
154.249684
 30
0.0
 11
208.171562
 21
185.049684
 31
0.0
 70
   160
  1
%%c145 
 71
     5
 42
145.0
  3
LC-DIM-L-0140-01-02
100
AcDbAlignedDimension
 13
280.671562
 23
92.963492
 33
0.0
 14
135.671562
 24
92.963492
 34
0.0
100
AcDbRotatedDimension
  0
DIMENSION
  5
322
330
1F
100
AcDbEntity
  8
LC-004-003-----0
 62
     7
370
    25
100
AcDbDimension
  2
*D26
 10
395.671562
 20
364.72085
 30
0.0
 11
194.905683
 21
395.52085
 31
0.0
 70
   160
  1
%%c<>
 71
     5
 42
375.0
  3
LC-DIM-L-0140-02-02
100
AcDbAlignedDimension
 13
20.671562
 23
241.963465
 33
0.0
 14
395.671562
 24
241.963565
 34
0.0
100
AcDbRotatedDimension
  0
DIMENSION
  5
32F
330
1F
100
AcDbEntity
  8
LC-004-003-----0
 62
     7
370
    25
100
AcDbDimension
  2
*D27
 10
280.671506
 20
313.63685
 30
0.0
 11
193.136901
 21
344.43685
 31
0.0
 70
   160
  1
%%c<>
 71
     5
 42
144.999912
  3
LC-DIM-L-0140-02-02
100
AcDbAlignedDimension
 13
135.671594
 23
233.83874
 33
0.0
 14
280.671506
 24
233.83874
 34
0.0
100
AcDbRotatedDimension
  0
DIMENSION
  5
33C
330
1F
100
AcDbEntity
  8
LC-004-003-----0
 62
     7
370
    25
100
AcDbDimension
  2
*D28
 10
273.102316
 20
257.80085
 30
0.0
 11
204.633985
 21
288.60085
 31
0.0
 70
   160
  1
%%c128,5
 71
     5
 42
129.861534
  3
LC-DIM-L-0140-02-02
100
AcDbAlignedDimension
 13
143.240783
 23
242.963493
 33
0.0
 14
273.102316
 24
242.963493
 34
0.0
100
AcDbRotatedDimension
  0
DIMENSION
  5
349
330
1F
100
AcDbEntity
  8
LC-004-003-----0
 62
     7
370
    25
100
AcDbDimension
  2
*D29
 10
446.072737
 20
117.963492
 30
0.0
 11
415.272737
 21
172.99485
 31
0.0
 70
   160
  1
25-125
 71
     5
 42
126.499996
 53
90.0
  3
LC-DIM-L-0140-02-02
100
AcDbAlignedDimension
 13
395.67155
 23
244.463488
 33
0.0
 14
278.17155
 24
117.963492
 34
0.0
 50
90.0
100
AcDbRotatedDimension
  0
INSERT
  5
35D
330
1F
100
AcDbEntity
  8
LC-003-005-----0
 62
     7
370
    25
100
AcDbBlockReference
  2
*X330
 10
0.0
 20
0.0
 30
0.0
  0
LINE
  5
35E
330
1F
100
AcDbEntity
  8
LC-001-002-----0
  6
ByBlock
 62
     7
370
    50
100
AcDbLine
 10
135.16814
 20
82.760644
 30
0.0
 11
281.174959
 21
82.760644
 31
0.0
  0
LINE
  5
35F
330
1F
100
AcDbEntity
  8
LC-001-002-----0
  6
ByBlock
 62
     7
370
    50
100
AcDbLine
 10
285.224959
 20
54.899435
 30
0.0
 11
285.224959
 21
54.449435
 31
0.0
  0
LINE
  5
360
102
{ACAD_REACTORS
330
4BB
102
}
330
1F
100
AcDbEntity
  8
LC-001-002-----0
  6
ByBlock
 62
     7
370
    50
100
AcDbLine
 10
294.920843
 20
79.399435
 30
0.0
 11
296.920843
 21
79.399435
 31
0.0
  0
LINE
  5
361
330
1F
100
AcDbEntity
  8
LC-001-002-----0
  6
ByBlock
 62
     7
370
    50
100
AcDbLine
 10
296.920843
 20
79.399435
 30
0.0
 11
294.920843
 21
79.399435
 31
0.0
  0
LINE
  5
362
102
{ACAD_REACTORS
330
4BA
102
}
330
1F
100
AcDbEntity
  8
LC-001-002-----0
  6
ByBlock
 62
     7
370
    50
100
AcDbLine
 10
273.671856
 20
33.927428
 30
0.0
 11
273.671856
 21
41.927428
 31
0.0
  0
LINE
  5
363
102
{ACAD_REACTORS
330
4B9
102
}
330
1F
100
AcDbEntity
  8
LC-001-002-----0
 62
     7
370
    25
100
AcDbLine
 10
208.17155
 20
88.760644
 30
0.0
 11
208.17155
 21
53.408722
 31
0.0
  0
LINE
  5
364
102
{ACAD_REACTORS
330
4BA
102
}
330
1F
100
AcDbEntity
  8
LC-001-002-----0
  6
ByBlock
 62
     7
370
    50
100
AcDbLine
 10
137.171244
 20
41.927428
 30
0.0
 11
135.671244
 21
41.927428
 31
0.0
  0
LINE
  5
365
102
{ACAD_REACTORS
330
4BA
102
}
330
1F
100
AcDbEntity
  8
LC-001-002-----0
  6
ByBlock
 62
     7
370
    50
100
AcDbLine
 10
135.671244
 20
41.927428
 30
0.0
 11
135.671244
 21
33.927428
 31
0.0
  0
LINE
  5
366
102
{ACAD_REACTORS
330
4BA
102
}
330
1F
100
AcDbEntity
  8
LC-001-002-----0
  6
ByBlock
 62
     7
370
    50
100
AcDbLine
 10
135.671244
 20
33.927428
 30
0.0
 11
137.171244
 21
33.927428
 31
0.0
  0
LINE
  5
367
102
{ACAD_REACTORS
330
4BA
102
}
330
1F
100
AcDbEntity
  8
LC-001-002-----0
  6
ByBlock
 62
     7
370
    50
100
AcDbLine
 10
137.171244
 20
39.927428
 30
0.0
 11
172.870319
 21
39.927428
 31
0.0
  0
LINE
  5
368
102
{ACAD_REACTORS
330
4BA
102
}
330
1F
100
AcDbEntity
  8
LC-001-002-----0
  6
ByBlock
 62
     7
370
    50
100
AcDbLine
 10
137.171244
 20
33.927428
 30
0.0
 11
137.171244
 21
39.927428
 31
0.0
  0
LINE
  5
369
102
{ACAD_REACTORS
330
4BA
102
}
330
1F
100
AcDbEntity
  8
LC-001-002-----0
  6
ByBlock
 62
     7
370
    50
100
AcDbLine
 10
137.171244
 20
41.927428
 30
0.0
 11
172.870319
 21
41.927428
 31
0.0
  0
LINE
  5
36A
102
{ACAD_REACTORS
330
4BA
102
}
330
1F
100
AcDbEntity
  8
LC-001-002-----0
  6
ByBlock
 62
     7
370
    50
100
AcDbLine
 10
137.171244
 20
33.927428
 30
0.0
 11
273.671856
 21
33.927428
 31
0.0
  0
LINE
  5
36B
330
1F
100
AcDbEntity
  8
LC-001-002-----0
  6
ByBlock
 62
     7
370
    50
100
AcDbLine
 10
167.589203
 20
42.927428
 30
0.0
 11
174.60237
 21
42.927428
 31
0.0
  0
LINE
  5
36C
330
1F
100
AcDbEntity
  8
LC-001-002-----0
  6
ByBlock
 62
     7
370
    50
100
AcDbLine
 10
189.576036
 20
42.927428
 30
0.0
 11
196.589203
 21
42.927428
 31
0.0
  0
LINE
  5
36D
330
1F
100
AcDbEntity
  8
LC-001-002-----0
  6
ByBlock
 62
     7
370
    50
100
AcDbLine
 10
196.589203
 20
38.927428
 30
0.0
 11
189.576036
 21
38.927428
 31
0.0
  0
ARC
  5
36E
330
1F
100
AcDbEntity
  8
LC-001-002-----0
  6
ByBlock
 62
     7
370
    50
100
AcDbCircle
 10
196.589203
 20
40.927428
 30
0.0
 40
2.0
100
AcDbArc
 50
270.0
 51
90.0
  0
ARC
  5
36F
330
1F
100
AcDbEntity
  8
LC-001-002-----0
  6
ByBlock
 62
     7
370
    50
100
AcDbCircle
 10
167.589203
 20
40.927428
 30
0.0
 40
2.0
100
AcDbArc
 50
90.0
 51
150.0
  0
LINE
  5
370
330
1F
100
AcDbEntity
  8
LC-001-002-----0
  6
ByBlock
 62
     7
370
    50
100
AcDbLine
 10
174.60237
 20
38.927428
 30
0.0
 11
189.576036
 21
38.927428
 31
0.0
  0
LINE
  5
371
102
{ACAD_REACTORS
330
4BC
102
}
330
1F
100
AcDbEntity
  8
LC-001-002-----0
  6
ByBlock
 62
     7
370
    50
100
AcDbLine
 10
294.920843
 20
79.399435
 30
0.0
 11
296.920843
 21
79.399435
 31
0.0
  0
LINE
  5
372
330
1F
100
AcDbEntity
  8
LC-001-002-----0
  6
ByBlock
 62
     7
370
    50
100
AcDbLine
 10
189.576036
 20
42.927428
 30
0.0
 11
174.60237
 21
42.927428
 31
0.0
  0
ARC
  5
373
330
1F
100
AcDbEntity
  8
LC-001-002-----0
  6
ByBlock
 62
     7
370
    50
100
AcDbCircle
 10
167.589203
 20
40.927428
 30
0.0
 40
1.999999999999937
100
AcDbArc
 50
210.0
 51
270.0
  0
LINE
  5
374
102
{ACAD_REACTORS
330
4BA
102
}
330
1F
100
AcDbEntity
  8
LC-001-002-----0
  6
ByBlock
 62
     7
370
    50
100
AcDbLine
 10
198.321254
 20
41.927428
 30
0.0
 11
273.671856
 21
41.927428
 31
0.0
  0
LINE
  5
375
102
{ACAD_REACTORS
330
4B9
102
}
330
1F
100
AcDbEntity
  8
LC-001-002-----0
 62
     7
370
    25
100
AcDbLine
 10
208.17155
 20
41.927428
 30
0.0
 11
208.17155
 21
33.927428
 31
0.0
  0
LINE
  5
376
102
{ACAD_REACTORS
330
4BE
102
}
330
1F
100
AcDbEntity
  8
LC-001-002-----0
  6
ByBlock
 62
     7
370
    50
100
AcDbLine
 10
280.67155
 20
53.408722
 30
0.0
 11
135.131045
 21
53.408722
 31
0.0
  0
INSERT
  5
382
102
{ACAD_REACTORS
330
4BD
102
}
330
1F
100
AcDbEntity
  8
LC-003-005-----0
 62
     7
370
    25
100
AcDbBlockReference
  2
*X431
 10
0.0
 20
0.0
 30
0.0
  0
LINE
  5
383
102
{ACAD_REACTORS
330
4BD
102
}
330
1F
100
AcDbEntity
  8
LC-001-002-----0
  6
ByBlock
 62
     7
370
    50
100
AcDbLine
 10
285.224959
 20
58.949435
 30
0.0
 11
285.224959
 21
59.449435
 31
0.0
  0
ARC
  5
384
102
{ACAD_REACTORS
330
4BD
102
}
330
1F
100
AcDbEntity
  8
LC-001-002-----0
  6
ByBlock
 62
     7
370
    50
100
AcDbCircle
 10
282.031143
 20
76.237345
 30
0.0
 40
14.13969944889807
100
AcDbArc
 50
333.369494
 51
0.0
  0
ARC
  5
386
102
{ACAD_REACTORS
330
4BD
102
}
330
1F
100
AcDbEntity
  8
LC-005-002-RND-0
 62
     7
370
    50
100
AcDbCircle
 10
284.224959
 20
58.999435
 30
0.0
 40
1.0
100
AcDbArc
 50
270.0
 51
0.0
  0
LINE
  5
387
102
{ACAD_REACTORS
330
4BD
102
}
330
1F
100
AcDbEntity
  8
LC-001-002-----0
  6
ByBlock
 62
     7
370
    50
100
AcDbLine
 10
288.69155
 20
86.260644
 30
0.0
 11
288.69155
 21
81.949435
 31
0.0
  0
INSERT
  5
39F
102
{ACAD_REACTORS
330
4BD
102
}
330
1F
100
AcDbEntity
  8
LC-003-005-----0
 62
     7
370
    25
100
AcDbBlockReference
  2
*X532
 10
0.0
 20
0.0
 30
0.0
  0
LINE
  5
3A0
102
{ACAD_REACTORS
330
4BD
102
}
330
1F
100
AcDbEntity
  8
LC-001-002-----0
  6
ByBlock
 62
     7
370
    50
100
AcDbLine
 10
283.174959
 20
60.449435
 30
0.0
 11
283.174959
 21
63.979718
 31
0.0
  0
LINE
  5
3A1
102
{ACAD_REACTORS
330
4BD
102
}
330
1F
100
AcDbEntity
  8
LC-001-002-----0
  6
ByBlock
 62
     7
370
    50
100
AcDbLine
 10
300.219162
 20
79.399435
 30
0.0
 11
289.174959
 21
79.399435
 31
0.0
  0
LINE
  5
3A2
102
{ACAD_REACTORS
330
4BD
102
}
330
1F
100
AcDbEntity
  8
LC-001-002-----0
  6
ByBlock
 62
     7
370
    50
100
AcDbLine
 10
284.174959
 20
64.979718
 30
0.0
 11
293.670843
 21
64.979718
 31
0.0
  0
LINE
  5
3A3
102
{ACAD_REACTORS
330
4BD
102
}
330
1F
100
AcDbEntity
  8
LC-001-002-----0
  6
ByBlock
 62
     7
370
    50
100
AcDbLine
 10
281.174959
 20
53.449435
 30
0.0
 11
281.174959
 21
82.760644
 31
0.0
  0
LINE
  5
3A4
102
{ACAD_REACTORS
330
4BD
102
}
330
1F
100
AcDbEntity
  8
LC-001-002-----0
  6
ByBlock
 62
     7
370
    50
100
AcDbLine
 10
284.224959
 20
60.449435
 30
0.0
 11
283.174959
 21
60.449435
 31
0.0
  0
LINE
  5
3A5
102
{ACAD_REACTORS
330
4BD
102
}
330
1F
100
AcDbEntity
  8
LC-001-002-----0
  6
ByBlock
 62
     7
370
    50
100
AcDbLine
 10
283.19155
 20
88.760644
 30
0.0
 11
289.19155
 21
88.760644
 31
0.0
  0
ARC
  5
3A6
102
{ACAD_REACTORS
330
4BD
102
}
330
1F
100
AcDbEntity
  8
LC-005-002-RND-0
 62
     7
370
    50
100
AcDbCircle
 10
284.224959
 20
59.449435
 30
0.0
 40
1.0
100
AcDbArc
 50
0.0
 51
90.0
  0
LINE
  5
3A7
102
{ACAD_REACTORS
330
4BD
102
}
330
1F
100
AcDbEntity
  8
LC-001-002-----0
  6
ByBlock
 62
     7
370
    50
100
AcDbLine
 10
291.19155
 20
86.760644
 30
0.0
 11
291.19155
 21
81.949435
 31
0.0
  0
ARC
  5
3A8
102
{ACAD_REACTORS
330
4BD
102
}
330
1F
100
AcDbEntity
  8
LC-005-002-RND-0
 62
     7
370
    50
100
AcDbCircle
 10
284.224959
 20
54.899435
 30
0.0
 40
1.0
100
AcDbArc
 50
0.0
 51
90.0
  0
ARC
  5
3A9
102
{ACAD_REACTORS
330
4BD
102
}
330
1F
100
AcDbEntity
  8
LC-005-002-RND-0
 62
     7
370
    50
100
AcDbCircle
 10
284.224959
 20
54.449435
 30
0.0
 40
1.0
100
AcDbArc
 50
270.0
 51
0.0
  0
LINE
  5
3AA
102
{ACAD_REACTORS
330
4BD
102
}
330
1F
100
AcDbEntity
  8
LC-001-002-----0
  6
ByBlock
 62
     7
370
    50
100
AcDbLine
 10
284.224959
 20
55.899435
 30
0.0
 11
283.174959
 21
55.899435
 31
0.0
  0
ARC
  5
3AB
102
{ACAD_REACTORS
330
4BD
102
}
330
1F
100
AcDbEntity
  8
LC-005-002-RND-0
 62
     7
370
    50
100
AcDbCircle
 10
283.19155
 20
85.760644
 30
0.0
 40
3.0
100
AcDbArc
 50
90.0
 51
202.182268
  0
LINE
  5
3AC
102
{ACAD_REACTORS
330
4BD
102
}
330
1F
100
AcDbEntity
  8
LC-001-002-----0
  6
ByBlock
 62
     7
370
    50
100
AcDbLine
 10
284.224959
 20
53.449435
 30
0.0
 11
281.174959
 21
53.449435
 31
0.0
  0
LINE
  5
3AD
102
{ACAD_REACTORS
330
4BD
102
}
330
1F
100
AcDbEntity
  8
LC-001-002-----0
  6
ByBlock
 62
     7
370
    50
100
AcDbLine
 10
283.174959
 20
55.899435
 30
0.0
 11
283.174959
 21
57.999435
 31
0.0
  0
LINE
  5
3AE
102
{ACAD_REACTORS
330
4BD
102
}
330
1F
100
AcDbEntity
  8
LC-001-002-----0
  6
ByBlock
 62
     7
370
    50
100
AcDbLine
 10
293.174959
 20
67.979718
 30
0.0
 11
293.174959
 21
65.979718
 31
0.0
  0
LINE
  5
3AF
102
{ACAD_REACTORS
330
4BD
102
}
330
1F
100
AcDbEntity
  8
LC-001-002-----0
  6
ByBlock
 62
     7
370
    50
100
AcDbLine
 10
284.224959
 20
57.999435
 30
0.0
 11
283.174959
 21
57.999435
 31
0.0
  0
ARC
  5
3B0
102
{ACAD_REACTORS
330
4BD
102
}
330
1F
100
AcDbEntity
  8
LC-005-002-RND-0
 62
     7
370
    50
100
AcDbCircle
 10
289.19155
 20
86.760644
 30
0.0
 40
2.0
100
AcDbArc
 50
0.0
 51
90.0
  0
LINE
  5
3B1
102
{ACAD_REACTORS
330
4BD
102
}
330
1F
100
AcDbEntity
  8
LC-001-002-----0
  6
ByBlock
 62
     7
370
    50
100
AcDbLine
 10
280.413587
 20
84.627981
 30
0.0
 11
281.174959
 21
82.760644
 31
0.0
  0
ARC
  5
3B2
102
{ACAD_REACTORS
330
4BD
102
}
330
1F
100
AcDbEntity
  8
LC-005-002-RND-0
 62
     7
370
    50
100
AcDbCircle
 10
292.174959
 20
65.979718
 30
0.0
 40
1.0
100
AcDbArc
 50
270.0
 51
0.0
  0
LINE
  5
3B3
102
{ACAD_REACTORS
330
4BD
102
}
330
1F
100
AcDbEntity
  8
LC-001-002-----0
  6
ByBlock
 62
     7
370
    50
100
AcDbLine
 10
294.670843
 20
65.979718
 30
0.0
 11
294.670843
 21
69.899435
 31
0.0
  0
LINE
  5
3B4
102
{ACAD_REACTORS
330
4BD
102
}
330
1F
100
AcDbEntity
  8
LC-001-002-----0
  6
ByBlock
 62
     7
370
    50
100
AcDbLine
 10
300.219162
 20
79.399435
 30
0.0
 11
300.219162
 21
81.949435
 31
0.0
  0
LINE
  5
3B5
102
{ACAD_REACTORS
330
4BD
102
}
330
1F
100
AcDbEntity
  8
LC-001-002-----0
  6
ByBlock
 62
     7
370
    50
100
AcDbLine
 10
296.170843
 20
76.237345
 30
0.0
 11
296.170843
 21
79.399435
 31
0.0
  0
LINE
  5
3B6
102
{ACAD_REACTORS
330
4BD
102
}
330
1F
100
AcDbEntity
  8
LC-001-002-----0
  6
ByBlock
 62
     7
370
    50
100
AcDbLine
 10
283.174959
 20
63.979718
 30
0.0
 11
284.174959
 21
64.979718
 31
0.0
  0
LINE
  5
3B7
102
{ACAD_REACTORS
330
4BD
102
}
330
1F
100
AcDbEntity
  8
LC-001-002-----0
  6
ByBlock
 62
     7
370
    50
100
AcDbLine
 10
281.174959
 20
64.449435
 30
0.0
 11
286.174959
 21
67.336186
 31
0.0
  0
LINE
  5
3B8
102
{ACAD_REACTORS
330
4BD
102
}
330
1F
100
AcDbEntity
  8
LC-001-002-----0
  6
ByBlock
 62
     7
370
    50
100
AcDbLine
 10
288.69155
 20
86.260644
 30
0.0
 11
286.174959
 21
86.260644
 31
0.0
  0
LINE
  5
3B9
102
{ACAD_REACTORS
330
4BD
102
}
330
1F
100
AcDbEntity
  8
LC-001-002-----0
  6
ByBlock
 62
     7
370
    50
100
AcDbLine
 10
286.174959
 20
86.260644
 30
0.0
 11
286.174959
 21
67.336186
 31
0.0
  0
LINE
  5
3BA
102
{ACAD_REACTORS
330
4BD
102
}
330
1F
100
AcDbEntity
  8
LC-001-002-----0
  6
ByBlock
 62
     7
370
    50
100
AcDbLine
 10
289.174959
 20
75.449435
 30
0.0
 11
293.174959
 21
67.979718
 31
0.0
  0
ARC
  5
3BB
102
{ACAD_REACTORS
330
4BD
102
}
330
1F
100
AcDbEntity
  8
LC-005-002-RND-0
 62
     7
370
    50
100
AcDbCircle
 10
293.670843
 20
65.979718
 30
0.0
 40
1.0
100
AcDbArc
 50
270.0
 51
0.0
  0
LINE
  5
3BC
102
{ACAD_REACTORS
330
4BD
102
}
330
1F
100
AcDbEntity
  8
LC-001-002-----0
  6
ByBlock
 62
     7
370
    50
100
AcDbLine
 10
300.219162
 20
81.949435
 30
0.0
 11
288.69155
 21
81.949435
 31
0.0
  0
LINE
  5
3BD
102
{ACAD_REACTORS
330
4BD
102
}
330
1F
100
AcDbEntity
  8
LC-001-002-----0
  6
ByBlock
 62
     7
370
    50
100
AcDbLine
 10
289.174959
 20
79.399435
 30
0.0
 11
289.174959
 21
75.449435
 31
0.0
  0
INSERT
  5
3C9
102
{ACAD_REACTORS
330
4BD
102
}
330
1F
100
AcDbEntity
  8
LC-003-005-----0
 62
     7
370
    25
100
AcDbBlockReference
  2
*X633
 10
0.0
 20
0.0
 30
0.0
  0
LINE
  5
3CA
102
{ACAD_REACTORS
330
4BD
102
}
330
1F
100
AcDbEntity
  8
LC-001-002-----0
  6
ByBlock
 62
     7
370
    50
100
AcDbLine
 10
131.11814
 20
58.949435
 30
0.0
 11
131.11814
 21
59.449435
 31
0.0
  0
ARC
  5
3CB
102
{ACAD_REACTORS
330
4BD
102
}
330
1F
100
AcDbEntity
  8
LC-001-002-----0
  6
ByBlock
 62
     7
370
    50
100
AcDbCircle
 10
134.311956
 20
76.237345
 30
0.0
 40
14.13969944889823
100
AcDbArc
 50
180.0
 51
206.630506
  0
ARC
  5
3CC
102
{ACAD_REACTORS
330
4BD
102
}
330
1F
100
AcDbEntity
  8
LC-005-002-RND-0
 62
     7
370
    50
100
AcDbCircle
 10
132.11814
 20
58.999435
 30
0.0
 40
1.0
100
AcDbArc
 50
180.0
 51
270.0
  0
LINE
  5
3CD
102
{ACAD_REACTORS
330
4BD
102
}
330
1F
100
AcDbEntity
  8
LC-001-002-----0
  6
ByBlock
 62
     7
370
    50
100
AcDbLine
 10
127.65155
 20
86.260644
 30
0.0
 11
127.65155
 21
81.949435
 31
0.0
  0
INSERT
  5
3E4
102
{ACAD_REACTORS
330
4BD
102
}
330
1F
100
AcDbEntity
  8
LC-003-005-----0
 62
     7
370
    25
100
AcDbBlockReference
  2
*X734
 10
0.0
 20
0.0
 30
0.0
  0
LINE
  5
3E5
102
{ACAD_REACTORS
330
4BD
102
}
330
1F
100
AcDbEntity
  8
LC-001-002-----0
  6
ByBlock
 62
     7
370
    50
100
AcDbLine
 10
133.16814
 20
60.449435
 30
0.0
 11
133.16814
 21
63.979718
 31
0.0
  0
LINE
  5
3E6
102
{ACAD_REACTORS
330
4BD
102
}
330
1F
100
AcDbEntity
  8
LC-001-002-----0
  6
ByBlock
 62
     7
370
    50
100
AcDbLine
 10
116.123937
 20
79.399435
 30
0.0
 11
127.16814
 21
79.399435
 31
0.0
  0
LINE
  5
3E7
102
{ACAD_REACTORS
330
4BD
102
}
330
1F
100
AcDbEntity
  8
LC-001-002-----0
  6
ByBlock
 62
     7
370
    50
100
AcDbLine
 10
132.16814
 20
64.979718
 30
0.0
 11
122.672256
 21
64.979718
 31
0.0
  0
LINE
  5
3E8
102
{ACAD_REACTORS
330
4BD
102
}
330
1F
100
AcDbEntity
  8
LC-001-002-----0
  6
ByBlock
 62
     7
370
    50
100
AcDbLine
 10
135.16814
 20
53.449435
 30
0.0
 11
135.16814
 21
82.760644
 31
0.0
  0
LINE
  5
3E9
102
{ACAD_REACTORS
330
4BD
102
}
330
1F
100
AcDbEntity
  8
LC-001-002-----0
  6
ByBlock
 62
     7
370
    50
100
AcDbLine
 10
132.11814
 20
60.449435
 30
0.0
 11
133.16814
 21
60.449435
 31
0.0
  0
ARC
  5
3EA
102
{ACAD_REACTORS
330
4BD
102
}
330
1F
100
AcDbEntity
  8
LC-005-002-RND-0
 62
     7
370
    50
100
AcDbCircle
 10
132.11814
 20
59.449435
 30
0.0
 40
1.0
100
AcDbArc
 50
90.0
 51
180.0
  0
LINE
  5
3EB
102
{ACAD_REACTORS
330
4BD
102
}
330
1F
100
AcDbEntity
  8
LC-001-002-----0
  6
ByBlock
 62
     7
370
    50
100
AcDbLine
 10
125.15155
 20
86.760644
 30
0.0
 11
125.15155
 21
81.949435
 31
0.0
  0
LINE
  5
3EC
102
{ACAD_REACTORS
330
4BD
102
}
330
1F
100
AcDbEntity
  8
LC-001-002-----0
  6
ByBlock
 62
     7
370
    50
100
AcDbLine
 10
131.11814
 20
54.399435
 30
0.0
 11
131.11814
 21
54.899435
 31
0.0
  0
ARC
  5
3ED
102
{ACAD_REACTORS
330
4BD
102
}
330
1F
100
AcDbEntity
  8
LC-005-002-RND-0
 62
     7
370
    50
100
AcDbCircle
 10
132.11814
 20
54.899435
 30
0.0
 40
1.0
100
AcDbArc
 50
90.0
 51
180.0
  0
ARC
  5
3EE
102
{ACAD_REACTORS
330
4BD
102
}
330
1F
100
AcDbEntity
  8
LC-005-002-RND-0
 62
     7
370
    50
100
AcDbCircle
 10
132.11814
 20
54.449435
 30
0.0
 40
1.0
100
AcDbArc
 50
180.0
 51
270.0
  0
LINE
  5
3EF
102
{ACAD_REACTORS
330
4BD
102
}
330
1F
100
AcDbEntity
  8
LC-001-002-----0
  6
ByBlock
 62
     7
370
    50
100
AcDbLine
 10
132.11814
 20
55.899435
 30
0.0
 11
133.16814
 21
55.899435
 31
0.0
  0
ARC
  5
3F0
102
{ACAD_REACTORS
330
4BD
102
}
330
1F
100
AcDbEntity
  8
LC-005-002-RND-0
 62
     7
370
    50
100
AcDbCircle
 10
133.15155
 20
85.760644
 30
0.0
 40
3.000000000000133
100
AcDbArc
 50
337.817732
 51
90.0
  0
LINE
  5
3F1
102
{ACAD_REACTORS
330
4BD
102
}
330
1F
100
AcDbEntity
  8
LC-001-002-----0
  6
ByBlock
 62
     7
370
    50
100
AcDbLine
 10
132.11814
 20
53.449435
 30
0.0
 11
135.16814
 21
53.449435
 31
0.0
  0
LINE
  5
3F2
102
{ACAD_REACTORS
330
4BD
102
}
330
1F
100
AcDbEntity
  8
LC-001-002-----0
  6
ByBlock
 62
     7
370
    50
100
AcDbLine
 10
133.16814
 20
55.899435
 30
0.0
 11
133.16814
 21
57.999435
 31
0.0
  0
LINE
  5
3F3
102
{ACAD_REACTORS
330
4BD
102
}
330
1F
100
AcDbEntity
  8
LC-001-002-----0
  6
ByBlock
 62
     7
370
    50
100
AcDbLine
 10
123.16814
 20
67.979718
 30
0.0
 11
123.16814
 21
65.979718
 31
0.0
  0
LINE
  5
3F4
102
{ACAD_REACTORS
330
4BD
102
}
330
1F
100
AcDbEntity
  8
LC-001-002-----0
  6
ByBlock
 62
     7
370
    50
100
AcDbLine
 10
132.11814
 20
57.999435
 30
0.0
 11
133.16814
 21
57.999435
 31
0.0
  0
INSERT
  5
3FD
102
{ACAD_REACTORS
330
4BD
102
}
330
1F
100
AcDbEntity
  8
LC-003-005-----0
 62
     7
370
    25
100
AcDbBlockReference
  2
*X835
 10
0.0
 20
0.0
 30
0.0
  0
ARC
  5
3FE
102
{ACAD_REACTORS
330
4BD
102
}
330
1F
100
AcDbEntity
  8
LC-005-002-RND-0
 62
     7
370
    50
100
AcDbCircle
 10
127.15155
 20
86.760644
 30
0.0
 40
2.0
100
AcDbArc
 50
90.0
 51
180.0
  0
LINE
  5
3FF
102
{ACAD_REACTORS
330
4BD
102
}
330
1F
100
AcDbEntity
  8
LC-001-002-----0
  6
ByBlock
 62
     7
370
    50
100
AcDbLine
 10
135.929512
 20
84.627981
 30
0.0
 11
135.16814
 21
82.760644
 31
0.0
  0
ARC
  5
400
102
{ACAD_REACTORS
330
4BD
102
}
330
1F
100
AcDbEntity
  8
LC-005-002-RND-0
 62
     7
370
    50
100
AcDbCircle
 10
124.16814
 20
65.979718
 30
0.0
 40
1.0
100
AcDbArc
 50
180.0
 51
270.0
  0
LINE
  5
401
102
{ACAD_REACTORS
330
4BD
102
}
330
1F
100
AcDbEntity
  8
LC-001-002-----0
  6
ByBlock
 62
     7
370
    50
100
AcDbLine
 10
121.672256
 20
65.979718
 30
0.0
 11
121.672256
 21
69.899435
 31
0.0
  0
LINE
  5
402
102
{ACAD_REACTORS
330
4BD
102
}
330
1F
100
AcDbEntity
  8
LC-001-002-----0
  6
ByBlock
 62
     7
370
    50
100
AcDbLine
 10
116.123937
 20
79.399435
 30
0.0
 11
116.123937
 21
81.949435
 31
0.0
  0
LINE
  5
403
102
{ACAD_REACTORS
330
4BD
102
}
330
1F
100
AcDbEntity
  8
LC-001-002-----0
  6
ByBlock
 62
     7
370
    50
100
AcDbLine
 10
120.172256
 20
76.237345
 30
0.0
 11
120.172256
 21
79.399435
 31
0.0
  0
LINE
  5
404
102
{ACAD_REACTORS
330
4BD
102
}
330
1F
100
AcDbEntity
  8
LC-001-002-----0
  6
ByBlock
 62
     7
370
    50
100
AcDbLine
 10
133.16814
 20
63.979718
 30
0.0
 11
132.16814
 21
64.979718
 31
0.0
  0
LINE
  5
405
102
{ACAD_REACTORS
330
4BD
102
}
330
1F
100
AcDbEntity
  8
LC-001-002-----0
  6
ByBlock
 62
     7
370
    50
100
AcDbLine
 10
135.16814
 20
64.449435
 30
0.0
 11
130.16814
 21
67.336186
 31
0.0
  0
LINE
  5
406
102
{ACAD_REACTORS
330
4BD
102
}
330
1F
100
AcDbEntity
  8
LC-001-002-----0
  6
ByBlock
 62
     7
370
    50
100
AcDbLine
 10
127.65155
 20
86.260644
 30
0.0
 11
130.16814
 21
86.260644
 31
0.0
  0
LINE
  5
407
102
{ACAD_REACTORS
330
4BD
102
}
330
1F
100
AcDbEntity
  8
LC-001-002-----0
  6
ByBlock
 62
     7
370
    50
100
AcDbLine
 10
130.16814
 20
86.260644
 30
0.0
 11
130.16814
 21
67.336186
 31
0.0
  0
LINE
  5
408
102
{ACAD_REACTORS
330
4BD
102
}
330
1F
100
AcDbEntity
  8
LC-001-002-----0
  6
ByBlock
 62
     7
370
    50
100
AcDbLine
 10
127.16814
 20
75.449435
 30
0.0
 11
123.16814
 21
67.979718
 31
0.0
  0
ARC
  5
409
102
{ACAD_REACTORS
330
4BD
102
}
330
1F
100
AcDbEntity
  8
LC-005-002-RND-0
 62
     7
370
    50
100
AcDbCircle
 10
122.672256
 20
65.979718
 30
0.0
 40
1.0
100
AcDbArc
 50
180.0
 51
270.0
  0
LINE
  5
40A
102
{ACAD_REACTORS
330
4BD
102
}
330
1F
100
AcDbEntity
  8
LC-001-002-----0
  6
ByBlock
 62
     7
370
    50
100
AcDbLine
 10
116.123937
 20
81.949435
 30
0.0
 11
127.65155
 21
81.949435
 31
0.0
  0
LINE
  5
40B
102
{ACAD_REACTORS
330
4BD
102
}
330
1F
100
AcDbEntity
  8
LC-001-002-----0
  6
ByBlock
 62
     7
370
    50
100
AcDbLine
 10
127.16814
 20
79.399435
 30
0.0
 11
127.16814
 21
75.449435
 31
0.0
  0
LINE
  5
40C
102
{ACAD_REACTORS
330
4BD
102
}
330
1F
100
AcDbEntity
  8
LC-001-002-----0
  6
ByBlock
 62
     7
370
    50
100
AcDbLine
 10
127.15155
 20
88.760644
 30
0.0
 11
284.014106
 21
88.760644
 31
0.0
  0
LINE
  5
40D
330
1F
100
AcDbEntity
  8
LC-001-002-----0
  6
ByBlock
 62
     7
370
    50
100
AcDbLine
 10
174.60237
 20
38.927428
 30
0.0
 11
167.589203
 21
38.927428
 31
0.0
  0
ARC
  5
40E
330
1F
100
AcDbEntity
  8
LC-001-002-----0
  6
ByBlock
 62
     7
370
    50
100
AcDbCircle
 10
174.60237
 20
40.927428
 30
0.0
 40
2.0
100
AcDbArc
 50
90.0
 51
150.0
  0
ARC
  5
40F
330
1F
100
AcDbEntity
  8
LC-001-002-----0
  6
ByBlock
 62
     7
370
    50
100
AcDbCircle
 10
174.60237
 20
40.927428
 30
0.0
 40
1.999999999999937
100
AcDbArc
 50
210.0
 51
270.0
  0
ARC
  5
410
330
1F
100
AcDbEntity
  8
LC-001-002-----0
  6
ByBlock
 62
     7
370
    50
100
AcDbCircle
 10
189.576036
 20
40.927428
 30
0.0
 40
2.0
100
AcDbArc
 50
270.0
 51
90.0
  0
LINE
  5
411
330
1F
100
AcDbEntity
  8
LC-001-002-----0
  6
ByBlock
 62
     7
370
    50
100
AcDbLine
 10
280.17155
 20
41.927428
 30
0.0
 11
280.17155
 21
33.927428
 31
0.0
  0
LINE
  5
412
330
1F
100
AcDbEntity
  8
LC-001-002-----0
  6
ByBlock
 62
     7
370
    50
100
AcDbLine
 10
280.17155
 20
41.927428
 30
0.0
 11
273.671856
 21
41.927428
 31
0.0
  0
LINE
  5
413
330
1F
100
AcDbEntity
  8
LC-001-002-----0
  6
ByBlock
 62
     7
370
    50
100
AcDbLine
 10
273.671856
 20
33.927428
 30
0.0
 11
280.17155
 21
33.927428
 31
0.0
  0
INSERT
  5
41D
330
1F
100
AcDbEntity
  8
LC-003-005-----0
 62
     7
370
    25
100
AcDbBlockReference
  2
*X936
 10
0.0
 20
0.0
 30
0.0
  0
INSERT
  5
437
330
1F
100
AcDbEntity
  8
LC-003-005-----0
 62
     7
370
    25
100
AcDbBlockReference
  2
*X1037
 10
0.0
 20
0.0
 30
0.0
  0
DIMENSION
  5
438
330
1F
100
AcDbEntity
  8
LC-004-003-----0
 62
     7
370
    25
100
AcDbDimension
  2
*D38
 10
68.672381
 20
235.963494
 30
0.0
 11
37.872381
 21
180.12285
 31
0.0
 70
   160
 71
     5
 42
8.499995
 53
90.0
  3
LC-DIM-L-0140-02-02
100
AcDbAlignedDimension
 13
20.67155
 23
244.463488
 33
0.0
 14
90.171549
 24
235.963494
 34
0.0
 50
90.0
100
AcDbRotatedDimension
  0
DIMENSION
  5
446
330
1F
100
AcDbEntity
  8
LC-004-003-----0
 62
     7
370
    25
100
AcDbDimension
  2
*D39
 10
-0.544757
 20
226.463488
 30
0.0
 11
-31.344757
 21
218.296848
 31
0.0
 70
   160
 71
     5
 42
18.0
 53
90.0
  3
LC-DIM-L-0140-02-02
100
AcDbAlignedDimension
 13
20.67155
 23
244.463488
 33
0.0
 14
29.618371
 24
226.463488
 34
0.0
 50
90.0
100
AcDbRotatedDimension
  0
LINE
  5
454
102
{ACAD_REACTORS
330
4B8
102
}
330
1F
100
AcDbEntity
  8
LC-002-100-D00-0
 62
     7
370
    25
100
AcDbLine
 10
138.17155
 20
93.97621
 30
0.0
 11
135.67155
 21
96.47621
 31
0.0
  0
LINE
  5
455
102
{ACAD_REACTORS
330
4B8
102
}
330
1F
100
AcDbEntity
  8
LC-002-100-D00-0
 62
     7
370
    25
100
AcDbLine
 10
138.17155
 20
102.956466
 30
0.0
 11
135.67155
 21
105.456466
 31
0.0
  0
LINE
  5
456
102
{ACAD_REACTORS
330
4B8
102
}
330
1F
100
AcDbEntity
  8
LC-002-100-D00-0
 62
     7
370
    25
100
AcDbLine
 10
138.17155
 20
111.936722
 30
0.0
 11
135.67155
 21
114.436722
 31
0.0
  0
LINE
  5
457
102
{ACAD_REACTORS
330
4B8
102
}
330
1F
100
AcDbEntity
  8
LC-002-100-D00-0
 62
     7
370
    25
100
AcDbLine
 10
138.17155
 20
120.916978
 30
0.0
 11
135.67155
 21
123.416978
 31
0.0
  0
LINE
  5
458
102
{ACAD_REACTORS
330
4B8
102
}
330
1F
100
AcDbEntity
  8
LC-002-100-D00-0
 62
     7
370
    25
100
AcDbLine
 10
138.17155
 20
129.897234
 30
0.0
 11
135.67155
 21
132.397234
 31
0.0
  0
LINE
  5
459
102
{ACAD_REACTORS
330
4B8
102
}
330
1F
100
AcDbEntity
  8
LC-002-100-D00-0
 62
     7
370
    25
100
AcDbLine
 10
40.219726
 20
227.849057
 30
0.0
 11
38.248038
 21
229.820746
 31
0.0
  0
LINE
  5
45A
102
{ACAD_REACTORS
330
4B8
102
}
330
1F
100
AcDbEntity
  8
LC-002-100-D00-0
 62
     7
370
    25
100
AcDbLine
 10
138.17155
 20
138.87749
 30
0.0
 11
135.67155
 21
141.37749
 31
0.0
  0
LINE
  5
45B
102
{ACAD_REACTORS
330
4B8
102
}
330
1F
100
AcDbEntity
  8
LC-002-100-D00-0
 62
     7
370
    25
100
AcDbLine
 10
42.117477
 20
234.931563
 30
0.0
 11
40.145789
 21
236.903251
 31
0.0
  0
LINE
  5
45C
102
{ACAD_REACTORS
330
4B8
102
}
330
1F
100
AcDbEntity
  8
LC-002-100-D00-0
 62
     7
370
    25
100
AcDbLine
 10
138.17155
 20
147.857747
 30
0.0
 11
135.67155
 21
150.357747
 31
0.0
  0
LINE
  5
45D
102
{ACAD_REACTORS
330
4B8
102
}
330
1F
100
AcDbEntity
  8
LC-002-100-D00-0
 62
     7
370
    25
100
AcDbLine
 10
44.065803
 20
241.963493
 30
0.0
 11
42.04354
 21
243.985756
 31
0.0
  0
LINE
  5
45E
102
{ACAD_REACTORS
330
4B8
102
}
330
1F
100
AcDbEntity
  8
LC-002-100-D00-0
 62
     7
370
    25
100
AcDbLine
 10
138.17155
 20
156.838003
 30
0.0
 11
135.67155
 21
159.338003
 31
0.0
  0
LINE
  5
45F
102
{ACAD_REACTORS
330
4B8
102
}
330
1F
100
AcDbEntity
  8
LC-002-100-D00-0
 62
     7
370
    25
100
AcDbLine
 10
53.046059
 20
241.963493
 30
0.0
 11
51.046059
 21
243.963493
 31
0.0
  0
LINE
  5
460
102
{ACAD_REACTORS
330
4B8
102
}
330
1F
100
AcDbEntity
  8
LC-002-100-D00-0
 62
     7
370
    25
100
AcDbLine
 10
138.17155
 20
165.818259
 30
0.0
 11
135.67155
 21
168.318259
 31
0.0
  0
LINE
  5
461
102
{ACAD_REACTORS
330
4B8
102
}
330
1F
100
AcDbEntity
  8
LC-002-100-D00-0
 62
     7
370
    25
100
AcDbLine
 10
62.026315
 20
241.963493
 30
0.0
 11
60.026315
 21
243.963493
 31
0.0
  0
LINE
  5
462
102
{ACAD_REACTORS
330
4B8
102
}
330
1F
100
AcDbEntity
  8
LC-002-100-D00-0
 62
     7
370
    25
100
AcDbLine
 10
138.17155
 20
174.798515
 30
0.0
 11
135.67155
 21
177.298515
 31
0.0
  0
LINE
  5
463
102
{ACAD_REACTORS
330
4B8
102
}
330
1F
100
AcDbEntity
  8
LC-002-100-D00-0
 62
     7
370
    25
100
AcDbLine
 10
71.006572
 20
241.963493
 30
0.0
 11
69.006572
 21
243.963493
 31
0.0
  0
LINE
  5
464
102
{ACAD_REACTORS
330
4B8
102
}
330
1F
100
AcDbEntity
  8
LC-002-100-D00-0
 62
     7
370
    25
100
AcDbLine
 10
138.17155
 20
183.778771
 30
0.0
 11
135.67155
 21
186.278771
 31
0.0
  0
LINE
  5
465
102
{ACAD_REACTORS
330
4B8
102
}
330
1F
100
AcDbEntity
  8
LC-002-100-D00-0
 62
     7
370
    25
100
AcDbLine
 10
79.986828
 20
241.963493
 30
0.0
 11
77.986828
 21
243.963493
 31
0.0
  0
LINE
  5
466
102
{ACAD_REACTORS
330
4B8
102
}
330
1F
100
AcDbEntity
  8
LC-002-100-D00-0
 62
     7
370
    25
100
AcDbLine
 10
138.17155
 20
192.759027
 30
0.0
 11
135.67155
 21
195.259027
 31
0.0
  0
LINE
  5
467
102
{ACAD_REACTORS
330
4B8
102
}
330
1F
100
AcDbEntity
  8
LC-002-100-D00-0
 62
     7
370
    25
100
AcDbLine
 10
94.967084
 20
235.963493
 30
0.0
 11
92.967084
 21
237.963493
 31
0.0
  0
LINE
  5
468
102
{ACAD_REACTORS
330
4B8
102
}
330
1F
100
AcDbEntity
  8
LC-002-100-D00-0
 62
     7
370
    25
100
AcDbLine
 10
138.17155
 20
201.739283
 30
0.0
 11
135.67155
 21
204.239283
 31
0.0
  0
LINE
  5
469
102
{ACAD_REACTORS
330
4B8
102
}
330
1F
100
AcDbEntity
  8
LC-002-100-D00-0
 62
     7
370
    25
100
AcDbLine
 10
103.94734
 20
235.963493
 30
0.0
 11
101.94734
 21
237.963493
 31
0.0
  0
LINE
  5
46A
102
{ACAD_REACTORS
330
4B8
102
}
330
1F
100
AcDbEntity
  8
LC-002-100-D00-0
 62
     7
370
    25
100
AcDbLine
 10
138.17155
 20
210.719539
 30
0.0
 11
135.67155
 21
213.219539
 31
0.0
  0
LINE
  5
46B
102
{ACAD_REACTORS
330
4B8
102
}
330
1F
100
AcDbEntity
  8
LC-002-100-D00-0
 62
     7
370
    25
100
AcDbLine
 10
112.927596
 20
235.963493
 30
0.0
 11
110.927596
 21
237.963493
 31
0.0
  0
LINE
  5
46C
102
{ACAD_REACTORS
330
4B8
102
}
330
1F
100
AcDbEntity
  8
LC-002-100-D00-0
 62
     7
370
    25
100
AcDbLine
 10
138.17155
 20
219.699795
 30
0.0
 11
132.67155
 21
225.199795
 31
0.0
  0
LINE
  5
46D
102
{ACAD_REACTORS
330
4B8
102
}
330
1F
100
AcDbEntity
  8
LC-002-100-D00-0
 62
     7
370
    25
100
AcDbLine
 10
121.907852
 20
235.963493
 30
0.0
 11
119.907852
 21
237.963493
 31
0.0
  0
LINE
  5
46E
102
{ACAD_REACTORS
330
4B8
102
}
330
1F
100
AcDbEntity
  8
LC-002-100-D00-0
 62
     7
370
    25
100
AcDbLine
 10
135.67155
 20
231.180052
 30
0.0
 11
132.67155
 21
234.180052
 31
0.0
  0
LINE
  5
46F
102
{ACAD_REACTORS
330
4B8
102
}
330
1F
100
AcDbEntity
  8
LC-002-100-D00-0
 62
     7
370
    25
100
AcDbLine
 10
130.888108
 20
235.963493
 30
0.0
 11
128.888108
 21
237.963493
 31
0.0
  0
LINE
  5
470
330
1F
100
AcDbEntity
  8
LC-001-002-----0
  6
ByBlock
 62
     7
370
    50
100
AcDbLine
 10
375.91322
 20
237.963489
 30
0.0
 11
374.841425
 21
241.963491
 31
0.0
  0
LINE
  5
471
330
1F
100
AcDbEntity
  8
LC-001-002-----0
  6
ByBlock
 62
     7
370
    50
100
AcDbLine
 10
376.296035
 20
227.204673
 30
0.0
 11
372.341427
 21
241.963491
 31
0.0
  0
ARC
  5
472
330
1F
100
AcDbEntity
  8
LC-002-100-D00-0
 62
     7
370
    50
100
AcDbCircle
 10
377.261961
 20
227.463491
 30
0.0
 40
1.000000000000085
100
AcDbArc
 50
195.0
 51
270.0
  0
LINE
  5
473
330
1F
100
AcDbEntity
  8
LC-002-100-D00-0
 62
     7
370
    50
100
AcDbLine
 10
377.261961
 20
226.463488
 30
0.0
 11
386.724728
 21
226.463488
 31
0.0
  0
ARC
  5
474
330
1F
100
AcDbEntity
  8
LC-002-100-D00-0
 62
     7
370
    50
100
AcDbCircle
 10
386.724729
 20
227.463491
 30
0.0
 40
1.000000000000028
100
AcDbArc
 50
270.0
 51
345.0
  0
LINE
  5
475
330
1F
100
AcDbEntity
  8
LC-002-100-D00-0
 62
     7
370
    50
100
AcDbLine
 10
387.690651
 20
227.204672
 30
0.0
 11
388.16193
 21
228.963486
 31
0.0
  0
LINE
  5
476
330
1F
100
AcDbEntity
  8
LC-002-100-D00-0
 62
     7
370
    50
100
AcDbLine
 10
378.324765
 20
228.963486
 30
0.0
 11
388.16193
 21
228.963486
 31
0.0
  0
INSERT
  5
47C
330
1F
100
AcDbEntity
  8
LC-002-100-D00-0
 62
     7
370
    50
100
AcDbBlockReference
  2
KLON9
 10
0.0
 20
0.0
 30
0.0
  0
LINE
  5
47D
330
1F
100
AcDbEntity
  8
LC-002-100-D00-0
 62
     7
370
    50
100
AcDbLine
 10
375.28092
 20
241.963491
 30
0.0
 11
379.056859
 21
228.963486
 31
0.0
  0
LINE
  5
47E
102
{ACAD_REACTORS
330
4BF
102
}
330
1F
100
AcDbEntity
  8
LC-002-100-D00-0
 62
     7
370
    25
100
AcDbLine
 10
376.123373
 20
227.849057
 30
0.0
 11
378.095061
 21
229.820746
 31
0.0
  0
LINE
  5
47F
102
{ACAD_REACTORS
330
4BF
102
}
330
1F
100
AcDbEntity
  8
LC-002-100-D00-0
 62
     7
370
    25
100
AcDbLine
 10
374.225622
 20
234.931563
 30
0.0
 11
376.19731
 21
236.903251
 31
0.0
  0
LINE
  5
480
330
1F
100
AcDbEntity
  8
LC-001-002-----0
  6
ByBlock
 62
     7
370
    50
100
AcDbLine
 10
324.076449
 20
235.963494
 30
0.0
 11
325.922778
 21
227.27314
 31
0.0
  0
LINE
  5
481
330
1F
100
AcDbEntity
  8
LC-002-100-D00-0
 62
     7
370
    50
100
AcDbLine
 10
336.976547
 20
228.963486
 30
0.0
 11
336.505268
 21
227.204672
 31
0.0
  0
ARC
  5
482
330
1F
100
AcDbEntity
  8
LC-002-100-D00-0
 62
     7
370
    50
100
AcDbCircle
 10
335.539343
 20
227.463491
 30
0.0
 40
1.000000000000028
100
AcDbArc
 50
270.0
 51
345.0
  0
ARC
  5
483
330
1F
100
AcDbEntity
  8
LC-002-100-D00-0
 62
     7
370
    50
100
AcDbCircle
 10
326.904494
 20
227.463491
 30
0.0
 40
0.9999999999999986
100
AcDbArc
 50
190.973276
 51
270.0
  0
LINE
  5
484
330
1F
100
AcDbEntity
  8
LC-002-100-D00-0
 62
     7
370
    50
100
AcDbLine
 10
328.816328
 20
238.608271
 30
0.0
 11
330.863925
 21
228.970582
 31
0.0
  0
LINE
  5
485
330
1F
100
AcDbEntity
  8
LC-002-100-D00-0
 62
     7
370
    50
100
AcDbLine
 10
330.830526
 20
228.963486
 30
0.0
 11
331.165817
 21
227.46349
 31
0.0
  0
LINE
  5
486
330
1F
100
AcDbEntity
  8
LC-002-100-D00-0
 62
     7
370
    50
100
AcDbLine
 10
326.904494
 20
226.463488
 30
0.0
 11
330.897127
 21
226.463488
 31
0.0
  0
INSERT
  5
498
330
1F
100
AcDbEntity
  8
LC-002-100-D00-0
 62
     7
370
    50
100
AcDbBlockReference
  2
POLY14
 10
0.0
 20
0.0
 30
0.0
  0
LINE
  5
499
330
1F
100
AcDbEntity
  8
LC-002-100-D00-0
 62
     7
370
    50
100
AcDbLine
 10
331.184593
 20
227.204672
 30
0.0
 11
331.165817
 21
227.46349
 31
0.0
  0
LINE
  5
49A
330
1F
100
AcDbEntity
  8
LC-002-100-D00-0
 62
     7
370
    50
100
AcDbLine
 10
336.976547
 20
228.963486
 30
0.0
 11
330.830526
 21
228.963486
 31
0.0
  0
LINE
  5
49B
330
1F
100
AcDbEntity
  8
LC-002-100-D00-0
 62
     7
370
    50
100
AcDbLine
 10
330.897127
 20
226.463488
 30
0.0
 11
335.539345
 21
226.463488
 31
0.0
  0
LINE
  5
49C
102
{ACAD_REACTORS
330
4B7
102
}
330
1F
100
AcDbEntity
  8
LC-002-100-D00-0
 62
     7
370
    25
100
AcDbLine
 10
278.17155
 20
93.97621
 30
0.0
 11
280.67155
 21
96.47621
 31
0.0
  0
LINE
  5
49D
102
{ACAD_REACTORS
330
4B7
102
}
330
1F
100
AcDbEntity
  8
LC-002-100-D00-0
 62
     7
370
    25
100
AcDbLine
 10
278.17155
 20
102.956466
 30
0.0
 11
280.67155
 21
105.456466
 31
0.0
  0
LINE
  5
49E
102
{ACAD_REACTORS
330
4B7
102
}
330
1F
100
AcDbEntity
  8
LC-002-100-D00-0
 62
     7
370
    25
100
AcDbLine
 10
278.17155
 20
111.936722
 30
0.0
 11
280.67155
 21
114.436722
 31
0.0
  0
LINE
  5
49F
102
{ACAD_REACTORS
330
4B7
102
}
330
1F
100
AcDbEntity
  8
LC-002-100-D00-0
 62
     7
370
    25
100
AcDbLine
 10
278.17155
 20
120.916978
 30
0.0
 11
280.67155
 21
123.416978
 31
0.0
  0
LINE
  5
4A0
102
{ACAD_REACTORS
330
4B7
102
}
330
1F
100
AcDbEntity
  8
LC-002-100-D00-0
 62
     7
370
    25
100
AcDbLine
 10
278.17155
 20
129.897234
 30
0.0
 11
280.67155
 21
132.397234
 31
0.0
  0
LINE
  5
4A1
102
{ACAD_REACTORS
330
4B7
102
}
330
1F
100
AcDbEntity
  8
LC-002-100-D00-0
 62
     7
370
    25
100
AcDbLine
 10
278.17155
 20
138.87749
 30
0.0
 11
280.67155
 21
141.37749
 31
0.0
  0
LINE
  5
4A2
102
{ACAD_REACTORS
330
4B7
102
}
330
1F
100
AcDbEntity
  8
LC-002-100-D00-0
 62
     7
370
    25
100
AcDbLine
 10
374.225622
 20
234.931563
 30
0.0
 11
376.19731
 21
236.903251
 31
0.0
  0
LINE
  5
4A3
102
{ACAD_REACTORS
330
4B7
102
}
330
1F
100
AcDbEntity
  8
LC-002-100-D00-0
 62
     7
370
    25
100
AcDbLine
 10
278.17155
 20
147.857747
 30
0.0
 11
280.67155
 21
150.357747
 31
0.0
  0
LINE
  5
4A4
102
{ACAD_REACTORS
330
4B7
102
}
330
1F
100
AcDbEntity
  8
LC-002-100-D00-0
 62
     7
370
    25
100
AcDbLine
 10
372.277296
 20
241.963493
 30
0.0
 11
374.299559
 21
243.985756
 31
0.0
  0
LINE
  5
4A5
102
{ACAD_REACTORS
330
4B7
102
}
330
1F
100
AcDbEntity
  8
LC-002-100-D00-0
 62
     7
370
    25
100
AcDbLine
 10
278.17155
 20
156.838003
 30
0.0
 11
280.67155
 21
159.338003
 31
0.0
  0
LINE
  5
4A6
102
{ACAD_REACTORS
330
4B7
102
}
330
1F
100
AcDbEntity
  8
LC-002-100-D00-0
 62
     7
370
    25
100
AcDbLine
 10
363.29704
 20
241.963493
 30
0.0
 11
365.29704
 21
243.963493
 31
0.0
  0
LINE
  5
4A7
102
{ACAD_REACTORS
330
4B7
102
}
330
1F
100
AcDbEntity
  8
LC-002-100-D00-0
 62
     7
370
    25
100
AcDbLine
 10
278.17155
 20
165.818259
 30
0.0
 11
280.67155
 21
168.318259
 31
0.0
  0
LINE
  5
4A8
102
{ACAD_REACTORS
330
4B7
102
}
330
1F
100
AcDbEntity
  8
LC-002-100-D00-0
 62
     7
370
    25
100
AcDbLine
 10
354.316784
 20
241.963493
 30
0.0
 11
356.316784
 21
243.963493
 31
0.0
  0
LINE
  5
4A9
102
{ACAD_REACTORS
330
4B7
102
}
330
1F
100
AcDbEntity
  8
LC-002-100-D00-0
 62
     7
370
    25
100
AcDbLine
 10
278.17155
 20
174.798515
 30
0.0
 11
280.67155
 21
177.298515
 31
0.0
  0
LINE
  5
4AA
102
{ACAD_REACTORS
330
4B7
102
}
330
1F
100
AcDbEntity
  8
LC-002-100-D00-0
 62
     7
370
    25
100
AcDbLine
 10
345.336528
 20
241.963493
 30
0.0
 11
347.336528
 21
243.963493
 31
0.0
  0
LINE
  5
4AB
102
{ACAD_REACTORS
330
4B7
102
}
330
1F
100
AcDbEntity
  8
LC-002-100-D00-0
 62
     7
370
    25
100
AcDbLine
 10
278.17155
 20
183.778771
 30
0.0
 11
280.67155
 21
186.278771
 31
0.0
  0
LINE
  5
4AC
102
{ACAD_REACTORS
330
4B7
102
}
330
1F
100
AcDbEntity
  8
LC-002-100-D00-0
 62
     7
370
    25
100
AcDbLine
 10
336.356271
 20
241.963493
 30
0.0
 11
338.356271
 21
243.963493
 31
0.0
  0
LINE
  5
4AD
102
{ACAD_REACTORS
330
4B7
102
}
330
1F
100
AcDbEntity
  8
LC-002-100-D00-0
 62
     7
370
    25
100
AcDbLine
 10
278.17155
 20
192.759027
 30
0.0
 11
280.67155
 21
195.259027
 31
0.0
  0
LINE
  5
4AE
102
{ACAD_REACTORS
330
4B7
102
}
330
1F
100
AcDbEntity
  8
LC-002-100-D00-0
 62
     7
370
    25
100
AcDbLine
 10
321.376015
 20
235.963493
 30
0.0
 11
323.376015
 21
237.963493
 31
0.0
  0
LINE
  5
4AF
102
{ACAD_REACTORS
330
4B7
102
}
330
1F
100
AcDbEntity
  8
LC-002-100-D00-0
 62
     7
370
    25
100
AcDbLine
 10
278.17155
 20
201.739283
 30
0.0
 11
280.67155
 21
204.239283
 31
0.0
  0
LINE
  5
4B0
102
{ACAD_REACTORS
330
4B7
102
}
330
1F
100
AcDbEntity
  8
LC-002-100-D00-0
 62
     7
370
    25
100
AcDbLine
 10
312.395759
 20
235.963493
 30
0.0
 11
314.395759
 21
237.963493
 31
0.0
  0
LINE
  5
4B1
102
{ACAD_REACTORS
330
4B7
102
}
330
1F
100
AcDbEntity
  8
LC-002-100-D00-0
 62
     7
370
    25
100
AcDbLine
 10
278.17155
 20
210.719539
 30
0.0
 11
280.67155
 21
213.219539
 31
0.0
  0
LINE
  5
4B2
102
{ACAD_REACTORS
330
4B7
102
}
330
1F
100
AcDbEntity
  8
LC-002-100-D00-0
 62
     7
370
    25
100
AcDbLine
 10
303.415503
 20
235.963493
 30
0.0
 11
305.415503
 21
237.963493
 31
0.0
  0
LINE
  5
4B3
102
{ACAD_REACTORS
330
4B7
102
}
330
1F
100
AcDbEntity
  8
LC-002-100-D00-0
 62
     7
370
    25
100
AcDbLine
 10
278.17155
 20
219.699795
 30
0.0
 11
283.67155
 21
225.199795
 31
0.0
  0
LINE
  5
4B4
102
{ACAD_REACTORS
330
4B7
102
}
330
1F
100
AcDbEntity
  8
LC-002-100-D00-0
 62
     7
370
    25
100
AcDbLine
 10
294.435247
 20
235.963493
 30
0.0
 11
296.435247
 21
237.963493
 31
0.0
  0
LINE
  5
4B5
102
{ACAD_REACTORS
330
4B7
102
}
330
1F
100
AcDbEntity
  8
LC-002-100-D00-0
 62
     7
370
    25
100
AcDbLine
 10
280.67155
 20
231.180052
 30
0.0
 11
283.67155
 21
234.180052
 31
0.0
  0
LINE
  5
4B6
102
{ACAD_REACTORS
330
4B7
102
}
330
1F
100
AcDbEntity
  8
LC-002-100-D00-0
 62
     7
370
    25
100
AcDbLine
 10
285.454991
 20
235.963493
 30
0.0
 11
287.454991
 21
237.963493
 31
0.0
  0
ENDSEC
  0
SECTION
  2
OBJECTS
  0
DICTIONARY
  5
C
330
0
100
AcDbDictionary
281
     1
  3
ACAD_GROUP
350
D
  3
ACAD_LAYOUT
350
1A
  3
ACAD_MLINESTYLE
350
17
  3
ACAD_PLOTSETTINGS
350
19
  3
ACAD_PLOTSTYLENAME
350
E
  0
DICTIONARY
  5
D
102
{ACAD_REACTORS
330
C
102
}
330
C
100
AcDbDictionary
281
     1
  3
LCGROUP27
350
4B8
  3
LCGROUP28
350
4B7
  3
LCGROUP583
350
4BB
  3
LCGROUP586
350
4BA
  3
LCGROUP588
350
4B9
  3
LCGROUP603
350
4BC
  3
LCGROUP609
350
4BE
  3
LCGROUP611
350
4BD
  3
LCGROUP728
350
4BF
  0
DICTIONARY
  5
1A
102
{ACAD_REACTORS
330
C
102
}
330
C
100
AcDbDictionary
281
     1
  3
Layout1
350
1E
  3
Layout2
350
26
  3
Model
350
22
  0
DICTIONARY
  5
17
102
{ACAD_REACTORS
330
C
102
}
330
C
100
AcDbDictionary
281
     1
  3
Standard
350
18
  0
DICTIONARY
  5
19
102
{ACAD_REACTORS
330
C
102
}
330
C
100
AcDbDictionary
281
     1
  0
ACDBDICTIONARYWDFLT
  5
E
102
{ACAD_REACTORS
330
C
102
}
330
C
100
AcDbDictionary
281
     1
  3
Normal
350
F
100
AcDbDictionaryWithDefault
340
F
  0
GROUP
  5
4B8
102
{ACAD_REACTORS
330
D
102
}
330
D
100
AcDbGroup
300
GRP27
 70
     1
 71
     1
340
454
340
455
340
456
340
457
340
458
340
459
340
45A
340
45B
340
45C
340
45D
340
45E
340
45F
340
460
340
461
340
462
340
463
340
464
340
465
340
466
340
467
340
468
340
469
340
46A
340
46B
340
46C
340
46D
340
46E
340
46F
  0
GROUP
  5
4B7
102
{ACAD_REACTORS
330
D
102
}
330
D
100
AcDbGroup
300
GRP28
 70
     1
 71
     1
340
49C
340
49D
340
49E
340
49F
340
4A0
340
4A1
340
4A2
340
4A3
340
4A4
340
4A5
340
4A6
340
4A7
340
4A8
340
4A9
340
4AA
340
4AB
340
4AC
340
4AD
340
4AE
340
4AF
340
4B0
340
4B1
340
4B2
340
4B3
340
4B4
340
4B5
340
4B6
  0
GROUP
  5
4BB
102
{ACAD_REACTORS
330
D
102
}
330
D
100
AcDbGroup
300
GRP583
 70
     1
 71
     1
340
360
  0
GROUP
  5
4BA
102
{ACAD_REACTORS
330
D
102
}
330
D
100
AcDbGroup
300
GRP586
 70
     1
 71
     1
340
362
340
364
340
365
340
366
340
367
340
368
340
369
340
36A
340
374
  0
GROUP
  5
4B9
102
{ACAD_REACTORS
330
D
102
}
330
D
100
AcDbGroup
300
GRP588
 70
     1
 71
     1
340
363
340
375
  0
GROUP
  5
4BC
102
{ACAD_REACTORS
330
D
102
}
330
D
100
AcDbGroup
300
GRP603
 70
     1
 71
     1
340
371
  0
GROUP
  5
4BE
102
{ACAD_REACTORS
330
D
102
}
330
D
100
AcDbGroup
300
GRP609
 70
     1
 71
     1
340
376
  0
GROUP
  5
4BD
102
{ACAD_REACTORS
330
D
102
}
330
D
100
AcDbGroup
300
GRP611
 70
     1
 71
     1
340
382
340
383
340
384
340
386
340
387
340
39F
340
3A0
340
3A1
340
3A2
340
3A3
340
3A4
340
3A5
340
3A6
340
3A7
340
3A8
340
3A9
340
3AA
340
3AB
340
3AC
340
3AD
340
3AE
340
3AF
340
3B0
340
3B1
340
3B2
340
3B3
340
3B4
340
3B5
340
3B6
340
3B7
340
3B8
340
3B9
340
3BA
340
3BB
340
3BC
340
3BD
340
3C9
340
3CA
340
3CB
340
3CC
340
3CD
340
3E4
340
3E5
340
3E6
340
3E7
340
3E8
340
3E9
340
3EA
340
3EB
340
3EC
340
3ED
340
3EE
340
3EF
340
3F0
340
3F1
340
3F2
340
3F3
340
3F4
340
3FD
340
3FE
340
3FF
340
400
340
401
340
402
340
403
340
404
340
405
340
406
340
407
340
408
340
409
340
40A
340
40B
340
40C
  0
GROUP
  5
4BF
102
{ACAD_REACTORS
330
D
102
}
330
D
100
AcDbGroup
300
Gruppe 728
 70
     1
 71
     1
340
47E
340
47F
  0
LAYOUT
  5
1E
102
{ACAD_REACTORS
330
1A
102
}
330
1A
100
AcDbPlotSettings
  1

  2

  4

  6

 40
0.0
 41
0.0
 42
0.0
 43
0.0
 44
0.0
 45
0.0
 46
0.0
 47
0.0
 48
0.0
 49
0.0
140
0.0
141
0.0
142
1.0
143
1.0
 70
   688
 72
     0
 73
     0
 74
     5
  7

 75
    16
147
1.0
148
0.0
149
0.0
100
AcDbLayout
  1
Layout1
 70
     1
 71
     1
 10
-211.828463
 20
-175.08915
 11
628.171537
 21
418.91085
 12
0.0
 22
0.0
 32
0.0
 14
-211.828463
 24
-175.08915
 34
0.0
 15
628.171537
 25
418.91085
 35
0.0
146
0.0
 13
0.0
 23
0.0
 33
0.0
 16
1.0
 26
0.0
 36
0.0
 17
0.0
 27
1.0
 37
0.0
 76
     0
330
1B
  0
LAYOUT
  5
26
102
{ACAD_REACTORS
330
1A
102
}
330
1A
100
AcDbPlotSettings
  1

  2

  4

  6

 40
0.0
 41
0.0
 42
0.0
 43
0.0
 44
0.0
 45
0.0
 46
0.0
 47
0.0
 48
0.0
 49
0.0
140
0.0
141
0.0
142
1.0
143
1.0
 70
   688
 72
     0
 73
     0
 74
     5
  7

 75
    16
147
1.0
148
0.0
149
0.0
100
AcDbLayout
  1
Layout2
 70
     1
 71
     2
 10
0.0
 20
0.0
 11
0.0
 21
0.0
 12
0.0
 22
0.0
 32
0.0
 14
0.0
 24
0.0
 34
0.0
 15
0.0
 25
0.0
 35
0.0
146
0.0
 13
0.0
 23
0.0
 33
0.0
 16
1.0
 26
0.0
 36
0.0
 17
0.0
 27
1.0
 37
0.0
 76
     0
330
23
  0
LAYOUT
  5
22
102
{ACAD_REACTORS
330
1A
102
}
330
1A
100
AcDbPlotSettings
  1

  2

  4

  6

 40
0.0
 41
0.0
 42
0.0
 43
0.0
 44
0.0
 45
0.0
 46
0.0
 47
0.0
 48
0.0
 49
0.0
140
0.0
141
0.0
142
1.0
143
1.0
 70
  1776
 72
     0
 73
     0
 74
     0
  7

 75
     0
147
1.0
148
0.0
149
0.0
100
AcDbLayout
  1
Model
 70
     1
 71
     0
 10
-211.828463
 20
-175.08915
 11
628.171537
 21
418.91085
 12
0.0
 22
0.0
 32
0.0
 14
-211.828463
 24
-175.08915
 34
0.0
 15
628.171537
 25
418.91085
 35
0.0
146
0.0
 13
0.0
 23
0.0
 33
0.0
 16
1.0
 26
0.0
 36
0.0
 17
0.0
 27
1.0
 37
0.0
 76
     0
330
1F
  0
MLINESTYLE
  5
18
102
{ACAD_REACTORS
330
17
102
}
330
17
100
AcDbMlineStyle
  2
Standard
 70
     0
  3

 62
   256
 51
90.0
 52
90.0
 71
     2
 49
0.5
 62
   256
  6
BYLAYER
 49
-0.5
 62
   256
  6
BYLAYER
  0
ACDBPLACEHOLDER
  5
F
102
{ACAD_REACTORS
330
E
102
}
330
E
  0
ENDSEC
  0
EOF
