  0
SECTION
  2
HEADER
  9
$ACADVER
  1
AC1009
  9
$INSBASE
 10
0.0
 20
0.0
 30
0.0
  9
$EXTMIN
 10
0.0
 20
0.0
 30
0.0
  9
$EXTMAX
 10
840.0
 20
594.0
 30
0.0
  9
$LIMMIN
 10
0.0
 20
0.0
  9
$LIMMAX
 10
840.0
 20
594.0
  9
$ORTHOMODE
 70
     0
  9
$REGENMODE
 70
     1
  9
$FILLMODE
 70
     1
  9
$QTEXTMODE
 70
     0
  9
$MIRRTEXT
 70
     1
  9
$DRAGMODE
 70
     2
  9
$LTSCALE
 40
2.0
  9
$OSMODE
 70
     0
  9
$ATTMODE
 70
     1
  9
$TEXTSIZE
 40
0.2
  9
$TRACEWID
 40
0.05
  9
$TEXTSTYLE
  7
STANDARD
  9
$CLAYER
  8
0
  9
$CELTYPE
  6
BYLAYER
  9
$CECOLOR
 62
     7
  9
$DIMSCALE
 40
2.0
  9
$DIMASZ
 40
3.5
  9
$DIMEXO
 40
0.0625
  9
$DIMDLI
 40
0.38
  9
$DIMRND
 40
0.0
  9
$DIMDLE
 40
0.0
  9
$DIMEXE
 40
0.18
  9
$DIMTP
 40
0.0
  9
$DIMTM
 40
0.0
  9
$DIMTXT
 40
3.5
  9
$DIMCEN
 40
0.09
  9
$DIMTSZ
 40
0.0
  9
$DIMTOL
 70
     0
  9
$DIMLIM
 70
     0
  9
$DIMTIH
 70
     1
  9
$DIMTOH
 70
     1
  9
$DIMSE1
 70
     0
  9
$DIMSE2
 70
     0
  9
$DIMTAD
 70
     1
  9
$DIMZIN
 70
     0
  9
$DIMBLK
  1

  9
$DIMASO
 70
     1
  9
$DIMSHO
 70
     1
  9
$DIMPOST
  1

  9
$DIMAPOST
  1

  9
$DIMALT
 70
     0
  9
$DIMALTD
 70
     2
  9
$DIMALTF
 40
25.4
  9
$DIMLFAC
 40
1.0
  9
$DIMTOFL
 70
     0
  9
$DIMTVP
 40
0.0
  9
$DIMTIX
 70
     0
  9
$DIMSOXD
 70
     0
  9
$DIMSAH
 70
     0
  9
$DIMBLK1
  1

  9
$DIMBLK2
  1

  9
$DIMSTYLE
  2
STANDARD
  9
$DIMCLRD
 70
     0
  9
$DIMCLRE
 70
     0
  9
$DIMCLRT
 70
     0
  9
$DIMTFAC
 40
1.0
  9
$DIMGAP
 40
0.09
  9
$LUNITS
 70
     2
  9
$LUPREC
 70
     2
  9
$AXISMODE
 70
     0
  9
$AXISUNIT
 10
0.0
 20
0.0
  9
$SKETCHINC
 40
0.1
  9
$FILLETRAD
 40
0.0
  9
$AUNITS
 70
     0
  9
$AUPREC
 70
     0
  9
$MENU
  1
acad
  9
$ELEVATION
 40
0.0
  9
$PELEVATION
 40
0.0
  9
$THICKNESS
 40
0.0
  9
$LIMCHECK
 70
     0
  9
$BLIPMODE
 70
     1
  9
$CHAMFERA
 40
0.0
  9
$CHAMFERB
 40
0.0
  9
$SKPOLY
 70
     0
  9
$TDCREATE
 40
0.000000000
  9
$TDUPDATE
 40
0.000000000
  9
$TDINDWG
 40
0.0000000000
  9
$TDUSRTIMER
 40
0.0000000000
  9
$USRTIMER
 70
     1
  9
$ANGBASE
 50
0.0
  9
$ANGDIR
 70
     0
  9
$PDMODE
 70
     0
  9
$PDSIZE
 40
0.0
  9
$PLINEWID
 40
0.0
  9
$COORDS
 70
     0
  9
$SPLFRAME
 70
     0
  9
$SPLINETYPE
 70
     6
  9
$SPLINESEGS
 70
     8
  9
$ATTDIA
 70
     0
  9
$ATTREQ
 70
     1
  9
$HANDLING
 70
     1
  9
$HANDSEED
  5
142
  9
$SURFTAB1
 70
     6
  9
$SURFTAB2
 70
     6
  9
$SURFTYPE
 70
     6
  9
$SURFU
 70
     6
  9
$SURFV
 70
     6
  9
$UCSNAME
  2

  9
$UCSORG
 10
0.0
 20
0.0
 30
0.0
  9
$UCSXDIR
 10
1.0
 20
0.0
 30
0.0
  9
$UCSYDIR
 10
0.0
 20
1.0
 30
0.0
  9
$PUCSNAME
  2

  9
$PUCSORG
 10
0.0
 20
0.0
 30
0.0
  9
$PUCSXDIR
 10
1.0
 20
0.0
 30
0.0
  9
$PUCSYDIR
 10
0.0
 20
1.0
 30
0.0
  9
$USERI1
 70
     0
  9
$USERI2
 70
     0
  9
$USERI3
 70
     0
  9
$USERI4
 70
     0
  9
$USERI5
 70
     0
  9
$USERR1
 40
0.0
  9
$USERR2
 40
0.0
  9
$USERR3
 40
0.0
  9
$USERR4
 40
0.0
  9
$USERR5
 40
0.0
  9
$WORLDVIEW
 70
     1
  9
$SHADEDGE
 70
     3
  9
$SHADEDIF
 70
    70
  9
$TILEMODE
 70
     1
  9
$MAXACTVP
 70
    16
  9
$PINSBASE
 10
0.0
 20
0.0
 30
0.0
  9
$PLIMCHECK
 70
     0
  9
$PEXTMIN
 10
1.000000E+20
 20
1.000000E+20
 30
1.000000E+20
  9
$PEXTMAX
 10
-1.000000E+20
 20
-1.000000E+20
 30
-1.000000E+20
  9
$PLIMMIN
 10
0.0
 20
0.0
  9
$PLIMMAX
 10
840.0
 20
594.0
  9
$UNITMODE
 70
     0
  9
$VISRETAIN
 70
     0
  9
$PLINEGEN
 70
     1
  9
$PSLTSCALE
 70
     0
  9
$TREEDEPTH
 70
  3020
  9
$DWGCODEPAGE
  3
dos850
  0
ENDSEC
  0
SECTION
  2
TABLES
  0
TABLE
  2
VPORT
 70
     1
  0
VPORT
  2
*ACTIVE
 70
     0
 10
0.0
 20
0.0
 11
1.0
 21
1.0
 12
420.0
 22
297.0
 13
0.0
 23
0.0
 14
1.0
 24
1.0
 15
0.0
 25
0.0
 16
0.0
 26
0.0
 36
1.0
 17
0.0
 27
0.0
 37
0.0
 40
594.0
 41
1.604229
 42
50.0
 43
0.0
 44
0.0
 50
0.0
 51
0.0
 71
     0
 72
   100
 73
     1
 74
     1
 75
     0
 76
     0
 77
     0
 78
     0
  0
ENDTAB
  0
TABLE
  2
LTYPE
 70
     3
  0
LTYPE
  2
CONTINUOUS
 70
    64
  3
Solid line
 72
    65
 73
     0
 40
0.0
  0
LTYPE
  2
DASHED
 70
    64
  3
__ __ __ __ __
 72
    65
 73
     2
 40
6.25
 49
5.0
 49
-1.25
  0
LTYPE
  2
DASHDOT
 70
    64
  3
__ . __ . __ . __ . __
 72
    65
 73
     4
 40
7.5
 49
5.0
 49
-1.25
 49
0.0
 49
-1.25
  0
ENDTAB
  0
TABLE
  2
LAYER
 70
    10
  0
LAYER
  2
0
 70
     0
 62
     7
  6
CONTINUOUS
  0
LAYER
  2
LC-INFO-1-2-MM-A3-0
 70
     1
 62
    -1
  6
CONTINUOUS
  0
LAYER
  2
LC-003-005-----0
 70
     0
 62
     2
  6
CONTINUOUS
  0
LAYER
  2
LC-005-003-MTH-0
 70
     0
 62
     2
  6
CONTINUOUS
  0
LAYER
  2
LC-006-003-MTG-0
 70
     0
 62
     2
  6
CONTINUOUS
  0
LAYER
  2
LC-004-003-----0
 70
     0
 62
     2
  6
CONTINUOUS
  0
LAYER
  2
LC-007-000-----0
 70
     0
 62
     7
  6
CONTINUOUS
  0
LAYER
  2
LC-001-002-----0
 70
     0
 62
     1
  6
CONTINUOUS
  0
LAYER
  2
LC-002-002-RND-0
 70
     0
 62
     1
  6
CONTINUOUS
  0
LAYER
  2
LC-000
 70
     0
 62
     7
  6
CONTINUOUS
  0
ENDTAB
  0
TABLE
  2
STYLE
 70
     4
  0
STYLE
  2
STANDARD
 70
     0
 40
0.0
 41
1.0
 50
0.0
 71
     0
 42
0.0
  3
txt
  4

  0
STYLE
  2
LC-STANDARD
 70
    64
 40
0.0
 41
1.0
 50
0.0
 71
     0
 42
3.5
  3
MONOTXT
  4

  0
STYLE
  2
LC-TXTSTYLE-150-400-0-0-A2
 70
    64
 40
0.0
 41
1.0
 50
15.0
 71
     0
 42
3.5
  3
MONOTXT
  4

  0
STYLE
  2
LC-TXTSTYLE-150-400-0-0-D3
 70
    64
 40
0.0
 41
1.0
 50
15.0
 71
     0
 42
3.5
  3
LC-STANDARD
  4

  0
ENDTAB
  0
TABLE
  2
VIEW
 70
     0
  0
ENDTAB
  0
TABLE
  2
UCS
 70
     0
  0
ENDTAB
  0
TABLE
  2
APPID
 70
     1
  0
APPID
  2
ACAD
 70
     0
  0
ENDTAB
  0
TABLE
  2
DIMSTYLE
 70
     3
  0
DIMSTYLE
  2
STANDARD
 70
     0
  3

  4

  5

  6

  7

 40
1.0
 41
0.18
 42
0.0625
 43
0.38
 44
0.18
 45
0.0
 46
0.0
 47
0.0
 48
0.0
 71
     0
 72
     0
 73
     1
 74
     1
 75
     0
 76
     0
 77
     0
 78
     0
140
0.18
141
0.09
142
0.0
143
25.4
144
1.0
145
0.0
146
1.0
147
0.09
170
     0
171
     2
172
     0
173
     0
174
     0
175
     0
176
     0
177
     0
178
     0
  0
DIMSTYLE
  2
LC-STANDARD
 70
     0
  3

  4

  5

  6

  7

 40
1.0
 41
3.5
 42
0.0
 43
7.5
 44
1.8
 45
0.0
 46
0.0
 47
0.0
 48
0.0
 71
     0
 72
     0
 73
     0
 74
     0
 75
     0
 76
     0
 77
     1
 78
     8
140
3.5
141
0.0
142
0.0
143
25.4
144
1.0
145
0.0
146
0.71
147
1.5
170
     0
171
     2
172
     1
173
     0
174
     0
175
     0
176
     0
177
     0
178
     3
  0
DIMSTYLE
  2
LC-DIM-L-0140-02-02
 70
     0
  3

  4

  5

  6

  7

 40
2.0
 41
3.5
 42
0.0
 43
7.5
 44
1.8
 45
0.0
 46
0.0
 47
0.0
 48
0.0
 71
     0
 72
     0
 73
     0
 74
     0
 75
     0
 76
     0
 77
     1
 78
     8
140
14.0
141
0.0
142
0.0
143
25.4
144
1.0
145
0.0
146
0.71
147
1.5
170
     0
171
     2
172
     0
173
     0
174
     0
175
     0
176
     2
177
     2
178
     8
  0
ENDTAB
  0
ENDSEC
  0
SECTION
  2
BLOCKS
  0
BLOCK
  8
0
  5
23
  2
*X0
 70
    65
 10
554.732226
 20
262.909714
 30
0.0
  3
*X0
  0
LINE
  8
LC-003-005-----0
  6
CONTINUOUS
  5
25
 10
563.865524
 20
264.052249
 30
0.0
 11
565.531919
 21
265.718644
 31
0.0
  0
LINE
  8
LC-003-005-----0
  6
CONTINUOUS
  5
26
 10
563.267807
 20
266.282959
 30
0.0
 11
565.531919
 21
268.547071
 31
0.0
  0
LINE
  8
LC-003-005-----0
  6
CONTINUOUS
  5
27
 10
562.831919
 20
268.675498
 30
0.0
 11
565.531919
 21
271.375498
 31
0.0
  0
LINE
  8
LC-003-005-----0
  6
CONTINUOUS
  5
28
 10
562.831919
 20
271.503925
 30
0.0
 11
565.531919
 21
274.203925
 31
0.0
  0
LINE
  8
LC-003-005-----0
  6
CONTINUOUS
  5
29
 10
562.831919
 20
274.332353
 30
0.0
 11
565.531919
 21
277.032353
 31
0.0
  0
LINE
  8
LC-003-005-----0
  6
CONTINUOUS
  5
2A
 10
562.831919
 20
277.16078
 30
0.0
 11
565.531919
 21
279.86078
 31
0.0
  0
LINE
  8
LC-003-005-----0
  6
CONTINUOUS
  5
2B
 10
562.831919
 20
279.989207
 30
0.0
 11
565.531919
 21
282.689207
 31
0.0
  0
LINE
  8
LC-003-005-----0
  6
CONTINUOUS
  5
2C
 10
562.831919
 20
282.817634
 30
0.0
 11
565.531919
 21
285.517634
 31
0.0
  0
LINE
  8
LC-003-005-----0
  6
CONTINUOUS
  5
2D
 10
562.831919
 20
285.646061
 30
0.0
 11
565.531919
 21
288.346061
 31
0.0
  0
LINE
  8
LC-003-005-----0
  6
CONTINUOUS
  5
2E
 10
562.831919
 20
288.474488
 30
0.0
 11
565.531919
 21
291.174488
 31
0.0
  0
LINE
  8
LC-003-005-----0
  6
CONTINUOUS
  5
2F
 10
562.831919
 20
291.302915
 30
0.0
 11
565.531919
 21
294.002915
 31
0.0
  0
LINE
  8
LC-003-005-----0
  6
CONTINUOUS
  5
30
 10
562.831919
 20
294.131342
 30
0.0
 11
565.531919
 21
296.831342
 31
0.0
  0
LINE
  8
LC-003-005-----0
  6
CONTINUOUS
  5
31
 10
562.831919
 20
296.95977
 30
0.0
 11
565.531919
 21
299.65977
 31
0.0
  0
LINE
  8
LC-003-005-----0
  6
CONTINUOUS
  5
32
 10
562.831919
 20
299.788197
 30
0.0
 11
565.531919
 21
302.488197
 31
0.0
  0
LINE
  8
LC-003-005-----0
  6
CONTINUOUS
  5
33
 10
562.831919
 20
302.616624
 30
0.0
 11
565.531919
 21
305.316624
 31
0.0
  0
LINE
  8
LC-003-005-----0
  6
CONTINUOUS
  5
34
 10
562.831919
 20
305.445051
 30
0.0
 11
565.531919
 21
308.145051
 31
0.0
  0
LINE
  8
LC-003-005-----0
  6
CONTINUOUS
  5
35
 10
562.831919
 20
308.273478
 30
0.0
 11
565.531919
 21
310.973478
 31
0.0
  0
LINE
  8
LC-003-005-----0
  6
CONTINUOUS
  5
36
 10
562.831919
 20
311.101905
 30
0.0
 11
565.531919
 21
313.801905
 31
0.0
  0
LINE
  8
LC-003-005-----0
  6
CONTINUOUS
  5
37
 10
562.831919
 20
313.930332
 30
0.0
 11
565.531919
 21
316.630332
 31
0.0
  0
LINE
  8
LC-003-005-----0
  6
CONTINUOUS
  5
38
 10
562.831919
 20
316.758759
 30
0.0
 11
565.531919
 21
319.458759
 31
0.0
  0
LINE
  8
LC-003-005-----0
  6
CONTINUOUS
  5
39
 10
562.831919
 20
319.587187
 30
0.0
 11
565.531919
 21
322.287187
 31
0.0
  0
LINE
  8
LC-003-005-----0
  6
CONTINUOUS
  5
3A
 10
562.831919
 20
322.415614
 30
0.0
 11
565.531919
 21
325.115614
 31
0.0
  0
LINE
  8
LC-003-005-----0
  6
CONTINUOUS
  5
3B
 10
562.831919
 20
325.244041
 30
0.0
 11
565.531919
 21
327.944041
 31
0.0
  0
LINE
  8
LC-003-005-----0
  6
CONTINUOUS
  5
3C
 10
562.831919
 20
328.072468
 30
0.0
 11
565.531919
 21
330.772468
 31
0.0
  0
LINE
  8
LC-003-005-----0
  6
CONTINUOUS
  5
3D
 10
562.831919
 20
330.900895
 30
0.0
 11
565.531919
 21
333.600895
 31
0.0
  0
LINE
  8
LC-003-005-----0
  6
CONTINUOUS
  5
3E
 10
562.831919
 20
333.729322
 30
0.0
 11
565.531919
 21
336.429322
 31
0.0
  0
LINE
  8
LC-003-005-----0
  6
CONTINUOUS
  5
3F
 10
562.831919
 20
336.557749
 30
0.0
 11
565.531919
 21
339.257749
 31
0.0
  0
LINE
  8
LC-003-005-----0
  6
CONTINUOUS
  5
40
 10
562.831919
 20
339.386176
 30
0.0
 11
565.531919
 21
342.086176
 31
0.0
  0
LINE
  8
LC-003-005-----0
  6
CONTINUOUS
  5
41
 10
562.831919
 20
342.214604
 30
0.0
 11
565.531919
 21
344.914604
 31
0.0
  0
LINE
  8
LC-003-005-----0
  6
CONTINUOUS
  5
42
 10
562.831919
 20
345.043031
 30
0.0
 11
565.531919
 21
347.743031
 31
0.0
  0
LINE
  8
LC-003-005-----0
  6
CONTINUOUS
  5
43
 10
562.831919
 20
347.871458
 30
0.0
 11
565.531919
 21
350.571458
 31
0.0
  0
LINE
  8
LC-003-005-----0
  6
CONTINUOUS
  5
44
 10
562.831919
 20
350.699885
 30
0.0
 11
565.531919
 21
353.399885
 31
0.0
  0
LINE
  8
LC-003-005-----0
  6
CONTINUOUS
  5
45
 10
562.831919
 20
353.528312
 30
0.0
 11
565.531919
 21
356.228312
 31
0.0
  0
LINE
  8
LC-003-005-----0
  6
CONTINUOUS
  5
46
 10
562.831919
 20
356.356739
 30
0.0
 11
565.531919
 21
359.056739
 31
0.0
  0
LINE
  8
LC-003-005-----0
  6
CONTINUOUS
  5
47
 10
562.831919
 20
359.185166
 30
0.0
 11
565.531919
 21
361.885166
 31
0.0
  0
LINE
  8
LC-003-005-----0
  6
CONTINUOUS
  5
48
 10
562.831919
 20
362.013593
 30
0.0
 11
565.531919
 21
364.713593
 31
0.0
  0
LINE
  8
LC-003-005-----0
  6
CONTINUOUS
  5
49
 10
562.831919
 20
364.842021
 30
0.0
 11
565.531919
 21
367.542021
 31
0.0
  0
LINE
  8
LC-003-005-----0
  6
CONTINUOUS
  5
4A
 10
562.831919
 20
367.670448
 30
0.0
 11
565.531919
 21
370.370448
 31
0.0
  0
LINE
  8
LC-003-005-----0
  6
CONTINUOUS
  5
4B
 10
562.831919
 20
370.498875
 30
0.0
 11
565.531919
 21
373.198875
 31
0.0
  0
LINE
  8
LC-003-005-----0
  6
CONTINUOUS
  5
4C
 10
562.831919
 20
373.327302
 30
0.0
 11
565.531919
 21
376.027302
 31
0.0
  0
LINE
  8
LC-003-005-----0
  6
CONTINUOUS
  5
4D
 10
562.831919
 20
376.155729
 30
0.0
 11
565.531919
 21
378.855729
 31
0.0
  0
LINE
  8
LC-003-005-----0
  6
CONTINUOUS
  5
4E
 10
562.831919
 20
378.984156
 30
0.0
 11
565.531919
 21
381.684156
 31
0.0
  0
LINE
  8
LC-003-005-----0
  6
CONTINUOUS
  5
4F
 10
562.831919
 20
381.812583
 30
0.0
 11
565.531919
 21
384.512583
 31
0.0
  0
LINE
  8
LC-003-005-----0
  6
CONTINUOUS
  5
50
 10
562.831919
 20
384.64101
 30
0.0
 11
565.531919
 21
387.34101
 31
0.0
  0
LINE
  8
LC-003-005-----0
  6
CONTINUOUS
  5
51
 10
562.831919
 20
387.469438
 30
0.0
 11
565.531919
 21
390.169438
 31
0.0
  0
LINE
  8
LC-003-005-----0
  6
CONTINUOUS
  5
52
 10
562.831919
 20
390.297865
 30
0.0
 11
565.531919
 21
392.997865
 31
0.0
  0
LINE
  8
LC-003-005-----0
  6
CONTINUOUS
  5
53
 10
562.831919
 20
393.126292
 30
0.0
 11
565.531919
 21
395.826292
 31
0.0
  0
LINE
  8
LC-003-005-----0
  6
CONTINUOUS
  5
54
 10
561.417788
 20
394.540588
 30
0.0
 11
563.421924
 21
396.544724
 31
0.0
  0
LINE
  8
LC-003-005-----0
  6
CONTINUOUS
  5
55
 10
560.003575
 20
395.954801
 30
0.0
 11
562.332226
 21
398.283452
 31
0.0
  0
LINE
  8
LC-003-005-----0
  6
CONTINUOUS
  5
56
 10
559.828816
 20
398.60847
 30
0.0
 11
562.332226
 21
401.11188
 31
0.0
  0
LINE
  8
LC-003-005-----0
  6
CONTINUOUS
  5
57
 10
559.828816
 20
401.436897
 30
0.0
 11
562.332226
 21
403.940307
 31
0.0
  0
LINE
  8
LC-003-005-----0
  6
CONTINUOUS
  5
58
 10
559.828816
 20
404.265324
 30
0.0
 11
562.332226
 21
406.768734
 31
0.0
  0
LINE
  8
LC-003-005-----0
  6
CONTINUOUS
  5
59
 10
559.828816
 20
407.093751
 30
0.0
 11
562.332226
 21
409.597161
 31
0.0
  0
LINE
  8
LC-003-005-----0
  6
CONTINUOUS
  5
5A
 10
559.049288
 20
409.142651
 30
0.0
 11
561.816198
 21
411.90956
 31
0.0
  0
LINE
  8
LC-003-005-----0
  6
CONTINUOUS
  5
5B
 10
557.635075
 20
410.556864
 30
0.0
 11
559.328816
 21
412.250605
 31
0.0
  0
LINE
  8
LC-003-005-----0
  6
CONTINUOUS
  5
5C
 10
555.609497
 20
411.359714
 30
0.0
 11
559.328816
 21
415.079033
 31
0.0
  0
LINE
  8
LC-003-005-----0
  6
CONTINUOUS
  5
5D
 10
554.732226
 20
413.310869
 30
0.0
 11
555.33107
 21
413.909714
 31
0.0
  0
LINE
  8
LC-003-005-----0
  6
CONTINUOUS
  5
5E
 10
556.832226
 20
415.410869
 30
0.0
 11
558.830916
 21
417.40956
 31
0.0
  0
ENDBLK
  8
0
  5
5F
  0
BLOCK
  8
0
  5
61
  2
*X1
 70
    65
 10
705.132532
 20
262.909714
 30
0.0
  3
*X1
  0
LINE
  8
LC-003-005-----0
  6
CONTINUOUS
  5
62
 10
705.132532
 20
263.897901
 30
0.0
 11
707.352375
 21
266.117744
 31
0.0
  0
LINE
  8
LC-003-005-----0
  6
CONTINUOUS
  5
63
 10
705.132532
 20
266.726328
 30
0.0
 11
707.832532
 21
269.426328
 31
0.0
  0
LINE
  8
LC-003-005-----0
  6
CONTINUOUS
  5
64
 10
705.132532
 20
269.554755
 30
0.0
 11
707.832532
 21
272.254755
 31
0.0
  0
LINE
  8
LC-003-005-----0
  6
CONTINUOUS
  5
65
 10
705.132532
 20
272.383182
 30
0.0
 11
707.832532
 21
275.083182
 31
0.0
  0
LINE
  8
LC-003-005-----0
  6
CONTINUOUS
  5
66
 10
705.132532
 20
275.211609
 30
0.0
 11
707.832532
 21
277.911609
 31
0.0
  0
LINE
  8
LC-003-005-----0
  6
CONTINUOUS
  5
67
 10
705.132532
 20
278.040036
 30
0.0
 11
707.832532
 21
280.740036
 31
0.0
  0
LINE
  8
LC-003-005-----0
  6
CONTINUOUS
  5
68
 10
705.132532
 20
280.868463
 30
0.0
 11
707.832532
 21
283.568463
 31
0.0
  0
LINE
  8
LC-003-005-----0
  6
CONTINUOUS
  5
69
 10
705.132532
 20
283.69689
 30
0.0
 11
707.832532
 21
286.39689
 31
0.0
  0
LINE
  8
LC-003-005-----0
  6
CONTINUOUS
  5
6A
 10
705.132532
 20
286.525318
 30
0.0
 11
707.832532
 21
289.225318
 31
0.0
  0
LINE
  8
LC-003-005-----0
  6
CONTINUOUS
  5
6B
 10
705.132532
 20
289.353745
 30
0.0
 11
707.832532
 21
292.053745
 31
0.0
  0
LINE
  8
LC-003-005-----0
  6
CONTINUOUS
  5
6C
 10
705.132532
 20
292.182172
 30
0.0
 11
707.832532
 21
294.882172
 31
0.0
  0
LINE
  8
LC-003-005-----0
  6
CONTINUOUS
  5
6D
 10
705.132532
 20
295.010599
 30
0.0
 11
707.832532
 21
297.710599
 31
0.0
  0
LINE
  8
LC-003-005-----0
  6
CONTINUOUS
  5
6E
 10
705.132532
 20
297.839026
 30
0.0
 11
707.832532
 21
300.539026
 31
0.0
  0
LINE
  8
LC-003-005-----0
  6
CONTINUOUS
  5
6F
 10
705.132532
 20
300.667453
 30
0.0
 11
707.832532
 21
303.367453
 31
0.0
  0
LINE
  8
LC-003-005-----0
  6
CONTINUOUS
  5
70
 10
705.132532
 20
303.49588
 30
0.0
 11
707.832532
 21
306.19588
 31
0.0
  0
LINE
  8
LC-003-005-----0
  6
CONTINUOUS
  5
71
 10
705.132532
 20
306.324307
 30
0.0
 11
707.832532
 21
309.024307
 31
0.0
  0
LINE
  8
LC-003-005-----0
  6
CONTINUOUS
  5
72
 10
705.132532
 20
309.152735
 30
0.0
 11
707.832532
 21
311.852735
 31
0.0
  0
LINE
  8
LC-003-005-----0
  6
CONTINUOUS
  5
73
 10
705.132532
 20
311.981162
 30
0.0
 11
707.832532
 21
314.681162
 31
0.0
  0
LINE
  8
LC-003-005-----0
  6
CONTINUOUS
  5
74
 10
705.132532
 20
314.809589
 30
0.0
 11
707.832532
 21
317.509589
 31
0.0
  0
LINE
  8
LC-003-005-----0
  6
CONTINUOUS
  5
75
 10
705.132532
 20
317.638016
 30
0.0
 11
707.832532
 21
320.338016
 31
0.0
  0
LINE
  8
LC-003-005-----0
  6
CONTINUOUS
  5
76
 10
705.132532
 20
320.466443
 30
0.0
 11
707.832532
 21
323.166443
 31
0.0
  0
LINE
  8
LC-003-005-----0
  6
CONTINUOUS
  5
77
 10
705.132532
 20
323.29487
 30
0.0
 11
707.832532
 21
325.99487
 31
0.0
  0
LINE
  8
LC-003-005-----0
  6
CONTINUOUS
  5
78
 10
705.132532
 20
326.123297
 30
0.0
 11
707.832532
 21
328.823297
 31
0.0
  0
LINE
  8
LC-003-005-----0
  6
CONTINUOUS
  5
79
 10
705.132532
 20
328.951724
 30
0.0
 11
707.832532
 21
331.651724
 31
0.0
  0
LINE
  8
LC-003-005-----0
  6
CONTINUOUS
  5
7A
 10
705.132532
 20
331.780152
 30
0.0
 11
707.832532
 21
334.480152
 31
0.0
  0
LINE
  8
LC-003-005-----0
  6
CONTINUOUS
  5
7B
 10
705.132532
 20
334.608579
 30
0.0
 11
707.832532
 21
337.308579
 31
0.0
  0
LINE
  8
LC-003-005-----0
  6
CONTINUOUS
  5
7C
 10
705.132532
 20
337.437006
 30
0.0
 11
707.832532
 21
340.137006
 31
0.0
  0
LINE
  8
LC-003-005-----0
  6
CONTINUOUS
  5
7D
 10
705.132532
 20
340.265433
 30
0.0
 11
707.832532
 21
342.965433
 31
0.0
  0
LINE
  8
LC-003-005-----0
  6
CONTINUOUS
  5
7E
 10
705.132532
 20
343.09386
 30
0.0
 11
707.832532
 21
345.79386
 31
0.0
  0
LINE
  8
LC-003-005-----0
  6
CONTINUOUS
  5
7F
 10
705.132532
 20
345.922287
 30
0.0
 11
707.832532
 21
348.622287
 31
0.0
  0
LINE
  8
LC-003-005-----0
  6
CONTINUOUS
  5
80
 10
705.132532
 20
348.750714
 30
0.0
 11
707.832532
 21
351.450714
 31
0.0
  0
LINE
  8
LC-003-005-----0
  6
CONTINUOUS
  5
81
 10
705.132532
 20
351.579141
 30
0.0
 11
707.832532
 21
354.279141
 31
0.0
  0
LINE
  8
LC-003-005-----0
  6
CONTINUOUS
  5
82
 10
705.132532
 20
354.407569
 30
0.0
 11
707.832532
 21
357.107569
 31
0.0
  0
LINE
  8
LC-003-005-----0
  6
CONTINUOUS
  5
83
 10
705.132532
 20
357.235996
 30
0.0
 11
707.832532
 21
359.935996
 31
0.0
  0
LINE
  8
LC-003-005-----0
  6
CONTINUOUS
  5
84
 10
705.132532
 20
360.064423
 30
0.0
 11
707.832532
 21
362.764423
 31
0.0
  0
LINE
  8
LC-003-005-----0
  6
CONTINUOUS
  5
85
 10
705.132532
 20
362.89285
 30
0.0
 11
707.832532
 21
365.59285
 31
0.0
  0
LINE
  8
LC-003-005-----0
  6
CONTINUOUS
  5
86
 10
705.132532
 20
365.721277
 30
0.0
 11
707.832532
 21
368.421277
 31
0.0
  0
LINE
  8
LC-003-005-----0
  6
CONTINUOUS
  5
87
 10
705.132532
 20
368.549704
 30
0.0
 11
707.832532
 21
371.249704
 31
0.0
  0
LINE
  8
LC-003-005-----0
  6
CONTINUOUS
  5
88
 10
705.132532
 20
371.378131
 30
0.0
 11
707.832532
 21
374.078131
 31
0.0
  0
LINE
  8
LC-003-005-----0
  6
CONTINUOUS
  5
89
 10
705.132532
 20
374.206558
 30
0.0
 11
707.832532
 21
376.906558
 31
0.0
  0
LINE
  8
LC-003-005-----0
  6
CONTINUOUS
  5
8A
 10
705.132532
 20
377.034986
 30
0.0
 11
707.832532
 21
379.734986
 31
0.0
  0
LINE
  8
LC-003-005-----0
  6
CONTINUOUS
  5
8B
 10
705.132532
 20
379.863413
 30
0.0
 11
707.832532
 21
382.563413
 31
0.0
  0
LINE
  8
LC-003-005-----0
  6
CONTINUOUS
  5
8C
 10
705.132532
 20
382.69184
 30
0.0
 11
707.832532
 21
385.39184
 31
0.0
  0
LINE
  8
LC-003-005-----0
  6
CONTINUOUS
  5
8D
 10
705.132532
 20
385.520267
 30
0.0
 11
707.832532
 21
388.220267
 31
0.0
  0
LINE
  8
LC-003-005-----0
  6
CONTINUOUS
  5
8E
 10
705.132532
 20
388.348694
 30
0.0
 11
707.832532
 21
391.048694
 31
0.0
  0
LINE
  8
LC-003-005-----0
  6
CONTINUOUS
  5
8F
 10
705.132532
 20
391.177121
 30
0.0
 11
710.835635
 21
396.880225
 31
0.0
  0
LINE
  8
LC-003-005-----0
  6
CONTINUOUS
  5
90
 10
705.132532
 20
394.005548
 30
0.0
 11
707.860993
 21
396.734009
 31
0.0
  0
LINE
  8
LC-003-005-----0
  6
CONTINUOUS
  5
91
 10
708.332226
 20
397.205242
 30
0.0
 11
710.835635
 21
399.708652
 31
0.0
  0
LINE
  8
LC-003-005-----0
  6
CONTINUOUS
  5
92
 10
708.332226
 20
400.033669
 30
0.0
 11
710.835635
 21
402.537079
 31
0.0
  0
LINE
  8
LC-003-005-----0
  6
CONTINUOUS
  5
93
 10
708.332226
 20
402.862096
 30
0.0
 11
710.835635
 21
405.365506
 31
0.0
  0
LINE
  8
LC-003-005-----0
  6
CONTINUOUS
  5
94
 10
708.332226
 20
405.690523
 30
0.0
 11
710.835635
 21
408.193933
 31
0.0
  0
LINE
  8
LC-003-005-----0
  6
CONTINUOUS
  5
95
 10
714.001416
 20
411.359714
 30
0.0
 11
715.932226
 21
413.290523
 31
0.0
  0
LINE
  8
LC-003-005-----0
  6
CONTINUOUS
  5
96
 10
708.332226
 20
408.51895
 30
0.0
 11
713.832226
 21
414.01895
 31
0.0
  0
LINE
  8
LC-003-005-----0
  6
CONTINUOUS
  5
97
 10
708.332226
 20
411.347378
 30
0.0
 11
708.894408
 21
411.90956
 31
0.0
  0
LINE
  8
LC-003-005-----0
  6
CONTINUOUS
  5
98
 10
711.335635
 20
414.350787
 30
0.0
 11
713.832226
 21
416.847378
 31
0.0
  0
LINE
  8
LC-003-005-----0
  6
CONTINUOUS
  5
99
 10
711.335635
 20
417.179214
 30
0.0
 11
711.565981
 21
417.40956
 31
0.0
  0
ENDBLK
  8
0
  5
9A
  0
BLOCK
  8
0
  5
9C
  2
*D2
 70
    65
 10
0.0
 20
0.0
 30
0.0
  3
*D2
  0
LINE
  8
LC-005-003-MTH-0
  6
CONTINUOUS
  5
9E
 10
562.831919
 20
267.909714
 30
0.0
 11
562.831919
 21
179.2
 31
0.0
  0
LINE
  8
LC-005-003-MTH-0
  6
CONTINUOUS
  5
9F
 10
707.832532
 20
267.909714
 30
0.0
 11
707.832532
 21
179.2
 31
0.0
  0
LINE
  8
LC-006-003-MTG-0
  6
CONTINUOUS
  5
A1
 10
562.831919
 20
196.0
 30
0.0
 11
707.832532
 21
196.0
 31
0.0
  0
LINE
  8
LC-004-003-----0
  6
CONTINUOUS
  5
A3
 10
590.592375
 20
199.654733
 30
0.0
 11
562.831919
 21
196.0
 31
0.0
  0
LINE
  8
LC-004-003-----0
  6
CONTINUOUS
  5
A4
 10
562.831919
 20
196.0
 30
0.0
 11
590.592375
 21
192.345267
 31
0.0
  0
LINE
  8
LC-004-003-----0
  6
CONTINUOUS
  5
A5
 10
590.592375
 20
192.345267
 30
0.0
 11
590.592375
 21
199.654733
 31
0.0
  0
LINE
  8
LC-004-003-----0
  6
CONTINUOUS
  5
A6
 10
590.654657
 20
198.704503
 30
0.0
 11
570.111919
 21
196.0
 31
0.0
  0
LINE
  8
LC-004-003-----0
  6
CONTINUOUS
  5
A7
 10
570.111919
 20
196.0
 30
0.0
 11
590.654657
 21
193.295497
 31
0.0
  0
LINE
  8
LC-004-003-----0
  6
CONTINUOUS
  5
A8
 10
590.716938
 20
197.754272
 30
0.0
 11
577.391919
 21
196.0
 31
0.0
  0
LINE
  8
LC-004-003-----0
  6
CONTINUOUS
  5
A9
 10
577.391919
 20
196.0
 30
0.0
 11
590.716938
 21
194.245728
 31
0.0
  0
LINE
  8
LC-004-003-----0
  6
CONTINUOUS
  5
AA
 10
590.77922
 20
196.804041
 30
0.0
 11
584.671919
 21
196.0
 31
0.0
  0
LINE
  8
LC-004-003-----0
  6
CONTINUOUS
  5
AB
 10
584.671919
 20
196.0
 30
0.0
 11
590.77922
 21
195.195959
 31
0.0
  0
LINE
  8
LC-004-003-----0
  6
CONTINUOUS
  5
AC
 10
680.072076
 20
192.345267
 30
0.0
 11
707.832532
 21
196.0
 31
0.0
  0
LINE
  8
LC-004-003-----0
  6
CONTINUOUS
  5
AD
 10
707.832532
 20
196.0
 30
0.0
 11
680.072076
 21
199.654733
 31
0.0
  0
LINE
  8
LC-004-003-----0
  6
CONTINUOUS
  5
AE
 10
680.072076
 20
199.654733
 30
0.0
 11
680.072076
 21
192.345267
 31
0.0
  0
LINE
  8
LC-004-003-----0
  6
CONTINUOUS
  5
AF
 10
680.009795
 20
193.295497
 30
0.0
 11
700.552532
 21
196.0
 31
0.0
  0
LINE
  8
LC-004-003-----0
  6
CONTINUOUS
  5
B0
 10
700.552532
 20
196.0
 30
0.0
 11
680.009795
 21
198.704503
 31
0.0
  0
LINE
  8
LC-004-003-----0
  6
CONTINUOUS
  5
B1
 10
679.947513
 20
194.245728
 30
0.0
 11
693.272532
 21
196.0
 31
0.0
  0
LINE
  8
LC-004-003-----0
  6
CONTINUOUS
  5
B2
 10
693.272532
 20
196.0
 30
0.0
 11
679.947513
 21
197.754272
 31
0.0
  0
LINE
  8
LC-004-003-----0
  6
CONTINUOUS
  5
B3
 10
679.885232
 20
195.195959
 30
0.0
 11
685.992532
 21
196.0
 31
0.0
  0
LINE
  8
LC-004-003-----0
  6
CONTINUOUS
  5
B4
 10
685.992532
 20
196.0
 30
0.0
 11
679.885232
 21
196.804041
 31
0.0
  0
TEXT
  8
LC-004-003-----0
  6
CONTINUOUS
 62
     8
  5
B6
 10
601.582748
 20
203.827554
 30
0.0
 40
28.0
  1
Ø145
 41
0.9
 51
15.0
  7
LC-TXTSTYLE-150-400-0-0-D0
 72
     1
 11
639.680386
 21
203.827554
 31
0.0
  0
ENDBLK
  8
0
  5
B7
  0
BLOCK
  8
0
  5
B9
  2
*D3
 70
    65
 10
0.0
 20
0.0
 30
0.0
  3
*D3
  0
LINE
  8
LC-005-003-MTH-0
  6
CONTINUOUS
  5
BA
 10
706.492786
 20
262.909714
 30
0.0
 11
800.8
 21
262.909714
 31
0.0
  0
LINE
  8
LC-005-003-MTH-0
  6
CONTINUOUS
  5
BB
 10
711.335635
 20
417.40956
 30
0.0
 11
800.8
 21
417.40956
 31
0.0
  0
LINE
  8
LC-006-003-MTG-0
  6
CONTINUOUS
  5
BC
 10
784.0
 20
262.909714
 30
0.0
 11
784.0
 21
417.40956
 31
0.0
  0
LINE
  8
LC-004-003-----0
  6
CONTINUOUS
  5
BD
 10
780.345267
 20
290.67017
 30
0.0
 11
784.0
 21
262.909714
 31
0.0
  0
LINE
  8
LC-004-003-----0
  6
CONTINUOUS
  5
BE
 10
784.0
 20
262.909714
 30
0.0
 11
787.654733
 21
290.67017
 31
0.0
  0
LINE
  8
LC-004-003-----0
  6
CONTINUOUS
  5
BF
 10
787.654733
 20
290.67017
 30
0.0
 11
780.345267
 21
290.67017
 31
0.0
  0
LINE
  8
LC-004-003-----0
  6
CONTINUOUS
  5
C0
 10
781.295497
 20
290.732451
 30
0.0
 11
784.0
 21
270.189714
 31
0.0
  0
LINE
  8
LC-004-003-----0
  6
CONTINUOUS
  5
C1
 10
784.0
 20
270.189714
 30
0.0
 11
786.704503
 21
290.732451
 31
0.0
  0
LINE
  8
LC-004-003-----0
  6
CONTINUOUS
  5
C2
 10
782.245728
 20
290.794733
 30
0.0
 11
784.0
 21
277.469714
 31
0.0
  0
LINE
  8
LC-004-003-----0
  6
CONTINUOUS
  5
C3
 10
784.0
 20
277.469714
 30
0.0
 11
785.754272
 21
290.794733
 31
0.0
  0
LINE
  8
LC-004-003-----0
  6
CONTINUOUS
  5
C4
 10
783.195959
 20
290.857014
 30
0.0
 11
784.0
 21
284.749714
 31
0.0
  0
LINE
  8
LC-004-003-----0
  6
CONTINUOUS
  5
C5
 10
784.0
 20
284.749714
 30
0.0
 11
784.804041
 21
290.857014
 31
0.0
  0
LINE
  8
LC-004-003-----0
  6
CONTINUOUS
  5
C6
 10
787.654733
 20
389.649104
 30
0.0
 11
784.0
 21
417.40956
 31
0.0
  0
LINE
  8
LC-004-003-----0
  6
CONTINUOUS
  5
C7
 10
784.0
 20
417.40956
 30
0.0
 11
780.345267
 21
389.649104
 31
0.0
  0
LINE
  8
LC-004-003-----0
  6
CONTINUOUS
  5
C8
 10
780.345267
 20
389.649104
 30
0.0
 11
787.654733
 21
389.649104
 31
0.0
  0
LINE
  8
LC-004-003-----0
  6
CONTINUOUS
  5
C9
 10
786.704503
 20
389.586823
 30
0.0
 11
784.0
 21
410.12956
 31
0.0
  0
LINE
  8
LC-004-003-----0
  6
CONTINUOUS
  5
CA
 10
784.0
 20
410.12956
 30
0.0
 11
781.295497
 21
389.586823
 31
0.0
  0
LINE
  8
LC-004-003-----0
  6
CONTINUOUS
  5
CB
 10
785.754272
 20
389.524541
 30
0.0
 11
784.0
 21
402.84956
 31
0.0
  0
LINE
  8
LC-004-003-----0
  6
CONTINUOUS
  5
CC
 10
784.0
 20
402.84956
 30
0.0
 11
782.245728
 21
389.524541
 31
0.0
  0
LINE
  8
LC-004-003-----0
  6
CONTINUOUS
  5
CD
 10
784.804041
 20
389.46226
 30
0.0
 11
784.0
 21
395.56956
 31
0.0
  0
LINE
  8
LC-004-003-----0
  6
CONTINUOUS
  5
CE
 10
784.0
 20
395.56956
 30
0.0
 11
783.195959
 21
389.46226
 31
0.0
  0
TEXT
  8
LC-004-003-----0
  6
CONTINUOUS
 62
     8
  5
CF
 10
776.172446
 20
314.744017
 30
0.0
 40
28.0
  1
155
 50
90.0
 51
15.0
  7
LC-TXTSTYLE-150-400-0-0-D0
 72
     1
 11
776.172446
 21
344.507797
 31
0.0
  0
ENDBLK
  8
0
  5
D0
  0
BLOCK
  8
0
  5
D2
  2
*X4
 70
    65
 10
554.732226
 20
411.90956
 30
0.0
  3
*X4
  0
LINE
  8
LC-003-005-----0
  6
CONTINUOUS
  5
D3
 10
562.995076
 20
418.469137
 30
0.0
 11
561.991649
 21
419.472563
 31
0.0
  0
LINE
  8
LC-003-005-----0
  6
DASHED
  5
D5
 10
562.349947
 20
413.457411
 30
0.0
 11
559.328816
 21
416.478542
 31
0.0
  0
LINE
  8
LC-003-005-----0
  6
DASHED
  5
D6
 10
558.397798
 20
417.40956
 30
0.0
 11
555.928679
 21
419.878679
 31
0.0
  0
LINE
  8
LC-003-005-----0
  6
DASHED
  5
D7
 10
561.069371
 20
411.90956
 30
0.0
 11
559.328816
 21
413.650115
 31
0.0
  0
LINE
  8
LC-003-005-----0
  6
DASHED
  5
D8
 10
556.832226
 20
416.146705
 30
0.0
 11
554.732226
 21
418.246705
 31
0.0
  0
ENDBLK
  8
0
  5
D9
  0
BLOCK
  8
0
  5
DB
  2
*X5
 70
    65
 10
707.232226
 20
411.90956
 30
0.0
  3
*X5
  0
LINE
  8
LC-003-005-----0
  6
DASHED
  5
DC
 10
715.932226
 20
415.438624
 30
0.0
 11
711.461136
 21
419.909714
 31
0.0
  0
LINE
  8
LC-003-005-----0
  6
DASHED
  5
DD
 10
714.632709
 20
413.909714
 30
0.0
 11
713.832226
 21
414.710197
 31
0.0
  0
LINE
  8
LC-003-005-----0
  6
DASHED
  5
DE
 10
711.335635
 20
417.206787
 30
0.0
 11
708.930054
 21
419.612369
 31
0.0
  0
LINE
  8
LC-003-005-----0
  6
CONTINUOUS
  5
DF
 10
710.976008
 20
411.90956
 30
0.0
 11
707.656144
 21
415.229425
 31
0.0
  0
ENDBLK
  8
0
  5
E0
  0
BLOCK
  8
0
  5
E2
  2
*D6
 70
    65
 10
0.0
 20
0.0
 30
0.0
  3
*D6
  0
LINE
  8
LC-005-003-MTH-0
  6
CONTINUOUS
  5
E3
 10
705.132532
 20
262.909714
 30
0.0
 11
761.6
 21
262.909714
 31
0.0
  0
LINE
  8
LC-005-003-MTH-0
  6
CONTINUOUS
  5
E4
 10
707.832532
 20
393.126457
 30
0.0
 11
761.6
 21
393.126457
 31
0.0
  0
LINE
  8
LC-006-003-MTG-0
  6
CONTINUOUS
  5
E5
 10
744.8
 20
262.909714
 30
0.0
 11
744.8
 21
393.126457
 31
0.0
  0
LINE
  8
LC-004-003-----0
  6
CONTINUOUS
  5
E6
 10
741.145267
 20
290.67017
 30
0.0
 11
744.8
 21
262.909714
 31
0.0
  0
LINE
  8
LC-004-003-----0
  6
CONTINUOUS
  5
E7
 10
744.8
 20
262.909714
 30
0.0
 11
748.454733
 21
290.67017
 31
0.0
  0
LINE
  8
LC-004-003-----0
  6
CONTINUOUS
  5
E8
 10
748.454733
 20
290.67017
 30
0.0
 11
741.145267
 21
290.67017
 31
0.0
  0
LINE
  8
LC-004-003-----0
  6
CONTINUOUS
  5
E9
 10
742.095497
 20
290.732451
 30
0.0
 11
744.8
 21
270.189714
 31
0.0
  0
LINE
  8
LC-004-003-----0
  6
CONTINUOUS
  5
EA
 10
744.8
 20
270.189714
 30
0.0
 11
747.504503
 21
290.732451
 31
0.0
  0
LINE
  8
LC-004-003-----0
  6
CONTINUOUS
  5
EB
 10
743.045728
 20
290.794733
 30
0.0
 11
744.8
 21
277.469714
 31
0.0
  0
LINE
  8
LC-004-003-----0
  6
CONTINUOUS
  5
EC
 10
744.8
 20
277.469714
 30
0.0
 11
746.554272
 21
290.794733
 31
0.0
  0
LINE
  8
LC-004-003-----0
  6
CONTINUOUS
  5
ED
 10
743.995959
 20
290.857014
 30
0.0
 11
744.8
 21
284.749714
 31
0.0
  0
LINE
  8
LC-004-003-----0
  6
CONTINUOUS
  5
EE
 10
744.8
 20
284.749714
 30
0.0
 11
745.604041
 21
290.857014
 31
0.0
  0
LINE
  8
LC-004-003-----0
  6
CONTINUOUS
  5
EF
 10
748.454733
 20
365.366001
 30
0.0
 11
744.8
 21
393.126457
 31
0.0
  0
LINE
  8
LC-004-003-----0
  6
CONTINUOUS
  5
F0
 10
744.8
 20
393.126457
 30
0.0
 11
741.145267
 21
365.366001
 31
0.0
  0
LINE
  8
LC-004-003-----0
  6
CONTINUOUS
  5
F1
 10
741.145267
 20
365.366001
 30
0.0
 11
748.454733
 21
365.366001
 31
0.0
  0
LINE
  8
LC-004-003-----0
  6
CONTINUOUS
  5
F2
 10
747.504503
 20
365.303719
 30
0.0
 11
744.8
 21
385.846457
 31
0.0
  0
LINE
  8
LC-004-003-----0
  6
CONTINUOUS
  5
F3
 10
744.8
 20
385.846457
 30
0.0
 11
742.095497
 21
365.303719
 31
0.0
  0
LINE
  8
LC-004-003-----0
  6
CONTINUOUS
  5
F4
 10
746.554272
 20
365.241438
 30
0.0
 11
744.8
 21
378.566457
 31
0.0
  0
LINE
  8
LC-004-003-----0
  6
CONTINUOUS
  5
F5
 10
744.8
 20
378.566457
 30
0.0
 11
743.045728
 21
365.241438
 31
0.0
  0
LINE
  8
LC-004-003-----0
  6
CONTINUOUS
  5
F6
 10
745.604041
 20
365.179156
 30
0.0
 11
744.8
 21
371.286457
 31
0.0
  0
LINE
  8
LC-004-003-----0
  6
CONTINUOUS
  5
F7
 10
744.8
 20
371.286457
 30
0.0
 11
743.995959
 21
365.179156
 31
0.0
  0
TEXT
  8
LC-004-003-----0
  6
CONTINUOUS
 62
     8
  5
F8
 10
736.972446
 20
267.381993
 30
0.0
 40
28.0
  1
25-130
 50
90.0
 51
15.0
  7
LC-TXTSTYLE-150-400-0-0-D0
 72
     1
 11
736.972446
 21
332.366245
 31
0.0
  0
ENDBLK
  8
0
  5
F9
  0
BLOCK
  8
0
  5
FB
  2
BLK1
 70
    64
 10
0.0
 20
0.0
 30
0.0
  3
BLK1
  0
ENDBLK
  8
0
  5
FC
  0
BLOCK
  8
0
  5
FE
  2
BLK2
 70
    64
 10
0.0
 20
0.0
 30
0.0
  3
BLK2
  0
ENDBLK
  8
0
  5
FF
  0
ENDSEC
  0
SECTION
  2
ENTITIES
  0
VIEWPORT
  8
LC-000
  5
13C
 67
     1
 68
     1
 10
420.0
 20
297.0
 30
0.0
 40
840.0
 41
594.0
 69
     1
1001
ACAD
1000
MVIEW
1002
{
1070
    16
1010
0.0
1020
0.0
1030
0.0
1010
0.0
1020
0.0
1030
1.0
1040
0.0
1040
594.0
1040
420.0
1040
297.0
1040
50.0
1040
0.0
1040
0.0
1070
     0
1070
   100
1070
     1
1070
     1
1070
     0
1070
     0
1070
     0
1070
     0
1040
0.0
1040
0.0
1040
0.0
1040
1.0
1040
1.0
1040
0.0
1040
0.0
1070
     0
1002
{
1002
}
1002
}
  0
VIEWPORT
  8
0
  5
13D
 67
     1
 68
     1
 10
0.0
 20
0.0
 30
0.0
 40
0.0
 41
0.0
 69
     1
1001
ACAD
1000
MVIEW
1002
{
1070
    16
1010
0.0
1020
0.0
1030
0.0
1010
0.0
1020
0.0
1030
1.0
1040
0.0
1040
594.0
1040
0.0
1040
0.0
1040
50.0
1040
0.0
1040
0.0
1070
     0
1070
   100
1070
     0
1070
     1
1070
     0
1070
     0
1070
     0
1070
     0
1040
0.0
1040
0.0
1040
0.0
1040
0.5
1040
0.5
1040
0.5
1040
0.5
1070
     0
1002
{
1002
}
1002
}
  0
INSERT
  8
0
  5
100
  2
*X0
 10
554.732226
 20
262.909714
 30
0.0
  0
INSERT
  8
0
  5
101
  2
*X1
 10
705.132532
 20
262.909714
 30
0.0
  0
DIMENSION
  8
0
  5
102
  2
*D2
 10
635.332226
 20
196.0
 30
0.0
 11
635.332226
 21
196.0
 31
0.0
  1
%%c<>
 13
562.831919
 23
267.909714
 33
0.0
 14
707.832532
 24
267.909714
 34
0.0
  3
LC-DIM-L-0140-02-02
  0
DIMENSION
  8
0
  5
103
  2
*D3
 10
784.0
 20
340.159637
 30
0.0
 11
784.0
 21
340.159637
 31
0.0
  1
155
 13
706.492786
 23
262.909714
 33
0.0
 14
711.335635
 24
417.40956
 34
0.0
 50
90.0
  3
LC-DIM-L-0140-02-02
  0
INSERT
  8
0
  5
104
  2
*X4
 10
554.732226
 20
411.90956
 30
0.0
  0
INSERT
  8
0
  5
105
  2
*X5
 10
707.232226
 20
411.90956
 30
0.0
  0
DIMENSION
  8
0
  5
106
  2
*D6
 10
744.8
 20
328.018085
 30
0.0
 11
744.8
 21
328.018085
 31
0.0
  1
25-130
 13
705.132532
 23
262.909714
 33
0.0
 14
707.832532
 24
393.126457
 34
0.0
 50
90.0
  3
LC-DIM-L-0140-02-02
  0
INSERT
  8
0
  5
108
  2
BLK1
 10
0.0
 20
0.0
 30
0.0
  0
INSERT
  8
0
  5
109
  2
BLK2
 10
0.0
 20
0.0
 30
0.0
  0
LINE
  8
LC-001-002-----0
  6
CONTINUOUS
  5
10B
 10
559.828816
 20
396.12956
 30
0.0
 11
562.831919
 21
393.126457
 31
0.0
  0
LINE
  8
LC-001-002-----0
  6
DASHDOT
 62
     2
  5
10D
 10
635.332226
 20
419.909714
 30
0.0
 11
635.332226
 21
262.909714
 31
0.0
  0
LINE
  8
LC-001-002-----0
  6
CONTINUOUS
  5
10E
 10
705.132532
 20
395.898946
 30
0.0
 11
705.132532
 21
262.909714
 31
0.0
  0
LINE
  8
LC-001-002-----0
  6
CONTINUOUS
  5
10F
 10
713.832226
 20
411.359714
 30
0.0
 11
710.835635
 21
408.363123
 31
0.0
  0
LINE
  8
LC-001-002-----0
  6
CONTINUOUS
  5
110
 10
710.835635
 20
396.12956
 30
0.0
 11
707.832532
 21
393.126457
 31
0.0
  0
LINE
  8
LC-001-002-----0
  6
CONTINUOUS
  5
111
 10
565.531919
 20
395.898946
 30
0.0
 11
565.531919
 21
262.909714
 31
0.0
  0
LINE
  8
LC-001-002-----0
  6
CONTINUOUS
  5
112
 10
713.832226
 20
417.40956
 30
0.0
 11
711.335635
 21
417.40956
 31
0.0
  0
LINE
  8
LC-001-002-----0
  6
CONTINUOUS
  5
113
 10
708.332226
 20
413.409714
 30
0.0
 11
708.332226
 21
396.878233
 31
0.0
  0
LINE
  8
LC-001-002-----0
  6
CONTINUOUS
  5
114
 10
711.335635
 20
417.40956
 30
0.0
 11
711.335635
 21
411.90956
 31
0.0
  0
LINE
  8
LC-001-002-----0
  6
CONTINUOUS
  5
115
 10
705.132532
 20
395.898946
 30
0.0
 11
708.332226
 21
396.878233
 31
0.0
  0
LINE
  8
LC-001-002-----0
  6
CONTINUOUS
  5
116
 10
715.932226
 20
413.909714
 30
0.0
 11
713.832226
 21
413.909714
 31
0.0
  0
LINE
  8
LC-001-002-----0
  6
CONTINUOUS
  5
117
 10
715.932226
 20
411.359714
 30
0.0
 11
713.832226
 21
411.359714
 31
0.0
  0
LINE
  8
LC-001-002-----0
  6
CONTINUOUS
  5
118
 10
715.932226
 20
418.409714
 30
0.0
 11
715.932226
 21
411.359714
 31
0.0
  0
ARC
  8
LC-002-002-RND-0
  6
CONTINUOUS
  5
11A
 10
714.432226
 20
418.409714
 30
0.0
 40
1.5
 50
0.0
 51
90.0
  0
LINE
  8
LC-001-002-----0
  6
CONTINUOUS
  5
11B
 10
713.832226
 20
417.40956
 30
0.0
 11
713.832226
 21
413.909714
 31
0.0
  0
ARC
  8
LC-002-002-RND-0
  6
CONTINUOUS
  5
11C
 10
710.232226
 20
416.909714
 30
0.0
 40
3.0
 50
90.0
 51
200.381666
  0
LINE
  8
LC-001-002-----0
  6
CONTINUOUS
  5
11D
 10
710.835635
 20
408.363123
 30
0.0
 11
710.835635
 21
396.12956
 31
0.0
  0
LINE
  8
LC-001-002-----0
  6
CONTINUOUS
  5
11E
 10
556.832226
 20
411.359714
 30
0.0
 11
559.828816
 21
408.363123
 31
0.0
  0
LINE
  8
LC-001-002-----0
  6
CONTINUOUS
  5
11F
 10
714.432226
 20
419.909714
 30
0.0
 11
710.232226
 21
419.909714
 31
0.0
  0
LINE
  8
LC-001-002-----0
  6
CONTINUOUS
  5
120
 10
707.420045
 20
415.864897
 30
0.0
 11
708.332226
 21
413.409714
 31
0.0
  0
LINE
  8
LC-001-002-----0
  6
CONTINUOUS
  5
121
 10
565.531919
 20
395.898946
 30
0.0
 11
562.332226
 21
396.878233
 31
0.0
  0
LINE
  8
LC-001-002-----0
  6
CONTINUOUS
  5
122
 10
562.332226
 20
396.878233
 30
0.0
 11
708.332226
 21
396.878233
 31
0.0
  0
LINE
  8
LC-001-002-----0
  6
CONTINUOUS
  5
123
 10
556.832226
 20
417.40956
 30
0.0
 11
559.328816
 21
417.40956
 31
0.0
  0
LINE
  8
LC-001-002-----0
  6
CONTINUOUS
  5
124
 10
711.335635
 20
411.90956
 30
0.0
 11
708.332226
 21
411.90956
 31
0.0
  0
LINE
  8
LC-001-002-----0
  6
CONTINUOUS
  5
125
 10
562.332226
 20
413.409714
 30
0.0
 11
562.332226
 21
396.878233
 31
0.0
  0
LINE
  8
LC-001-002-----0
  6
CONTINUOUS
  5
126
 10
559.328816
 20
417.40956
 30
0.0
 11
559.328816
 21
411.90956
 31
0.0
  0
LINE
  8
LC-001-002-----0
  6
CONTINUOUS
  5
127
 10
554.732226
 20
413.909714
 30
0.0
 11
556.832226
 21
413.909714
 31
0.0
  0
LINE
  8
LC-001-002-----0
  6
CONTINUOUS
  5
128
 10
554.732226
 20
411.359714
 30
0.0
 11
556.832226
 21
411.359714
 31
0.0
  0
LINE
  8
LC-001-002-----0
  6
CONTINUOUS
  5
129
 10
554.732226
 20
418.409714
 30
0.0
 11
554.732226
 21
411.359714
 31
0.0
  0
ARC
  8
LC-002-002-RND-0
  6
CONTINUOUS
  5
12A
 10
556.232226
 20
418.409714
 30
0.0
 40
1.5
 50
90.0
 51
180.0
  0
LINE
  8
LC-001-002-----0
  6
CONTINUOUS
  5
12B
 10
556.832226
 20
417.40956
 30
0.0
 11
556.832226
 21
413.909714
 31
0.0
  0
LINE
  8
LC-001-002-----0
  6
CONTINUOUS
  5
12C
 10
560.432226
 20
419.909714
 30
0.0
 11
710.232226
 21
419.909714
 31
0.0
  0
ARC
  8
LC-002-002-RND-0
  6
CONTINUOUS
  5
12D
 10
560.432226
 20
416.909714
 30
0.0
 40
3.0
 50
339.618334
 51
90.0
  0
LINE
  8
LC-001-002-----0
  6
CONTINUOUS
  5
12E
 10
559.828816
 20
408.363123
 30
0.0
 11
559.828816
 21
396.12956
 31
0.0
  0
LINE
  8
LC-001-002-----0
  6
CONTINUOUS
  5
12F
 10
556.232226
 20
419.909714
 30
0.0
 11
560.432226
 21
419.909714
 31
0.0
  0
LINE
  8
LC-001-002-----0
  6
CONTINUOUS
  5
130
 10
563.244406
 20
415.864897
 30
0.0
 11
562.332226
 21
413.409714
 31
0.0
  0
LINE
  8
LC-001-002-----0
  6
CONTINUOUS
  5
131
 10
705.132532
 20
395.898946
 30
0.0
 11
565.531919
 21
395.898946
 31
0.0
  0
LINE
  8
LC-001-002-----0
  6
CONTINUOUS
  5
132
 10
707.832532
 20
267.909714
 30
0.0
 11
706.492805
 21
262.909785
 31
0.0
  0
LINE
  8
LC-001-002-----0
  6
CONTINUOUS
  5
133
 10
706.492805
 20
262.909714
 30
0.0
 11
705.332532
 21
262.909714
 31
0.0
  0
LINE
  8
LC-001-002-----0
  6
CONTINUOUS
  5
134
 10
707.832532
 20
393.126457
 30
0.0
 11
707.832532
 21
267.909714
 31
0.0
  0
LINE
  8
LC-001-002-----0
  6
CONTINUOUS
  5
135
 10
562.332226
 20
411.90956
 30
0.0
 11
708.332226
 21
411.90956
 31
0.0
  0
LINE
  8
LC-001-002-----0
  6
CONTINUOUS
  5
136
 10
565.531919
 20
262.909714
 30
0.0
 11
705.332532
 21
262.909714
 31
0.0
  0
LINE
  8
LC-001-002-----0
  6
CONTINUOUS
  5
137
 10
562.831919
 20
393.126457
 30
0.0
 11
562.831919
 21
267.909714
 31
0.0
  0
LINE
  8
LC-001-002-----0
  6
CONTINUOUS
  5
138
 10
562.831919
 20
267.909714
 30
0.0
 11
564.171646
 21
262.909785
 31
0.0
  0
LINE
  8
LC-001-002-----0
  6
CONTINUOUS
  5
139
 10
564.171646
 20
262.909714
 30
0.0
 11
565.531919
 21
262.909714
 31
0.0
  0
LINE
  8
LC-001-002-----0
  6
CONTINUOUS
  5
13A
 10
559.328816
 20
411.90956
 30
0.0
 11
562.332226
 21
411.90956
 31
0.0
  0
ENDSEC
  0
EOF
