  0
SECTION
  2
HEADER
  9
$ACADVER
  1
AC1009
  9
$INSBASE
 10
0.0
 20
0.0
 30
0.0
  9
$EXTMIN
 10
-210.0
 20
-148.5
 30
0.0
  9
$EXTMAX
 10
630.0
 20
445.5
 30
0.0
  9
$LIMMIN
 10
-210.0
 20
-148.5
  9
$LIMMAX
 10
630.0
 20
445.5
  9
$ORTHOMODE
 70
     0
  9
$REGENMODE
 70
     1
  9
$FILLMODE
 70
     1
  9
$QTEXTMODE
 70
     0
  9
$MIRRTEXT
 70
     1
  9
$DRAGMODE
 70
     2
  9
$LTSCALE
 40
2.0
  9
$OSMODE
 70
     0
  9
$ATTMODE
 70
     1
  9
$TEXTSIZE
 40
0.2
  9
$TRACEWID
 40
0.05
  9
$TEXTSTYLE
  7
STANDARD
  9
$CLAYER
  8
0
  9
$CELTYPE
  6
BYLAYER
  9
$CECOLOR
 62
     7
  9
$DIMSCALE
 40
2.0
  9
$DIMASZ
 40
3.5
  9
$DIMEXO
 40
0.0625
  9
$DIMDLI
 40
0.38
  9
$DIMRND
 40
0.0
  9
$DIMDLE
 40
0.0
  9
$DIMEXE
 40
0.18
  9
$DIMTP
 40
0.0
  9
$DIMTM
 40
0.0
  9
$DIMTXT
 40
3.5
  9
$DIMCEN
 40
0.09
  9
$DIMTSZ
 40
0.0
  9
$DIMTOL
 70
     0
  9
$DIMLIM
 70
     0
  9
$DIMTIH
 70
     1
  9
$DIMTOH
 70
     1
  9
$DIMSE1
 70
     0
  9
$DIMSE2
 70
     0
  9
$DIMTAD
 70
     1
  9
$DIMZIN
 70
     0
  9
$DIMBLK
  1

  9
$DIMASO
 70
     1
  9
$DIMSHO
 70
     1
  9
$DIMPOST
  1

  9
$DIMAPOST
  1

  9
$DIMALT
 70
     0
  9
$DIMALTD
 70
     2
  9
$DIMALTF
 40
25.4
  9
$DIMLFAC
 40
1.0
  9
$DIMTOFL
 70
     0
  9
$DIMTVP
 40
0.0
  9
$DIMTIX
 70
     0
  9
$DIMSOXD
 70
     0
  9
$DIMSAH
 70
     0
  9
$DIMBLK1
  1

  9
$DIMBLK2
  1

  9
$DIMSTYLE
  2
STANDARD
  9
$DIMCLRD
 70
     0
  9
$DIMCLRE
 70
     0
  9
$DIMCLRT
 70
     0
  9
$DIMTFAC
 40
1.0
  9
$DIMGAP
 40
0.09
  9
$LUNITS
 70
     2
  9
$LUPREC
 70
     2
  9
$AXISMODE
 70
     0
  9
$AXISUNIT
 10
0.0
 20
0.0
  9
$SKETCHINC
 40
0.1
  9
$FILLETRAD
 40
0.0
  9
$AUNITS
 70
     0
  9
$AUPREC
 70
     0
  9
$MENU
  1
acad
  9
$ELEVATION
 40
0.0
  9
$PELEVATION
 40
0.0
  9
$THICKNESS
 40
0.0
  9
$LIMCHECK
 70
     0
  9
$BLIPMODE
 70
     1
  9
$CHAMFERA
 40
0.0
  9
$CHAMFERB
 40
0.0
  9
$SKPOLY
 70
     0
  9
$TDCREATE
 40
0.000000000
  9
$TDUPDATE
 40
0.000000000
  9
$TDINDWG
 40
0.0000000000
  9
$TDUSRTIMER
 40
0.0000000000
  9
$USRTIMER
 70
     1
  9
$ANGBASE
 50
0.0
  9
$ANGDIR
 70
     0
  9
$PDMODE
 70
     0
  9
$PDSIZE
 40
0.0
  9
$PLINEWID
 40
0.0
  9
$COORDS
 70
     0
  9
$SPLFRAME
 70
     0
  9
$SPLINETYPE
 70
     6
  9
$SPLINESEGS
 70
     8
  9
$ATTDIA
 70
     0
  9
$ATTREQ
 70
     1
  9
$HANDLING
 70
     1
  9
$HANDSEED
  5
13D
  9
$SURFTAB1
 70
     6
  9
$SURFTAB2
 70
     6
  9
$SURFTYPE
 70
     6
  9
$SURFU
 70
     6
  9
$SURFV
 70
     6
  9
$UCSNAME
  2

  9
$UCSORG
 10
0.0
 20
0.0
 30
0.0
  9
$UCSXDIR
 10
1.0
 20
0.0
 30
0.0
  9
$UCSYDIR
 10
0.0
 20
1.0
 30
0.0
  9
$PUCSNAME
  2

  9
$PUCSORG
 10
0.0
 20
0.0
 30
0.0
  9
$PUCSXDIR
 10
1.0
 20
0.0
 30
0.0
  9
$PUCSYDIR
 10
0.0
 20
1.0
 30
0.0
  9
$USERI1
 70
     0
  9
$USERI2
 70
     0
  9
$USERI3
 70
     0
  9
$USERI4
 70
     0
  9
$USERI5
 70
     0
  9
$USERR1
 40
0.0
  9
$USERR2
 40
0.0
  9
$USERR3
 40
0.0
  9
$USERR4
 40
0.0
  9
$USERR5
 40
0.0
  9
$WORLDVIEW
 70
     1
  9
$SHADEDGE
 70
     3
  9
$SHADEDIF
 70
    70
  9
$TILEMODE
 70
     1
  9
$MAXACTVP
 70
    16
  9
$PINSBASE
 10
0.0
 20
0.0
 30
0.0
  9
$PLIMCHECK
 70
     0
  9
$PEXTMIN
 10
1.000000E+20
 20
1.000000E+20
 30
1.000000E+20
  9
$PEXTMAX
 10
-1.000000E+20
 20
-1.000000E+20
 30
-1.000000E+20
  9
$PLIMMIN
 10
-210.0
 20
-148.5
  9
$PLIMMAX
 10
630.0
 20
445.5
  9
$UNITMODE
 70
     0
  9
$VISRETAIN
 70
     0
  9
$PLINEGEN
 70
     1
  9
$PSLTSCALE
 70
     0
  9
$TREEDEPTH
 70
  3020
  9
$DWGCODEPAGE
  3
dos850
  0
ENDSEC
  0
SECTION
  2
TABLES
  0
TABLE
  2
VPORT
 70
     1
  0
VPORT
  2
*ACTIVE
 70
     0
 10
0.0
 20
0.0
 11
1.0
 21
1.0
 12
420.0
 22
297.0
 13
0.0
 23
0.0
 14
1.0
 24
1.0
 15
0.0
 25
0.0
 16
0.0
 26
0.0
 36
1.0
 17
-210.0
 27
-148.5
 37
0.0
 40
594.0
 41
1.604229
 42
50.0
 43
0.0
 44
0.0
 50
0.0
 51
0.0
 71
     0
 72
   100
 73
     1
 74
     1
 75
     0
 76
     0
 77
     0
 78
     0
  0
ENDTAB
  0
TABLE
  2
LTYPE
 70
     4
  0
LTYPE
  2
CONTINUOUS
 70
    64
  3
Solid line
 72
    65
 73
     0
 40
0.0
  0
LTYPE
  2
DASHDOT
 70
    64
  3
__ . __ . __ . __ . __
 72
    65
 73
     4
 40
7.5
 49
5.0
 49
-1.25
 49
0.0
 49
-1.25
  0
LTYPE
  2
CENTER
 70
    64
  3
__ . __ . __ . __ . __
 72
    65
 73
     4
 40
7.5
 49
5.0
 49
-1.25
 49
0.0
 49
-1.25
  0
LTYPE
  2
DASHED
 70
    64
  3
__ __ __ __ __
 72
    65
 73
     2
 40
6.25
 49
5.0
 49
-1.25
  0
ENDTAB
  0
TABLE
  2
LAYER
 70
    10
  0
LAYER
  2
0
 70
     0
 62
     7
  6
CONTINUOUS
  0
LAYER
  2
LC-INFO-1-2-MM-A3-0
 70
     1
 62
    -1
  6
CONTINUOUS
  0
LAYER
  2
LC-005-003-MTH-0
 70
     0
 62
     2
  6
CONTINUOUS
  0
LAYER
  2
LC-006-003-MTG-0
 70
     0
 62
     2
  6
CONTINUOUS
  0
LAYER
  2
LC-004-003-----0
 70
     0
 62
     2
  6
CONTINUOUS
  0
LAYER
  2
LC-007-000-----0
 70
     0
 62
     7
  6
CONTINUOUS
  0
LAYER
  2
LC-001-002-----0
 70
     0
 62
     1
  6
CONTINUOUS
  0
LAYER
  2
LC-002-002-RND-0
 70
     0
 62
     1
  6
CONTINUOUS
  0
LAYER
  2
LC-003-006-MLN-0
 70
     0
 62
     2
  6
CENTER
  0
LAYER
  2
LC-000
 70
     0
 62
     7
  6
CONTINUOUS
  0
ENDTAB
  0
TABLE
  2
STYLE
 70
     4
  0
STYLE
  2
STANDARD
 70
     0
 40
0.0
 41
1.0
 50
0.0
 71
     0
 42
0.0
  3
txt
  4

  0
STYLE
  2
LC-TXTSTYLE-150-400-0-0-A1
 70
    64
 40
0.0
 41
1.0
 50
15.0
 71
     0
 42
3.5
  3
Arial
  4

  0
STYLE
  2
LC-STANDARD
 70
    64
 40
0.0
 41
1.0
 50
0.0
 71
     0
 42
3.5
  3
MONOTXT
  4

  0
STYLE
  2
LC-TXTSTYLE-150-400-0-0-D3
 70
    64
 40
0.0
 41
1.0
 50
15.0
 71
     0
 42
3.5
  3
MONOTXT
  4

  0
ENDTAB
  0
TABLE
  2
VIEW
 70
     0
  0
ENDTAB
  0
TABLE
  2
UCS
 70
     0
  0
ENDTAB
  0
TABLE
  2
APPID
 70
     1
  0
APPID
  2
ACAD
 70
     0
  0
ENDTAB
  0
TABLE
  2
DIMSTYLE
 70
     3
  0
DIMSTYLE
  2
STANDARD
 70
     0
  3

  4

  5

  6

  7

 40
1.0
 41
0.18
 42
0.0625
 43
0.38
 44
0.18
 45
0.0
 46
0.0
 47
0.0
 48
0.0
 71
     0
 72
     0
 73
     1
 74
     1
 75
     0
 76
     0
 77
     0
 78
     0
140
0.18
141
0.09
142
0.0
143
25.4
144
1.0
145
0.0
146
1.0
147
0.09
170
     0
171
     2
172
     0
173
     0
174
     0
175
     0
176
     0
177
     0
178
     0
  0
DIMSTYLE
  2
LC-STANDARD
 70
     0
  3

  4

  5

  6

  7

 40
1.0
 41
3.5
 42
0.0
 43
7.5
 44
1.8
 45
0.0
 46
0.0
 47
0.0
 48
0.0
 71
     0
 72
     0
 73
     0
 74
     0
 75
     0
 76
     0
 77
     1
 78
     8
140
3.5
141
0.0
142
0.0
143
25.4
144
1.0
145
0.0
146
0.71
147
1.5
170
     0
171
     2
172
     1
173
     0
174
     0
175
     0
176
     0
177
     0
178
     3
  0
DIMSTYLE
  2
LC-DIM-L-0140-02-02
 70
     0
  3

  4

  5

  6

  7

 40
2.0
 41
3.5
 42
0.0
 43
7.5
 44
1.8
 45
0.0
 46
0.0
 47
0.0
 48
0.0
 71
     0
 72
     0
 73
     0
 74
     0
 75
     0
 76
     0
 77
     1
 78
     8
140
14.0
141
0.0
142
0.0
143
25.4
144
1.0
145
0.0
146
0.71
147
1.5
170
     0
171
     2
172
     0
173
     0
174
     0
175
     0
176
     2
177
     2
178
     8
  0
ENDTAB
  0
ENDSEC
  0
SECTION
  2
BLOCKS
  0
BLOCK
  8
0
  5
24
  2
*D0
 70
    65
 10
0.0
 20
0.0
 30
0.0
  3
*D0
  0
LINE
  8
LC-005-003-MTH-0
  6
CONTINUOUS
  5
26
 10
81.15348
 20
207.025162
 30
0.0
 11
22.4
 21
207.025162
 31
0.0
  0
LINE
  8
LC-005-003-MTH-0
  6
CONTINUOUS
  5
27
 10
81.15348
 20
307.025162
 30
0.0
 11
22.4
 21
307.025162
 31
0.0
  0
LINE
  8
LC-006-003-MTG-0
  6
CONTINUOUS
  5
29
 10
39.2
 20
207.025162
 30
0.0
 11
39.2
 21
307.025162
 31
0.0
  0
LINE
  8
LC-004-003-----0
  6
CONTINUOUS
  5
2B
 10
35.545267
 20
234.785618
 30
0.0
 11
39.2
 21
207.025162
 31
0.0
  0
LINE
  8
LC-004-003-----0
  6
CONTINUOUS
  5
2C
 10
39.2
 20
207.025162
 30
0.0
 11
42.854733
 21
234.785618
 31
0.0
  0
LINE
  8
LC-004-003-----0
  6
CONTINUOUS
  5
2D
 10
42.854733
 20
234.785618
 30
0.0
 11
35.545267
 21
234.785618
 31
0.0
  0
LINE
  8
LC-004-003-----0
  6
CONTINUOUS
  5
2E
 10
36.495497
 20
234.8479
 30
0.0
 11
39.2
 21
214.305162
 31
0.0
  0
LINE
  8
LC-004-003-----0
  6
CONTINUOUS
  5
2F
 10
39.2
 20
214.305162
 30
0.0
 11
41.904503
 21
234.8479
 31
0.0
  0
LINE
  8
LC-004-003-----0
  6
CONTINUOUS
  5
30
 10
37.445728
 20
234.910181
 30
0.0
 11
39.2
 21
221.585162
 31
0.0
  0
LINE
  8
LC-004-003-----0
  6
CONTINUOUS
  5
31
 10
39.2
 20
221.585162
 30
0.0
 11
40.954272
 21
234.910181
 31
0.0
  0
LINE
  8
LC-004-003-----0
  6
CONTINUOUS
  5
32
 10
38.395959
 20
234.972463
 30
0.0
 11
39.2
 21
228.865162
 31
0.0
  0
LINE
  8
LC-004-003-----0
  6
CONTINUOUS
  5
33
 10
39.2
 20
228.865162
 30
0.0
 11
40.004041
 21
234.972463
 31
0.0
  0
LINE
  8
LC-004-003-----0
  6
CONTINUOUS
  5
34
 10
42.854733
 20
279.264706
 30
0.0
 11
39.2
 21
307.025162
 31
0.0
  0
LINE
  8
LC-004-003-----0
  6
CONTINUOUS
  5
35
 10
39.2
 20
307.025162
 30
0.0
 11
35.545267
 21
279.264706
 31
0.0
  0
LINE
  8
LC-004-003-----0
  6
CONTINUOUS
  5
36
 10
35.545267
 20
279.264706
 30
0.0
 11
42.854733
 21
279.264706
 31
0.0
  0
LINE
  8
LC-004-003-----0
  6
CONTINUOUS
  5
37
 10
41.904503
 20
279.202425
 30
0.0
 11
39.2
 21
299.745162
 31
0.0
  0
LINE
  8
LC-004-003-----0
  6
CONTINUOUS
  5
38
 10
39.2
 20
299.745162
 30
0.0
 11
36.495497
 21
279.202425
 31
0.0
  0
LINE
  8
LC-004-003-----0
  6
CONTINUOUS
  5
39
 10
40.954272
 20
279.140143
 30
0.0
 11
39.2
 21
292.465162
 31
0.0
  0
LINE
  8
LC-004-003-----0
  6
CONTINUOUS
  5
3A
 10
39.2
 20
292.465162
 30
0.0
 11
37.445728
 21
279.140143
 31
0.0
  0
LINE
  8
LC-004-003-----0
  6
CONTINUOUS
  5
3B
 10
40.004041
 20
279.077862
 30
0.0
 11
39.2
 21
285.185162
 31
0.0
  0
LINE
  8
LC-004-003-----0
  6
CONTINUOUS
  5
3C
 10
39.2
 20
285.185162
 30
0.0
 11
38.395959
 21
279.077862
 31
0.0
  0
TEXT
  8
LC-004-003-----0
  6
CONTINUOUS
 62
     8
  5
3D
 10
31.372446
 20
234.970022
 30
0.0
 40
28.0
  1
100
 50
90.0
 41
0.9
 51
15.0
  7
LC-TXTSTYLE-150-400-0-0-A0
 72
     1
 11
31.372446
 21
261.373322
 31
0.0
  0
ENDBLK
  8
0
  5
3E
  0
BLOCK
  8
0
  5
40
  2
*D1
 70
    65
 10
0.0
 20
0.0
 30
0.0
  3
*D1
  0
LINE
  8
LC-005-003-MTH-0
  6
CONTINUOUS
  5
41
 10
78.65348
 20
304.525162
 30
0.0
 11
78.65348
 21
369.6
 31
0.0
  0
LINE
  8
LC-005-003-MTH-0
  6
CONTINUOUS
  5
42
 10
358.65348
 20
304.525162
 30
0.0
 11
358.65348
 21
369.6
 31
0.0
  0
LINE
  8
LC-006-003-MTG-0
  6
CONTINUOUS
  5
43
 10
78.65348
 20
352.8
 30
0.0
 11
358.65348
 21
352.8
 31
0.0
  0
LINE
  8
LC-004-003-----0
  6
CONTINUOUS
  5
44
 10
106.413936
 20
356.454733
 30
0.0
 11
78.65348
 21
352.8
 31
0.0
  0
LINE
  8
LC-004-003-----0
  6
CONTINUOUS
  5
45
 10
78.65348
 20
352.8
 30
0.0
 11
106.413936
 21
349.145267
 31
0.0
  0
LINE
  8
LC-004-003-----0
  6
CONTINUOUS
  5
46
 10
106.413936
 20
349.145267
 30
0.0
 11
106.413936
 21
356.454733
 31
0.0
  0
LINE
  8
LC-004-003-----0
  6
CONTINUOUS
  5
47
 10
106.476217
 20
355.504503
 30
0.0
 11
85.93348
 21
352.8
 31
0.0
  0
LINE
  8
LC-004-003-----0
  6
CONTINUOUS
  5
48
 10
85.93348
 20
352.8
 30
0.0
 11
106.476217
 21
350.095497
 31
0.0
  0
LINE
  8
LC-004-003-----0
  6
CONTINUOUS
  5
49
 10
106.538499
 20
354.554272
 30
0.0
 11
93.21348
 21
352.8
 31
0.0
  0
LINE
  8
LC-004-003-----0
  6
CONTINUOUS
  5
4A
 10
93.21348
 20
352.8
 30
0.0
 11
106.538499
 21
351.045728
 31
0.0
  0
LINE
  8
LC-004-003-----0
  6
CONTINUOUS
  5
4B
 10
106.60078
 20
353.604041
 30
0.0
 11
100.49348
 21
352.8
 31
0.0
  0
LINE
  8
LC-004-003-----0
  6
CONTINUOUS
  5
4C
 10
100.49348
 20
352.8
 30
0.0
 11
106.60078
 21
351.995959
 31
0.0
  0
LINE
  8
LC-004-003-----0
  6
CONTINUOUS
  5
4D
 10
330.893024
 20
349.145267
 30
0.0
 11
358.65348
 21
352.8
 31
0.0
  0
LINE
  8
LC-004-003-----0
  6
CONTINUOUS
  5
4E
 10
358.65348
 20
352.8
 30
0.0
 11
330.893024
 21
356.454733
 31
0.0
  0
LINE
  8
LC-004-003-----0
  6
CONTINUOUS
  5
4F
 10
330.893024
 20
356.454733
 30
0.0
 11
330.893024
 21
349.145267
 31
0.0
  0
LINE
  8
LC-004-003-----0
  6
CONTINUOUS
  5
50
 10
330.830742
 20
350.095497
 30
0.0
 11
351.37348
 21
352.8
 31
0.0
  0
LINE
  8
LC-004-003-----0
  6
CONTINUOUS
  5
51
 10
351.37348
 20
352.8
 30
0.0
 11
330.830742
 21
355.504503
 31
0.0
  0
LINE
  8
LC-004-003-----0
  6
CONTINUOUS
  5
52
 10
330.768461
 20
351.045728
 30
0.0
 11
344.09348
 21
352.8
 31
0.0
  0
LINE
  8
LC-004-003-----0
  6
CONTINUOUS
  5
53
 10
344.09348
 20
352.8
 30
0.0
 11
330.768461
 21
354.554272
 31
0.0
  0
LINE
  8
LC-004-003-----0
  6
CONTINUOUS
  5
54
 10
330.706179
 20
351.995959
 30
0.0
 11
336.81348
 21
352.8
 31
0.0
  0
LINE
  8
LC-004-003-----0
  6
CONTINUOUS
  5
55
 10
336.81348
 20
352.8
 30
0.0
 11
330.706179
 21
353.604041
 31
0.0
  0
TEXT
  8
LC-004-003-----0
  6
CONTINUOUS
 62
     8
  5
56
 10
196.59834
 20
360.627554
 30
0.0
 40
28.0
  1
280
 41
0.9
 51
15.0
  7
LC-TXTSTYLE-150-400-0-0-A0
 72
     1
 11
223.00164
 21
360.627554
 31
0.0
  0
ENDBLK
  8
0
  5
57
  0
BLOCK
  8
0
  5
59
  2
*D2
 70
    65
 10
0.0
 20
0.0
 30
0.0
  3
*D2
  0
LINE
  8
LC-005-003-MTH-0
  6
CONTINUOUS
  5
5A
 10
78.65348
 20
209.525162
 30
0.0
 11
78.65348
 21
140.0
 31
0.0
  0
LINE
  8
LC-005-003-MTH-0
  6
CONTINUOUS
  5
5B
 10
128.65348
 20
209.525162
 30
0.0
 11
128.65348
 21
140.0
 31
0.0
  0
LINE
  8
LC-004-003-----0
  6
CONTINUOUS
  5
5C
 10
50.893024
 20
153.145267
 30
0.0
 11
78.65348
 21
156.8
 31
0.0
  0
LINE
  8
LC-004-003-----0
  6
CONTINUOUS
  5
5D
 10
78.65348
 20
156.8
 30
0.0
 11
50.893024
 21
160.454733
 31
0.0
  0
LINE
  8
LC-004-003-----0
  6
CONTINUOUS
  5
5E
 10
50.893024
 20
160.454733
 30
0.0
 11
50.893024
 21
153.145267
 31
0.0
  0
LINE
  8
LC-004-003-----0
  6
CONTINUOUS
  5
5F
 10
50.830742
 20
154.095497
 30
0.0
 11
71.37348
 21
156.8
 31
0.0
  0
LINE
  8
LC-004-003-----0
  6
CONTINUOUS
  5
60
 10
71.37348
 20
156.8
 30
0.0
 11
50.830742
 21
159.504503
 31
0.0
  0
LINE
  8
LC-004-003-----0
  6
CONTINUOUS
  5
61
 10
50.768461
 20
155.045728
 30
0.0
 11
64.09348
 21
156.8
 31
0.0
  0
LINE
  8
LC-004-003-----0
  6
CONTINUOUS
  5
62
 10
64.09348
 20
156.8
 30
0.0
 11
50.768461
 21
158.554272
 31
0.0
  0
LINE
  8
LC-004-003-----0
  6
CONTINUOUS
  5
63
 10
50.706179
 20
155.995959
 30
0.0
 11
56.81348
 21
156.8
 31
0.0
  0
LINE
  8
LC-004-003-----0
  6
CONTINUOUS
  5
64
 10
56.81348
 20
156.8
 30
0.0
 11
50.706179
 21
157.604041
 31
0.0
  0
LINE
  8
LC-004-003-----0
  6
CONTINUOUS
  5
65
 10
156.413936
 20
160.454733
 30
0.0
 11
128.65348
 21
156.8
 31
0.0
  0
LINE
  8
LC-004-003-----0
  6
CONTINUOUS
  5
66
 10
128.65348
 20
156.8
 30
0.0
 11
156.413936
 21
153.145267
 31
0.0
  0
LINE
  8
LC-004-003-----0
  6
CONTINUOUS
  5
67
 10
156.413936
 20
153.145267
 30
0.0
 11
156.413936
 21
160.454733
 31
0.0
  0
LINE
  8
LC-004-003-----0
  6
CONTINUOUS
  5
68
 10
156.476217
 20
159.504503
 30
0.0
 11
135.93348
 21
156.8
 31
0.0
  0
LINE
  8
LC-004-003-----0
  6
CONTINUOUS
  5
69
 10
135.93348
 20
156.8
 30
0.0
 11
156.476217
 21
154.095497
 31
0.0
  0
LINE
  8
LC-004-003-----0
  6
CONTINUOUS
  5
6A
 10
156.538499
 20
158.554272
 30
0.0
 11
143.21348
 21
156.8
 31
0.0
  0
LINE
  8
LC-004-003-----0
  6
CONTINUOUS
  5
6B
 10
143.21348
 20
156.8
 30
0.0
 11
156.538499
 21
155.045728
 31
0.0
  0
LINE
  8
LC-004-003-----0
  6
CONTINUOUS
  5
6C
 10
156.60078
 20
157.604041
 30
0.0
 11
150.49348
 21
156.8
 31
0.0
  0
LINE
  8
LC-004-003-----0
  6
CONTINUOUS
  5
6D
 10
150.49348
 20
156.8
 30
0.0
 11
156.60078
 21
155.995959
 31
0.0
  0
LINE
  8
LC-006-003-MTG-0
  6
CONTINUOUS
  5
6E
 10
-4.71092
 20
156.8
 30
0.0
 11
167.85348
 21
156.8
 31
0.0
  0
TEXT
  8
LC-004-003-----0
  6
CONTINUOUS
 62
     8
  5
6F
 10
9.71724
 20
164.627554
 30
0.0
 40
28.0
  1
50
 41
0.9
 51
15.0
  7
LC-TXTSTYLE-150-400-0-0-A0
 72
     2
 11
44.92164
 21
164.627554
 31
0.0
  0
ENDBLK
  8
0
  5
70
  0
BLOCK
  8
0
  5
72
  2
*D3
 70
    65
 10
0.0
 20
0.0
 30
0.0
  3
*D3
  0
LINE
  8
LC-005-003-MTH-0
  6
CONTINUOUS
  5
73
 10
128.65348
 20
198.856492
 30
0.0
 11
128.65348
 21
140.0
 31
0.0
  0
LINE
  8
LC-005-003-MTH-0
  6
CONTINUOUS
  5
74
 10
208.65348
 20
209.525162
 30
0.0
 11
208.65348
 21
140.0
 31
0.0
  0
LINE
  8
LC-006-003-MTG-0
  6
CONTINUOUS
  5
75
 10
128.65348
 20
156.8
 30
0.0
 11
208.65348
 21
156.8
 31
0.0
  0
LINE
  8
LC-004-003-----0
  6
CONTINUOUS
  5
76
 10
156.413936
 20
160.454733
 30
0.0
 11
128.65348
 21
156.8
 31
0.0
  0
LINE
  8
LC-004-003-----0
  6
CONTINUOUS
  5
77
 10
128.65348
 20
156.8
 30
0.0
 11
156.413936
 21
153.145267
 31
0.0
  0
LINE
  8
LC-004-003-----0
  6
CONTINUOUS
  5
78
 10
156.413936
 20
153.145267
 30
0.0
 11
156.413936
 21
160.454733
 31
0.0
  0
LINE
  8
LC-004-003-----0
  6
CONTINUOUS
  5
79
 10
156.476217
 20
159.504503
 30
0.0
 11
135.93348
 21
156.8
 31
0.0
  0
LINE
  8
LC-004-003-----0
  6
CONTINUOUS
  5
7A
 10
135.93348
 20
156.8
 30
0.0
 11
156.476217
 21
154.095497
 31
0.0
  0
LINE
  8
LC-004-003-----0
  6
CONTINUOUS
  5
7B
 10
156.538499
 20
158.554272
 30
0.0
 11
143.21348
 21
156.8
 31
0.0
  0
LINE
  8
LC-004-003-----0
  6
CONTINUOUS
  5
7C
 10
143.21348
 20
156.8
 30
0.0
 11
156.538499
 21
155.045728
 31
0.0
  0
LINE
  8
LC-004-003-----0
  6
CONTINUOUS
  5
7D
 10
156.60078
 20
157.604041
 30
0.0
 11
150.49348
 21
156.8
 31
0.0
  0
LINE
  8
LC-004-003-----0
  6
CONTINUOUS
  5
7E
 10
150.49348
 20
156.8
 30
0.0
 11
156.60078
 21
155.995959
 31
0.0
  0
LINE
  8
LC-004-003-----0
  6
CONTINUOUS
  5
7F
 10
180.893024
 20
153.145267
 30
0.0
 11
208.65348
 21
156.8
 31
0.0
  0
LINE
  8
LC-004-003-----0
  6
CONTINUOUS
  5
80
 10
208.65348
 20
156.8
 30
0.0
 11
180.893024
 21
160.454733
 31
0.0
  0
LINE
  8
LC-004-003-----0
  6
CONTINUOUS
  5
81
 10
180.893024
 20
160.454733
 30
0.0
 11
180.893024
 21
153.145267
 31
0.0
  0
LINE
  8
LC-004-003-----0
  6
CONTINUOUS
  5
82
 10
180.830742
 20
154.095497
 30
0.0
 11
201.37348
 21
156.8
 31
0.0
  0
LINE
  8
LC-004-003-----0
  6
CONTINUOUS
  5
83
 10
201.37348
 20
156.8
 30
0.0
 11
180.830742
 21
159.504503
 31
0.0
  0
LINE
  8
LC-004-003-----0
  6
CONTINUOUS
  5
84
 10
180.768461
 20
155.045728
 30
0.0
 11
194.09348
 21
156.8
 31
0.0
  0
LINE
  8
LC-004-003-----0
  6
CONTINUOUS
  5
85
 10
194.09348
 20
156.8
 30
0.0
 11
180.768461
 21
158.554272
 31
0.0
  0
LINE
  8
LC-004-003-----0
  6
CONTINUOUS
  5
86
 10
180.706179
 20
155.995959
 30
0.0
 11
186.81348
 21
156.8
 31
0.0
  0
LINE
  8
LC-004-003-----0
  6
CONTINUOUS
  5
87
 10
186.81348
 20
156.8
 30
0.0
 11
180.706179
 21
157.604041
 31
0.0
  0
TEXT
  8
LC-004-003-----0
  6
CONTINUOUS
 62
     8
  5
88
 10
155.39944
 20
164.627554
 30
0.0
 40
28.0
  1
80
 41
0.9
 51
15.0
  7
LC-TXTSTYLE-150-400-0-0-A0
 72
     1
 11
173.00164
 21
164.627554
 31
0.0
  0
ENDBLK
  8
0
  5
89
  0
BLOCK
  8
0
  5
8B
  2
*D4
 70
    65
 10
0.0
 20
0.0
 30
0.0
  3
*D4
  0
LINE
  8
LC-005-003-MTH-0
  6
CONTINUOUS
  5
8C
 10
208.65348
 20
198.856492
 30
0.0
 11
208.65348
 21
140.0
 31
0.0
  0
LINE
  8
LC-005-003-MTH-0
  6
CONTINUOUS
  5
8D
 10
308.65348
 20
209.525162
 30
0.0
 11
308.65348
 21
140.0
 31
0.0
  0
LINE
  8
LC-006-003-MTG-0
  6
CONTINUOUS
  5
8E
 10
208.65348
 20
156.8
 30
0.0
 11
308.65348
 21
156.8
 31
0.0
  0
LINE
  8
LC-004-003-----0
  6
CONTINUOUS
  5
8F
 10
236.413936
 20
160.454733
 30
0.0
 11
208.65348
 21
156.8
 31
0.0
  0
LINE
  8
LC-004-003-----0
  6
CONTINUOUS
  5
90
 10
208.65348
 20
156.8
 30
0.0
 11
236.413936
 21
153.145267
 31
0.0
  0
LINE
  8
LC-004-003-----0
  6
CONTINUOUS
  5
91
 10
236.413936
 20
153.145267
 30
0.0
 11
236.413936
 21
160.454733
 31
0.0
  0
LINE
  8
LC-004-003-----0
  6
CONTINUOUS
  5
92
 10
236.476217
 20
159.504503
 30
0.0
 11
215.93348
 21
156.8
 31
0.0
  0
LINE
  8
LC-004-003-----0
  6
CONTINUOUS
  5
93
 10
215.93348
 20
156.8
 30
0.0
 11
236.476217
 21
154.095497
 31
0.0
  0
LINE
  8
LC-004-003-----0
  6
CONTINUOUS
  5
94
 10
236.538499
 20
158.554272
 30
0.0
 11
223.21348
 21
156.8
 31
0.0
  0
LINE
  8
LC-004-003-----0
  6
CONTINUOUS
  5
95
 10
223.21348
 20
156.8
 30
0.0
 11
236.538499
 21
155.045728
 31
0.0
  0
LINE
  8
LC-004-003-----0
  6
CONTINUOUS
  5
96
 10
236.60078
 20
157.604041
 30
0.0
 11
230.49348
 21
156.8
 31
0.0
  0
LINE
  8
LC-004-003-----0
  6
CONTINUOUS
  5
97
 10
230.49348
 20
156.8
 30
0.0
 11
236.60078
 21
155.995959
 31
0.0
  0
LINE
  8
LC-004-003-----0
  6
CONTINUOUS
  5
98
 10
280.893024
 20
153.145267
 30
0.0
 11
308.65348
 21
156.8
 31
0.0
  0
LINE
  8
LC-004-003-----0
  6
CONTINUOUS
  5
99
 10
308.65348
 20
156.8
 30
0.0
 11
280.893024
 21
160.454733
 31
0.0
  0
LINE
  8
LC-004-003-----0
  6
CONTINUOUS
  5
9A
 10
280.893024
 20
160.454733
 30
0.0
 11
280.893024
 21
153.145267
 31
0.0
  0
LINE
  8
LC-004-003-----0
  6
CONTINUOUS
  5
9B
 10
280.830742
 20
154.095497
 30
0.0
 11
301.37348
 21
156.8
 31
0.0
  0
LINE
  8
LC-004-003-----0
  6
CONTINUOUS
  5
9C
 10
301.37348
 20
156.8
 30
0.0
 11
280.830742
 21
159.504503
 31
0.0
  0
LINE
  8
LC-004-003-----0
  6
CONTINUOUS
  5
9D
 10
280.768461
 20
155.045728
 30
0.0
 11
294.09348
 21
156.8
 31
0.0
  0
LINE
  8
LC-004-003-----0
  6
CONTINUOUS
  5
9E
 10
294.09348
 20
156.8
 30
0.0
 11
280.768461
 21
158.554272
 31
0.0
  0
LINE
  8
LC-004-003-----0
  6
CONTINUOUS
  5
9F
 10
280.706179
 20
155.995959
 30
0.0
 11
286.81348
 21
156.8
 31
0.0
  0
LINE
  8
LC-004-003-----0
  6
CONTINUOUS
  5
A0
 10
286.81348
 20
156.8
 30
0.0
 11
280.706179
 21
157.604041
 31
0.0
  0
TEXT
  8
LC-004-003-----0
  6
CONTINUOUS
 62
     8
  5
A1
 10
236.59834
 20
164.627554
 30
0.0
 40
28.0
  1
100
 41
0.9
 51
15.0
  7
LC-TXTSTYLE-150-400-0-0-A0
 72
     1
 11
263.00164
 21
164.627554
 31
0.0
  0
ENDBLK
  8
0
  5
A2
  0
BLOCK
  8
0
  5
A4
  2
BLK1
 70
    64
 10
0.0
 20
0.0
 30
0.0
  3
BLK1
  0
ENDBLK
  8
0
  5
A5
  0
BLOCK
  8
0
  5
A7
  2
BLK2
 70
    64
 10
0.0
 20
0.0
 30
0.0
  3
BLK2
  0
ENDBLK
  8
0
  5
A8
  0
BLOCK
  8
0
  5
AA
  2
BLK3
 70
    64
 10
0.0
 20
0.0
 30
0.0
  3
BLK3
  0
ENDBLK
  8
0
  5
AB
  0
BLOCK
  8
0
  5
AD
  2
BLK4
 70
    64
 10
0.0
 20
0.0
 30
0.0
  3
BLK4
  0
ENDBLK
  8
0
  5
AE
  0
BLOCK
  8
0
  5
B0
  2
*D9
 70
    65
 10
0.0
 20
0.0
 30
0.0
  3
*D9
  0
LINE
  8
LC-005-003-MTH-0
  6
CONTINUOUS
  5
B1
 10
332.406676
 20
107.582675
 30
0.0
 11
408.8
 21
107.582675
 31
0.0
  0
LINE
  8
LC-005-003-MTH-0
  6
CONTINUOUS
  5
B2
 10
338.65348
 20
112.582675
 30
0.0
 11
408.8
 21
112.582675
 31
0.0
  0
LINE
  8
LC-004-003-----0
  6
CONTINUOUS
  5
B3
 10
395.654733
 20
79.822219
 30
0.0
 11
392.0
 21
107.582675
 31
0.0
  0
LINE
  8
LC-004-003-----0
  6
CONTINUOUS
  5
B4
 10
392.0
 20
107.582675
 30
0.0
 11
388.345267
 21
79.822219
 31
0.0
  0
LINE
  8
LC-004-003-----0
  6
CONTINUOUS
  5
B5
 10
388.345267
 20
79.822219
 30
0.0
 11
395.654733
 21
79.822219
 31
0.0
  0
LINE
  8
LC-004-003-----0
  6
CONTINUOUS
  5
B6
 10
394.704503
 20
79.759938
 30
0.0
 11
392.0
 21
100.302675
 31
0.0
  0
LINE
  8
LC-004-003-----0
  6
CONTINUOUS
  5
B7
 10
392.0
 20
100.302675
 30
0.0
 11
389.295497
 21
79.759938
 31
0.0
  0
LINE
  8
LC-004-003-----0
  6
CONTINUOUS
  5
B8
 10
393.754272
 20
79.697656
 30
0.0
 11
392.0
 21
93.022675
 31
0.0
  0
LINE
  8
LC-004-003-----0
  6
CONTINUOUS
  5
B9
 10
392.0
 20
93.022675
 30
0.0
 11
390.245728
 21
79.697656
 31
0.0
  0
LINE
  8
LC-004-003-----0
  6
CONTINUOUS
  5
BA
 10
392.804041
 20
79.635375
 30
0.0
 11
392.0
 21
85.742675
 31
0.0
  0
LINE
  8
LC-004-003-----0
  6
CONTINUOUS
  5
BB
 10
392.0
 20
85.742675
 30
0.0
 11
391.195959
 21
79.635375
 31
0.0
  0
LINE
  8
LC-004-003-----0
  6
CONTINUOUS
  5
BC
 10
388.345267
 20
140.343131
 30
0.0
 11
392.0
 21
112.582675
 31
0.0
  0
LINE
  8
LC-004-003-----0
  6
CONTINUOUS
  5
BD
 10
392.0
 20
112.582675
 30
0.0
 11
395.654733
 21
140.343131
 31
0.0
  0
LINE
  8
LC-004-003-----0
  6
CONTINUOUS
  5
BE
 10
395.654733
 20
140.343131
 30
0.0
 11
388.345267
 21
140.343131
 31
0.0
  0
LINE
  8
LC-004-003-----0
  6
CONTINUOUS
  5
BF
 10
389.295497
 20
140.405413
 30
0.0
 11
392.0
 21
119.862675
 31
0.0
  0
LINE
  8
LC-004-003-----0
  6
CONTINUOUS
  5
C0
 10
392.0
 20
119.862675
 30
0.0
 11
394.704503
 21
140.405413
 31
0.0
  0
LINE
  8
LC-004-003-----0
  6
CONTINUOUS
  5
C1
 10
390.245728
 20
140.467694
 30
0.0
 11
392.0
 21
127.142675
 31
0.0
  0
LINE
  8
LC-004-003-----0
  6
CONTINUOUS
  5
C2
 10
392.0
 20
127.142675
 30
0.0
 11
393.754272
 21
140.467694
 31
0.0
  0
LINE
  8
LC-004-003-----0
  6
CONTINUOUS
  5
C3
 10
391.195959
 20
140.529975
 30
0.0
 11
392.0
 21
134.422675
 31
0.0
  0
LINE
  8
LC-004-003-----0
  6
CONTINUOUS
  5
C4
 10
392.0
 20
134.422675
 30
0.0
 11
392.804041
 21
140.529975
 31
0.0
  0
LINE
  8
LC-006-003-MTG-0
  6
CONTINUOUS
  5
C5
 10
392.0
 20
68.382675
 30
0.0
 11
392.0
 21
178.344875
 31
0.0
  0
TEXT
  8
LC-004-003-----0
  6
CONTINUOUS
 62
     8
  5
C6
 10
384.172446
 20
155.010835
 30
0.0
 40
28.0
  1
5
 50
90.0
 41
0.9
 51
15.0
  7
LC-TXTSTYLE-150-400-0-0-A0
  0
ENDBLK
  8
0
  5
C7
  0
ENDSEC
  0
SECTION
  2
ENTITIES
  0
VIEWPORT
  8
LC-000
  5
135
 67
     1
 68
     1
 10
420.0
 20
297.0
 30
0.0
 40
840.0
 41
594.0
 69
     1
1001
ACAD
1000
MVIEW
1002
{
1070
    16
1010
0.0
1020
0.0
1030
0.0
1010
0.0
1020
0.0
1030
1.0
1040
0.0
1040
594.0
1040
420.0
1040
297.0
1040
50.0
1040
0.0
1040
0.0
1070
     0
1070
   100
1070
     1
1070
     1
1070
     0
1070
     0
1070
     0
1070
     0
1040
0.0
1040
0.0
1040
0.0
1040
1.0
1040
1.0
1040
0.0
1040
0.0
1070
     0
1002
{
1002
}
1002
}
  0
VIEWPORT
  8
0
  5
136
 67
     1
 68
     1
 10
0.0
 20
0.0
 30
0.0
 40
0.0
 41
0.0
 69
     1
1001
ACAD
1000
MVIEW
1002
{
1070
    16
1010
0.0
1020
0.0
1030
0.0
1010
0.0
1020
0.0
1030
1.0
1040
0.0
1040
594.0
1040
0.0
1040
0.0
1040
50.0
1040
0.0
1040
0.0
1070
     0
1070
   100
1070
     0
1070
     1
1070
     0
1070
     0
1070
     0
1070
     0
1040
0.0
1040
0.0
1040
0.0
1040
0.5
1040
0.5
1040
0.5
1040
0.5
1070
     0
1002
{
1002
}
1002
}
  0
DIMENSION
  8
LC-004-003-----0
  6
CONTINUOUS
  5
C8
  2
*D0
 10
39.2
 20
257.025162
 30
0.0
 11
39.2
 21
257.025162
 31
0.0
 13
81.15348
 23
207.025162
 33
0.0
 14
81.15348
 24
307.025162
 34
0.0
 50
90.0
  3
LC-DIM-L-0140-02-02
  0
DIMENSION
  8
LC-004-003-----0
  6
CONTINUOUS
  5
C9
  2
*D1
 10
218.65348
 20
352.8
 30
0.0
 11
218.65348
 21
352.8
 31
0.0
 13
78.65348
 23
304.525162
 33
0.0
 14
358.65348
 24
304.525162
 34
0.0
  3
LC-DIM-L-0140-02-02
  0
DIMENSION
  8
LC-004-003-----0
  6
CONTINUOUS
  5
CA
  2
*D2
 10
47.69739
 20
156.8
 30
0.0
 11
47.69739
 21
156.8
 31
0.0
 13
78.65348
 23
209.525162
 33
0.0
 14
128.65348
 24
209.525162
 34
0.0
  3
LC-DIM-L-0140-02-02
  0
DIMENSION
  8
LC-004-003-----0
  6
CONTINUOUS
  5
CB
  2
*D3
 10
168.65348
 20
156.8
 30
0.0
 11
168.65348
 21
156.8
 31
0.0
 13
128.65348
 23
198.856492
 33
0.0
 14
208.65348
 24
209.525162
 34
0.0
  3
LC-DIM-L-0140-02-02
  0
DIMENSION
  8
LC-004-003-----0
  6
CONTINUOUS
  5
CC
  2
*D4
 10
258.65348
 20
156.8
 30
0.0
 11
258.65348
 21
156.8
 31
0.0
 13
208.65348
 23
198.856492
 33
0.0
 14
308.65348
 24
209.525162
 34
0.0
  3
LC-DIM-L-0140-02-02
  0
INSERT
  8
LC-007-000-----0
  5
CE
  2
BLK1
 10
0.0
 20
0.0
 30
0.0
  0
INSERT
  8
LC-007-000-----0
  5
CF
  2
BLK2
 10
0.0
 20
0.0
 30
0.0
  0
INSERT
  8
LC-007-000-----0
  5
D0
  2
BLK3
 10
0.0
 20
0.0
 30
0.0
  0
INSERT
  8
LC-007-000-----0
  5
D1
  2
BLK4
 10
0.0
 20
0.0
 30
0.0
  0
DIMENSION
  8
LC-004-003-----0
  6
CONTINUOUS
  5
D2
  2
*D9
 10
392.0
 20
129.667897
 30
0.0
 11
392.0
 21
129.667897
 31
0.0
 13
338.65348
 23
112.582675
 33
0.0
 14
332.406676
 24
107.582675
 34
0.0
 50
90.0
  3
LC-DIM-L-0140-02-02
  0
LINE
  8
LC-001-002-----0
  6
CONTINUOUS
  5
D4
 10
86.15348
 20
302.025162
 30
0.0
 11
351.15348
 21
302.025162
 31
0.0
  0
LINE
  8
LC-001-002-----0
  6
CONTINUOUS
  5
D5
 10
82.15348
 20
306.025162
 30
0.0
 11
355.15348
 21
306.025162
 31
0.0
  0
LINE
  8
LC-001-002-----0
  6
CONTINUOUS
  5
D6
 10
81.15348
 20
307.025162
 30
0.0
 11
356.15348
 21
307.025162
 31
0.0
  0
ARC
  8
LC-002-002-RND-0
  6
CONTINUOUS
  5
D8
 10
81.15348
 20
304.525162
 30
0.0
 40
2.5
 50
90.0
 51
180.0
  0
ARC
  8
LC-002-002-RND-0
  6
CONTINUOUS
  5
D9
 10
82.15348
 20
303.525162
 30
0.0
 40
2.5
 50
90.0
 51
180.0
  0
ARC
  8
LC-002-002-RND-0
  6
CONTINUOUS
  5
DA
 10
86.15348
 20
299.525162
 30
0.0
 40
2.5
 50
90.0
 51
180.0
  0
LINE
  8
LC-001-002-----0
  6
CONTINUOUS
  5
DB
 10
83.65348
 20
214.525162
 30
0.0
 11
83.65348
 21
299.525162
 31
0.0
  0
LINE
  8
LC-001-002-----0
  6
CONTINUOUS
  5
DC
 10
79.65348
 20
210.525162
 30
0.0
 11
79.65348
 21
303.525162
 31
0.0
  0
LINE
  8
LC-001-002-----0
  6
CONTINUOUS
  5
DD
 10
78.65348
 20
209.525162
 30
0.0
 11
78.65348
 21
304.525162
 31
0.0
  0
ARC
  8
LC-002-002-RND-0
  6
CONTINUOUS
  5
DE
 10
81.15348
 20
209.525162
 30
0.0
 40
2.5
 50
180.0
 51
270.0
  0
ARC
  8
LC-002-002-RND-0
  6
CONTINUOUS
  5
DF
 10
82.15348
 20
210.525162
 30
0.0
 40
2.5
 50
180.0
 51
270.0
  0
ARC
  8
LC-002-002-RND-0
  6
CONTINUOUS
  5
E0
 10
86.15348
 20
214.525162
 30
0.0
 40
2.5
 50
180.0
 51
270.0
  0
LINE
  8
LC-001-002-----0
  6
CONTINUOUS
  5
E1
 10
355.15348
 20
208.025162
 30
0.0
 11
82.15348
 21
208.025162
 31
0.0
  0
LINE
  8
LC-001-002-----0
  6
CONTINUOUS
  5
E2
 10
356.15348
 20
207.025162
 30
0.0
 11
81.15348
 21
207.025162
 31
0.0
  0
LINE
  8
LC-001-002-----0
  6
CONTINUOUS
  5
E3
 10
351.15348
 20
212.025162
 30
0.0
 11
86.15348
 21
212.025162
 31
0.0
  0
ARC
  8
LC-002-002-RND-0
  6
CONTINUOUS
  5
E4
 10
356.15348
 20
209.525162
 30
0.0
 40
2.5
 50
270.0
 51
0.0
  0
ARC
  8
LC-002-002-RND-0
  6
CONTINUOUS
  5
E5
 10
355.15348
 20
210.525162
 30
0.0
 40
2.5
 50
270.0
 51
0.0
  0
ARC
  8
LC-002-002-RND-0
  6
CONTINUOUS
  5
E6
 10
351.15348
 20
214.525162
 30
0.0
 40
2.5
 50
270.0
 51
0.0
  0
LINE
  8
LC-001-002-----0
  6
CONTINUOUS
  5
E7
 10
358.65348
 20
209.525162
 30
0.0
 11
358.65348
 21
304.525162
 31
0.0
  0
LINE
  8
LC-001-002-----0
  6
CONTINUOUS
  5
E8
 10
357.65348
 20
210.525162
 30
0.0
 11
357.65348
 21
303.525162
 31
0.0
  0
LINE
  8
LC-001-002-----0
  6
CONTINUOUS
  5
E9
 10
353.65348
 20
214.525162
 30
0.0
 11
353.65348
 21
299.525162
 31
0.0
  0
ARC
  8
LC-002-002-RND-0
  6
CONTINUOUS
  5
EA
 10
351.15348
 20
299.525162
 30
0.0
 40
2.5
 50
0.0
 51
90.0
  0
ARC
  8
LC-002-002-RND-0
  6
CONTINUOUS
  5
EB
 10
356.15348
 20
304.525162
 30
0.0
 40
2.5
 50
0.0
 51
90.0
  0
ARC
  8
LC-002-002-RND-0
  6
CONTINUOUS
  5
EC
 10
355.15348
 20
303.525162
 30
0.0
 40
2.5
 50
0.0
 51
90.0
  0
LINE
  8
LC-003-006-MLN-0
  6
DASHDOT
  5
F0
 10
368.65348
 20
257.025162
 30
0.0
 11
68.65348
 21
257.025162
 31
0.0
  0
LINE
  8
LC-003-006-MLN-0
  6
DASHDOT
  5
F1
 10
128.65348
 20
197.025162
 30
0.0
 11
128.65348
 21
317.025162
 31
0.0
  0
LINE
  8
LC-003-006-MLN-0
  6
DASHDOT
  5
F2
 10
208.65348
 20
197.025162
 30
0.0
 11
208.65348
 21
317.025162
 31
0.0
  0
LINE
  8
LC-003-006-MLN-0
  6
DASHDOT
  5
F3
 10
308.65348
 20
197.025162
 30
0.0
 11
308.65348
 21
317.025162
 31
0.0
  0
CIRCLE
  8
LC-001-002-----0
  6
DASHED
 62
     2
  5
F5
 10
128.65348
 20
257.025162
 30
0.0
 40
14.0
  0
CIRCLE
  8
LC-001-002-----0
  6
CONTINUOUS
  5
F6
 10
208.65348
 20
257.025162
 30
0.0
 40
17.0
  0
LINE
  8
LC-003-006-MLN-0
  6
DASHDOT
  5
F7
 10
308.65348
 20
122.582675
 30
0.0
 11
308.65348
 21
97.582675
 31
0.0
  0
LINE
  8
LC-001-002-----0
  6
CONTINUOUS
  5
F8
 10
358.65348
 20
112.582675
 30
0.0
 11
78.481907
 21
112.582675
 31
0.0
  0
LINE
  8
LC-001-002-----0
  6
CONTINUOUS
  5
F9
 10
352.235103
 20
107.582675
 30
0.0
 11
84.900283
 21
107.582675
 31
0.0
  0
LINE
  8
LC-001-002-----0
  6
CONTINUOUS
  5
FA
 10
358.65348
 20
111.882675
 30
0.0
 11
357.65348
 21
111.882675
 31
0.0
  0
LINE
  8
LC-001-002-----0
  6
DASHED
 62
     2
  5
FB
 10
351.945154
 20
108.282675
 30
0.0
 11
84.900283
 21
108.282675
 31
0.0
  0
LINE
  8
LC-001-002-----0
  6
CONTINUOUS
  5
FC
 10
358.65348
 20
112.582675
 30
0.0
 11
358.65348
 21
111.882675
 31
0.0
  0
LINE
  8
LC-001-002-----0
  6
CONTINUOUS
  5
FD
 10
78.481907
 20
111.882675
 30
0.0
 11
79.481907
 21
111.882675
 31
0.0
  0
LINE
  8
LC-001-002-----0
  6
CONTINUOUS
  5
FE
 10
357.65348
 20
111.882675
 30
0.0
 11
79.481907
 21
111.882675
 31
0.0
  0
LINE
  8
LC-001-002-----0
  6
CONTINUOUS
  5
FF
 10
357.067693
 20
111.296889
 30
0.0
 11
354.144291
 21
108.373487
 31
0.0
  0
LINE
  8
LC-001-002-----0
  6
DASHED
 62
     2
  5
100
 10
356.572719
 20
111.791863
 30
0.0
 11
353.854342
 21
109.073487
 31
0.0
  0
LINE
  8
LC-001-002-----0
  6
CONTINUOUS
  5
101
 10
78.481907
 20
112.582675
 30
0.0
 11
78.481907
 21
111.882675
 31
0.0
  0
LINE
  8
LC-001-002-----0
  6
CONTINUOUS
  5
102
 10
80.067693
 20
111.296889
 30
0.0
 11
82.991095
 21
108.373487
 31
0.0
  0
LINE
  8
LC-001-002-----0
  6
DASHED
 62
     2
  5
103
 10
80.562668
 20
111.791863
 30
0.0
 11
83.48607
 21
108.868462
 31
0.0
  0
LINE
  8
LC-003-006-MLN-0
  6
DASHDOT
  5
104
 10
207.981907
 20
122.582675
 30
0.0
 11
207.981907
 21
97.582675
 31
0.0
  0
LINE
  8
LC-003-006-MLN-0
  6
DASHDOT
  5
105
 10
127.981907
 20
122.582675
 30
0.0
 11
127.981907
 21
97.582675
 31
0.0
  0
LINE
  8
LC-001-002-----0
  6
DASHED
 62
     2
  5
106
 10
141.981907
 20
108.282675
 30
0.0
 11
141.981907
 21
107.582675
 31
0.0
  0
LINE
  8
LC-001-002-----0
  6
DASHED
 62
     2
  5
107
 10
113.981907
 20
108.282675
 30
0.0
 11
113.981907
 21
107.582675
 31
0.0
  0
LINE
  8
LC-001-002-----0
  6
DASHED
 62
     2
  5
108
 10
224.981907
 20
108.282675
 30
0.0
 11
224.981907
 21
107.582675
 31
0.0
  0
LINE
  8
LC-001-002-----0
  6
DASHED
 62
     2
  5
109
 10
190.981907
 20
108.282675
 30
0.0
 11
190.981907
 21
107.582675
 31
0.0
  0
ARC
  8
LC-002-002-RND-0
  6
CONTINUOUS
  5
10A
 10
78.65348
 20
109.882675
 30
0.0
 40
2.0
 50
45.0
 51
90.0
  0
ARC
  8
LC-002-002-RND-0
  6
DASHED
 62
     2
  5
10B
 10
78.65348
 20
109.882675
 30
0.0
 40
2.7
 50
45.0
 51
90.0
  0
ARC
  8
LC-002-002-RND-0
  6
CONTINUOUS
  5
10C
 10
84.900283
 20
110.282675
 30
0.0
 40
2.7
 50
225.0
 51
270.0
  0
ARC
  8
LC-002-002-RND-0
  6
CONTINUOUS
  5
10D
 10
352.235103
 20
110.282675
 30
0.0
 40
2.7
 50
270.0
 51
315.0
  0
ARC
  8
LC-002-002-RND-0
  6
DASHED
 62
     2
  5
10E
 10
358.481907
 20
109.882675
 30
0.0
 40
2.7
 50
90.0
 51
135.0
  0
ARC
  8
LC-002-002-RND-0
  6
CONTINUOUS
  5
10F
 10
358.481907
 20
109.882675
 30
0.0
 40
2.0
 50
90.0
 51
135.0
  0
ARC
  8
LC-002-002-RND-0
  6
DASHED
 62
     2
  5
110
 10
351.945154
 20
110.982675
 30
0.0
 40
2.7
 50
270.0
 51
315.0
  0
ARC
  8
LC-002-002-RND-0
  6
DASHED
 62
     2
  5
111
 10
84.900283
 20
110.282675
 30
0.0
 40
2.0
 50
225.0
 51
270.0
  0
LINE
  8
LC-001-002-----0
  6
DASHED
 62
     2
  5
112
 10
274.569055
 20
108.400917
 30
0.0
 11
274.569055
 21
107.582675
 31
0.0
  0
LINE
  8
LC-001-002-----0
  6
DASHED
 62
     2
  5
113
 10
342.737905
 20
108.400917
 30
0.0
 11
342.737905
 21
107.582675
 31
0.0
  0
LINE
  8
LC-001-002-----0
  6
CONTINUOUS
  5
114
 10
276.65348
 20
294.025162
 30
0.0
 11
340.65348
 21
294.025162
 31
0.0
  0
LINE
  8
LC-001-002-----0
  6
CONTINUOUS
  5
115
 10
345.65348
 20
289.025162
 30
0.0
 11
345.65348
 21
225.025162
 31
0.0
  0
LINE
  8
LC-001-002-----0
  6
CONTINUOUS
  5
116
 10
340.65348
 20
220.025162
 30
0.0
 11
276.65348
 21
220.025162
 31
0.0
  0
LINE
  8
LC-001-002-----0
  6
CONTINUOUS
  5
117
 10
271.65348
 20
225.025162
 30
0.0
 11
271.65348
 21
289.025162
 31
0.0
  0
ARC
  8
LC-002-002-RND-0
  6
CONTINUOUS
  5
118
 10
340.65348
 20
289.025162
 30
0.0
 40
5.0
 50
0.0
 51
90.0
  0
ARC
  8
LC-002-002-RND-0
  6
CONTINUOUS
  5
119
 10
276.65348
 20
289.025162
 30
0.0
 40
5.0
 50
90.0
 51
180.0
  0
ARC
  8
LC-002-002-RND-0
  6
CONTINUOUS
  5
11A
 10
276.65348
 20
225.025162
 30
0.0
 40
5.0
 50
180.0
 51
270.0
  0
ARC
  8
LC-002-002-RND-0
  6
CONTINUOUS
  5
11B
 10
340.65348
 20
225.025162
 30
0.0
 40
5.0
 50
270.0
 51
0.0
  0
CIRCLE
  8
LC-001-002-----0
  6
CONTINUOUS
  5
11C
 10
128.65348
 20
257.025162
 30
0.0
 40
16.0
  0
LINE
  8
LC-001-002-----0
  6
DASHED
 62
     2
  5
11D
 10
142.981907
 20
109.082675
 30
0.0
 11
142.481907
 21
109.582675
 31
0.0
  0
LINE
  8
LC-001-002-----0
  6
DASHED
 62
     2
  5
11E
 10
128.481907
 20
107.582675
 30
0.0
 11
128.481907
 21
109.582675
 31
0.0
  0
LINE
  8
LC-001-002-----0
  6
DASHED
 62
     2
  5
11F
 10
128.481907
 20
109.082675
 30
0.0
 11
142.981907
 21
109.082675
 31
0.0
  0
CIRCLE
  8
LC-001-002-----0
  6
CONTINUOUS
  5
120
 10
128.65348
 20
257.025162
 30
0.0
 40
13.5
  0
LINE
  8
LC-001-002-----0
  6
DASHED
 62
     2
  5
121
 10
141.981907
 20
107.582675
 30
0.0
 11
141.981907
 21
108.582675
 31
0.0
  0
LINE
  8
LC-001-002-----0
  6
DASHED
 62
     2
  5
122
 10
127.481907
 20
107.582675
 30
0.0
 11
127.481907
 21
109.582675
 31
0.0
  0
LINE
  8
LC-001-002-----0
  6
DASHED
 62
     2
  5
123
 10
127.481907
 20
108.582675
 30
0.0
 11
112.981907
 21
108.582675
 31
0.0
  0
LINE
  8
LC-001-002-----0
  6
DASHED
 62
     2
  5
124
 10
127.481907
 20
109.082675
 30
0.0
 11
112.981907
 21
109.082675
 31
0.0
  0
LINE
  8
LC-001-002-----0
  6
DASHED
 62
     2
  5
125
 10
128.481907
 20
108.582675
 30
0.0
 11
142.981907
 21
108.582675
 31
0.0
  0
LINE
  8
LC-001-002-----0
  6
CONTINUOUS
  5
126
 10
143.981907
 20
107.581675
 30
0.0
 11
143.981907
 21
107.183696
 31
0.0
  0
LINE
  8
LC-001-002-----0
  6
DASHED
 62
     2
  5
127
 10
113.481907
 20
109.582675
 30
0.0
 11
127.981907
 21
109.582675
 31
0.0
  0
LINE
  8
LC-001-002-----0
  6
DASHED
 62
     2
  5
128
 10
142.981907
 20
108.582675
 30
0.0
 11
142.981907
 21
109.082675
 31
0.0
  0
LINE
  8
LC-001-002-----0
  6
DASHED
 62
     2
  5
129
 10
142.481907
 20
109.582675
 30
0.0
 11
127.981907
 21
109.582675
 31
0.0
  0
LINE
  8
LC-001-002-----0
  6
CONTINUOUS
  5
12A
 10
111.981907
 20
107.582675
 30
0.0
 11
143.981907
 21
107.582675
 31
0.0
  0
LINE
  8
LC-001-002-----0
  6
CONTINUOUS
  5
12B
 10
143.981907
 20
107.582675
 30
0.0
 11
143.981907
 21
107.581675
 31
0.0
  0
ARC
  8
LC-001-002-----0
  6
CONTINUOUS
  5
12C
 10
141.481907
 20
112.082675
 30
0.0
 40
5.5
 50
270.0
 51
297.035692
  0
LINE
  8
LC-001-002-----0
  6
CONTINUOUS
  5
12D
 10
114.481907
 20
106.582675
 30
0.0
 11
141.481907
 21
106.582675
 31
0.0
  0
LINE
  8
LC-001-002-----0
  6
DASHED
 62
     2
  5
12E
 10
112.981907
 20
109.082675
 30
0.0
 11
113.481907
 21
109.582675
 31
0.0
  0
LINE
  8
LC-001-002-----0
  6
DASHED
 62
     2
  5
12F
 10
113.981907
 20
107.582675
 30
0.0
 11
113.981907
 21
108.582675
 31
0.0
  0
LINE
  8
LC-001-002-----0
  6
CONTINUOUS
  5
130
 10
111.981907
 20
107.581675
 30
0.0
 11
111.981907
 21
107.183696
 31
0.0
  0
LINE
  8
LC-001-002-----0
  6
DASHED
 62
     2
  5
131
 10
112.981907
 20
108.582675
 30
0.0
 11
112.981907
 21
109.082675
 31
0.0
  0
LINE
  8
LC-001-002-----0
  6
CONTINUOUS
  5
132
 10
111.981907
 20
107.582675
 30
0.0
 11
111.981907
 21
107.581675
 31
0.0
  0
ARC
  8
LC-001-002-----0
  6
CONTINUOUS
  5
133
 10
114.481907
 20
112.082675
 30
0.0
 40
5.5
 50
242.964308
 51
270.0
  0
ENDSEC
  0
EOF
