  0
SECTION
  2
HEADER
  9
$ACADVER
  1
AC1015
  9
$ACADMAINTVER
 70
     6
  9
$DWGCODEPAGE
  3
ANSI_1252
  9
$INSBASE
 10
0.0
 20
0.0
 30
0.0
  9
$EXTMIN
 10
-210.0
 20
-148.5
 30
0.0
  9
$EXTMAX
 10
630.0
 20
445.5
 30
0.0
  9
$LIMMIN
 10
-210.0
 20
-148.5
  9
$LIMMAX
 10
630.0
 20
445.5
  9
$ORTHOMODE
 70
     0
  9
$REGENMODE
 70
     1
  9
$FILLMODE
 70
     1
  9
$QTEXTMODE
 70
     0
  9
$MIRRTEXT
 70
     1
  9
$LTSCALE
 40
2.0
  9
$ATTMODE
 70
     1
  9
$TEXTSIZE
 40
2.5
  9
$TRACEWID
 40
1.0
  9
$TEXTSTYLE
  7
Standard
  9
$CLAYER
  8
0
  9
$CELTYPE
  6
ByLayer
  9
$CECOLOR
 62
     7
  9
$CELTSCALE
 40
1.0
  9
$DISPSILH
 70
     0
  9
$DIMSCALE
 40
2.0
  9
$DIMASZ
 40
3.5
  9
$DIMEXO
 40
0.625
  9
$DIMDLI
 40
3.75
  9
$DIMRND
 40
0.0
  9
$DIMDLE
 40
0.0
  9
$DIMEXE
 40
1.25
  9
$DIMTP
 40
0.0
  9
$DIMTM
 40
0.0
  9
$DIMTXT
 40
3.5
  9
$DIMCEN
 40
2.5
  9
$DIMTSZ
 40
0.0
  9
$DIMTOL
 70
     0
  9
$DIMLIM
 70
     0
  9
$DIMTIH
 70
     0
  9
$DIMTOH
 70
     0
  9
$DIMSE1
 70
     0
  9
$DIMSE2
 70
     0
  9
$DIMTAD
 70
     1
  9
$DIMZIN
 70
     8
  9
$DIMBLK
  1

  9
$DIMASO
 70
     1
  9
$DIMSHO
 70
     1
  9
$DIMPOST
  1

  9
$DIMAPOST
  1

  9
$DIMALT
 70
     0
  9
$DIMALTD
 70
     3
  9
$DIMALTF
 40
0.03937
  9
$DIMLFAC
 40
1.0
  9
$DIMTOFL
 70
     1
  9
$DIMTVP
 40
0.0
  9
$DIMTIX
 70
     0
  9
$DIMSOXD
 70
     0
  9
$DIMSAH
 70
     0
  9
$DIMBLK1
  1

  9
$DIMBLK2
  1

  9
$DIMSTYLE
  2
ISO-25
  9
$DIMCLRD
 70
     0
  9
$DIMCLRE
 70
     0
  9
$DIMCLRT
 70
     0
  9
$DIMTFAC
 40
1.0
  9
$DIMGAP
 40
0.625
  9
$DIMJUST
 70
     0
  9
$DIMSD1
 70
     0
  9
$DIMSD2
 70
     0
  9
$DIMTOLJ
 70
     0
  9
$DIMTZIN
 70
     8
  9
$DIMALTZ
 70
     0
  9
$DIMALTTZ
 70
     0
  9
$DIMUPT
 70
     0
  9
$DIMDEC
 70
     2
  9
$DIMTDEC
 70
     2
  9
$DIMALTU
 70
     2
  9
$DIMALTTD
 70
     3
  9
$DIMTXSTY
  7
Standard
  9
$DIMAUNIT
 70
     0
  9
$DIMADEC
 70
     0
  9
$DIMALTRND
 40
0.0
  9
$DIMAZIN
 70
     0
  9
$DIMDSEP
 70
    44
  9
$DIMATFIT
 70
     3
  9
$DIMFRAC
 70
     0
  9
$DIMLDRBLK
  1

  9
$DIMLUNIT
 70
     2
  9
$DIMLWD
 70
    -2
  9
$DIMLWE
 70
    -2
  9
$DIMTMOVE
 70
     0
  9
$LUNITS
 70
     2
  9
$LUPREC
 70
     4
  9
$SKETCHINC
 40
1.0
  9
$FILLETRAD
 40
10.0
  9
$AUNITS
 70
     0
  9
$AUPREC
 70
     0
  9
$MENU
  1
.
  9
$ELEVATION
 40
0.0
  9
$PELEVATION
 40
0.0
  9
$THICKNESS
 40
0.0
  9
$LIMCHECK
 70
     0
  9
$CHAMFERA
 40
10.0
  9
$CHAMFERB
 40
10.0
  9
$CHAMFERC
 40
20.0
  9
$CHAMFERD
 40
0.0
  9
$SKPOLY
 70
     0
  9
$TDCREATE
 40
2455537.261492789
  9
$TDUCREATE
 40
2455537.219826123
  9
$TDUPDATE
 40
2455537.261492801
  9
$TDUUPDATE
 40
2455537.219826134
  9
$TDINDWG
 40
0.0000000116
  9
$TDUSRTIMER
 40
0.0000000116
  9
$USRTIMER
 70
     1
  9
$ANGBASE
 50
0.0
  9
$ANGDIR
 70
     0
  9
$PDMODE
 70
     0
  9
$PDSIZE
 40
0.0
  9
$PLINEWID
 40
0.0
  9
$SPLFRAME
 70
     0
  9
$SPLINETYPE
 70
     6
  9
$SPLINESEGS
 70
     8
  9
$HANDSEED
  5
125
  9
$SURFTAB1
 70
     6
  9
$SURFTAB2
 70
     6
  9
$SURFTYPE
 70
     6
  9
$SURFU
 70
     6
  9
$SURFV
 70
     6
  9
$UCSBASE
  2

  9
$UCSNAME
  2

  9
$UCSORG
 10
0.0
 20
0.0
 30
0.0
  9
$UCSXDIR
 10
1.0
 20
0.0
 30
0.0
  9
$UCSYDIR
 10
0.0
 20
1.0
 30
0.0
  9
$UCSORTHOREF
  2

  9
$UCSORTHOVIEW
 70
     0
  9
$UCSORGTOP
 10
0.0
 20
0.0
 30
0.0
  9
$UCSORGBOTTOM
 10
0.0
 20
0.0
 30
0.0
  9
$UCSORGLEFT
 10
0.0
 20
0.0
 30
0.0
  9
$UCSORGRIGHT
 10
0.0
 20
0.0
 30
0.0
  9
$UCSORGFRONT
 10
0.0
 20
0.0
 30
0.0
  9
$UCSORGBACK
 10
0.0
 20
0.0
 30
0.0
  9
$PUCSBASE
  2

  9
$PUCSNAME
  2

  9
$PUCSORG
 10
0.0
 20
0.0
 30
0.0
  9
$PUCSXDIR
 10
1.0
 20
0.0
 30
0.0
  9
$PUCSYDIR
 10
0.0
 20
1.0
 30
0.0
  9
$PUCSORTHOREF
  2

  9
$PUCSORTHOVIEW
 70
     0
  9
$PUCSORGTOP
 10
0.0
 20
0.0
 30
0.0
  9
$PUCSORGBOTTOM
 10
0.0
 20
0.0
 30
0.0
  9
$PUCSORGLEFT
 10
0.0
 20
0.0
 30
0.0
  9
$PUCSORGRIGHT
 10
0.0
 20
0.0
 30
0.0
  9
$PUCSORGFRONT
 10
0.0
 20
0.0
 30
0.0
  9
$PUCSORGBACK
 10
0.0
 20
0.0
 30
0.0
  9
$USERI1
 70
     0
  9
$USERI2
 70
     0
  9
$USERI3
 70
     0
  9
$USERI4
 70
     0
  9
$USERI5
 70
     0
  9
$USERR1
 40
0.0
  9
$USERR2
 40
0.0
  9
$USERR3
 40
0.0
  9
$USERR4
 40
0.0
  9
$USERR5
 40
0.0
  9
$WORLDVIEW
 70
     1
  9
$SHADEDGE
 70
     3
  9
$SHADEDIF
 70
    70
  9
$TILEMODE
 70
     1
  9
$MAXACTVP
 70
    64
  9
$PINSBASE
 10
0.0
 20
0.0
 30
0.0
  9
$PLIMCHECK
 70
     0
  9
$PEXTMIN
 10
-210.0
 20
-148.5
 30
0.0
  9
$PEXTMAX
 10
630.0
 20
445.5
 30
0.0
  9
$PLIMMIN
 10
-210.0
 20
-148.5
  9
$PLIMMAX
 10
630.0
 20
445.5
  9
$UNITMODE
 70
     0
  9
$VISRETAIN
 70
     1
  9
$PLINEGEN
 70
     0
  9
$PSLTSCALE
 70
     1
  9
$TREEDEPTH
 70
  3020
  9
$CMLSTYLE
  2
Standard
  9
$CMLJUST
 70
     0
  9
$CMLSCALE
 40
20.0
  9
$PROXYGRAPHICS
 70
     1
  9
$MEASUREMENT
 70
     1
  9
$CELWEIGHT
370
    -1
  9
$ENDCAPS
280
     0
  9
$JOINSTYLE
280
     0
  9
$LWDISPLAY
290
     0
  9
$INSUNITS
 70
     4
  9
$HYPERLINKBASE
  1

  9
$STYLESHEET
  1

  9
$XEDIT
290
     1
  9
$CEPSNTYPE
380
     0
  9
$PSTYLEMODE
290
     1
  9
$FINGERPRINTGUID
  2
{FAEB1C30-E019-11D5-929B-00C0DF256EC4}
  9
$VERSIONGUID
  2
{FAEB1C32-E019-11D5-929B-00C0DF256EC4}
  9
$EXTNAMES
290
     1
  9
$PSVPSCALE
 40
0.0
  9
$OLESTARTUP
290
     0
  0
ENDSEC
  0
SECTION
  2
CLASSES
  0
CLASS
  1
ACDBDICTIONARYWDFLT
  2
AcDbDictionaryWithDefault
  3
ObjectDBX Classes
 90
        0
280
     0
281
     0
  0
CLASS
  1
ACDBPLACEHOLDER
  2
AcDbPlaceHolder
  3
ObjectDBX Classes
 90
        0
280
     0
281
     0
  0
CLASS
  1
LAYOUT
  2
AcDbLayout
  3
ObjectDBX Classes
 90
        0
280
     0
281
     0
  0
ENDSEC
  0
SECTION
  2
TABLES
  0
TABLE
  2
VPORT
  5
8
330
0
100
AcDbSymbolTable
 70
     2
  0
VPORT
  5
29
330
8
100
AcDbSymbolTableRecord
100
AcDbViewportTableRecord
  2
*ACTIVE
 70
     0
 10
0.0
 20
0.0
 11
1.0
 21
1.0
 12
210.0
 22
148.5
 13
0.0
 23
0.0
 14
1.0
 24
1.0
 15
0.0
 25
0.0
 16
0.0
 26
0.0
 36
1.0
 17
0.0
 27
0.0
 37
0.0
 40
594.0
 41
1.414141
 42
50.0
 43
0.0
 44
0.0
 50
0.0
 51
0.0
 71
    16
 72
   100
 73
     1
 74
     0
 75
     0
 76
     0
 77
     0
 78
     0
281
     0
 65
     0
110
0.0
120
0.0
130
0.0
111
1.0
121
0.0
131
0.0
112
0.0
122
1.0
132
0.0
 79
     0
146
0.0
  0
ENDTAB
  0
TABLE
  2
LTYPE
  5
5
330
0
100
AcDbSymbolTable
 70
     4
  0
LTYPE
  5
14
330
5
100
AcDbSymbolTableRecord
100
AcDbLinetypeTableRecord
  2
ByBlock
 70
     0
  3

 72
    65
 73
     0
 40
0.0
  0
LTYPE
  5
15
330
5
100
AcDbSymbolTableRecord
100
AcDbLinetypeTableRecord
  2
ByLayer
 70
     0
  3

 72
    65
 73
     0
 40
0.0
  0
LTYPE
  5
16
330
5
100
AcDbSymbolTableRecord
100
AcDbLinetypeTableRecord
  2
Continuous
 70
     0
  3
Solid line
 72
    65
 73
     0
 40
0.0
  0
LTYPE
  5
2A
330
5
100
AcDbSymbolTableRecord
100
AcDbLinetypeTableRecord
  2
DASHED
 70
     0
  3
__ __ __ __ __
 72
    65
 73
     2
 40
6.25
 49
5.0
 74
     4
 75
     0
340
0
 46
1.0
 50
0.0
 44
0.0
 45
0.0
 49
-1.25
 74
     4
 75
     0
340
0
 46
1.0
 50
0.0
 44
0.0
 45
0.0
  0
LTYPE
  5
F2
330
5
100
AcDbSymbolTableRecord
100
AcDbLinetypeTableRecord
  2
CENTER
 70
     0
  3
__ . __ . __ . __ . __
 72
    65
 73
     4
 40
7.5
 49
5.0
 74
     4
 75
     0
340
0
 46
1.0
 50
0.0
 44
0.0
 45
0.0
 49
-1.25
 74
     4
 75
     0
340
0
 46
1.0
 50
0.0
 44
0.0
 45
0.0
 49
0.0
 74
     4
 75
     0
340
0
 46
1.0
 50
0.0
 44
0.0
 45
0.0
 49
-1.25
 74
     4
 75
     0
340
0
 46
1.0
 50
0.0
 44
0.0
 45
0.0
  0
LTYPE
  5
102
330
5
100
AcDbSymbolTableRecord
100
AcDbLinetypeTableRecord
  2
DASHDOT
 70
     0
  3
__ . __ . __ . __ . __
 72
    65
 73
     4
 40
7.5
 49
5.0
 74
     4
 75
     0
340
0
 46
1.0
 50
0.0
 44
0.0
 45
0.0
 49
-1.25
 74
     4
 75
     0
340
0
 46
1.0
 50
0.0
 44
0.0
 45
0.0
 49
0.0
 74
     4
 75
     0
340
0
 46
1.0
 50
0.0
 44
0.0
 45
0.0
 49
-1.25
 74
     4
 75
     0
340
0
 46
1.0
 50
0.0
 44
0.0
 45
0.0
  0
ENDTAB
  0
TABLE
  2
LAYER
  5
2
330
0
100
AcDbSymbolTable
 70
    12
  0
LAYER
  5
10
330
2
100
AcDbSymbolTableRecord
100
AcDbLayerTableRecord
  2
0
 70
     0
 62
     7
  6
Continuous
370
    -3
390
F
  0
LAYER
  5
2B
330
2
100
AcDbSymbolTableRecord
100
AcDbLayerTableRecord
  2
LC-INFO-1-2-mm-A3-0
 70
     1
 62
     7
  6
ByBlock
370
    -3
390
F
  0
LAYER
  5
2C
330
2
100
AcDbSymbolTableRecord
100
AcDbLayerTableRecord
  2
LC-CUT-HIDDEN
 70
     0
 62
     7
  6
DASHED
370
    -3
390
F
  0
LAYER
  5
2D
330
2
100
AcDbSymbolTableRecord
100
AcDbLayerTableRecord
  2
LC-VIEWPORT
 70
     0
 62
     7
  6
ByBlock
370
    -3
390
F
  0
LAYER
  5
2E
330
2
100
AcDbSymbolTableRecord
100
AcDbLayerTableRecord
  2
LC-3D-HIDDEN
 70
     0
 62
     9
  6
DASHED
370
    -3
390
F
  0
LAYER
  5
30
330
2
100
AcDbSymbolTableRecord
100
AcDbLayerTableRecord
  2
LC-001-002-----0
 70
     0
 62
     1
  6
ByBlock
370
    -3
390
F
  0
LAYER
  5
36
330
2
100
AcDbSymbolTableRecord
100
AcDbLayerTableRecord
  2
LC-002-005-----0
 70
     0
 62
     2
  6
DASHED
370
    -3
390
F
  0
LAYER
  5
82
330
2
100
AcDbSymbolTableRecord
100
AcDbLayerTableRecord
  2
LC-003-003-----0
 70
     0
 62
     2
  6
ByBlock
370
    -3
390
F
  0
LAYER
  5
84
330
2
100
AcDbSymbolTableRecord
100
AcDbLayerTableRecord
  2
Defpoints
 70
     0
 62
     7
  6
Continuous
290
     0
370
    -3
390
F
  0
LAYER
  5
F3
330
2
100
AcDbSymbolTableRecord
100
AcDbLayerTableRecord
  2
LC-004-006-MLN-0
 70
     0
 62
     2
  6
CENTER
370
    -3
390
F
  0
LAYER
  5
FF
330
2
100
AcDbSymbolTableRecord
100
AcDbLayerTableRecord
  2
LC-005-002-RND-0
 70
     0
 62
     1
  6
ByBlock
370
    -3
390
F
  0
LAYER
  5
103
330
2
100
AcDbSymbolTableRecord
100
AcDbLayerTableRecord
  2
LC-006-007-KH--0
 70
     0
 62
    44
  6
DASHDOT
370
    -3
390
F
  0
ENDTAB
  0
TABLE
  2
STYLE
  5
3
330
0
100
AcDbSymbolTable
 70
     3
  0
STYLE
  5
11
330
3
100
AcDbSymbolTableRecord
100
AcDbTextStyleTableRecord
  2
Standard
 70
     0
 40
0.0
 41
1.0
 50
0.0
 71
     0
 42
2.5
  3
txt
  4

  0
STYLE
  5
2F
330
3
100
AcDbSymbolTableRecord
100
AcDbTextStyleTableRecord
  2
LCTX15-400-0-0-Arial
 70
     0
 40
0.0
 41
0.9
 50
0.0
 71
     0
 42
3.5
  3

  4

1001
ACAD
1000
Arial
1071
 16777218
  0
STYLE
  5
80
330
3
100
AcDbSymbolTableRecord
100
AcDbTextStyleTableRecord
  2
LCTX15-400-0-0pDIN-Schrift
 70
     0
 40
2.5
 41
0.8
 50
15.0
 71
     0
 42
3.5
  3
STANDARD
  4

  0
ENDTAB
  0
TABLE
  2
VIEW
  5
6
330
0
100
AcDbSymbolTable
 70
     0
  0
ENDTAB
  0
TABLE
  2
UCS
  5
7
330
0
100
AcDbSymbolTable
 70
     0
  0
ENDTAB
  0
TABLE
  2
APPID
  5
9
330
0
100
AcDbSymbolTable
 70
     1
  0
APPID
  5
12
330
9
100
AcDbSymbolTableRecord
100
AcDbRegAppTableRecord
  2
ACAD
 70
     0
  0
ENDTAB
  0
TABLE
  2
DIMSTYLE
  5
A
330
0
100
AcDbSymbolTable
 70
     3
100
AcDbDimStyleTable
  0
DIMSTYLE
105
27
330
A
100
AcDbSymbolTableRecord
100
AcDbDimStyleTableRecord
  2
ISO-25
 70
     0
 41
2.5
 42
0.625
 43
3.75
 44
1.25
 73
     0
 74
     0
 77
     1
 78
     8
140
2.5
141
2.5
143
0.03937
147
0.625
171
     3
172
     1
271
     2
272
     2
274
     3
278
    44
283
     0
284
     8
340
11
  0
DIMSTYLE
105
81
102
{ACAD_REACTORS
330
83
102
}
330
A
100
AcDbSymbolTableRecord
100
AcDbDimStyleTableRecord
  2
LC-DIM-D-0140-02-32
 70
     0
 40
2.0
 41
14.0
 42
0.0
 43
7.5
 44
1.8
 73
     0
 74
     0
 75
     1
 76
     1
 77
     1
 78
     8
 79
     2
140
14.0
141
0.0
146
0.71
147
1.5
172
     1
176
     2
177
     2
178
     2
179
     2
271
     2
278
    44
289
     1
340
80
  0
DIMSTYLE
105
9D
102
{ACAD_REACTORS
330
9E
330
108
102
}
330
A
100
AcDbSymbolTableRecord
100
AcDbDimStyleTableRecord
  2
LC-DIM-L-0140-02-02
 70
     0
 40
2.0
 41
14.0
 42
0.0
 43
7.5
 44
1.8
 73
     0
 74
     0
 77
     1
 78
     8
 79
     2
140
14.0
141
0.0
146
0.71
147
1.5
176
     2
177
     2
178
     2
179
     2
271
     2
278
    44
289
     1
340
80
  0
ENDTAB
  0
TABLE
  2
BLOCK_RECORD
  5
1
330
0
100
AcDbSymbolTable
 70
     5
  0
BLOCK_RECORD
  5
1F
330
1
100
AcDbSymbolTableRecord
100
AcDbBlockTableRecord
  2
*Model_Space
340
22
  0
BLOCK_RECORD
  5
1B
330
1
100
AcDbSymbolTableRecord
100
AcDbBlockTableRecord
  2
*Paper_Space
340
1E
  0
BLOCK_RECORD
  5
23
330
1
100
AcDbSymbolTableRecord
100
AcDbBlockTableRecord
  2
*Paper_Space0
340
26
  0
BLOCK_RECORD
  5
33
330
1
100
AcDbSymbolTableRecord
100
AcDbBlockTableRecord
  2
*X11
340
0
102
{BLKREFS
331
7F
102
}
  0
BLOCK_RECORD
  5
85
330
1
100
AcDbSymbolTableRecord
100
AcDbBlockTableRecord
  2
*D2
340
0
  0
BLOCK_RECORD
  5
9F
330
1
100
AcDbSymbolTableRecord
100
AcDbBlockTableRecord
  2
*D3
340
0
  0
BLOCK_RECORD
  5
109
330
1
100
AcDbSymbolTableRecord
100
AcDbBlockTableRecord
  2
*D4
340
0
  0
ENDTAB
  0
ENDSEC
  0
SECTION
  2
BLOCKS
  0
BLOCK
  5
20
330
1F
100
AcDbEntity
  8
0
100
AcDbBlockBegin
  2
*Model_Space
 70
     0
 71
     0
 10
0.0
 20
0.0
 30
0.0
  3
*Model_Space
  1

  0
ENDBLK
  5
21
330
1F
100
AcDbEntity
  8
0
100
AcDbBlockEnd
  0
BLOCK
  5
1C
330
1B
100
AcDbEntity
 67
     1
  8
0
100
AcDbBlockBegin
  2
*Paper_Space
 70
     0
 71
     0
 10
0.0
 20
0.0
 30
0.0
  3
*Paper_Space
  1

  0
ENDBLK
  5
1D
330
1B
100
AcDbEntity
 67
     1
  8
0
100
AcDbBlockEnd
  0
BLOCK
  5
24
330
23
100
AcDbEntity
  8
0
100
AcDbBlockBegin
  2
*Paper_Space0
 70
     0
 71
     0
 10
0.0
 20
0.0
 30
0.0
  3
*Paper_Space0
  1

  0
ENDBLK
  5
25
330
23
100
AcDbEntity
  8
0
100
AcDbBlockEnd
  0
BLOCK
  5
34
330
33
100
AcDbEntity
  8
0
100
AcDbBlockBegin
  2
*X11
 70
     1
 71
     0
 10
0.0
 20
0.0
 30
0.0
  3
*X11
  1

  4
*X1
  0
LINE
  5
37
330
33
100
AcDbEntity
  8
LC-002-005-----0
 62
     7
370
    25
100
AcDbLine
 10
365.821844
 20
256.432124
 30
0.0
 11
362.571284
 21
259.682684
 31
0.0
  0
LINE
  5
38
330
33
100
AcDbEntity
  8
LC-002-005-----0
 62
     7
370
    25
100
AcDbLine
 10
365.821815
 20
253.603725
 30
0.0
 11
359.742819
 21
259.682721
 31
0.0
  0
LINE
  5
39
330
33
100
AcDbEntity
  8
LC-002-005-----0
  6
ByBlock
 62
     7
370
    25
100
AcDbLine
 10
363.085914
 20
250.682772
 30
0.0
 11
356.822174
 21
256.946512
 31
0.0
  0
LINE
  5
3A
330
33
100
AcDbEntity
  8
LC-002-005-----0
  6
ByBlock
 62
     7
370
    25
100
AcDbLine
 10
360.257449
 20
250.68281
 30
0.0
 11
355.822154
 21
255.118105
 31
0.0
  0
LINE
  5
3B
330
33
100
AcDbEntity
  8
LC-002-005-----0
 62
     7
370
    25
100
AcDbLine
 10
358.100671
 20
247.182733
 30
0.0
 11
354.100656
 21
251.182749
 31
0.0
  0
LINE
  5
3C
330
33
100
AcDbEntity
  8
LC-002-005-----0
 62
     7
370
    25
100
AcDbLine
 10
351.822147
 20
253.461258
 30
0.0
 11
350.826004
 21
254.4574
 31
0.0
  0
LINE
  5
3D
330
33
100
AcDbEntity
  8
LC-002-005-----0
 62
     7
370
    25
100
AcDbLine
 10
355.272222
 20
247.182755
 30
0.0
 11
349.790717
 21
252.664261
 31
0.0
  0
LINE
  5
3E
330
33
100
AcDbEntity
  8
LC-002-005-----0
  6
ByBlock
 62
     7
370
    25
100
AcDbLine
 10
349.615329
 20
247.182794
 30
0.0
 11
345.615323
 21
251.182801
 31
0.0
  0
LINE
  5
3F
330
33
100
AcDbEntity
  8
LC-002-005-----0
  6
ByBlock
 62
     7
370
    25
100
AcDbLine
 10
344.822138
 20
251.975985
 30
0.0
 11
343.282333
 21
253.515791
 31
0.0
  0
LINE
  5
40
330
33
100
AcDbEntity
  8
LC-002-005-----0
  6
ByBlock
 62
     7
370
    25
100
AcDbLine
 10
346.786886
 20
247.18281
 30
0.0
 11
342.247045
 21
251.722651
 31
0.0
  0
LINE
  5
41
330
33
100
AcDbEntity
  8
LC-002-005-----0
  6
ByBlock
 62
     7
370
    25
100
AcDbLine
 10
337.822162
 20
256.147534
 30
0.0
 11
337.809237
 21
256.160459
 31
0.0
  0
LINE
  5
42
330
33
100
AcDbEntity
  8
LC-002-005-----0
 62
     7
370
    25
100
AcDbLine
 10
341.129999
 20
247.182843
 30
0.0
 11
335.738661
 21
252.574181
 31
0.0
  0
LINE
  5
43
330
33
100
AcDbEntity
  8
LC-002-005-----0
 62
     7
370
    25
100
AcDbLine
 10
338.301556
 20
247.182859
 30
0.0
 11
334.301548
 21
251.182867
 31
0.0
  0
LINE
  5
44
330
33
100
AcDbEntity
  8
LC-002-005-----0
 62
     7
370
    25
100
AcDbLine
 10
332.822134
 20
252.662281
 30
0.0
 11
331.529691
 21
253.954724
 31
0.0
  0
LINE
  5
45
330
33
100
AcDbEntity
  8
LC-002-005-----0
  6
ByBlock
 62
     7
370
    25
100
AcDbLine
 10
332.644625
 20
247.182936
 30
0.0
 11
327.382346
 21
252.445214
 31
0.0
  0
LINE
  5
46
330
33
100
AcDbEntity
  8
LC-002-005-----0
  6
ByBlock
 62
     7
370
    25
100
AcDbLine
 10
329.816176
 20
247.182957
 30
0.0
 11
325.308674
 21
251.690459
 31
0.0
  0
LINE
  5
47
330
33
100
AcDbEntity
  8
LC-002-005-----0
 62
     7
370
    25
100
AcDbLine
 10
359.821816
 20
211.520463
 30
0.0
 11
356.159538
 21
215.182741
 31
0.0
  0
LINE
  5
48
330
33
100
AcDbEntity
  8
LC-002-005-----0
 62
     7
370
    25
100
AcDbLine
 10
324.159278
 20
247.183001
 30
0.0
 11
321.16133
 21
250.180949
 31
0.0
  0
LINE
  5
49
330
33
100
AcDbEntity
  8
LC-002-005-----0
 62
     7
370
    25
100
AcDbLine
 10
359.821795
 20
208.692057
 30
0.0
 11
353.331094
 21
215.182758
 31
0.0
  0
LINE
  5
4A
330
33
100
AcDbEntity
  8
LC-002-005-----0
 62
     7
370
    25
100
AcDbLine
 10
323.822074
 20
244.691778
 30
0.0
 11
319.087658
 21
249.426194
 31
0.0
  0
LINE
  5
4B
330
33
100
AcDbEntity
  8
LC-002-005-----0
  6
ByBlock
 62
     7
370
    25
100
AcDbLine
 10
359.821754
 20
203.035244
 30
0.0
 11
356.82188
 21
206.035117
 31
0.0
  0
LINE
  5
4C
330
33
100
AcDbEntity
  8
LC-002-005-----0
  6
ByBlock
 62
     7
370
    25
100
AcDbLine
 10
351.821816
 20
211.035182
 30
0.0
 11
347.674208
 21
215.18279
 31
0.0
  0
LINE
  5
4D
330
33
100
AcDbEntity
  8
LC-002-005-----0
  6
ByBlock
 62
     7
370
    25
100
AcDbLine
 10
318.673967
 20
244.18303
 30
0.0
 11
314.940314
 21
247.916684
 31
0.0
  0
LINE
  5
4E
330
33
100
AcDbEntity
  8
LC-002-005-----0
  6
ByBlock
 62
     7
370
    25
100
AcDbLine
 10
357.345841
 20
202.68273
 30
0.0
 11
356.821864
 21
203.206707
 31
0.0
  0
LINE
  5
4F
330
33
100
AcDbEntity
  8
LC-002-005-----0
  6
ByBlock
 62
     7
370
    25
100
AcDbLine
 10
351.821794
 20
208.206777
 30
0.0
 11
349.057024
 21
210.971547
 31
0.0
  0
LINE
  5
50
330
33
100
AcDbEntity
  8
LC-002-005-----0
  6
ByBlock
 62
     7
370
    25
100
AcDbLine
 10
348.845779
 20
211.182791
 30
0.0
 11
344.845764
 21
215.182807
 31
0.0
  0
LINE
  5
51
330
33
100
AcDbEntity
  8
LC-002-005-----0
  6
ByBlock
 62
     7
370
    25
100
AcDbLine
 10
315.845534
 20
244.183037
 30
0.0
 11
312.866641
 21
247.161929
 31
0.0
  0
LINE
  5
52
330
33
100
AcDbEntity
  8
LC-002-005-----0
 62
     7
370
    25
100
AcDbLine
 10
344.821807
 20
209.549909
 30
0.0
 11
339.188877
 21
215.182839
 31
0.0
  0
LINE
  5
53
330
33
100
AcDbEntity
  8
LC-002-005-----0
 62
     7
370
    25
100
AcDbLine
 10
310.413707
 20
243.958009
 30
0.0
 11
308.719297
 21
245.652419
 31
0.0
  0
LINE
  5
54
330
33
100
AcDbEntity
  8
LC-002-005-----0
 62
     7
370
    25
100
AcDbLine
 10
344.821791
 20
206.721498
 30
0.0
 11
344.085926
 21
207.457364
 31
0.0
  0
LINE
  5
55
330
33
100
AcDbEntity
  8
LC-002-005-----0
 62
     7
370
    25
100
AcDbLine
 10
340.360452
 20
211.182837
 30
0.0
 11
336.360434
 21
215.182855
 31
0.0
  0
LINE
  5
56
330
33
100
AcDbEntity
  8
LC-002-005-----0
 62
     7
370
    25
100
AcDbLine
 10
308.20701
 20
243.336279
 30
0.0
 11
306.676829
 21
244.866461
 31
0.0
  0
LINE
  5
57
330
33
100
AcDbEntity
  8
LC-002-005-----0
  6
ByBlock
 62
     7
370
    25
100
AcDbLine
 10
337.821799
 20
208.064636
 30
0.0
 11
335.251287
 21
210.635148
 31
0.0
  0
LINE
  5
58
330
33
100
AcDbEntity
  8
LC-002-005-----0
  6
ByBlock
 62
     7
370
    25
100
AcDbLine
 10
334.70357
 20
211.182865
 30
0.0
 11
330.703547
 21
215.182888
 31
0.0
  0
LINE
  5
59
330
33
100
AcDbEntity
  8
LC-002-005-----0
  6
ByBlock
 62
     7
370
    25
100
AcDbLine
 10
304.618603
 20
241.267832
 30
0.0
 11
303.197928
 21
242.688508
 31
0.0
  0
LINE
  5
5A
330
33
100
AcDbEntity
  8
LC-002-005-----0
  6
ByBlock
 62
     7
370
    25
100
AcDbLine
 10
332.82189
 20
210.236118
 30
0.0
 11
327.875104
 21
215.182904
 31
0.0
  0
LINE
  5
5B
330
33
100
AcDbEntity
  8
LC-002-005-----0
  6
ByBlock
 62
     7
370
    25
100
AcDbLine
 10
303.16834
 20
239.889668
 30
0.0
 11
301.752497
 21
241.305511
 31
0.0
  0
LINE
  5
5C
330
33
100
AcDbEntity
  8
LC-002-005-----0
 62
     7
370
    25
100
AcDbLine
 10
329.821792
 20
207.579361
 30
0.0
 11
327.821804
 21
209.57935
 31
0.0
  0
LINE
  5
5D
330
33
100
AcDbEntity
  8
LC-002-005-----0
 62
     7
370
    25
100
AcDbLine
 10
300.941232
 20
236.459922
 30
0.0
 11
299.440566
 21
237.960587
 31
0.0
  0
LINE
  5
5E
330
33
100
AcDbEntity
  8
LC-002-005-----0
 62
     7
370
    25
100
AcDbLine
 10
329.821776
 20
204.750951
 30
0.0
 11
327.821787
 21
206.750939
 31
0.0
  0
LINE
  5
5F
330
33
100
AcDbEntity
  8
LC-002-005-----0
 62
     7
370
    25
100
AcDbLine
 10
300.215541
 20
234.357186
 30
0.0
 11
298.605488
 21
235.967238
 31
0.0
  0
LINE
  5
60
330
33
100
AcDbEntity
  8
LC-002-005-----0
  6
ByBlock
 62
     7
370
    25
100
AcDbLine
 10
329.821743
 20
199.09413
 30
0.0
 11
327.821754
 21
201.094118
 31
0.0
  0
LINE
  5
61
330
33
100
AcDbEntity
  8
LC-002-005-----0
  6
ByBlock
 62
     7
370
    25
100
AcDbLine
 10
299.822064
 20
229.093808
 30
0.0
 11
297.822079
 21
231.093793
 31
0.0
  0
LINE
  5
62
330
33
100
AcDbEntity
  8
LC-002-005-----0
  6
ByBlock
 62
     7
370
    25
100
AcDbLine
 10
329.821726
 20
196.265719
 30
0.0
 11
327.821738
 21
198.265707
 31
0.0
  0
LINE
  5
63
330
33
100
AcDbEntity
  8
LC-002-005-----0
  6
ByBlock
 62
     7
370
    25
100
AcDbLine
 10
299.822042
 20
226.265403
 30
0.0
 11
297.822058
 21
228.265388
 31
0.0
  0
LINE
  5
64
330
33
100
AcDbEntity
  8
LC-002-005-----0
 62
     7
370
    25
100
AcDbLine
 10
329.821693
 20
190.608898
 30
0.0
 11
327.821705
 21
192.608886
 31
0.0
  0
LINE
  5
65
330
33
100
AcDbEntity
  8
LC-002-005-----0
 62
     7
370
    25
100
AcDbLine
 10
299.821999
 20
220.608592
 30
0.0
 11
297.822014
 21
222.608577
 31
0.0
  0
LINE
  5
66
330
33
100
AcDbEntity
  8
LC-002-005-----0
 62
     7
370
    25
100
AcDbLine
 10
329.821676
 20
187.780488
 30
0.0
 11
327.821688
 21
189.780476
 31
0.0
  0
LINE
  5
67
330
33
100
AcDbEntity
  8
LC-002-005-----0
 62
     7
370
    25
100
AcDbLine
 10
299.821977
 20
217.780187
 30
0.0
 11
297.821992
 21
219.780171
 31
0.0
  0
LINE
  5
68
330
33
100
AcDbEntity
  8
LC-002-005-----0
  6
ByBlock
 62
     7
370
    25
100
AcDbLine
 10
329.821643
 20
182.123666
 30
0.0
 11
327.821655
 21
184.123655
 31
0.0
  0
LINE
  5
69
330
33
100
AcDbEntity
  8
LC-002-005-----0
  6
ByBlock
 62
     7
370
    25
100
AcDbLine
 10
299.821934
 20
212.123376
 30
0.0
 11
297.821949
 21
214.123361
 31
0.0
  0
LINE
  5
6A
330
33
100
AcDbEntity
  8
LC-002-005-----0
  6
ByBlock
 62
     7
370
    25
100
AcDbLine
 10
329.821627
 20
179.295256
 30
0.0
 11
327.821638
 21
181.295244
 31
0.0
  0
LINE
  5
6B
330
33
100
AcDbEntity
  8
LC-002-005-----0
  6
ByBlock
 62
     7
370
    25
100
AcDbLine
 10
299.821912
 20
209.294971
 30
0.0
 11
297.821927
 21
211.294955
 31
0.0
  0
LINE
  5
6C
330
33
100
AcDbEntity
  8
LC-002-005-----0
 62
     7
370
    25
100
AcDbLine
 10
329.821593
 20
173.638435
 30
0.0
 11
327.821605
 21
175.638423
 31
0.0
  0
LINE
  5
6D
330
33
100
AcDbEntity
  8
LC-002-005-----0
 62
     7
370
    25
100
AcDbLine
 10
299.821868
 20
203.63816
 30
0.0
 11
297.821884
 21
205.638144
 31
0.0
  0
LINE
  5
6E
330
33
100
AcDbEntity
  8
LC-002-005-----0
 62
     7
370
    25
100
AcDbLine
 10
329.821577
 20
170.810024
 30
0.0
 11
327.821589
 21
172.810013
 31
0.0
  0
LINE
  5
6F
330
33
100
AcDbEntity
  8
LC-002-005-----0
 62
     7
370
    25
100
AcDbLine
 10
299.821847
 20
200.809754
 30
0.0
 11
297.821862
 21
202.809739
 31
0.0
  0
LINE
  5
70
330
33
100
AcDbEntity
  8
LC-002-005-----0
  6
ByBlock
 62
     7
370
    25
100
AcDbLine
 10
329.821544
 20
165.153203
 30
0.0
 11
327.821555
 21
167.153191
 31
0.0
  0
LINE
  5
71
330
33
100
AcDbEntity
  8
LC-002-005-----0
  6
ByBlock
 62
     7
370
    25
100
AcDbLine
 10
299.821803
 20
195.152944
 30
0.0
 11
297.821819
 21
197.152928
 31
0.0
  0
LINE
  5
72
330
33
100
AcDbEntity
  8
LC-002-005-----0
  6
ByBlock
 62
     7
370
    25
100
AcDbLine
 10
329.821527
 20
162.324793
 30
0.0
 11
327.821539
 21
164.324781
 31
0.0
  0
LINE
  5
73
330
33
100
AcDbEntity
  8
LC-002-005-----0
  6
ByBlock
 62
     7
370
    25
100
AcDbLine
 10
299.821782
 20
192.324538
 30
0.0
 11
297.821797
 21
194.324523
 31
0.0
  0
LINE
  5
74
330
33
100
AcDbEntity
  8
LC-002-005-----0
 62
     7
370
    25
100
AcDbLine
 10
329.821494
 20
156.667971
 30
0.0
 11
327.821506
 21
158.66796
 31
0.0
  0
LINE
  5
75
330
33
100
AcDbEntity
  8
LC-002-005-----0
 62
     7
370
    25
100
AcDbLine
 10
299.821738
 20
186.667727
 30
0.0
 11
297.821753
 21
188.667712
 31
0.0
  0
LINE
  5
76
330
33
100
AcDbEntity
  8
LC-002-005-----0
 62
     7
370
    25
100
AcDbLine
 10
329.821477
 20
153.839561
 30
0.0
 11
327.821489
 21
155.839549
 31
0.0
  0
LINE
  5
77
330
33
100
AcDbEntity
  8
LC-002-005-----0
 62
     7
370
    25
100
AcDbLine
 10
299.821716
 20
183.839322
 30
0.0
 11
297.821732
 21
185.839307
 31
0.0
  0
LINE
  5
78
330
33
100
AcDbEntity
  8
LC-002-005-----0
  6
ByBlock
 62
     7
370
    25
100
AcDbLine
 10
299.821673
 20
178.182511
 30
0.0
 11
297.821688
 21
180.182496
 31
0.0
  0
LINE
  5
79
330
33
100
AcDbEntity
  8
LC-002-005-----0
  6
ByBlock
 62
     7
370
    25
100
AcDbLine
 10
299.821651
 20
175.354106
 30
0.0
 11
297.821667
 21
177.35409
 31
0.0
  0
LINE
  5
7A
330
33
100
AcDbEntity
  8
LC-002-005-----0
 62
     7
370
    25
100
AcDbLine
 10
299.821608
 20
169.697295
 30
0.0
 11
297.821623
 21
171.69728
 31
0.0
  0
LINE
  5
7B
330
33
100
AcDbEntity
  8
LC-002-005-----0
 62
     7
370
    25
100
AcDbLine
 10
299.821586
 20
166.86889
 30
0.0
 11
297.821601
 21
168.868874
 31
0.0
  0
LINE
  5
7C
330
33
100
AcDbEntity
  8
LC-002-005-----0
  6
ByBlock
 62
     7
370
    25
100
AcDbLine
 10
299.821543
 20
161.212079
 30
0.0
 11
297.821558
 21
163.212063
 31
0.0
  0
LINE
  5
7D
330
33
100
AcDbEntity
  8
LC-002-005-----0
  6
ByBlock
 62
     7
370
    25
100
AcDbLine
 10
299.821521
 20
158.383673
 30
0.0
 11
297.821536
 21
160.383658
 31
0.0
  0
LINE
  5
7E
330
33
100
AcDbEntity
  8
LC-002-005-----0
 62
     7
370
    25
100
AcDbLine
 10
299.821477
 20
152.726863
 30
0.0
 11
297.821493
 21
154.726847
 31
0.0
  0
ENDBLK
  5
35
330
33
100
AcDbEntity
  8
0
100
AcDbBlockEnd
  0
BLOCK
  5
8E
330
85
100
AcDbEntity
  8
0
100
AcDbBlockBegin
  2
*D2
 70
     1
 71
     0
 10
0.0
 20
0.0
 30
0.0
  3
*D2
  1

  0
LINE
  5
86
330
85
100
AcDbEntity
  8
LC-003-003-----0
 62
     2
370
    -2
100
AcDbLine
 10
196.337326
 20
239.594062
 30
0.0
 11
206.592681
 21
231.492723
 31
0.0
  0
LINE
  5
87
330
85
100
AcDbEntity
  8
LC-003-003-----0
 62
     2
370
    -2
100
AcDbLine
 10
251.320512
 20
196.159441
 30
0.0
 11
273.292011
 21
178.802794
 31
0.0
  0
MTEXT
  5
88
330
85
100
AcDbEntity
  8
LC-003-003-----0
 62
     2
100
AcDbMText
 10
196.463454
 20
278.745274
 30
0.0
 40
28.0
 41
0.0
 71
     5
 72
     1
  1
\A1;\U+220557
  7
LCTX15-400-0-0pDIN-Schrift
 11
0.7846964170701634
 21
-0.6198802570152143
 31
0.0
 73
     1
 44
1.0
  0
SOLID
  5
89
330
85
100
AcDbEntity
  8
LC-003-003-----0
 62
     2
100
AcDbTrace
 10
159.756907
 20
262.544101
 30
0.0
 11
165.542456
 21
269.867934
 31
0.0
 12
184.621181
 22
248.84937
 32
0.0
 13
184.621181
 23
248.84937
 33
0.0
  0
SOLID
  5
8A
330
85
100
AcDbEntity
  8
LC-003-003-----0
 62
     2
100
AcDbTrace
 10
254.213286
 20
199.821358
 30
0.0
 11
248.427737
 21
192.497525
 31
0.0
 12
229.349012
 22
213.516088
 32
0.0
 13
229.349012
 23
213.516088
 33
0.0
  0
LINE
  5
8B
330
85
100
AcDbEntity
  8
LC-003-003-----0
 62
     2
370
    -2
100
AcDbLine
 10
229.349012
 20
213.516088
 30
0.0
 11
184.621181
 21
248.84937
 31
0.0
  0
POINT
  5
8C
330
85
100
AcDbEntity
  8
Defpoints
 62
     0
100
AcDbPoint
 10
184.621181
 20
248.84937
 30
0.0
  0
POINT
  5
8D
330
85
100
AcDbEntity
  8
Defpoints
 62
     0
100
AcDbPoint
 10
229.349012
 20
213.516088
 30
0.0
  0
ENDBLK
  5
8F
330
85
100
AcDbEntity
  8
0
100
AcDbBlockEnd
  0
BLOCK
  5
AB
330
9F
100
AcDbEntity
  8
0
100
AcDbBlockBegin
  2
*D3
 70
     1
 71
     0
 10
0.0
 20
0.0
 30
0.0
  3
*D3
  1

  0
LINE
  5
A0
330
9F
100
AcDbEntity
  8
LC-003-003-----0
 62
     2
370
    -2
100
AcDbLine
 10
329.821467
 20
152.006356
 30
0.0
 11
329.821467
 21
122.397589
 31
0.0
  0
LINE
  5
A1
330
9F
100
AcDbEntity
  8
LC-003-003-----0
 62
     2
370
    -2
100
AcDbLine
 10
297.821472
 20
152.001923
 30
0.0
 11
297.821472
 21
122.397589
 31
0.0
  0
LINE
  5
A2
330
9F
100
AcDbEntity
  8
LC-003-003-----0
 62
     2
370
    -2
100
AcDbLine
 10
357.821467
 20
125.997589
 30
0.0
 11
385.821467
 21
125.997589
 31
0.0
  0
LINE
  5
A3
330
9F
100
AcDbEntity
  8
LC-003-003-----0
 62
     2
370
    -2
100
AcDbLine
 10
269.821472
 20
125.997589
 30
0.0
 11
241.821472
 21
125.997589
 31
0.0
  0
LINE
  5
A4
330
9F
100
AcDbEntity
  8
LC-003-003-----0
 62
     2
370
    -2
100
AcDbLine
 10
329.821467
 20
125.997589
 30
0.0
 11
297.821472
 21
125.997589
 31
0.0
  0
SOLID
  5
A5
330
9F
100
AcDbEntity
  8
LC-003-003-----0
 62
     2
100
AcDbTrace
 10
357.821467
 20
130.664255
 30
0.0
 11
357.821467
 21
121.330922
 31
0.0
 12
329.821467
 22
125.997589
 32
0.0
 13
329.821467
 23
125.997589
 33
0.0
  0
SOLID
  5
A6
330
9F
100
AcDbEntity
  8
LC-003-003-----0
 62
     2
100
AcDbTrace
 10
269.821472
 20
121.330922
 30
0.0
 11
269.821472
 21
130.664255
 31
0.0
 12
297.821472
 22
125.997589
 32
0.0
 13
297.821472
 23
125.997589
 33
0.0
  0
MTEXT
  5
A7
330
9F
100
AcDbEntity
  8
LC-003-003-----0
 62
     2
100
AcDbMText
 10
313.919344
 20
156.797589
 30
0.0
 40
28.0
 41
0.0
 71
     5
 72
     1
  1
%%c\A1;32
  7
LCTX15-400-0-0pDIN-Schrift
 73
     1
 44
1.0
  0
POINT
  5
A8
330
9F
100
AcDbEntity
  8
Defpoints
 62
     0
100
AcDbPoint
 10
329.821467
 20
152.006356
 30
0.0
  0
POINT
  5
A9
330
9F
100
AcDbEntity
  8
Defpoints
 62
     0
100
AcDbPoint
 10
297.821472
 20
152.001923
 30
0.0
  0
POINT
  5
AA
330
9F
100
AcDbEntity
  8
Defpoints
 62
     0
100
AcDbPoint
 10
297.821472
 20
125.997589
 30
0.0
  0
ENDBLK
  5
AC
330
9F
100
AcDbEntity
  8
0
100
AcDbBlockEnd
  0
BLOCK
  5
113
330
109
100
AcDbEntity
  8
0
100
AcDbBlockBegin
  2
*D4
 70
     1
 71
     0
 10
0.0
 20
0.0
 30
0.0
  3
*D4
  1

  0
LINE
  5
10A
330
109
100
AcDbEntity
  8
LC-003-003-----0
 62
     2
370
    -2
100
AcDbLine
 10
235.485183
 20
231.182729
 30
0.0
 11
145.377016
 21
231.182729
 31
0.0
  0
LINE
  5
10B
330
109
100
AcDbEntity
  8
LC-003-003-----0
 62
     2
370
    -2
100
AcDbLine
 10
222.985097
 20
149.182727
 30
0.0
 11
145.377016
 21
149.182727
 31
0.0
  0
LINE
  5
10C
330
109
100
AcDbEntity
  8
LC-003-003-----0
 62
     2
370
    -2
100
AcDbLine
 10
148.977016
 20
203.182729
 30
0.0
 11
148.977016
 21
177.182727
 31
0.0
  0
SOLID
  5
10D
330
109
100
AcDbEntity
  8
LC-003-003-----0
 62
     2
100
AcDbTrace
 10
153.643682
 20
203.182729
 30
0.0
 11
144.310349
 21
203.182729
 31
0.0
 12
148.977016
 22
231.182729
 32
0.0
 13
148.977016
 23
231.182729
 33
0.0
  0
SOLID
  5
10E
330
109
100
AcDbEntity
  8
LC-003-003-----0
 62
     2
100
AcDbTrace
 10
144.310349
 20
177.182727
 30
0.0
 11
153.643682
 21
177.182727
 31
0.0
 12
148.977016
 22
149.182727
 32
0.0
 13
148.977016
 23
149.182727
 33
0.0
  0
MTEXT
  5
10F
330
109
100
AcDbEntity
  8
LC-003-003-----0
 62
     2
100
AcDbMText
 10
118.177016
 20
188.298
 30
0.0
 40
28.0
 41
0.0
 71
     5
 72
     1
  1
\A1;82
  7
LCTX15-400-0-0pDIN-Schrift
 11
6.123031769111886E-17
 21
1.0
 31
0.0
 73
     1
 44
1.0
  0
POINT
  5
110
330
109
100
AcDbEntity
  8
Defpoints
 62
     0
100
AcDbPoint
 10
235.485183
 20
231.182729
 30
0.0
  0
POINT
  5
111
330
109
100
AcDbEntity
  8
Defpoints
 62
     0
100
AcDbPoint
 10
222.985097
 20
149.182727
 30
0.0
  0
POINT
  5
112
330
109
100
AcDbEntity
  8
Defpoints
 62
     0
100
AcDbPoint
 10
148.977016
 20
149.182727
 30
0.0
  0
ENDBLK
  5
114
330
109
100
AcDbEntity
  8
0
100
AcDbBlockEnd
  0
ENDSEC
  0
SECTION
  2
ENTITIES
  0
LINE
  5
31
102
{ACAD_REACTORS
330
124
102
}
330
1F
100
AcDbEntity
  8
LC-001-002-----0
 62
     7
370
    50
100
AcDbLine
 10
358.822093
 20
247.182728
 30
0.0
 11
359.822097
 21
248.182732
 31
0.0
  0
LINE
  5
32
102
{ACAD_REACTORS
330
124
102
}
330
1F
100
AcDbEntity
  8
LC-001-002-----0
 62
     7
370
    50
100
AcDbLine
 10
352.022094
 20
247.18278
 30
0.0
 11
358.822093
 21
247.182728
 31
0.0
  0
INSERT
  5
7F
330
1F
100
AcDbEntity
  8
LC-002-005-----0
  6
ByBlock
 62
     7
370
    25
100
AcDbBlockReference
  2
*X11
 10
0.0
 20
0.0
 30
0.0
  0
DIMENSION
  5
83
330
1F
100
AcDbEntity
  8
LC-003-003-----0
 62
     7
370
    25
100
AcDbDimension
  2
*D2
 10
229.349012
 20
213.516088
 30
0.0
 11
196.463454
 21
278.745274
 31
0.0
 70
   163
  1
<>
 71
     5
 42
57.000173
  3
LC-DIM-D-0140-02-32
100
AcDbDiametricDimension
 15
184.621181
 25
248.84937
 35
0.0
 40
0.0
  0
LINE
  5
90
102
{ACAD_REACTORS
330
124
102
}
330
1F
100
AcDbEntity
  8
LC-001-002-----0
 62
     7
370
    50
100
AcDbLine
 10
358.821848
 20
215.182726
 30
0.0
 11
359.82184
 21
214.182722
 31
0.0
  0
LINE
  5
91
102
{ACAD_REACTORS
330
124
102
}
330
1F
100
AcDbEntity
  8
LC-001-002-----0
 62
     7
370
    50
100
AcDbLine
 10
351.622094
 20
247.182782
 30
0.0
 11
344.022094
 21
247.182826
 31
0.0
  0
LINE
  5
92
102
{ACAD_REACTORS
330
124
102
}
330
1F
100
AcDbEntity
  8
LC-001-002-----0
 62
     7
370
    50
100
AcDbLine
 10
352.021847
 20
215.182765
 30
0.0
 11
358.821848
 21
215.182726
 31
0.0
  0
LINE
  5
93
102
{ACAD_REACTORS
330
124
102
}
330
1F
100
AcDbEntity
  8
LC-001-002-----0
 62
     7
370
    50
100
AcDbLine
 10
299.821472
 20
152.006586
 30
0.0
 11
297.821472
 21
152.001923
 31
0.0
  0
LINE
  5
94
102
{ACAD_REACTORS
330
124
102
}
330
1F
100
AcDbEntity
  8
LC-001-002-----0
 62
     7
370
    50
100
AcDbLine
 10
343.622094
 20
247.182829
 30
0.0
 11
336.022094
 21
247.182872
 31
0.0
  0
ELLIPSE
  5
95
102
{ACAD_REACTORS
330
124
102
}
330
1F
100
AcDbEntity
  8
LC-001-002-----0
 62
     7
370
    50
100
AcDbEllipse
 10
313.821478
 20
152.004217
 30
0.0
 11
15.99999999949807
 21
-0.0001229050149390616
 31
0.0
210
0.0
220
0.0
230
1.0
 40
0.176327
 41
4.71238861321676
 42
6.283185362934626
  0
LINE
  5
96
102
{ACAD_REACTORS
330
124
102
}
330
1F
100
AcDbEntity
  8
LC-001-002-----0
 62
     7
370
    50
100
AcDbLine
 10
299.821472
 20
152.002063
 30
0.0
 11
299.82208
 21
231.183144
 31
0.0
  0
LINE
  5
97
102
{ACAD_REACTORS
330
124
102
}
330
1F
100
AcDbEntity
  8
LC-001-002-----0
 62
     7
370
    50
100
AcDbLine
 10
358.822093
 20
247.182728
 30
0.0
 11
358.821848
 21
215.182726
 31
0.0
  0
LINE
  5
98
102
{ACAD_REACTORS
330
124
102
}
330
1F
100
AcDbEntity
  8
LC-001-002-----0
 62
     7
370
    50
100
AcDbLine
 10
335.622093
 20
247.182913
 30
0.0
 11
323.822093
 21
247.183003
 31
0.0
  0
LINE
  5
99
102
{ACAD_REACTORS
330
124
102
}
330
1F
100
AcDbEntity
  8
LC-001-002-----0
 62
     7
370
    50
100
AcDbLine
 10
329.821467
 20
152.006356
 30
0.0
 11
327.821461
 21
152.00623
 31
0.0
  0
LINE
  5
9A
102
{ACAD_REACTORS
330
124
102
}
330
1F
100
AcDbEntity
  8
LC-001-002-----0
 62
     7
370
    50
100
AcDbLine
 10
359.822101
 20
250.682816
 30
0.0
 11
359.821752
 21
202.68272
 31
0.0
  0
LINE
  5
9B
102
{ACAD_REACTORS
330
124
102
}
330
1F
100
AcDbEntity
  8
LC-001-002-----0
 62
     7
370
    50
100
AcDbLine
 10
352.022094
 20
247.18278
 30
0.0
 11
352.021909
 21
215.182765
 31
0.0
  0
LINE
  5
9C
102
{ACAD_REACTORS
330
124
102
}
330
1F
100
AcDbEntity
  8
LC-001-002-----0
 62
     7
370
    50
100
AcDbLine
 10
351.621847
 20
215.182768
 30
0.0
 11
344.021847
 21
215.182811
 31
0.0
  0
DIMENSION
  5
9E
102
{ACAD_REACTORS
330
123
102
}
330
1F
100
AcDbEntity
  8
LC-003-003-----0
 62
     7
370
    25
100
AcDbDimension
  2
*D3
 10
297.821472
 20
125.997589
 30
0.0
 11
313.919344
 21
156.797589
 31
0.0
 70
   160
  1
%%c<>
 71
     5
 42
31.999995
  3
LC-DIM-L-0140-02-02
100
AcDbAlignedDimension
 13
329.821467
 23
152.006356
 33
0.0
 14
297.821472
 24
152.001923
 34
0.0
100
AcDbRotatedDimension
  0
LINE
  5
AD
102
{ACAD_REACTORS
330
124
102
}
330
1F
100
AcDbEntity
  8
LC-001-002-----0
 62
     7
370
    50
100
AcDbLine
 10
352.021847
 20
215.182765
 30
0.0
 11
351.821849
 21
215.382766
 31
0.0
  0
LINE
  5
AE
102
{ACAD_REACTORS
330
124
102
}
330
1F
100
AcDbEntity
  8
LC-001-002-----0
 62
     7
370
    50
100
AcDbLine
 10
344.021847
 20
215.182811
 30
0.0
 11
343.821849
 21
215.382812
 31
0.0
  0
LINE
  5
AF
102
{ACAD_REACTORS
330
124
102
}
330
1F
100
AcDbEntity
  8
LC-001-002-----0
 62
     7
370
    50
100
AcDbLine
 10
336.021847
 20
215.182857
 30
0.0
 11
335.821849
 21
215.382859
 31
0.0
  0
LINE
  5
B0
102
{ACAD_REACTORS
330
124
102
}
330
1F
100
AcDbEntity
  8
LC-001-002-----0
 62
     7
370
    50
100
AcDbLine
 10
351.822092
 20
246.982781
 30
0.0
 11
351.622094
 21
247.182782
 31
0.0
  0
LINE
  5
B1
102
{ACAD_REACTORS
330
124
102
}
330
1F
100
AcDbEntity
  8
LC-001-002-----0
 62
     7
370
    50
100
AcDbLine
 10
329.821467
 20
152.004095
 30
0.0
 11
329.821801
 21
209.024842
 31
0.0
  0
LINE
  5
B2
102
{ACAD_REACTORS
330
124
102
}
330
1F
100
AcDbEntity
  8
LC-001-002-----0
 62
     7
370
    50
100
AcDbLine
 10
343.822092
 20
246.982827
 30
0.0
 11
343.622094
 21
247.182829
 31
0.0
  0
LINE
  5
B3
102
{ACAD_REACTORS
330
124
102
}
330
1F
100
AcDbEntity
  8
LC-001-002-----0
 62
     7
370
    50
100
AcDbLine
 10
335.822092
 20
246.982874
 30
0.0
 11
335.622094
 21
247.182875
 31
0.0
  0
LINE
  5
B4
102
{ACAD_REACTORS
330
124
102
}
330
1F
100
AcDbEntity
  8
LC-001-002-----0
 62
     7
370
    50
100
AcDbLine
 10
352.022094
 20
247.18278
 30
0.0
 11
351.822092
 21
246.982781
 31
0.0
  0
LINE
  5
B5
102
{ACAD_REACTORS
330
124
102
}
330
1F
100
AcDbEntity
  8
LC-001-002-----0
 62
     7
370
    50
100
AcDbLine
 10
344.022094
 20
247.182826
 30
0.0
 11
343.822092
 21
246.982827
 31
0.0
  0
LINE
  5
B6
102
{ACAD_REACTORS
330
124
102
}
330
1F
100
AcDbEntity
  8
LC-001-002-----0
 62
     7
370
    50
100
AcDbLine
 10
336.022094
 20
247.182872
 30
0.0
 11
335.822092
 21
246.982874
 31
0.0
  0
LINE
  5
B7
102
{ACAD_REACTORS
330
124
102
}
330
1F
100
AcDbEntity
  8
LC-001-002-----0
 62
     7
370
    50
100
AcDbLine
 10
351.821849
 20
215.382766
 30
0.0
 11
351.621847
 21
215.182768
 31
0.0
  0
LINE
  5
B8
102
{ACAD_REACTORS
330
124
102
}
330
1F
100
AcDbEntity
  8
LC-001-002-----0
 62
     7
370
    50
100
AcDbLine
 10
343.821849
 20
215.382812
 30
0.0
 11
343.621847
 21
215.182814
 31
0.0
  0
LINE
  5
B9
102
{ACAD_REACTORS
330
124
102
}
330
1F
100
AcDbEntity
  8
LC-001-002-----0
 62
     7
370
    50
100
AcDbLine
 10
335.821849
 20
215.382859
 30
0.0
 11
335.621847
 21
215.18286
 31
0.0
  0
LINE
  5
BA
102
{ACAD_REACTORS
330
124
102
}
330
1F
100
AcDbEntity
  8
LC-001-002-----0
 62
     7
370
    50
100
AcDbLine
 10
335.621909
 20
215.18286
 30
0.0
 11
327.821837
 21
215.182905
 31
0.0
  0
LINE
  5
BB
102
{ACAD_REACTORS
330
124
102
}
330
1F
100
AcDbEntity
  8
LC-001-002-----0
 62
     7
370
    50
100
AcDbLine
 10
343.621847
 20
215.182814
 30
0.0
 11
336.021847
 21
215.182857
 31
0.0
  0
LINE
  5
BC
102
{ACAD_REACTORS
330
124
102
}
330
1F
100
AcDbEntity
  8
LC-001-002-----0
 62
     7
370
    50
100
AcDbLine
 10
351.622093
 20
247.182783
 30
0.0
 11
351.621909
 21
215.182768
 31
0.0
  0
LINE
  5
BD
102
{ACAD_REACTORS
330
124
102
}
330
1F
100
AcDbEntity
  8
LC-001-002-----0
 62
     7
370
    50
100
AcDbLine
 10
344.022093
 20
247.182842
 30
0.0
 11
344.021909
 21
215.182827
 31
0.0
  0
LINE
  5
BE
102
{ACAD_REACTORS
330
124
102
}
330
1F
100
AcDbEntity
  8
LC-001-002-----0
 62
     7
370
    50
100
AcDbLine
 10
343.622093
 20
247.182845
 30
0.0
 11
343.621909
 21
215.18283
 31
0.0
  0
LINE
  5
BF
102
{ACAD_REACTORS
330
124
102
}
330
1F
100
AcDbEntity
  8
LC-001-002-----0
 62
     7
370
    50
100
AcDbLine
 10
336.022093
 20
247.182903
 30
0.0
 11
336.021909
 21
215.182888
 31
0.0
  0
LINE
  5
C0
102
{ACAD_REACTORS
330
124
102
}
330
1F
100
AcDbEntity
  8
LC-001-002-----0
 62
     7
370
    50
100
AcDbLine
 10
335.622093
 20
247.182906
 30
0.0
 11
335.621909
 21
215.182891
 31
0.0
  0
LINE
  5
C1
102
{ACAD_REACTORS
330
124
102
}
330
1F
100
AcDbEntity
  8
LC-001-002-----0
 62
     7
370
    50
100
AcDbLine
 10
335.821849
 20
215.382859
 30
0.0
 11
335.822092
 21
246.982874
 31
0.0
  0
LINE
  5
C2
102
{ACAD_REACTORS
330
124
102
}
330
1F
100
AcDbEntity
  8
LC-001-002-----0
 62
     7
370
    50
100
AcDbLine
 10
343.821849
 20
215.382797
 30
0.0
 11
343.822092
 21
246.982812
 31
0.0
  0
LINE
  5
C3
102
{ACAD_REACTORS
330
124
102
}
330
1F
100
AcDbEntity
  8
LC-001-002-----0
 62
     7
370
    50
100
AcDbLine
 10
351.821849
 20
215.382736
 30
0.0
 11
351.822092
 21
246.982751
 31
0.0
  0
LINE
  5
C4
102
{ACAD_REACTORS
330
124
102
}
330
1F
100
AcDbEntity
  8
LC-001-002-----0
 62
     7
370
    50
100
AcDbLine
 10
351.822163
 20
256.182766
 30
0.0
 11
351.822134
 21
251.182766
 31
0.0
  0
LINE
  5
C5
102
{ACAD_REACTORS
330
124
102
}
330
1F
100
AcDbEntity
  8
LC-001-002-----0
 62
     7
370
    50
100
AcDbLine
 10
327.821467
 20
152.00623
 30
0.0
 11
327.821837
 21
215.182905
 31
0.0
  0
LINE
  5
C6
102
{ACAD_REACTORS
330
124
102
}
330
1F
100
AcDbEntity
  8
LC-001-002-----0
 62
     7
370
    50
100
AcDbLine
 10
297.821472
 20
152.001923
 30
0.0
 11
297.82208
 21
231.183159
 31
0.0
  0
LINE
  5
C7
102
{ACAD_REACTORS
330
124
102
}
330
1F
100
AcDbEntity
  8
LC-001-002-----0
 62
     7
370
    50
100
AcDbLine
 10
328.251922
 20
247.182969
 30
0.0
 11
328.251922
 21
247.182902
 31
0.0
  0
LINE
  5
C8
102
{ACAD_REACTORS
330
124
102
}
330
1F
100
AcDbEntity
  8
LC-001-002-----0
 62
     7
370
    50
100
AcDbLine
 10
323.82207
 20
244.183018
 30
0.0
 11
312.82218
 21
244.183103
 31
0.0
  0
LINE
  5
C9
102
{ACAD_REACTORS
330
124
102
}
330
1F
100
AcDbEntity
  8
LC-001-002-----0
 62
     7
370
    50
100
AcDbLine
 10
351.822163
 20
256.182766
 30
0.0
 11
348.93537
 21
251.182783
 31
0.0
  0
LINE
  5
CA
102
{ACAD_REACTORS
330
124
102
}
330
1F
100
AcDbEntity
  8
LC-001-002-----0
 62
     7
370
    50
100
AcDbLine
 10
344.822163
 20
256.182807
 30
0.0
 11
341.93537
 21
251.182823
 31
0.0
  0
LINE
  5
CB
102
{ACAD_REACTORS
330
124
102
}
330
1F
100
AcDbEntity
  8
LC-001-002-----0
 62
     7
370
    50
100
AcDbLine
 10
337.822163
 20
256.182847
 30
0.0
 11
334.93537
 21
251.182864
 31
0.0
  0
LINE
  5
CC
102
{ACAD_REACTORS
330
124
102
}
330
1F
100
AcDbEntity
  8
LC-001-002-----0
 62
     7
370
    50
100
AcDbLine
 10
351.821778
 20
206.182766
 30
0.0
 11
348.935069
 21
211.182783
 31
0.0
  0
LINE
  5
CD
102
{ACAD_REACTORS
330
124
102
}
330
1F
100
AcDbEntity
  8
LC-001-002-----0
 62
     7
370
    50
100
AcDbLine
 10
344.821778
 20
206.182807
 30
0.0
 11
341.935069
 21
211.182823
 31
0.0
  0
LINE
  5
CE
102
{ACAD_REACTORS
330
124
102
}
330
1F
100
AcDbEntity
  8
LC-001-002-----0
 62
     7
370
    50
100
AcDbLine
 10
337.821778
 20
206.182847
 30
0.0
 11
334.935069
 21
211.182864
 31
0.0
  0
LINE
  5
CF
102
{ACAD_REACTORS
330
124
102
}
330
1F
100
AcDbEntity
  8
LC-001-002-----0
 62
     7
370
    50
100
AcDbLine
 10
344.822163
 20
256.182807
 30
0.0
 11
344.822134
 21
251.182807
 31
0.0
  0
LINE
  5
D0
102
{ACAD_REACTORS
330
124
102
}
330
1F
100
AcDbEntity
  8
LC-001-002-----0
 62
     7
370
    50
100
AcDbLine
 10
337.822163
 20
256.182847
 30
0.0
 11
337.822134
 21
251.182847
 31
0.0
  0
LINE
  5
D1
102
{ACAD_REACTORS
330
124
102
}
330
1F
100
AcDbEntity
  8
LC-001-002-----0
 62
     7
370
    50
100
AcDbLine
 10
337.821817
 20
211.182847
 30
0.0
 11
337.821788
 21
206.182847
 31
0.0
  0
LINE
  5
D2
102
{ACAD_REACTORS
330
124
102
}
330
1F
100
AcDbEntity
  8
LC-001-002-----0
 62
     7
370
    50
100
AcDbLine
 10
344.821817
 20
211.182807
 30
0.0
 11
344.821788
 21
206.182807
 31
0.0
  0
LINE
  5
D3
102
{ACAD_REACTORS
330
124
102
}
330
1F
100
AcDbEntity
  8
LC-001-002-----0
 62
     7
370
    50
100
AcDbLine
 10
351.821817
 20
211.182766
 30
0.0
 11
351.821778
 21
206.182766
 31
0.0
  0
LINE
  5
D4
102
{ACAD_REACTORS
330
124
102
}
330
1F
100
AcDbEntity
  8
LC-001-002-----0
 62
     7
370
    50
100
AcDbLine
 10
337.822134
 20
251.182847
 30
0.0
 11
341.93537
 21
251.182815
 31
0.0
  0
LINE
  5
D5
102
{ACAD_REACTORS
330
124
102
}
330
1F
100
AcDbEntity
  8
LC-001-002-----0
 62
     7
370
    50
100
AcDbLine
 10
344.822134
 20
251.182807
 30
0.0
 11
348.93537
 21
251.182775
 31
0.0
  0
LINE
  5
D6
102
{ACAD_REACTORS
330
124
102
}
330
1F
100
AcDbEntity
  8
LC-001-002-----0
 62
     7
370
    50
100
AcDbLine
 10
351.822134
 20
251.182766
 30
0.0
 11
355.822124
 21
251.182736
 31
0.0
  0
LINE
  5
D7
102
{ACAD_REACTORS
330
124
102
}
330
1F
100
AcDbEntity
  8
LC-001-002-----0
 62
     7
370
    50
100
AcDbLine
 10
359.822189
 20
259.68272
 30
0.0
 11
356.822189
 21
259.682743
 31
0.0
  0
LINE
  5
D8
102
{ACAD_REACTORS
330
124
102
}
330
1F
100
AcDbEntity
  8
LC-001-002-----0
 62
     7
370
    50
100
AcDbLine
 10
356.822189
 20
259.682738
 30
0.0
 11
356.822169
 21
256.182738
 31
0.0
  0
LINE
  5
D9
102
{ACAD_REACTORS
330
124
102
}
330
1F
100
AcDbEntity
  8
LC-001-002-----0
 62
     7
370
    50
100
AcDbLine
 10
356.822169
 20
256.182738
 30
0.0
 11
355.822155
 21
255.182743
 31
0.0
  0
LINE
  5
DA
102
{ACAD_REACTORS
330
124
102
}
330
1F
100
AcDbEntity
  8
LC-001-002-----0
 62
     7
370
    50
100
AcDbLine
 10
355.822155
 20
255.182743
 30
0.0
 11
355.822124
 21
251.182736
 31
0.0
  0
LINE
  5
DB
102
{ACAD_REACTORS
330
124
102
}
330
1F
100
AcDbEntity
  8
LC-001-002-----0
 62
     7
370
    50
100
AcDbLine
 10
359.821861
 20
202.68272
 30
0.0
 11
356.821861
 21
202.682732
 31
0.0
  0
LINE
  5
DC
102
{ACAD_REACTORS
330
124
102
}
330
1F
100
AcDbEntity
  8
LC-001-002-----0
 62
     7
370
    50
100
AcDbLine
 10
334.93537
 20
251.182864
 30
0.0
 11
332.822124
 21
251.182876
 31
0.0
  0
LINE
  5
DD
102
{ACAD_REACTORS
330
124
102
}
330
1F
100
AcDbEntity
  8
LC-001-002-----0
 62
     7
370
    50
100
AcDbLine
 10
332.822124
 20
251.182876
 30
0.0
 11
332.822146
 21
254.425139
 31
0.0
  0
ARC
  5
DE
102
{ACAD_REACTORS
330
124
102
}
330
1F
100
AcDbEntity
  8
LC-001-002-----0
 62
     7
370
    50
100
AcDbCircle
 10
312.82208
 20
231.183044
 30
0.0
 40
12.99999999999999
100
AcDbArc
 50
89.99956
 51
179.99956
  0
LINE
  5
DF
102
{ACAD_REACTORS
330
124
102
}
330
1F
100
AcDbEntity
  8
LC-001-002-----0
 62
     7
370
    50
100
AcDbLine
 10
307.687948
 20
245.277039
 30
0.0
 11
332.822146
 21
254.425139
 31
0.0
  0
ARC
  5
E0
102
{ACAD_REACTORS
330
124
102
}
330
1F
100
AcDbEntity
  8
LC-001-002-----0
 62
     7
370
    50
100
AcDbCircle
 10
312.82208
 20
231.183044
 30
0.0
 40
14.99999999999998
100
AcDbArc
 50
110.01557
 51
179.99961
  0
LINE
  5
E1
102
{ACAD_REACTORS
330
124
102
}
330
1F
100
AcDbEntity
  8
LC-001-002-----0
 62
     7
370
    50
100
AcDbLine
 10
356.821861
 20
202.682738
 30
0.0
 11
356.821881
 21
206.182738
 31
0.0
  0
LINE
  5
E2
102
{ACAD_REACTORS
330
124
102
}
330
1F
100
AcDbEntity
  8
LC-001-002-----0
 62
     7
370
    50
100
AcDbLine
 10
356.821881
 20
206.182738
 30
0.0
 11
355.821878
 21
207.182743
 31
0.0
  0
LINE
  5
E3
102
{ACAD_REACTORS
330
124
102
}
330
1F
100
AcDbEntity
  8
LC-001-002-----0
 62
     7
370
    50
100
AcDbLine
 10
355.821878
 20
207.182743
 30
0.0
 11
355.821894
 21
211.182751
 31
0.0
  0
LINE
  5
E4
102
{ACAD_REACTORS
330
124
102
}
330
1F
100
AcDbEntity
  8
LC-001-002-----0
 62
     7
370
    50
100
AcDbLine
 10
351.821903
 20
211.182766
 30
0.0
 11
355.821894
 21
211.182751
 31
0.0
  0
LINE
  5
E5
102
{ACAD_REACTORS
330
124
102
}
330
1F
100
AcDbEntity
  8
LC-001-002-----0
 62
     7
370
    50
100
AcDbLine
 10
344.821903
 20
211.182807
 30
0.0
 11
348.935139
 21
211.182791
 31
0.0
  0
LINE
  5
E6
102
{ACAD_REACTORS
330
124
102
}
330
1F
100
AcDbEntity
  8
LC-001-002-----0
 62
     7
370
    50
100
AcDbLine
 10
337.821903
 20
211.182847
 30
0.0
 11
341.935139
 21
211.182831
 31
0.0
  0
LINE
  5
E7
102
{ACAD_REACTORS
330
124
102
}
330
1F
100
AcDbEntity
  8
LC-001-002-----0
 62
     7
370
    50
100
AcDbLine
 10
334.935139
 20
211.182864
 30
0.0
 11
332.821894
 21
211.182876
 31
0.0
  0
LINE
  5
E8
102
{ACAD_REACTORS
330
124
102
}
330
1F
100
AcDbEntity
  8
LC-001-002-----0
 62
     7
370
    50
100
AcDbLine
 10
332.821894
 20
211.182876
 30
0.0
 11
332.821881
 21
207.932876
 31
0.0
  0
ARC
  5
E9
102
{ACAD_REACTORS
330
122
102
}
330
1F
100
AcDbEntity
  8
LC-001-002-----0
 62
     7
370
    50
100
AcDbCircle
 10
206.985097
 20
231.182729
 30
0.0
 40
28.50008632715016
100
AcDbArc
 50
193.183441
 51
166.816559
  0
LINE
  5
EA
102
{ACAD_REACTORS
330
124
102
}
330
1F
100
AcDbEntity
  8
LC-001-002-----0
 62
     7
370
    50
100
AcDbLine
 10
332.821881
 20
207.932876
 30
0.0
 11
329.821801
 21
209.024842
 31
0.0
  0
LINE
  5
EB
102
{ACAD_REACTORS
330
124
102
}
330
1F
100
AcDbEntity
  8
LC-001-002-----0
 62
     7
370
    50
100
AcDbLine
 10
329.821837
 20
215.182893
 30
0.0
 11
329.821837
 21
215.182893
 31
0.0
  0
LINE
  5
EC
102
{ACAD_REACTORS
330
124
102
}
330
1F
100
AcDbEntity
  8
LC-001-002-----0
 62
     7
370
    50
100
AcDbLine
 10
323.822093
 20
247.183003
 30
0.0
 11
323.821895
 21
221.336285
 31
0.0
  0
CIRCLE
  5
ED
102
{ACAD_REACTORS
330
122
102
}
330
1F
100
AcDbEntity
  8
LC-001-002-----0
 62
     7
370
    50
100
AcDbCircle
 10
206.985097
 20
231.182727
 30
0.0
 40
17.00008833781124
  0
CIRCLE
  5
EE
102
{ACAD_REACTORS
330
122
102
}
330
1F
100
AcDbEntity
  8
LC-001-002-----0
 62
     7
370
    50
100
AcDbCircle
 10
206.985097
 20
231.182727
 30
0.0
 40
16.00008833781118
  0
ARC
  5
EF
102
{ACAD_REACTORS
330
122
102
}
330
1F
100
AcDbEntity
  8
LC-001-002-----0
  6
DASHED
 62
     7
370
    25
100
AcDbCircle
 10
206.985097
 20
231.182729
 30
0.0
 40
25.00008056603463
100
AcDbArc
 50
191.47925
 51
168.52075
  0
CIRCLE
  5
F0
102
{ACAD_REACTORS
330
122
102
}
330
1F
100
AcDbEntity
  8
LC-001-002-----0
  6
DASHED
 62
     7
370
    25
100
AcDbCircle
 10
206.985097
 20
231.182729
 30
0.0
 40
24.00007864562997
  0
CIRCLE
  5
F1
102
{ACAD_REACTORS
330
122
102
}
330
1F
100
AcDbEntity
  8
LC-001-002-----0
  6
DASHED
 62
     7
370
    25
100
AcDbCircle
 10
206.985097
 20
231.182727
 30
0.0
 40
23.25003648723339
  0
LINE
  5
F4
102
{ACAD_REACTORS
330
122
102
}
330
1F
100
AcDbEntity
  8
LC-004-006-MLN-0
 62
     7
370
    25
100
AcDbLine
 10
182.485097
 20
229.682837
 30
0.0
 11
231.485097
 21
229.682837
 31
0.0
  0
CIRCLE
  5
F5
102
{ACAD_REACTORS
330
122
102
}
330
1F
100
AcDbEntity
  8
LC-001-002-----0
 62
     7
370
    50
100
AcDbCircle
 10
206.985097
 20
229.682837
 30
0.0
 40
14.5
  0
CIRCLE
  5
F6
102
{ACAD_REACTORS
330
122
102
}
330
1F
100
AcDbEntity
  8
LC-001-002-----0
 62
     7
370
    50
100
AcDbCircle
 10
206.985097
 20
231.182729
 30
0.0
 40
15.80005521682625
  0
LINE
  5
F7
102
{ACAD_REACTORS
330
122
102
}
330
1F
100
AcDbEntity
  8
LC-001-002-----0
 62
     7
370
    50
100
AcDbLine
 10
222.985097
 20
207.597672
 30
0.0
 11
222.985097
 21
149.182727
 31
0.0
  0
LINE
  5
F8
102
{ACAD_REACTORS
330
122
102
}
330
1F
100
AcDbEntity
  8
LC-001-002-----0
 62
     7
370
    50
100
AcDbLine
 10
190.985097
 20
207.597672
 30
0.0
 11
190.985097
 21
154.825191
 31
0.0
  0
LINE
  5
F9
102
{ACAD_REACTORS
330
122
102
}
330
1F
100
AcDbEntity
  8
LC-004-006-MLN-0
 62
     7
370
    25
100
AcDbLine
 10
245.485183
 20
231.182729
 30
0.0
 11
172.485097
 21
231.182729
 31
0.0
  0
LINE
  5
FA
102
{ACAD_REACTORS
330
122
102
}
330
1F
100
AcDbEntity
  8
LC-004-006-MLN-0
 62
     7
370
    25
100
AcDbLine
 10
206.985097
 20
269.682816
 30
0.0
 11
206.985097
 21
139.182727
 31
0.0
  0
LINE
  5
FB
102
{ACAD_REACTORS
330
124
102
}
330
1F
100
AcDbEntity
  8
LC-001-002-----0
 62
     7
370
    50
100
AcDbLine
 10
313.82145
 20
149.182985
 30
0.0
 11
313.821438
 21
149.182985
 31
0.0
  0
ELLIPSE
  5
FC
102
{ACAD_REACTORS
330
124
102
}
330
1F
100
AcDbEntity
  8
LC-001-002-----0
 62
     7
370
    50
100
AcDbEllipse
 10
313.821466
 20
152.004217
 30
0.0
 11
15.9999999995249
 21
-0.00012290501580809
 31
0.0
210
0.0
220
0.0
230
0.9999999999999999
 40
0.176327
 41
3.141592653589793
 42
4.712389347552619
  0
ELLIPSE
  5
FD
102
{ACAD_REACTORS
330
124
102
}
330
1F
100
AcDbEntity
  8
LC-001-002-----0
 62
     7
370
    50
100
AcDbEllipse
 10
313.821466
 20
152.004217
 30
0.0
 11
13.99999999960259
 21
-0.0001075418888322194
 31
0.0
210
0.0
220
0.0
230
1.0
 40
0.176327
 41
3.140676550968102
 42
6.284044458016422
  0
ELLIPSE
  5
FE
102
{ACAD_REACTORS
330
124
102
}
330
1F
100
AcDbEntity
  8
LC-001-002-----0
 62
     7
370
    50
100
AcDbEllipse
 10
313.821466
 20
152.004217
 30
0.0
 11
15.99999999952484
 21
-0.0001240848713955769
 31
0.0
210
0.0
220
0.0
230
1.0
 40
0.176327
 41
3.140735706142436
 42
3.141591788295388
  0
ARC
  5
100
102
{ACAD_REACTORS
330
124
102
}
330
1F
100
AcDbEntity
  8
LC-005-002-RND-0
 62
     7
370
    50
100
AcDbCircle
 10
365.321871
 20
259.182647
 30
0.0
 40
0.4999999999999723
100
AcDbArc
 50
359.99956
 51
89.99956
  0
CIRCLE
  5
101
102
{ACAD_REACTORS
330
122
102
}
330
1F
100
AcDbEntity
  8
LC-001-002-----0
  6
DASHED
 62
     7
370
    25
100
AcDbCircle
 10
206.985097
 20
231.182727
 30
0.0
 40
20.00003648723339
  0
LINE
  5
104
330
1F
100
AcDbEntity
  8
LC-006-007-KH--0
 62
     7
370
    13
100
AcDbLine
 10
307.687948
 20
245.277039
 30
0.0
 11
332.822146
 21
254.425139
 31
0.0
  0
LINE
  5
105
102
{ACAD_REACTORS
330
122
102
}
330
1F
100
AcDbEntity
  8
LC-001-002-----0
 62
     7
370
    50
100
AcDbLine
 10
190.985097
 20
154.825191
 30
0.0
 11
222.985097
 21
149.182727
 31
0.0
  0
LINE
  5
106
102
{ACAD_REACTORS
330
122
102
}
330
1F
100
AcDbEntity
  8
LC-001-002-----0
 62
     7
370
    50
100
AcDbLine
 10
179.236134
 20
224.682729
 30
0.0
 11
182.485097
 21
224.682729
 31
0.0
  0
ELLIPSE
  5
107
102
{ACAD_REACTORS
330
124
102
}
330
1F
100
AcDbEntity
  8
LC-001-002-----0
 62
     7
370
    50
100
AcDbEllipse
 10
313.821466
 20
152.004217
 30
0.0
 11
15.99999999952484
 21
-0.0001240848713955769
 31
0.0
210
0.0
220
0.0
230
1.0
 40
0.176327
 41
0.000141468567006
 42
0.0008022931724806
  0
DIMENSION
  5
108
102
{ACAD_REACTORS
330
123
102
}
330
1F
100
AcDbEntity
  8
LC-003-003-----0
 62
     7
370
    25
100
AcDbDimension
  2
*D4
 10
148.977016
 20
149.182727
 30
0.0
 11
118.177016
 21
188.298
 31
0.0
 70
   160
 71
     5
 42
82.000002
 53
90.0
  3
LC-DIM-L-0140-02-02
100
AcDbAlignedDimension
 13
235.485183
 23
231.182729
 33
0.0
 14
222.985097
 24
149.182727
 34
0.0
 50
90.0
100
AcDbRotatedDimension
  0
LINE
  5
115
102
{ACAD_REACTORS
330
122
102
}
330
1F
100
AcDbEntity
  8
LC-001-002-----0
 62
     7
370
    50
100
AcDbLine
 10
205.485097
 20
250.682816
 30
0.0
 11
208.485097
 21
250.682816
 31
0.0
  0
LINE
  5
116
102
{ACAD_REACTORS
330
122
102
}
330
1F
100
AcDbEntity
  8
LC-001-002-----0
 62
     7
370
    50
100
AcDbLine
 10
182.485097
 20
224.682729
 30
0.0
 11
182.485097
 21
237.682729
 31
0.0
  0
LINE
  5
117
102
{ACAD_REACTORS
330
122
102
}
330
1F
100
AcDbEntity
  8
LC-001-002-----0
 62
     7
370
    50
100
AcDbLine
 10
179.236134
 20
237.682729
 30
0.0
 11
182.485097
 21
237.682729
 31
0.0
  0
ARC
  5
118
102
{ACAD_REACTORS
330
124
102
}
330
1F
100
AcDbEntity
  8
LC-005-002-RND-0
 62
     7
370
    50
100
AcDbCircle
 10
365.321791
 20
251.182743
 30
0.0
 40
0.5000000000000291
100
AcDbArc
 50
269.99956
 51
359.99956
  0
LINE
  5
119
102
{ACAD_REACTORS
330
124
102
}
330
1F
100
AcDbEntity
  8
LC-001-002-----0
 62
     7
370
    50
100
AcDbLine
 10
359.822101
 20
250.682816
 30
0.0
 11
365.321787
 21
250.682743
 31
0.0
  0
LINE
  5
11A
330
1F
100
AcDbEntity
  8
LC-001-002-----0
 62
     7
370
    50
100
AcDbLine
 10
205.485097
 20
259.643315
 30
0.0
 11
205.485097
 21
259.643315
 31
0.0
  0
LINE
  5
11B
102
{ACAD_REACTORS
330
122
102
}
330
1F
100
AcDbEntity
  8
LC-001-002-----0
 62
     7
370
    50
100
AcDbLine
 10
208.485097
 20
259.643315
 30
0.0
 11
208.485097
 21
250.682816
 31
0.0
  0
LINE
  5
11C
102
{ACAD_REACTORS
330
122
102
}
330
1F
100
AcDbEntity
  8
LC-001-002-----0
 62
     7
370
    50
100
AcDbLine
 10
205.485097
 20
259.643315
 30
0.0
 11
205.485097
 21
250.682816
 31
0.0
  0
LINE
  5
11D
102
{ACAD_REACTORS
330
124
102
}
330
1F
100
AcDbEntity
  8
LC-001-002-----0
 62
     7
370
    50
100
AcDbLine
 10
359.822189
 20
259.68272
 30
0.0
 11
365.321875
 21
259.682647
 31
0.0
  0
LINE
  5
11E
102
{ACAD_REACTORS
330
124
102
}
330
1F
100
AcDbEntity
  8
LC-001-002-----0
 62
     7
370
    50
100
AcDbLine
 10
365.821871
 20
259.182643
 30
0.0
 11
365.821791
 21
251.182739
 31
0.0
  0
LINE
  5
11F
102
{ACAD_REACTORS
330
124
102
}
330
1F
100
AcDbEntity
  8
LC-004-006-MLN-0
 62
     7
370
    25
100
AcDbLine
 10
313.821362
 20
139.182985
 30
0.0
 11
313.822174
 21
244.927258
 31
0.0
  0
LINE
  5
120
102
{ACAD_REACTORS
330
124
102
}
330
1F
100
AcDbEntity
  8
LC-004-006-MLN-0
 62
     7
370
    25
100
AcDbLine
 10
369.821971
 20
231.182557
 30
0.0
 11
313.821971
 21
231.182987
 31
0.0
  0
LINE
  5
121
102
{ACAD_REACTORS
330
124
102
}
330
1F
100
AcDbEntity
  8
LC-004-006-MLN-0
 62
     7
370
    25
100
AcDbLine
 10
333.821959
 20
229.682834
 30
0.0
 11
289.822068
 21
229.683172
 31
0.0
  0
ENDSEC
  0
SECTION
  2
OBJECTS
  0
DICTIONARY
  5
C
330
0
100
AcDbDictionary
281
     1
  3
ACAD_GROUP
350
D
  3
ACAD_LAYOUT
350
1A
  3
ACAD_MLINESTYLE
350
17
  3
ACAD_PLOTSETTINGS
350
19
  3
ACAD_PLOTSTYLENAME
350
E
  0
DICTIONARY
  5
D
102
{ACAD_REACTORS
330
C
102
}
330
C
100
AcDbDictionary
281
     1
  3
LCGROUP310
350
122
  3
LCGROUP354
350
123
  3
LCGROUP371
350
124
  0
DICTIONARY
  5
1A
102
{ACAD_REACTORS
330
C
102
}
330
C
100
AcDbDictionary
281
     1
  3
Layout1
350
1E
  3
Layout2
350
26
  3
Model
350
22
  0
DICTIONARY
  5
17
102
{ACAD_REACTORS
330
C
102
}
330
C
100
AcDbDictionary
281
     1
  3
Standard
350
18
  0
DICTIONARY
  5
19
102
{ACAD_REACTORS
330
C
102
}
330
C
100
AcDbDictionary
281
     1
  0
ACDBDICTIONARYWDFLT
  5
E
102
{ACAD_REACTORS
330
C
102
}
330
C
100
AcDbDictionary
281
     1
  3
Normal
350
F
100
AcDbDictionaryWithDefault
340
F
  0
GROUP
  5
122
102
{ACAD_REACTORS
330
D
102
}
330
D
100
AcDbGroup
300
schnorch va
 70
     1
 71
     1
340
E9
340
ED
340
EE
340
EF
340
F0
340
F1
340
F4
340
F5
340
F6
340
F7
340
F8
340
F9
340
FA
340
101
340
105
340
106
340
115
340
116
340
117
340
11B
340
11C
  0
GROUP
  5
123
102
{ACAD_REACTORS
330
D
102
}
330
D
100
AcDbGroup
300
Bemaß
 70
     1
 71
     1
340
9E
340
108
  0
GROUP
  5
124
102
{ACAD_REACTORS
330
D
102
}
330
D
100
AcDbGroup
300
geruchverschlsch
 70
     1
 71
     1
340
31
340
32
340
90
340
91
340
92
340
93
340
94
340
95
340
96
340
97
340
98
340
99
340
9A
340
9B
340
9C
340
AD
340
AE
340
AF
340
B0
340
B1
340
B2
340
B3
340
B4
340
B5
340
B6
340
B7
340
B8
340
B9
340
BA
340
BB
340
BC
340
BD
340
BE
340
BF
340
C0
340
C1
340
C2
340
C3
340
C4
340
C5
340
C6
340
C7
340
C8
340
C9
340
CA
340
CB
340
CC
340
CD
340
CE
340
CF
340
D0
340
D1
340
D2
340
D3
340
D4
340
D5
340
D6
340
D7
340
D8
340
D9
340
DA
340
DB
340
DC
340
DD
340
DE
340
DF
340
E0
340
E1
340
E2
340
E3
340
E4
340
E5
340
E6
340
E7
340
E8
340
EA
340
EB
340
EC
340
FB
340
FC
340
FD
340
FE
340
100
340
107
340
118
340
119
340
11D
340
11E
340
11F
340
120
340
121
  0
LAYOUT
  5
1E
102
{ACAD_REACTORS
330
1A
102
}
330
1A
100
AcDbPlotSettings
  1

  2

  4

  6

 40
0.0
 41
0.0
 42
0.0
 43
0.0
 44
0.0
 45
0.0
 46
0.0
 47
0.0
 48
0.0
 49
0.0
140
0.0
141
0.0
142
1.0
143
1.0
 70
   688
 72
     0
 73
     0
 74
     5
  7

 75
    16
147
1.0
148
0.0
149
0.0
100
AcDbLayout
  1
Layout1
 70
     1
 71
     1
 10
-210.0
 20
-148.5
 11
630.0
 21
445.5
 12
0.0
 22
0.0
 32
0.0
 14
-210.0
 24
-148.5
 34
0.0
 15
630.0
 25
445.5
 35
0.0
146
0.0
 13
0.0
 23
0.0
 33
0.0
 16
1.0
 26
0.0
 36
0.0
 17
0.0
 27
1.0
 37
0.0
 76
     0
330
1B
  0
LAYOUT
  5
26
102
{ACAD_REACTORS
330
1A
102
}
330
1A
100
AcDbPlotSettings
  1

  2

  4

  6

 40
0.0
 41
0.0
 42
0.0
 43
0.0
 44
0.0
 45
0.0
 46
0.0
 47
0.0
 48
0.0
 49
0.0
140
0.0
141
0.0
142
1.0
143
1.0
 70
   688
 72
     0
 73
     0
 74
     5
  7

 75
    16
147
1.0
148
0.0
149
0.0
100
AcDbLayout
  1
Layout2
 70
     1
 71
     2
 10
0.0
 20
0.0
 11
0.0
 21
0.0
 12
0.0
 22
0.0
 32
0.0
 14
0.0
 24
0.0
 34
0.0
 15
0.0
 25
0.0
 35
0.0
146
0.0
 13
0.0
 23
0.0
 33
0.0
 16
1.0
 26
0.0
 36
0.0
 17
0.0
 27
1.0
 37
0.0
 76
     0
330
23
  0
LAYOUT
  5
22
102
{ACAD_REACTORS
330
1A
102
}
330
1A
100
AcDbPlotSettings
  1

  2

  4

  6

 40
0.0
 41
0.0
 42
0.0
 43
0.0
 44
0.0
 45
0.0
 46
0.0
 47
0.0
 48
0.0
 49
0.0
140
0.0
141
0.0
142
1.0
143
1.0
 70
  1776
 72
     0
 73
     0
 74
     0
  7

 75
     0
147
1.0
148
0.0
149
0.0
100
AcDbLayout
  1
Model
 70
     1
 71
     0
 10
-210.0
 20
-148.5
 11
630.0
 21
445.5
 12
0.0
 22
0.0
 32
0.0
 14
-210.0
 24
-148.5
 34
0.0
 15
630.0
 25
445.5
 35
0.0
146
0.0
 13
0.0
 23
0.0
 33
0.0
 16
1.0
 26
0.0
 36
0.0
 17
0.0
 27
1.0
 37
0.0
 76
     0
330
1F
  0
MLINESTYLE
  5
18
102
{ACAD_REACTORS
330
17
102
}
330
17
100
AcDbMlineStyle
  2
Standard
 70
     0
  3

 62
   256
 51
90.0
 52
90.0
 71
     2
 49
0.5
 62
   256
  6
BYLAYER
 49
-0.5
 62
   256
  6
BYLAYER
  0
ACDBPLACEHOLDER
  5
F
102
{ACAD_REACTORS
330
E
102
}
330
E
  0
ENDSEC
  0
EOF
