  0
SECTION
  2
HEADER
  9
$ACADVER
  1
AC1015
  9
$ACADMAINTVER
 70
     6
  9
$DWGCODEPAGE
  3
DOS850
  9
$INSBASE
 10
-109.159416
 20
89.664
 30
0.0
  9
$EXTMIN
 10
-319.159416
 20
-58.836
 30
0.0
  9
$EXTMAX
 10
520.840584
 20
535.164
 30
0.0
  9
$LIMMIN
 10
-319.159416
 20
-58.836
  9
$LIMMAX
 10
520.840584
 20
535.164
  9
$ORTHOMODE
 70
     0
  9
$REGENMODE
 70
     1
  9
$FILLMODE
 70
     1
  9
$QTEXTMODE
 70
     0
  9
$MIRRTEXT
 70
     1
  9
$LTSCALE
 40
2.0
  9
$ATTMODE
 70
     1
  9
$TEXTSIZE
 40
2.5
  9
$TRACEWID
 40
1.0
  9
$TEXTSTYLE
  7
Standard
  9
$CLAYER
  8
0
  9
$CELTYPE
  6
ByLayer
  9
$CECOLOR
 62
     7
  9
$CELTSCALE
 40
1.0
  9
$DISPSILH
 70
     0
  9
$DIMSCALE
 40
2.0
  9
$DIMASZ
 40
3.5
  9
$DIMEXO
 40
0.625
  9
$DIMDLI
 40
3.75
  9
$DIMRND
 40
0.0
  9
$DIMDLE
 40
0.0
  9
$DIMEXE
 40
1.25
  9
$DIMTP
 40
0.0
  9
$DIMTM
 40
0.0
  9
$DIMTXT
 40
3.5
  9
$DIMCEN
 40
2.5
  9
$DIMTSZ
 40
0.0
  9
$DIMTOL
 70
     0
  9
$DIMLIM
 70
     0
  9
$DIMTIH
 70
     0
  9
$DIMTOH
 70
     0
  9
$DIMSE1
 70
     0
  9
$DIMSE2
 70
     0
  9
$DIMTAD
 70
     1
  9
$DIMZIN
 70
     8
  9
$DIMBLK
  1

  9
$DIMASO
 70
     1
  9
$DIMSHO
 70
     1
  9
$DIMPOST
  1

  9
$DIMAPOST
  1

  9
$DIMALT
 70
     0
  9
$DIMALTD
 70
     3
  9
$DIMALTF
 40
0.03937
  9
$DIMLFAC
 40
1.0
  9
$DIMTOFL
 70
     1
  9
$DIMTVP
 40
0.0
  9
$DIMTIX
 70
     0
  9
$DIMSOXD
 70
     0
  9
$DIMSAH
 70
     0
  9
$DIMBLK1
  1

  9
$DIMBLK2
  1

  9
$DIMSTYLE
  2
ISO-25
  9
$DIMCLRD
 70
     0
  9
$DIMCLRE
 70
     0
  9
$DIMCLRT
 70
     0
  9
$DIMTFAC
 40
1.0
  9
$DIMGAP
 40
0.625
  9
$DIMJUST
 70
     0
  9
$DIMSD1
 70
     0
  9
$DIMSD2
 70
     0
  9
$DIMTOLJ
 70
     0
  9
$DIMTZIN
 70
     8
  9
$DIMALTZ
 70
     0
  9
$DIMALTTZ
 70
     0
  9
$DIMUPT
 70
     0
  9
$DIMDEC
 70
     2
  9
$DIMTDEC
 70
     2
  9
$DIMALTU
 70
     2
  9
$DIMALTTD
 70
     3
  9
$DIMTXSTY
  7
Standard
  9
$DIMAUNIT
 70
     0
  9
$DIMADEC
 70
     0
  9
$DIMALTRND
 40
0.0
  9
$DIMAZIN
 70
     0
  9
$DIMDSEP
 70
    44
  9
$DIMATFIT
 70
     3
  9
$DIMFRAC
 70
     0
  9
$DIMLDRBLK
  1

  9
$DIMLUNIT
 70
     2
  9
$DIMLWD
 70
    -2
  9
$DIMLWE
 70
    -2
  9
$DIMTMOVE
 70
     0
  9
$LUNITS
 70
     2
  9
$LUPREC
 70
     4
  9
$SKETCHINC
 40
1.0
  9
$FILLETRAD
 40
10.0
  9
$AUNITS
 70
     0
  9
$AUPREC
 70
     0
  9
$MENU
  1
.
  9
$ELEVATION
 40
0.0
  9
$PELEVATION
 40
0.0
  9
$THICKNESS
 40
0.0
  9
$LIMCHECK
 70
     0
  9
$CHAMFERA
 40
10.0
  9
$CHAMFERB
 40
10.0
  9
$CHAMFERC
 40
20.0
  9
$CHAMFERD
 40
0.0
  9
$SKPOLY
 70
     0
  9
$TDCREATE
 40
2453663.385872558
  9
$TDUCREATE
 40
2453663.302539225
  9
$TDUPDATE
 40
2453663.385872569
  9
$TDUUPDATE
 40
2453663.302539236
  9
$TDINDWG
 40
0.0000000116
  9
$TDUSRTIMER
 40
0.0000000116
  9
$USRTIMER
 70
     1
  9
$ANGBASE
 50
0.0
  9
$ANGDIR
 70
     0
  9
$PDMODE
 70
     0
  9
$PDSIZE
 40
0.0
  9
$PLINEWID
 40
0.0
  9
$SPLFRAME
 70
     0
  9
$SPLINETYPE
 70
     6
  9
$SPLINESEGS
 70
     8
  9
$HANDSEED
  5
E7
  9
$SURFTAB1
 70
     6
  9
$SURFTAB2
 70
     6
  9
$SURFTYPE
 70
     6
  9
$SURFU
 70
     6
  9
$SURFV
 70
     6
  9
$UCSBASE
  2

  9
$UCSNAME
  2

  9
$UCSORG
 10
0.0
 20
0.0
 30
0.0
  9
$UCSXDIR
 10
1.0
 20
0.0
 30
0.0
  9
$UCSYDIR
 10
0.0
 20
1.0
 30
0.0
  9
$UCSORTHOREF
  2

  9
$UCSORTHOVIEW
 70
     0
  9
$UCSORGTOP
 10
0.0
 20
0.0
 30
0.0
  9
$UCSORGBOTTOM
 10
0.0
 20
0.0
 30
0.0
  9
$UCSORGLEFT
 10
0.0
 20
0.0
 30
0.0
  9
$UCSORGRIGHT
 10
0.0
 20
0.0
 30
0.0
  9
$UCSORGFRONT
 10
0.0
 20
0.0
 30
0.0
  9
$UCSORGBACK
 10
0.0
 20
0.0
 30
0.0
  9
$PUCSBASE
  2

  9
$PUCSNAME
  2

  9
$PUCSORG
 10
0.0
 20
0.0
 30
0.0
  9
$PUCSXDIR
 10
1.0
 20
0.0
 30
0.0
  9
$PUCSYDIR
 10
0.0
 20
1.0
 30
0.0
  9
$PUCSORTHOREF
  2

  9
$PUCSORTHOVIEW
 70
     0
  9
$PUCSORGTOP
 10
0.0
 20
0.0
 30
0.0
  9
$PUCSORGBOTTOM
 10
0.0
 20
0.0
 30
0.0
  9
$PUCSORGLEFT
 10
0.0
 20
0.0
 30
0.0
  9
$PUCSORGRIGHT
 10
0.0
 20
0.0
 30
0.0
  9
$PUCSORGFRONT
 10
0.0
 20
0.0
 30
0.0
  9
$PUCSORGBACK
 10
0.0
 20
0.0
 30
0.0
  9
$USERI1
 70
     0
  9
$USERI2
 70
     0
  9
$USERI3
 70
     0
  9
$USERI4
 70
     0
  9
$USERI5
 70
     0
  9
$USERR1
 40
0.0
  9
$USERR2
 40
0.0
  9
$USERR3
 40
0.0
  9
$USERR4
 40
0.0
  9
$USERR5
 40
0.0
  9
$WORLDVIEW
 70
     1
  9
$SHADEDGE
 70
     3
  9
$SHADEDIF
 70
    70
  9
$TILEMODE
 70
     1
  9
$MAXACTVP
 70
    64
  9
$PINSBASE
 10
0.0
 20
0.0
 30
0.0
  9
$PLIMCHECK
 70
     0
  9
$PEXTMIN
 10
-319.159416
 20
-58.836
 30
0.0
  9
$PEXTMAX
 10
520.840584
 20
535.164
 30
0.0
  9
$PLIMMIN
 10
-319.159416
 20
-58.836
  9
$PLIMMAX
 10
520.840584
 20
535.164
  9
$UNITMODE
 70
     0
  9
$VISRETAIN
 70
     1
  9
$PLINEGEN
 70
     0
  9
$PSLTSCALE
 70
     1
  9
$TREEDEPTH
 70
  3020
  9
$CMLSTYLE
  2
Standard
  9
$CMLJUST
 70
     0
  9
$CMLSCALE
 40
20.0
  9
$PROXYGRAPHICS
 70
     1
  9
$MEASUREMENT
 70
     1
  9
$CELWEIGHT
370
    -1
  9
$ENDCAPS
280
     0
  9
$JOINSTYLE
280
     0
  9
$LWDISPLAY
290
     0
  9
$INSUNITS
 70
     4
  9
$HYPERLINKBASE
  1

  9
$STYLESHEET
  1

  9
$XEDIT
290
     1
  9
$CEPSNTYPE
380
     0
  9
$PSTYLEMODE
290
     1
  9
$FINGERPRINTGUID
  2
{FAEB1C30-E019-11D5-929B-00C0DF256EC4}
  9
$VERSIONGUID
  2
{FAEB1C32-E019-11D5-929B-00C0DF256EC4}
  9
$EXTNAMES
290
     1
  9
$PSVPSCALE
 40
0.0
  9
$OLESTARTUP
290
     0
  0
ENDSEC
  0
SECTION
  2
CLASSES
  0
CLASS
  1
ACDBDICTIONARYWDFLT
  2
AcDbDictionaryWithDefault
  3
ObjectDBX Classes
 90
        0
280
     0
281
     0
  0
CLASS
  1
ACDBPLACEHOLDER
  2
AcDbPlaceHolder
  3
ObjectDBX Classes
 90
        0
280
     0
281
     0
  0
CLASS
  1
LAYOUT
  2
AcDbLayout
  3
ObjectDBX Classes
 90
        0
280
     0
281
     0
  0
ENDSEC
  0
SECTION
  2
TABLES
  0
TABLE
  2
VPORT
  5
8
330
0
100
AcDbSymbolTable
 70
     2
  0
VPORT
  5
29
330
8
100
AcDbSymbolTableRecord
100
AcDbViewportTableRecord
  2
*ACTIVE
 70
     0
 10
0.0
 20
0.0
 11
1.0
 21
1.0
 12
100.840584
 22
238.164
 13
0.0
 23
0.0
 14
1.0
 24
1.0
 15
0.0
 25
0.0
 16
0.0
 26
0.0
 36
1.0
 17
0.0
 27
0.0
 37
0.0
 40
594.0
 41
1.414141
 42
50.0
 43
0.0
 44
0.0
 50
0.0
 51
0.0
 71
    16
 72
   100
 73
     1
 74
     0
 75
     0
 76
     0
 77
     0
 78
     0
281
     0
 65
     0
110
0.0
120
0.0
130
0.0
111
1.0
121
0.0
131
0.0
112
0.0
122
1.0
132
0.0
 79
     0
146
0.0
  0
ENDTAB
  0
TABLE
  2
LTYPE
  5
5
330
0
100
AcDbSymbolTable
 70
     3
  0
LTYPE
  5
14
330
5
100
AcDbSymbolTableRecord
100
AcDbLinetypeTableRecord
  2
ByBlock
 70
     0
  3

 72
    65
 73
     0
 40
0.0
  0
LTYPE
  5
15
330
5
100
AcDbSymbolTableRecord
100
AcDbLinetypeTableRecord
  2
ByLayer
 70
     0
  3

 72
    65
 73
     0
 40
0.0
  0
LTYPE
  5
16
330
5
100
AcDbSymbolTableRecord
100
AcDbLinetypeTableRecord
  2
Continuous
 70
     0
  3
Solid line
 72
    65
 73
     0
 40
0.0
  0
LTYPE
  5
2A
330
5
100
AcDbSymbolTableRecord
100
AcDbLinetypeTableRecord
  2
DASHED
 70
     0
  3
__ __ __ __ __
 72
    65
 73
     2
 40
6.25
 49
5.0
 74
     4
 75
     0
340
0
 46
1.0
 50
0.0
 44
0.0
 45
0.0
 49
-1.25
 74
     4
 75
     0
340
0
 46
1.0
 50
0.0
 44
0.0
 45
0.0
  0
LTYPE
  5
30
330
5
100
AcDbSymbolTableRecord
100
AcDbLinetypeTableRecord
  2
DASHDOT
 70
     0
  3
__ . __ . __ . __ . __
 72
    65
 73
     4
 40
7.5
 49
5.0
 74
     4
 75
     0
340
0
 46
1.0
 50
0.0
 44
0.0
 45
0.0
 49
-1.25
 74
     4
 75
     0
340
0
 46
1.0
 50
0.0
 44
0.0
 45
0.0
 49
0.0
 74
     4
 75
     0
340
0
 46
1.0
 50
0.0
 44
0.0
 45
0.0
 49
-1.25
 74
     4
 75
     0
340
0
 46
1.0
 50
0.0
 44
0.0
 45
0.0
  0
ENDTAB
  0
TABLE
  2
LAYER
  5
2
330
0
100
AcDbSymbolTable
 70
    10
  0
LAYER
  5
10
330
2
100
AcDbSymbolTableRecord
100
AcDbLayerTableRecord
  2
0
 70
     0
 62
     7
  6
Continuous
370
    -3
390
F
  0
LAYER
  5
2B
330
2
100
AcDbSymbolTableRecord
100
AcDbLayerTableRecord
  2
LC-INFO-1-2-mm-A3-0
 70
     1
 62
     7
  6
ByBlock
370
    -3
390
F
  0
LAYER
  5
2C
330
2
100
AcDbSymbolTableRecord
100
AcDbLayerTableRecord
  2
LC-CUT-HIDDEN
 70
     0
 62
     7
  6
DASHED
370
    -3
390
F
  0
LAYER
  5
2D
330
2
100
AcDbSymbolTableRecord
100
AcDbLayerTableRecord
  2
LC-VIEWPORT
 70
     0
 62
     7
  6
ByBlock
370
    -3
390
F
  0
LAYER
  5
2E
330
2
100
AcDbSymbolTableRecord
100
AcDbLayerTableRecord
  2
LC-3D-HIDDEN
 70
     0
 62
     9
  6
DASHED
370
    -3
390
F
  0
LAYER
  5
31
330
2
100
AcDbSymbolTableRecord
100
AcDbLayerTableRecord
  2
LC-001-002-----0
 70
     0
 62
     2
  6
DASHDOT
370
    -3
390
F
  0
LAYER
  5
37
330
2
100
AcDbSymbolTableRecord
100
AcDbLayerTableRecord
  2
LC-002-002-RND-0
 70
     0
 62
     1
  6
ByBlock
370
    -3
390
F
  0
LAYER
  5
3F
330
2
100
AcDbSymbolTableRecord
100
AcDbLayerTableRecord
  2
LC-003-003-----0
 70
     0
 62
     2
  6
ByBlock
370
    -3
390
F
  0
LAYER
  5
B4
330
2
100
AcDbSymbolTableRecord
100
AcDbLayerTableRecord
  2
LC-004-005-----0
 70
     0
 62
     2
  6
ByBlock
370
    -3
390
F
  0
LAYER
  5
C9
330
2
100
AcDbSymbolTableRecord
100
AcDbLayerTableRecord
  2
Defpoints
 70
     0
 62
     7
  6
Continuous
290
     0
370
    -3
390
F
  0
ENDTAB
  0
TABLE
  2
STYLE
  5
3
330
0
100
AcDbSymbolTable
 70
     3
  0
STYLE
  5
11
330
3
100
AcDbSymbolTableRecord
100
AcDbTextStyleTableRecord
  2
Standard
 70
     0
 40
0.0
 41
1.0
 50
0.0
 71
     0
 42
2.5
  3
txt
  4

  0
STYLE
  5
2F
330
3
100
AcDbSymbolTableRecord
100
AcDbTextStyleTableRecord
  2
LCTX15-400-0-0-Arial
 70
     0
 40
0.0
 41
0.9
 50
0.0
 71
     0
 42
3.5
  3

  4

1001
ACAD
1000
Arial
1071
 16777218
  0
STYLE
  5
C6
330
3
100
AcDbSymbolTableRecord
100
AcDbTextStyleTableRecord
  2
LCTX15-400-0-0pDIN-Schrift
 70
     0
 40
2.5
 41
0.8
 50
15.0
 71
     0
 42
3.5
  3
STANDARD
  4

  0
ENDTAB
  0
TABLE
  2
VIEW
  5
6
330
0
100
AcDbSymbolTable
 70
     0
  0
ENDTAB
  0
TABLE
  2
UCS
  5
7
330
0
100
AcDbSymbolTable
 70
     0
  0
ENDTAB
  0
TABLE
  2
APPID
  5
9
330
0
100
AcDbSymbolTable
 70
     1
  0
APPID
  5
12
330
9
100
AcDbSymbolTableRecord
100
AcDbRegAppTableRecord
  2
ACAD
 70
     0
  0
ENDTAB
  0
TABLE
  2
DIMSTYLE
  5
A
330
0
100
AcDbSymbolTable
 70
     2
100
AcDbDimStyleTable
  0
DIMSTYLE
105
27
330
A
100
AcDbSymbolTableRecord
100
AcDbDimStyleTableRecord
  2
ISO-25
 70
     0
 41
2.5
 42
0.625
 43
3.75
 44
1.25
 73
     0
 74
     0
 77
     1
 78
     8
140
2.5
141
2.5
143
0.03937
147
0.625
171
     3
172
     1
271
     2
272
     2
274
     3
278
    44
283
     0
284
     8
340
11
  0
DIMSTYLE
105
C7
102
{ACAD_REACTORS
330
C8
330
D6
102
}
330
A
100
AcDbSymbolTableRecord
100
AcDbDimStyleTableRecord
  2
LC-DIM-L-0140-02-02
 70
     0
 40
2.0
 41
14.0
 42
0.0
 43
7.5
 44
1.8
 73
     0
 74
     0
 77
     1
 78
     8
 79
     2
140
14.0
141
0.0
146
0.71
147
1.5
176
     2
177
     2
178
     2
179
     2
271
     2
278
    44
289
     1
340
C6
  0
ENDTAB
  0
TABLE
  2
BLOCK_RECORD
  5
1
330
0
100
AcDbSymbolTable
 70
     5
  0
BLOCK_RECORD
  5
1F
330
1
100
AcDbSymbolTableRecord
100
AcDbBlockTableRecord
  2
*Model_Space
340
22
  0
BLOCK_RECORD
  5
1B
330
1
100
AcDbSymbolTableRecord
100
AcDbBlockTableRecord
  2
*Paper_Space
340
1E
  0
BLOCK_RECORD
  5
23
330
1
100
AcDbSymbolTableRecord
100
AcDbBlockTableRecord
  2
*Paper_Space0
340
26
  0
BLOCK_RECORD
  5
B1
330
1
100
AcDbSymbolTableRecord
100
AcDbBlockTableRecord
  2
*X11
340
0
102
{BLKREFS
331
BD
102
}
  0
BLOCK_RECORD
  5
BE
330
1
100
AcDbSymbolTableRecord
100
AcDbBlockTableRecord
  2
*X22
340
0
102
{BLKREFS
331
C5
102
}
  0
BLOCK_RECORD
  5
CA
330
1
100
AcDbSymbolTableRecord
100
AcDbBlockTableRecord
  2
*D3
340
0
  0
BLOCK_RECORD
  5
D7
330
1
100
AcDbSymbolTableRecord
100
AcDbBlockTableRecord
  2
*D4
340
0
  0
ENDTAB
  0
ENDSEC
  0
SECTION
  2
BLOCKS
  0
BLOCK
  5
20
330
1F
100
AcDbEntity
  8
0
100
AcDbBlockBegin
  2
*Model_Space
 70
     0
 71
     0
 10
0.0
 20
0.0
 30
0.0
  3
*Model_Space
  1

  0
ENDBLK
  5
21
330
1F
100
AcDbEntity
  8
0
100
AcDbBlockEnd
  0
BLOCK
  5
1C
330
1B
100
AcDbEntity
 67
     1
  8
0
100
AcDbBlockBegin
  2
*Paper_Space
 70
     0
 71
     0
 10
0.0
 20
0.0
 30
0.0
  3
*Paper_Space
  1

  0
ENDBLK
  5
1D
330
1B
100
AcDbEntity
 67
     1
  8
0
100
AcDbBlockEnd
  0
BLOCK
  5
24
330
23
100
AcDbEntity
  8
0
100
AcDbBlockBegin
  2
*Paper_Space0
 70
     0
 71
     0
 10
0.0
 20
0.0
 30
0.0
  3
*Paper_Space0
  1

  0
ENDBLK
  5
25
330
23
100
AcDbEntity
  8
0
100
AcDbBlockEnd
  0
BLOCK
  5
B2
330
B1
100
AcDbEntity
  8
0
100
AcDbBlockBegin
  2
*X11
 70
     1
 71
     0
 10
0.0
 20
0.0
 30
0.0
  3
*X11
  1

  4
*X1
  0
LINE
  5
B5
330
B1
100
AcDbEntity
  8
LC-004-005-----0
 62
     7
370
    25
100
AcDbLine
 10
14.158402
 20
251.746281
 30
0.0
 11
14.708042
 21
252.295921
 31
0.0
  0
LINE
  5
B6
330
B1
100
AcDbEntity
  8
LC-004-005-----0
 62
     7
370
    25
100
AcDbLine
 10
13.210219
 20
255.040739
 30
0.0
 11
14.214414
 21
256.044933
 31
0.0
  0
LINE
  5
B7
330
B1
100
AcDbEntity
  8
LC-004-005-----0
 62
     7
370
    25
100
AcDbLine
 10
13.514414
 20
259.587574
 30
0.0
 11
14.149301
 21
260.222461
 31
0.0
  0
LINE
  5
B8
330
B1
100
AcDbEntity
  8
LC-004-005-----0
 62
     7
370
    25
100
AcDbLine
 10
10.472829
 20
260.78863
 30
0.0
 11
10.976123
 21
261.291924
 31
0.0
  0
LINE
  5
B9
330
B1
100
AcDbEntity
  8
LC-004-005-----0
 62
     7
370
    25
100
AcDbLine
 10
8.891837
 20
263.450278
 30
0.0
 11
9.429558
 21
263.987999
 31
0.0
  0
LINE
  5
BA
330
B1
100
AcDbEntity
  8
LC-004-005-----0
 62
     7
370
    25
100
AcDbLine
 10
6.514414
 20
265.315496
 30
0.0
 11
7.214414
 21
266.015496
 31
0.0
  0
LINE
  5
BB
330
B1
100
AcDbEntity
  8
LC-004-005-----0
 62
     7
370
    25
100
AcDbLine
 10
4.733214
 20
267.776936
 30
0.0
 11
5.414414
 21
268.458137
 31
0.0
  0
LINE
  5
BC
330
B1
100
AcDbEntity
  8
LC-004-005-----0
 62
     7
370
    25
100
AcDbLine
 10
6.033214
 20
269.076936
 30
0.0
 11
6.638728
 21
269.682451
 31
0.0
  0
ENDBLK
  5
B3
330
B1
100
AcDbEntity
  8
0
100
AcDbBlockEnd
  0
BLOCK
  5
BF
330
BE
100
AcDbEntity
  8
0
100
AcDbBlockBegin
  2
*X22
 70
     1
 71
     0
 10
0.0
 20
0.0
 30
0.0
  3
*X22
  1

  4
*X2
  0
LINE
  5
C1
330
BE
100
AcDbEntity
  8
LC-004-005-----0
 62
     7
370
    25
100
AcDbLine
 10
115.795259
 20
251.559761
 30
0.0
 11
116.435605
 21
252.200107
 31
0.0
  0
LINE
  5
C2
330
BE
100
AcDbEntity
  8
LC-004-005-----0
 62
     7
370
    25
100
AcDbLine
 10
116.214414
 20
256.221557
 30
0.0
 11
116.914414
 21
256.921557
 31
0.0
  0
LINE
  5
C3
330
BE
100
AcDbEntity
  8
LC-004-005-----0
 62
     7
370
    25
100
AcDbLine
 10
123.214414
 20
267.464197
 30
0.0
 11
123.914414
 21
268.164197
 31
0.0
  0
LINE
  5
C4
330
BE
100
AcDbEntity
  8
LC-004-005-----0
 62
     7
370
    25
100
AcDbLine
 10
124.811134
 20
269.060917
 30
0.0
 11
125.321664
 21
269.571447
 31
0.0
  0
ENDBLK
  5
C0
330
BE
100
AcDbEntity
  8
0
100
AcDbBlockEnd
  0
BLOCK
  5
D4
330
CA
100
AcDbEntity
  8
0
100
AcDbBlockBegin
  2
*D3
 70
     1
 71
     0
 10
0.0
 20
0.0
 30
0.0
  3
*D3
  1

  0
LINE
  5
CB
330
CA
100
AcDbEntity
  8
LC-003-003-----0
 62
     2
370
    -2
100
AcDbLine
 10
4.714414
 20
267.776936
 30
0.0
 11
4.714414
 21
295.906012
 31
0.0
  0
LINE
  5
CC
330
CA
100
AcDbEntity
  8
LC-003-003-----0
 62
     2
370
    -2
100
AcDbLine
 10
125.714414
 20
267.776936
 30
0.0
 11
125.714414
 21
295.906012
 31
0.0
  0
LINE
  5
CD
330
CA
100
AcDbEntity
  8
LC-003-003-----0
 62
     2
370
    -2
100
AcDbLine
 10
32.714414
 20
292.306012
 30
0.0
 11
97.714414
 21
292.306012
 31
0.0
  0
SOLID
  5
CE
330
CA
100
AcDbEntity
  8
LC-003-003-----0
 62
     2
100
AcDbTrace
 10
32.714414
 20
296.972678
 30
0.0
 11
32.714414
 21
287.639345
 31
0.0
 12
4.714414
 22
292.306012
 32
0.0
 13
4.714414
 23
292.306012
 33
0.0
  0
SOLID
  5
CF
330
CA
100
AcDbEntity
  8
LC-003-003-----0
 62
     2
100
AcDbTrace
 10
97.714414
 20
287.639345
 30
0.0
 11
97.714414
 21
296.972678
 31
0.0
 12
125.714414
 22
292.306012
 32
0.0
 13
125.714414
 23
292.306012
 33
0.0
  0
MTEXT
  5
D0
330
CA
100
AcDbEntity
  8
LC-003-003-----0
 62
     2
100
AcDbMText
 10
76.470562
 20
323.106012
 30
0.0
 40
28.0
 41
0.0
 71
     5
 72
     1
  1
\A1;120
  7
LCTX15-400-0-0pDIN-Schrift
 73
     1
 44
1.0
  0
POINT
  5
D1
330
CA
100
AcDbEntity
  8
Defpoints
 62
     0
100
AcDbPoint
 10
4.714414
 20
267.776936
 30
0.0
  0
POINT
  5
D2
330
CA
100
AcDbEntity
  8
Defpoints
 62
     0
100
AcDbPoint
 10
125.714414
 20
267.776936
 30
0.0
  0
POINT
  5
D3
330
CA
100
AcDbEntity
  8
Defpoints
 62
     0
100
AcDbPoint
 10
125.714414
 20
292.306012
 30
0.0
  0
ENDBLK
  5
D5
330
CA
100
AcDbEntity
  8
0
100
AcDbBlockEnd
  0
BLOCK
  5
E3
330
D7
100
AcDbEntity
  8
0
100
AcDbBlockBegin
  2
*D4
 70
     1
 71
     0
 10
0.0
 20
0.0
 30
0.0
  3
*D4
  1

  0
LINE
  5
D8
330
D7
100
AcDbEntity
  8
LC-003-003-----0
 62
     2
370
    -2
100
AcDbLine
 10
5.714414
 20
269.776936
 30
0.0
 11
-21.367016
 21
269.776936
 31
0.0
  0
LINE
  5
D9
330
D7
100
AcDbEntity
  8
LC-003-003-----0
 62
     2
370
    -2
100
AcDbLine
 10
7.714414
 20
263.576936
 30
0.0
 11
-21.367016
 21
263.576936
 31
0.0
  0
LINE
  5
DA
330
D7
100
AcDbEntity
  8
LC-003-003-----0
 62
     2
370
    -2
100
AcDbLine
 10
-17.767016
 20
297.776936
 30
0.0
 11
-17.767016
 21
325.776936
 31
0.0
  0
LINE
  5
DB
330
D7
100
AcDbEntity
  8
LC-003-003-----0
 62
     2
370
    -2
100
AcDbLine
 10
-17.767016
 20
235.576936
 30
0.0
 11
-17.767016
 21
207.576936
 31
0.0
  0
LINE
  5
DC
330
D7
100
AcDbEntity
  8
LC-003-003-----0
 62
     2
370
    -2
100
AcDbLine
 10
-17.767016
 20
269.776936
 30
0.0
 11
-17.767016
 21
263.576936
 31
0.0
  0
SOLID
  5
DD
330
D7
100
AcDbEntity
  8
LC-003-003-----0
 62
     2
100
AcDbTrace
 10
-22.433682
 20
297.776936
 30
0.0
 11
-13.100349
 21
297.776936
 31
0.0
 12
-17.767016
 22
269.776936
 32
0.0
 13
-17.767016
 23
269.776936
 33
0.0
  0
SOLID
  5
DE
330
D7
100
AcDbEntity
  8
LC-003-003-----0
 62
     2
100
AcDbTrace
 10
-13.100349
 20
235.576936
 30
0.0
 11
-22.433682
 21
235.576936
 31
0.0
 12
-17.767016
 22
263.576936
 32
0.0
 13
-17.767016
 23
263.576936
 33
0.0
  0
MTEXT
  5
DF
330
D7
100
AcDbEntity
  8
LC-003-003-----0
 62
     2
100
AcDbMText
 10
-48.567016
 20
269.052
 30
0.0
 40
28.0
 41
0.0
 71
     5
 72
     1
  1
\A1;6,2
  7
LCTX15-400-0-0pDIN-Schrift
 11
6.123031769111886E-17
 21
1.0
 31
0.0
 73
     1
 44
1.0
  0
POINT
  5
E0
330
D7
100
AcDbEntity
  8
Defpoints
 62
     0
100
AcDbPoint
 10
5.714414
 20
269.776936
 30
0.0
  0
POINT
  5
E1
330
D7
100
AcDbEntity
  8
Defpoints
 62
     0
100
AcDbPoint
 10
7.714414
 20
263.576936
 30
0.0
  0
POINT
  5
E2
330
D7
100
AcDbEntity
  8
Defpoints
 62
     0
100
AcDbPoint
 10
-17.767016
 20
263.576936
 30
0.0
  0
ENDBLK
  5
E4
330
D7
100
AcDbEntity
  8
0
100
AcDbBlockEnd
  0
ENDSEC
  0
SECTION
  2
ENTITIES
  0
LINE
  5
32
330
1F
100
AcDbEntity
  8
LC-001-002-----0
 62
     7
370
    25
100
AcDbLine
 10
65.214414
 20
251.032446
 30
0.0
 11
65.214414
 21
270.383058
 31
0.0
  0
LINE
  5
33
330
1F
100
AcDbEntity
  8
LC-001-002-----0
  6
ByBlock
 62
     7
370
    25
100
AcDbLine
 10
15.885118
 20
305.127158
 30
0.0
 11
15.885118
 21
320.127158
 31
0.0
  0
LINE
  5
34
330
1F
100
AcDbEntity
  8
LC-001-002-----0
  6
ByBlock
 62
     7
370
    25
100
AcDbLine
 10
15.885118
 20
320.127158
 30
0.0
 11
30.885118
 21
320.127158
 31
0.0
  0
LINE
  5
35
330
1F
100
AcDbEntity
  8
LC-001-002-----0
  6
ByBlock
 62
     7
370
    25
100
AcDbLine
 10
30.885118
 20
320.127158
 30
0.0
 11
30.885118
 21
305.127158
 31
0.0
  0
LINE
  5
36
330
1F
100
AcDbEntity
  8
LC-001-002-----0
  6
ByBlock
 62
     7
370
    25
100
AcDbLine
 10
30.885118
 20
305.127158
 30
0.0
 11
15.885118
 21
305.127158
 31
0.0
  0
ARC
  5
38
102
{ACAD_REACTORS
330
E6
102
}
330
1F
100
AcDbEntity
  8
LC-002-002-RND-0
 62
     7
370
    50
100
AcDbCircle
 10
219.714414
 20
214.383058
 30
0.0
 40
2.0
100
AcDbArc
 50
180.0
 51
270.0
  0
ARC
  5
39
102
{ACAD_REACTORS
330
E5
102
}
330
1F
100
AcDbEntity
  8
LC-002-002-RND-0
 62
     7
370
    50
100
AcDbCircle
 10
120.714414
 20
262.578668
 30
0.0
 40
0.5000000000000339
100
AcDbArc
 50
112.0
 51
180.0
  0
ARC
  5
3A
102
{ACAD_REACTORS
330
E5
102
}
330
1F
100
AcDbEntity
  8
LC-002-002-RND-0
 62
     7
370
    50
100
AcDbCircle
 10
120.714414
 20
262.578668
 30
0.0
 40
1.200000000000007
100
AcDbArc
 50
112.0
 51
180.0
  0
LINE
  5
3B
102
{ACAD_REACTORS
330
E5
102
}
330
1F
100
AcDbEntity
  8
LC-001-002-----0
  6
ByBlock
 62
     7
370
    50
100
AcDbLine
 10
9.901717
 20
263.04226
 30
0.0
 11
8.578348
 21
263.576936
 31
0.0
  0
LINE
  5
3C
102
{ACAD_REACTORS
330
E5
102
}
330
1F
100
AcDbEntity
  8
LC-001-002-----0
  6
ByBlock
 62
     7
370
    50
100
AcDbLine
 10
10.163942
 20
263.691289
 30
0.0
 11
8.714414
 21
264.276936
 31
0.0
  0
ARC
  5
3D
102
{ACAD_REACTORS
330
E5
102
}
330
1F
100
AcDbEntity
  8
LC-002-002-RND-0
 62
     7
370
    50
100
AcDbCircle
 10
9.714414
 20
262.578668
 30
0.0
 40
1.199999999999989
100
AcDbArc
 50
0.0
 51
68.0
  0
ARC
  5
3E
102
{ACAD_REACTORS
330
E5
102
}
330
1F
100
AcDbEntity
  8
LC-002-002-RND-0
 62
     7
370
    50
100
AcDbCircle
 10
9.714414
 20
262.578668
 30
0.0
 40
0.5
100
AcDbArc
 50
0.0
 51
68.0
  0
CIRCLE
  5
40
102
{ACAD_REACTORS
330
E6
102
}
330
1F
100
AcDbEntity
  8
LC-003-003-----0
 62
     7
370
    25
100
AcDbCircle
 10
228.214414
 20
317.883058
 30
0.0
 40
6.400000000000006
  0
CIRCLE
  5
41
102
{ACAD_REACTORS
330
E6
102
}
330
1F
100
AcDbEntity
  8
LC-001-002-----0
  6
ByBlock
 62
     7
370
    50
100
AcDbCircle
 10
275.714414
 20
270.383058
 30
0.0
 40
54.29999999999996
  0
CIRCLE
  5
42
102
{ACAD_REACTORS
330
E6
102
}
330
1F
100
AcDbEntity
  8
LC-001-002-----0
  6
ByBlock
 62
     7
370
    50
100
AcDbCircle
 10
275.714414
 20
270.383058
 30
0.0
 40
56.50000000000011
  0
ARC
  5
43
102
{ACAD_REACTORS
330
E6
102
}
330
1F
100
AcDbEntity
  8
LC-002-002-RND-0
 62
     7
370
    50
100
AcDbCircle
 10
219.714414
 20
326.383058
 30
0.0
 40
2.0
100
AcDbArc
 50
90.0
 51
180.0
  0
LINE
  5
44
102
{ACAD_REACTORS
330
E5
102
}
330
1F
100
AcDbEntity
  8
LC-001-002-----0
  6
ByBlock
 62
     7
370
    50
100
AcDbLine
 10
124.214414
 20
269.776936
 30
0.0
 11
65.214414
 21
269.776936
 31
0.0
  0
LINE
  5
45
102
{ACAD_REACTORS
330
E5
102
}
330
1F
100
AcDbEntity
  8
LC-001-002-----0
  6
ByBlock
 62
     7
370
    50
100
AcDbLine
 10
122.714414
 20
263.576936
 30
0.0
 11
121.85048
 21
263.576936
 31
0.0
  0
LINE
  5
46
102
{ACAD_REACTORS
330
E5
102
}
330
1F
100
AcDbEntity
  8
LC-001-002-----0
  6
ByBlock
 62
     7
370
    50
100
AcDbLine
 10
116.278134
 20
255.004364
 30
0.0
 11
116.214414
 21
255.004364
 31
0.0
  0
ARC
  5
47
102
{ACAD_REACTORS
330
E5
102
}
330
1F
100
AcDbEntity
  8
LC-002-002-RND-0
 62
     7
370
    50
100
AcDbCircle
 10
122.714414
 20
264.776936
 30
0.0
 40
1.199999999999989
100
AcDbArc
 50
270.0
 51
0.0
  0
LINE
  5
48
102
{ACAD_REACTORS
330
E5
102
}
330
1F
100
AcDbEntity
  8
LC-001-002-----0
  6
ByBlock
 62
     7
370
    50
100
AcDbLine
 10
122.714414
 20
264.276936
 30
0.0
 11
121.714414
 21
264.276936
 31
0.0
  0
ARC
  5
49
102
{ACAD_REACTORS
330
E5
102
}
330
1F
100
AcDbEntity
  8
LC-002-002-RND-0
 62
     7
370
    50
100
AcDbCircle
 10
122.714414
 20
264.776936
 30
0.0
 40
0.5
100
AcDbArc
 50
270.0
 51
0.0
  0
LINE
  5
4A
102
{ACAD_REACTORS
330
E5
102
}
330
1F
100
AcDbEntity
  8
LC-001-002-----0
  6
ByBlock
 62
     7
370
    50
100
AcDbLine
 10
7.714414
 20
263.576936
 30
0.0
 11
8.578348
 21
263.576936
 31
0.0
  0
ARC
  5
4B
102
{ACAD_REACTORS
330
E5
102
}
330
1F
100
AcDbEntity
  8
LC-002-002-RND-0
 62
     7
370
    50
100
AcDbCircle
 10
7.714414
 20
264.776936
 30
0.0
 40
1.199999999999989
100
AcDbArc
 50
180.0
 51
270.0
  0
CIRCLE
  5
4C
102
{ACAD_REACTORS
330
E6
102
}
330
1F
100
AcDbEntity
  8
LC-001-002-----0
  6
ByBlock
 62
     7
370
    50
100
AcDbCircle
 10
275.714414
 20
270.383058
 30
0.0
 40
50.99999999971374
  0
CIRCLE
  5
4D
102
{ACAD_REACTORS
330
E6
102
}
330
1F
100
AcDbEntity
  8
LC-001-002-----0
  6
ByBlock
 62
     7
370
    50
100
AcDbCircle
 10
275.714414
 20
270.383058
 30
0.0
 40
50.28018087655698
  0
ARC
  5
4E
102
{ACAD_REACTORS
330
E5
102
}
330
1F
100
AcDbEntity
  8
LC-002-002-RND-0
 62
     7
370
    50
100
AcDbCircle
 10
7.714414
 20
264.776936
 30
0.0
 40
0.5
100
AcDbArc
 50
180.0
 51
270.0
  0
ARC
  5
4F
102
{ACAD_REACTORS
330
E5
102
}
330
1F
100
AcDbEntity
  8
LC-002-002-RND-0
 62
     7
370
    50
100
AcDbCircle
 10
11.414414
 20
261.53255
 30
0.0
 40
0.5
100
AcDbArc
 50
180.0
 51
270.0
  0
LINE
  5
50
102
{ACAD_REACTORS
330
E5
102
}
330
1F
100
AcDbEntity
  8
LC-001-002-----0
  6
ByBlock
 62
     7
370
    50
100
AcDbLine
 10
6.514414
 20
264.776936
 30
0.0
 11
6.514414
 21
268.276936
 31
0.0
  0
LINE
  5
51
102
{ACAD_REACTORS
330
E5
102
}
330
1F
100
AcDbEntity
  8
LC-001-002-----0
  6
ByBlock
 62
     7
370
    50
100
AcDbLine
 10
7.214414
 20
264.776936
 30
0.0
 11
7.214414
 21
268.776936
 31
0.0
  0
ARC
  5
52
102
{ACAD_REACTORS
330
E5
102
}
330
1F
100
AcDbEntity
  8
LC-002-002-RND-0
 62
     7
370
    50
100
AcDbCircle
 10
11.414414
 20
261.53255
 30
0.0
 40
1.199999999999989
100
AcDbArc
 50
180.0
 51
270.0
  0
LINE
  5
53
102
{ACAD_REACTORS
330
E5
102
}
330
1F
100
AcDbEntity
  8
LC-001-002-----0
  6
ByBlock
 62
     7
370
    50
100
AcDbLine
 10
13.014414
 20
260.33255
 30
0.0
 11
11.414414
 21
260.33255
 31
0.0
  0
LINE
  5
54
102
{ACAD_REACTORS
330
E5
102
}
330
1F
100
AcDbEntity
  8
LC-001-002-----0
  6
ByBlock
 62
     7
370
    50
100
AcDbLine
 10
10.914414
 20
262.578668
 30
0.0
 11
10.914414
 21
261.53255
 31
0.0
  0
CIRCLE
  5
55
102
{ACAD_REACTORS
330
E6
102
}
330
1F
100
AcDbEntity
  8
LC-003-003-----0
 62
     7
370
    25
100
AcDbCircle
 10
323.214414
 20
317.883058
 30
0.0
 40
6.399999999999977
  0
LINE
  5
56
102
{ACAD_REACTORS
330
E5
102
}
330
1F
100
AcDbEntity
  8
LC-001-002-----0
  6
ByBlock
 62
     7
370
    50
100
AcDbLine
 10
10.214414
 20
262.578668
 30
0.0
 11
10.214414
 21
261.53255
 31
0.0
  0
ARC
  5
57
102
{ACAD_REACTORS
330
E5
102
}
330
1F
100
AcDbEntity
  8
LC-002-002-RND-0
 62
     7
370
    50
100
AcDbCircle
 10
119.014414
 20
261.53255
 30
0.0
 40
0.5
100
AcDbArc
 50
270.0
 51
0.0
  0
LINE
  5
58
102
{ACAD_REACTORS
330
E5
102
}
330
1F
100
AcDbEntity
  8
LC-001-002-----0
  6
ByBlock
 62
     7
370
    50
100
AcDbLine
 10
123.914414
 20
267.776936
 30
0.0
 11
125.714414
 21
267.776936
 31
0.0
  0
LINE
  5
59
102
{ACAD_REACTORS
330
E5
102
}
330
1F
100
AcDbEntity
  8
LC-001-002-----0
  6
ByBlock
 62
     7
370
    50
100
AcDbLine
 10
123.914414
 20
264.776936
 30
0.0
 11
123.914414
 21
268.276936
 31
0.0
  0
LINE
  5
5A
102
{ACAD_REACTORS
330
E5
102
}
330
1F
100
AcDbEntity
  8
LC-001-002-----0
  6
ByBlock
 62
     7
370
    50
100
AcDbLine
 10
121.714414
 20
264.276936
 30
0.0
 11
65.214414
 21
264.276936
 31
0.0
  0
LINE
  5
5B
102
{ACAD_REACTORS
330
E5
102
}
330
1F
100
AcDbEntity
  8
LC-001-002-----0
  6
ByBlock
 62
     7
370
    50
100
AcDbLine
 10
6.214414
 20
269.776936
 30
0.0
 11
65.214414
 21
269.776936
 31
0.0
  0
LINE
  5
5C
102
{ACAD_REACTORS
330
E5
102
}
330
1F
100
AcDbEntity
  8
LC-001-002-----0
  6
ByBlock
 62
     7
370
    50
100
AcDbLine
 10
7.714414
 20
264.276936
 30
0.0
 11
8.714414
 21
264.276936
 31
0.0
  0
LINE
  5
5D
102
{ACAD_REACTORS
330
E5
102
}
330
1F
100
AcDbEntity
  8
LC-003-003-----0
 62
     7
370
    25
100
AcDbLine
 10
65.214414
 20
263.266953
 30
0.0
 11
10.914414
 21
263.266953
 31
0.0
  0
LINE
  5
5E
102
{ACAD_REACTORS
330
E5
102
}
330
1F
100
AcDbEntity
  8
LC-001-002-----0
  6
ByBlock
 62
     7
370
    50
100
AcDbLine
 10
65.214414
 20
261.03255
 30
0.0
 11
13.014414
 21
261.03255
 31
0.0
  0
LINE
  5
5F
102
{ACAD_REACTORS
330
E5
102
}
330
1F
100
AcDbEntity
  8
LC-001-002-----0
  6
ByBlock
 62
     7
370
    50
100
AcDbLine
 10
123.214414
 20
264.776936
 30
0.0
 11
123.214414
 21
268.776936
 31
0.0
  0
LINE
  5
60
102
{ACAD_REACTORS
330
E5
102
}
330
1F
100
AcDbEntity
  8
LC-001-002-----0
  6
ByBlock
 62
     7
370
    50
100
AcDbLine
 10
14.934233
 20
251.674466
 30
0.0
 11
65.214414
 21
251.674466
 31
0.0
  0
LINE
  5
61
102
{ACAD_REACTORS
330
E5
102
}
330
1F
100
AcDbEntity
  8
LC-001-002-----0
  6
ByBlock
 62
     7
370
    50
100
AcDbLine
 10
14.273932
 20
251.428864
 30
0.0
 11
65.214414
 21
251.428864
 31
0.0
  0
LINE
  5
62
102
{ACAD_REACTORS
330
E5
102
}
330
1F
100
AcDbEntity
  8
LC-001-002-----0
  6
ByBlock
 62
     7
370
    50
100
AcDbLine
 10
8.714414
 20
264.276936
 30
0.0
 11
65.214414
 21
264.276936
 31
0.0
  0
LINE
  5
63
102
{ACAD_REACTORS
330
E5
102
}
330
1F
100
AcDbEntity
  8
LC-001-002-----0
  6
ByBlock
 62
     7
370
    50
100
AcDbLine
 10
13.014414
 20
261.03255
 30
0.0
 11
11.414414
 21
261.03255
 31
0.0
  0
LINE
  5
64
102
{ACAD_REACTORS
330
E5
102
}
330
1F
100
AcDbEntity
  8
LC-001-002-----0
  6
ByBlock
 62
     7
370
    50
100
AcDbLine
 10
114.165202
 20
251.674466
 30
0.0
 11
65.214414
 21
251.674466
 31
0.0
  0
LINE
  5
65
102
{ACAD_REACTORS
330
E5
102
}
330
1F
100
AcDbEntity
  8
LC-001-002-----0
  6
ByBlock
 62
     7
370
    50
100
AcDbLine
 10
116.560042
 20
254.601758
 30
0.0
 11
115.494595
 21
251.674466
 31
0.0
  0
LINE
  5
66
102
{ACAD_REACTORS
330
E5
102
}
330
1F
100
AcDbEntity
  8
LC-001-002-----0
  6
ByBlock
 62
     7
370
    50
100
AcDbLine
 10
117.207409
 20
254.320621
 30
0.0
 11
116.154895
 21
251.428864
 31
0.0
  0
ARC
  5
67
102
{ACAD_REACTORS
330
E5
102
}
330
1F
100
AcDbEntity
  8
LC-001-002-----0
  6
ByBlock
 62
     7
370
    50
100
AcDbCircle
 10
116.173747
 20
254.696843
 30
0.0
 40
1.100000000000015
100
AcDbArc
 50
340.0
 51
47.675111
  0
CIRCLE
  5
68
102
{ACAD_REACTORS
330
E6
102
}
330
1F
100
AcDbEntity
  8
LC-001-002-----0
  6
ByBlock
 62
     7
370
    50
100
AcDbCircle
 10
228.214414
 20
317.883058
 30
0.0
 40
6.0
  0
ARC
  5
69
102
{ACAD_REACTORS
330
E5
102
}
330
1F
100
AcDbEntity
  8
LC-002-002-RND-0
 62
     7
370
    50
100
AcDbCircle
 10
116.278134
 20
254.704364
 30
0.0
 40
0.2999999999999397
100
AcDbArc
 50
340.0
 51
90.0
  0
LINE
  5
6A
102
{ACAD_REACTORS
330
E5
102
}
330
1F
100
AcDbEntity
  8
LC-001-002-----0
  6
ByBlock
 62
     7
370
    50
100
AcDbLine
 10
115.494595
 20
251.674466
 30
0.0
 11
65.214414
 21
251.674466
 31
0.0
  0
LINE
  5
6B
102
{ACAD_REACTORS
330
E5
102
}
330
1F
100
AcDbEntity
  8
LC-001-002-----0
  6
ByBlock
 62
     7
370
    50
100
AcDbLine
 10
115.4929
 20
251.669811
 30
0.0
 11
116.154895
 21
251.428864
 31
0.0
  0
LINE
  5
6C
102
{ACAD_REACTORS
330
E5
102
}
330
1F
100
AcDbEntity
  8
LC-001-002-----0
  6
ByBlock
 62
     7
370
    50
100
AcDbLine
 10
117.414414
 20
261.03255
 30
0.0
 11
119.014414
 21
261.03255
 31
0.0
  0
LINE
  5
6D
102
{ACAD_REACTORS
330
E5
102
}
330
1F
100
AcDbEntity
  8
LC-001-002-----0
  6
ByBlock
 62
     7
370
    50
100
AcDbLine
 10
116.214414
 20
255.004364
 30
0.0
 11
65.214414
 21
255.004364
 31
0.0
  0
LINE
  5
6E
102
{ACAD_REACTORS
330
E5
102
}
330
1F
100
AcDbEntity
  8
LC-001-002-----0
  6
ByBlock
 62
     7
370
    50
100
AcDbLine
 10
116.154895
 20
251.428864
 30
0.0
 11
65.214414
 21
251.428864
 31
0.0
  0
LINE
  5
6F
102
{ACAD_REACTORS
330
E5
102
}
330
1F
100
AcDbEntity
  8
LC-001-002-----0
  6
ByBlock
 62
     7
370
    50
100
AcDbLine
 10
120.264886
 20
263.691289
 30
0.0
 11
121.714414
 21
264.276936
 31
0.0
  0
LINE
  5
70
102
{ACAD_REACTORS
330
E5
102
}
330
1F
100
AcDbEntity
  8
LC-001-002-----0
  6
ByBlock
 62
     7
370
    50
100
AcDbLine
 10
120.527111
 20
263.04226
 30
0.0
 11
121.85048
 21
263.576936
 31
0.0
  0
CIRCLE
  5
71
102
{ACAD_REACTORS
330
E6
102
}
330
1F
100
AcDbEntity
  8
LC-003-003-----0
 62
     7
370
    25
100
AcDbCircle
 10
228.214414
 20
222.883058
 30
0.0
 40
6.400000000000006
  0
ARC
  5
72
102
{ACAD_REACTORS
330
E5
102
}
330
1F
100
AcDbEntity
  8
LC-002-002-RND-0
 62
     7
370
    50
100
AcDbCircle
 10
119.014414
 20
261.53255
 30
0.0
 40
1.199999999999989
100
AcDbArc
 50
270.0
 51
0.0
  0
ARC
  5
73
102
{ACAD_REACTORS
330
E5
102
}
330
1F
100
AcDbEntity
  8
LC-002-002-RND-0
 62
     7
370
    50
100
AcDbCircle
 10
117.414414
 20
259.83255
 30
0.0
 40
1.199999999999989
100
AcDbArc
 50
90.0
 51
180.0
  0
LINE
  5
74
102
{ACAD_REACTORS
330
E5
102
}
330
1F
100
AcDbEntity
  8
LC-003-003-----0
 62
     7
370
    25
100
AcDbLine
 10
65.214414
 20
263.266953
 30
0.0
 11
119.032373
 21
263.266953
 31
0.0
  0
LINE
  5
75
102
{ACAD_REACTORS
330
E5
102
}
330
1F
100
AcDbEntity
  8
LC-001-002-----0
  6
ByBlock
 62
     7
370
    50
100
AcDbLine
 10
117.414414
 20
260.33255
 30
0.0
 11
119.014414
 21
260.33255
 31
0.0
  0
LINE
  5
76
102
{ACAD_REACTORS
330
E5
102
}
330
1F
100
AcDbEntity
  8
LC-001-002-----0
  6
ByBlock
 62
     7
370
    50
100
AcDbLine
 10
65.214414
 20
261.03255
 30
0.0
 11
117.414414
 21
261.03255
 31
0.0
  0
LINE
  5
77
102
{ACAD_REACTORS
330
E5
102
}
330
1F
100
AcDbEntity
  8
LC-001-002-----0
  6
ByBlock
 62
     7
370
    50
100
AcDbLine
 10
119.514414
 20
262.578668
 30
0.0
 11
119.514414
 21
261.53255
 31
0.0
  0
LINE
  5
78
102
{ACAD_REACTORS
330
E5
102
}
330
1F
100
AcDbEntity
  8
LC-001-002-----0
  6
ByBlock
 62
     7
370
    50
100
AcDbLine
 10
120.214414
 20
262.578668
 30
0.0
 11
120.214414
 21
261.53255
 31
0.0
  0
ARC
  5
79
102
{ACAD_REACTORS
330
E5
102
}
330
1F
100
AcDbEntity
  8
LC-002-002-RND-0
 62
     7
370
    50
100
AcDbCircle
 10
117.414414
 20
259.83255
 30
0.0
 40
0.5
100
AcDbArc
 50
90.0
 51
180.0
  0
LINE
  5
7A
102
{ACAD_REACTORS
330
E5
102
}
330
1F
100
AcDbEntity
  8
LC-001-002-----0
  6
ByBlock
 62
     7
370
    50
100
AcDbLine
 10
116.214414
 20
255.004364
 30
0.0
 11
116.214414
 21
259.83255
 31
0.0
  0
LINE
  5
7B
102
{ACAD_REACTORS
330
E5
102
}
330
1F
100
AcDbEntity
  8
LC-001-002-----0
  6
ByBlock
 62
     7
370
    50
100
AcDbLine
 10
116.914414
 20
255.510115
 30
0.0
 11
116.914414
 21
259.83255
 31
0.0
  0
CIRCLE
  5
7C
102
{ACAD_REACTORS
330
E6
102
}
330
1F
100
AcDbEntity
  8
LC-003-003-----0
 62
     7
370
    25
100
AcDbCircle
 10
323.214414
 20
222.883058
 30
0.0
 40
6.399999999999977
  0
LINE
  5
7D
102
{ACAD_REACTORS
330
E6
102
}
330
1F
100
AcDbEntity
  8
LC-001-002-----0
  6
ByBlock
 62
     7
370
    50
100
AcDbLine
 10
219.714414
 20
328.383058
 30
0.0
 11
331.714414
 21
328.383058
 31
0.0
  0
LINE
  5
7E
102
{ACAD_REACTORS
330
E6
102
}
330
1F
100
AcDbEntity
  8
LC-001-002-----0
  6
ByBlock
 62
     7
370
    50
100
AcDbLine
 10
217.714414
 20
214.383058
 30
0.0
 11
217.714414
 21
326.383058
 31
0.0
  0
LINE
  5
7F
102
{ACAD_REACTORS
330
E6
102
}
330
1F
100
AcDbEntity
  8
LC-001-002-----0
  6
ByBlock
 62
     7
370
    50
100
AcDbLine
 10
331.714414
 20
212.383058
 30
0.0
 11
219.714414
 21
212.383058
 31
0.0
  0
LINE
  5
80
102
{ACAD_REACTORS
330
E6
102
}
330
1F
100
AcDbEntity
  8
LC-001-002-----0
  6
ByBlock
 62
     7
370
    50
100
AcDbLine
 10
333.714414
 20
326.383058
 30
0.0
 11
333.714414
 21
214.383058
 31
0.0
  0
ARC
  5
81
102
{ACAD_REACTORS
330
E6
102
}
330
1F
100
AcDbEntity
  8
LC-002-002-RND-0
 62
     7
370
    50
100
AcDbCircle
 10
331.714414
 20
326.383058
 30
0.0
 40
2.0
100
AcDbArc
 50
0.0
 51
90.0
  0
ARC
  5
82
102
{ACAD_REACTORS
330
E6
102
}
330
1F
100
AcDbEntity
  8
LC-002-002-RND-0
 62
     7
370
    50
100
AcDbCircle
 10
331.714414
 20
214.383058
 30
0.0
 40
2.0
100
AcDbArc
 50
270.0
 51
0.0
  0
CIRCLE
  5
83
102
{ACAD_REACTORS
330
E6
102
}
330
1F
100
AcDbEntity
  8
LC-001-002-----0
  6
ByBlock
 62
     7
370
    50
100
AcDbCircle
 10
323.214414
 20
317.883058
 30
0.0
 40
6.0
  0
CIRCLE
  5
84
102
{ACAD_REACTORS
330
E6
102
}
330
1F
100
AcDbEntity
  8
LC-001-002-----0
  6
ByBlock
 62
     7
370
    50
100
AcDbCircle
 10
228.214414
 20
222.883058
 30
0.0
 40
6.0
  0
CIRCLE
  5
85
102
{ACAD_REACTORS
330
E6
102
}
330
1F
100
AcDbEntity
  8
LC-001-002-----0
  6
ByBlock
 62
     7
370
    50
100
AcDbCircle
 10
323.214414
 20
222.883058
 30
0.0
 40
6.0
  0
CIRCLE
  5
86
102
{ACAD_REACTORS
330
E6
102
}
330
1F
100
AcDbEntity
  8
LC-001-002-----0
  6
ByBlock
 62
     7
370
    50
100
AcDbCircle
 10
228.214414
 20
317.883058
 30
0.0
 40
2.5
  0
ARC
  5
87
102
{ACAD_REACTORS
330
E6
102
}
330
1F
100
AcDbEntity
  8
LC-003-003-----0
 62
     7
370
    25
100
AcDbCircle
 10
228.214414
 20
317.883058
 30
0.0
 40
2.999999999999972
100
AcDbArc
 50
180.0
 51
90.0
  0
CIRCLE
  5
88
102
{ACAD_REACTORS
330
E6
102
}
330
1F
100
AcDbEntity
  8
LC-001-002-----0
  6
ByBlock
 62
     7
370
    50
100
AcDbCircle
 10
323.214414
 20
222.883058
 30
0.0
 40
2.499999999999972
  0
ARC
  5
89
102
{ACAD_REACTORS
330
E6
102
}
330
1F
100
AcDbEntity
  8
LC-003-003-----0
 62
     7
370
    25
100
AcDbCircle
 10
323.214414
 20
222.883058
 30
0.0
 40
3.0
100
AcDbArc
 50
180.0
 51
90.0
  0
LINE
  5
8A
102
{ACAD_REACTORS
330
E5
102
}
330
1F
100
AcDbEntity
  8
LC-001-002-----0
  6
ByBlock
 62
     7
370
    50
100
AcDbLine
 10
10.914414
 20
262.578668
 30
0.0
 11
10.914414
 21
261.53255
 31
0.0
  0
LINE
  5
8B
102
{ACAD_REACTORS
330
E5
102
}
330
1F
100
AcDbEntity
  8
LC-001-002-----0
  6
ByBlock
 62
     7
370
    50
100
AcDbLine
 10
123.914414
 20
268.276936
 30
0.0
 11
123.914414
 21
268.776936
 31
0.0
  0
LINE
  5
8C
102
{ACAD_REACTORS
330
E6
102
}
330
1F
100
AcDbEntity
  8
LC-001-002-----0
  6
ByBlock
 62
     7
370
    50
100
AcDbLine
 10
219.714414
 20
330.883058
 30
0.0
 11
331.714414
 21
330.883058
 31
0.0
  0
LINE
  5
8D
102
{ACAD_REACTORS
330
E6
102
}
330
1F
100
AcDbEntity
  8
LC-001-002-----0
  6
ByBlock
 62
     7
370
    50
100
AcDbLine
 10
215.214414
 20
214.383058
 30
0.0
 11
215.214414
 21
326.383058
 31
0.0
  0
LINE
  5
8E
102
{ACAD_REACTORS
330
E6
102
}
330
1F
100
AcDbEntity
  8
LC-001-002-----0
  6
ByBlock
 62
     7
370
    50
100
AcDbLine
 10
331.714414
 20
209.883058
 30
0.0
 11
219.714414
 21
209.883058
 31
0.0
  0
LINE
  5
8F
102
{ACAD_REACTORS
330
E6
102
}
330
1F
100
AcDbEntity
  8
LC-001-002-----0
  6
ByBlock
 62
     7
370
    50
100
AcDbLine
 10
336.214414
 20
326.383058
 30
0.0
 11
336.214414
 21
214.383058
 31
0.0
  0
ARC
  5
90
102
{ACAD_REACTORS
330
E6
102
}
330
1F
100
AcDbEntity
  8
LC-001-002-----0
  6
ByBlock
 62
     7
370
    50
100
AcDbCircle
 10
219.714414
 20
326.383058
 30
0.0
 40
4.500000000000455
100
AcDbArc
 50
90.0
 51
180.0
  0
ARC
  5
91
102
{ACAD_REACTORS
330
E6
102
}
330
1F
100
AcDbEntity
  8
LC-001-002-----0
  6
ByBlock
 62
     7
370
    50
100
AcDbCircle
 10
331.714414
 20
214.383058
 30
0.0
 40
4.500000000000455
100
AcDbArc
 50
270.0
 51
0.0
  0
ARC
  5
92
102
{ACAD_REACTORS
330
E6
102
}
330
1F
100
AcDbEntity
  8
LC-001-002-----0
  6
ByBlock
 62
     7
370
    50
100
AcDbCircle
 10
219.714414
 20
214.383058
 30
0.0
 40
4.500000000000455
100
AcDbArc
 50
180.0
 51
270.0
  0
ARC
  5
93
102
{ACAD_REACTORS
330
E6
102
}
330
1F
100
AcDbEntity
  8
LC-001-002-----0
  6
ByBlock
 62
     7
370
    50
100
AcDbCircle
 10
331.714414
 20
326.383058
 30
0.0
 40
4.500000000000512
100
AcDbArc
 50
0.0
 51
90.0
  0
LINE
  5
94
102
{ACAD_REACTORS
330
E5
102
}
330
1F
100
AcDbEntity
  8
LC-001-002-----0
  6
ByBlock
 62
     7
370
    50
100
AcDbLine
 10
125.714414
 20
267.776936
 30
0.0
 11
125.714414
 21
268.776936
 31
0.0
  0
LINE
  5
95
102
{ACAD_REACTORS
330
E5
102
}
330
1F
100
AcDbEntity
  8
LC-001-002-----0
  6
ByBlock
 62
     7
370
    50
100
AcDbLine
 10
124.214414
 20
269.776936
 30
0.0
 11
124.714414
 21
269.776936
 31
0.0
  0
LINE
  5
96
102
{ACAD_REACTORS
330
E5
102
}
330
1F
100
AcDbEntity
  8
LC-001-002-----0
  6
ByBlock
 62
     7
370
    50
100
AcDbLine
 10
124.214414
 20
269.076936
 30
0.0
 11
124.714414
 21
269.076936
 31
0.0
  0
LINE
  5
97
102
{ACAD_REACTORS
330
E5
102
}
330
1F
100
AcDbEntity
  8
LC-001-002-----0
  6
ByBlock
 62
     7
370
    50
100
AcDbLine
 10
125.014414
 20
267.776936
 30
0.0
 11
125.014414
 21
268.776936
 31
0.0
  0
ARC
  5
98
102
{ACAD_REACTORS
330
E5
102
}
330
1F
100
AcDbEntity
  8
LC-002-002-RND-0
 62
     7
370
    50
100
AcDbCircle
 10
124.714414
 20
268.776936
 30
0.0
 40
0.3000000000000114
100
AcDbArc
 50
0.0
 51
90.0
  0
ARC
  5
99
102
{ACAD_REACTORS
330
E5
102
}
330
1F
100
AcDbEntity
  8
LC-002-002-RND-0
 62
     7
370
    50
100
AcDbCircle
 10
124.214414
 20
268.776936
 30
0.0
 40
0.3000000000000114
100
AcDbArc
 50
90.0
 51
180.0
  0
ARC
  5
9A
102
{ACAD_REACTORS
330
E5
102
}
330
1F
100
AcDbEntity
  8
LC-001-002-----0
  6
ByBlock
 62
     7
370
    50
100
AcDbCircle
 10
124.714414
 20
268.776936
 30
0.0
 40
1.0
100
AcDbArc
 50
0.0
 51
90.0
  0
ARC
  5
9B
102
{ACAD_REACTORS
330
E5
102
}
330
1F
100
AcDbEntity
  8
LC-001-002-----0
  6
ByBlock
 62
     7
370
    50
100
AcDbCircle
 10
124.214414
 20
268.776936
 30
0.0
 40
1.0
100
AcDbArc
 50
90.0
 51
180.0
  0
LINE
  5
9C
102
{ACAD_REACTORS
330
E5
102
}
330
1F
100
AcDbEntity
  8
LC-001-002-----0
  6
ByBlock
 62
     7
370
    50
100
AcDbLine
 10
6.514414
 20
267.776936
 30
0.0
 11
4.714414
 21
267.776936
 31
0.0
  0
LINE
  5
9D
102
{ACAD_REACTORS
330
E5
102
}
330
1F
100
AcDbEntity
  8
LC-001-002-----0
  6
ByBlock
 62
     7
370
    50
100
AcDbLine
 10
6.514414
 20
268.276936
 30
0.0
 11
6.514414
 21
268.776936
 31
0.0
  0
LINE
  5
9E
102
{ACAD_REACTORS
330
E5
102
}
330
1F
100
AcDbEntity
  8
LC-001-002-----0
  6
ByBlock
 62
     7
370
    50
100
AcDbLine
 10
4.714414
 20
267.776936
 30
0.0
 11
4.714414
 21
268.776936
 31
0.0
  0
LINE
  5
9F
102
{ACAD_REACTORS
330
E5
102
}
330
1F
100
AcDbEntity
  8
LC-001-002-----0
  6
ByBlock
 62
     7
370
    50
100
AcDbLine
 10
6.214414
 20
269.776936
 30
0.0
 11
5.714414
 21
269.776936
 31
0.0
  0
LINE
  5
A0
102
{ACAD_REACTORS
330
E5
102
}
330
1F
100
AcDbEntity
  8
LC-001-002-----0
  6
ByBlock
 62
     7
370
    50
100
AcDbLine
 10
6.214414
 20
269.076936
 30
0.0
 11
5.714414
 21
269.076936
 31
0.0
  0
LINE
  5
A1
102
{ACAD_REACTORS
330
E5
102
}
330
1F
100
AcDbEntity
  8
LC-001-002-----0
  6
ByBlock
 62
     7
370
    50
100
AcDbLine
 10
5.414414
 20
267.776936
 30
0.0
 11
5.414414
 21
268.776936
 31
0.0
  0
ARC
  5
A2
102
{ACAD_REACTORS
330
E5
102
}
330
1F
100
AcDbEntity
  8
LC-002-002-RND-0
 62
     7
370
    50
100
AcDbCircle
 10
5.714414
 20
268.776936
 30
0.0
 40
0.3000000000000114
100
AcDbArc
 50
90.0
 51
180.0
  0
ARC
  5
A3
102
{ACAD_REACTORS
330
E5
102
}
330
1F
100
AcDbEntity
  8
LC-002-002-RND-0
 62
     7
370
    50
100
AcDbCircle
 10
6.214414
 20
268.776936
 30
0.0
 40
0.3000000000000114
100
AcDbArc
 50
0.0
 51
90.0
  0
ARC
  5
A4
102
{ACAD_REACTORS
330
E5
102
}
330
1F
100
AcDbEntity
  8
LC-001-002-----0
  6
ByBlock
 62
     7
370
    50
100
AcDbCircle
 10
5.714414
 20
268.776936
 30
0.0
 40
1.0
100
AcDbArc
 50
90.0
 51
180.0
  0
ARC
  5
A5
102
{ACAD_REACTORS
330
E5
102
}
330
1F
100
AcDbEntity
  8
LC-001-002-----0
  6
ByBlock
 62
     7
370
    50
100
AcDbCircle
 10
6.214414
 20
268.776936
 30
0.0
 40
1.0
100
AcDbArc
 50
360.0
 51
90.0
  0
LINE
  5
A6
102
{ACAD_REACTORS
330
E5
102
}
330
1F
100
AcDbEntity
  8
LC-001-002-----0
  6
ByBlock
 62
     7
370
    50
100
AcDbLine
 10
13.221419
 20
254.320621
 30
0.0
 11
14.273932
 21
251.428864
 31
0.0
  0
LINE
  5
A7
102
{ACAD_REACTORS
330
E5
102
}
330
1F
100
AcDbEntity
  8
LC-001-002-----0
  6
ByBlock
 62
     7
370
    50
100
AcDbLine
 10
13.868786
 20
254.601758
 30
0.0
 11
14.934233
 21
251.674466
 31
0.0
  0
LINE
  5
A8
102
{ACAD_REACTORS
330
E5
102
}
330
1F
100
AcDbEntity
  8
LC-001-002-----0
  6
ByBlock
 62
     7
370
    50
100
AcDbLine
 10
14.935928
 20
251.669811
 30
0.0
 11
14.273932
 21
251.428864
 31
0.0
  0
LINE
  5
A9
102
{ACAD_REACTORS
330
E5
102
}
330
1F
100
AcDbEntity
  8
LC-001-002-----0
  6
ByBlock
 62
     7
370
    50
100
AcDbLine
 10
14.150694
 20
255.004364
 30
0.0
 11
14.214414
 21
255.004364
 31
0.0
  0
LINE
  5
AA
102
{ACAD_REACTORS
330
E5
102
}
330
1F
100
AcDbEntity
  8
LC-001-002-----0
  6
ByBlock
 62
     7
370
    50
100
AcDbLine
 10
14.214414
 20
255.004364
 30
0.0
 11
14.214414
 21
259.83255
 31
0.0
  0
LINE
  5
AB
102
{ACAD_REACTORS
330
E5
102
}
330
1F
100
AcDbEntity
  8
LC-001-002-----0
  6
ByBlock
 62
     7
370
    50
100
AcDbLine
 10
13.514414
 20
255.510115
 30
0.0
 11
13.514414
 21
259.83255
 31
0.0
  0
ARC
  5
AC
102
{ACAD_REACTORS
330
E5
102
}
330
1F
100
AcDbEntity
  8
LC-002-002-RND-0
 62
     7
370
    50
100
AcDbCircle
 10
13.014414
 20
259.83255
 30
0.0
 40
0.5
100
AcDbArc
 50
0.0
 51
90.0
  0
ARC
  5
AD
102
{ACAD_REACTORS
330
E5
102
}
330
1F
100
AcDbEntity
  8
LC-002-002-RND-0
 62
     7
370
    50
100
AcDbCircle
 10
13.014414
 20
259.83255
 30
0.0
 40
1.199999999999989
100
AcDbArc
 50
360.0
 51
90.0
  0
ARC
  5
AE
102
{ACAD_REACTORS
330
E5
102
}
330
1F
100
AcDbEntity
  8
LC-001-002-----0
  6
ByBlock
 62
     7
370
    50
100
AcDbCircle
 10
14.255081
 20
254.696843
 30
0.0
 40
1.100000000000028
100
AcDbArc
 50
132.324889
 51
200.0
  0
ARC
  5
AF
102
{ACAD_REACTORS
330
E5
102
}
330
1F
100
AcDbEntity
  8
LC-002-002-RND-0
 62
     7
370
    50
100
AcDbCircle
 10
14.150694
 20
254.704364
 30
0.0
 40
0.3000000000000398
100
AcDbArc
 50
90.0
 51
200.0
  0
LINE
  5
B0
102
{ACAD_REACTORS
330
E5
102
}
330
1F
100
AcDbEntity
  8
LC-001-002-----0
  6
ByBlock
 62
     7
370
    50
100
AcDbLine
 10
14.214414
 20
255.004364
 30
0.0
 11
65.214414
 21
255.004364
 31
0.0
  0
INSERT
  5
BD
102
{ACAD_REACTORS
330
E5
102
}
330
1F
100
AcDbEntity
  8
LC-004-005-----0
 62
     7
370
    25
100
AcDbBlockReference
  2
*X11
 10
0.0
 20
0.0
 30
0.0
  0
INSERT
  5
C5
102
{ACAD_REACTORS
330
E5
102
}
330
1F
100
AcDbEntity
  8
LC-004-005-----0
 62
     7
370
    25
100
AcDbBlockReference
  2
*X22
 10
0.0
 20
0.0
 30
0.0
  0
DIMENSION
  5
C8
330
1F
100
AcDbEntity
  8
LC-003-003-----0
 62
     7
370
    25
100
AcDbDimension
  2
*D3
 10
125.714414
 20
292.306012
 30
0.0
 11
76.470562
 21
323.106012
 31
0.0
 70
   160
  1
120
 71
     5
 42
121.0
  3
LC-DIM-L-0140-02-02
100
AcDbAlignedDimension
 13
4.714414
 23
267.776936
 33
0.0
 14
125.714414
 24
267.776936
 34
0.0
100
AcDbRotatedDimension
  0
DIMENSION
  5
D6
330
1F
100
AcDbEntity
  8
LC-003-003-----0
 62
     7
370
    25
100
AcDbDimension
  2
*D4
 10
-17.767016
 20
263.576936
 30
0.0
 11
-48.567016
 21
269.052
 31
0.0
 70
   160
 71
     5
 42
6.2
 53
90.0
  3
LC-DIM-L-0140-02-02
100
AcDbAlignedDimension
 13
5.714414
 23
269.776936
 33
0.0
 14
7.714414
 24
263.576936
 34
0.0
 50
90.0
100
AcDbRotatedDimension
  0
ENDSEC
  0
SECTION
  2
OBJECTS
  0
DICTIONARY
  5
C
330
0
100
AcDbDictionary
281
     1
  3
ACAD_GROUP
350
D
  3
ACAD_LAYOUT
350
1A
  3
ACAD_MLINESTYLE
350
17
  3
ACAD_PLOTSETTINGS
350
19
  3
ACAD_PLOTSTYLENAME
350
E
  0
DICTIONARY
  5
D
102
{ACAD_REACTORS
330
C
102
}
330
C
100
AcDbDictionary
281
     1
  3
LCGROUP61
350
E5
  3
LCGROUP79
350
E6
  0
DICTIONARY
  5
1A
102
{ACAD_REACTORS
330
C
102
}
330
C
100
AcDbDictionary
281
     1
  3
Layout1
350
1E
  3
Layout2
350
26
  3
Model
350
22
  0
DICTIONARY
  5
17
102
{ACAD_REACTORS
330
C
102
}
330
C
100
AcDbDictionary
281
     1
  3
Standard
350
18
  0
DICTIONARY
  5
19
102
{ACAD_REACTORS
330
C
102
}
330
C
100
AcDbDictionary
281
     1
  0
ACDBDICTIONARYWDFLT
  5
E
102
{ACAD_REACTORS
330
C
102
}
330
C
100
AcDbDictionary
281
     1
  3
Normal
350
F
100
AcDbDictionaryWithDefault
340
F
  0
GROUP
  5
E5
102
{ACAD_REACTORS
330
D
102
}
330
D
100
AcDbGroup
300
GRP61
 70
     1
 71
     1
340
39
340
3A
340
3B
340
3C
340
3D
340
3E
340
44
340
45
340
46
340
47
340
48
340
49
340
4A
340
4B
340
4E
340
4F
340
50
340
51
340
52
340
53
340
54
340
56
340
57
340
58
340
59
340
5A
340
5B
340
5C
340
5D
340
5E
340
5F
340
60
340
61
340
62
340
63
340
64
340
65
340
66
340
67
340
69
340
6A
340
6B
340
6C
340
6D
340
6E
340
6F
340
70
340
72
340
73
340
74
340
75
340
76
340
77
340
78
340
79
340
7A
340
7B
340
8A
340
8B
340
94
340
95
340
96
340
97
340
98
340
99
340
9A
340
9B
340
9C
340
9D
340
9E
340
9F
340
A0
340
A1
340
A2
340
A3
340
A4
340
A5
340
A6
340
A7
340
A8
340
A9
340
AA
340
AB
340
AC
340
AD
340
AE
340
AF
340
B0
340
BD
340
C5
  0
GROUP
  5
E6
102
{ACAD_REACTORS
330
D
102
}
330
D
100
AcDbGroup
300
GRP79-LCMaster-LCGROUP188
 70
     1
 71
     1
340
38
340
40
340
41
340
42
340
43
340
4C
340
4D
340
55
340
68
340
71
340
7C
340
7D
340
7E
340
7F
340
80
340
81
340
82
340
83
340
84
340
85
340
86
340
87
340
88
340
89
340
8C
340
8D
340
8E
340
8F
340
90
340
91
340
92
340
93
  0
LAYOUT
  5
1E
102
{ACAD_REACTORS
330
1A
102
}
330
1A
100
AcDbPlotSettings
  1

  2

  4

  6

 40
0.0
 41
0.0
 42
0.0
 43
0.0
 44
0.0
 45
0.0
 46
0.0
 47
0.0
 48
0.0
 49
0.0
140
0.0
141
0.0
142
1.0
143
1.0
 70
   688
 72
     0
 73
     0
 74
     5
  7

 75
    16
147
1.0
148
0.0
149
0.0
100
AcDbLayout
  1
Layout1
 70
     1
 71
     1
 10
-319.159416
 20
-58.836
 11
520.840584
 21
535.164
 12
0.0
 22
0.0
 32
0.0
 14
-319.159416
 24
-58.836
 34
0.0
 15
520.840584
 25
535.164
 35
0.0
146
0.0
 13
0.0
 23
0.0
 33
0.0
 16
1.0
 26
0.0
 36
0.0
 17
0.0
 27
1.0
 37
0.0
 76
     0
330
1B
  0
LAYOUT
  5
26
102
{ACAD_REACTORS
330
1A
102
}
330
1A
100
AcDbPlotSettings
  1

  2

  4

  6

 40
0.0
 41
0.0
 42
0.0
 43
0.0
 44
0.0
 45
0.0
 46
0.0
 47
0.0
 48
0.0
 49
0.0
140
0.0
141
0.0
142
1.0
143
1.0
 70
   688
 72
     0
 73
     0
 74
     5
  7

 75
    16
147
1.0
148
0.0
149
0.0
100
AcDbLayout
  1
Layout2
 70
     1
 71
     2
 10
0.0
 20
0.0
 11
0.0
 21
0.0
 12
0.0
 22
0.0
 32
0.0
 14
0.0
 24
0.0
 34
0.0
 15
0.0
 25
0.0
 35
0.0
146
0.0
 13
0.0
 23
0.0
 33
0.0
 16
1.0
 26
0.0
 36
0.0
 17
0.0
 27
1.0
 37
0.0
 76
     0
330
23
  0
LAYOUT
  5
22
102
{ACAD_REACTORS
330
1A
102
}
330
1A
100
AcDbPlotSettings
  1

  2

  4

  6

 40
0.0
 41
0.0
 42
0.0
 43
0.0
 44
0.0
 45
0.0
 46
0.0
 47
0.0
 48
0.0
 49
0.0
140
0.0
141
0.0
142
1.0
143
1.0
 70
  1776
 72
     0
 73
     0
 74
     0
  7

 75
     0
147
1.0
148
0.0
149
0.0
100
AcDbLayout
  1
Model
 70
     1
 71
     0
 10
-319.159416
 20
-58.836
 11
520.840584
 21
535.164
 12
-109.159416
 22
89.664
 32
0.0
 14
-319.159416
 24
-58.836
 34
0.0
 15
520.840584
 25
535.164
 35
0.0
146
0.0
 13
0.0
 23
0.0
 33
0.0
 16
1.0
 26
0.0
 36
0.0
 17
0.0
 27
1.0
 37
0.0
 76
     0
330
1F
  0
MLINESTYLE
  5
18
102
{ACAD_REACTORS
330
17
102
}
330
17
100
AcDbMlineStyle
  2
Standard
 70
     0
  3

 62
   256
 51
90.0
 52
90.0
 71
     2
 49
0.5
 62
   256
  6
BYLAYER
 49
-0.5
 62
   256
  6
BYLAYER
  0
ACDBPLACEHOLDER
  5
F
102
{ACAD_REACTORS
330
E
102
}
330
E
  0
ENDSEC
  0
EOF
