  0
SECTION
  2
HEADER
  9
$ACADVER
  1
AC1009
  9
$INSBASE
 10
193.745215
 20
434.90652
 30
0.0
  9
$EXTMIN
 10
-77.754785
 20
242.90652
 30
0.0
  9
$EXTMAX
 10
762.245215
 20
836.90652
 30
0.0
  9
$LIMMIN
 10
-77.754785
 20
242.90652
  9
$LIMMAX
 10
762.245215
 20
836.90652
  9
$ORTHOMODE
 70
     0
  9
$REGENMODE
 70
     1
  9
$FILLMODE
 70
     1
  9
$QTEXTMODE
 70
     0
  9
$MIRRTEXT
 70
     1
  9
$DRAGMODE
 70
     2
  9
$LTSCALE
 40
2.0
  9
$OSMODE
 70
     0
  9
$ATTMODE
 70
     1
  9
$TEXTSIZE
 40
0.2
  9
$TRACEWID
 40
0.05
  9
$TEXTSTYLE
  7
STANDARD
  9
$CLAYER
  8
0
  9
$CELTYPE
  6
BYLAYER
  9
$CECOLOR
 62
     7
  9
$DIMSCALE
 40
2.0
  9
$DIMASZ
 40
3.5
  9
$DIMEXO
 40
0.0625
  9
$DIMDLI
 40
0.38
  9
$DIMRND
 40
0.0
  9
$DIMDLE
 40
0.0
  9
$DIMEXE
 40
0.18
  9
$DIMTP
 40
0.0
  9
$DIMTM
 40
0.0
  9
$DIMTXT
 40
3.5
  9
$DIMCEN
 40
0.09
  9
$DIMTSZ
 40
0.0
  9
$DIMTOL
 70
     0
  9
$DIMLIM
 70
     0
  9
$DIMTIH
 70
     1
  9
$DIMTOH
 70
     1
  9
$DIMSE1
 70
     0
  9
$DIMSE2
 70
     0
  9
$DIMTAD
 70
     1
  9
$DIMZIN
 70
     0
  9
$DIMBLK
  1

  9
$DIMASO
 70
     1
  9
$DIMSHO
 70
     1
  9
$DIMPOST
  1

  9
$DIMAPOST
  1

  9
$DIMALT
 70
     0
  9
$DIMALTD
 70
     2
  9
$DIMALTF
 40
25.4
  9
$DIMLFAC
 40
1.0
  9
$DIMTOFL
 70
     0
  9
$DIMTVP
 40
0.0
  9
$DIMTIX
 70
     0
  9
$DIMSOXD
 70
     0
  9
$DIMSAH
 70
     0
  9
$DIMBLK1
  1

  9
$DIMBLK2
  1

  9
$DIMSTYLE
  2
STANDARD
  9
$DIMCLRD
 70
     0
  9
$DIMCLRE
 70
     0
  9
$DIMCLRT
 70
     0
  9
$DIMTFAC
 40
1.0
  9
$DIMGAP
 40
0.09
  9
$LUNITS
 70
     2
  9
$LUPREC
 70
     2
  9
$AXISMODE
 70
     0
  9
$AXISUNIT
 10
0.0
 20
0.0
  9
$SKETCHINC
 40
0.1
  9
$FILLETRAD
 40
0.0
  9
$AUNITS
 70
     0
  9
$AUPREC
 70
     0
  9
$MENU
  1
acad
  9
$ELEVATION
 40
0.0
  9
$PELEVATION
 40
0.0
  9
$THICKNESS
 40
0.0
  9
$LIMCHECK
 70
     0
  9
$BLIPMODE
 70
     1
  9
$CHAMFERA
 40
0.0
  9
$CHAMFERB
 40
0.0
  9
$SKPOLY
 70
     0
  9
$TDCREATE
 40
0.000000000
  9
$TDUPDATE
 40
0.000000000
  9
$TDINDWG
 40
0.0000000000
  9
$TDUSRTIMER
 40
0.0000000000
  9
$USRTIMER
 70
     1
  9
$ANGBASE
 50
0.0
  9
$ANGDIR
 70
     0
  9
$PDMODE
 70
     0
  9
$PDSIZE
 40
0.0
  9
$PLINEWID
 40
0.0
  9
$COORDS
 70
     0
  9
$SPLFRAME
 70
     0
  9
$SPLINETYPE
 70
     6
  9
$SPLINESEGS
 70
     8
  9
$ATTDIA
 70
     0
  9
$ATTREQ
 70
     1
  9
$HANDLING
 70
     1
  9
$HANDSEED
  5
176
  9
$SURFTAB1
 70
     6
  9
$SURFTAB2
 70
     6
  9
$SURFTYPE
 70
     6
  9
$SURFU
 70
     6
  9
$SURFV
 70
     6
  9
$UCSNAME
  2

  9
$UCSORG
 10
0.0
 20
0.0
 30
0.0
  9
$UCSXDIR
 10
1.0
 20
0.0
 30
0.0
  9
$UCSYDIR
 10
0.0
 20
1.0
 30
0.0
  9
$PUCSNAME
  2

  9
$PUCSORG
 10
0.0
 20
0.0
 30
0.0
  9
$PUCSXDIR
 10
1.0
 20
0.0
 30
0.0
  9
$PUCSYDIR
 10
0.0
 20
1.0
 30
0.0
  9
$USERI1
 70
     0
  9
$USERI2
 70
     0
  9
$USERI3
 70
     0
  9
$USERI4
 70
     0
  9
$USERI5
 70
     0
  9
$USERR1
 40
0.0
  9
$USERR2
 40
0.0
  9
$USERR3
 40
0.0
  9
$USERR4
 40
0.0
  9
$USERR5
 40
0.0
  9
$WORLDVIEW
 70
     1
  9
$SHADEDGE
 70
     3
  9
$SHADEDIF
 70
    70
  9
$TILEMODE
 70
     1
  9
$MAXACTVP
 70
    16
  9
$PINSBASE
 10
0.0
 20
0.0
 30
0.0
  9
$PLIMCHECK
 70
     0
  9
$PEXTMIN
 10
1.000000E+20
 20
1.000000E+20
 30
1.000000E+20
  9
$PEXTMAX
 10
-1.000000E+20
 20
-1.000000E+20
 30
-1.000000E+20
  9
$PLIMMIN
 10
-77.754785
 20
242.90652
  9
$PLIMMAX
 10
762.245215
 20
836.90652
  9
$UNITMODE
 70
     0
  9
$VISRETAIN
 70
     0
  9
$PLINEGEN
 70
     1
  9
$PSLTSCALE
 70
     0
  9
$TREEDEPTH
 70
  3020
  9
$DWGCODEPAGE
  3
dos850
  0
ENDSEC
  0
SECTION
  2
TABLES
  0
TABLE
  2
VPORT
 70
     1
  0
VPORT
  2
*ACTIVE
 70
     0
 10
0.0
 20
0.0
 11
1.0
 21
1.0
 12
420.0
 22
297.0
 13
0.0
 23
0.0
 14
1.0
 24
1.0
 15
0.0
 25
0.0
 16
0.0
 26
0.0
 36
1.0
 17
-77.754785
 27
242.90652
 37
0.0
 40
594.0
 41
1.604229
 42
50.0
 43
0.0
 44
0.0
 50
0.0
 51
0.0
 71
     0
 72
   100
 73
     1
 74
     1
 75
     0
 76
     0
 77
     0
 78
     0
  0
ENDTAB
  0
TABLE
  2
LTYPE
 70
     2
  0
LTYPE
  2
CONTINUOUS
 70
    64
  3
Solid line
 72
    65
 73
     0
 40
0.0
  0
LTYPE
  2
DASHDOT
 70
    64
  3
__ . __ . __ . __ . __
 72
    65
 73
     4
 40
7.5
 49
5.0
 49
-1.25
 49
0.0
 49
-1.25
  0
ENDTAB
  0
TABLE
  2
LAYER
 70
    11
  0
LAYER
  2
0
 70
     0
 62
     7
  6
CONTINUOUS
  0
LAYER
  2
LC-INFO-1-2-MM-A3-0
 70
     1
 62
    -1
  6
CONTINUOUS
  0
LAYER
  2
LC-002-005-----0
 70
     0
 62
     2
  6
CONTINUOUS
  0
LAYER
  2
LC-007-003-MTH-0
 70
     0
 62
     2
  6
CONTINUOUS
  0
LAYER
  2
LC-008-003-MTG-0
 70
     0
 62
     2
  6
CONTINUOUS
  0
LAYER
  2
LC-005-003-----0
 70
     0
 62
     2
  6
CONTINUOUS
  0
LAYER
  2
LC-003-000-----0
 70
     0
 62
     7
  6
CONTINUOUS
  0
LAYER
  2
LC-001-002-----0
 70
     0
 62
     1
  6
CONTINUOUS
  0
LAYER
  2
LC-004-002-RND-0
 70
     0
 62
     1
  6
CONTINUOUS
  0
LAYER
  2
LC-006-001-----0
 70
     0
 62
     1
  6
CONTINUOUS
  0
LAYER
  2
LC-000
 70
     0
 62
     7
  6
CONTINUOUS
  0
ENDTAB
  0
TABLE
  2
STYLE
 70
     4
  0
STYLE
  2
STANDARD
 70
     0
 40
0.0
 41
1.0
 50
0.0
 71
     0
 42
0.0
  3
txt
  4

  0
STYLE
  2
LC-STANDARD
 70
    64
 40
0.0
 41
1.0
 50
0.0
 71
     0
 42
3.5
  3
MONOTXT
  4

  0
STYLE
  2
LC-TXTSTYLE-150-400-0-0-A2
 70
    64
 40
0.0
 41
1.0
 50
15.0
 71
     0
 42
3.5
  3
MONOTXT
  4

  0
STYLE
  2
LC-TXTSTYLE-150-400-0-0-D3
 70
    64
 40
0.0
 41
1.0
 50
15.0
 71
     0
 42
3.5
  3
LC-STANDARD
  4

  0
ENDTAB
  0
TABLE
  2
VIEW
 70
     0
  0
ENDTAB
  0
TABLE
  2
UCS
 70
     0
  0
ENDTAB
  0
TABLE
  2
APPID
 70
     1
  0
APPID
  2
ACAD
 70
     0
  0
ENDTAB
  0
TABLE
  2
DIMSTYLE
 70
     3
  0
DIMSTYLE
  2
STANDARD
 70
     0
  3

  4

  5

  6

  7

 40
1.0
 41
0.18
 42
0.0625
 43
0.38
 44
0.18
 45
0.0
 46
0.0
 47
0.0
 48
0.0
 71
     0
 72
     0
 73
     1
 74
     1
 75
     0
 76
     0
 77
     0
 78
     0
140
0.18
141
0.09
142
0.0
143
25.4
144
1.0
145
0.0
146
1.0
147
0.09
170
     0
171
     2
172
     0
173
     0
174
     0
175
     0
176
     0
177
     0
178
     0
  0
DIMSTYLE
  2
LC-STANDARD
 70
     0
  3

  4

  5

  6

  7

 40
1.0
 41
3.5
 42
0.0
 43
7.5
 44
1.8
 45
0.0
 46
0.0
 47
0.0
 48
0.0
 71
     0
 72
     0
 73
     0
 74
     0
 75
     0
 76
     0
 77
     1
 78
     8
140
3.5
141
0.0
142
0.0
143
25.4
144
1.0
145
0.0
146
0.71
147
1.5
170
     0
171
     2
172
     1
173
     0
174
     0
175
     0
176
     0
177
     0
178
     3
  0
DIMSTYLE
  2
LC-DIM-L-0140-02-02
 70
     0
  3

  4

  5

  6

  7

 40
2.0
 41
3.5
 42
0.0
 43
7.5
 44
1.8
 45
0.0
 46
0.0
 47
0.0
 48
0.0
 71
     0
 72
     0
 73
     0
 74
     0
 75
     0
 76
     0
 77
     1
 78
     8
140
14.0
141
0.0
142
0.0
143
25.4
144
1.0
145
0.0
146
0.71
147
1.5
170
     0
171
     2
172
     0
173
     0
174
     0
175
     0
176
     2
177
     2
178
     8
  0
ENDTAB
  0
ENDSEC
  0
SECTION
  2
BLOCKS
  0
BLOCK
  8
0
  5
23
  2
*X0
 70
    65
 10
324.562489
 20
540.361955
 30
0.0
  3
*X0
  0
LINE
  8
LC-002-005-----0
  6
CONTINUOUS
  5
25
 10
325.401493
 20
540.361955
 30
0.0
 11
327.075008
 21
542.035469
 31
0.0
  0
LINE
  8
LC-002-005-----0
  6
CONTINUOUS
  5
26
 10
325.162489
 20
542.951378
 30
0.0
 11
327.162489
 21
544.951378
 31
0.0
  0
LINE
  8
LC-002-005-----0
  6
CONTINUOUS
  5
27
 10
325.162489
 20
545.779805
 30
0.0
 11
327.162489
 21
547.779805
 31
0.0
  0
LINE
  8
LC-002-005-----0
  6
CONTINUOUS
  5
28
 10
325.162489
 20
548.608232
 30
0.0
 11
327.162489
 21
550.608232
 31
0.0
  0
LINE
  8
LC-002-005-----0
  6
CONTINUOUS
  5
29
 10
325.162489
 20
551.436659
 30
0.0
 11
327.162489
 21
553.436659
 31
0.0
  0
LINE
  8
LC-002-005-----0
  6
CONTINUOUS
  5
2A
 10
325.162489
 20
554.265086
 30
0.0
 11
327.162489
 21
556.265086
 31
0.0
  0
LINE
  8
LC-002-005-----0
  6
CONTINUOUS
  5
2B
 10
325.162489
 20
557.093513
 30
0.0
 11
327.162489
 21
559.093513
 31
0.0
  0
LINE
  8
LC-002-005-----0
  6
CONTINUOUS
  5
2C
 10
325.162489
 20
559.921941
 30
0.0
 11
327.162489
 21
561.921941
 31
0.0
  0
LINE
  8
LC-002-005-----0
  6
CONTINUOUS
  5
2D
 10
325.162489
 20
562.750368
 30
0.0
 11
327.162489
 21
564.750368
 31
0.0
  0
LINE
  8
LC-002-005-----0
  6
CONTINUOUS
  5
2E
 10
325.162489
 20
565.578795
 30
0.0
 11
327.162489
 21
567.578795
 31
0.0
  0
LINE
  8
LC-002-005-----0
  6
CONTINUOUS
  5
2F
 10
325.162489
 20
568.407222
 30
0.0
 11
327.162489
 21
570.407222
 31
0.0
  0
LINE
  8
LC-002-005-----0
  6
CONTINUOUS
  5
30
 10
325.162489
 20
571.235649
 30
0.0
 11
327.162489
 21
573.235649
 31
0.0
  0
LINE
  8
LC-002-005-----0
  6
CONTINUOUS
  5
31
 10
325.162489
 20
574.064076
 30
0.0
 11
327.162489
 21
576.064076
 31
0.0
  0
LINE
  8
LC-002-005-----0
  6
CONTINUOUS
  5
32
 10
325.162489
 20
576.892503
 30
0.0
 11
327.162489
 21
578.892503
 31
0.0
  0
LINE
  8
LC-002-005-----0
  6
CONTINUOUS
  5
33
 10
325.162489
 20
579.72093
 30
0.0
 11
327.162489
 21
581.72093
 31
0.0
  0
LINE
  8
LC-002-005-----0
  6
CONTINUOUS
  5
34
 10
324.95934
 20
582.346208
 30
0.0
 11
327.162489
 21
584.549358
 31
0.0
  0
ENDBLK
  8
0
  5
35
  0
BLOCK
  8
0
  5
37
  2
*X1
 70
    65
 10
235.462489
 20
540.361955
 30
0.0
  3
*X1
  0
LINE
  8
LC-002-005-----0
  6
CONTINUOUS
  5
38
 10
235.764543
 20
541.234673
 30
0.0
 11
237.462489
 21
542.932619
 31
0.0
  0
LINE
  8
LC-002-005-----0
  6
CONTINUOUS
  5
39
 10
235.462489
 20
543.761046
 30
0.0
 11
237.462489
 21
545.761046
 31
0.0
  0
LINE
  8
LC-002-005-----0
  6
CONTINUOUS
  5
3A
 10
235.462489
 20
546.589473
 30
0.0
 11
237.462489
 21
548.589473
 31
0.0
  0
LINE
  8
LC-002-005-----0
  6
CONTINUOUS
  5
3B
 10
235.462489
 20
549.4179
 30
0.0
 11
237.462489
 21
551.4179
 31
0.0
  0
LINE
  8
LC-002-005-----0
  6
CONTINUOUS
  5
3C
 10
235.462489
 20
552.246327
 30
0.0
 11
237.462489
 21
554.246327
 31
0.0
  0
LINE
  8
LC-002-005-----0
  6
CONTINUOUS
  5
3D
 10
235.462489
 20
555.074754
 30
0.0
 11
237.462489
 21
557.074754
 31
0.0
  0
LINE
  8
LC-002-005-----0
  6
CONTINUOUS
  5
3E
 10
235.462489
 20
557.903181
 30
0.0
 11
237.462489
 21
559.903181
 31
0.0
  0
LINE
  8
LC-002-005-----0
  6
CONTINUOUS
  5
3F
 10
235.462489
 20
560.731609
 30
0.0
 11
237.462489
 21
562.731609
 31
0.0
  0
LINE
  8
LC-002-005-----0
  6
CONTINUOUS
  5
40
 10
235.462489
 20
563.560036
 30
0.0
 11
237.462489
 21
565.560036
 31
0.0
  0
LINE
  8
LC-002-005-----0
  6
CONTINUOUS
  5
41
 10
235.462489
 20
566.388463
 30
0.0
 11
237.462489
 21
568.388463
 31
0.0
  0
LINE
  8
LC-002-005-----0
  6
CONTINUOUS
  5
42
 10
235.462489
 20
569.21689
 30
0.0
 11
237.462489
 21
571.21689
 31
0.0
  0
LINE
  8
LC-002-005-----0
  6
CONTINUOUS
  5
43
 10
235.462489
 20
572.045317
 30
0.0
 11
237.462489
 21
574.045317
 31
0.0
  0
LINE
  8
LC-002-005-----0
  6
CONTINUOUS
  5
44
 10
235.462489
 20
574.873744
 30
0.0
 11
237.462489
 21
576.873744
 31
0.0
  0
LINE
  8
LC-002-005-----0
  6
CONTINUOUS
  5
45
 10
235.462489
 20
577.702171
 30
0.0
 11
237.462489
 21
579.702171
 31
0.0
  0
LINE
  8
LC-002-005-----0
  6
CONTINUOUS
  5
46
 10
235.462489
 20
580.530598
 30
0.0
 11
237.601049
 21
582.669158
 31
0.0
  0
LINE
  8
LC-002-005-----0
  6
CONTINUOUS
  5
47
 10
235.462489
 20
583.359026
 30
0.0
 11
236.965419
 21
584.861955
 31
0.0
  0
ENDBLK
  8
0
  5
48
  0
BLOCK
  8
0
  5
4A
  2
BLK1
 70
    64
 10
0.0
 20
0.0
 30
0.0
  3
BLK1
  0
ENDBLK
  8
0
  5
4B
  0
BLOCK
  8
0
  5
4D
  2
BLK2
 70
    64
 10
0.0
 20
0.0
 30
0.0
  3
BLK2
  0
ENDBLK
  8
0
  5
4E
  0
BLOCK
  8
0
  5
50
  2
BLK3
 70
    64
 10
0.0
 20
0.0
 30
0.0
  3
BLK3
  0
ENDBLK
  8
0
  5
51
  0
BLOCK
  8
0
  5
53
  2
*X5
 70
    65
 10
323.462211
 20
575.593276
 30
0.0
  3
*X5
  0
LINE
  8
LC-002-005-----0
  6
CONTINUOUS
  5
54
 10
323.941919
 20
575.671933
 30
0.0
 11
324.198268
 21
575.928282
 31
0.0
  0
LINE
  8
LC-002-005-----0
  6
CONTINUOUS
  5
55
 10
337.136327
 20
588.866341
 30
0.0
 11
337.836327
 21
589.566341
 31
0.0
  0
LINE
  8
LC-002-005-----0
  6
CONTINUOUS
  5
56
 10
339.312489
 20
591.042503
 30
0.0
 11
340.012489
 21
591.742503
 31
0.0
  0
LINE
  8
LC-002-005-----0
  6
CONTINUOUS
  5
57
 10
324.603514
 20
579.161955
 30
0.0
 11
325.06113
 21
579.619571
 31
0.0
  0
LINE
  8
LC-002-005-----0
  6
CONTINUOUS
  5
58
 10
334.3079
 20
588.866341
 30
0.0
 11
335.0079
 21
589.566341
 31
0.0
  0
LINE
  8
LC-002-005-----0
  6
CONTINUOUS
  5
59
 10
339.312489
 20
593.87093
 30
0.0
 11
340.394483
 21
594.952925
 31
0.0
  0
LINE
  8
LC-002-005-----0
  6
CONTINUOUS
  5
5A
 10
323.812489
 20
581.199358
 30
0.0
 11
324.512489
 21
581.899358
 31
0.0
  0
LINE
  8
LC-002-005-----0
  6
CONTINUOUS
  5
5B
 10
331.479473
 20
588.866341
 30
0.0
 11
332.179473
 21
589.566341
 31
0.0
  0
LINE
  8
LC-002-005-----0
  6
CONTINUOUS
  5
5C
 10
323.812489
 20
584.027785
 30
0.0
 11
325.346659
 21
585.561955
 31
0.0
  0
LINE
  8
LC-002-005-----0
  6
CONTINUOUS
  5
5D
 10
327.412489
 20
587.627785
 30
0.0
 11
328.112489
 21
588.327785
 31
0.0
  0
LINE
  8
LC-002-005-----0
  6
CONTINUOUS
  5
5E
 10
328.651045
 20
588.866341
 30
0.0
 11
329.351045
 21
589.566341
 31
0.0
  0
ENDBLK
  8
0
  5
5F
  0
BLOCK
  8
0
  5
61
  2
*X6
 70
    65
 10
221.912489
 20
575.593276
 30
0.0
  3
*X6
  0
LINE
  8
LC-002-005-----0
  6
CONTINUOUS
  5
62
 10
237.917119
 20
577.328374
 30
0.0
 11
238.463263
 21
577.874518
 31
0.0
  0
LINE
  8
LC-002-005-----0
  6
CONTINUOUS
  5
63
 10
238.112489
 20
580.352171
 30
0.0
 11
238.812489
 21
581.052171
 31
0.0
  0
LINE
  8
LC-002-005-----0
  6
CONTINUOUS
  5
64
 10
238.112489
 20
583.180598
 30
0.0
 11
238.812489
 21
583.880598
 31
0.0
  0
LINE
  8
LC-002-005-----0
  6
CONTINUOUS
  5
65
 10
236.965419
 20
584.861955
 30
0.0
 11
237.6643
 21
585.560836
 31
0.0
  0
LINE
  8
LC-002-005-----0
  6
CONTINUOUS
  5
66
 10
234.697244
 20
585.422207
 30
0.0
 11
235.225157
 21
585.95012
 31
0.0
  0
LINE
  8
LC-002-005-----0
  6
CONTINUOUS
  5
67
 10
234.512489
 20
588.06588
 30
0.0
 11
235.195657
 21
588.749047
 31
0.0
  0
LINE
  8
LC-002-005-----0
  6
CONTINUOUS
  5
68
 10
232.484523
 20
588.866341
 30
0.0
 11
233.184523
 21
589.566341
 31
0.0
  0
LINE
  8
LC-002-005-----0
  6
CONTINUOUS
  5
69
 10
229.656096
 20
588.866341
 30
0.0
 11
230.356096
 21
589.566341
 31
0.0
  0
LINE
  8
LC-002-005-----0
  6
CONTINUOUS
  5
6A
 10
226.827669
 20
588.866341
 30
0.0
 11
227.527669
 21
589.566341
 31
0.0
  0
LINE
  8
LC-002-005-----0
  6
CONTINUOUS
  5
6B
 10
223.999242
 20
588.866341
 30
0.0
 11
224.699242
 21
589.566341
 31
0.0
  0
LINE
  8
LC-002-005-----0
  6
CONTINUOUS
  5
6C
 10
222.612489
 20
590.308015
 30
0.0
 11
223.312489
 21
591.008015
 31
0.0
  0
LINE
  8
LC-002-005-----0
  6
CONTINUOUS
  5
6D
 10
222.042388
 20
592.566341
 30
0.0
 11
223.312489
 21
593.836443
 31
0.0
  0
ENDBLK
  8
0
  5
6E
  0
BLOCK
  8
0
  5
70
  2
*D7
 70
    65
 10
0.0
 20
0.0
 30
0.0
  3
*D7
  0
LINE
  8
LC-007-003-MTH-0
  6
CONTINUOUS
  5
72
 10
221.912489
 20
594.366341
 30
0.0
 11
221.912489
 21
644.0
 31
0.0
  0
LINE
  8
LC-007-003-MTH-0
  6
CONTINUOUS
  5
73
 10
340.712489
 20
594.366341
 30
0.0
 11
340.712489
 21
644.0
 31
0.0
  0
LINE
  8
LC-008-003-MTG-0
  6
CONTINUOUS
  5
75
 10
221.912489
 20
627.2
 30
0.0
 11
340.712489
 21
627.2
 31
0.0
  0
LINE
  8
LC-005-003-----0
  6
CONTINUOUS
  5
77
 10
249.672945
 20
630.854733
 30
0.0
 11
221.912489
 21
627.2
 31
0.0
  0
LINE
  8
LC-005-003-----0
  6
CONTINUOUS
  5
78
 10
221.912489
 20
627.2
 30
0.0
 11
249.672945
 21
623.545267
 31
0.0
  0
LINE
  8
LC-005-003-----0
  6
CONTINUOUS
  5
79
 10
249.672945
 20
623.545267
 30
0.0
 11
249.672945
 21
630.854733
 31
0.0
  0
LINE
  8
LC-005-003-----0
  6
CONTINUOUS
  5
7A
 10
249.735227
 20
629.904503
 30
0.0
 11
229.192489
 21
627.2
 31
0.0
  0
LINE
  8
LC-005-003-----0
  6
CONTINUOUS
  5
7B
 10
229.192489
 20
627.2
 30
0.0
 11
249.735227
 21
624.495497
 31
0.0
  0
LINE
  8
LC-005-003-----0
  6
CONTINUOUS
  5
7C
 10
249.797508
 20
628.954272
 30
0.0
 11
236.472489
 21
627.2
 31
0.0
  0
LINE
  8
LC-005-003-----0
  6
CONTINUOUS
  5
7D
 10
236.472489
 20
627.2
 30
0.0
 11
249.797508
 21
625.445728
 31
0.0
  0
LINE
  8
LC-005-003-----0
  6
CONTINUOUS
  5
7E
 10
249.85979
 20
628.004041
 30
0.0
 11
243.752489
 21
627.2
 31
0.0
  0
LINE
  8
LC-005-003-----0
  6
CONTINUOUS
  5
7F
 10
243.752489
 20
627.2
 30
0.0
 11
249.85979
 21
626.395959
 31
0.0
  0
LINE
  8
LC-005-003-----0
  6
CONTINUOUS
  5
80
 10
312.952033
 20
623.545267
 30
0.0
 11
340.712489
 21
627.2
 31
0.0
  0
LINE
  8
LC-005-003-----0
  6
CONTINUOUS
  5
81
 10
340.712489
 20
627.2
 30
0.0
 11
312.952033
 21
630.854733
 31
0.0
  0
LINE
  8
LC-005-003-----0
  6
CONTINUOUS
  5
82
 10
312.952033
 20
630.854733
 30
0.0
 11
312.952033
 21
623.545267
 31
0.0
  0
LINE
  8
LC-005-003-----0
  6
CONTINUOUS
  5
83
 10
312.889752
 20
624.495497
 30
0.0
 11
333.432489
 21
627.2
 31
0.0
  0
LINE
  8
LC-005-003-----0
  6
CONTINUOUS
  5
84
 10
333.432489
 20
627.2
 30
0.0
 11
312.889752
 21
629.904503
 31
0.0
  0
LINE
  8
LC-005-003-----0
  6
CONTINUOUS
  5
85
 10
312.82747
 20
625.445728
 30
0.0
 11
326.152489
 21
627.2
 31
0.0
  0
LINE
  8
LC-005-003-----0
  6
CONTINUOUS
  5
86
 10
326.152489
 20
627.2
 30
0.0
 11
312.82747
 21
628.954272
 31
0.0
  0
LINE
  8
LC-005-003-----0
  6
CONTINUOUS
  5
87
 10
312.765189
 20
626.395959
 30
0.0
 11
318.872489
 21
627.2
 31
0.0
  0
LINE
  8
LC-005-003-----0
  6
CONTINUOUS
  5
88
 10
318.872489
 20
627.2
 30
0.0
 11
312.765189
 21
628.004041
 31
0.0
  0
TEXT
  8
LC-005-003-----0
  6
CONTINUOUS
 62
     8
  5
8A
 10
255.89687
 20
635.027554
 30
0.0
 40
28.0
  1
120
 41
0.9
 51
15.0
  7
LC-TXTSTYLE-150-400-0-0-D0
 72
     1
 11
285.660649
 21
635.027554
 31
0.0
  0
ENDBLK
  8
0
  5
8B
  0
BLOCK
  8
0
  5
8D
  2
*D8
 70
    65
 10
0.0
 20
0.0
 30
0.0
  3
*D8
  0
LINE
  8
LC-007-003-MTH-0
  6
CONTINUOUS
  5
8E
 10
223.812489
 20
588.866341
 30
0.0
 11
179.2
 21
588.866341
 31
0.0
  0
LINE
  8
LC-007-003-MTH-0
  6
CONTINUOUS
  5
8F
 10
222.612489
 20
595.066341
 30
0.0
 11
179.2
 21
595.066341
 31
0.0
  0
LINE
  8
LC-005-003-----0
  6
CONTINUOUS
  5
90
 10
199.654733
 20
561.105885
 30
0.0
 11
196.0
 21
588.866341
 31
0.0
  0
LINE
  8
LC-005-003-----0
  6
CONTINUOUS
  5
91
 10
196.0
 20
588.866341
 30
0.0
 11
192.345267
 21
561.105885
 31
0.0
  0
LINE
  8
LC-005-003-----0
  6
CONTINUOUS
  5
92
 10
192.345267
 20
561.105885
 30
0.0
 11
199.654733
 21
561.105885
 31
0.0
  0
LINE
  8
LC-005-003-----0
  6
CONTINUOUS
  5
93
 10
198.704503
 20
561.043603
 30
0.0
 11
196.0
 21
581.586341
 31
0.0
  0
LINE
  8
LC-005-003-----0
  6
CONTINUOUS
  5
94
 10
196.0
 20
581.586341
 30
0.0
 11
193.295497
 21
561.043603
 31
0.0
  0
LINE
  8
LC-005-003-----0
  6
CONTINUOUS
  5
95
 10
197.754272
 20
560.981322
 30
0.0
 11
196.0
 21
574.306341
 31
0.0
  0
LINE
  8
LC-005-003-----0
  6
CONTINUOUS
  5
96
 10
196.0
 20
574.306341
 30
0.0
 11
194.245728
 21
560.981322
 31
0.0
  0
LINE
  8
LC-005-003-----0
  6
CONTINUOUS
  5
97
 10
196.804041
 20
560.919041
 30
0.0
 11
196.0
 21
567.026341
 31
0.0
  0
LINE
  8
LC-005-003-----0
  6
CONTINUOUS
  5
98
 10
196.0
 20
567.026341
 30
0.0
 11
195.195959
 21
560.919041
 31
0.0
  0
LINE
  8
LC-005-003-----0
  6
CONTINUOUS
  5
99
 10
192.345267
 20
622.826797
 30
0.0
 11
196.0
 21
595.066341
 31
0.0
  0
LINE
  8
LC-005-003-----0
  6
CONTINUOUS
  5
9A
 10
196.0
 20
595.066341
 30
0.0
 11
199.654733
 21
622.826797
 31
0.0
  0
LINE
  8
LC-005-003-----0
  6
CONTINUOUS
  5
9B
 10
199.654733
 20
622.826797
 30
0.0
 11
192.345267
 21
622.826797
 31
0.0
  0
LINE
  8
LC-005-003-----0
  6
CONTINUOUS
  5
9C
 10
193.295497
 20
622.889078
 30
0.0
 11
196.0
 21
602.346341
 31
0.0
  0
LINE
  8
LC-005-003-----0
  6
CONTINUOUS
  5
9D
 10
196.0
 20
602.346341
 30
0.0
 11
198.704503
 21
622.889078
 31
0.0
  0
LINE
  8
LC-005-003-----0
  6
CONTINUOUS
  5
9E
 10
194.245728
 20
622.95136
 30
0.0
 11
196.0
 21
609.626341
 31
0.0
  0
LINE
  8
LC-005-003-----0
  6
CONTINUOUS
  5
9F
 10
196.0
 20
609.626341
 30
0.0
 11
197.754272
 21
622.95136
 31
0.0
  0
LINE
  8
LC-005-003-----0
  6
CONTINUOUS
  5
A0
 10
195.195959
 20
623.013641
 30
0.0
 11
196.0
 21
616.906341
 31
0.0
  0
LINE
  8
LC-005-003-----0
  6
CONTINUOUS
  5
A1
 10
196.0
 20
616.906341
 30
0.0
 11
196.804041
 21
623.013641
 31
0.0
  0
LINE
  8
LC-008-003-MTG-0
  6
CONTINUOUS
  5
A2
 10
196.0
 20
496.700841
 30
0.0
 11
196.0
 21
634.266341
 31
0.0
  0
TEXT
  8
LC-005-003-----0
  6
CONTINUOUS
 62
     8
  5
A3
 10
188.172446
 20
507.909304
 30
0.0
 40
28.0
  1
6,2
 50
90.0
 51
15.0
  7
LC-TXTSTYLE-150-400-0-0-D0
 72
     2
 11
188.172446
 21
555.134501
 31
0.0
  0
ENDBLK
  8
0
  5
A4
  0
BLOCK
  8
0
  5
A6
  2
*D9
 70
    65
 10
0.0
 20
0.0
 30
0.0
  3
*D9
  0
LINE
  8
LC-007-003-MTH-0
  6
CONTINUOUS
  5
A7
 10
326.626591
 20
540.361955
 30
0.0
 11
408.8
 21
540.361955
 31
0.0
  0
LINE
  8
LC-007-003-MTH-0
  6
CONTINUOUS
  5
A8
 10
340.012489
 20
595.066341
 30
0.0
 11
408.8
 21
595.066341
 31
0.0
  0
LINE
  8
LC-005-003-----0
  6
CONTINUOUS
  5
A9
 10
395.654733
 20
512.601499
 30
0.0
 11
392.0
 21
540.361955
 31
0.0
  0
LINE
  8
LC-005-003-----0
  6
CONTINUOUS
  5
AA
 10
392.0
 20
540.361955
 30
0.0
 11
388.345267
 21
512.601499
 31
0.0
  0
LINE
  8
LC-005-003-----0
  6
CONTINUOUS
  5
AB
 10
388.345267
 20
512.601499
 30
0.0
 11
395.654733
 21
512.601499
 31
0.0
  0
LINE
  8
LC-005-003-----0
  6
CONTINUOUS
  5
AC
 10
394.704503
 20
512.539217
 30
0.0
 11
392.0
 21
533.081955
 31
0.0
  0
LINE
  8
LC-005-003-----0
  6
CONTINUOUS
  5
AD
 10
392.0
 20
533.081955
 30
0.0
 11
389.295497
 21
512.539217
 31
0.0
  0
LINE
  8
LC-005-003-----0
  6
CONTINUOUS
  5
AE
 10
393.754272
 20
512.476936
 30
0.0
 11
392.0
 21
525.801955
 31
0.0
  0
LINE
  8
LC-005-003-----0
  6
CONTINUOUS
  5
AF
 10
392.0
 20
525.801955
 30
0.0
 11
390.245728
 21
512.476936
 31
0.0
  0
LINE
  8
LC-005-003-----0
  6
CONTINUOUS
  5
B0
 10
392.804041
 20
512.414655
 30
0.0
 11
392.0
 21
518.521955
 31
0.0
  0
LINE
  8
LC-005-003-----0
  6
CONTINUOUS
  5
B1
 10
392.0
 20
518.521955
 30
0.0
 11
391.195959
 21
512.414655
 31
0.0
  0
LINE
  8
LC-005-003-----0
  6
CONTINUOUS
  5
B2
 10
388.345267
 20
622.826797
 30
0.0
 11
392.0
 21
595.066341
 31
0.0
  0
LINE
  8
LC-005-003-----0
  6
CONTINUOUS
  5
B3
 10
392.0
 20
595.066341
 30
0.0
 11
395.654733
 21
622.826797
 31
0.0
  0
LINE
  8
LC-005-003-----0
  6
CONTINUOUS
  5
B4
 10
395.654733
 20
622.826797
 30
0.0
 11
388.345267
 21
622.826797
 31
0.0
  0
LINE
  8
LC-005-003-----0
  6
CONTINUOUS
  5
B5
 10
389.295497
 20
622.889078
 30
0.0
 11
392.0
 21
602.346341
 31
0.0
  0
LINE
  8
LC-005-003-----0
  6
CONTINUOUS
  5
B6
 10
392.0
 20
602.346341
 30
0.0
 11
394.704503
 21
622.889078
 31
0.0
  0
LINE
  8
LC-005-003-----0
  6
CONTINUOUS
  5
B7
 10
390.245728
 20
622.95136
 30
0.0
 11
392.0
 21
609.626341
 31
0.0
  0
LINE
  8
LC-005-003-----0
  6
CONTINUOUS
  5
B8
 10
392.0
 20
609.626341
 30
0.0
 11
393.754272
 21
622.95136
 31
0.0
  0
LINE
  8
LC-005-003-----0
  6
CONTINUOUS
  5
B9
 10
391.195959
 20
623.013641
 30
0.0
 11
392.0
 21
616.906341
 31
0.0
  0
LINE
  8
LC-005-003-----0
  6
CONTINUOUS
  5
BA
 10
392.0
 20
616.906341
 30
0.0
 11
392.804041
 21
623.013641
 31
0.0
  0
LINE
  8
LC-008-003-MTG-0
  6
CONTINUOUS
  5
BB
 10
392.0
 20
501.161955
 30
0.0
 11
392.0
 21
634.266341
 31
0.0
  0
TEXT
  8
LC-005-003-----0
  6
CONTINUOUS
 62
     8
  5
BC
 10
384.172446
 20
556.684355
 30
0.0
 40
28.0
  1
55
 50
90.0
 51
15.0
  7
LC-TXTSTYLE-150-400-0-0-D0
 72
     1
 11
384.172446
 21
572.062308
 31
0.0
  0
ENDBLK
  8
0
  5
BD
  0
BLOCK
  8
0
  5
BF
  2
*D10
 70
    65
 10
0.0
 20
0.0
 30
0.0
  3
*D10
  0
LINE
  8
LC-007-003-MTH-0
  6
CONTINUOUS
  5
C0
 10
235.462489
 20
542.361955
 30
0.0
 11
235.462489
 21
453.6
 31
0.0
  0
LINE
  8
LC-007-003-MTH-0
  6
CONTINUOUS
  5
C1
 10
327.162489
 20
542.361955
 30
0.0
 11
327.162489
 21
453.6
 31
0.0
  0
LINE
  8
LC-008-003-MTG-0
  6
CONTINUOUS
  5
C2
 10
235.462489
 20
470.4
 30
0.0
 11
327.162489
 21
470.4
 31
0.0
  0
LINE
  8
LC-005-003-----0
  6
CONTINUOUS
  5
C3
 10
263.222945
 20
474.054733
 30
0.0
 11
235.462489
 21
470.4
 31
0.0
  0
LINE
  8
LC-005-003-----0
  6
CONTINUOUS
  5
C4
 10
235.462489
 20
470.4
 30
0.0
 11
263.222945
 21
466.745267
 31
0.0
  0
LINE
  8
LC-005-003-----0
  6
CONTINUOUS
  5
C5
 10
263.222945
 20
466.745267
 30
0.0
 11
263.222945
 21
474.054733
 31
0.0
  0
LINE
  8
LC-005-003-----0
  6
CONTINUOUS
  5
C6
 10
263.285227
 20
473.104503
 30
0.0
 11
242.742489
 21
470.4
 31
0.0
  0
LINE
  8
LC-005-003-----0
  6
CONTINUOUS
  5
C7
 10
242.742489
 20
470.4
 30
0.0
 11
263.285227
 21
467.695497
 31
0.0
  0
LINE
  8
LC-005-003-----0
  6
CONTINUOUS
  5
C8
 10
263.347508
 20
472.154272
 30
0.0
 11
250.022489
 21
470.4
 31
0.0
  0
LINE
  8
LC-005-003-----0
  6
CONTINUOUS
  5
C9
 10
250.022489
 20
470.4
 30
0.0
 11
263.347508
 21
468.645728
 31
0.0
  0
LINE
  8
LC-005-003-----0
  6
CONTINUOUS
  5
CA
 10
263.40979
 20
471.204041
 30
0.0
 11
257.302489
 21
470.4
 31
0.0
  0
LINE
  8
LC-005-003-----0
  6
CONTINUOUS
  5
CB
 10
257.302489
 20
470.4
 30
0.0
 11
263.40979
 21
469.595959
 31
0.0
  0
LINE
  8
LC-005-003-----0
  6
CONTINUOUS
  5
CC
 10
299.402033
 20
466.745267
 30
0.0
 11
327.162489
 21
470.4
 31
0.0
  0
LINE
  8
LC-005-003-----0
  6
CONTINUOUS
  5
CD
 10
327.162489
 20
470.4
 30
0.0
 11
299.402033
 21
474.054733
 31
0.0
  0
LINE
  8
LC-005-003-----0
  6
CONTINUOUS
  5
CE
 10
299.402033
 20
474.054733
 30
0.0
 11
299.402033
 21
466.745267
 31
0.0
  0
LINE
  8
LC-005-003-----0
  6
CONTINUOUS
  5
CF
 10
299.339752
 20
467.695497
 30
0.0
 11
319.882489
 21
470.4
 31
0.0
  0
LINE
  8
LC-005-003-----0
  6
CONTINUOUS
  5
D0
 10
319.882489
 20
470.4
 30
0.0
 11
299.339752
 21
473.104503
 31
0.0
  0
LINE
  8
LC-005-003-----0
  6
CONTINUOUS
  5
D1
 10
299.27747
 20
468.645728
 30
0.0
 11
312.602489
 21
470.4
 31
0.0
  0
LINE
  8
LC-005-003-----0
  6
CONTINUOUS
  5
D2
 10
312.602489
 20
470.4
 30
0.0
 11
299.27747
 21
472.154272
 31
0.0
  0
LINE
  8
LC-005-003-----0
  6
CONTINUOUS
  5
D3
 10
299.215189
 20
469.595959
 30
0.0
 11
305.322489
 21
470.4
 31
0.0
  0
LINE
  8
LC-005-003-----0
  6
CONTINUOUS
  5
D4
 10
305.322489
 20
470.4
 30
0.0
 11
299.215189
 21
471.204041
 31
0.0
  0
TEXT
  8
LC-005-003-----0
  6
CONTINUOUS
 62
     8
  5
D5
 10
249.613405
 20
478.227554
 30
0.0
 40
28.0
  1
Ø91,5
 51
15.0
  7
LC-TXTSTYLE-150-400-0-0-D0
 72
     1
 11
285.660649
 21
478.227554
 31
0.0
  0
ENDBLK
  8
0
  5
D6
  0
ENDSEC
  0
SECTION
  2
ENTITIES
  0
VIEWPORT
  8
LC-000
  5
16F
 67
     1
 68
     1
 10
420.0
 20
297.0
 30
0.0
 40
840.0
 41
594.0
 69
     1
1001
ACAD
1000
MVIEW
1002
{
1070
    16
1010
0.0
1020
0.0
1030
0.0
1010
0.0
1020
0.0
1030
1.0
1040
0.0
1040
594.0
1040
420.0
1040
297.0
1040
50.0
1040
0.0
1040
0.0
1070
     0
1070
   100
1070
     1
1070
     1
1070
     0
1070
     0
1070
     0
1070
     0
1040
0.0
1040
0.0
1040
0.0
1040
1.0
1040
1.0
1040
0.0
1040
0.0
1070
     0
1002
{
1002
}
1002
}
  0
VIEWPORT
  8
0
  5
170
 67
     1
 68
     1
 10
0.0
 20
0.0
 30
0.0
 40
0.0
 41
0.0
 69
     1
1001
ACAD
1000
MVIEW
1002
{
1070
    16
1010
0.0
1020
0.0
1030
0.0
1010
0.0
1020
0.0
1030
1.0
1040
0.0
1040
594.0
1040
0.0
1040
0.0
1040
50.0
1040
0.0
1040
0.0
1070
     0
1070
   100
1070
     0
1070
     1
1070
     0
1070
     0
1070
     0
1070
     0
1040
0.0
1040
0.0
1040
0.0
1040
0.5
1040
0.5
1040
0.5
1040
0.5
1070
     0
1002
{
1002
}
1002
}
  0
INSERT
  8
0
  5
D7
  2
*X0
 10
324.562489
 20
540.361955
 30
0.0
  0
INSERT
  8
0
  5
D8
  2
*X1
 10
235.462489
 20
540.361955
 30
0.0
  0
INSERT
  8
0
  5
DA
  2
BLK1
 10
0.0
 20
0.0
 30
0.0
  0
INSERT
  8
0
  5
DB
  2
BLK2
 10
0.0
 20
0.0
 30
0.0
  0
INSERT
  8
0
  5
DC
  2
BLK3
 10
0.0
 20
0.0
 30
0.0
  0
INSERT
  8
0
  5
DD
  2
*X5
 10
323.462211
 20
575.593276
 30
0.0
  0
INSERT
  8
0
  5
DE
  2
*X6
 10
221.912489
 20
575.593276
 30
0.0
  0
DIMENSION
  8
0
  5
DF
  2
*D7
 10
281.312489
 20
627.2
 30
0.0
 11
281.312489
 21
627.2
 31
0.0
  1
120
 13
221.912489
 23
594.366341
 33
0.0
 14
340.712489
 24
594.366341
 34
0.0
  3
LC-DIM-L-0140-02-02
  0
DIMENSION
  8
0
  5
E0
  2
*D8
 10
196.0
 20
581.820195
 30
0.0
 11
196.0
 21
581.820195
 31
0.0
 13
222.612489
 23
595.066341
 33
0.0
 14
223.812489
 24
588.866341
 34
0.0
 50
90.0
  3
LC-DIM-L-0140-02-02
  0
DIMENSION
  8
0
  5
E1
  2
*D9
 10
392.0
 20
567.714148
 30
0.0
 11
392.0
 21
567.714148
 31
0.0
  1
55
 13
340.012489
 23
595.066341
 33
0.0
 14
326.626591
 24
540.361955
 34
0.0
 50
90.0
  3
LC-DIM-L-0140-02-02
  0
DIMENSION
  8
0
  5
E2
  2
*D10
 10
281.312489
 20
470.4
 30
0.0
 11
281.312489
 21
470.4
 31
0.0
  1
%%c91,5
 13
235.462489
 23
542.361955
 33
0.0
 14
327.162489
 24
542.361955
 34
0.0
  3
LC-DIM-L-0140-02-02
  0
LINE
  8
LC-001-002-----0
  6
CONTINUOUS
  5
E4
 10
327.162489
 20
584.861955
 30
0.0
 11
327.162489
 21
542.361955
 31
0.0
  0
LINE
  8
LC-001-002-----0
  6
CONTINUOUS
  5
E5
 10
327.162489
 20
542.361955
 30
0.0
 11
326.626591
 21
540.361955
 31
0.0
  0
LINE
  8
LC-001-002-----0
  6
CONTINUOUS
  5
E6
 10
325.162489
 20
584.861955
 30
0.0
 11
327.162489
 21
584.861955
 31
0.0
  0
LINE
  8
LC-001-002-----0
  6
CONTINUOUS
  5
E7
 10
237.462489
 20
584.861955
 30
0.0
 11
237.462489
 21
583.361955
 31
0.0
  0
LINE
  8
LC-001-002-----0
  6
CONTINUOUS
  5
E8
 10
237.462489
 20
584.861955
 30
0.0
 11
235.562489
 21
584.861955
 31
0.0
  0
LINE
  8
LC-001-002-----0
  6
CONTINUOUS
  5
E9
 10
235.998388
 20
540.361955
 30
0.0
 11
326.626591
 21
540.361955
 31
0.0
  0
LINE
  8
LC-001-002-----0
  6
CONTINUOUS
  5
EA
 10
324.312489
 20
584.861955
 30
0.0
 11
324.312489
 21
584.861955
 31
0.0
  0
LINE
  8
LC-001-002-----0
  6
CONTINUOUS
  5
EB
 10
236.884286
 20
540.361955
 30
0.0
 11
237.312489
 21
540.361955
 31
0.0
  0
LINE
  8
LC-001-002-----0
  6
CONTINUOUS
  5
EC
 10
325.162489
 20
584.861955
 30
0.0
 11
325.162489
 21
583.361955
 31
0.0
  0
LINE
  8
LC-001-002-----0
  6
CONTINUOUS
  5
ED
 10
238.312489
 20
584.861955
 30
0.0
 11
238.312489
 21
584.861955
 31
0.0
  0
LINE
  8
LC-001-002-----0
  6
CONTINUOUS
  5
EE
 10
238.312489
 20
584.861955
 30
0.0
 11
238.312489
 21
584.861955
 31
0.0
  0
LINE
  8
LC-001-002-----0
  6
CONTINUOUS
  5
EF
 10
235.462489
 20
542.361955
 30
0.0
 11
235.998388
 21
540.361955
 31
0.0
  0
LINE
  8
LC-001-002-----0
  6
CONTINUOUS
  5
F0
 10
324.562489
 20
580.361955
 30
0.0
 11
325.162489
 21
580.361955
 31
0.0
  0
LINE
  8
LC-001-002-----0
  6
CONTINUOUS
  5
F1
 10
325.162489
 20
583.361955
 30
0.0
 11
324.562489
 21
580.361955
 31
0.0
  0
LINE
  8
LC-001-002-----0
  6
CONTINUOUS
  5
F2
 10
325.162489
 20
580.361955
 30
0.0
 11
325.162489
 21
540.361955
 31
0.0
  0
LINE
  8
LC-001-002-----0
  6
CONTINUOUS
  5
F3
 10
238.062489
 20
580.361955
 30
0.0
 11
237.462489
 21
580.361955
 31
0.0
  0
LINE
  8
LC-001-002-----0
  6
CONTINUOUS
  5
F4
 10
237.462489
 20
583.361955
 30
0.0
 11
238.062489
 21
580.361955
 31
0.0
  0
LINE
  8
LC-001-002-----0
  6
CONTINUOUS
  5
F5
 10
235.462489
 20
584.861955
 30
0.0
 11
235.462489
 21
542.361955
 31
0.0
  0
LINE
  8
LC-001-002-----0
  6
CONTINUOUS
  5
F6
 10
237.462489
 20
580.361955
 30
0.0
 11
237.462489
 21
540.361955
 31
0.0
  0
LINE
  8
LC-001-002-----0
  6
CONTINUOUS
  5
F7
 10
0.0
 20
0.0
 30
0.0
 11
0.0
 21
0.0
 31
0.0
  0
LINE
  8
LC-001-002-----0
  6
CONTINUOUS
  5
F8
 10
0.0
 20
0.0
 30
0.0
 11
0.0
 21
0.0
 31
0.0
  0
LINE
  8
LC-001-002-----0
  6
CONTINUOUS
  5
F9
 10
0.0
 20
0.0
 30
0.0
 11
0.0
 21
0.0
 31
0.0
  0
LINE
  8
LC-001-002-----0
  6
CONTINUOUS
  5
FA
 10
0.0
 20
0.0
 30
0.0
 11
0.0
 21
0.0
 31
0.0
  0
ARC
  8
LC-004-002-RND-0
  6
CONTINUOUS
  5
FC
 10
542.762489
 20
511.714148
 30
0.0
 40
2.0
 50
270.0
 51
0.0
  0
ARC
  8
LC-004-002-RND-0
  6
CONTINUOUS
  5
FD
 10
430.762489
 20
511.714148
 30
0.0
 40
2.0
 50
180.0
 51
270.0
  0
CIRCLE
  8
LC-001-002-----0
  6
CONTINUOUS
  5
FE
 10
486.762489
 20
567.714148
 30
0.0
 40
42.149721
  0
CIRCLE
  8
LC-005-003-----0
  6
CONTINUOUS
  5
FF
 10
486.762489
 20
567.714148
 30
0.0
 40
43.7
  0
CIRCLE
  8
LC-001-002-----0
  6
CONTINUOUS
  5
100
 10
439.262489
 20
520.214148
 30
0.0
 40
7.0
  0
LINE
  8
LC-001-002-----0
  6
CONTINUOUS
  5
101
 10
427.362489
 20
511.714148
 30
0.0
 11
427.362489
 21
623.714148
 31
0.0
  0
LINE
  8
LC-001-002-----0
  6
CONTINUOUS
  5
102
 10
428.762489
 20
511.714148
 30
0.0
 11
428.762489
 21
623.714148
 31
0.0
  0
LINE
  8
LC-001-002-----0
  6
CONTINUOUS
  5
103
 10
542.762489
 20
509.714148
 30
0.0
 11
430.762489
 21
509.714148
 31
0.0
  0
LINE
  8
LC-001-002-----0
  6
CONTINUOUS
  5
104
 10
544.762489
 20
623.714148
 30
0.0
 11
544.762489
 21
511.714148
 31
0.0
  0
LINE
  8
LC-001-002-----0
  6
CONTINUOUS
  5
105
 10
430.762489
 20
625.714148
 30
0.0
 11
542.762489
 21
625.714148
 31
0.0
  0
LINE
  8
LC-001-002-----0
  6
CONTINUOUS
  5
106
 10
542.762489
 20
508.314148
 30
0.0
 11
430.762489
 21
508.314148
 31
0.0
  0
LINE
  8
LC-001-002-----0
  6
CONTINUOUS
  5
107
 10
546.162489
 20
623.714148
 30
0.0
 11
546.162489
 21
511.714148
 31
0.0
  0
LINE
  8
LC-001-002-----0
  6
CONTINUOUS
  5
108
 10
430.762489
 20
627.114148
 30
0.0
 11
542.762489
 21
627.114148
 31
0.0
  0
ARC
  8
LC-004-002-RND-0
  6
CONTINUOUS
  5
109
 10
430.762489
 20
623.714148
 30
0.0
 40
2.0
 50
90.0
 51
180.0
  0
ARC
  8
LC-004-002-RND-0
  6
CONTINUOUS
  5
10A
 10
542.762489
 20
623.714148
 30
0.0
 40
2.0
 50
0.0
 51
90.0
  0
ARC
  8
LC-004-002-RND-0
  6
CONTINUOUS
  5
10B
 10
430.762489
 20
511.714148
 30
0.0
 40
3.4
 50
180.0
 51
270.0
  0
ARC
  8
LC-004-002-RND-0
  6
CONTINUOUS
  5
10C
 10
430.762489
 20
623.714148
 30
0.0
 40
3.4
 50
90.0
 51
180.0
  0
ARC
  8
LC-004-002-RND-0
  6
CONTINUOUS
  5
10D
 10
542.762489
 20
623.714148
 30
0.0
 40
3.4
 50
0.0
 51
90.0
  0
ARC
  8
LC-004-002-RND-0
  6
CONTINUOUS
  5
10E
 10
542.762489
 20
511.714148
 30
0.0
 40
3.4
 50
270.0
 51
0.0
  0
CIRCLE
  8
LC-001-002-----0
  6
CONTINUOUS
  5
10F
 10
439.262489
 20
615.214148
 30
0.0
 40
7.0
  0
CIRCLE
  8
LC-001-002-----0
  6
CONTINUOUS
  5
110
 10
534.262489
 20
520.214148
 30
0.0
 40
7.0
  0
CIRCLE
  8
LC-001-002-----0
  6
CONTINUOUS
  5
111
 10
534.262489
 20
615.214148
 30
0.0
 40
7.0
  0
CIRCLE
  8
LC-001-002-----0
  6
CONTINUOUS
  5
112
 10
439.262489
 20
520.214148
 30
0.0
 40
2.5
  0
ARC
  8
LC-005-003-----0
  6
CONTINUOUS
  5
113
 10
439.262489
 20
520.214148
 30
0.0
 40
3.0
 50
270.0
 51
180.0
  0
CIRCLE
  8
LC-001-002-----0
  6
CONTINUOUS
  5
114
 10
534.262489
 20
615.214148
 30
0.0
 40
2.5
  0
ARC
  8
LC-005-003-----0
  6
CONTINUOUS
  5
115
 10
534.262489
 20
615.214148
 30
0.0
 40
3.0
 50
270.0
 51
180.0
  0
CIRCLE
  8
LC-005-003-----0
  6
CONTINUOUS
  5
116
 10
486.762489
 20
567.714148
 30
0.0
 40
47.1
  0
CIRCLE
  8
LC-001-002-----0
  6
CONTINUOUS
  5
117
 10
486.762489
 20
567.714148
 30
0.0
 40
46.1
  0
CIRCLE
  8
LC-001-002-----0
  6
CONTINUOUS
  5
118
 10
486.762489
 20
567.714148
 30
0.0
 40
42.5
  0
LINE
  8
LC-001-002-----0
  6
CONTINUOUS
  5
119
 10
340.012489
 20
595.066341
 30
0.0
 11
281.312489
 21
595.066341
 31
0.0
  0
LINE
  8
LC-001-002-----0
  6
CONTINUOUS
  5
11A
 10
338.812489
 20
588.866341
 30
0.0
 11
328.412489
 21
588.866341
 31
0.0
  0
ARC
  8
LC-004-002-RND-0
  6
CONTINUOUS
  5
11B
 10
338.812489
 20
590.066341
 30
0.0
 40
1.2
 50
270.0
 51
0.0
  0
LINE
  8
LC-001-002-----0
  6
CONTINUOUS
  5
11C
 10
338.812489
 20
589.566341
 30
0.0
 11
328.412489
 21
589.566341
 31
0.0
  0
ARC
  8
LC-004-002-RND-0
  6
CONTINUOUS
  5
11D
 10
338.812489
 20
590.066341
 30
0.0
 40
0.5
 50
270.0
 51
0.0
  0
LINE
  8
LC-001-002-----0
  6
CONTINUOUS
  5
11E
 10
223.812489
 20
588.866341
 30
0.0
 11
234.212489
 21
588.866341
 31
0.0
  0
ARC
  8
LC-004-002-RND-0
  6
CONTINUOUS
  5
11F
 10
223.812489
 20
590.066341
 30
0.0
 40
1.2
 50
180.0
 51
270.0
  0
ARC
  8
LC-004-002-RND-0
  6
CONTINUOUS
  5
120
 10
223.812489
 20
590.066341
 30
0.0
 40
0.5
 50
180.0
 51
270.0
  0
ARC
  8
LC-001-002-----0
  6
CONTINUOUS
  5
121
 10
222.612489
 20
594.366341
 30
0.0
 40
0.7
 50
0.0
 51
180.0
  0
ARC
  8
LC-004-002-RND-0
  6
CONTINUOUS
  5
122
 10
235.712489
 20
586.061955
 30
0.0
 40
0.5
 50
180.0
 51
270.0
  0
LINE
  8
LC-001-002-----0
  6
CONTINUOUS
  5
123
 10
222.612489
 20
592.566341
 30
0.0
 11
221.912489
 21
592.566341
 31
0.0
  0
LINE
  8
LC-001-002-----0
  6
CONTINUOUS
  5
124
 10
222.612489
 20
590.066341
 30
0.0
 11
222.612489
 21
594.366341
 31
0.0
  0
LINE
  8
LC-001-002-----0
  6
CONTINUOUS
  5
125
 10
223.312489
 20
590.066341
 30
0.0
 11
223.312489
 21
594.366341
 31
0.0
  0
LINE
  8
LC-001-002-----0
  6
CONTINUOUS
  5
126
 10
221.912489
 20
592.566341
 30
0.0
 11
221.912489
 21
594.366341
 31
0.0
  0
ARC
  8
LC-004-002-RND-0
  6
CONTINUOUS
  5
127
 10
235.712489
 20
586.061955
 30
0.0
 40
1.2
 50
180.0
 51
270.0
  0
LINE
  8
LC-001-002-----0
  6
CONTINUOUS
  5
128
 10
237.612489
 20
584.861955
 30
0.0
 11
235.712489
 21
584.861955
 31
0.0
  0
LINE
  8
LC-001-002-----0
  6
CONTINUOUS
  5
129
 10
235.212489
 20
588.566341
 30
0.0
 11
235.212489
 21
586.061955
 31
0.0
  0
ARC
  8
LC-001-002-----0
  6
CONTINUOUS
  5
12A
 10
340.012489
 20
594.366341
 30
0.0
 40
0.7
 50
0.0
 51
180.0
  0
LINE
  8
LC-001-002-----0
  6
CONTINUOUS
  5
12B
 10
234.512489
 20
588.566341
 30
0.0
 11
234.512489
 21
586.061955
 31
0.0
  0
ARC
  8
LC-004-002-RND-0
  6
CONTINUOUS
  5
12C
 10
326.912489
 20
586.061955
 30
0.0
 40
0.5
 50
270.0
 51
0.0
  0
LINE
  8
LC-001-002-----0
  6
CONTINUOUS
  5
12D
 10
340.012489
 20
592.566341
 30
0.0
 11
340.712489
 21
592.566341
 31
0.0
  0
LINE
  8
LC-001-002-----0
  6
CONTINUOUS
  5
12E
 10
340.012489
 20
590.066341
 30
0.0
 11
340.012489
 21
594.366341
 31
0.0
  0
LINE
  8
LC-001-002-----0
  6
CONTINUOUS
  5
12F
 10
329.612489
 20
589.566341
 30
0.0
 11
281.312489
 21
589.566341
 31
0.0
  0
LINE
  8
LC-001-002-----0
  6
CONTINUOUS
  5
130
 10
222.612489
 20
595.066341
 30
0.0
 11
281.312489
 21
595.066341
 31
0.0
  0
LINE
  8
LC-001-002-----0
  6
CONTINUOUS
  5
131
 10
223.812489
 20
589.566341
 30
0.0
 11
234.212489
 21
589.566341
 31
0.0
  0
LINE
  8
LC-001-002-----0
  6
CONTINUOUS
  5
132
 10
281.312489
 20
585.561955
 30
0.0
 11
237.612489
 21
585.561955
 31
0.0
  0
LINE
  8
LC-001-002-----0
  6
CONTINUOUS
  5
133
 10
339.312489
 20
590.066341
 30
0.0
 11
339.312489
 21
594.366341
 31
0.0
  0
LINE
  8
LC-001-002-----0
  6
CONTINUOUS
  5
134
 10
234.212489
 20
589.566341
 30
0.0
 11
281.312489
 21
589.566341
 31
0.0
  0
LINE
  8
LC-001-002-----0
  6
CONTINUOUS
  5
135
 10
237.612489
 20
585.561955
 30
0.0
 11
235.712489
 21
585.561955
 31
0.0
  0
LINE
  8
LC-001-002-----0
  6
CONTINUOUS
  5
136
 10
325.012489
 20
585.561955
 30
0.0
 11
326.912489
 21
585.561955
 31
0.0
  0
LINE
  8
LC-001-002-----0
  6
CONTINUOUS
  5
137
 10
340.712489
 20
592.566341
 30
0.0
 11
340.712489
 21
594.366341
 31
0.0
  0
ARC
  8
LC-004-002-RND-0
  6
CONTINUOUS
  5
138
 10
326.912489
 20
586.061955
 30
0.0
 40
1.2
 50
270.0
 51
0.0
  0
LINE
  8
LC-001-002-----0
  6
CONTINUOUS
  5
139
 10
325.012489
 20
584.861955
 30
0.0
 11
326.912489
 21
584.861955
 31
0.0
  0
LINE
  8
LC-001-002-----0
  6
CONTINUOUS
  5
13A
 10
281.312489
 20
585.561955
 30
0.0
 11
325.012489
 21
585.561955
 31
0.0
  0
LINE
  8
LC-001-002-----0
  6
CONTINUOUS
  5
13B
 10
327.412489
 20
588.566341
 30
0.0
 11
327.412489
 21
586.061955
 31
0.0
  0
LINE
  8
LC-001-002-----0
  6
CONTINUOUS
  5
13C
 10
328.112489
 20
588.566341
 30
0.0
 11
328.112489
 21
586.061955
 31
0.0
  0
LINE
  8
LC-001-002-----0
  6
CONTINUOUS
  5
13D
 10
335.812489
 20
589.566341
 30
0.0
 11
335.812489
 21
589.566341
 31
0.0
  0
LINE
  8
LC-001-002-----0
  6
CONTINUOUS
  5
13E
 10
321.812489
 20
589.566341
 30
0.0
 11
321.812489
 21
589.566341
 31
0.0
  0
LINE
  8
LC-001-002-----0
  6
CONTINUOUS
  5
13F
 10
321.812489
 20
589.566341
 30
0.0
 11
321.812489
 21
589.566341
 31
0.0
  0
LINE
  8
LC-001-002-----0
  6
CONTINUOUS
  5
140
 10
335.812489
 20
589.566341
 30
0.0
 11
335.812489
 21
589.566341
 31
0.0
  0
ARC
  8
LC-004-002-RND-0
  6
CONTINUOUS
  5
141
 10
322.312489
 20
589.566341
 30
0.0
 40
0.5
 50
90.0
 51
180.0
  0
LINE
  8
LC-001-002-----0
  6
CONTINUOUS
  5
142
 10
335.312489
 20
590.066341
 30
0.0
 11
322.312489
 21
590.066341
 31
0.0
  0
ARC
  8
LC-004-002-RND-0
  6
CONTINUOUS
  5
143
 10
335.312489
 20
589.566341
 30
0.0
 40
0.5
 50
0.0
 51
90.0
  0
LINE
  8
LC-001-002-----0
  6
CONTINUOUS
  5
144
 10
235.212489
 20
588.556357
 30
0.0
 11
235.212489
 21
586.061955
 31
0.0
  0
LINE
  8
LC-001-002-----0
  6
CONTINUOUS
  5
145
 10
226.812489
 20
589.566341
 30
0.0
 11
226.812489
 21
589.566341
 31
0.0
  0
LINE
  8
LC-001-002-----0
  6
CONTINUOUS
  5
146
 10
240.812489
 20
589.566341
 30
0.0
 11
240.812489
 21
589.566341
 31
0.0
  0
LINE
  8
LC-001-002-----0
  6
CONTINUOUS
  5
147
 10
226.812489
 20
589.566341
 30
0.0
 11
226.812489
 21
589.566341
 31
0.0
  0
ARC
  8
LC-004-002-RND-0
  6
CONTINUOUS
  5
148
 10
240.312489
 20
589.566341
 30
0.0
 40
0.5
 50
0.0
 51
90.0
  0
LINE
  8
LC-001-002-----0
  6
CONTINUOUS
  5
149
 10
227.312489
 20
590.066341
 30
0.0
 11
240.312489
 21
590.066341
 31
0.0
  0
ARC
  8
LC-004-002-RND-0
  6
CONTINUOUS
  5
14A
 10
227.312489
 20
589.566341
 30
0.0
 40
0.5
 50
90.0
 51
180.0
  0
LINE
  8
LC-006-001-----0
  6
CONTINUOUS
  5
14C
 10
237.612489
 20
585.561955
 30
0.0
 11
281.312489
 21
585.561955
 31
0.0
  0
LINE
  8
LC-001-002-----0
  6
CONTINUOUS
  5
14D
 10
239.162768
 20
575.952645
 30
0.0
 11
281.312489
 21
575.952645
 31
0.0
  0
LINE
  8
LC-001-002-----0
  6
CONTINUOUS
  5
14E
 10
238.548643
 20
575.593276
 30
0.0
 11
281.312489
 21
575.593276
 31
0.0
  0
LINE
  8
LC-006-001-----0
  6
CONTINUOUS
  5
14F
 10
238.112489
 20
584.361955
 30
0.0
 11
238.112489
 21
579.861955
 31
0.0
  0
LINE
  8
LC-006-001-----0
  6
CONTINUOUS
  5
150
 10
238.812489
 20
584.361955
 30
0.0
 11
238.812489
 21
579.161955
 31
0.0
  0
ARC
  8
LC-001-002-----0
  6
CONTINUOUS
  5
151
 10
238.137489
 20
579.061955
 30
0.0
 40
0.8
 50
90.0
 51
200.0
  0
LINE
  8
LC-001-002-----0
  6
CONTINUOUS
  5
152
 10
281.312489
 20
579.161955
 30
0.0
 11
237.994674
 21
579.161955
 31
0.0
  0
ARC
  8
LC-006-001-----0
  6
CONTINUOUS
  5
153
 10
237.612489
 20
584.361955
 30
0.0
 40
0.5
 50
0.0
 51
90.0
  0
ARC
  8
LC-006-001-----0
  6
CONTINUOUS
  5
154
 10
237.612489
 20
584.361955
 30
0.0
 40
1.2
 50
0.0
 51
90.0
  0
LINE
  8
LC-006-001-----0
  6
CONTINUOUS
  5
155
 10
325.012489
 20
585.561955
 30
0.0
 11
281.312489
 21
585.561955
 31
0.0
  0
LINE
  8
LC-001-002-----0
  6
CONTINUOUS
  5
156
 10
323.462211
 20
575.952645
 30
0.0
 11
281.312489
 21
575.952645
 31
0.0
  0
LINE
  8
LC-001-002-----0
  6
CONTINUOUS
  5
157
 10
324.076335
 20
575.593276
 30
0.0
 11
281.312489
 21
575.593276
 31
0.0
  0
LINE
  8
LC-006-001-----0
  6
CONTINUOUS
  5
158
 10
324.512489
 20
584.361955
 30
0.0
 11
324.512489
 21
579.861955
 31
0.0
  0
LINE
  8
LC-006-001-----0
  6
CONTINUOUS
  5
159
 10
323.812489
 20
584.361955
 30
0.0
 11
323.812489
 21
579.161955
 31
0.0
  0
ARC
  8
LC-001-002-----0
  6
CONTINUOUS
  5
15A
 10
324.487489
 20
579.061955
 30
0.0
 40
0.8
 50
340.0
 51
88.209215
  0
LINE
  8
LC-001-002-----0
  6
CONTINUOUS
  5
15B
 10
281.312489
 20
579.161955
 30
0.0
 11
324.630304
 21
579.161955
 31
0.0
  0
ARC
  8
LC-006-001-----0
  6
CONTINUOUS
  5
15C
 10
325.012489
 20
584.361955
 30
0.0
 40
0.5
 50
90.0
 51
180.0
  0
ARC
  8
LC-006-001-----0
  6
CONTINUOUS
  5
15D
 10
325.012489
 20
584.361955
 30
0.0
 40
1.2
 50
90.0
 51
180.0
  0
LINE
  8
LC-001-002-----0
  6
CONTINUOUS
  5
15E
 10
238.548643
 20
575.593276
 30
0.0
 11
239.162768
 21
575.952645
 31
0.0
  0
LINE
  8
LC-001-002-----0
  6
CONTINUOUS
  5
15F
 10
237.385735
 20
578.788339
 30
0.0
 11
238.548643
 21
575.593276
 31
0.0
  0
LINE
  8
LC-001-002-----0
  6
CONTINUOUS
  5
160
 10
237.994674
 20
579.161955
 30
0.0
 11
239.162768
 21
575.952645
 31
0.0
  0
LINE
  8
LC-001-002-----0
  6
CONTINUOUS
  5
161
 10
324.076335
 20
575.593276
 30
0.0
 11
323.462211
 21
575.952645
 31
0.0
  0
LINE
  8
LC-001-002-----0
  6
CONTINUOUS
  5
162
 10
325.239243
 20
578.788339
 30
0.0
 11
324.076335
 21
575.593276
 31
0.0
  0
LINE
  8
LC-001-002-----0
  6
CONTINUOUS
  5
163
 10
324.630304
 20
579.161955
 30
0.0
 11
323.462211
 21
575.952645
 31
0.0
  0
ARC
  8
LC-004-002-RND-0
  6
CONTINUOUS
  5
164
 10
328.412489
 20
588.566341
 30
0.0
 40
1.0
 50
90.0
 51
180.0
  0
ARC
  8
LC-004-002-RND-0
  6
CONTINUOUS
  5
165
 10
328.412489
 20
588.566341
 30
0.0
 40
0.3
 50
90.0
 51
180.0
  0
ARC
  8
LC-004-002-RND-0
  6
CONTINUOUS
  5
166
 10
234.212489
 20
588.566341
 30
0.0
 40
0.3
 50
0.0
 51
90.0
  0
ARC
  8
LC-004-002-RND-0
  6
CONTINUOUS
  5
167
 10
234.212489
 20
588.566341
 30
0.0
 40
1.0
 50
0.0
 51
90.0
  0
LINE
  8
LC-001-002-----0
  6
DASHDOT
 62
     2
  5
169
 10
281.312489
 20
595.066341
 30
0.0
 11
281.312489
 21
540.361955
 31
0.0
  0
LINE
  8
LC-001-002-----0
  6
CONTINUOUS
 62
     2
  5
16A
 10
254.652776
 20
636.465819
 30
0.0
 11
239.652776
 21
636.465819
 31
0.0
  0
LINE
  8
LC-001-002-----0
  6
CONTINUOUS
 62
     2
  5
16B
 10
254.652776
 20
636.465819
 30
0.0
 11
254.652776
 21
651.465819
 31
0.0
  0
LINE
  8
LC-001-002-----0
  6
CONTINUOUS
 62
     2
  5
16C
 10
254.652776
 20
651.465819
 30
0.0
 11
239.652776
 21
651.465819
 31
0.0
  0
LINE
  8
LC-001-002-----0
  6
CONTINUOUS
 62
     2
  5
16D
 10
239.652776
 20
636.465819
 30
0.0
 11
239.652776
 21
651.465819
 31
0.0
  0
ENDSEC
  0
EOF
