  0
SECTION
  2
HEADER
  9
$ACADVER
  1
AC1015
  9
$ACADMAINTVER
 70
     6
  9
$DWGCODEPAGE
  3
DOS850
  9
$INSBASE
 10
61.913174
 20
98.471475
 30
0.0
  9
$EXTMIN
 10
-148.086826
 20
-50.028525
 30
0.0
  9
$EXTMAX
 10
691.913174
 20
543.971475
 30
0.0
  9
$LIMMIN
 10
-148.086826
 20
-50.028525
  9
$LIMMAX
 10
691.913174
 20
543.971475
  9
$ORTHOMODE
 70
     0
  9
$REGENMODE
 70
     1
  9
$FILLMODE
 70
     1
  9
$QTEXTMODE
 70
     0
  9
$MIRRTEXT
 70
     1
  9
$LTSCALE
 40
2.0
  9
$ATTMODE
 70
     1
  9
$TEXTSIZE
 40
2.5
  9
$TRACEWID
 40
1.0
  9
$TEXTSTYLE
  7
Standard
  9
$CLAYER
  8
0
  9
$CELTYPE
  6
ByLayer
  9
$CECOLOR
 62
     7
  9
$CELTSCALE
 40
1.0
  9
$DISPSILH
 70
     0
  9
$DIMSCALE
 40
2.0
  9
$DIMASZ
 40
3.5
  9
$DIMEXO
 40
0.625
  9
$DIMDLI
 40
3.75
  9
$DIMRND
 40
0.0
  9
$DIMDLE
 40
0.0
  9
$DIMEXE
 40
1.25
  9
$DIMTP
 40
0.0
  9
$DIMTM
 40
0.0
  9
$DIMTXT
 40
3.5
  9
$DIMCEN
 40
2.5
  9
$DIMTSZ
 40
0.0
  9
$DIMTOL
 70
     0
  9
$DIMLIM
 70
     0
  9
$DIMTIH
 70
     0
  9
$DIMTOH
 70
     0
  9
$DIMSE1
 70
     0
  9
$DIMSE2
 70
     0
  9
$DIMTAD
 70
     1
  9
$DIMZIN
 70
     8
  9
$DIMBLK
  1

  9
$DIMASO
 70
     1
  9
$DIMSHO
 70
     1
  9
$DIMPOST
  1

  9
$DIMAPOST
  1

  9
$DIMALT
 70
     0
  9
$DIMALTD
 70
     3
  9
$DIMALTF
 40
0.03937
  9
$DIMLFAC
 40
1.0
  9
$DIMTOFL
 70
     1
  9
$DIMTVP
 40
0.0
  9
$DIMTIX
 70
     0
  9
$DIMSOXD
 70
     0
  9
$DIMSAH
 70
     0
  9
$DIMBLK1
  1

  9
$DIMBLK2
  1

  9
$DIMSTYLE
  2
ISO-25
  9
$DIMCLRD
 70
     0
  9
$DIMCLRE
 70
     0
  9
$DIMCLRT
 70
     0
  9
$DIMTFAC
 40
1.0
  9
$DIMGAP
 40
0.625
  9
$DIMJUST
 70
     0
  9
$DIMSD1
 70
     0
  9
$DIMSD2
 70
     0
  9
$DIMTOLJ
 70
     0
  9
$DIMTZIN
 70
     8
  9
$DIMALTZ
 70
     0
  9
$DIMALTTZ
 70
     0
  9
$DIMUPT
 70
     0
  9
$DIMDEC
 70
     2
  9
$DIMTDEC
 70
     2
  9
$DIMALTU
 70
     2
  9
$DIMALTTD
 70
     3
  9
$DIMTXSTY
  7
Standard
  9
$DIMAUNIT
 70
     0
  9
$DIMADEC
 70
     0
  9
$DIMALTRND
 40
0.0
  9
$DIMAZIN
 70
     0
  9
$DIMDSEP
 70
    44
  9
$DIMATFIT
 70
     3
  9
$DIMFRAC
 70
     0
  9
$DIMLDRBLK
  1

  9
$DIMLUNIT
 70
     2
  9
$DIMLWD
 70
    -2
  9
$DIMLWE
 70
    -2
  9
$DIMTMOVE
 70
     0
  9
$LUNITS
 70
     2
  9
$LUPREC
 70
     4
  9
$SKETCHINC
 40
1.0
  9
$FILLETRAD
 40
10.0
  9
$AUNITS
 70
     0
  9
$AUPREC
 70
     0
  9
$MENU
  1
.
  9
$ELEVATION
 40
0.0
  9
$PELEVATION
 40
0.0
  9
$THICKNESS
 40
0.0
  9
$LIMCHECK
 70
     0
  9
$CHAMFERA
 40
10.0
  9
$CHAMFERB
 40
10.0
  9
$CHAMFERC
 40
20.0
  9
$CHAMFERD
 40
0.0
  9
$SKPOLY
 70
     0
  9
$TDCREATE
 40
2453663.389827141
  9
$TDUCREATE
 40
2453663.306493808
  9
$TDUPDATE
 40
2453663.389827153
  9
$TDUUPDATE
 40
2453663.306493819
  9
$TDINDWG
 40
0.0000000116
  9
$TDUSRTIMER
 40
0.0000000116
  9
$USRTIMER
 70
     1
  9
$ANGBASE
 50
0.0
  9
$ANGDIR
 70
     0
  9
$PDMODE
 70
     0
  9
$PDSIZE
 40
0.0
  9
$PLINEWID
 40
0.0
  9
$SPLFRAME
 70
     0
  9
$SPLINETYPE
 70
     6
  9
$SPLINESEGS
 70
     8
  9
$HANDSEED
  5
D9
  9
$SURFTAB1
 70
     6
  9
$SURFTAB2
 70
     6
  9
$SURFTYPE
 70
     6
  9
$SURFU
 70
     6
  9
$SURFV
 70
     6
  9
$UCSBASE
  2

  9
$UCSNAME
  2

  9
$UCSORG
 10
0.0
 20
0.0
 30
0.0
  9
$UCSXDIR
 10
1.0
 20
0.0
 30
0.0
  9
$UCSYDIR
 10
0.0
 20
1.0
 30
0.0
  9
$UCSORTHOREF
  2

  9
$UCSORTHOVIEW
 70
     0
  9
$UCSORGTOP
 10
0.0
 20
0.0
 30
0.0
  9
$UCSORGBOTTOM
 10
0.0
 20
0.0
 30
0.0
  9
$UCSORGLEFT
 10
0.0
 20
0.0
 30
0.0
  9
$UCSORGRIGHT
 10
0.0
 20
0.0
 30
0.0
  9
$UCSORGFRONT
 10
0.0
 20
0.0
 30
0.0
  9
$UCSORGBACK
 10
0.0
 20
0.0
 30
0.0
  9
$PUCSBASE
  2

  9
$PUCSNAME
  2

  9
$PUCSORG
 10
0.0
 20
0.0
 30
0.0
  9
$PUCSXDIR
 10
1.0
 20
0.0
 30
0.0
  9
$PUCSYDIR
 10
0.0
 20
1.0
 30
0.0
  9
$PUCSORTHOREF
  2

  9
$PUCSORTHOVIEW
 70
     0
  9
$PUCSORGTOP
 10
0.0
 20
0.0
 30
0.0
  9
$PUCSORGBOTTOM
 10
0.0
 20
0.0
 30
0.0
  9
$PUCSORGLEFT
 10
0.0
 20
0.0
 30
0.0
  9
$PUCSORGRIGHT
 10
0.0
 20
0.0
 30
0.0
  9
$PUCSORGFRONT
 10
0.0
 20
0.0
 30
0.0
  9
$PUCSORGBACK
 10
0.0
 20
0.0
 30
0.0
  9
$USERI1
 70
     0
  9
$USERI2
 70
     0
  9
$USERI3
 70
     0
  9
$USERI4
 70
     0
  9
$USERI5
 70
     0
  9
$USERR1
 40
0.0
  9
$USERR2
 40
0.0
  9
$USERR3
 40
0.0
  9
$USERR4
 40
0.0
  9
$USERR5
 40
0.0
  9
$WORLDVIEW
 70
     1
  9
$SHADEDGE
 70
     3
  9
$SHADEDIF
 70
    70
  9
$TILEMODE
 70
     1
  9
$MAXACTVP
 70
    64
  9
$PINSBASE
 10
0.0
 20
0.0
 30
0.0
  9
$PLIMCHECK
 70
     0
  9
$PEXTMIN
 10
-148.086826
 20
-50.028525
 30
0.0
  9
$PEXTMAX
 10
691.913174
 20
543.971475
 30
0.0
  9
$PLIMMIN
 10
-148.086826
 20
-50.028525
  9
$PLIMMAX
 10
691.913174
 20
543.971475
  9
$UNITMODE
 70
     0
  9
$VISRETAIN
 70
     1
  9
$PLINEGEN
 70
     0
  9
$PSLTSCALE
 70
     1
  9
$TREEDEPTH
 70
  3020
  9
$CMLSTYLE
  2
Standard
  9
$CMLJUST
 70
     0
  9
$CMLSCALE
 40
20.0
  9
$PROXYGRAPHICS
 70
     1
  9
$MEASUREMENT
 70
     1
  9
$CELWEIGHT
370
    -1
  9
$ENDCAPS
280
     0
  9
$JOINSTYLE
280
     0
  9
$LWDISPLAY
290
     0
  9
$INSUNITS
 70
     4
  9
$HYPERLINKBASE
  1

  9
$STYLESHEET
  1

  9
$XEDIT
290
     1
  9
$CEPSNTYPE
380
     0
  9
$PSTYLEMODE
290
     1
  9
$FINGERPRINTGUID
  2
{FAEB1C30-E019-11D5-929B-00C0DF256EC4}
  9
$VERSIONGUID
  2
{FAEB1C32-E019-11D5-929B-00C0DF256EC4}
  9
$EXTNAMES
290
     1
  9
$PSVPSCALE
 40
0.0
  9
$OLESTARTUP
290
     0
  0
ENDSEC
  0
SECTION
  2
CLASSES
  0
CLASS
  1
ACDBDICTIONARYWDFLT
  2
AcDbDictionaryWithDefault
  3
ObjectDBX Classes
 90
        0
280
     0
281
     0
  0
CLASS
  1
ACDBPLACEHOLDER
  2
AcDbPlaceHolder
  3
ObjectDBX Classes
 90
        0
280
     0
281
     0
  0
CLASS
  1
LAYOUT
  2
AcDbLayout
  3
ObjectDBX Classes
 90
        0
280
     0
281
     0
  0
ENDSEC
  0
SECTION
  2
TABLES
  0
TABLE
  2
VPORT
  5
8
330
0
100
AcDbSymbolTable
 70
     2
  0
VPORT
  5
29
330
8
100
AcDbSymbolTableRecord
100
AcDbViewportTableRecord
  2
*ACTIVE
 70
     0
 10
0.0
 20
0.0
 11
1.0
 21
1.0
 12
271.913174
 22
246.971475
 13
0.0
 23
0.0
 14
1.0
 24
1.0
 15
0.0
 25
0.0
 16
0.0
 26
0.0
 36
1.0
 17
0.0
 27
0.0
 37
0.0
 40
594.0
 41
1.414141
 42
50.0
 43
0.0
 44
0.0
 50
0.0
 51
0.0
 71
    16
 72
   100
 73
     1
 74
     0
 75
     0
 76
     0
 77
     0
 78
     0
281
     0
 65
     0
110
0.0
120
0.0
130
0.0
111
1.0
121
0.0
131
0.0
112
0.0
122
1.0
132
0.0
 79
     0
146
0.0
  0
ENDTAB
  0
TABLE
  2
LTYPE
  5
5
330
0
100
AcDbSymbolTable
 70
     3
  0
LTYPE
  5
14
330
5
100
AcDbSymbolTableRecord
100
AcDbLinetypeTableRecord
  2
ByBlock
 70
     0
  3

 72
    65
 73
     0
 40
0.0
  0
LTYPE
  5
15
330
5
100
AcDbSymbolTableRecord
100
AcDbLinetypeTableRecord
  2
ByLayer
 70
     0
  3

 72
    65
 73
     0
 40
0.0
  0
LTYPE
  5
16
330
5
100
AcDbSymbolTableRecord
100
AcDbLinetypeTableRecord
  2
Continuous
 70
     0
  3
Solid line
 72
    65
 73
     0
 40
0.0
  0
LTYPE
  5
2A
330
5
100
AcDbSymbolTableRecord
100
AcDbLinetypeTableRecord
  2
DASHED
 70
     0
  3
__ __ __ __ __
 72
    65
 73
     2
 40
6.25
 49
5.0
 74
     4
 75
     0
340
0
 46
1.0
 50
0.0
 44
0.0
 45
0.0
 49
-1.25
 74
     4
 75
     0
340
0
 46
1.0
 50
0.0
 44
0.0
 45
0.0
  0
LTYPE
  5
31
330
5
100
AcDbSymbolTableRecord
100
AcDbLinetypeTableRecord
  2
DASHDOT
 70
     0
  3
__ . __ . __ . __ . __
 72
    65
 73
     4
 40
7.5
 49
5.0
 74
     4
 75
     0
340
0
 46
1.0
 50
0.0
 44
0.0
 45
0.0
 49
-1.25
 74
     4
 75
     0
340
0
 46
1.0
 50
0.0
 44
0.0
 45
0.0
 49
0.0
 74
     4
 75
     0
340
0
 46
1.0
 50
0.0
 44
0.0
 45
0.0
 49
-1.25
 74
     4
 75
     0
340
0
 46
1.0
 50
0.0
 44
0.0
 45
0.0
  0
ENDTAB
  0
TABLE
  2
LAYER
  5
2
330
0
100
AcDbSymbolTable
 70
    10
  0
LAYER
  5
10
330
2
100
AcDbSymbolTableRecord
100
AcDbLayerTableRecord
  2
0
 70
     0
 62
     7
  6
Continuous
370
    -3
390
F
  0
LAYER
  5
2B
330
2
100
AcDbSymbolTableRecord
100
AcDbLayerTableRecord
  2
LC-INFO-1-2-mm-A3-0
 70
     1
 62
     7
  6
ByBlock
370
    -3
390
F
  0
LAYER
  5
2C
330
2
100
AcDbSymbolTableRecord
100
AcDbLayerTableRecord
  2
LC-CUT-HIDDEN
 70
     0
 62
     7
  6
DASHED
370
    -3
390
F
  0
LAYER
  5
2D
330
2
100
AcDbSymbolTableRecord
100
AcDbLayerTableRecord
  2
LC-VIEWPORT
 70
     0
 62
     7
  6
ByBlock
370
    -3
390
F
  0
LAYER
  5
2E
330
2
100
AcDbSymbolTableRecord
100
AcDbLayerTableRecord
  2
LC-3D-HIDDEN
 70
     0
 62
     9
  6
DASHED
370
    -3
390
F
  0
LAYER
  5
32
330
2
100
AcDbSymbolTableRecord
100
AcDbLayerTableRecord
  2
LC-001-002-----0
 70
     0
 62
     2
  6
DASHDOT
370
    -3
390
F
  0
LAYER
  5
3A
330
2
100
AcDbSymbolTableRecord
100
AcDbLayerTableRecord
  2
LC-002-002-3SD-0
 70
     0
 62
     1
  6
ByBlock
370
    -3
390
F
  0
LAYER
  5
3F
330
2
100
AcDbSymbolTableRecord
100
AcDbLayerTableRecord
  2
LC-003-005-----0
 70
     0
 62
     2
  6
ByBlock
370
    -3
390
F
  0
LAYER
  5
BA
330
2
100
AcDbSymbolTableRecord
100
AcDbLayerTableRecord
  2
LC-004-003-----0
 70
     0
 62
     2
  6
ByBlock
370
    -3
390
F
  0
LAYER
  5
BC
330
2
100
AcDbSymbolTableRecord
100
AcDbLayerTableRecord
  2
Defpoints
 70
     0
 62
     7
  6
Continuous
290
     0
370
    -3
390
F
  0
ENDTAB
  0
TABLE
  2
STYLE
  5
3
330
0
100
AcDbSymbolTable
 70
     3
  0
STYLE
  5
11
330
3
100
AcDbSymbolTableRecord
100
AcDbTextStyleTableRecord
  2
Standard
 70
     0
 40
0.0
 41
1.0
 50
0.0
 71
     0
 42
2.5
  3
txt
  4

  0
STYLE
  5
2F
330
3
100
AcDbSymbolTableRecord
100
AcDbTextStyleTableRecord
  2
LCTX15-400-0-0pDIN-Schrift
 70
     0
 40
0.0
 41
0.9
 50
15.0
 71
     0
 42
3.5
  3
TXT
  4

  0
STYLE
  5
30
330
3
100
AcDbSymbolTableRecord
100
AcDbTextStyleTableRecord
  2
LCTX15-400-0-0-Arial
 70
     0
 40
0.0
 41
0.9
 50
0.0
 71
     0
 42
3.5
  3

  4

1001
ACAD
1000
Arial
1071
 16777218
  0
ENDTAB
  0
TABLE
  2
VIEW
  5
6
330
0
100
AcDbSymbolTable
 70
     0
  0
ENDTAB
  0
TABLE
  2
UCS
  5
7
330
0
100
AcDbSymbolTable
 70
     0
  0
ENDTAB
  0
TABLE
  2
APPID
  5
9
330
0
100
AcDbSymbolTable
 70
     1
  0
APPID
  5
12
330
9
100
AcDbSymbolTableRecord
100
AcDbRegAppTableRecord
  2
ACAD
 70
     0
  0
ENDTAB
  0
TABLE
  2
DIMSTYLE
  5
A
330
0
100
AcDbSymbolTable
 70
     2
100
AcDbDimStyleTable
  0
DIMSTYLE
105
27
330
A
100
AcDbSymbolTableRecord
100
AcDbDimStyleTableRecord
  2
ISO-25
 70
     0
 41
2.5
 42
0.625
 43
3.75
 44
1.25
 73
     0
 74
     0
 77
     1
 78
     8
140
2.5
141
2.5
143
0.03937
147
0.625
171
     3
172
     1
271
     2
272
     2
274
     3
278
    44
283
     0
284
     8
340
11
  0
DIMSTYLE
105
B9
102
{ACAD_REACTORS
330
BB
330
C9
102
}
330
A
100
AcDbSymbolTableRecord
100
AcDbDimStyleTableRecord
  2
LC-DIM-L-0140-02-02
 70
     0
 40
2.0
 41
14.0
 42
0.0
 43
7.5
 44
1.8
 73
     0
 74
     0
 77
     1
 78
     8
 79
     2
140
14.0
141
0.0
146
0.71
147
1.5
176
     2
177
     2
178
     2
179
     2
271
     2
278
    44
289
     1
340
2F
  0
ENDTAB
  0
TABLE
  2
BLOCK_RECORD
  5
1
330
0
100
AcDbSymbolTable
 70
     6
  0
BLOCK_RECORD
  5
1F
330
1
100
AcDbSymbolTableRecord
100
AcDbBlockTableRecord
  2
*Model_Space
340
22
  0
BLOCK_RECORD
  5
1B
330
1
100
AcDbSymbolTableRecord
100
AcDbBlockTableRecord
  2
*Paper_Space
340
1E
  0
BLOCK_RECORD
  5
23
330
1
100
AcDbSymbolTableRecord
100
AcDbBlockTableRecord
  2
*Paper_Space0
340
26
  0
BLOCK_RECORD
  5
37
330
1
100
AcDbSymbolTableRecord
100
AcDbBlockTableRecord
  2
ELM1
340
0
102
{BLKREFS
331
3B
102
}
  0
BLOCK_RECORD
  5
3C
330
1
100
AcDbSymbolTableRecord
100
AcDbBlockTableRecord
  2
*X12
340
0
102
{BLKREFS
331
46
102
}
  0
BLOCK_RECORD
  5
AF
330
1
100
AcDbSymbolTableRecord
100
AcDbBlockTableRecord
  2
*X23
340
0
102
{BLKREFS
331
B8
102
}
  0
BLOCK_RECORD
  5
BD
330
1
100
AcDbSymbolTableRecord
100
AcDbBlockTableRecord
  2
*D4
340
0
  0
BLOCK_RECORD
  5
CA
330
1
100
AcDbSymbolTableRecord
100
AcDbBlockTableRecord
  2
*D5
340
0
  0
ENDTAB
  0
ENDSEC
  0
SECTION
  2
BLOCKS
  0
BLOCK
  5
20
330
1F
100
AcDbEntity
  8
0
100
AcDbBlockBegin
  2
*Model_Space
 70
     0
 71
     0
 10
0.0
 20
0.0
 30
0.0
  3
*Model_Space
  1

  0
ENDBLK
  5
21
330
1F
100
AcDbEntity
  8
0
100
AcDbBlockEnd
  0
BLOCK
  5
1C
330
1B
100
AcDbEntity
 67
     1
  8
0
100
AcDbBlockBegin
  2
*Paper_Space
 70
     0
 71
     0
 10
0.0
 20
0.0
 30
0.0
  3
*Paper_Space
  1

  0
ENDBLK
  5
1D
330
1B
100
AcDbEntity
 67
     1
  8
0
100
AcDbBlockEnd
  0
BLOCK
  5
24
330
23
100
AcDbEntity
  8
0
100
AcDbBlockBegin
  2
*Paper_Space0
 70
     0
 71
     0
 10
0.0
 20
0.0
 30
0.0
  3
*Paper_Space0
  1

  0
ENDBLK
  5
25
330
23
100
AcDbEntity
  8
0
100
AcDbBlockEnd
  0
BLOCK
  5
38
330
37
100
AcDbEntity
  8
0
100
AcDbBlockBegin
  2
ELM1
 70
     0
 71
     0
 10
0.0
 20
0.0
 30
0.0
  3
ELM1
  1

  4
ELM1
  0
ENDBLK
  5
39
330
37
100
AcDbEntity
  8
0
100
AcDbBlockEnd
  0
BLOCK
  5
3D
330
3C
100
AcDbEntity
  8
0
100
AcDbBlockBegin
  2
*X12
 70
     1
 71
     0
 10
0.0
 20
0.0
 30
0.0
  3
*X12
  1

  4
*X1
  0
LINE
  5
40
330
3C
100
AcDbEntity
  8
LC-003-005-----0
 62
     7
370
    25
100
AcDbLine
 10
48.160348
 20
297.061935
 30
0.0
 11
50.616382
 21
299.517969
 31
0.0
  0
LINE
  5
41
330
3C
100
AcDbEntity
  8
LC-003-005-----0
 62
     7
370
    25
100
AcDbLine
 10
48.116382
 20
299.846397
 30
0.0
 11
50.616382
 21
302.346397
 31
0.0
  0
LINE
  5
42
330
3C
100
AcDbEntity
  8
LC-003-005-----0
 62
     7
370
    25
100
AcDbLine
 10
47.503494
 20
302.061935
 30
0.0
 11
49.503494
 21
304.061935
 31
0.0
  0
LINE
  5
43
330
3C
100
AcDbEntity
  8
LC-003-005-----0
 62
     7
370
    25
100
AcDbLine
 10
45.116382
 20
302.503251
 30
0.0
 11
47.616382
 21
305.003251
 31
0.0
  0
LINE
  5
44
330
3C
100
AcDbEntity
  8
LC-003-005-----0
 62
     7
370
    25
100
AcDbLine
 10
45.116382
 20
305.331678
 30
0.0
 11
47.616382
 21
307.831678
 31
0.0
  0
LINE
  5
45
330
3C
100
AcDbEntity
  8
LC-003-005-----0
 62
     7
370
    25
100
AcDbLine
 10
45.116382
 20
308.160105
 30
0.0
 11
46.518212
 21
309.561935
 31
0.0
  0
ENDBLK
  5
3E
330
3C
100
AcDbEntity
  8
0
100
AcDbBlockEnd
  0
BLOCK
  5
B0
330
AF
100
AcDbEntity
  8
0
100
AcDbBlockBegin
  2
*X23
 70
     1
 71
     0
 10
0.0
 20
0.0
 30
0.0
  3
*X23
  1

  4
*X2
  0
LINE
  5
B2
330
AF
100
AcDbEntity
  8
LC-003-005-----0
 62
     7
370
    25
100
AcDbLine
 10
192.410131
 20
297.061935
 30
0.0
 11
193.116382
 21
297.768186
 31
0.0
  0
LINE
  5
B3
330
AF
100
AcDbEntity
  8
LC-003-005-----0
 62
     7
370
    25
100
AcDbLine
 10
190.616382
 20
298.096613
 30
0.0
 11
193.116382
 21
300.596613
 31
0.0
  0
LINE
  5
B4
330
AF
100
AcDbEntity
  8
LC-003-005-----0
 62
     7
370
    25
100
AcDbLine
 10
194.581704
 20
302.061935
 30
0.0
 11
196.116382
 21
303.596613
 31
0.0
  0
LINE
  5
B5
330
AF
100
AcDbEntity
  8
LC-003-005-----0
 62
     7
370
    25
100
AcDbLine
 10
190.616382
 20
300.92504
 30
0.0
 11
196.116382
 21
306.42504
 31
0.0
  0
LINE
  5
B6
330
AF
100
AcDbEntity
  8
LC-003-005-----0
 62
     7
370
    25
100
AcDbLine
 10
190.616382
 20
303.753467
 30
0.0
 11
190.92485
 21
304.061935
 31
0.0
  0
LINE
  5
B7
330
AF
100
AcDbEntity
  8
LC-003-005-----0
 62
     7
370
    25
100
AcDbLine
 10
193.616382
 20
306.753467
 30
0.0
 11
196.116382
 21
309.253467
 31
0.0
  0
ENDBLK
  5
B1
330
AF
100
AcDbEntity
  8
0
100
AcDbBlockEnd
  0
BLOCK
  5
C7
330
BD
100
AcDbEntity
  8
0
100
AcDbBlockBegin
  2
*D4
 70
     1
 71
     0
 10
0.0
 20
0.0
 30
0.0
  3
*D4
  1

  0
LINE
  5
BE
330
BD
100
AcDbEntity
  8
LC-004-003-----0
 62
     2
370
    -2
100
AcDbLine
 10
45.116382
 20
309.561935
 30
0.0
 11
45.116382
 21
340.330414
 31
0.0
  0
LINE
  5
BF
330
BD
100
AcDbEntity
  8
LC-004-003-----0
 62
     2
370
    -2
100
AcDbLine
 10
196.116382
 20
309.561935
 30
0.0
 11
196.116382
 21
340.330414
 31
0.0
  0
LINE
  5
C0
330
BD
100
AcDbEntity
  8
LC-004-003-----0
 62
     2
370
    -2
100
AcDbLine
 10
73.116382
 20
336.730414
 30
0.0
 11
168.116382
 21
336.730414
 31
0.0
  0
SOLID
  5
C1
330
BD
100
AcDbEntity
  8
LC-004-003-----0
 62
     2
100
AcDbTrace
 10
73.116382
 20
341.39708
 30
0.0
 11
73.116382
 21
332.063747
 31
0.0
 12
45.116382
 22
336.730414
 32
0.0
 13
45.116382
 23
336.730414
 33
0.0
  0
SOLID
  5
C2
330
BD
100
AcDbEntity
  8
LC-004-003-----0
 62
     2
100
AcDbTrace
 10
168.116382
 20
332.063747
 30
0.0
 11
168.116382
 21
341.39708
 31
0.0
 12
196.116382
 22
336.730414
 32
0.0
 13
196.116382
 23
336.730414
 33
0.0
  0
MTEXT
  5
C3
330
BD
100
AcDbEntity
  8
LC-004-003-----0
 62
     2
100
AcDbMText
 10
117.969042
 20
367.530414
 30
0.0
 40
28.0
 41
0.0
 71
     5
 72
     1
  1
\A1;%%c150
  7
LCTX15-400-0-0pDIN-Schrift
 73
     1
 44
1.0
  0
POINT
  5
C4
330
BD
100
AcDbEntity
  8
Defpoints
 62
     0
100
AcDbPoint
 10
45.116382
 20
309.561935
 30
0.0
  0
POINT
  5
C5
330
BD
100
AcDbEntity
  8
Defpoints
 62
     0
100
AcDbPoint
 10
196.116382
 20
309.561935
 30
0.0
  0
POINT
  5
C6
330
BD
100
AcDbEntity
  8
Defpoints
 62
     0
100
AcDbPoint
 10
196.116382
 20
336.730414
 30
0.0
  0
ENDBLK
  5
C8
330
BD
100
AcDbEntity
  8
0
100
AcDbBlockEnd
  0
BLOCK
  5
D6
330
CA
100
AcDbEntity
  8
0
100
AcDbBlockBegin
  2
*D5
 70
     1
 71
     0
 10
0.0
 20
0.0
 30
0.0
  3
*D5
  1

  0
LINE
  5
CB
330
CA
100
AcDbEntity
  8
LC-004-003-----0
 62
     2
370
    -2
100
AcDbLine
 10
45.116382
 20
309.561935
 30
0.0
 11
17.086064
 21
309.561935
 31
0.0
  0
LINE
  5
CC
330
CA
100
AcDbEntity
  8
LC-004-003-----0
 62
     2
370
    -2
100
AcDbLine
 10
45.116382
 20
302.061935
 30
0.0
 11
17.086064
 21
302.061935
 31
0.0
  0
LINE
  5
CD
330
CA
100
AcDbEntity
  8
LC-004-003-----0
 62
     2
370
    -2
100
AcDbLine
 10
20.686064
 20
337.561935
 30
0.0
 11
20.686064
 21
365.561935
 31
0.0
  0
LINE
  5
CE
330
CA
100
AcDbEntity
  8
LC-004-003-----0
 62
     2
370
    -2
100
AcDbLine
 10
20.686064
 20
274.061935
 30
0.0
 11
20.686064
 21
246.061935
 31
0.0
  0
LINE
  5
CF
330
CA
100
AcDbEntity
  8
LC-004-003-----0
 62
     2
370
    -2
100
AcDbLine
 10
20.686064
 20
309.561935
 30
0.0
 11
20.686064
 21
302.061935
 31
0.0
  0
SOLID
  5
D0
330
CA
100
AcDbEntity
  8
LC-004-003-----0
 62
     2
100
AcDbTrace
 10
16.019398
 20
337.561935
 30
0.0
 11
25.352731
 21
337.561935
 31
0.0
 12
20.686064
 22
309.561935
 32
0.0
 13
20.686064
 23
309.561935
 33
0.0
  0
SOLID
  5
D1
330
CA
100
AcDbEntity
  8
LC-004-003-----0
 62
     2
100
AcDbTrace
 10
25.352731
 20
274.061935
 30
0.0
 11
16.019398
 21
274.061935
 31
0.0
 12
20.686064
 22
302.061935
 32
0.0
 13
20.686064
 23
302.061935
 33
0.0
  0
MTEXT
  5
D2
330
CA
100
AcDbEntity
  8
LC-004-003-----0
 62
     2
100
AcDbMText
 10
-10.113936
 20
308.700715
 30
0.0
 40
28.0
 41
0.0
 71
     5
 72
     1
  1
\A1;7,5
  7
LCTX15-400-0-0pDIN-Schrift
 11
6.123031769111886E-17
 21
1.0
 31
0.0
 73
     1
 44
1.0
  0
POINT
  5
D3
330
CA
100
AcDbEntity
  8
Defpoints
 62
     0
100
AcDbPoint
 10
45.116382
 20
309.561935
 30
0.0
  0
POINT
  5
D4
330
CA
100
AcDbEntity
  8
Defpoints
 62
     0
100
AcDbPoint
 10
45.116382
 20
302.061935
 30
0.0
  0
POINT
  5
D5
330
CA
100
AcDbEntity
  8
Defpoints
 62
     0
100
AcDbPoint
 10
20.686064
 20
302.061935
 30
0.0
  0
ENDBLK
  5
D7
330
CA
100
AcDbEntity
  8
0
100
AcDbBlockEnd
  0
ENDSEC
  0
SECTION
  2
ENTITIES
  0
LINE
  5
33
330
1F
100
AcDbEntity
  8
LC-001-002-----0
 62
     7
370
    25
100
AcDbLine
 10
120.616382
 20
297.061935
 30
0.0
 11
120.616382
 21
309.561935
 31
0.0
  0
CIRCLE
  5
34
330
1F
100
AcDbEntity
  8
LC-001-002-----0
  6
ByBlock
 62
     7
370
    50
100
AcDbCircle
 10
346.116382
 20
303.311935
 30
0.0
 40
78.0
  0
CIRCLE
  5
35
330
1F
100
AcDbEntity
  8
LC-001-002-----0
  6
ByBlock
 62
     7
370
    50
100
AcDbCircle
 10
346.116382
 20
303.311935
 30
0.0
 40
70.0
  0
CIRCLE
  5
36
330
1F
100
AcDbEntity
  8
LC-001-002-----0
  6
ByBlock
 62
     7
370
    50
100
AcDbCircle
 10
346.116382
 20
303.311935
 30
0.0
 40
75.5
  0
INSERT
  5
3B
330
1F
100
AcDbEntity
  8
LC-002-002-3SD-0
 62
     7
370
    50
100
AcDbBlockReference
  2
ELM1
 10
0.0
 20
0.0
 30
0.0
  0
INSERT
  5
46
330
1F
100
AcDbEntity
  8
LC-003-005-----0
 62
     7
370
    25
100
AcDbBlockReference
  2
*X12
 10
0.0
 20
0.0
 30
0.0
  0
LINE
  5
47
102
{ACAD_REACTORS
330
D8
102
}
330
1F
100
AcDbEntity
  8
LC-001-002-----0
  6
ByBlock
 62
     7
370
    50
100
AcDbLine
 10
48.116382
 20
297.061935
 30
0.0
 11
50.616382
 21
297.061935
 31
0.0
  0
LINE
  5
48
102
{ACAD_REACTORS
330
D8
102
}
330
1F
100
AcDbEntity
  8
LC-001-002-----0
  6
ByBlock
 62
     7
370
    50
100
AcDbLine
 10
190.616382
 20
297.061935
 30
0.0
 11
193.116382
 21
297.061935
 31
0.0
  0
LINE
  5
49
102
{ACAD_REACTORS
330
D8
102
}
330
1F
100
AcDbEntity
  8
LC-001-002-----0
  6
ByBlock
 62
     7
370
    50
100
AcDbLine
 10
45.116382
 20
309.561935
 30
0.0
 11
45.116382
 21
302.061935
 31
0.0
  0
LINE
  5
4A
102
{ACAD_REACTORS
330
D8
102
}
330
1F
100
AcDbEntity
  8
LC-001-002-----0
  6
ByBlock
 62
     7
370
    50
100
AcDbLine
 10
193.616382
 20
304.061935
 30
0.0
 11
190.616382
 21
304.061935
 31
0.0
  0
LINE
  5
4B
102
{ACAD_REACTORS
330
D8
102
}
330
1F
100
AcDbEntity
  8
LC-001-002-----0
  6
ByBlock
 62
     7
370
    50
100
AcDbLine
 10
193.116382
 20
302.061935
 30
0.0
 11
196.116382
 21
302.061935
 31
0.0
  0
LINE
  5
4C
102
{ACAD_REACTORS
330
D8
102
}
330
1F
100
AcDbEntity
  8
LC-001-002-----0
  6
ByBlock
 62
     7
370
    50
100
AcDbLine
 10
193.116382
 20
297.061935
 30
0.0
 11
193.116382
 21
302.061935
 31
0.0
  0
LINE
  5
4D
102
{ACAD_REACTORS
330
D8
102
}
330
1F
100
AcDbEntity
  8
LC-001-002-----0
  6
ByBlock
 62
     7
370
    50
100
AcDbLine
 10
47.616382
 20
304.061935
 30
0.0
 11
47.616382
 21
309.561935
 31
0.0
  0
LINE
  5
4E
102
{ACAD_REACTORS
330
D8
102
}
330
1F
100
AcDbEntity
  8
LC-001-002-----0
  6
ByBlock
 62
     7
370
    50
100
AcDbLine
 10
196.116382
 20
309.561935
 30
0.0
 11
193.616382
 21
309.561935
 31
0.0
  0
LINE
  5
4F
102
{ACAD_REACTORS
330
D8
102
}
330
1F
100
AcDbEntity
  8
LC-001-002-----0
  6
ByBlock
 62
     7
370
    50
100
AcDbLine
 10
50.616382
 20
304.061935
 30
0.0
 11
51.215242
 21
304.061935
 31
0.0
  0
LINE
  5
50
102
{ACAD_REACTORS
330
D8
102
}
330
1F
100
AcDbEntity
  8
LC-001-002-----0
  6
ByBlock
 62
     7
370
    50
100
AcDbLine
 10
51.215242
 20
304.061935
 30
0.0
 11
53.001575
 21
304.061935
 31
0.0
  0
LINE
  5
51
102
{ACAD_REACTORS
330
D8
102
}
330
1F
100
AcDbEntity
  8
LC-001-002-----0
  6
ByBlock
 62
     7
370
    50
100
AcDbLine
 10
53.001575
 20
304.061935
 30
0.0
 11
55.944815
 21
304.061935
 31
0.0
  0
LINE
  5
52
102
{ACAD_REACTORS
330
D8
102
}
330
1F
100
AcDbEntity
  8
LC-001-002-----0
  6
ByBlock
 62
     7
370
    50
100
AcDbLine
 10
55.944815
 20
304.061935
 30
0.0
 11
59.994604
 21
304.061935
 31
0.0
  0
LINE
  5
53
102
{ACAD_REACTORS
330
D8
102
}
330
1F
100
AcDbEntity
  8
LC-001-002-----0
  6
ByBlock
 62
     7
370
    50
100
AcDbLine
 10
59.994604
 20
304.061935
 30
0.0
 11
65.081649
 21
304.061935
 31
0.0
  0
LINE
  5
54
102
{ACAD_REACTORS
330
D8
102
}
330
1F
100
AcDbEntity
  8
LC-001-002-----0
  6
ByBlock
 62
     7
370
    50
100
AcDbLine
 10
65.081649
 20
304.061935
 30
0.0
 11
71.118908
 21
304.061935
 31
0.0
  0
LINE
  5
55
102
{ACAD_REACTORS
330
D8
102
}
330
1F
100
AcDbEntity
  8
LC-001-002-----0
  6
ByBlock
 62
     7
370
    50
100
AcDbLine
 10
71.118908
 20
304.061935
 30
0.0
 11
78.003082
 21
304.061935
 31
0.0
  0
LINE
  5
56
102
{ACAD_REACTORS
330
D8
102
}
330
1F
100
AcDbEntity
  8
LC-001-002-----0
  6
ByBlock
 62
     7
370
    50
100
AcDbLine
 10
78.003082
 20
304.061935
 30
0.0
 11
85.616382
 21
304.061935
 31
0.0
  0
LINE
  5
57
102
{ACAD_REACTORS
330
D8
102
}
330
1F
100
AcDbEntity
  8
LC-001-002-----0
  6
ByBlock
 62
     7
370
    50
100
AcDbLine
 10
85.616382
 20
304.061935
 30
0.0
 11
93.828542
 21
304.061935
 31
0.0
  0
LINE
  5
58
102
{ACAD_REACTORS
330
D8
102
}
330
1F
100
AcDbEntity
  8
LC-001-002-----0
  6
ByBlock
 62
     7
370
    50
100
AcDbLine
 10
93.828542
 20
304.061935
 30
0.0
 11
102.499049
 21
304.061935
 31
0.0
  0
LINE
  5
59
102
{ACAD_REACTORS
330
D8
102
}
330
1F
100
AcDbEntity
  8
LC-001-002-----0
  6
ByBlock
 62
     7
370
    50
100
AcDbLine
 10
102.499049
 20
304.061935
 30
0.0
 11
111.479549
 21
304.061935
 31
0.0
  0
LINE
  5
5A
102
{ACAD_REACTORS
330
D8
102
}
330
1F
100
AcDbEntity
  8
LC-001-002-----0
  6
ByBlock
 62
     7
370
    50
100
AcDbLine
 10
111.479549
 20
304.061935
 30
0.0
 11
120.616382
 21
304.061935
 31
0.0
  0
LINE
  5
5B
102
{ACAD_REACTORS
330
D8
102
}
330
1F
100
AcDbEntity
  8
LC-001-002-----0
  6
ByBlock
 62
     7
370
    50
100
AcDbLine
 10
120.616382
 20
304.061935
 30
0.0
 11
129.753216
 21
304.061935
 31
0.0
  0
LINE
  5
5C
102
{ACAD_REACTORS
330
D8
102
}
330
1F
100
AcDbEntity
  8
LC-001-002-----0
  6
ByBlock
 62
     7
370
    50
100
AcDbLine
 10
129.753216
 20
304.061935
 30
0.0
 11
138.733716
 21
304.061935
 31
0.0
  0
LINE
  5
5D
102
{ACAD_REACTORS
330
D8
102
}
330
1F
100
AcDbEntity
  8
LC-001-002-----0
  6
ByBlock
 62
     7
370
    50
100
AcDbLine
 10
138.733716
 20
304.061935
 30
0.0
 11
147.404223
 21
304.061935
 31
0.0
  0
LINE
  5
5E
102
{ACAD_REACTORS
330
D8
102
}
330
1F
100
AcDbEntity
  8
LC-001-002-----0
  6
ByBlock
 62
     7
370
    50
100
AcDbLine
 10
147.404223
 20
304.061935
 30
0.0
 11
155.616382
 21
304.061935
 31
0.0
  0
LINE
  5
5F
102
{ACAD_REACTORS
330
D8
102
}
330
1F
100
AcDbEntity
  8
LC-001-002-----0
  6
ByBlock
 62
     7
370
    50
100
AcDbLine
 10
155.616382
 20
304.061935
 30
0.0
 11
163.229683
 21
304.061935
 31
0.0
  0
LINE
  5
60
102
{ACAD_REACTORS
330
D8
102
}
330
1F
100
AcDbEntity
  8
LC-001-002-----0
  6
ByBlock
 62
     7
370
    50
100
AcDbLine
 10
163.229683
 20
304.061935
 30
0.0
 11
170.113857
 21
304.061935
 31
0.0
  0
LINE
  5
61
102
{ACAD_REACTORS
330
D8
102
}
330
1F
100
AcDbEntity
  8
LC-001-002-----0
  6
ByBlock
 62
     7
370
    50
100
AcDbLine
 10
170.113857
 20
304.061935
 30
0.0
 11
176.151116
 21
304.061935
 31
0.0
  0
LINE
  5
62
102
{ACAD_REACTORS
330
D8
102
}
330
1F
100
AcDbEntity
  8
LC-001-002-----0
  6
ByBlock
 62
     7
370
    50
100
AcDbLine
 10
176.151116
 20
304.061935
 30
0.0
 11
181.238161
 21
304.061935
 31
0.0
  0
LINE
  5
63
102
{ACAD_REACTORS
330
D8
102
}
330
1F
100
AcDbEntity
  8
LC-001-002-----0
  6
ByBlock
 62
     7
370
    50
100
AcDbLine
 10
181.238161
 20
304.061935
 30
0.0
 11
185.28795
 21
304.061935
 31
0.0
  0
LINE
  5
64
102
{ACAD_REACTORS
330
D8
102
}
330
1F
100
AcDbEntity
  8
LC-001-002-----0
  6
ByBlock
 62
     7
370
    50
100
AcDbLine
 10
185.28795
 20
304.061935
 30
0.0
 11
188.23119
 21
304.061935
 31
0.0
  0
LINE
  5
65
102
{ACAD_REACTORS
330
D8
102
}
330
1F
100
AcDbEntity
  8
LC-001-002-----0
  6
ByBlock
 62
     7
370
    50
100
AcDbLine
 10
188.23119
 20
304.061935
 30
0.0
 11
190.017523
 21
304.061935
 31
0.0
  0
LINE
  5
66
102
{ACAD_REACTORS
330
D8
102
}
330
1F
100
AcDbEntity
  8
LC-001-002-----0
  6
ByBlock
 62
     7
370
    50
100
AcDbLine
 10
190.017523
 20
304.061935
 30
0.0
 11
190.616382
 21
304.061935
 31
0.0
  0
LINE
  5
67
102
{ACAD_REACTORS
330
D8
102
}
330
1F
100
AcDbEntity
  8
LC-001-002-----0
  6
ByBlock
 62
     7
370
    50
100
AcDbLine
 10
48.116382
 20
302.061935
 30
0.0
 11
48.116382
 21
297.061935
 31
0.0
  0
LINE
  5
68
102
{ACAD_REACTORS
330
D8
102
}
330
1F
100
AcDbEntity
  8
LC-001-002-----0
  6
ByBlock
 62
     7
370
    50
100
AcDbLine
 10
47.616382
 20
309.561935
 30
0.0
 11
45.116382
 21
309.561935
 31
0.0
  0
LINE
  5
69
102
{ACAD_REACTORS
330
D8
102
}
330
1F
100
AcDbEntity
  8
LC-001-002-----0
  6
ByBlock
 62
     7
370
    50
100
AcDbLine
 10
50.616382
 20
297.061935
 30
0.0
 11
50.616382
 21
304.061935
 31
0.0
  0
LINE
  5
6A
102
{ACAD_REACTORS
330
D8
102
}
330
1F
100
AcDbEntity
  8
LC-001-002-----0
  6
ByBlock
 62
     7
370
    50
100
AcDbLine
 10
190.616382
 20
304.061935
 30
0.0
 11
190.616382
 21
297.061935
 31
0.0
  0
LINE
  5
6B
102
{ACAD_REACTORS
330
D8
102
}
330
1F
100
AcDbEntity
  8
LC-001-002-----0
  6
ByBlock
 62
     7
370
    50
100
AcDbLine
 10
47.616382
 20
309.561935
 30
0.0
 11
48.240908
 21
309.561935
 31
0.0
  0
LINE
  5
6C
102
{ACAD_REACTORS
330
D8
102
}
330
1F
100
AcDbEntity
  8
LC-001-002-----0
  6
ByBlock
 62
     7
370
    50
100
AcDbLine
 10
48.240908
 20
309.561935
 30
0.0
 11
50.103797
 21
309.561935
 31
0.0
  0
LINE
  5
6D
102
{ACAD_REACTORS
330
D8
102
}
330
1F
100
AcDbEntity
  8
LC-001-002-----0
  6
ByBlock
 62
     7
370
    50
100
AcDbLine
 10
50.103797
 20
309.561935
 30
0.0
 11
53.173177
 21
309.561935
 31
0.0
  0
LINE
  5
6E
102
{ACAD_REACTORS
330
D8
102
}
330
1F
100
AcDbEntity
  8
LC-001-002-----0
  6
ByBlock
 62
     7
370
    50
100
AcDbLine
 10
53.173177
 20
309.561935
 30
0.0
 11
57.396528
 21
309.561935
 31
0.0
  0
LINE
  5
6F
102
{ACAD_REACTORS
330
D8
102
}
330
1F
100
AcDbEntity
  8
LC-001-002-----0
  6
ByBlock
 62
     7
370
    50
100
AcDbLine
 10
57.396528
 20
309.561935
 30
0.0
 11
62.701589
 21
309.561935
 31
0.0
  0
LINE
  5
70
102
{ACAD_REACTORS
330
D8
102
}
330
1F
100
AcDbEntity
  8
LC-001-002-----0
  6
ByBlock
 62
     7
370
    50
100
AcDbLine
 10
62.701589
 20
309.561935
 30
0.0
 11
68.997587
 21
309.561935
 31
0.0
  0
LINE
  5
71
102
{ACAD_REACTORS
330
D8
102
}
330
1F
100
AcDbEntity
  8
LC-001-002-----0
  6
ByBlock
 62
     7
370
    50
100
AcDbLine
 10
68.997587
 20
309.561935
 30
0.0
 11
76.176798
 21
309.561935
 31
0.0
  0
LINE
  5
72
102
{ACAD_REACTORS
330
D8
102
}
330
1F
100
AcDbEntity
  8
LC-001-002-----0
  6
ByBlock
 62
     7
370
    50
100
AcDbLine
 10
76.176798
 20
309.561935
 30
0.0
 11
84.116382
 21
309.561935
 31
0.0
  0
LINE
  5
73
102
{ACAD_REACTORS
330
D8
102
}
330
1F
100
AcDbEntity
  8
LC-001-002-----0
  6
ByBlock
 62
     7
370
    50
100
AcDbLine
 10
84.116382
 20
309.561935
 30
0.0
 11
92.680492
 21
309.561935
 31
0.0
  0
LINE
  5
74
102
{ACAD_REACTORS
330
D8
102
}
330
1F
100
AcDbEntity
  8
LC-001-002-----0
  6
ByBlock
 62
     7
370
    50
100
AcDbLine
 10
92.680492
 20
309.561935
 30
0.0
 11
101.722592
 21
309.561935
 31
0.0
  0
LINE
  5
75
102
{ACAD_REACTORS
330
D8
102
}
330
1F
100
AcDbEntity
  8
LC-001-002-----0
  6
ByBlock
 62
     7
370
    50
100
AcDbLine
 10
101.722592
 20
309.561935
 30
0.0
 11
111.08797
 21
309.561935
 31
0.0
  0
LINE
  5
76
102
{ACAD_REACTORS
330
D8
102
}
330
1F
100
AcDbEntity
  8
LC-001-002-----0
  6
ByBlock
 62
     7
370
    50
100
AcDbLine
 10
111.08797
 20
309.561935
 30
0.0
 11
120.616382
 21
309.561935
 31
0.0
  0
LINE
  5
77
102
{ACAD_REACTORS
330
D8
102
}
330
1F
100
AcDbEntity
  8
LC-001-002-----0
  6
ByBlock
 62
     7
370
    50
100
AcDbLine
 10
120.616382
 20
309.561935
 30
0.0
 11
130.144795
 21
309.561935
 31
0.0
  0
LINE
  5
78
102
{ACAD_REACTORS
330
D8
102
}
330
1F
100
AcDbEntity
  8
LC-001-002-----0
  6
ByBlock
 62
     7
370
    50
100
AcDbLine
 10
130.144795
 20
309.561935
 30
0.0
 11
139.510173
 21
309.561935
 31
0.0
  0
LINE
  5
79
102
{ACAD_REACTORS
330
D8
102
}
330
1F
100
AcDbEntity
  8
LC-001-002-----0
  6
ByBlock
 62
     7
370
    50
100
AcDbLine
 10
139.510173
 20
309.561935
 30
0.0
 11
148.552273
 21
309.561935
 31
0.0
  0
LINE
  5
7A
102
{ACAD_REACTORS
330
D8
102
}
330
1F
100
AcDbEntity
  8
LC-001-002-----0
  6
ByBlock
 62
     7
370
    50
100
AcDbLine
 10
148.552273
 20
309.561935
 30
0.0
 11
157.116382
 21
309.561935
 31
0.0
  0
LINE
  5
7B
102
{ACAD_REACTORS
330
D8
102
}
330
1F
100
AcDbEntity
  8
LC-001-002-----0
  6
ByBlock
 62
     7
370
    50
100
AcDbLine
 10
157.116382
 20
309.561935
 30
0.0
 11
165.055967
 21
309.561935
 31
0.0
  0
LINE
  5
7C
102
{ACAD_REACTORS
330
D8
102
}
330
1F
100
AcDbEntity
  8
LC-001-002-----0
  6
ByBlock
 62
     7
370
    50
100
AcDbLine
 10
165.055967
 20
309.561935
 30
0.0
 11
172.235178
 21
309.561935
 31
0.0
  0
LINE
  5
7D
102
{ACAD_REACTORS
330
D8
102
}
330
1F
100
AcDbEntity
  8
LC-001-002-----0
  6
ByBlock
 62
     7
370
    50
100
AcDbLine
 10
172.235178
 20
309.561935
 30
0.0
 11
178.531176
 21
309.561935
 31
0.0
  0
LINE
  5
7E
102
{ACAD_REACTORS
330
D8
102
}
330
1F
100
AcDbEntity
  8
LC-001-002-----0
  6
ByBlock
 62
     7
370
    50
100
AcDbLine
 10
178.531176
 20
309.561935
 30
0.0
 11
183.836237
 21
309.561935
 31
0.0
  0
LINE
  5
7F
102
{ACAD_REACTORS
330
D8
102
}
330
1F
100
AcDbEntity
  8
LC-001-002-----0
  6
ByBlock
 62
     7
370
    50
100
AcDbLine
 10
183.836237
 20
309.561935
 30
0.0
 11
188.059588
 21
309.561935
 31
0.0
  0
LINE
  5
80
102
{ACAD_REACTORS
330
D8
102
}
330
1F
100
AcDbEntity
  8
LC-001-002-----0
  6
ByBlock
 62
     7
370
    50
100
AcDbLine
 10
188.059588
 20
309.561935
 30
0.0
 11
191.128968
 21
309.561935
 31
0.0
  0
LINE
  5
81
102
{ACAD_REACTORS
330
D8
102
}
330
1F
100
AcDbEntity
  8
LC-001-002-----0
  6
ByBlock
 62
     7
370
    50
100
AcDbLine
 10
191.128968
 20
309.561935
 30
0.0
 11
192.991857
 21
309.561935
 31
0.0
  0
LINE
  5
82
102
{ACAD_REACTORS
330
D8
102
}
330
1F
100
AcDbEntity
  8
LC-001-002-----0
  6
ByBlock
 62
     7
370
    50
100
AcDbLine
 10
192.991857
 20
309.561935
 30
0.0
 11
193.616382
 21
309.561935
 31
0.0
  0
LINE
  5
83
102
{ACAD_REACTORS
330
D8
102
}
330
1F
100
AcDbEntity
  8
LC-001-002-----0
  6
ByBlock
 62
     7
370
    50
100
AcDbLine
 10
196.116382
 20
302.061935
 30
0.0
 11
196.116382
 21
309.561935
 31
0.0
  0
LINE
  5
84
102
{ACAD_REACTORS
330
D8
102
}
330
1F
100
AcDbEntity
  8
LC-001-002-----0
  6
ByBlock
 62
     7
370
    50
100
AcDbLine
 10
193.616382
 20
309.561935
 30
0.0
 11
193.616382
 21
304.061935
 31
0.0
  0
LINE
  5
85
102
{ACAD_REACTORS
330
D8
102
}
330
1F
100
AcDbEntity
  8
LC-001-002-----0
  6
ByBlock
 62
     7
370
    50
100
AcDbLine
 10
45.116382
 20
302.061935
 30
0.0
 11
48.116382
 21
302.061935
 31
0.0
  0
LINE
  5
86
102
{ACAD_REACTORS
330
D8
102
}
330
1F
100
AcDbEntity
  8
LC-001-002-----0
  6
ByBlock
 62
     7
370
    50
100
AcDbLine
 10
50.616382
 20
304.061935
 30
0.0
 11
47.616382
 21
304.061935
 31
0.0
  0
LINE
  5
87
102
{ACAD_REACTORS
330
D8
102
}
330
1F
100
AcDbEntity
  8
LC-001-002-----0
  6
ByBlock
 62
     7
370
    50
100
AcDbLine
 10
50.616382
 20
297.061935
 30
0.0
 11
51.215242
 21
297.061935
 31
0.0
  0
LINE
  5
88
102
{ACAD_REACTORS
330
D8
102
}
330
1F
100
AcDbEntity
  8
LC-001-002-----0
  6
ByBlock
 62
     7
370
    50
100
AcDbLine
 10
51.215242
 20
297.061935
 30
0.0
 11
53.001575
 21
297.061935
 31
0.0
  0
LINE
  5
89
102
{ACAD_REACTORS
330
D8
102
}
330
1F
100
AcDbEntity
  8
LC-001-002-----0
  6
ByBlock
 62
     7
370
    50
100
AcDbLine
 10
53.001575
 20
297.061935
 30
0.0
 11
55.944815
 21
297.061935
 31
0.0
  0
LINE
  5
8A
102
{ACAD_REACTORS
330
D8
102
}
330
1F
100
AcDbEntity
  8
LC-001-002-----0
  6
ByBlock
 62
     7
370
    50
100
AcDbLine
 10
55.944815
 20
297.061935
 30
0.0
 11
59.994604
 21
297.061935
 31
0.0
  0
LINE
  5
8B
102
{ACAD_REACTORS
330
D8
102
}
330
1F
100
AcDbEntity
  8
LC-001-002-----0
  6
ByBlock
 62
     7
370
    50
100
AcDbLine
 10
59.994604
 20
297.061935
 30
0.0
 11
65.081649
 21
297.061935
 31
0.0
  0
LINE
  5
8C
102
{ACAD_REACTORS
330
D8
102
}
330
1F
100
AcDbEntity
  8
LC-001-002-----0
  6
ByBlock
 62
     7
370
    50
100
AcDbLine
 10
65.081649
 20
297.061935
 30
0.0
 11
71.118908
 21
297.061935
 31
0.0
  0
LINE
  5
8D
102
{ACAD_REACTORS
330
D8
102
}
330
1F
100
AcDbEntity
  8
LC-001-002-----0
  6
ByBlock
 62
     7
370
    50
100
AcDbLine
 10
71.118908
 20
297.061935
 30
0.0
 11
78.003082
 21
297.061935
 31
0.0
  0
LINE
  5
8E
102
{ACAD_REACTORS
330
D8
102
}
330
1F
100
AcDbEntity
  8
LC-001-002-----0
  6
ByBlock
 62
     7
370
    50
100
AcDbLine
 10
78.003082
 20
297.061935
 30
0.0
 11
85.616382
 21
297.061935
 31
0.0
  0
LINE
  5
8F
102
{ACAD_REACTORS
330
D8
102
}
330
1F
100
AcDbEntity
  8
LC-001-002-----0
  6
ByBlock
 62
     7
370
    50
100
AcDbLine
 10
85.616382
 20
297.061935
 30
0.0
 11
93.828542
 21
297.061935
 31
0.0
  0
LINE
  5
90
102
{ACAD_REACTORS
330
D8
102
}
330
1F
100
AcDbEntity
  8
LC-001-002-----0
  6
ByBlock
 62
     7
370
    50
100
AcDbLine
 10
93.828542
 20
297.061935
 30
0.0
 11
102.499049
 21
297.061935
 31
0.0
  0
LINE
  5
91
102
{ACAD_REACTORS
330
D8
102
}
330
1F
100
AcDbEntity
  8
LC-001-002-----0
  6
ByBlock
 62
     7
370
    50
100
AcDbLine
 10
102.499049
 20
297.061935
 30
0.0
 11
111.479549
 21
297.061935
 31
0.0
  0
LINE
  5
92
102
{ACAD_REACTORS
330
D8
102
}
330
1F
100
AcDbEntity
  8
LC-001-002-----0
  6
ByBlock
 62
     7
370
    50
100
AcDbLine
 10
111.479549
 20
297.061935
 30
0.0
 11
120.616382
 21
297.061935
 31
0.0
  0
LINE
  5
93
102
{ACAD_REACTORS
330
D8
102
}
330
1F
100
AcDbEntity
  8
LC-001-002-----0
  6
ByBlock
 62
     7
370
    50
100
AcDbLine
 10
120.616382
 20
297.061935
 30
0.0
 11
129.753216
 21
297.061935
 31
0.0
  0
LINE
  5
94
102
{ACAD_REACTORS
330
D8
102
}
330
1F
100
AcDbEntity
  8
LC-001-002-----0
  6
ByBlock
 62
     7
370
    50
100
AcDbLine
 10
129.753216
 20
297.061935
 30
0.0
 11
138.733716
 21
297.061935
 31
0.0
  0
LINE
  5
95
102
{ACAD_REACTORS
330
D8
102
}
330
1F
100
AcDbEntity
  8
LC-001-002-----0
  6
ByBlock
 62
     7
370
    50
100
AcDbLine
 10
138.733716
 20
297.061935
 30
0.0
 11
147.404223
 21
297.061935
 31
0.0
  0
LINE
  5
96
102
{ACAD_REACTORS
330
D8
102
}
330
1F
100
AcDbEntity
  8
LC-001-002-----0
  6
ByBlock
 62
     7
370
    50
100
AcDbLine
 10
147.404223
 20
297.061935
 30
0.0
 11
155.616382
 21
297.061935
 31
0.0
  0
LINE
  5
97
102
{ACAD_REACTORS
330
D8
102
}
330
1F
100
AcDbEntity
  8
LC-001-002-----0
  6
ByBlock
 62
     7
370
    50
100
AcDbLine
 10
155.616382
 20
297.061935
 30
0.0
 11
163.229683
 21
297.061935
 31
0.0
  0
LINE
  5
98
102
{ACAD_REACTORS
330
D8
102
}
330
1F
100
AcDbEntity
  8
LC-001-002-----0
  6
ByBlock
 62
     7
370
    50
100
AcDbLine
 10
163.229683
 20
297.061935
 30
0.0
 11
170.113857
 21
297.061935
 31
0.0
  0
LINE
  5
99
102
{ACAD_REACTORS
330
D8
102
}
330
1F
100
AcDbEntity
  8
LC-001-002-----0
  6
ByBlock
 62
     7
370
    50
100
AcDbLine
 10
170.113857
 20
297.061935
 30
0.0
 11
176.151116
 21
297.061935
 31
0.0
  0
LINE
  5
9A
102
{ACAD_REACTORS
330
D8
102
}
330
1F
100
AcDbEntity
  8
LC-001-002-----0
  6
ByBlock
 62
     7
370
    50
100
AcDbLine
 10
176.151116
 20
297.061935
 30
0.0
 11
181.238161
 21
297.061935
 31
0.0
  0
LINE
  5
9B
102
{ACAD_REACTORS
330
D8
102
}
330
1F
100
AcDbEntity
  8
LC-001-002-----0
  6
ByBlock
 62
     7
370
    50
100
AcDbLine
 10
181.238161
 20
297.061935
 30
0.0
 11
185.28795
 21
297.061935
 31
0.0
  0
LINE
  5
9C
102
{ACAD_REACTORS
330
D8
102
}
330
1F
100
AcDbEntity
  8
LC-001-002-----0
  6
ByBlock
 62
     7
370
    50
100
AcDbLine
 10
185.28795
 20
297.061935
 30
0.0
 11
188.23119
 21
297.061935
 31
0.0
  0
LINE
  5
9D
102
{ACAD_REACTORS
330
D8
102
}
330
1F
100
AcDbEntity
  8
LC-001-002-----0
  6
ByBlock
 62
     7
370
    50
100
AcDbLine
 10
188.23119
 20
297.061935
 30
0.0
 11
190.017523
 21
297.061935
 31
0.0
  0
LINE
  5
9E
102
{ACAD_REACTORS
330
D8
102
}
330
1F
100
AcDbEntity
  8
LC-001-002-----0
  6
ByBlock
 62
     7
370
    50
100
AcDbLine
 10
190.017523
 20
297.061935
 30
0.0
 11
190.616382
 21
297.061935
 31
0.0
  0
LINE
  5
9F
102
{ACAD_REACTORS
330
D8
102
}
330
1F
100
AcDbEntity
  8
LC-001-002-----0
  6
ByBlock
 62
     7
370
    50
100
AcDbLine
 10
50.616382
 20
297.061935
 30
0.0
 11
50.616382
 21
304.061935
 31
0.0
  0
LINE
  5
A0
102
{ACAD_REACTORS
330
D8
102
}
330
1F
100
AcDbEntity
  8
LC-001-002-----0
  6
ByBlock
 62
     7
370
    50
100
AcDbLine
 10
48.116382
 20
297.061935
 30
0.0
 11
50.616382
 21
297.061935
 31
0.0
  0
LINE
  5
A1
102
{ACAD_REACTORS
330
D8
102
}
330
1F
100
AcDbEntity
  8
LC-001-002-----0
  6
ByBlock
 62
     7
370
    50
100
AcDbLine
 10
48.116382
 20
302.061935
 30
0.0
 11
48.116382
 21
297.061935
 31
0.0
  0
LINE
  5
A2
102
{ACAD_REACTORS
330
D8
102
}
330
1F
100
AcDbEntity
  8
LC-001-002-----0
  6
ByBlock
 62
     7
370
    50
100
AcDbLine
 10
45.116382
 20
302.061935
 30
0.0
 11
48.116382
 21
302.061935
 31
0.0
  0
LINE
  5
A3
102
{ACAD_REACTORS
330
D8
102
}
330
1F
100
AcDbEntity
  8
LC-001-002-----0
  6
ByBlock
 62
     7
370
    50
100
AcDbLine
 10
45.116382
 20
309.561935
 30
0.0
 11
45.116382
 21
302.061935
 31
0.0
  0
LINE
  5
A4
102
{ACAD_REACTORS
330
D8
102
}
330
1F
100
AcDbEntity
  8
LC-001-002-----0
  6
ByBlock
 62
     7
370
    50
100
AcDbLine
 10
47.616382
 20
309.561935
 30
0.0
 11
45.116382
 21
309.561935
 31
0.0
  0
LINE
  5
A5
102
{ACAD_REACTORS
330
D8
102
}
330
1F
100
AcDbEntity
  8
LC-001-002-----0
  6
ByBlock
 62
     7
370
    50
100
AcDbLine
 10
47.616382
 20
304.061935
 30
0.0
 11
47.616382
 21
309.561935
 31
0.0
  0
LINE
  5
A6
102
{ACAD_REACTORS
330
D8
102
}
330
1F
100
AcDbEntity
  8
LC-001-002-----0
  6
ByBlock
 62
     7
370
    50
100
AcDbLine
 10
50.616382
 20
304.061935
 30
0.0
 11
47.616382
 21
304.061935
 31
0.0
  0
LINE
  5
A7
102
{ACAD_REACTORS
330
D8
102
}
330
1F
100
AcDbEntity
  8
LC-001-002-----0
  6
ByBlock
 62
     7
370
    50
100
AcDbLine
 10
193.616382
 20
309.561935
 30
0.0
 11
193.616382
 21
304.061935
 31
0.0
  0
LINE
  5
A8
102
{ACAD_REACTORS
330
D8
102
}
330
1F
100
AcDbEntity
  8
LC-001-002-----0
  6
ByBlock
 62
     7
370
    50
100
AcDbLine
 10
196.116382
 20
309.561935
 30
0.0
 11
193.616382
 21
309.561935
 31
0.0
  0
LINE
  5
A9
102
{ACAD_REACTORS
330
D8
102
}
330
1F
100
AcDbEntity
  8
LC-001-002-----0
  6
ByBlock
 62
     7
370
    50
100
AcDbLine
 10
196.116382
 20
302.061935
 30
0.0
 11
196.116382
 21
309.561935
 31
0.0
  0
LINE
  5
AA
102
{ACAD_REACTORS
330
D8
102
}
330
1F
100
AcDbEntity
  8
LC-001-002-----0
  6
ByBlock
 62
     7
370
    50
100
AcDbLine
 10
193.116382
 20
302.061935
 30
0.0
 11
196.116382
 21
302.061935
 31
0.0
  0
LINE
  5
AB
102
{ACAD_REACTORS
330
D8
102
}
330
1F
100
AcDbEntity
  8
LC-001-002-----0
  6
ByBlock
 62
     7
370
    50
100
AcDbLine
 10
193.116382
 20
297.061935
 30
0.0
 11
193.116382
 21
302.061935
 31
0.0
  0
LINE
  5
AC
102
{ACAD_REACTORS
330
D8
102
}
330
1F
100
AcDbEntity
  8
LC-001-002-----0
  6
ByBlock
 62
     7
370
    50
100
AcDbLine
 10
190.616382
 20
297.061935
 30
0.0
 11
193.116382
 21
297.061935
 31
0.0
  0
LINE
  5
AD
102
{ACAD_REACTORS
330
D8
102
}
330
1F
100
AcDbEntity
  8
LC-001-002-----0
  6
ByBlock
 62
     7
370
    50
100
AcDbLine
 10
190.616382
 20
304.061935
 30
0.0
 11
190.616382
 21
297.061935
 31
0.0
  0
LINE
  5
AE
102
{ACAD_REACTORS
330
D8
102
}
330
1F
100
AcDbEntity
  8
LC-001-002-----0
  6
ByBlock
 62
     7
370
    50
100
AcDbLine
 10
193.616382
 20
304.061935
 30
0.0
 11
190.616382
 21
304.061935
 31
0.0
  0
INSERT
  5
B8
330
1F
100
AcDbEntity
  8
LC-003-005-----0
 62
     7
370
    25
100
AcDbBlockReference
  2
*X23
 10
0.0
 20
0.0
 30
0.0
  0
DIMENSION
  5
BB
330
1F
100
AcDbEntity
  8
LC-004-003-----0
 62
     7
370
    25
100
AcDbDimension
  2
*D4
 10
196.116382
 20
336.730414
 30
0.0
 11
117.969042
 21
367.530414
 31
0.0
 70
   160
  1
%%c150
 71
     5
 42
151.0
  3
LC-DIM-L-0140-02-02
100
AcDbAlignedDimension
 13
45.116382
 23
309.561935
 33
0.0
 14
196.116382
 24
309.561935
 34
0.0
100
AcDbRotatedDimension
  0
DIMENSION
  5
C9
330
1F
100
AcDbEntity
  8
LC-004-003-----0
 62
     7
370
    25
100
AcDbDimension
  2
*D5
 10
20.686064
 20
302.061935
 30
0.0
 11
-10.113936
 21
308.700715
 31
0.0
 70
   160
 71
     5
 42
7.5
 53
90.0
  3
LC-DIM-L-0140-02-02
100
AcDbAlignedDimension
 13
45.116382
 23
309.561935
 33
0.0
 14
45.116382
 24
302.061935
 34
0.0
 50
90.0
100
AcDbRotatedDimension
  0
ENDSEC
  0
SECTION
  2
OBJECTS
  0
DICTIONARY
  5
C
330
0
100
AcDbDictionary
281
     1
  3
ACAD_GROUP
350
D
  3
ACAD_LAYOUT
350
1A
  3
ACAD_MLINESTYLE
350
17
  3
ACAD_PLOTSETTINGS
350
19
  3
ACAD_PLOTSTYLENAME
350
E
  0
DICTIONARY
  5
D
102
{ACAD_REACTORS
330
C
102
}
330
C
100
AcDbDictionary
281
     1
  3
LCGROUP14
350
D8
  0
DICTIONARY
  5
1A
102
{ACAD_REACTORS
330
C
102
}
330
C
100
AcDbDictionary
281
     1
  3
Layout1
350
1E
  3
Layout2
350
26
  3
Model
350
22
  0
DICTIONARY
  5
17
102
{ACAD_REACTORS
330
C
102
}
330
C
100
AcDbDictionary
281
     1
  3
Standard
350
18
  0
DICTIONARY
  5
19
102
{ACAD_REACTORS
330
C
102
}
330
C
100
AcDbDictionary
281
     1
  0
ACDBDICTIONARYWDFLT
  5
E
102
{ACAD_REACTORS
330
C
102
}
330
C
100
AcDbDictionary
281
     1
  3
Normal
350
F
100
AcDbDictionaryWithDefault
340
F
  0
GROUP
  5
D8
102
{ACAD_REACTORS
330
D
102
}
330
D
100
AcDbGroup
300
K÷rper-53-LCMaster-LCGROUP10
 70
     1
 71
     1
340
47
340
48
340
49
340
4A
340
4B
340
4C
340
4D
340
4E
340
4F
340
50
340
51
340
52
340
53
340
54
340
55
340
56
340
57
340
58
340
59
340
5A
340
5B
340
5C
340
5D
340
5E
340
5F
340
60
340
61
340
62
340
63
340
64
340
65
340
66
340
67
340
68
340
69
340
6A
340
6B
340
6C
340
6D
340
6E
340
6F
340
70
340
71
340
72
340
73
340
74
340
75
340
76
340
77
340
78
340
79
340
7A
340
7B
340
7C
340
7D
340
7E
340
7F
340
80
340
81
340
82
340
83
340
84
340
85
340
86
340
87
340
88
340
89
340
8A
340
8B
340
8C
340
8D
340
8E
340
8F
340
90
340
91
340
92
340
93
340
94
340
95
340
96
340
97
340
98
340
99
340
9A
340
9B
340
9C
340
9D
340
9E
340
9F
340
A0
340
A1
340
A2
340
A3
340
A4
340
A5
340
A6
340
A7
340
A8
340
A9
340
AA
340
AB
340
AC
340
AD
340
AE
  0
LAYOUT
  5
1E
102
{ACAD_REACTORS
330
1A
102
}
330
1A
100
AcDbPlotSettings
  1

  2

  4

  6

 40
0.0
 41
0.0
 42
0.0
 43
0.0
 44
0.0
 45
0.0
 46
0.0
 47
0.0
 48
0.0
 49
0.0
140
0.0
141
0.0
142
1.0
143
1.0
 70
   688
 72
     0
 73
     0
 74
     5
  7

 75
    16
147
1.0
148
0.0
149
0.0
100
AcDbLayout
  1
Layout1
 70
     1
 71
     1
 10
-148.086826
 20
-50.028525
 11
691.913174
 21
543.971475
 12
0.0
 22
0.0
 32
0.0
 14
-148.086826
 24
-50.028525
 34
0.0
 15
691.913174
 25
543.971475
 35
0.0
146
0.0
 13
0.0
 23
0.0
 33
0.0
 16
1.0
 26
0.0
 36
0.0
 17
0.0
 27
1.0
 37
0.0
 76
     0
330
1B
  0
LAYOUT
  5
26
102
{ACAD_REACTORS
330
1A
102
}
330
1A
100
AcDbPlotSettings
  1

  2

  4

  6

 40
0.0
 41
0.0
 42
0.0
 43
0.0
 44
0.0
 45
0.0
 46
0.0
 47
0.0
 48
0.0
 49
0.0
140
0.0
141
0.0
142
1.0
143
1.0
 70
   688
 72
     0
 73
     0
 74
     5
  7

 75
    16
147
1.0
148
0.0
149
0.0
100
AcDbLayout
  1
Layout2
 70
     1
 71
     2
 10
0.0
 20
0.0
 11
0.0
 21
0.0
 12
0.0
 22
0.0
 32
0.0
 14
0.0
 24
0.0
 34
0.0
 15
0.0
 25
0.0
 35
0.0
146
0.0
 13
0.0
 23
0.0
 33
0.0
 16
1.0
 26
0.0
 36
0.0
 17
0.0
 27
1.0
 37
0.0
 76
     0
330
23
  0
LAYOUT
  5
22
102
{ACAD_REACTORS
330
1A
102
}
330
1A
100
AcDbPlotSettings
  1

  2

  4

  6

 40
0.0
 41
0.0
 42
0.0
 43
0.0
 44
0.0
 45
0.0
 46
0.0
 47
0.0
 48
0.0
 49
0.0
140
0.0
141
0.0
142
1.0
143
1.0
 70
  1776
 72
     0
 73
     0
 74
     0
  7

 75
     0
147
1.0
148
0.0
149
0.0
100
AcDbLayout
  1
Model
 70
     1
 71
     0
 10
-148.086826
 20
-50.028525
 11
691.913174
 21
543.971475
 12
61.913174
 22
98.471475
 32
0.0
 14
-148.086826
 24
-50.028525
 34
0.0
 15
691.913174
 25
543.971475
 35
0.0
146
0.0
 13
0.0
 23
0.0
 33
0.0
 16
1.0
 26
0.0
 36
0.0
 17
0.0
 27
1.0
 37
0.0
 76
     0
330
1F
  0
MLINESTYLE
  5
18
102
{ACAD_REACTORS
330
17
102
}
330
17
100
AcDbMlineStyle
  2
Standard
 70
     0
  3

 62
   256
 51
90.0
 52
90.0
 71
     2
 49
0.5
 62
   256
  6
BYLAYER
 49
-0.5
 62
   256
  6
BYLAYER
  0
ACDBPLACEHOLDER
  5
F
102
{ACAD_REACTORS
330
E
102
}
330
E
  0
ENDSEC
  0
EOF
