  0
SECTION
  2
HEADER
  9
$ACADVER
  1
AC1009
  9
$DWGCODEPAGE
  3
dos850
  9
$INSBASE
 10
333.510672
 20
187.490827
 30
0.0
  9
$EXTMIN
 10
333.510672
 20
187.490827
 30
0.0
  9
$EXTMAX
 10
1173.510672
 20
781.490827
 30
0.0
  9
$LIMMIN
 10
333.510672
 20
187.490827
  9
$LIMMAX
 10
1173.510672
 20
781.490827
  9
$ORTHOMODE
 70
     0
  9
$REGENMODE
 70
     1
  9
$FILLMODE
 70
     1
  9
$QTEXTMODE
 70
     0
  9
$MIRRTEXT
 70
     1
  9
$DRAGMODE
 70
     2
  9
$LTSCALE
 40
2.0
  9
$OSMODE
 70
     0
  9
$ATTMODE
 70
     1
  9
$TEXTSIZE
 40
0.2
  9
$TRACEWID
 40
0.05
  9
$TEXTSTYLE
  7
STANDARD
  9
$CLAYER
  8
0
  9
$CELTYPE
  6
BYBLOCK
  9
$CECOLOR
 62
     7
  9
$DIMSCALE
 40
2.0
  9
$DIMASZ
 40
3.5
  9
$DIMEXO
 40
0.0625
  9
$DIMDLI
 40
0.38
  9
$DIMRND
 40
0.0
  9
$DIMDLE
 40
0.0
  9
$DIMEXE
 40
0.18
  9
$DIMTP
 40
0.0
  9
$DIMTM
 40
0.0
  9
$DIMTXT
 40
3.5
  9
$DIMCEN
 40
0.09
  9
$DIMTSZ
 40
0.0
  9
$DIMTOL
 70
     0
  9
$DIMLIM
 70
     0
  9
$DIMTIH
 70
     1
  9
$DIMTOH
 70
     1
  9
$DIMSE1
 70
     0
  9
$DIMSE2
 70
     0
  9
$DIMTAD
 70
     1
  9
$DIMZIN
 70
     0
  9
$DIMBLK
  1

  9
$DIMASO
 70
     1
  9
$DIMSHO
 70
     1
  9
$DIMPOST
  1

  9
$DIMAPOST
  1

  9
$DIMALT
 70
     0
  9
$DIMALTD
 70
     2
  9
$DIMALTF
 40
25.4
  9
$DIMLFAC
 40
1.0
  9
$DIMTOFL
 70
     0
  9
$DIMTVP
 40
0.0
  9
$DIMTIX
 70
     0
  9
$DIMSOXD
 70
     0
  9
$DIMSAH
 70
     0
  9
$DIMBLK1
  1

  9
$DIMBLK2
  1

  9
$DIMSTYLE
  2
STANDARD
  9
$DIMCLRD
 70
     0
  9
$DIMCLRE
 70
     0
  9
$DIMCLRT
 70
     0
  9
$DIMTFAC
 40
1.0
  9
$DIMGAP
 40
0.09
  9
$LUNITS
 70
     2
  9
$LUPREC
 70
     6
  9
$AXISMODE
 70
     0
  9
$AXISUNIT
 10
0.0
 20
0.0
  9
$SKETCHINC
 40
0.1
  9
$FILLETRAD
 40
0.0
  9
$AUNITS
 70
     0
  9
$AUPREC
 70
     0
  9
$MENU
  1
acad
  9
$ELEVATION
 40
0.0
  9
$PELEVATION
 40
0.0
  9
$THICKNESS
 40
0.0
  9
$LIMCHECK
 70
     0
  9
$BLIPMODE
 70
     1
  9
$CHAMFERA
 40
0.0
  9
$CHAMFERB
 40
0.0
  9
$SKPOLY
 70
     0
  9
$TDCREATE
 40
0.000000000
  9
$TDUPDATE
 40
0.000000000
  9
$TDINDWG
 40
0.0000000000
  9
$TDUSRTIMER
 40
0.0000000000
  9
$USRTIMER
 70
     1
  9
$ANGBASE
 50
0.0
  9
$ANGDIR
 70
     0
  9
$PDMODE
 70
     0
  9
$PDSIZE
 40
0.0
  9
$PLINEWID
 40
0.0
  9
$COORDS
 70
     0
  9
$SPLFRAME
 70
     0
  9
$SPLINETYPE
 70
     6
  9
$SPLINESEGS
 70
     8
  9
$ATTDIA
 70
     0
  9
$ATTREQ
 70
     1
  9
$HANDLING
 70
     1
  9
$HANDSEED
  5
9D
  9
$SURFTAB1
 70
     6
  9
$SURFTAB2
 70
     6
  9
$SURFTYPE
 70
     6
  9
$SURFU
 70
     6
  9
$SURFV
 70
     6
  9
$UCSNAME
  2

  9
$UCSORG
 10
0.0
 20
0.0
 30
0.0
  9
$UCSXDIR
 10
1.0
 20
0.0
 30
0.0
  9
$UCSYDIR
 10
0.0
 20
1.0
 30
0.0
  9
$PUCSNAME
  2

  9
$PUCSORG
 10
0.0
 20
0.0
 30
0.0
  9
$PUCSXDIR
 10
1.0
 20
0.0
 30
0.0
  9
$PUCSYDIR
 10
0.0
 20
1.0
 30
0.0
  9
$USERI1
 70
     0
  9
$USERI2
 70
     0
  9
$USERI3
 70
     0
  9
$USERI4
 70
     0
  9
$USERI5
 70
     0
  9
$USERR1
 40
0.0
  9
$USERR2
 40
0.0
  9
$USERR3
 40
0.0
  9
$USERR4
 40
0.0
  9
$USERR5
 40
0.0
  9
$WORLDVIEW
 70
     1
  9
$SHADEDGE
 70
     3
  9
$SHADEDIF
 70
    70
  9
$TILEMODE
 70
     1
  9
$MAXACTVP
 70
    16
  9
$PINSBASE
 10
0.0
 20
0.0
 30
0.0
  9
$PLIMCHECK
 70
     0
  9
$PEXTMIN
 10
333.510672
 20
187.490827
 30
0.0
  9
$PEXTMAX
 10
1173.510672
 20
781.490827
 30
0.0
  9
$PLIMMIN
 10
333.510672
 20
187.490827
  9
$PLIMMAX
 10
1173.510672
 20
781.490827
  9
$UNITMODE
 70
     0
  9
$VISRETAIN
 70
     0
  9
$PLINEGEN
 70
     1
  9
$PSLTSCALE
 70
     0
  9
$TREEDEPTH
 70
  3020
  0
ENDSEC
  0
SECTION
  2
TABLES
  0
TABLE
  2
VPORT
 70
     1
  0
VPORT
  2
*ACTIVE
 70
     0
 10
0.0
 20
0.0
 11
1.0
 21
1.0
 12
420.0
 22
297.0
 13
0.0
 23
0.0
 14
1.0
 24
1.0
 15
0.0
 25
0.0
 16
0.0
 26
0.0
 36
1.0
 17
333.510672
 27
187.490827
 37
0.0
 40
594.0
 41
1.604229
 42
50.0
 43
0.0
 44
0.0
 50
0.0
 51
0.0
 71
     0
 72
   100
 73
     1
 74
     1
 75
     0
 76
     0
 77
     0
 78
     0
  0
ENDTAB
  0
TABLE
  2
LTYPE
 70
     1
  0
LTYPE
  2
CONTINUOUS
 70
    64
  3
Solid line
 72
    65
 73
     0
 40
0.0
  0
ENDTAB
  0
TABLE
  2
LAYER
 70
     9
  0
LAYER
  2
0
 70
     0
 62
     7
  6
CONTINUOUS
  0
LAYER
  2
LC-INFO-1-2-MM-A3-0
 70
     1
 62
   255
  6
BYBLOCK
  0
LAYER
  2
LC-3D-HIDDEN
 70
     0
 62
     9
  6
BYBLOCK
  0
LAYER
  2
LC-CUT-HIDDEN
 70
     0
 62
     9
  6
BYBLOCK
  0
LAYER
  2
LC-VIEWPORT
 70
     0
 62
     7
  6
BYBLOCK
  0
LAYER
  2
LC-001-002-----0
 70
     0
 62
     1
  6
BYBLOCK
  0
LAYER
  2
LC-002-003-MTH-0
 70
     0
 62
     2
  6
BYBLOCK
  0
LAYER
  2
LC-003-003-MTG-0
 70
     0
 62
     2
  6
BYBLOCK
  0
LAYER
  2
LC-004-003-----0
 70
     0
 62
     2
  6
BYBLOCK
  0
ENDTAB
  0
TABLE
  2
STYLE
 70
     3
  0
STYLE
  2
STANDARD
 70
     0
 40
0.0
 41
1.0
 50
0.0
 71
     0
 42
0.0
  3
txt
  4

  0
STYLE
  2
LCTX15-400-0-0-ARIAL
 70
    64
 40
3.5
 41
1.0
 50
0.0
 71
     0
 42
0.0
  3
Arial
  4

  0
STYLE
  2
LCTX15-400-0-0-DIN-SCHRIF2
 70
    64
 40
0.0
 41
1.0
 50
1.5
 71
     0
 42
3.5
  3
STANDARD
  4

  0
ENDTAB
  0
TABLE
  2
VIEW
 70
     0
  0
ENDTAB
  0
TABLE
  2
UCS
 70
     0
  0
ENDTAB
  0
TABLE
  2
APPID
 70
     1
  0
APPID
  2
ACAD
 70
     0
  0
ENDTAB
  0
TABLE
  2
DIMSTYLE
 70
     2
  0
DIMSTYLE
  2
STANDARD
 70
     0
  3

  4

  5

  6

  7

 40
1.0
 41
0.18
 42
0.0625
 43
0.38
 44
0.18
 45
0.0
 46
0.0
 47
0.0
 48
0.0
 71
     0
 72
     0
 73
     1
 74
     1
 75
     0
 76
     0
 77
     0
 78
     0
140
0.18
141
0.09
142
0.0
143
25.4
144
1.0
145
0.0
146
1.0
147
0.09
170
     0
171
     2
172
     0
173
     0
174
     0
175
     0
176
     0
177
     0
178
     0
  0
DIMSTYLE
  2
LC-DIM-L-0140-02-02
 70
     0
  3

  4

  5

  6

  7

 40
2.0
 41
3.5
 42
0.0
 43
7.5
 44
1.8
 45
0.0
 46
0.0
 47
0.0
 48
0.0
 71
     0
 72
     0
 73
     0
 74
     0
 75
     0
 76
     0
 77
     1
 78
     8
140
14.0
141
0.0
142
0.0
143
25.4
144
1.0
145
0.0
146
0.71
147
1.5
170
     0
171
     2
172
     0
173
     0
174
     0
175
     0
176
     2
177
     2
178
     2
  0
ENDTAB
  0
ENDSEC
  0
SECTION
  2
BLOCKS
  0
BLOCK
  8
0
  5
7C
  2
*D0
 70
    65
 10
0.0
 20
0.0
 30
0.0
  3
*D0
  0
LINE
  8
LC-002-003-MTH-0
  6
BYBLOCK
 62
     2
  5
7E
 10
659.519798
 20
537.401909
 30
0.0
 11
659.519798
 21
631.970827
 31
0.0
  0
LINE
  8
LC-002-003-MTH-0
 62
     2
  5
7F
 10
774.519798
 20
537.401909
 30
0.0
 11
774.519798
 21
631.970827
 31
0.0
  0
LINE
  8
LC-003-003-MTG-0
  6
BYBLOCK
 62
     2
  5
81
 10
659.519798
 20
615.170827
 30
0.0
 11
774.519798
 21
615.170827
 31
0.0
  0
LINE
  8
LC-004-003-----0
  6
BYBLOCK
 62
     2
  5
83
 10
687.280254
 20
618.82556
 30
0.0
 11
659.519798
 21
615.170827
 31
0.0
  0
LINE
  8
LC-004-003-----0
 62
     2
  5
84
 10
659.519798
 20
615.170827
 30
0.0
 11
687.280254
 21
611.516094
 31
0.0
  0
LINE
  8
LC-004-003-----0
 62
     2
  5
85
 10
687.280254
 20
611.516094
 30
0.0
 11
687.280254
 21
618.82556
 31
0.0
  0
LINE
  8
LC-004-003-----0
 62
     2
  5
86
 10
687.342536
 20
617.87533
 30
0.0
 11
666.799798
 21
615.170827
 31
0.0
  0
LINE
  8
LC-004-003-----0
 62
     2
  5
87
 10
666.799798
 20
615.170827
 30
0.0
 11
687.342536
 21
612.466324
 31
0.0
  0
LINE
  8
LC-004-003-----0
 62
     2
  5
88
 10
687.404817
 20
616.925099
 30
0.0
 11
674.079798
 21
615.170827
 31
0.0
  0
LINE
  8
LC-004-003-----0
 62
     2
  5
89
 10
674.079798
 20
615.170827
 30
0.0
 11
687.404817
 21
613.416555
 31
0.0
  0
LINE
  8
LC-004-003-----0
 62
     2
  5
8A
 10
687.467099
 20
615.974868
 30
0.0
 11
681.359798
 21
615.170827
 31
0.0
  0
LINE
  8
LC-004-003-----0
 62
     2
  5
8B
 10
681.359798
 20
615.170827
 30
0.0
 11
687.467099
 21
614.366786
 31
0.0
  0
LINE
  8
LC-004-003-----0
 62
     2
  5
8C
 10
746.759342
 20
611.516094
 30
0.0
 11
774.519798
 21
615.170827
 31
0.0
  0
LINE
  8
LC-004-003-----0
 62
     2
  5
8D
 10
774.519798
 20
615.170827
 30
0.0
 11
746.759342
 21
618.82556
 31
0.0
  0
LINE
  8
LC-004-003-----0
 62
     2
  5
8E
 10
746.759342
 20
618.82556
 30
0.0
 11
746.759342
 21
611.516094
 31
0.0
  0
LINE
  8
LC-004-003-----0
 62
     2
  5
8F
 10
746.697061
 20
612.466324
 30
0.0
 11
767.239798
 21
615.170827
 31
0.0
  0
LINE
  8
LC-004-003-----0
 62
     2
  5
90
 10
767.239798
 20
615.170827
 30
0.0
 11
746.697061
 21
617.87533
 31
0.0
  0
LINE
  8
LC-004-003-----0
 62
     2
  5
91
 10
746.634779
 20
613.416555
 30
0.0
 11
759.959798
 21
615.170827
 31
0.0
  0
LINE
  8
LC-004-003-----0
 62
     2
  5
92
 10
759.959798
 20
615.170827
 30
0.0
 11
746.634779
 21
616.925099
 31
0.0
  0
LINE
  8
LC-004-003-----0
 62
     2
  5
93
 10
746.572498
 20
614.366786
 30
0.0
 11
752.679798
 21
615.170827
 31
0.0
  0
LINE
  8
LC-004-003-----0
 62
     2
  5
94
 10
752.679798
 20
615.170827
 30
0.0
 11
746.572498
 21
615.974868
 31
0.0
  0
TEXT
  8
LC-004-003-----0
 62
     7
  5
95
 10
694.739958
 20
622.998381
 30
0.0
 40
28.0
  1
115
 41
0.9
 51
15.0
  7
LCTX15-400-0-0-ARIAL
 72
     1
 11
721.367958
 21
622.998381
 31
0.0
  0
ENDBLK
  8
0
  5
96
  0
ENDSEC
  0
SECTION
  2
ENTITIES
  0
VIEWPORT
  8
LC-VIEWPORT
  5
9A
 67
     1
 68
     1
 10
420.0
 20
297.0
 30
0.0
 40
840.0
 41
594.0
 69
     1
1001
ACAD
1000
MVIEW
1002
{
1070
    16
1010
0.0
1020
0.0
1030
0.0
1010
0.0
1020
0.0
1030
1.0
1040
0.0
1040
594.0
1040
420.0
1040
297.0
1040
50.0
1040
0.0
1040
0.0
1070
     0
1070
   100
1070
     1
1070
     1
1070
     0
1070
     0
1070
     0
1070
     0
1040
0.0
1040
0.0
1040
0.0
1040
1.0
1040
1.0
1040
0.0
1040
0.0
1070
     0
1002
{
1002
}
1002
}
  0
CIRCLE
  8
LC-001-002-----0
  6
BYBLOCK
 62
     1
  5
24
 10
717.019798
 20
537.401909
 30
0.0
 40
2.5
  0
CIRCLE
  8
LC-001-002-----0
 62
     1
  5
25
 10
717.019798
 20
537.401909
 30
0.0
 40
57.5
  0
CIRCLE
  8
LC-001-002-----0
 62
     1
  5
26
 10
713.375211
 20
548.618795
 30
0.0
 40
2.5
  0
ARC
  8
LC-001-002-----0
 62
     1
  5
27
 10
698.694986
 20
571.014568
 30
0.0
 40
0.741505
 50
222.775851
 51
30.859973
  0
ARC
  8
LC-001-002-----0
 62
     1
  5
28
 10
678.06405
 20
562.329833
 30
0.0
 40
40.436409
 50
352.96184
 51
28.443458
  0
ARC
  8
LC-001-002-----0
 62
     1
  5
29
 10
681.677537
 20
559.033323
 30
0.0
 40
34.5
 50
357.528641
 51
34.043473
  0
ARC
  8
LC-001-002-----0
 62
     1
  5
2A
 10
704.894696
 20
574.719138
 30
0.0
 40
6.480699
 50
34.043473
 51
210.859973
  0
ARC
  8
LC-001-002-----0
 62
     1
  5
2B
 10
705.188555
 20
577.022597
 30
0.0
 40
9.588134
 50
28.443458
 51
222.775851
  0
CIRCLE
  8
LC-001-002-----0
 62
     1
  5
2C
 10
704.894696
 20
574.719138
 30
0.0
 40
3.5
  0
CIRCLE
  8
LC-001-002-----0
 62
     1
  5
2D
 10
709.134953
 20
561.668966
 30
0.0
 40
3.0
  0
ARC
  8
LC-001-002-----0
 62
     1
  5
2E
 10
717.174005
 20
557.501291
 30
0.0
 40
1.029514
 50
177.528641
 51
352.96184
  0
ARC
  8
LC-001-002-----0
 62
     1
  5
2F
 10
682.437688
 20
553.824067
 30
0.0
 40
0.741505
 50
258.775851
 51
66.859973
  0
ARC
  8
LC-001-002-----0
 62
     1
  5
30
 10
670.85167
 20
534.671409
 30
0.0
 40
40.436409
 50
28.96184
 51
64.443458
  0
ARC
  8
LC-001-002-----0
 62
     1
  5
31
 10
675.712682
 20
534.128431
 30
0.0
 40
34.5
 50
33.528641
 51
70.043473
  0
ARC
  8
LC-001-002-----0
 62
     1
  5
32
 10
685.275868
 20
560.465225
 30
0.0
 40
6.480699
 50
70.043473
 51
246.859973
  0
ARC
  8
LC-001-002-----0
 62
     1
  5
33
 10
684.159665
 20
562.501488
 30
0.0
 40
9.588134
 50
64.443458
 51
258.775851
  0
CIRCLE
  8
LC-001-002-----0
 62
     1
  5
34
 10
685.275868
 20
560.465225
 30
0.0
 40
3.5
  0
ARC
  8
LC-001-002-----0
 62
     1
  5
35
 10
705.330434
 20
553.753291
 30
0.0
 40
1.029514
 50
213.528641
 51
28.96184
  0
ARC
  8
LC-001-002-----0
 62
     1
  5
36
 10
679.389581
 20
530.36086
 30
0.0
 40
0.741505
 50
294.775851
 51
102.859973
  0
ARC
  8
LC-001-002-----0
 62
     1
  5
37
 10
681.273946
 20
508.055943
 30
0.0
 40
40.436409
 50
64.96184
 51
100.443458
  0
ARC
  8
LC-001-002-----0
 62
     1
  5
38
 10
685.525742
 20
510.473896
 30
0.0
 40
34.5
 50
69.528641
 51
106.043473
  0
ARC
  8
LC-001-002-----0
 62
     1
  5
39
 10
677.782142
 20
537.401909
 30
0.0
 40
6.480699
 50
106.043473
 51
282.859973
  0
ARC
  8
LC-001-002-----0
 62
     1
  5
3A
 10
675.68223
 20
538.393194
 30
0.0
 40
9.588134
 50
100.443458
 51
294.775851
  0
CIRCLE
  8
LC-001-002-----0
 62
     1
  5
3B
 10
677.782142
 20
537.401909
 30
0.0
 40
3.5
  0
ARC
  8
LC-001-002-----0
 62
     1
  5
3C
 10
697.951802
 20
543.759619
 30
0.0
 40
1.029514
 50
249.528641
 51
64.96184
  0
ARC
  8
LC-001-002-----0
 62
     1
  5
3D
 10
690.714938
 20
509.587094
 30
0.0
 40
0.741505
 50
330.775851
 51
138.859973
  0
ARC
  8
LC-001-002-----0
 62
     1
  5
3E
 10
705.349922
 20
492.649639
 30
0.0
 40
40.436409
 50
100.96184
 51
136.443458
  0
ARC
  8
LC-001-002-----0
 62
     1
  5
3F
 10
707.36846
 20
497.104947
 30
0.0
 40
34.5
 50
105.528641
 51
142.043473
  0
ARC
  8
LC-001-002-----0
 62
     1
  5
40
 10
685.275868
 20
514.338593
 30
0.0
 40
6.480699
 50
142.043473
 51
318.859973
  0
ARC
  8
LC-001-002-----0
 62
     1
  5
41
 10
682.99434
 20
513.906262
 30
0.0
 40
9.588134
 50
136.443458
 51
330.775851
  0
CIRCLE
  8
LC-001-002-----0
 62
     1
  5
42
 10
685.275868
 20
514.338593
 30
0.0
 40
3.5
  0
ARC
  8
LC-001-002-----0
 62
     1
  5
43
 10
697.856497
 20
531.337518
 30
0.0
 40
1.029514
 50
285.528641
 51
100.96184
  0
ARC
  8
LC-001-002-----0
 62
     1
  5
44
 10
712.087857
 20
499.437642
 30
0.0
 40
0.741505
 50
6.775851
 51
174.859973
  0
ARC
  8
LC-001-002-----0
 62
     1
  5
45
 10
733.883394
 20
494.337181
 30
0.0
 40
40.436409
 50
136.96184
 51
172.443458
  0
ARC
  8
LC-001-002-----0
 62
     1
  5
46
 10
732.897662
 20
499.128068
 30
0.0
 40
34.5
 50
141.528641
 51
178.043473
  0
ARC
  8
LC-001-002-----0
 62
     1
  5
47
 10
704.894696
 20
500.08468
 30
0.0
 40
6.480699
 50
178.043473
 51
354.859973
  0
ARC
  8
LC-001-002-----0
 62
     1
  5
48
 10
703.303019
 20
498.393869
 30
0.0
 40
9.588134
 50
172.443458
 51
6.775851
  0
CIRCLE
  8
LC-001-002-----0
 62
     1
  5
49
 10
704.894696
 20
500.08468
 30
0.0
 40
3.5
  0
ARC
  8
LC-001-002-----0
 62
     1
  5
4A
 10
705.080922
 20
521.231808
 30
0.0
 40
1.029514
 50
321.528641
 51
136.96184
  0
ARC
  8
LC-001-002-----0
 62
     1
  5
4B
 10
735.344611
 20
503.78925
 30
0.0
 40
0.741505
 50
42.775851
 51
210.859973
  0
ARC
  8
LC-001-002-----0
 62
     1
  5
4C
 10
755.975546
 20
512.473985
 30
0.0
 40
40.436409
 50
172.96184
 51
208.443458
  0
ARC
  8
LC-001-002-----0
 62
     1
  5
4D
 10
752.362059
 20
515.770495
 30
0.0
 40
34.5
 50
177.528641
 51
214.043473
  0
ARC
  8
LC-001-002-----0
 62
     1
  5
4E
 10
729.144901
 20
500.08468
 30
0.0
 40
6.480699
 50
214.043473
 51
30.859973
  0
ARC
  8
LC-001-002-----0
 62
     1
  5
4F
 10
728.851042
 20
497.781221
 30
0.0
 40
9.588134
 50
208.443458
 51
42.775851
  0
CIRCLE
  8
LC-001-002-----0
 62
     1
  5
50
 10
729.144901
 20
500.08468
 30
0.0
 40
3.5
  0
ARC
  8
LC-001-002-----0
 62
     1
  5
51
 10
716.865591
 20
517.302527
 30
0.0
 40
1.029514
 50
357.528641
 51
172.96184
  0
ARC
  8
LC-001-002-----0
 62
     1
  5
52
 10
751.601908
 20
520.979751
 30
0.0
 40
0.741505
 50
78.775851
 51
246.859973
  0
ARC
  8
LC-001-002-----0
 62
     1
  5
53
 10
763.187926
 20
540.132409
 30
0.0
 40
40.436409
 50
208.96184
 51
244.443458
  0
ARC
  8
LC-001-002-----0
 62
     1
  5
54
 10
758.326914
 20
540.675387
 30
0.0
 40
34.5
 50
213.528641
 51
250.043473
  0
ARC
  8
LC-001-002-----0
 62
     1
  5
55
 10
748.763729
 20
514.338593
 30
0.0
 40
6.480699
 50
250.043473
 51
66.859973
  0
ARC
  8
LC-001-002-----0
 62
     1
  5
56
 10
749.879931
 20
512.30233
 30
0.0
 40
9.588134
 50
244.443458
 51
78.775851
  0
CIRCLE
  8
LC-001-002-----0
 62
     1
  5
57
 10
748.763729
 20
514.338593
 30
0.0
 40
3.5
  0
ARC
  8
LC-001-002-----0
 62
     1
  5
58
 10
728.709163
 20
521.050527
 30
0.0
 40
1.029514
 50
33.528641
 51
208.96184
  0
ARC
  8
LC-001-002-----0
 62
     1
  5
59
 10
754.650015
 20
544.442958
 30
0.0
 40
0.741505
 50
114.775851
 51
282.859973
  0
ARC
  8
LC-001-002-----0
 62
     1
  5
5A
 10
752.765651
 20
566.747875
 30
0.0
 40
40.436409
 50
244.96184
 51
280.443458
  0
ARC
  8
LC-001-002-----0
 62
     1
  5
5B
 10
748.513855
 20
564.329922
 30
0.0
 40
34.5
 50
249.528641
 51
286.043473
  0
ARC
  8
LC-001-002-----0
 62
     1
  5
5C
 10
756.257455
 20
537.401909
 30
0.0
 40
6.480699
 50
286.043473
 51
102.859973
  0
ARC
  8
LC-001-002-----0
 62
     1
  5
5D
 10
758.357367
 20
536.410625
 30
0.0
 40
9.588134
 50
280.443458
 51
114.775851
  0
CIRCLE
  8
LC-001-002-----0
 62
     1
  5
5E
 10
756.257455
 20
537.401909
 30
0.0
 40
3.5
  0
ARC
  8
LC-001-002-----0
 62
     1
  5
5F
 10
736.087794
 20
531.044199
 30
0.0
 40
1.029514
 50
69.528641
 51
244.96184
  0
ARC
  8
LC-001-002-----0
 62
     1
  5
60
 10
743.324658
 20
565.216724
 30
0.0
 40
0.741505
 50
150.775851
 51
318.859973
  0
ARC
  8
LC-001-002-----0
 62
     1
  5
61
 10
728.689674
 20
582.154179
 30
0.0
 40
40.436409
 50
280.96184
 51
316.443458
  0
ARC
  8
LC-001-002-----0
 62
     1
  5
62
 10
726.671136
 20
577.698871
 30
0.0
 40
34.5
 50
285.528641
 51
322.043473
  0
ARC
  8
LC-001-002-----0
 62
     1
  5
63
 10
748.763729
 20
560.465225
 30
0.0
 40
6.480699
 50
322.043473
 51
138.859973
  0
ARC
  8
LC-001-002-----0
 62
     1
  5
64
 10
751.045256
 20
560.897556
 30
0.0
 40
9.588134
 50
316.443458
 51
150.775851
  0
CIRCLE
  8
LC-001-002-----0
 62
     1
  5
65
 10
748.763729
 20
560.465225
 30
0.0
 40
3.5
  0
ARC
  8
LC-001-002-----0
 62
     1
  5
66
 10
736.183099
 20
543.4663
 30
0.0
 40
1.029514
 50
105.528641
 51
280.96184
  0
ARC
  8
LC-001-002-----0
 62
     1
  5
67
 10
721.951739
 20
575.366176
 30
0.0
 40
0.741505
 50
186.775851
 51
354.859973
  0
ARC
  8
LC-001-002-----0
 62
     1
  5
68
 10
700.156202
 20
580.466637
 30
0.0
 40
40.436409
 50
316.96184
 51
352.443458
  0
ARC
  8
LC-001-002-----0
 62
     1
  5
69
 10
701.141935
 20
575.675751
 30
0.0
 40
34.5
 50
321.528641
 51
358.043473
  0
ARC
  8
LC-001-002-----0
 62
     1
  5
6A
 10
729.144901
 20
574.719138
 30
0.0
 40
6.480699
 50
358.043473
 51
174.859973
  0
ARC
  8
LC-001-002-----0
 62
     1
  5
6B
 10
730.736577
 20
576.409949
 30
0.0
 40
9.588134
 50
352.443458
 51
186.775851
  0
CIRCLE
  8
LC-001-002-----0
 62
     1
  5
6C
 10
729.144901
 20
574.719138
 30
0.0
 40
3.5
  0
ARC
  8
LC-001-002-----0
 62
     1
  5
6D
 10
728.958675
 20
553.57201
 30
0.0
 40
1.029514
 50
141.528641
 51
316.96184
  0
CIRCLE
  8
LC-001-002-----0
 62
     1
  5
6E
 10
705.225667
 20
537.401909
 30
0.0
 40
2.5
  0
CIRCLE
  8
LC-001-002-----0
 62
     1
  5
6F
 10
713.375211
 20
526.185024
 30
0.0
 40
2.5
  0
CIRCLE
  8
LC-001-002-----0
 62
     1
  5
70
 10
726.561451
 20
530.469493
 30
0.0
 40
2.5
  0
CIRCLE
  8
LC-001-002-----0
 62
     1
  5
71
 10
726.561451
 20
544.334326
 30
0.0
 40
2.5
  0
CIRCLE
  8
LC-001-002-----0
 62
     1
  5
72
 10
696.377007
 20
552.399775
 30
0.0
 40
3.0
  0
CIRCLE
  8
LC-001-002-----0
 62
     1
  5
73
 10
691.503904
 20
537.401909
 30
0.0
 40
3.0
  0
CIRCLE
  8
LC-001-002-----0
 62
     1
  5
74
 10
696.377007
 20
522.404043
 30
0.0
 40
3.0
  0
CIRCLE
  8
LC-001-002-----0
 62
     1
  5
75
 10
709.134953
 20
513.134852
 30
0.0
 40
3.0
  0
CIRCLE
  8
LC-001-002-----0
 62
     1
  5
76
 10
724.904643
 20
513.134852
 30
0.0
 40
3.0
  0
CIRCLE
  8
LC-001-002-----0
 62
     1
  5
77
 10
737.66259
 20
522.404043
 30
0.0
 40
3.0
  0
CIRCLE
  8
LC-001-002-----0
 62
     1
  5
78
 10
742.535692
 20
537.401909
 30
0.0
 40
3.0
  0
CIRCLE
  8
LC-001-002-----0
 62
     1
  5
79
 10
737.66259
 20
552.399775
 30
0.0
 40
3.0
  0
CIRCLE
  8
LC-001-002-----0
 62
     1
  5
7A
 10
724.904643
 20
561.668966
 30
0.0
 40
3.0
  0
DIMENSION
  8
LC-004-003-----0
 62
     2
  5
99
  2
*D0
 10
717.019798
 20
615.170827
 30
0.0
 11
717.019798
 21
615.170827
 31
0.0
 13
659.519798
 23
537.401909
 33
0.0
 14
774.519798
 24
537.401909
 34
0.0
  3
LC-DIM-L-0140-02-02
  0
ENDSEC
  0
EOF
