  0
SECTION
  2
HEADER
  9
$ACADVER
  1
AC1009
  9
$INSBASE
 10
0.0
 20
0.0
 30
0.0
  9
$EXTMIN
 10
-143.364436
 20
-178.758
 30
0.0
  9
$EXTMAX
 10
696.635564
 20
415.242
 30
0.0
  9
$LIMMIN
 10
-143.364436
 20
-178.758
  9
$LIMMAX
 10
696.635564
 20
415.242
  9
$ORTHOMODE
 70
     0
  9
$REGENMODE
 70
     1
  9
$FILLMODE
 70
     1
  9
$QTEXTMODE
 70
     0
  9
$MIRRTEXT
 70
     1
  9
$DRAGMODE
 70
     2
  9
$LTSCALE
 40
2.0
  9
$OSMODE
 70
     0
  9
$ATTMODE
 70
     1
  9
$TEXTSIZE
 40
0.2
  9
$TRACEWID
 40
0.05
  9
$TEXTSTYLE
  7
STANDARD
  9
$CLAYER
  8
0
  9
$CELTYPE
  6
BYLAYER
  9
$CECOLOR
 62
     7
  9
$DIMSCALE
 40
2.0
  9
$DIMASZ
 40
3.5
  9
$DIMEXO
 40
0.0625
  9
$DIMDLI
 40
0.38
  9
$DIMRND
 40
0.0
  9
$DIMDLE
 40
0.0
  9
$DIMEXE
 40
0.18
  9
$DIMTP
 40
0.0
  9
$DIMTM
 40
0.0
  9
$DIMTXT
 40
3.5
  9
$DIMCEN
 40
0.09
  9
$DIMTSZ
 40
0.0
  9
$DIMTOL
 70
     0
  9
$DIMLIM
 70
     0
  9
$DIMTIH
 70
     1
  9
$DIMTOH
 70
     1
  9
$DIMSE1
 70
     0
  9
$DIMSE2
 70
     0
  9
$DIMTAD
 70
     1
  9
$DIMZIN
 70
     0
  9
$DIMBLK
  1

  9
$DIMASO
 70
     1
  9
$DIMSHO
 70
     1
  9
$DIMPOST
  1

  9
$DIMAPOST
  1

  9
$DIMALT
 70
     0
  9
$DIMALTD
 70
     2
  9
$DIMALTF
 40
25.4
  9
$DIMLFAC
 40
1.0
  9
$DIMTOFL
 70
     0
  9
$DIMTVP
 40
0.0
  9
$DIMTIX
 70
     0
  9
$DIMSOXD
 70
     0
  9
$DIMSAH
 70
     0
  9
$DIMBLK1
  1

  9
$DIMBLK2
  1

  9
$DIMSTYLE
  2
STANDARD
  9
$DIMCLRD
 70
     0
  9
$DIMCLRE
 70
     0
  9
$DIMCLRT
 70
     0
  9
$DIMTFAC
 40
1.0
  9
$DIMGAP
 40
0.09
  9
$LUNITS
 70
     2
  9
$LUPREC
 70
     2
  9
$AXISMODE
 70
     0
  9
$AXISUNIT
 10
0.0
 20
0.0
  9
$SKETCHINC
 40
0.1
  9
$FILLETRAD
 40
0.0
  9
$AUNITS
 70
     0
  9
$AUPREC
 70
     0
  9
$MENU
  1
acad
  9
$ELEVATION
 40
0.0
  9
$PELEVATION
 40
0.0
  9
$THICKNESS
 40
0.0
  9
$LIMCHECK
 70
     0
  9
$BLIPMODE
 70
     1
  9
$CHAMFERA
 40
0.0
  9
$CHAMFERB
 40
0.0
  9
$SKPOLY
 70
     0
  9
$TDCREATE
 40
0.000000000
  9
$TDUPDATE
 40
0.000000000
  9
$TDINDWG
 40
0.0000000000
  9
$TDUSRTIMER
 40
0.0000000000
  9
$USRTIMER
 70
     1
  9
$ANGBASE
 50
0.0
  9
$ANGDIR
 70
     0
  9
$PDMODE
 70
     0
  9
$PDSIZE
 40
0.0
  9
$PLINEWID
 40
0.0
  9
$COORDS
 70
     0
  9
$SPLFRAME
 70
     0
  9
$SPLINETYPE
 70
     6
  9
$SPLINESEGS
 70
     8
  9
$ATTDIA
 70
     0
  9
$ATTREQ
 70
     1
  9
$HANDLING
 70
     1
  9
$HANDSEED
  5
316
  9
$SURFTAB1
 70
     6
  9
$SURFTAB2
 70
     6
  9
$SURFTYPE
 70
     6
  9
$SURFU
 70
     6
  9
$SURFV
 70
     6
  9
$UCSNAME
  2

  9
$UCSORG
 10
0.0
 20
0.0
 30
0.0
  9
$UCSXDIR
 10
1.0
 20
0.0
 30
0.0
  9
$UCSYDIR
 10
0.0
 20
1.0
 30
0.0
  9
$PUCSNAME
  2

  9
$PUCSORG
 10
0.0
 20
0.0
 30
0.0
  9
$PUCSXDIR
 10
1.0
 20
0.0
 30
0.0
  9
$PUCSYDIR
 10
0.0
 20
1.0
 30
0.0
  9
$USERI1
 70
     0
  9
$USERI2
 70
     0
  9
$USERI3
 70
     0
  9
$USERI4
 70
     0
  9
$USERI5
 70
     0
  9
$USERR1
 40
0.0
  9
$USERR2
 40
0.0
  9
$USERR3
 40
0.0
  9
$USERR4
 40
0.0
  9
$USERR5
 40
0.0
  9
$WORLDVIEW
 70
     1
  9
$SHADEDGE
 70
     3
  9
$SHADEDIF
 70
    70
  9
$TILEMODE
 70
     1
  9
$MAXACTVP
 70
    16
  9
$PINSBASE
 10
0.0
 20
0.0
 30
0.0
  9
$PLIMCHECK
 70
     0
  9
$PEXTMIN
 10
1.000000E+20
 20
1.000000E+20
 30
1.000000E+20
  9
$PEXTMAX
 10
-1.000000E+20
 20
-1.000000E+20
 30
-1.000000E+20
  9
$PLIMMIN
 10
-143.364436
 20
-178.758
  9
$PLIMMAX
 10
696.635564
 20
415.242
  9
$UNITMODE
 70
     0
  9
$VISRETAIN
 70
     0
  9
$PLINEGEN
 70
     1
  9
$PSLTSCALE
 70
     0
  9
$TREEDEPTH
 70
  3020
  9
$DWGCODEPAGE
  3
dos850
  0
ENDSEC
  0
SECTION
  2
TABLES
  0
TABLE
  2
VPORT
 70
     1
  0
VPORT
  2
*ACTIVE
 70
     0
 10
0.0
 20
0.0
 11
1.0
 21
1.0
 12
420.0
 22
297.0
 13
0.0
 23
0.0
 14
1.0
 24
1.0
 15
0.0
 25
0.0
 16
0.0
 26
0.0
 36
1.0
 17
-143.364436
 27
-178.758
 37
0.0
 40
594.0
 41
1.604229
 42
50.0
 43
0.0
 44
0.0
 50
0.0
 51
0.0
 71
     0
 72
   100
 73
     1
 74
     1
 75
     0
 76
     0
 77
     0
 78
     0
  0
ENDTAB
  0
TABLE
  2
LTYPE
 70
     2
  0
LTYPE
  2
CONTINUOUS
 70
    64
  3
Solid line
 72
    65
 73
     0
 40
0.0
  0
LTYPE
  2
DASHDOT
 70
    64
  3
__ . __ . __ . __ . __
 72
    65
 73
     4
 40
7.5
 49
5.0
 49
-1.25
 49
0.0
 49
-1.25
  0
ENDTAB
  0
TABLE
  2
LAYER
 70
    11
  0
LAYER
  2
0
 70
     0
 62
     7
  6
CONTINUOUS
  0
LAYER
  2
LC-INFO-1-2-MM-A3-0
 70
     1
 62
    -1
  6
CONTINUOUS
  0
LAYER
  2
LC-004-003-MTH-0
 70
     0
 62
     2
  6
CONTINUOUS
  0
LAYER
  2
LC-005-003-MTG-0
 70
     0
 62
     2
  6
CONTINUOUS
  0
LAYER
  2
LC-003-003-----0
 70
     0
 62
     2
  6
CONTINUOUS
  0
LAYER
  2
LC-006-005-----0
 70
     0
 62
     2
  6
CONTINUOUS
  0
LAYER
  2
LC-007-000-----0
 70
     0
 62
     7
  6
CONTINUOUS
  0
LAYER
  2
LC-008-000-----0
 70
     0
 62
     7
  6
CONTINUOUS
  0
LAYER
  2
LC-001-002-----0
 70
     0
 62
     1
  6
CONTINUOUS
  0
LAYER
  2
LC-002-002-RND-0
 70
     0
 62
     1
  6
CONTINUOUS
  0
LAYER
  2
LC-000
 70
     0
 62
     7
  6
CONTINUOUS
  0
ENDTAB
  0
TABLE
  2
STYLE
 70
     5
  0
STYLE
  2
STANDARD
 70
     0
 40
0.0
 41
1.0
 50
0.0
 71
     0
 42
0.0
  3
txt
  4

  0
STYLE
  2
LC-STANDARD
 70
    64
 40
0.0
 41
1.0
 50
0.0
 71
     0
 42
3.5
  3
MONOTXT
  4

  0
STYLE
  2
LC-TXTSTYLE-150-400-0-0-A2
 70
    64
 40
0.0
 41
1.0
 50
15.0
 71
     0
 42
3.5
  3
MONOTXT
  4

  0
STYLE
  2
LC-TXTSTYLE-0-400-0-0-DIN3
 70
    64
 40
0.0
 41
1.0
 50
0.0
 71
     0
 42
3.5
  3
MONOTXT
  4

  0
STYLE
  2
LC-TXTSTYLE-150-400-0-0-D4
 70
    64
 40
0.0
 41
1.0
 50
15.0
 71
     0
 42
3.5
  3
LC-STANDARD
  4

  0
ENDTAB
  0
TABLE
  2
VIEW
 70
     0
  0
ENDTAB
  0
TABLE
  2
UCS
 70
     0
  0
ENDTAB
  0
TABLE
  2
APPID
 70
     1
  0
APPID
  2
ACAD
 70
     0
  0
ENDTAB
  0
TABLE
  2
DIMSTYLE
 70
     3
  0
DIMSTYLE
  2
STANDARD
 70
     0
  3

  4

  5

  6

  7

 40
1.0
 41
0.18
 42
0.0625
 43
0.38
 44
0.18
 45
0.0
 46
0.0
 47
0.0
 48
0.0
 71
     0
 72
     0
 73
     1
 74
     1
 75
     0
 76
     0
 77
     0
 78
     0
140
0.18
141
0.09
142
0.0
143
25.4
144
1.0
145
0.0
146
1.0
147
0.09
170
     0
171
     2
172
     0
173
     0
174
     0
175
     0
176
     0
177
     0
178
     0
  0
DIMSTYLE
  2
LC-STANDARD
 70
     0
  3

  4

  5

  6

  7

 40
1.0
 41
3.5
 42
0.0
 43
7.5
 44
1.8
 45
0.0
 46
0.0
 47
0.0
 48
0.0
 71
     0
 72
     0
 73
     0
 74
     0
 75
     0
 76
     0
 77
     1
 78
     8
140
3.5
141
0.0
142
0.0
143
25.4
144
1.0
145
0.0
146
0.71
147
1.5
170
     0
171
     2
172
     1
173
     0
174
     0
175
     0
176
     0
177
     0
178
     3
  0
DIMSTYLE
  2
LC-DIM-L-0140-02-02
 70
     0
  3

  4

  5

  6

  7

 40
2.0
 41
3.5
 42
0.0
 43
7.5
 44
1.8
 45
0.0
 46
0.0
 47
0.0
 48
0.0
 71
     0
 72
     0
 73
     0
 74
     0
 75
     0
 76
     0
 77
     1
 78
     8
140
14.0
141
0.0
142
0.0
143
25.4
144
1.0
145
0.0
146
0.71
147
1.5
170
     0
171
     2
172
     0
173
     0
174
     0
175
     0
176
     2
177
     2
178
     8
  0
ENDTAB
  0
ENDSEC
  0
SECTION
  2
BLOCKS
  0
BLOCK
  8
0
  5
24
  2
*D0
 70
    65
 10
0.0
 20
0.0
 30
0.0
  3
*D0
  0
LINE
  8
LC-004-003-MTH-0
  6
CONTINUOUS
  5
26
 10
-67.762561
 20
157.417881
 30
0.0
 11
-67.762561
 21
240.8
 31
0.0
  0
LINE
  8
LC-004-003-MTH-0
  6
CONTINUOUS
  5
27
 10
138.193439
 20
157.417881
 30
0.0
 11
138.193439
 21
240.8
 31
0.0
  0
LINE
  8
LC-005-003-MTG-0
  6
CONTINUOUS
  5
29
 10
-67.762561
 20
224.0
 30
0.0
 11
138.193439
 21
224.0
 31
0.0
  0
LINE
  8
LC-003-003-----0
  6
CONTINUOUS
  5
2B
 10
-40.002105
 20
227.654733
 30
0.0
 11
-67.762561
 21
224.0
 31
0.0
  0
LINE
  8
LC-003-003-----0
  6
CONTINUOUS
  5
2C
 10
-67.762561
 20
224.0
 30
0.0
 11
-40.002105
 21
220.345267
 31
0.0
  0
LINE
  8
LC-003-003-----0
  6
CONTINUOUS
  5
2D
 10
-40.002105
 20
220.345267
 30
0.0
 11
-40.002105
 21
227.654733
 31
0.0
  0
LINE
  8
LC-003-003-----0
  6
CONTINUOUS
  5
2E
 10
-39.939824
 20
226.704503
 30
0.0
 11
-60.482561
 21
224.0
 31
0.0
  0
LINE
  8
LC-003-003-----0
  6
CONTINUOUS
  5
2F
 10
-60.482561
 20
224.0
 30
0.0
 11
-39.939824
 21
221.295497
 31
0.0
  0
LINE
  8
LC-003-003-----0
  6
CONTINUOUS
  5
30
 10
-39.877542
 20
225.754272
 30
0.0
 11
-53.202561
 21
224.0
 31
0.0
  0
LINE
  8
LC-003-003-----0
  6
CONTINUOUS
  5
31
 10
-53.202561
 20
224.0
 30
0.0
 11
-39.877542
 21
222.245728
 31
0.0
  0
LINE
  8
LC-003-003-----0
  6
CONTINUOUS
  5
32
 10
-39.815261
 20
224.804041
 30
0.0
 11
-45.922561
 21
224.0
 31
0.0
  0
LINE
  8
LC-003-003-----0
  6
CONTINUOUS
  5
33
 10
-45.922561
 20
224.0
 30
0.0
 11
-39.815261
 21
223.195959
 31
0.0
  0
LINE
  8
LC-003-003-----0
  6
CONTINUOUS
  5
34
 10
110.432983
 20
220.345267
 30
0.0
 11
138.193439
 21
224.0
 31
0.0
  0
LINE
  8
LC-003-003-----0
  6
CONTINUOUS
  5
35
 10
138.193439
 20
224.0
 30
0.0
 11
110.432983
 21
227.654733
 31
0.0
  0
LINE
  8
LC-003-003-----0
  6
CONTINUOUS
  5
36
 10
110.432983
 20
227.654733
 30
0.0
 11
110.432983
 21
220.345267
 31
0.0
  0
LINE
  8
LC-003-003-----0
  6
CONTINUOUS
  5
37
 10
110.370701
 20
221.295497
 30
0.0
 11
130.913439
 21
224.0
 31
0.0
  0
LINE
  8
LC-003-003-----0
  6
CONTINUOUS
  5
38
 10
130.913439
 20
224.0
 30
0.0
 11
110.370701
 21
226.704503
 31
0.0
  0
LINE
  8
LC-003-003-----0
  6
CONTINUOUS
  5
39
 10
110.30842
 20
222.245728
 30
0.0
 11
123.633439
 21
224.0
 31
0.0
  0
LINE
  8
LC-003-003-----0
  6
CONTINUOUS
  5
3A
 10
123.633439
 20
224.0
 30
0.0
 11
110.30842
 21
225.754272
 31
0.0
  0
LINE
  8
LC-003-003-----0
  6
CONTINUOUS
  5
3B
 10
110.246138
 20
223.195959
 30
0.0
 11
116.353439
 21
224.0
 31
0.0
  0
LINE
  8
LC-003-003-----0
  6
CONTINUOUS
  5
3C
 10
116.353439
 20
224.0
 30
0.0
 11
110.246138
 21
224.804041
 31
0.0
  0
TEXT
  8
LC-003-003-----0
  6
CONTINUOUS
 62
     8
  5
3E
 10
9.799819
 20
231.827554
 30
0.0
 40
28.0
  1
206
 41
0.9
 51
15.0
  7
LC-TXTSTYLE-150-400-0-0-D0
 72
     1
 11
39.563599
 21
231.827554
 31
0.0
  0
ENDBLK
  8
0
  5
3F
  0
BLOCK
  8
0
  5
41
  2
*X1
 70
    65
 10
77.215439
 20
38.917881
 30
0.0
  3
*X1
  0
LINE
  8
LC-006-005-----0
  6
CONTINUOUS
  5
43
 10
87.215439
 20
40.546391
 30
0.0
 11
90.215439
 21
43.546391
 31
0.0
  0
LINE
  8
LC-006-005-----0
  6
CONTINUOUS
  5
44
 10
87.215439
 20
44.789032
 30
0.0
 11
90.215439
 21
47.789032
 31
0.0
  0
LINE
  8
LC-006-005-----0
  6
CONTINUOUS
  5
45
 10
87.215439
 20
49.031672
 30
0.0
 11
90.215439
 21
52.031672
 31
0.0
  0
LINE
  8
LC-006-005-----0
  6
CONTINUOUS
  5
46
 10
87.215439
 20
53.274313
 30
0.0
 11
90.215439
 21
56.274313
 31
0.0
  0
LINE
  8
LC-006-005-----0
  6
CONTINUOUS
  5
47
 10
87.215439
 20
57.516954
 30
0.0
 11
90.215439
 21
60.516954
 31
0.0
  0
LINE
  8
LC-006-005-----0
  6
CONTINUOUS
  5
48
 10
87.215439
 20
61.759595
 30
0.0
 11
90.215439
 21
64.759595
 31
0.0
  0
LINE
  8
LC-006-005-----0
  6
CONTINUOUS
  5
49
 10
87.215439
 20
66.002235
 30
0.0
 11
90.215439
 21
69.002235
 31
0.0
  0
LINE
  8
LC-006-005-----0
  6
CONTINUOUS
  5
4A
 10
87.215439
 20
70.244876
 30
0.0
 11
90.215439
 21
73.244876
 31
0.0
  0
LINE
  8
LC-006-005-----0
  6
CONTINUOUS
  5
4B
 10
87.215439
 20
74.487517
 30
0.0
 11
90.215439
 21
77.487517
 31
0.0
  0
LINE
  8
LC-006-005-----0
  6
CONTINUOUS
  5
4C
 10
87.215439
 20
78.730157
 30
0.0
 11
90.215439
 21
81.730157
 31
0.0
  0
LINE
  8
LC-006-005-----0
  6
CONTINUOUS
  5
4D
 10
87.215439
 20
82.972798
 30
0.0
 11
90.215439
 21
85.972798
 31
0.0
  0
LINE
  8
LC-006-005-----0
  6
CONTINUOUS
  5
4E
 10
87.215439
 20
87.215439
 30
0.0
 11
90.215439
 21
90.215439
 31
0.0
  0
LINE
  8
LC-006-005-----0
  6
CONTINUOUS
  5
4F
 10
87.215439
 20
91.458079
 30
0.0
 11
90.215439
 21
94.458079
 31
0.0
  0
LINE
  8
LC-006-005-----0
  6
CONTINUOUS
  5
50
 10
87.215439
 20
95.70072
 30
0.0
 11
90.215439
 21
98.70072
 31
0.0
  0
LINE
  8
LC-006-005-----0
  6
CONTINUOUS
  5
51
 10
87.215439
 20
99.943361
 30
0.0
 11
90.215439
 21
102.943361
 31
0.0
  0
LINE
  8
LC-006-005-----0
  6
CONTINUOUS
  5
52
 10
87.215439
 20
104.186001
 30
0.0
 11
90.215439
 21
107.186001
 31
0.0
  0
LINE
  8
LC-006-005-----0
  6
CONTINUOUS
  5
53
 10
137.447319
 20
154.417881
 30
0.0
 11
138.193439
 21
155.164001
 31
0.0
  0
LINE
  8
LC-006-005-----0
  6
CONTINUOUS
  5
54
 10
87.215439
 20
108.428642
 30
0.0
 11
90.215439
 21
111.428642
 31
0.0
  0
LINE
  8
LC-006-005-----0
  6
CONTINUOUS
  5
55
 10
133.204678
 20
154.417881
 30
0.0
 11
136.204678
 21
157.417881
 31
0.0
  0
LINE
  8
LC-006-005-----0
  6
CONTINUOUS
  5
56
 10
87.215439
 20
112.671283
 30
0.0
 11
90.215439
 21
115.671283
 31
0.0
  0
LINE
  8
LC-006-005-----0
  6
CONTINUOUS
  5
57
 10
128.962037
 20
154.417881
 30
0.0
 11
131.962037
 21
157.417881
 31
0.0
  0
LINE
  8
LC-006-005-----0
  6
CONTINUOUS
  5
58
 10
87.215439
 20
116.913923
 30
0.0
 11
90.215439
 21
119.913923
 31
0.0
  0
LINE
  8
LC-006-005-----0
  6
CONTINUOUS
  5
59
 10
124.719397
 20
154.417881
 30
0.0
 11
127.719397
 21
157.417881
 31
0.0
  0
LINE
  8
LC-006-005-----0
  6
CONTINUOUS
  5
5A
 10
87.215439
 20
121.156564
 30
0.0
 11
90.215439
 21
124.156564
 31
0.0
  0
LINE
  8
LC-006-005-----0
  6
CONTINUOUS
  5
5B
 10
120.476756
 20
154.417881
 30
0.0
 11
123.476756
 21
157.417881
 31
0.0
  0
LINE
  8
LC-006-005-----0
  6
CONTINUOUS
  5
5C
 10
87.215439
 20
125.399205
 30
0.0
 11
90.215439
 21
128.399205
 31
0.0
  0
LINE
  8
LC-006-005-----0
  6
CONTINUOUS
  5
5D
 10
106.734115
 20
144.917881
 30
0.0
 11
108.193439
 21
146.377205
 31
0.0
  0
LINE
  8
LC-006-005-----0
  6
CONTINUOUS
  5
5E
 10
116.234115
 20
154.417881
 30
0.0
 11
119.234115
 21
157.417881
 31
0.0
  0
LINE
  8
LC-006-005-----0
  6
CONTINUOUS
  5
5F
 10
87.215439
 20
129.641846
 30
0.0
 11
90.215439
 21
132.641846
 31
0.0
  0
LINE
  8
LC-006-005-----0
  6
CONTINUOUS
  5
60
 10
102.491474
 20
144.917881
 30
0.0
 11
108.193439
 21
150.619846
 31
0.0
  0
LINE
  8
LC-006-005-----0
  6
CONTINUOUS
  5
61
 10
111.991474
 20
154.417881
 30
0.0
 11
114.991474
 21
157.417881
 31
0.0
  0
LINE
  8
LC-006-005-----0
  6
CONTINUOUS
  5
62
 10
87.215439
 20
133.884486
 30
0.0
 11
90.215439
 21
136.884486
 31
0.0
  0
LINE
  8
LC-006-005-----0
  6
CONTINUOUS
  5
63
 10
98.248834
 20
144.917881
 30
0.0
 11
101.748834
 21
148.417881
 31
0.0
  0
LINE
  8
LC-006-005-----0
  6
CONTINUOUS
  5
64
 10
104.693439
 20
151.362486
 30
0.0
 11
110.748834
 21
157.417881
 31
0.0
  0
LINE
  8
LC-006-005-----0
  6
CONTINUOUS
  5
65
 10
87.215439
 20
138.127127
 30
0.0
 11
90.215439
 21
141.127127
 31
0.0
  0
LINE
  8
LC-006-005-----0
  6
CONTINUOUS
  5
66
 10
94.006193
 20
144.917881
 30
0.0
 11
97.506193
 21
148.417881
 31
0.0
  0
LINE
  8
LC-006-005-----0
  6
CONTINUOUS
  5
67
 10
104.693439
 20
155.605127
 30
0.0
 11
108.166906
 21
159.078594
 31
0.0
  0
LINE
  8
LC-006-005-----0
  6
CONTINUOUS
  5
68
 10
87.215439
 20
142.369768
 30
0.0
 11
93.263552
 21
148.417881
 31
0.0
  0
LINE
  8
LC-006-005-----0
  6
CONTINUOUS
  5
69
 10
77.215439
 20
136.612408
 30
0.0
 11
80.015439
 21
139.412408
 31
0.0
  0
LINE
  8
LC-006-005-----0
  6
CONTINUOUS
  5
6A
 10
83.520912
 20
142.917881
 30
0.0
 11
84.215439
 21
143.612408
 31
0.0
  0
LINE
  8
LC-006-005-----0
  6
CONTINUOUS
  5
6B
 10
86.020912
 20
145.417881
 30
0.0
 11
89.020912
 21
148.417881
 31
0.0
  0
LINE
  8
LC-006-005-----0
  6
CONTINUOUS
  5
6C
 10
77.215439
 20
140.855049
 30
0.0
 11
84.778271
 21
148.417881
 31
0.0
  0
LINE
  8
LC-006-005-----0
  6
CONTINUOUS
  5
6D
 10
77.215439
 20
145.09769
 30
0.0
 11
78.03563
 21
145.917881
 31
0.0
  0
ENDBLK
  8
0
  5
6E
  0
BLOCK
  8
0
  5
70
  2
BLK1
 70
    64
 10
0.0
 20
0.0
 30
0.0
  3
BLK1
  0
ENDBLK
  8
0
  5
71
  0
BLOCK
  8
0
  5
73
  2
BLK2
 70
    64
 10
0.0
 20
0.0
 30
0.0
  3
BLK2
  0
ENDBLK
  8
0
  5
74
  0
BLOCK
  8
0
  5
76
  2
*D4
 70
    65
 10
0.0
 20
0.0
 30
0.0
  3
*D4
  0
LINE
  8
LC-004-003-MTH-0
  6
CONTINUOUS
  5
77
 10
-37.762561
 20
158.917881
 30
0.0
 11
-37.762561
 21
198.8
 31
0.0
  0
LINE
  8
LC-004-003-MTH-0
  6
CONTINUOUS
  5
78
 10
108.193439
 20
158.917881
 30
0.0
 11
108.193439
 21
198.8
 31
0.0
  0
LINE
  8
LC-005-003-MTG-0
  6
CONTINUOUS
  5
79
 10
-37.762561
 20
182.0
 30
0.0
 11
108.193439
 21
182.0
 31
0.0
  0
LINE
  8
LC-003-003-----0
  6
CONTINUOUS
  5
7A
 10
-10.002105
 20
185.654733
 30
0.0
 11
-37.762561
 21
182.0
 31
0.0
  0
LINE
  8
LC-003-003-----0
  6
CONTINUOUS
  5
7B
 10
-37.762561
 20
182.0
 30
0.0
 11
-10.002105
 21
178.345267
 31
0.0
  0
LINE
  8
LC-003-003-----0
  6
CONTINUOUS
  5
7C
 10
-10.002105
 20
178.345267
 30
0.0
 11
-10.002105
 21
185.654733
 31
0.0
  0
LINE
  8
LC-003-003-----0
  6
CONTINUOUS
  5
7D
 10
-9.939824
 20
184.704503
 30
0.0
 11
-30.482561
 21
182.0
 31
0.0
  0
LINE
  8
LC-003-003-----0
  6
CONTINUOUS
  5
7E
 10
-30.482561
 20
182.0
 30
0.0
 11
-9.939824
 21
179.295497
 31
0.0
  0
LINE
  8
LC-003-003-----0
  6
CONTINUOUS
  5
7F
 10
-9.877542
 20
183.754272
 30
0.0
 11
-23.202561
 21
182.0
 31
0.0
  0
LINE
  8
LC-003-003-----0
  6
CONTINUOUS
  5
80
 10
-23.202561
 20
182.0
 30
0.0
 11
-9.877542
 21
180.245728
 31
0.0
  0
LINE
  8
LC-003-003-----0
  6
CONTINUOUS
  5
81
 10
-9.815261
 20
182.804041
 30
0.0
 11
-15.922561
 21
182.0
 31
0.0
  0
LINE
  8
LC-003-003-----0
  6
CONTINUOUS
  5
82
 10
-15.922561
 20
182.0
 30
0.0
 11
-9.815261
 21
181.195959
 31
0.0
  0
LINE
  8
LC-003-003-----0
  6
CONTINUOUS
  5
83
 10
80.432983
 20
178.345267
 30
0.0
 11
108.193439
 21
182.0
 31
0.0
  0
LINE
  8
LC-003-003-----0
  6
CONTINUOUS
  5
84
 10
108.193439
 20
182.0
 30
0.0
 11
80.432983
 21
185.654733
 31
0.0
  0
LINE
  8
LC-003-003-----0
  6
CONTINUOUS
  5
85
 10
80.432983
 20
185.654733
 30
0.0
 11
80.432983
 21
178.345267
 31
0.0
  0
LINE
  8
LC-003-003-----0
  6
CONTINUOUS
  5
86
 10
80.370701
 20
179.295497
 30
0.0
 11
100.913439
 21
182.0
 31
0.0
  0
LINE
  8
LC-003-003-----0
  6
CONTINUOUS
  5
87
 10
100.913439
 20
182.0
 30
0.0
 11
80.370701
 21
184.704503
 31
0.0
  0
LINE
  8
LC-003-003-----0
  6
CONTINUOUS
  5
88
 10
80.30842
 20
180.245728
 30
0.0
 11
93.633439
 21
182.0
 31
0.0
  0
LINE
  8
LC-003-003-----0
  6
CONTINUOUS
  5
89
 10
93.633439
 20
182.0
 30
0.0
 11
80.30842
 21
183.754272
 31
0.0
  0
LINE
  8
LC-003-003-----0
  6
CONTINUOUS
  5
8A
 10
80.246138
 20
181.195959
 30
0.0
 11
86.353439
 21
182.0
 31
0.0
  0
LINE
  8
LC-003-003-----0
  6
CONTINUOUS
  5
8B
 10
86.353439
 20
182.0
 30
0.0
 11
80.246138
 21
182.804041
 31
0.0
  0
TEXT
  8
LC-003-003-----0
  6
CONTINUOUS
 62
     8
  5
8C
 10
9.799819
 20
189.827554
 30
0.0
 40
28.0
  1
150
 51
15.0
  7
LC-TXTSTYLE-150-400-0-0-D0
 72
     1
 11
39.563599
 21
189.827554
 31
0.0
  0
ENDBLK
  8
0
  5
8D
  0
BLOCK
  8
0
  5
8F
  2
BLK3
 70
    64
 10
0.0
 20
0.0
 30
0.0
  3
BLK3
  0
ENDBLK
  8
0
  5
90
  0
BLOCK
  8
0
  5
92
  2
BLK4
 70
    64
 10
0.0
 20
0.0
 30
0.0
  3
BLK4
  0
ENDBLK
  8
0
  5
93
  0
BLOCK
  8
0
  5
95
  2
BLK5
 70
    64
 10
0.0
 20
0.0
 30
0.0
  3
BLK5
  0
ENDBLK
  8
0
  5
96
  0
BLOCK
  8
0
  5
98
  2
BLK6
 70
    64
 10
0.0
 20
0.0
 30
0.0
  3
BLK6
  0
ENDBLK
  8
0
  5
99
  0
BLOCK
  8
0
  5
9B
  2
*D9
 70
    65
 10
0.0
 20
0.0
 30
0.0
  3
*D9
  0
LINE
  8
LC-004-003-MTH-0
  6
CONTINUOUS
  5
9C
 10
-19.784561
 20
43.417881
 30
0.0
 11
-19.784561
 21
-56.0
 31
0.0
  0
LINE
  8
LC-004-003-MTH-0
  6
CONTINUOUS
  5
9D
 10
90.215439
 20
43.417881
 30
0.0
 11
90.215439
 21
-56.0
 31
0.0
  0
LINE
  8
LC-005-003-MTG-0
  6
CONTINUOUS
  5
9E
 10
-19.784561
 20
-39.2
 30
0.0
 11
90.215439
 21
-39.2
 31
0.0
  0
LINE
  8
LC-003-003-----0
  6
CONTINUOUS
  5
9F
 10
7.975895
 20
-35.545267
 30
0.0
 11
-19.784561
 21
-39.2
 31
0.0
  0
LINE
  8
LC-003-003-----0
  6
CONTINUOUS
  5
A0
 10
-19.784561
 20
-39.2
 30
0.0
 11
7.975895
 21
-42.854733
 31
0.0
  0
LINE
  8
LC-003-003-----0
  6
CONTINUOUS
  5
A1
 10
7.975895
 20
-42.854733
 30
0.0
 11
7.975895
 21
-35.545267
 31
0.0
  0
LINE
  8
LC-003-003-----0
  6
CONTINUOUS
  5
A2
 10
8.038176
 20
-36.495497
 30
0.0
 11
-12.504561
 21
-39.2
 31
0.0
  0
LINE
  8
LC-003-003-----0
  6
CONTINUOUS
  5
A3
 10
-12.504561
 20
-39.2
 30
0.0
 11
8.038176
 21
-41.904503
 31
0.0
  0
LINE
  8
LC-003-003-----0
  6
CONTINUOUS
  5
A4
 10
8.100458
 20
-37.445728
 30
0.0
 11
-5.224561
 21
-39.2
 31
0.0
  0
LINE
  8
LC-003-003-----0
  6
CONTINUOUS
  5
A5
 10
-5.224561
 20
-39.2
 30
0.0
 11
8.100458
 21
-40.954272
 31
0.0
  0
LINE
  8
LC-003-003-----0
  6
CONTINUOUS
  5
A6
 10
8.162739
 20
-38.395959
 30
0.0
 11
2.055439
 21
-39.2
 31
0.0
  0
LINE
  8
LC-003-003-----0
  6
CONTINUOUS
  5
A7
 10
2.055439
 20
-39.2
 30
0.0
 11
8.162739
 21
-40.004041
 31
0.0
  0
LINE
  8
LC-003-003-----0
  6
CONTINUOUS
  5
A8
 10
62.454983
 20
-42.854733
 30
0.0
 11
90.215439
 21
-39.2
 31
0.0
  0
LINE
  8
LC-003-003-----0
  6
CONTINUOUS
  5
A9
 10
90.215439
 20
-39.2
 30
0.0
 11
62.454983
 21
-35.545267
 31
0.0
  0
LINE
  8
LC-003-003-----0
  6
CONTINUOUS
  5
AA
 10
62.454983
 20
-35.545267
 30
0.0
 11
62.454983
 21
-42.854733
 31
0.0
  0
LINE
  8
LC-003-003-----0
  6
CONTINUOUS
  5
AB
 10
62.392701
 20
-41.904503
 30
0.0
 11
82.935439
 21
-39.2
 31
0.0
  0
LINE
  8
LC-003-003-----0
  6
CONTINUOUS
  5
AC
 10
82.935439
 20
-39.2
 30
0.0
 11
62.392701
 21
-36.495497
 31
0.0
  0
LINE
  8
LC-003-003-----0
  6
CONTINUOUS
  5
AD
 10
62.33042
 20
-40.954272
 30
0.0
 11
75.655439
 21
-39.2
 31
0.0
  0
LINE
  8
LC-003-003-----0
  6
CONTINUOUS
  5
AE
 10
75.655439
 20
-39.2
 30
0.0
 11
62.33042
 21
-37.445728
 31
0.0
  0
LINE
  8
LC-003-003-----0
  6
CONTINUOUS
  5
AF
 10
62.268138
 20
-40.004041
 30
0.0
 11
68.375439
 21
-39.2
 31
0.0
  0
LINE
  8
LC-003-003-----0
  6
CONTINUOUS
  5
B0
 10
68.375439
 20
-39.2
 30
0.0
 11
62.268138
 21
-38.395959
 31
0.0
  0
TEXT
  8
LC-003-003-----0
  6
CONTINUOUS
 62
     8
  5
B1
 10
1.465961
 20
-31.372446
 30
0.0
 40
28.0
  1
Ø110
 51
15.0
  7
LC-TXTSTYLE-150-400-0-0-D0
 72
     1
 11
39.563599
 21
-31.372446
 31
0.0
  0
ENDBLK
  8
0
  5
B2
  0
BLOCK
  8
0
  5
B4
  2
*X10
 70
    65
 10
-67.762561
 20
38.917881
 30
0.0
  3
*X10
  0
LINE
  8
LC-006-005-----0
  6
CONTINUOUS
  5
B5
 10
-19.631825
 20
39.765145
 30
0.0
 11
-16.784561
 21
42.612408
 31
0.0
  0
LINE
  8
LC-006-005-----0
  6
CONTINUOUS
  5
B6
 10
-19.784561
 20
43.855049
 30
0.0
 11
-16.784561
 21
46.855049
 31
0.0
  0
LINE
  8
LC-006-005-----0
  6
CONTINUOUS
  5
B7
 10
-19.784561
 20
48.09769
 30
0.0
 11
-16.784561
 21
51.09769
 31
0.0
  0
LINE
  8
LC-006-005-----0
  6
CONTINUOUS
  5
B8
 10
-19.784561
 20
52.34033
 30
0.0
 11
-16.784561
 21
55.34033
 31
0.0
  0
LINE
  8
LC-006-005-----0
  6
CONTINUOUS
  5
B9
 10
-19.784561
 20
56.582971
 30
0.0
 11
-16.784561
 21
59.582971
 31
0.0
  0
LINE
  8
LC-006-005-----0
  6
CONTINUOUS
  5
BA
 10
-19.784561
 20
60.825612
 30
0.0
 11
-16.784561
 21
63.825612
 31
0.0
  0
LINE
  8
LC-006-005-----0
  6
CONTINUOUS
  5
BB
 10
-19.784561
 20
65.068252
 30
0.0
 11
-16.784561
 21
68.068252
 31
0.0
  0
LINE
  8
LC-006-005-----0
  6
CONTINUOUS
  5
BC
 10
-19.784561
 20
69.310893
 30
0.0
 11
-16.784561
 21
72.310893
 31
0.0
  0
LINE
  8
LC-006-005-----0
  6
CONTINUOUS
  5
BD
 10
-19.784561
 20
73.553534
 30
0.0
 11
-16.784561
 21
76.553534
 31
0.0
  0
LINE
  8
LC-006-005-----0
  6
CONTINUOUS
  5
BE
 10
-19.784561
 20
77.796174
 30
0.0
 11
-16.784561
 21
80.796174
 31
0.0
  0
LINE
  8
LC-006-005-----0
  6
CONTINUOUS
  5
BF
 10
-19.784561
 20
82.038815
 30
0.0
 11
-16.784561
 21
85.038815
 31
0.0
  0
LINE
  8
LC-006-005-----0
  6
CONTINUOUS
  5
C0
 10
-19.784561
 20
86.281456
 30
0.0
 11
-16.784561
 21
89.281456
 31
0.0
  0
LINE
  8
LC-006-005-----0
  6
CONTINUOUS
  5
C1
 10
-19.784561
 20
90.524096
 30
0.0
 11
-16.784561
 21
93.524096
 31
0.0
  0
LINE
  8
LC-006-005-----0
  6
CONTINUOUS
  5
C2
 10
-19.784561
 20
94.766737
 30
0.0
 11
-16.784561
 21
97.766737
 31
0.0
  0
LINE
  8
LC-006-005-----0
  6
CONTINUOUS
  5
C3
 10
-19.784561
 20
99.009378
 30
0.0
 11
-16.784561
 21
102.009378
 31
0.0
  0
LINE
  8
LC-006-005-----0
  6
CONTINUOUS
  5
C4
 10
-19.784561
 20
103.252019
 30
0.0
 11
-16.784561
 21
106.252019
 31
0.0
  0
LINE
  8
LC-006-005-----0
  6
CONTINUOUS
  5
C5
 10
-19.784561
 20
107.494659
 30
0.0
 11
-16.784561
 21
110.494659
 31
0.0
  0
LINE
  8
LC-006-005-----0
  6
CONTINUOUS
  5
C6
 10
-19.784561
 20
111.7373
 30
0.0
 11
-16.784561
 21
114.7373
 31
0.0
  0
LINE
  8
LC-006-005-----0
  6
CONTINUOUS
  5
C7
 10
-19.784561
 20
115.979941
 30
0.0
 11
-16.784561
 21
118.979941
 31
0.0
  0
LINE
  8
LC-006-005-----0
  6
CONTINUOUS
  5
C8
 10
-19.784561
 20
120.222581
 30
0.0
 11
-16.784561
 21
123.222581
 31
0.0
  0
LINE
  8
LC-006-005-----0
  6
CONTINUOUS
  5
C9
 10
-19.784561
 20
124.465222
 30
0.0
 11
-16.784561
 21
127.465222
 31
0.0
  0
LINE
  8
LC-006-005-----0
  6
CONTINUOUS
  5
CA
 10
-8.331902
 20
135.917881
 30
0.0
 11
-6.784561
 21
137.465222
 31
0.0
  0
LINE
  8
LC-006-005-----0
  6
CONTINUOUS
  5
CB
 10
-19.784561
 20
128.707863
 30
0.0
 11
-16.784561
 21
131.707863
 31
0.0
  0
LINE
  8
LC-006-005-----0
  6
CONTINUOUS
  5
CC
 10
-9.584561
 20
138.907863
 30
0.0
 11
-6.784561
 21
141.707863
 31
0.0
  0
LINE
  8
LC-006-005-----0
  6
CONTINUOUS
  5
CD
 10
-19.784561
 20
132.950503
 30
0.0
 11
-16.784561
 21
135.950503
 31
0.0
  0
LINE
  8
LC-006-005-----0
  6
CONTINUOUS
  5
CE
 10
-9.866999
 20
142.868066
 30
0.0
 11
-6.817183
 21
145.917881
 31
0.0
  0
LINE
  8
LC-006-005-----0
  6
CONTINUOUS
  5
CF
 10
-19.784561
 20
137.193144
 30
0.0
 11
-16.784561
 21
140.193144
 31
0.0
  0
LINE
  8
LC-006-005-----0
  6
CONTINUOUS
  5
D0
 10
-13.784561
 20
143.193144
 30
0.0
 11
-11.059824
 21
145.917881
 31
0.0
  0
LINE
  8
LC-006-005-----0
  6
CONTINUOUS
  5
D1
 10
-19.784561
 20
141.435785
 30
0.0
 11
-16.784561
 21
144.435785
 31
0.0
  0
LINE
  8
LC-006-005-----0
  6
CONTINUOUS
  5
D2
 10
-15.802465
 20
145.417881
 30
0.0
 11
-12.802465
 21
148.417881
 31
0.0
  0
LINE
  8
LC-006-005-----0
  6
CONTINUOUS
  5
D3
 10
-20.545105
 20
144.917881
 30
0.0
 11
-17.045105
 21
148.417881
 31
0.0
  0
LINE
  8
LC-006-005-----0
  6
CONTINUOUS
  5
D4
 10
-24.787746
 20
144.917881
 30
0.0
 11
-21.287746
 21
148.417881
 31
0.0
  0
LINE
  8
LC-006-005-----0
  6
CONTINUOUS
  5
D5
 10
-29.030387
 20
144.917881
 30
0.0
 11
-25.530387
 21
148.417881
 31
0.0
  0
LINE
  8
LC-006-005-----0
  6
CONTINUOUS
  5
D6
 10
-33.273028
 20
144.917881
 30
0.0
 11
-29.773028
 21
148.417881
 31
0.0
  0
LINE
  8
LC-006-005-----0
  6
CONTINUOUS
  5
D7
 10
-37.515668
 20
144.917881
 30
0.0
 11
-34.015668
 21
148.417881
 31
0.0
  0
LINE
  8
LC-006-005-----0
  6
CONTINUOUS
  5
D8
 10
-37.762561
 20
148.913629
 30
0.0
 11
-34.262561
 21
152.413629
 31
0.0
  0
LINE
  8
LC-006-005-----0
  6
CONTINUOUS
  5
D9
 10
-37.762561
 20
153.15627
 30
0.0
 11
-34.262561
 21
156.65627
 31
0.0
  0
LINE
  8
LC-006-005-----0
  6
CONTINUOUS
  5
DA
 10
-40.74359
 20
154.417881
 30
0.0
 11
-35.74359
 21
159.417881
 31
0.0
  0
LINE
  8
LC-006-005-----0
  6
CONTINUOUS
  5
DB
 10
-44.986231
 20
154.417881
 30
0.0
 11
-41.986231
 21
157.417881
 31
0.0
  0
LINE
  8
LC-006-005-----0
  6
CONTINUOUS
  5
DC
 10
-49.228872
 20
154.417881
 30
0.0
 11
-46.228872
 21
157.417881
 31
0.0
  0
LINE
  8
LC-006-005-----0
  6
CONTINUOUS
  5
DD
 10
-53.471512
 20
154.417881
 30
0.0
 11
-50.471512
 21
157.417881
 31
0.0
  0
LINE
  8
LC-006-005-----0
  6
CONTINUOUS
  5
DE
 10
-57.714153
 20
154.417881
 30
0.0
 11
-54.714153
 21
157.417881
 31
0.0
  0
LINE
  8
LC-006-005-----0
  6
CONTINUOUS
  5
DF
 10
-61.956794
 20
154.417881
 30
0.0
 11
-58.956794
 21
157.417881
 31
0.0
  0
LINE
  8
LC-006-005-----0
  6
CONTINUOUS
  5
E0
 10
-66.199434
 20
154.417881
 30
0.0
 11
-63.199434
 21
157.417881
 31
0.0
  0
LINE
  8
LC-006-005-----0
  6
CONTINUOUS
  5
E1
 10
-67.762561
 20
157.097395
 30
0.0
 11
-67.442075
 21
157.417881
 31
0.0
  0
ENDBLK
  8
0
  5
E2
  0
BLOCK
  8
0
  5
E4
  2
BLK7
 70
    64
 10
0.0
 20
0.0
 30
0.0
  3
BLK7
  0
ENDBLK
  8
0
  5
E5
  0
BLOCK
  8
0
  5
E7
  2
BLK8
 70
    64
 10
0.0
 20
0.0
 30
0.0
  3
BLK8
  0
ENDBLK
  8
0
  5
E8
  0
BLOCK
  8
0
  5
EA
  2
BLK9
 70
    64
 10
0.0
 20
0.0
 30
0.0
  3
BLK9
  0
ENDBLK
  8
0
  5
EB
  0
BLOCK
  8
0
  5
ED
  2
*X14
 70
    65
 10
-24.784168
 20
35.917907
 30
0.0
  3
*X14
  0
LINE
  8
LC-006-005-----0
  6
CONTINUOUS
  5
EE
 10
-17.822209
 20
35.917907
 30
0.0
 11
-16.784124
 21
36.955992
 31
0.0
  0
LINE
  8
LC-006-005-----0
  6
CONTINUOUS
  5
EF
 10
-20.650636
 20
35.917907
 30
0.0
 11
-17.650661
 21
38.917881
 31
0.0
  0
LINE
  8
LC-006-005-----0
  6
CONTINUOUS
  5
F0
 10
-23.479063
 20
35.917907
 30
0.0
 11
-19.784096
 21
39.612873
 31
0.0
  0
LINE
  8
LC-006-005-----0
  6
CONTINUOUS
  5
F1
 10
-24.784168
 20
37.441228
 30
0.0
 11
-19.784087
 21
42.441309
 31
0.0
  0
LINE
  8
LC-006-005-----0
  6
CONTINUOUS
  5
F2
 10
-24.784168
 20
40.269656
 30
0.0
 11
-19.784079
 21
45.269745
 31
0.0
  0
LINE
  8
LC-006-005-----0
  6
CONTINUOUS
  5
F3
 10
-24.784168
 20
43.098083
 30
0.0
 11
-21.964429
 21
45.917822
 31
0.0
  0
LINE
  8
LC-006-005-----0
  6
CONTINUOUS
  5
F4
 10
-21.784075
 20
46.098176
 30
0.0
 11
-19.78407
 21
48.098181
 31
0.0
  0
LINE
  8
LC-006-005-----0
  6
CONTINUOUS
  5
F5
 10
-21.784075
 20
48.926604
 30
0.0
 11
-19.784062
 21
50.926617
 31
0.0
  0
LINE
  8
LC-006-005-----0
  6
CONTINUOUS
  5
F6
 10
-21.784075
 20
51.755031
 30
0.0
 11
-19.784053
 21
53.755052
 31
0.0
  0
LINE
  8
LC-006-005-----0
  6
CONTINUOUS
  5
F7
 10
-21.784075
 20
54.583458
 30
0.0
 11
-21.116934
 21
55.250598
 31
0.0
  0
ENDBLK
  8
0
  5
F8
  0
BLOCK
  8
0
  5
FA
  2
*X15
 70
    65
 10
87.215001
 20
35.917907
 30
0.0
  3
*X15
  0
LINE
  8
LC-006-005-----0
  6
CONTINUOUS
  5
FB
 10
92.486449
 20
35.917907
 30
0.0
 11
95.215046
 21
38.646503
 31
0.0
  0
LINE
  8
LC-006-005-----0
  6
CONTINUOUS
  5
FC
 10
89.658022
 20
35.917907
 30
0.0
 11
95.215046
 21
41.47493
 31
0.0
  0
LINE
  8
LC-006-005-----0
  6
CONTINUOUS
  5
FD
 10
87.215001
 20
36.303313
 30
0.0
 11
89.82957
 21
38.917881
 31
0.0
  0
LINE
  8
LC-006-005-----0
  6
CONTINUOUS
  5
FE
 10
90.214974
 20
39.303286
 30
0.0
 11
95.215046
 21
44.303357
 31
0.0
  0
LINE
  8
LC-006-005-----0
  6
CONTINUOUS
  5
FF
 10
90.214966
 20
42.131705
 30
0.0
 11
94.001084
 21
45.917822
 31
0.0
  0
LINE
  8
LC-006-005-----0
  6
CONTINUOUS
  5
100
 10
90.214957
 20
44.960123
 30
0.0
 11
92.214952
 21
46.960118
 31
0.0
  0
LINE
  8
LC-006-005-----0
  6
CONTINUOUS
  5
101
 10
90.214948
 20
47.788542
 30
0.0
 11
92.214952
 21
49.788545
 31
0.0
  0
LINE
  8
LC-006-005-----0
  6
CONTINUOUS
  5
102
 10
90.21494
 20
50.61696
 30
0.0
 11
92.214952
 21
52.616972
 31
0.0
  0
LINE
  8
LC-006-005-----0
  6
CONTINUOUS
  5
103
 10
90.214931
 20
53.445378
 30
0.0
 11
92.214952
 21
55.445399
 31
0.0
  0
ENDBLK
  8
0
  5
104
  0
BLOCK
  8
0
  5
106
  2
BLK10
 70
    64
 10
0.0
 20
0.0
 30
0.0
  3
BLK10
  0
ENDBLK
  8
0
  5
107
  0
BLOCK
  8
0
  5
109
  2
BLK11
 70
    64
 10
0.0
 20
0.0
 30
0.0
  3
BLK11
  0
ENDBLK
  8
0
  5
10A
  0
BLOCK
  8
0
  5
10C
  2
BLK12
 70
    64
 10
0.0
 20
0.0
 30
0.0
  3
BLK12
  0
ENDBLK
  8
0
  5
10D
  0
BLOCK
  8
0
  5
10F
  2
*X19
 70
    65
 10
-33.762561
 20
149.417881
 30
0.0
  3
*X19
  0
LINE
  8
LC-006-005-----0
  6
CONTINUOUS
  5
110
 10
104.163047
 20
149.417881
 30
0.0
 11
104.193439
 21
149.448273
 31
0.0
  0
LINE
  8
LC-006-005-----0
  6
CONTINUOUS
  5
111
 10
102.693439
 20
150.7767
 30
0.0
 11
104.193439
 21
152.2767
 31
0.0
  0
LINE
  8
LC-006-005-----0
  6
CONTINUOUS
  5
112
 10
102.693439
 20
153.605127
 30
0.0
 11
104.193439
 21
155.105127
 31
0.0
  0
LINE
  8
LC-006-005-----0
  6
CONTINUOUS
  5
113
 10
102.693439
 20
156.433554
 30
0.0
 11
104.040032
 21
157.780147
 31
0.0
  0
LINE
  8
LC-006-005-----0
  6
CONTINUOUS
  5
114
 10
101.349339
 20
157.917881
 30
0.0
 11
102.656427
 21
159.224969
 31
0.0
  0
LINE
  8
LC-006-005-----0
  6
CONTINUOUS
  5
115
 10
96.020912
 20
155.417881
 30
0.0
 11
96.193439
 21
155.590408
 31
0.0
  0
LINE
  8
LC-006-005-----0
  6
CONTINUOUS
  5
116
 10
98.520912
 20
157.917881
 30
0.0
 11
100.020912
 21
159.417881
 31
0.0
  0
LINE
  8
LC-006-005-----0
  6
CONTINUOUS
  5
117
 10
94.693439
 20
156.918836
 30
0.0
 11
97.192484
 21
159.417881
 31
0.0
  0
LINE
  8
LC-006-005-----0
  6
CONTINUOUS
  5
118
 10
87.53563
 20
155.417881
 30
0.0
 11
87.693439
 21
155.57569
 31
0.0
  0
LINE
  8
LC-006-005-----0
  6
CONTINUOUS
  5
119
 10
86.193439
 20
156.904117
 30
0.0
 11
87.393859
 21
158.104537
 31
0.0
  0
LINE
  8
LC-006-005-----0
  6
CONTINUOUS
  5
11A
 10
84.378776
 20
157.917881
 30
0.0
 11
85.803259
 21
159.342365
 31
0.0
  0
LINE
  8
LC-006-005-----0
  6
CONTINUOUS
  5
11B
 10
79.050349
 20
155.417881
 30
0.0
 11
80.193439
 21
156.560971
 31
0.0
  0
LINE
  8
LC-006-005-----0
  6
CONTINUOUS
  5
11C
 10
81.550349
 20
157.917881
 30
0.0
 11
83.050349
 21
159.417881
 31
0.0
  0
LINE
  8
LC-006-005-----0
  6
CONTINUOUS
  5
11D
 10
79.122803
 20
158.318762
 30
0.0
 11
79.792558
 21
158.988517
 31
0.0
  0
LINE
  8
LC-006-005-----0
  6
CONTINUOUS
  5
11E
 10
70.565068
 20
155.417881
 30
0.0
 11
71.693439
 21
156.546252
 31
0.0
  0
LINE
  8
LC-006-005-----0
  6
CONTINUOUS
  5
11F
 10
69.921816
 20
157.603057
 30
0.0
 11
70.982675
 21
158.663915
 31
0.0
  0
LINE
  8
LC-006-005-----0
  6
CONTINUOUS
  5
120
 10
67.408213
 20
157.917881
 30
0.0
 11
68.908213
 21
159.417881
 31
0.0
  0
LINE
  8
LC-006-005-----0
  6
CONTINUOUS
  5
121
 10
62.693439
 20
156.031534
 30
0.0
 11
66.079786
 21
159.417881
 31
0.0
  0
LINE
  8
LC-006-005-----0
  6
CONTINUOUS
  5
122
 10
54.193439
 20
156.016815
 30
0.0
 11
55.634437
 21
157.457814
 31
0.0
  0
LINE
  8
LC-006-005-----0
  6
CONTINUOUS
  5
123
 10
53.263613
 20
157.915416
 30
0.0
 11
54.435631
 21
159.087434
 31
0.0
  0
LINE
  8
LC-006-005-----0
  6
CONTINUOUS
  5
124
 10
50.437651
 20
157.917881
 30
0.0
 11
51.937651
 21
159.417881
 31
0.0
  0
LINE
  8
LC-006-005-----0
  6
CONTINUOUS
  5
125
 10
47.609223
 20
157.917881
 30
0.0
 11
49.109223
 21
159.417881
 31
0.0
  0
LINE
  8
LC-006-005-----0
  6
CONTINUOUS
  5
126
 10
44.780796
 20
157.917881
 30
0.0
 11
46.280796
 21
159.417881
 31
0.0
  0
LINE
  8
LC-006-005-----0
  6
CONTINUOUS
  5
127
 10
41.952369
 20
157.917881
 30
0.0
 11
43.452369
 21
159.417881
 31
0.0
  0
LINE
  8
LC-006-005-----0
  6
CONTINUOUS
  5
128
 10
39.123942
 20
157.917881
 30
0.0
 11
40.623942
 21
159.417881
 31
0.0
  0
LINE
  8
LC-006-005-----0
  6
CONTINUOUS
  5
129
 10
36.295515
 20
157.917881
 30
0.0
 11
37.795515
 21
159.417881
 31
0.0
  0
LINE
  8
LC-006-005-----0
  6
CONTINUOUS
  5
12A
 10
33.467088
 20
157.917881
 30
0.0
 11
34.967088
 21
159.417881
 31
0.0
  0
LINE
  8
LC-006-005-----0
  6
CONTINUOUS
  5
12B
 10
30.638661
 20
157.917881
 30
0.0
 11
32.138661
 21
159.417881
 31
0.0
  0
LINE
  8
LC-006-005-----0
  6
CONTINUOUS
  5
12C
 10
27.810234
 20
157.917881
 30
0.0
 11
29.310234
 21
159.417881
 31
0.0
  0
LINE
  8
LC-006-005-----0
  6
CONTINUOUS
  5
12D
 10
24.981806
 20
157.917881
 30
0.0
 11
26.481806
 21
159.417881
 31
0.0
  0
LINE
  8
LC-006-005-----0
  6
CONTINUOUS
  5
12E
 10
22.153379
 20
157.917881
 30
0.0
 11
23.653379
 21
159.417881
 31
0.0
  0
LINE
  8
LC-006-005-----0
  6
CONTINUOUS
  5
12F
 10
19.324952
 20
157.917881
 30
0.0
 11
20.824952
 21
159.417881
 31
0.0
  0
LINE
  8
LC-006-005-----0
  6
CONTINUOUS
  5
130
 10
14.737439
 20
156.158795
 30
0.0
 11
17.996525
 21
159.417881
 31
0.0
  0
LINE
  8
LC-006-005-----0
  6
CONTINUOUS
  5
131
 10
6.237439
 20
156.144076
 30
0.0
 11
7.653525
 21
157.560163
 31
0.0
  0
LINE
  8
LC-006-005-----0
  6
CONTINUOUS
  5
132
 10
5.182817
 20
157.917881
 30
0.0
 11
6.397416
 21
159.132481
 31
0.0
  0
LINE
  8
LC-006-005-----0
  6
CONTINUOUS
  5
133
 10
-0.145611
 20
155.417881
 30
0.0
 11
0.237439
 21
155.80093
 31
0.0
  0
LINE
  8
LC-006-005-----0
  6
CONTINUOUS
  5
134
 10
2.354389
 20
157.917881
 30
0.0
 11
3.854389
 21
159.417881
 31
0.0
  0
LINE
  8
LC-006-005-----0
  6
CONTINUOUS
  5
135
 10
-1.252748
 20
157.139171
 30
0.0
 11
1.016149
 21
159.408068
 31
0.0
  0
LINE
  8
LC-006-005-----0
  6
CONTINUOUS
  5
136
 10
-8.630892
 20
155.417881
 30
0.0
 11
-8.262561
 21
155.786212
 31
0.0
  0
LINE
  8
LC-006-005-----0
  6
CONTINUOUS
  5
137
 10
-9.77896
 20
157.09824
 30
0.0
 11
-8.6394
 21
158.2378
 31
0.0
  0
LINE
  8
LC-006-005-----0
  6
CONTINUOUS
  5
138
 10
-11.787746
 20
157.917881
 30
0.0
 11
-10.326135
 21
159.379493
 31
0.0
  0
LINE
  8
LC-006-005-----0
  6
CONTINUOUS
  5
139
 10
-17.116173
 20
155.417881
 30
0.0
 11
-15.762561
 21
156.771493
 31
0.0
  0
LINE
  8
LC-006-005-----0
  6
CONTINUOUS
  5
13A
 10
-14.616173
 20
157.917881
 30
0.0
 11
-13.116173
 21
159.417881
 31
0.0
  0
LINE
  8
LC-006-005-----0
  6
CONTINUOUS
  5
13B
 10
-25.601455
 20
155.417881
 30
0.0
 11
-24.262561
 21
156.756775
 31
0.0
  0
LINE
  8
LC-006-005-----0
  6
CONTINUOUS
  5
13C
 10
-33.762561
 20
150.085202
 30
0.0
 11
-32.262561
 21
151.585202
 31
0.0
  0
LINE
  8
LC-006-005-----0
  6
CONTINUOUS
  5
13D
 10
-26.144081
 20
157.703682
 30
0.0
 11
-25.080435
 21
158.767328
 31
0.0
  0
LINE
  8
LC-006-005-----0
  6
CONTINUOUS
  5
13E
 10
-33.762561
 20
152.913629
 30
0.0
 11
-32.262561
 21
154.413629
 31
0.0
  0
LINE
  8
LC-006-005-----0
  6
CONTINUOUS
  5
13F
 10
-28.758309
 20
157.917881
 30
0.0
 11
-27.258309
 21
159.417881
 31
0.0
  0
LINE
  8
LC-006-005-----0
  6
CONTINUOUS
  5
140
 10
-33.762561
 20
155.742056
 30
0.0
 11
-32.172924
 21
157.331694
 31
0.0
  0
LINE
  8
LC-006-005-----0
  6
CONTINUOUS
  5
141
 10
-31.676374
 20
157.828243
 30
0.0
 11
-30.086736
 21
159.417881
 31
0.0
  0
ENDBLK
  8
0
  5
142
  0
BLOCK
  8
0
  5
144
  2
BLK13
 70
    64
 10
0.0
 20
0.0
 30
0.0
  3
BLK13
  0
ENDBLK
  8
0
  5
145
  0
BLOCK
  8
0
  5
147
  2
*X21
 70
    65
 10
-16.784561
 20
38.917881
 30
0.0
  3
*X21
  0
LINE
  8
LC-006-005-----0
  6
CONTINUOUS
  5
148
 10
33.261027
 20
38.917881
 30
0.0
 11
35.215439
 21
40.872293
 31
0.0
  0
LINE
  8
LC-006-005-----0
  6
CONTINUOUS
  5
149
 10
27.604173
 20
38.917881
 30
0.0
 11
35.215439
 21
46.529147
 31
0.0
  0
LINE
  8
LC-006-005-----0
  6
CONTINUOUS
  5
14A
 10
21.947319
 20
38.917881
 30
0.0
 11
35.215439
 21
52.186001
 31
0.0
  0
LINE
  8
LC-006-005-----0
  6
CONTINUOUS
  5
14B
 10
16.290464
 20
38.917881
 30
0.0
 11
30.290464
 21
52.917881
 31
0.0
  0
LINE
  8
LC-006-005-----0
  6
CONTINUOUS
  5
14C
 10
10.63361
 20
38.917881
 30
0.0
 11
24.63361
 21
52.917881
 31
0.0
  0
LINE
  8
LC-006-005-----0
  6
CONTINUOUS
  5
14D
 10
4.976756
 20
38.917881
 30
0.0
 11
18.976756
 21
52.917881
 31
0.0
  0
LINE
  8
LC-006-005-----0
  6
CONTINUOUS
  5
14E
 10
-0.680098
 20
38.917881
 30
0.0
 11
13.319902
 21
52.917881
 31
0.0
  0
LINE
  8
LC-006-005-----0
  6
CONTINUOUS
  5
14F
 10
-6.336953
 20
38.917881
 30
0.0
 11
7.663047
 21
52.917881
 31
0.0
  0
LINE
  8
LC-006-005-----0
  6
CONTINUOUS
  5
150
 10
-11.993807
 20
38.917881
 30
0.0
 11
2.006193
 21
52.917881
 31
0.0
  0
LINE
  8
LC-006-005-----0
  6
CONTINUOUS
  5
151
 10
-16.784561
 20
39.783981
 30
0.0
 11
-3.650661
 21
52.917881
 31
0.0
  0
LINE
  8
LC-006-005-----0
  6
CONTINUOUS
  5
152
 10
-16.784561
 20
45.440835
 30
0.0
 11
-9.307515
 21
52.917881
 31
0.0
  0
LINE
  8
LC-006-005-----0
  6
CONTINUOUS
  5
153
 10
-16.784561
 20
51.09769
 30
0.0
 11
-14.96437
 21
52.917881
 31
0.0
  0
LINE
  8
LC-006-005-----0
  6
CONTINUOUS
  5
154
 10
35.215439
 20
49.637375
 30
0.0
 11
31.934932
 21
52.917881
 31
0.0
  0
LINE
  8
LC-006-005-----0
  6
CONTINUOUS
  5
155
 10
35.215439
 20
43.980521
 30
0.0
 11
26.278078
 21
52.917881
 31
0.0
  0
LINE
  8
LC-006-005-----0
  6
CONTINUOUS
  5
156
 10
34.621224
 20
38.917881
 30
0.0
 11
20.621224
 21
52.917881
 31
0.0
  0
LINE
  8
LC-006-005-----0
  6
CONTINUOUS
  5
157
 10
28.96437
 20
38.917881
 30
0.0
 11
14.96437
 21
52.917881
 31
0.0
  0
LINE
  8
LC-006-005-----0
  6
CONTINUOUS
  5
158
 10
23.307515
 20
38.917881
 30
0.0
 11
9.307515
 21
52.917881
 31
0.0
  0
LINE
  8
LC-006-005-----0
  6
CONTINUOUS
  5
159
 10
17.650661
 20
38.917881
 30
0.0
 11
3.650661
 21
52.917881
 31
0.0
  0
LINE
  8
LC-006-005-----0
  6
CONTINUOUS
  5
15A
 10
11.993807
 20
38.917881
 30
0.0
 11
-2.006193
 21
52.917881
 31
0.0
  0
LINE
  8
LC-006-005-----0
  6
CONTINUOUS
  5
15B
 10
6.336953
 20
38.917881
 30
0.0
 11
-7.663047
 21
52.917881
 31
0.0
  0
LINE
  8
LC-006-005-----0
  6
CONTINUOUS
  5
15C
 10
0.680098
 20
38.917881
 30
0.0
 11
-13.319902
 21
52.917881
 31
0.0
  0
LINE
  8
LC-006-005-----0
  6
CONTINUOUS
  5
15D
 10
-4.976756
 20
38.917881
 30
0.0
 11
-16.784561
 21
50.725687
 31
0.0
  0
LINE
  8
LC-006-005-----0
  6
CONTINUOUS
  5
15E
 10
-10.63361
 20
38.917881
 30
0.0
 11
-16.784561
 21
45.068833
 31
0.0
  0
LINE
  8
LC-006-005-----0
  6
CONTINUOUS
  5
15F
 10
-16.290464
 20
38.917881
 30
0.0
 11
-16.784561
 21
39.411978
 31
0.0
  0
ENDBLK
  8
0
  5
160
  0
BLOCK
  8
0
  5
162
  2
*X22
 70
    65
 10
35.215439
 20
38.917881
 30
0.0
  3
*X22
  0
LINE
  8
LC-006-005-----0
  6
CONTINUOUS
  5
163
 10
84.172715
 20
38.917881
 30
0.0
 11
87.215439
 21
41.960605
 31
0.0
  0
LINE
  8
LC-006-005-----0
  6
CONTINUOUS
  5
164
 10
78.515861
 20
38.917881
 30
0.0
 11
87.215439
 21
47.617459
 31
0.0
  0
LINE
  8
LC-006-005-----0
  6
CONTINUOUS
  5
165
 10
72.859007
 20
38.917881
 30
0.0
 11
86.859007
 21
52.917881
 31
0.0
  0
LINE
  8
LC-006-005-----0
  6
CONTINUOUS
  5
166
 10
67.202153
 20
38.917881
 30
0.0
 11
81.202153
 21
52.917881
 31
0.0
  0
LINE
  8
LC-006-005-----0
  6
CONTINUOUS
  5
167
 10
61.545298
 20
38.917881
 30
0.0
 11
75.545298
 21
52.917881
 31
0.0
  0
LINE
  8
LC-006-005-----0
  6
CONTINUOUS
  5
168
 10
55.888444
 20
38.917881
 30
0.0
 11
69.888444
 21
52.917881
 31
0.0
  0
LINE
  8
LC-006-005-----0
  6
CONTINUOUS
  5
169
 10
50.23159
 20
38.917881
 30
0.0
 11
64.23159
 21
52.917881
 31
0.0
  0
LINE
  8
LC-006-005-----0
  6
CONTINUOUS
  5
16A
 10
44.574736
 20
38.917881
 30
0.0
 11
58.574736
 21
52.917881
 31
0.0
  0
LINE
  8
LC-006-005-----0
  6
CONTINUOUS
  5
16B
 10
38.917881
 20
38.917881
 30
0.0
 11
52.917881
 21
52.917881
 31
0.0
  0
LINE
  8
LC-006-005-----0
  6
CONTINUOUS
  5
16C
 10
35.215439
 20
40.872293
 30
0.0
 11
47.261027
 21
52.917881
 31
0.0
  0
LINE
  8
LC-006-005-----0
  6
CONTINUOUS
  5
16D
 10
35.215439
 20
46.529147
 30
0.0
 11
41.604173
 21
52.917881
 31
0.0
  0
LINE
  8
LC-006-005-----0
  6
CONTINUOUS
  5
16E
 10
35.215439
 20
52.186001
 30
0.0
 11
35.947319
 21
52.917881
 31
0.0
  0
LINE
  8
LC-006-005-----0
  6
CONTINUOUS
  5
16F
 10
87.215439
 20
48.549063
 30
0.0
 11
82.846621
 21
52.917881
 31
0.0
  0
LINE
  8
LC-006-005-----0
  6
CONTINUOUS
  5
170
 10
87.215439
 20
42.892209
 30
0.0
 11
77.189766
 21
52.917881
 31
0.0
  0
LINE
  8
LC-006-005-----0
  6
CONTINUOUS
  5
171
 10
85.532912
 20
38.917881
 30
0.0
 11
71.532912
 21
52.917881
 31
0.0
  0
LINE
  8
LC-006-005-----0
  6
CONTINUOUS
  5
172
 10
79.876058
 20
38.917881
 30
0.0
 11
65.876058
 21
52.917881
 31
0.0
  0
LINE
  8
LC-006-005-----0
  6
CONTINUOUS
  5
173
 10
74.219204
 20
38.917881
 30
0.0
 11
60.219204
 21
52.917881
 31
0.0
  0
LINE
  8
LC-006-005-----0
  6
CONTINUOUS
  5
174
 10
68.562349
 20
38.917881
 30
0.0
 11
54.562349
 21
52.917881
 31
0.0
  0
LINE
  8
LC-006-005-----0
  6
CONTINUOUS
  5
175
 10
62.905495
 20
38.917881
 30
0.0
 11
48.905495
 21
52.917881
 31
0.0
  0
LINE
  8
LC-006-005-----0
  6
CONTINUOUS
  5
176
 10
57.248641
 20
38.917881
 30
0.0
 11
43.248641
 21
52.917881
 31
0.0
  0
LINE
  8
LC-006-005-----0
  6
CONTINUOUS
  5
177
 10
51.591787
 20
38.917881
 30
0.0
 11
37.591787
 21
52.917881
 31
0.0
  0
LINE
  8
LC-006-005-----0
  6
CONTINUOUS
  5
178
 10
45.934932
 20
38.917881
 30
0.0
 11
35.215439
 21
49.637375
 31
0.0
  0
LINE
  8
LC-006-005-----0
  6
CONTINUOUS
  5
179
 10
40.278078
 20
38.917881
 30
0.0
 11
35.215439
 21
43.980521
 31
0.0
  0
ENDBLK
  8
0
  5
17A
  0
BLOCK
  8
0
  5
17C
  2
*D23
 70
    65
 10
0.0
 20
0.0
 30
0.0
  3
*D23
  0
LINE
  8
LC-004-003-MTH-0
  6
CONTINUOUS
  5
17D
 10
87.215001
 20
38.917881
 30
0.0
 11
134.401217
 21
38.916406
 31
0.0
  0
LINE
  8
LC-004-003-MTH-0
  6
CONTINUOUS
  5
17E
 10
87.215439
 20
52.917881
 30
0.0
 11
134.401655
 21
52.916406
 31
0.0
  0
LINE
  8
LC-003-003-----0
  6
CONTINUOUS
  5
17F
 10
121.255082
 20
11.156361
 30
0.0
 11
117.601217
 21
38.916931
 31
0.0
  0
LINE
  8
LC-003-003-----0
  6
CONTINUOUS
  5
180
 10
117.601217
 20
38.916931
 30
0.0
 11
113.945616
 21
11.156589
 31
0.0
  0
LINE
  8
LC-003-003-----0
  6
CONTINUOUS
  5
181
 10
113.945616
 20
11.156589
 30
0.0
 11
121.255082
 21
11.156361
 31
0.0
  0
LINE
  8
LC-003-003-----0
  6
CONTINUOUS
  5
182
 10
120.30485
 20
11.094109
 30
0.0
 11
117.600989
 21
31.636931
 31
0.0
  0
LINE
  8
LC-003-003-----0
  6
CONTINUOUS
  5
183
 10
117.600989
 20
31.636931
 30
0.0
 11
114.895844
 21
11.094278
 31
0.0
  0
LINE
  8
LC-003-003-----0
  6
CONTINUOUS
  5
184
 10
119.354617
 20
11.031857
 30
0.0
 11
117.600762
 21
24.356931
 31
0.0
  0
LINE
  8
LC-003-003-----0
  6
CONTINUOUS
  5
185
 10
117.600762
 20
24.356931
 30
0.0
 11
115.846073
 21
11.031967
 31
0.0
  0
LINE
  8
LC-003-003-----0
  6
CONTINUOUS
  5
186
 10
118.404384
 20
10.969606
 30
0.0
 11
117.600534
 21
17.076931
 31
0.0
  0
LINE
  8
LC-003-003-----0
  6
CONTINUOUS
  5
187
 10
117.600534
 20
17.076931
 30
0.0
 11
116.796302
 21
10.969656
 31
0.0
  0
LINE
  8
LC-003-003-----0
  6
CONTINUOUS
  5
188
 10
113.94779
 20
80.677501
 30
0.0
 11
117.601655
 21
52.916931
 31
0.0
  0
LINE
  8
LC-003-003-----0
  6
CONTINUOUS
  5
189
 10
117.601655
 20
52.916931
 30
0.0
 11
121.257257
 21
80.677273
 31
0.0
  0
LINE
  8
LC-003-003-----0
  6
CONTINUOUS
  5
18A
 10
121.257257
 20
80.677273
 30
0.0
 11
113.94779
 21
80.677501
 31
0.0
  0
LINE
  8
LC-003-003-----0
  6
CONTINUOUS
  5
18B
 10
114.898022
 20
80.739753
 30
0.0
 11
117.601883
 21
60.196931
 31
0.0
  0
LINE
  8
LC-003-003-----0
  6
CONTINUOUS
  5
18C
 10
117.601883
 20
60.196931
 30
0.0
 11
120.307028
 21
80.739584
 31
0.0
  0
LINE
  8
LC-003-003-----0
  6
CONTINUOUS
  5
18D
 10
115.848255
 20
80.802005
 30
0.0
 11
117.60211
 21
67.476931
 31
0.0
  0
LINE
  8
LC-003-003-----0
  6
CONTINUOUS
  5
18E
 10
117.60211
 20
67.476931
 30
0.0
 11
119.356799
 21
80.801895
 31
0.0
  0
LINE
  8
LC-003-003-----0
  6
CONTINUOUS
  5
18F
 10
116.798488
 20
80.864257
 30
0.0
 11
117.602338
 21
74.756931
 31
0.0
  0
LINE
  8
LC-003-003-----0
  6
CONTINUOUS
  5
190
 10
117.602338
 20
74.756931
 30
0.0
 11
118.40657
 21
80.864206
 31
0.0
  0
LINE
  8
LC-005-003-MTG-0
  6
CONTINUOUS
  5
191
 10
117.599991
 20
-0.283069
 30
0.0
 11
117.604262
 21
136.281331
 31
0.0
  0
TEXT
  8
LC-003-003-----0
  6
CONTINUOUS
 62
     8
  5
192
 10
115.374977
 20
95.344653
 30
0.0
 40
28.0
  1
14
 50
90.0
 51
15.0
  7
LC-TXTSTYLE-150-400-0-0-D0
  0
ENDBLK
  8
0
  5
193
  0
BLOCK
  8
0
  5
195
  2
*D24
 70
    65
 10
0.0
 20
0.0
 30
0.0
  3
*D24
  0
LINE
  8
LC-004-003-MTH-0
  6
CONTINUOUS
  5
196
 10
87.215439
 20
52.917881
 30
0.0
 11
173.6
 21
52.917881
 31
0.0
  0
LINE
  8
LC-004-003-MTH-0
  6
CONTINUOUS
  5
197
 10
138.193439
 20
157.417881
 30
0.0
 11
173.6
 21
157.417881
 31
0.0
  0
LINE
  8
LC-005-003-MTG-0
  6
CONTINUOUS
  5
198
 10
156.8
 20
52.917881
 30
0.0
 11
156.8
 21
157.417881
 31
0.0
  0
LINE
  8
LC-003-003-----0
  6
CONTINUOUS
  5
199
 10
153.145267
 20
80.678337
 30
0.0
 11
156.8
 21
52.917881
 31
0.0
  0
LINE
  8
LC-003-003-----0
  6
CONTINUOUS
  5
19A
 10
156.8
 20
52.917881
 30
0.0
 11
160.454733
 21
80.678337
 31
0.0
  0
LINE
  8
LC-003-003-----0
  6
CONTINUOUS
  5
19B
 10
160.454733
 20
80.678337
 30
0.0
 11
153.145267
 21
80.678337
 31
0.0
  0
LINE
  8
LC-003-003-----0
  6
CONTINUOUS
  5
19C
 10
154.095497
 20
80.740619
 30
0.0
 11
156.8
 21
60.197881
 31
0.0
  0
LINE
  8
LC-003-003-----0
  6
CONTINUOUS
  5
19D
 10
156.8
 20
60.197881
 30
0.0
 11
159.504503
 21
80.740619
 31
0.0
  0
LINE
  8
LC-003-003-----0
  6
CONTINUOUS
  5
19E
 10
155.045728
 20
80.8029
 30
0.0
 11
156.8
 21
67.477881
 31
0.0
  0
LINE
  8
LC-003-003-----0
  6
CONTINUOUS
  5
19F
 10
156.8
 20
67.477881
 30
0.0
 11
158.554272
 21
80.8029
 31
0.0
  0
LINE
  8
LC-003-003-----0
  6
CONTINUOUS
  5
1A0
 10
155.995959
 20
80.865182
 30
0.0
 11
156.8
 21
74.757881
 31
0.0
  0
LINE
  8
LC-003-003-----0
  6
CONTINUOUS
  5
1A1
 10
156.8
 20
74.757881
 30
0.0
 11
157.604041
 21
80.865182
 31
0.0
  0
LINE
  8
LC-003-003-----0
  6
CONTINUOUS
  5
1A2
 10
160.454733
 20
129.657425
 30
0.0
 11
156.8
 21
157.417881
 31
0.0
  0
LINE
  8
LC-003-003-----0
  6
CONTINUOUS
  5
1A3
 10
156.8
 20
157.417881
 30
0.0
 11
153.145267
 21
129.657425
 31
0.0
  0
LINE
  8
LC-003-003-----0
  6
CONTINUOUS
  5
1A4
 10
153.145267
 20
129.657425
 30
0.0
 11
160.454733
 21
129.657425
 31
0.0
  0
LINE
  8
LC-003-003-----0
  6
CONTINUOUS
  5
1A5
 10
159.504503
 20
129.595144
 30
0.0
 11
156.8
 21
150.137881
 31
0.0
  0
LINE
  8
LC-003-003-----0
  6
CONTINUOUS
  5
1A6
 10
156.8
 20
150.137881
 30
0.0
 11
154.095497
 21
129.595144
 31
0.0
  0
LINE
  8
LC-003-003-----0
  6
CONTINUOUS
  5
1A7
 10
158.554272
 20
129.532862
 30
0.0
 11
156.8
 21
142.857881
 31
0.0
  0
LINE
  8
LC-003-003-----0
  6
CONTINUOUS
  5
1A8
 10
156.8
 20
142.857881
 30
0.0
 11
155.045728
 21
129.532862
 31
0.0
  0
LINE
  8
LC-003-003-----0
  6
CONTINUOUS
  5
1A9
 10
157.604041
 20
129.470581
 30
0.0
 11
156.8
 21
135.577881
 31
0.0
  0
LINE
  8
LC-003-003-----0
  6
CONTINUOUS
  5
1AA
 10
156.8
 20
135.577881
 30
0.0
 11
155.995959
 21
129.470581
 31
0.0
  0
TEXT
  8
LC-003-003-----0
  6
CONTINUOUS
 62
     8
  5
1AB
 10
148.972446
 20
55.362498
 30
0.0
 40
28.0
  1
16-104
 50
90.0
 51
15.0
  7
LC-TXTSTYLE-150-400-0-0-D0
 72
     1
 11
148.972446
 21
109.516041
 31
0.0
  0
ENDBLK
  8
0
  5
1AC
  0
ENDSEC
  0
SECTION
  2
ENTITIES
  0
VIEWPORT
  8
LC-000
  5
306
 67
     1
 68
     1
 10
420.0
 20
297.0
 30
0.0
 40
840.0
 41
594.0
 69
     1
1001
ACAD
1000
MVIEW
1002
{
1070
    16
1010
0.0
1020
0.0
1030
0.0
1010
0.0
1020
0.0
1030
1.0
1040
0.0
1040
594.0
1040
420.0
1040
297.0
1040
50.0
1040
0.0
1040
0.0
1070
     0
1070
   100
1070
     1
1070
     1
1070
     0
1070
     0
1070
     0
1070
     0
1040
0.0
1040
0.0
1040
0.0
1040
1.0
1040
1.0
1040
0.0
1040
0.0
1070
     0
1002
{
1002
}
1002
}
  0
VIEWPORT
  8
0
  5
307
 67
     1
 68
     1
 10
0.0
 20
0.0
 30
0.0
 40
0.0
 41
0.0
 69
     1
1001
ACAD
1000
MVIEW
1002
{
1070
    16
1010
0.0
1020
0.0
1030
0.0
1010
0.0
1020
0.0
1030
1.0
1040
0.0
1040
594.0
1040
0.0
1040
0.0
1040
50.0
1040
0.0
1040
0.0
1070
     0
1070
   100
1070
     0
1070
     1
1070
     0
1070
     0
1070
     0
1070
     0
1040
0.0
1040
0.0
1040
0.0
1040
0.5
1040
0.5
1040
0.5
1040
0.5
1070
     0
1002
{
1002
}
1002
}
  0
DIMENSION
  8
0
  5
1AD
  2
*D0
 10
35.215439
 20
224.0
 30
0.0
 11
35.215439
 21
224.0
 31
0.0
  1
206
 13
-67.762561
 23
157.417881
 33
0.0
 14
138.193439
 24
157.417881
 34
0.0
  3
LC-DIM-L-0140-02-02
  0
INSERT
  8
0
  5
1AE
  2
*X1
 10
77.215439
 20
38.917881
 30
0.0
  0
INSERT
  8
0
  5
1B0
  2
BLK1
 10
0.0
 20
0.0
 30
0.0
  0
INSERT
  8
0
  5
1B1
  2
BLK2
 10
0.0
 20
0.0
 30
0.0
  0
DIMENSION
  8
0
  5
1B2
  2
*D4
 10
35.215439
 20
182.0
 30
0.0
 11
35.215439
 21
182.0
 31
0.0
  1
150
 13
-37.762561
 23
158.917881
 33
0.0
 14
108.193439
 24
158.917881
 34
0.0
  3
LC-DIM-L-0140-02-02
  0
INSERT
  8
0
  5
1B4
  2
BLK3
 10
0.0
 20
0.0
 30
0.0
  0
INSERT
  8
0
  5
1B5
  2
BLK4
 10
0.0
 20
0.0
 30
0.0
  0
INSERT
  8
0
  5
1B6
  2
BLK5
 10
0.0
 20
0.0
 30
0.0
  0
INSERT
  8
0
  5
1B7
  2
BLK6
 10
0.0
 20
0.0
 30
0.0
  0
DIMENSION
  8
0
  5
1B8
  2
*D9
 10
35.215439
 20
-39.2
 30
0.0
 11
35.215439
 21
-39.2
 31
0.0
  1
%%c110
 13
-19.784561
 23
43.417881
 33
0.0
 14
90.215439
 24
43.417881
 34
0.0
  3
LC-DIM-L-0140-02-02
  0
INSERT
  8
0
  5
1B9
  2
*X10
 10
-67.762561
 20
38.917881
 30
0.0
  0
INSERT
  8
0
  5
1BA
  2
BLK7
 10
0.0
 20
0.0
 30
0.0
  0
INSERT
  8
0
  5
1BB
  2
BLK8
 10
0.0
 20
0.0
 30
0.0
  0
INSERT
  8
0
  5
1BC
  2
BLK9
 10
0.0
 20
0.0
 30
0.0
  0
INSERT
  8
0
  5
1BD
  2
*X14
 10
-24.784168
 20
35.917907
 30
0.0
  0
INSERT
  8
0
  5
1BE
  2
*X15
 10
87.215001
 20
35.917907
 30
0.0
  0
INSERT
  8
0
  5
1BF
  2
BLK10
 10
0.0
 20
0.0
 30
0.0
  0
INSERT
  8
0
  5
1C0
  2
BLK11
 10
0.0
 20
0.0
 30
0.0
  0
INSERT
  8
0
  5
1C1
  2
BLK12
 10
0.0
 20
0.0
 30
0.0
  0
INSERT
  8
0
  5
1C2
  2
*X19
 10
-33.762561
 20
149.417881
 30
0.0
  0
INSERT
  8
0
  5
1C3
  2
BLK13
 10
0.0
 20
0.0
 30
0.0
  0
INSERT
  8
0
  5
1C4
  2
*X21
 10
-16.784561
 20
38.917881
 30
0.0
  0
INSERT
  8
0
  5
1C5
  2
*X22
 10
35.215439
 20
38.917881
 30
0.0
  0
DIMENSION
  8
0
  5
1C6
  2
*D23
 10
117.601436
 20
45.916931
 30
0.0
 11
117.601436
 21
45.916931
 31
0.0
 70
     1
 13
87.215001
 23
38.917881
 33
0.0
 14
87.215439
 24
52.917881
 34
0.0
  3
LC-DIM-L-0140-02-02
  0
DIMENSION
  8
0
  5
1C7
  2
*D24
 10
156.8
 20
105.167881
 30
0.0
 11
156.8
 21
105.167881
 31
0.0
  1
16-104
 13
87.215439
 23
52.917881
 33
0.0
 14
138.193439
 24
157.417881
 34
0.0
 50
90.0
  3
LC-DIM-L-0140-02-02
  0
LINE
  8
LC-001-002-----0
  6
CONTINUOUS
  5
1C9
 10
224.215439
 20
192.328503
 30
0.0
 11
224.215439
 21
61.952503
 31
0.0
  0
LINE
  8
LC-001-002-----0
  6
CONTINUOUS
  5
1CA
 10
90.215439
 20
144.917881
 30
0.0
 11
108.193439
 21
144.917881
 31
0.0
  0
LINE
  8
LC-001-002-----0
  6
CONTINUOUS
  5
1CB
 10
108.193439
 20
147.417881
 30
0.0
 11
108.193439
 21
146.417881
 31
0.0
  0
LINE
  8
LC-001-002-----0
  6
CONTINUOUS
  5
1CC
 10
108.193439
 20
157.417881
 30
0.0
 11
108.193439
 21
158.917881
 31
0.0
  0
LINE
  8
LC-001-002-----0
  6
CONTINUOUS
  5
1CD
 10
108.193439
 20
157.417881
 30
0.0
 11
138.193439
 21
157.417881
 31
0.0
  0
LINE
  8
LC-001-002-----0
  6
CONTINUOUS
  5
1CE
 10
138.193439
 20
154.417881
 30
0.0
 11
108.193439
 21
154.417881
 31
0.0
  0
ARC
  8
LC-002-002-RND-0
  6
CONTINUOUS
  5
1D0
 10
225.693439
 20
59.640503
 30
0.0
 40
2.0
 50
180.0
 51
270.0
  0
ARC
  8
LC-002-002-RND-0
  6
CONTINUOUS
  5
1D1
 10
360.693439
 20
59.640503
 30
0.0
 40
2.0
 50
270.0
 51
0.0
  0
LINE
  8
LC-001-002-----0
  6
CONTINUOUS
  5
1D2
 10
220.193439
 20
55.140503
 30
0.0
 11
220.193439
 21
199.140503
 31
0.0
  0
LINE
  8
LC-001-002-----0
  6
CONTINUOUS
 62
     2
  5
1D3
 10
-3.514556
 20
232.74
 30
0.0
 11
11.485444
 21
232.74
 31
0.0
  0
LINE
  8
LC-001-002-----0
  6
CONTINUOUS
  5
1D4
 10
365.193439
 20
54.140503
 30
0.0
 11
221.193439
 21
54.140503
 31
0.0
  0
LINE
  8
LC-001-002-----0
  6
CONTINUOUS
  5
1D5
 10
366.193439
 20
199.140503
 30
0.0
 11
366.193439
 21
55.140503
 31
0.0
  0
ARC
  8
LC-002-002-RND-0
  6
CONTINUOUS
  5
1D6
 10
221.193439
 20
199.140503
 30
0.0
 40
1.0
 50
90.0
 51
180.0
  0
LINE
  8
LC-001-002-----0
  6
CONTINUOUS
  5
1D7
 10
-19.784561
 20
144.917881
 30
0.0
 11
-37.762561
 21
144.917881
 31
0.0
  0
ARC
  8
LC-002-002-RND-0
  6
CONTINUOUS
  5
1D8
 10
360.693439
 20
194.640503
 30
0.0
 40
2.0
 50
0.0
 51
90.0
  0
LINE
  8
LC-001-002-----0
  6
CONTINUOUS
  5
1D9
 10
81.715439
 20
148.417881
 30
0.0
 11
81.715439
 21
145.917881
 31
0.0
  0
ARC
  8
LC-002-002-RND-0
  6
CONTINUOUS
  5
1DA
 10
225.693439
 20
194.640503
 30
0.0
 40
2.0
 50
90.0
 51
180.0
  0
LINE
  8
LC-001-002-----0
  6
CONTINUOUS
  5
1DB
 10
101.215439
 20
153.917881
 30
0.0
 11
95.215439
 21
153.917881
 31
0.0
  0
CIRCLE
  8
LC-001-002-----0
  6
CONTINUOUS
  5
1DC
 10
354.693439
 20
188.640503
 30
0.0
 40
5.5
  0
LINE
  8
LC-001-002-----0
  6
CONTINUOUS
  5
1DD
 10
221.193439
 20
200.140503
 30
0.0
 11
365.193439
 21
200.140503
 31
0.0
  0
LINE
  8
LC-001-002-----0
  6
CONTINUOUS
  5
1DE
 10
354.193439
 20
186.140503
 30
0.0
 11
354.193439
 21
188.140503
 31
0.0
  0
LINE
  8
LC-001-002-----0
  6
CONTINUOUS
  5
1DF
 10
101.215439
 20
148.417881
 30
0.0
 11
101.215439
 21
153.917881
 31
0.0
  0
LINE
  8
LC-001-002-----0
  6
CONTINUOUS
  5
1E0
 10
81.715439
 20
145.917881
 30
0.0
 11
77.215439
 21
145.917881
 31
0.0
  0
LINE
  8
LC-001-002-----0
  6
CONTINUOUS
  5
1E1
 10
84.215439
 20
142.917881
 30
0.0
 11
84.215439
 21
145.417881
 31
0.0
  0
LINE
  8
LC-001-002-----0
  6
CONTINUOUS
  5
1E2
 10
84.215439
 20
142.917881
 30
0.0
 11
80.515439
 21
142.917881
 31
0.0
  0
LINE
  8
LC-001-002-----0
  6
CONTINUOUS
  5
1E3
 10
354.193439
 20
189.140503
 30
0.0
 11
354.193439
 21
191.140503
 31
0.0
  0
LINE
  8
LC-001-002-----0
  6
CONTINUOUS
  5
1E4
 10
87.215439
 20
145.417881
 30
0.0
 11
84.215439
 21
145.417881
 31
0.0
  0
ARC
  8
LC-001-002-----0
  6
CONTINUOUS
  5
1E5
 10
352.193439
 20
186.140503
 30
0.0
 40
2.0
 50
206.896005
 51
210.737951
  0
ARC
  8
LC-001-002-----0
  6
CONTINUOUS
  5
1E6
 10
352.193439
 20
186.140503
 30
0.0
 40
2.0
 50
211.389663
 51
251.244293
  0
LINE
  8
LC-001-002-----0
  6
CONTINUOUS
  5
1E7
 10
352.193439
 20
189.140503
 30
0.0
 11
354.193439
 21
189.140503
 31
0.0
  0
LINE
  8
LC-001-002-----0
  6
CONTINUOUS
  5
1E8
 10
355.193439
 20
189.140503
 30
0.0
 11
357.193439
 21
189.140503
 31
0.0
  0
CIRCLE
  8
LC-001-002-----0
  6
CONTINUOUS
  5
1E9
 10
231.693439
 20
65.640503
 30
0.0
 40
5.5
  0
LINE
  8
LC-001-002-----0
  6
CONTINUOUS
  5
1EA
 10
234.193439
 20
66.140503
 30
0.0
 11
232.193439
 21
66.140503
 31
0.0
  0
LINE
  8
LC-001-002-----0
  6
CONTINUOUS
  5
1EB
 10
231.193439
 20
66.140503
 30
0.0
 11
229.193439
 21
66.140503
 31
0.0
  0
LINE
  8
LC-001-002-----0
  6
CONTINUOUS
  5
1EC
 10
87.215439
 20
148.455512
 30
0.0
 11
87.215439
 21
153.917881
 31
0.0
  0
LINE
  8
LC-001-002-----0
  6
CONTINUOUS
  5
1ED
 10
87.215439
 20
153.917881
 30
0.0
 11
95.215439
 21
153.917881
 31
0.0
  0
LINE
  8
LC-001-002-----0
  6
CONTINUOUS
  5
1EE
 10
190.215439
 20
29.162503
 30
0.0
 11
190.215439
 21
225.118503
 31
0.0
  0
LINE
  8
LC-001-002-----0
  6
CONTINUOUS
  5
1EF
 10
195.215439
 20
230.118503
 30
0.0
 11
391.171439
 21
230.118503
 31
0.0
  0
LINE
  8
LC-001-002-----0
  6
CONTINUOUS
  5
1F0
 10
396.171439
 20
225.118503
 30
0.0
 11
396.171439
 21
29.162503
 31
0.0
  0
LINE
  8
LC-001-002-----0
  6
CONTINUOUS
  5
1F1
 10
391.171439
 20
24.162503
 30
0.0
 11
195.215439
 21
24.162503
 31
0.0
  0
ARC
  8
LC-002-002-RND-0
  6
CONTINUOUS
  5
1F2
 10
195.215439
 20
29.162503
 30
0.0
 40
5.0
 50
180.0
 51
270.0
  0
ARC
  8
LC-002-002-RND-0
  6
CONTINUOUS
  5
1F3
 10
195.215439
 20
225.118503
 30
0.0
 40
5.0
 50
90.0
 51
180.0
  0
ARC
  8
LC-002-002-RND-0
  6
CONTINUOUS
  5
1F4
 10
391.171439
 20
225.118503
 30
0.0
 40
5.0
 50
0.0
 51
90.0
  0
ARC
  8
LC-002-002-RND-0
  6
CONTINUOUS
  5
1F5
 10
391.171439
 20
29.162503
 30
0.0
 40
5.0
 50
270.0
 51
0.0
  0
ARC
  8
LC-002-002-RND-0
  6
CONTINUOUS
  5
1F6
 10
107.693439
 20
158.917881
 30
0.0
 40
0.5
 50
0.0
 51
90.0
  0
ARC
  8
LC-002-002-RND-0
  6
CONTINUOUS
  5
1F7
 10
365.193439
 20
55.140503
 30
0.0
 40
1.0
 50
270.0
 51
0.0
  0
ARC
  8
LC-002-002-RND-0
  6
CONTINUOUS
  5
1F8
 10
105.193439
 20
158.917881
 30
0.0
 40
0.5
 50
90.0
 51
180.0
  0
ARC
  8
LC-002-002-RND-0
  6
CONTINUOUS
  5
1F9
 10
365.193439
 20
199.140503
 30
0.0
 40
1.0
 50
0.0
 51
90.0
  0
LINE
  8
LC-001-002-----0
  6
CONTINUOUS
 62
     2
  5
1FA
 10
-3.514556
 20
247.74
 30
0.0
 11
11.485444
 21
247.74
 31
0.0
  0
LINE
  8
LC-001-002-----0
  6
CONTINUOUS
  5
1FB
 10
90.215439
 20
144.917881
 30
0.0
 11
90.215439
 21
43.417881
 31
0.0
  0
LINE
  8
LC-001-002-----0
  6
CONTINUOUS
  5
1FC
 10
87.215439
 20
145.417881
 30
0.0
 11
87.215439
 21
38.917881
 31
0.0
  0
LINE
  8
LC-001-002-----0
  6
CONTINUOUS
  5
1FD
 10
89.009667
 20
38.917881
 30
0.0
 11
35.215439
 21
38.917881
 31
0.0
  0
LINE
  8
LC-001-002-----0
  6
CONTINUOUS
  5
1FE
 10
90.215439
 20
43.417881
 30
0.0
 11
89.009667
 21
38.917881
 31
0.0
  0
LINE
  8
LC-001-002-----0
  6
CONTINUOUS
  5
1FF
 10
231.193439
 20
68.140503
 30
0.0
 11
231.193439
 21
66.140503
 31
0.0
  0
LINE
  8
LC-001-002-----0
  6
CONTINUOUS
  5
200
 10
231.193439
 20
65.140503
 30
0.0
 11
231.193439
 21
63.140503
 31
0.0
  0
LINE
  8
LC-001-002-----0
  6
CONTINUOUS
  5
201
 10
234.193439
 20
65.140503
 30
0.0
 11
232.193439
 21
65.140503
 31
0.0
  0
LINE
  8
LC-001-002-----0
  6
CONTINUOUS
  5
202
 10
355.193439
 20
186.140503
 30
0.0
 11
355.193439
 21
188.140503
 31
0.0
  0
LINE
  8
LC-001-002-----0
  6
CONTINUOUS
  5
203
 10
231.193439
 20
65.140503
 30
0.0
 11
229.193439
 21
65.140503
 31
0.0
  0
LINE
  8
LC-001-002-----0
  6
CONTINUOUS
  5
204
 10
232.193439
 20
68.140503
 30
0.0
 11
232.193439
 21
66.140503
 31
0.0
  0
LINE
  8
LC-001-002-----0
  6
CONTINUOUS
  5
205
 10
232.193439
 20
65.140503
 30
0.0
 11
232.193439
 21
63.140503
 31
0.0
  0
CIRCLE
  8
LC-001-002-----0
  6
CONTINUOUS
  5
206
 10
231.693439
 20
65.640503
 30
0.0
 40
5.5
  0
LINE
  8
LC-001-002-----0
  6
CONTINUOUS
  5
207
 10
234.193439
 20
66.140503
 30
0.0
 11
234.193439
 21
65.140503
 31
0.0
  0
LINE
  8
LC-001-002-----0
  6
CONTINUOUS
  5
208
 10
229.193439
 20
66.140503
 30
0.0
 11
229.193439
 21
65.140503
 31
0.0
  0
LINE
  8
LC-001-002-----0
  6
CONTINUOUS
  5
209
 10
232.193439
 20
63.140503
 30
0.0
 11
231.193439
 21
63.140503
 31
0.0
  0
LINE
  8
LC-001-002-----0
  6
CONTINUOUS
  5
20A
 10
232.193439
 20
68.140503
 30
0.0
 11
231.193439
 21
68.140503
 31
0.0
  0
LINE
  8
LC-001-002-----0
  6
CONTINUOUS
  5
20B
 10
355.193439
 20
189.140503
 30
0.0
 11
355.193439
 21
191.140503
 31
0.0
  0
LINE
  8
LC-001-002-----0
  6
CONTINUOUS
  5
20C
 10
352.193439
 20
188.140503
 30
0.0
 11
354.193439
 21
188.140503
 31
0.0
  0
ARC
  8
LC-002-002-RND-0
  6
CONTINUOUS
  5
20D
 10
221.193439
 20
55.140503
 30
0.0
 40
1.0
 50
180.0
 51
270.0
  0
LINE
  8
LC-001-002-----0
  6
CONTINUOUS
  5
20E
 10
355.193439
 20
188.140503
 30
0.0
 11
357.193439
 21
188.140503
 31
0.0
  0
CIRCLE
  8
LC-001-002-----0
  6
CONTINUOUS
  5
20F
 10
354.693439
 20
188.640503
 30
0.0
 40
5.5
  0
LINE
  8
LC-001-002-----0
  6
CONTINUOUS
  5
210
 10
354.193439
 20
186.140503
 30
0.0
 11
355.193439
 21
186.140503
 31
0.0
  0
LINE
  8
LC-001-002-----0
  6
CONTINUOUS
  5
211
 10
354.193439
 20
191.140503
 30
0.0
 11
355.193439
 21
191.140503
 31
0.0
  0
LINE
  8
LC-001-002-----0
  6
CONTINUOUS
  5
212
 10
357.193439
 20
188.140503
 30
0.0
 11
357.193439
 21
189.140503
 31
0.0
  0
LINE
  8
LC-001-002-----0
  6
CONTINUOUS
  5
213
 10
352.193439
 20
188.140503
 30
0.0
 11
352.193439
 21
189.140503
 31
0.0
  0
LINE
  8
LC-001-002-----0
  6
CONTINUOUS
  5
214
 10
-37.762561
 20
147.417881
 30
0.0
 11
-37.762561
 21
146.417881
 31
0.0
  0
LINE
  8
LC-001-002-----0
  6
CONTINUOUS
  5
215
 10
80.015439
 20
134.417881
 30
0.0
 11
77.215439
 21
134.417881
 31
0.0
  0
LINE
  8
LC-001-002-----0
  6
CONTINUOUS
  5
216
 10
80.015439
 20
142.417881
 30
0.0
 11
80.015439
 21
134.417881
 31
0.0
  0
ARC
  8
LC-001-002-----0
  6
CONTINUOUS
  5
217
 10
80.515439
 20
142.417881
 30
0.0
 40
0.5
 50
90.0
 51
180.0
  0
LINE
  8
LC-001-002-----0
  6
CONTINUOUS
  5
218
 10
77.215439
 20
145.917881
 30
0.0
 11
77.215439
 21
134.417881
 31
0.0
  0
LINE
  8
LC-001-002-----0
  6
CONTINUOUS
  5
219
 10
88.215439
 20
148.417881
 30
0.0
 11
88.215439
 21
148.417881
 31
0.0
  0
LINE
  8
LC-001-002-----0
  6
CONTINUOUS
  5
21A
 10
84.215439
 20
145.417881
 30
0.0
 11
87.215439
 21
145.417881
 31
0.0
  0
LINE
  8
LC-001-002-----0
  6
CONTINUOUS
  5
21B
 10
313.671439
 20
135.640503
 30
0.0
 11
313.671439
 21
118.640503
 31
0.0
  0
ARC
  8
LC-002-002-RND-0
  6
CONTINUOUS
  5
21C
 10
358.381439
 20
192.328503
 30
0.0
 40
3.79
 50
0.0
 51
90.0
  0
LINE
  8
LC-001-002-----0
  6
CONTINUOUS
  5
21D
 10
104.693439
 20
148.417881
 30
0.0
 11
81.715439
 21
148.417881
 31
0.0
  0
ARC
  8
LC-002-002-RND-0
  6
CONTINUOUS
  5
21E
 10
228.005439
 20
192.328503
 30
0.0
 40
3.79
 50
90.0
 51
180.0
  0
LINE
  8
LC-001-002-----0
  6
CONTINUOUS
  5
21F
 10
104.693439
 20
148.417881
 30
0.0
 11
104.693439
 21
158.917881
 31
0.0
  0
LINE
  8
LC-001-002-----0
  6
CONTINUOUS
  5
220
 10
108.193439
 20
144.917881
 30
0.0
 11
108.193439
 21
154.417881
 31
0.0
  0
ARC
  8
LC-002-002-RND-0
  6
CONTINUOUS
  5
221
 10
228.005439
 20
61.952503
 30
0.0
 40
3.79
 50
180.0
 51
270.0
  0
ARC
  8
LC-002-002-RND-0
  6
CONTINUOUS
  5
222
 10
358.381439
 20
61.952503
 30
0.0
 40
3.79
 50
270.0
 51
0.0
  0
ARC
  8
LC-001-002-----0
  6
CONTINUOUS
  5
223
 10
237.215439
 20
86.640503
 30
0.0
 40
3.5
 50
180.0
 51
0.0
  0
ARC
  8
LC-001-002-----0
  6
CONTINUOUS
  5
224
 10
237.215439
 20
167.640503
 30
0.0
 40
3.5
 50
0.0
 51
180.0
  0
LINE
  8
LC-001-002-----0
  6
CONTINUOUS
  5
225
 10
233.715439
 20
86.640503
 30
0.0
 11
233.715439
 21
167.640503
 31
0.0
  0
LINE
  8
LC-001-002-----0
  6
CONTINUOUS
  5
226
 10
35.215439
 20
145.917881
 30
0.0
 11
77.198928
 21
145.917881
 31
0.0
  0
LINE
  8
LC-001-002-----0
  6
CONTINUOUS
  5
227
 10
240.715439
 20
86.640503
 30
0.0
 11
240.715439
 21
167.640503
 31
0.0
  0
ARC
  8
LC-001-002-----0
  6
CONTINUOUS
  5
228
 10
253.215439
 20
102.640503
 30
0.0
 40
3.5
 50
180.0
 51
0.0
  0
ARC
  8
LC-001-002-----0
  6
CONTINUOUS
  5
229
 10
253.215439
 20
151.640503
 30
0.0
 40
3.5
 50
0.0
 51
180.0
  0
LINE
  8
LC-001-002-----0
  6
CONTINUOUS
  5
22A
 10
249.715439
 20
102.640503
 30
0.0
 11
249.715439
 21
151.640503
 31
0.0
  0
LINE
  8
LC-001-002-----0
  6
CONTINUOUS
  5
22B
 10
256.715439
 20
102.640503
 30
0.0
 11
256.715439
 21
151.640503
 31
0.0
  0
ARC
  8
LC-001-002-----0
  6
CONTINUOUS
  5
22C
 10
269.215439
 20
118.640503
 30
0.0
 40
3.5
 50
180.0
 51
0.0
  0
ARC
  8
LC-001-002-----0
  6
CONTINUOUS
  5
22D
 10
269.215439
 20
135.640503
 30
0.0
 40
3.5
 50
0.0
 51
180.0
  0
LINE
  8
LC-001-002-----0
  6
CONTINUOUS
  5
22E
 10
265.715439
 20
118.640503
 30
0.0
 11
265.715439
 21
135.640503
 31
0.0
  0
LINE
  8
LC-001-002-----0
  6
CONTINUOUS
  5
22F
 10
272.715439
 20
118.640503
 30
0.0
 11
272.715439
 21
135.640503
 31
0.0
  0
ARC
  8
LC-001-002-----0
  6
CONTINUOUS
  5
230
 10
333.693439
 20
71.162503
 30
0.0
 40
3.5
 50
270.0
 51
90.0
  0
ARC
  8
LC-001-002-----0
  6
CONTINUOUS
  5
231
 10
252.693439
 20
71.162503
 30
0.0
 40
3.5
 50
90.0
 51
270.0
  0
ARC
  8
LC-001-002-----0
  6
CONTINUOUS
  5
232
 10
252.693439
 20
183.118503
 30
0.0
 40
3.5
 50
90.0
 51
270.0
  0
ARC
  8
LC-001-002-----0
  6
CONTINUOUS
  5
233
 10
333.693439
 20
183.118503
 30
0.0
 40
3.5
 50
270.0
 51
90.0
  0
LINE
  8
LC-001-002-----0
  6
CONTINUOUS
  5
234
 10
252.693439
 20
186.618503
 30
0.0
 11
333.693439
 21
186.618503
 31
0.0
  0
LINE
  8
LC-001-002-----0
  6
CONTINUOUS
  5
235
 10
252.693439
 20
179.618503
 30
0.0
 11
320.860964
 21
179.618503
 31
0.0
  0
LINE
  8
LC-001-002-----0
  6
CONTINUOUS
  5
236
 10
328.080964
 20
179.618503
 30
0.0
 11
333.693439
 21
179.618503
 31
0.0
  0
LINE
  8
LC-001-002-----0
  6
CONTINUOUS
  5
237
 10
333.693439
 20
67.662503
 30
0.0
 11
252.693439
 21
67.662503
 31
0.0
  0
LINE
  8
LC-001-002-----0
  6
CONTINUOUS
  5
238
 10
333.693439
 20
74.662503
 30
0.0
 11
252.693439
 21
74.662503
 31
0.0
  0
ARC
  8
LC-001-002-----0
  6
CONTINUOUS
  5
239
 10
268.693439
 20
167.118503
 30
0.0
 40
3.5
 50
90.0
 51
270.0
  0
ARC
  8
LC-001-002-----0
  6
CONTINUOUS
  5
23A
 10
317.693439
 20
167.118503
 30
0.0
 40
3.5
 50
270.0
 51
90.0
  0
LINE
  8
LC-001-002-----0
  6
CONTINUOUS
  5
23B
 10
268.693439
 20
170.618503
 30
0.0
 11
317.693439
 21
170.618503
 31
0.0
  0
LINE
  8
LC-001-002-----0
  6
CONTINUOUS
  5
23C
 10
81.715439
 20
148.417881
 30
0.0
 11
86.215439
 21
148.417881
 31
0.0
  0
LINE
  8
LC-001-002-----0
  6
CONTINUOUS
  5
23D
 10
268.693439
 20
163.618503
 30
0.0
 11
317.693439
 21
163.618503
 31
0.0
  0
LINE
  8
LC-001-002-----0
  6
CONTINUOUS
  5
23E
 10
-37.762561
 20
157.417881
 30
0.0
 11
-37.762561
 21
158.917881
 31
0.0
  0
LINE
  8
LC-001-002-----0
  6
CONTINUOUS
  5
23F
 10
138.193439
 20
157.417881
 30
0.0
 11
138.193439
 21
154.417881
 31
0.0
  0
LINE
  8
LC-001-002-----0
  6
CONTINUOUS
  5
240
 10
223.693439
 20
59.640503
 30
0.0
 11
223.693439
 21
194.640503
 31
0.0
  0
LINE
  8
LC-001-002-----0
  6
CONTINUOUS
  5
241
 10
35.215439
 20
159.417881
 30
0.0
 11
107.693439
 21
159.417881
 31
0.0
  0
ARC
  8
LC-001-002-----0
  6
CONTINUOUS
  5
242
 10
317.693439
 20
87.162503
 30
0.0
 40
3.5
 50
270.0
 51
90.0
  0
LINE
  8
LC-001-002-----0
  6
CONTINUOUS
  5
243
 10
35.215439
 20
134.417881
 30
0.0
 11
77.452055
 21
134.417881
 31
0.0
  0
ARC
  8
LC-001-002-----0
  6
CONTINUOUS
  5
244
 10
268.693439
 20
87.162503
 30
0.0
 40
3.5
 50
90.0
 51
270.0
  0
LINE
  8
LC-001-002-----0
  6
CONTINUOUS
  5
245
 10
81.715439
 20
148.417881
 30
0.0
 11
35.215439
 21
148.417881
 31
0.0
  0
LINE
  8
LC-001-002-----0
  6
CONTINUOUS
  5
246
 10
-37.762561
 20
157.417881
 30
0.0
 11
-67.762561
 21
157.417881
 31
0.0
  0
LINE
  8
LC-001-002-----0
  6
CONTINUOUS
  5
247
 10
-67.762561
 20
154.417881
 30
0.0
 11
-37.762561
 21
154.417881
 31
0.0
  0
LINE
  8
LC-001-002-----0
  6
CONTINUOUS
  5
248
 10
317.693439
 20
83.662503
 30
0.0
 11
268.693439
 21
83.662503
 31
0.0
  0
LINE
  8
LC-001-002-----0
  6
CONTINUOUS
  5
249
 10
360.693439
 20
57.640503
 30
0.0
 11
225.693439
 21
57.640503
 31
0.0
  0
LINE
  8
LC-001-002-----0
  6
CONTINUOUS
  5
24A
 10
362.693439
 20
194.640503
 30
0.0
 11
362.693439
 21
59.640503
 31
0.0
  0
LINE
  8
LC-001-002-----0
  6
CONTINUOUS
  5
24B
 10
225.693439
 20
196.640503
 30
0.0
 11
360.693439
 21
196.640503
 31
0.0
  0
LINE
  8
LC-001-002-----0
  6
CONTINUOUS
 62
     2
  5
24C
 10
-3.514556
 20
232.74
 30
0.0
 11
-3.514556
 21
247.74
 31
0.0
  0
LINE
  8
LC-001-002-----0
  6
CONTINUOUS
  5
24D
 10
-11.284561
 20
148.417881
 30
0.0
 11
-11.284561
 21
145.917881
 31
0.0
  0
LINE
  8
LC-001-002-----0
  6
CONTINUOUS
  5
24E
 10
317.693439
 20
90.662503
 30
0.0
 11
268.693439
 21
90.662503
 31
0.0
  0
ARC
  8
LC-001-002-----0
  6
CONTINUOUS
  5
24F
 10
284.693439
 20
151.118503
 30
0.0
 40
3.5
 50
90.0
 51
270.0
  0
ARC
  8
LC-001-002-----0
  6
CONTINUOUS
  5
250
 10
301.693439
 20
151.118503
 30
0.0
 40
3.5
 50
270.0
 51
90.0
  0
LINE
  8
LC-001-002-----0
  6
CONTINUOUS
  5
251
 10
284.693439
 20
154.618503
 30
0.0
 11
301.693439
 21
154.618503
 31
0.0
  0
LINE
  8
LC-001-002-----0
  6
CONTINUOUS
  5
252
 10
228.005439
 20
196.118503
 30
0.0
 11
358.381439
 21
196.118503
 31
0.0
  0
LINE
  8
LC-001-002-----0
  6
CONTINUOUS
  5
253
 10
362.171439
 20
192.328503
 30
0.0
 11
362.171439
 21
61.952503
 31
0.0
  0
LINE
  8
LC-001-002-----0
  6
CONTINUOUS
  5
254
 10
358.381439
 20
58.162503
 30
0.0
 11
228.005439
 21
58.162503
 31
0.0
  0
LINE
  8
LC-001-002-----0
  6
CONTINUOUS
  5
255
 10
284.693439
 20
147.618503
 30
0.0
 11
301.693439
 21
147.618503
 31
0.0
  0
ARC
  8
LC-001-002-----0
  6
CONTINUOUS
  5
256
 10
301.693439
 20
103.162503
 30
0.0
 40
3.5
 50
270.0
 51
90.0
  0
ARC
  8
LC-001-002-----0
  6
CONTINUOUS
  5
257
 10
284.693439
 20
103.162503
 30
0.0
 40
3.5
 50
90.0
 51
270.0
  0
LINE
  8
LC-001-002-----0
  6
CONTINUOUS
  5
258
 10
301.693439
 20
99.662503
 30
0.0
 11
284.693439
 21
99.662503
 31
0.0
  0
LINE
  8
LC-001-002-----0
  6
CONTINUOUS
  5
259
 10
301.693439
 20
106.662503
 30
0.0
 11
284.693439
 21
106.662503
 31
0.0
  0
ARC
  8
LC-001-002-----0
  6
CONTINUOUS
  5
25A
 10
349.171439
 20
167.640503
 30
0.0
 40
3.5
 50
0.0
 51
180.0
  0
ARC
  8
LC-001-002-----0
  6
CONTINUOUS
  5
25B
 10
349.171439
 20
86.640503
 30
0.0
 40
3.5
 50
180.0
 51
0.0
  0
LINE
  8
LC-001-002-----0
  6
CONTINUOUS
  5
25C
 10
352.671439
 20
167.640503
 30
0.0
 11
352.671439
 21
86.640503
 31
0.0
  0
LINE
  8
LC-001-002-----0
  6
CONTINUOUS
  5
25D
 10
345.671439
 20
167.640503
 30
0.0
 11
345.671439
 21
86.640503
 31
0.0
  0
ARC
  8
LC-001-002-----0
  6
CONTINUOUS
  5
25E
 10
333.171439
 20
151.640503
 30
0.0
 40
3.5
 50
0.0
 51
180.0
  0
ARC
  8
LC-001-002-----0
  6
CONTINUOUS
  5
25F
 10
333.171439
 20
102.640503
 30
0.0
 40
3.5
 50
180.0
 51
0.0
  0
LINE
  8
LC-001-002-----0
  6
CONTINUOUS
  5
260
 10
336.671439
 20
151.640503
 30
0.0
 11
336.671439
 21
102.640503
 31
0.0
  0
LINE
  8
LC-001-002-----0
  6
CONTINUOUS
  5
261
 10
329.671439
 20
151.640503
 30
0.0
 11
329.671439
 21
102.640503
 31
0.0
  0
ARC
  8
LC-001-002-----0
  6
CONTINUOUS
  5
262
 10
317.171439
 20
135.640503
 30
0.0
 40
3.5
 50
0.0
 51
180.0
  0
ARC
  8
LC-001-002-----0
  6
CONTINUOUS
  5
263
 10
317.171439
 20
118.640503
 30
0.0
 40
3.5
 50
180.0
 51
0.0
  0
LINE
  8
LC-001-002-----0
  6
CONTINUOUS
  5
264
 10
320.671439
 20
135.640503
 30
0.0
 11
320.671439
 21
118.640503
 31
0.0
  0
LINE
  8
LC-001-002-----0
  6
CONTINUOUS
  5
265
 10
-30.784561
 20
153.917881
 30
0.0
 11
-24.784561
 21
153.917881
 31
0.0
  0
LINE
  8
LC-001-002-----0
  6
CONTINUOUS
  5
266
 10
-30.784561
 20
148.417881
 30
0.0
 11
-30.784561
 21
153.917881
 31
0.0
  0
LINE
  8
LC-001-002-----0
  6
CONTINUOUS
  5
267
 10
-11.284561
 20
145.917881
 30
0.0
 11
-6.784561
 21
145.917881
 31
0.0
  0
LINE
  8
LC-001-002-----0
  6
CONTINUOUS
  5
268
 10
-13.784561
 20
142.917881
 30
0.0
 11
-13.784561
 21
145.417881
 31
0.0
  0
LINE
  8
LC-001-002-----0
  6
CONTINUOUS
  5
269
 10
-13.784561
 20
142.917881
 30
0.0
 11
-10.084561
 21
142.917881
 31
0.0
  0
LINE
  8
LC-001-002-----0
  6
CONTINUOUS
  5
26A
 10
-16.784561
 20
145.417881
 30
0.0
 11
-13.784561
 21
145.417881
 31
0.0
  0
LINE
  8
LC-001-002-----0
  6
CONTINUOUS
  5
26B
 10
-16.784561
 20
148.455512
 30
0.0
 11
-16.784561
 21
153.917881
 31
0.0
  0
LINE
  8
LC-001-002-----0
  6
CONTINUOUS
  5
26C
 10
-16.784561
 20
153.917881
 30
0.0
 11
-24.784561
 21
153.917881
 31
0.0
  0
ARC
  8
LC-002-002-RND-0
  6
CONTINUOUS
  5
26D
 10
-37.262561
 20
158.917881
 30
0.0
 40
0.5
 50
90.0
 51
180.0
  0
ARC
  8
LC-002-002-RND-0
  6
CONTINUOUS
  5
26E
 10
-34.762561
 20
158.917881
 30
0.0
 40
0.5
 50
360.0
 51
90.0
  0
LINE
  8
LC-001-002-----0
  6
CONTINUOUS
  5
26F
 10
-19.784561
 20
144.917881
 30
0.0
 11
-19.784561
 21
43.417881
 31
0.0
  0
LINE
  8
LC-001-002-----0
  6
CONTINUOUS
  5
270
 10
-16.784561
 20
145.417881
 30
0.0
 11
-16.784561
 21
38.917881
 31
0.0
  0
LINE
  8
LC-001-002-----0
  6
CONTINUOUS
  5
271
 10
-18.57879
 20
38.917881
 30
0.0
 11
35.215439
 21
38.917881
 31
0.0
  0
LINE
  8
LC-001-002-----0
  6
CONTINUOUS
  5
272
 10
-19.784561
 20
43.417881
 30
0.0
 11
-18.57879
 21
38.917881
 31
0.0
  0
LINE
  8
LC-001-002-----0
  6
CONTINUOUS
  5
273
 10
-9.584561
 20
134.417881
 30
0.0
 11
-6.784561
 21
134.417881
 31
0.0
  0
LINE
  8
LC-001-002-----0
  6
CONTINUOUS
  5
274
 10
-9.584561
 20
142.417881
 30
0.0
 11
-9.584561
 21
134.417881
 31
0.0
  0
ARC
  8
LC-001-002-----0
  6
CONTINUOUS
  5
275
 10
-10.084561
 20
142.417881
 30
0.0
 40
0.5
 50
360.0
 51
90.0
  0
LINE
  8
LC-001-002-----0
  6
CONTINUOUS
  5
276
 10
-6.784561
 20
145.917881
 30
0.0
 11
-6.784561
 21
134.417881
 31
0.0
  0
LINE
  8
LC-001-002-----0
  6
CONTINUOUS
  5
277
 10
-17.784561
 20
148.417881
 30
0.0
 11
-17.784561
 21
148.417881
 31
0.0
  0
LINE
  8
LC-001-002-----0
  6
CONTINUOUS
  5
278
 10
-13.784561
 20
145.417881
 30
0.0
 11
-16.784561
 21
145.417881
 31
0.0
  0
LINE
  8
LC-001-002-----0
  6
CONTINUOUS
  5
279
 10
-34.262561
 20
148.417881
 30
0.0
 11
-11.284561
 21
148.417881
 31
0.0
  0
LINE
  8
LC-001-002-----0
  6
CONTINUOUS
  5
27A
 10
-34.262561
 20
148.417881
 30
0.0
 11
-34.262561
 21
158.917881
 31
0.0
  0
LINE
  8
LC-001-002-----0
  6
CONTINUOUS
  5
27B
 10
-37.762561
 20
144.917881
 30
0.0
 11
-37.762561
 21
154.417881
 31
0.0
  0
LINE
  8
LC-001-002-----0
  6
CONTINUOUS
  5
27C
 10
35.215439
 20
145.917881
 30
0.0
 11
-6.768051
 21
145.917881
 31
0.0
  0
LINE
  8
LC-001-002-----0
  6
CONTINUOUS
  5
27D
 10
-11.284561
 20
148.417881
 30
0.0
 11
-15.784561
 21
148.417881
 31
0.0
  0
LINE
  8
LC-001-002-----0
  6
CONTINUOUS
  5
27E
 10
-67.762561
 20
157.417881
 30
0.0
 11
-67.762561
 21
154.417881
 31
0.0
  0
LINE
  8
LC-001-002-----0
  6
CONTINUOUS
  5
27F
 10
35.215439
 20
159.417881
 30
0.0
 11
-37.262561
 21
159.417881
 31
0.0
  0
LINE
  8
LC-001-002-----0
  6
CONTINUOUS
  5
280
 10
35.215439
 20
134.417881
 30
0.0
 11
-7.021178
 21
134.417881
 31
0.0
  0
LINE
  8
LC-001-002-----0
  6
CONTINUOUS
  5
281
 10
-11.284561
 20
148.417881
 30
0.0
 11
35.215439
 21
148.417881
 31
0.0
  0
LINE
  8
LC-001-002-----0
  6
CONTINUOUS
 62
     2
  5
282
 10
11.485444
 20
232.74
 30
0.0
 11
11.485444
 21
247.74
 31
0.0
  0
LINE
  8
LC-001-002-----0
  6
CONTINUOUS
 62
     2
  5
283
 10
-3.514556
 20
190.74
 30
0.0
 11
11.485444
 21
190.74
 31
0.0
  0
LINE
  8
LC-001-002-----0
  6
CONTINUOUS
 62
     2
  5
284
 10
-3.514556
 20
205.74
 30
0.0
 11
11.485444
 21
205.74
 31
0.0
  0
LINE
  8
LC-001-002-----0
  6
CONTINUOUS
 62
     2
  5
285
 10
-3.514556
 20
190.74
 30
0.0
 11
-3.514556
 21
205.74
 31
0.0
  0
LINE
  8
LC-001-002-----0
  6
CONTINUOUS
 62
     2
  5
286
 10
11.485444
 20
190.74
 30
0.0
 11
11.485444
 21
205.74
 31
0.0
  0
LINE
  8
LC-001-002-----0
  6
CONTINUOUS
  5
287
 10
90.21493
 20
53.917716
 30
0.0
 11
90.214954
 21
45.917822
 31
0.0
  0
LINE
  8
LC-001-002-----0
  6
CONTINUOUS
  5
288
 10
87.215001
 20
35.917907
 30
0.0
 11
95.215046
 21
35.917907
 31
0.0
  0
ARC
  8
LC-002-002-RND-0
  6
CONTINUOUS
  5
289
 10
-26.762561
 20
156.917881
 30
0.0
 40
2.5
 50
0.0
 51
90.0
  0
ARC
  8
LC-002-002-RND-0
  6
CONTINUOUS
  5
28A
 10
-14.762561
 20
156.917881
 30
0.0
 40
2.5
 50
90.0
 51
180.0
  0
ARC
  8
LC-002-002-RND-0
  6
CONTINUOUS
  5
28B
 10
-10.762561
 20
156.917881
 30
0.0
 40
2.5
 50
0.0
 51
90.0
  0
ARC
  8
LC-002-002-RND-0
  6
CONTINUOUS
  5
28C
 10
1.237439
 20
156.917881
 30
0.0
 40
2.5
 50
90.0
 51
180.0
  0
ARC
  8
LC-002-002-RND-0
  6
CONTINUOUS
  5
28D
 10
5.237439
 20
156.917881
 30
0.0
 40
2.5
 50
0.0
 51
90.0
  0
ARC
  8
LC-002-002-RND-0
  6
CONTINUOUS
  5
28E
 10
17.237439
 20
156.917881
 30
0.0
 40
2.5
 50
90.0
 51
180.0
  0
ARC
  8
LC-002-002-RND-0
  6
CONTINUOUS
  5
28F
 10
-31.262561
 20
156.917881
 30
0.0
 40
2.5
 50
90.0
 51
180.0
  0
ARC
  8
LC-002-002-RND-0
  6
CONTINUOUS
  5
290
 10
53.193439
 20
156.917881
 30
0.0
 40
2.5
 50
0.0
 51
90.0
  0
ARC
  8
LC-002-002-RND-0
  6
CONTINUOUS
  5
291
 10
65.193439
 20
156.917881
 30
0.0
 40
2.5
 50
90.0
 51
180.0
  0
ARC
  8
LC-002-002-RND-0
  6
CONTINUOUS
  5
292
 10
69.193439
 20
156.917881
 30
0.0
 40
2.5
 50
0.0
 51
90.0
  0
ARC
  8
LC-002-002-RND-0
  6
CONTINUOUS
  5
293
 10
81.193439
 20
156.917881
 30
0.0
 40
2.5
 50
90.0
 51
180.0
  0
ARC
  8
LC-002-002-RND-0
  6
CONTINUOUS
  5
294
 10
85.193439
 20
156.917881
 30
0.0
 40
2.5
 50
0.0
 51
90.0
  0
ARC
  8
LC-002-002-RND-0
  6
CONTINUOUS
  5
295
 10
97.193439
 20
156.917881
 30
0.0
 40
2.5
 50
90.0
 51
180.0
  0
ARC
  8
LC-002-002-RND-0
  6
CONTINUOUS
  5
296
 10
101.693439
 20
156.917881
 30
0.0
 40
2.5
 50
0.0
 51
90.0
  0
LINE
  8
LC-001-002-----0
  6
CONTINUOUS
  5
297
 10
-26.762561
 20
159.417881
 30
0.0
 11
-14.762561
 21
159.417881
 31
0.0
  0
LINE
  8
LC-001-002-----0
  6
CONTINUOUS
  5
298
 10
-10.762561
 20
159.417881
 30
0.0
 11
1.237439
 21
159.417881
 31
0.0
  0
LINE
  8
LC-001-002-----0
  6
CONTINUOUS
  5
299
 10
102.693439
 20
149.417881
 30
0.0
 11
102.693439
 21
156.917881
 31
0.0
  0
LINE
  8
LC-001-002-----0
  6
CONTINUOUS
  5
29A
 10
70.908729
 20
35.917907
 30
0.0
 11
70.908729
 21
38.917881
 31
0.0
  0
LINE
  8
LC-001-002-----0
  6
CONTINUOUS
  5
29B
 10
-0.477852
 20
35.917907
 30
0.0
 11
-0.477852
 21
38.917881
 31
0.0
  0
LINE
  8
LC-001-002-----0
  6
CONTINUOUS
  5
29C
 10
-2.599155
 20
35.917907
 30
0.0
 11
-2.599155
 21
38.917881
 31
0.0
  0
LINE
  8
LC-001-002-----0
  6
CONTINUOUS
  5
29D
 10
95.215046
 20
35.917907
 30
0.0
 11
95.215046
 21
45.917132
 31
0.0
  0
LINE
  8
LC-001-002-----0
  6
CONTINUOUS
  5
29E
 10
92.214952
 20
55.917738
 30
0.0
 11
92.214952
 21
45.917822
 31
0.0
  0
LINE
  8
LC-001-002-----0
  6
CONTINUOUS
  5
29F
 10
93.715058
 20
45.917822
 30
0.0
 11
95.215046
 21
45.917822
 31
0.0
  0
LINE
  8
LC-001-002-----0
  6
CONTINUOUS
  5
2A0
 10
92.214952
 20
55.917738
 30
0.0
 11
90.21493
 21
53.917716
 31
0.0
  0
LINE
  8
LC-001-002-----0
  6
CONTINUOUS
  5
2A1
 10
93.715058
 20
45.917822
 30
0.0
 11
92.214952
 21
45.917822
 31
0.0
  0
LINE
  8
LC-001-002-----0
  6
CONTINUOUS
  5
2A2
 10
33.715451
 20
38.917881
 30
0.0
 11
36.715426
 21
38.917881
 31
0.0
  0
LINE
  8
LC-001-002-----0
  6
CONTINUOUS
  5
2A3
 10
36.715426
 20
35.917907
 30
0.0
 11
36.715426
 21
38.917881
 31
0.0
  0
LINE
  8
LC-001-002-----0
  6
CONTINUOUS
  5
2A4
 10
-7.199024
 20
35.917907
 30
0.0
 11
-7.199024
 21
38.917881
 31
0.0
  0
LINE
  8
LC-001-002-----0
  6
CONTINUOUS
  5
2A5
 10
-7.199024
 20
38.917881
 30
0.0
 11
-0.477852
 21
38.917881
 31
0.0
  0
LINE
  8
LC-001-002-----0
  6
CONTINUOUS
  5
2A6
 10
-16.784124
 20
35.917907
 30
0.0
 11
36.715426
 21
35.917907
 31
0.0
  0
LINE
  8
LC-001-002-----0
  6
CONTINUOUS
  5
2A7
 10
36.715426
 20
35.917907
 30
0.0
 11
70.908729
 21
35.917907
 31
0.0
  0
LINE
  8
LC-001-002-----0
  6
CONTINUOUS
  5
2A8
 10
70.908729
 20
35.917907
 30
0.0
 11
87.193362
 21
35.917907
 31
0.0
  0
LINE
  8
LC-001-002-----0
  6
CONTINUOUS
  5
2A9
 10
33.715451
 20
35.917907
 30
0.0
 11
33.715451
 21
38.917881
 31
0.0
  0
LINE
  8
LC-001-002-----0
  6
CONTINUOUS
  5
2AA
 10
-19.784052
 20
53.917716
 30
0.0
 11
-19.784098
 21
38.917881
 31
0.0
  0
ARC
  8
LC-001-002-----0
  6
CONTINUOUS
  5
2AB
 10
101.693439
 20
156.917881
 30
0.0
 40
1.0
 50
0.0
 51
90.0
  0
LINE
  8
LC-001-002-----0
  6
CONTINUOUS
  5
2AC
 10
-16.784124
 20
35.917907
 30
0.0
 11
-24.784168
 21
35.917907
 31
0.0
  0
LINE
  8
LC-001-002-----0
  6
CONTINUOUS
  5
2AD
 10
101.693439
 20
157.917881
 30
0.0
 11
97.193439
 21
157.917881
 31
0.0
  0
ARC
  8
LC-001-002-----0
  6
CONTINUOUS
  5
2AE
 10
97.193439
 20
156.917881
 30
0.0
 40
1.0
 50
90.0
 51
180.0
  0
LINE
  8
LC-001-002-----0
  6
CONTINUOUS
  5
2AF
 10
-24.784168
 20
35.917907
 30
0.0
 11
-24.784168
 21
45.917132
 31
0.0
  0
LINE
  8
LC-001-002-----0
  6
CONTINUOUS
  5
2B0
 10
-21.784075
 20
55.917738
 30
0.0
 11
-21.784075
 21
45.917822
 31
0.0
  0
LINE
  8
LC-001-002-----0
  6
CONTINUOUS
  5
2B1
 10
-23.284181
 20
45.917822
 30
0.0
 11
-24.784168
 21
45.917822
 31
0.0
  0
LINE
  8
LC-001-002-----0
  6
CONTINUOUS
  5
2B2
 10
-21.784075
 20
55.917738
 30
0.0
 11
-19.784052
 21
53.917716
 31
0.0
  0
LINE
  8
LC-001-002-----0
  6
CONTINUOUS
  5
2B3
 10
-19.784098
 20
38.917881
 30
0.0
 11
-16.784124
 21
38.917881
 31
0.0
  0
LINE
  8
LC-001-002-----0
  6
CONTINUOUS
  5
2B4
 10
-16.784124
 20
38.917881
 30
0.0
 11
-16.784124
 21
35.917907
 31
0.0
  0
LINE
  8
LC-001-002-----0
  6
CONTINUOUS
  5
2B5
 10
96.193439
 20
156.917881
 30
0.0
 11
96.193439
 21
155.417881
 31
0.0
  0
LINE
  8
LC-001-002-----0
  6
CONTINUOUS
  5
2B6
 10
-33.762561
 20
149.417881
 30
0.0
 11
-33.762561
 21
156.917881
 31
0.0
  0
LINE
  8
LC-001-002-----0
  6
CONTINUOUS
  5
2B7
 10
-23.284181
 20
45.917822
 30
0.0
 11
-21.784075
 21
45.917822
 31
0.0
  0
LINE
  8
LC-001-002-----0
  6
CONTINUOUS
  5
2B8
 10
-31.262561
 20
159.417881
 30
0.0
 11
-26.762561
 21
159.417881
 31
0.0
  0
LINE
  8
LC-001-002-----0
  6
CONTINUOUS
  5
2B9
 10
90.214976
 20
38.917881
 30
0.0
 11
87.215001
 21
38.917881
 31
0.0
  0
LINE
  8
LC-001-002-----0
  6
CONTINUOUS
  5
2BA
 10
87.215001
 20
38.917881
 30
0.0
 11
87.215001
 21
35.917907
 31
0.0
  0
LINE
  8
LC-001-002-----0
  6
CONTINUOUS
  5
2BB
 10
-24.262561
 20
156.917881
 30
0.0
 11
-24.262561
 21
155.417881
 31
0.0
  0
LINE
  8
LC-001-002-----0
  6
CONTINUOUS
  5
2BC
 10
90.21493
 20
53.917716
 30
0.0
 11
90.214976
 21
38.917881
 31
0.0
  0
LINE
  8
LC-001-002-----0
  6
CONTINUOUS
  5
2BD
 10
92.214952
 20
55.917738
 30
0.0
 11
90.21493
 21
53.917716
 31
0.0
  0
LINE
  8
LC-001-002-----0
  6
CONTINUOUS
  5
2BE
 10
-25.762561
 20
155.417881
 30
0.0
 11
-15.762561
 21
155.417881
 31
0.0
  0
LINE
  8
LC-001-002-----0
  6
CONTINUOUS
  5
2BF
 10
92.214952
 20
55.917738
 30
0.0
 11
92.214952
 21
45.917822
 31
0.0
  0
LINE
  8
LC-001-002-----0
  6
CONTINUOUS
  5
2C0
 10
-17.262561
 20
155.417881
 30
0.0
 11
-17.262561
 21
156.917881
 31
0.0
  0
LINE
  8
LC-001-002-----0
  6
CONTINUOUS
  5
2C1
 10
95.215046
 20
35.917907
 30
0.0
 11
95.215046
 21
45.917132
 31
0.0
  0
LINE
  8
LC-001-002-----0
  6
CONTINUOUS
  5
2C2
 10
87.215001
 20
35.917907
 30
0.0
 11
95.215046
 21
35.917907
 31
0.0
  0
LINE
  8
LC-001-002-----0
  6
CONTINUOUS
  5
2C3
 10
77.629901
 20
35.917907
 30
0.0
 11
77.629901
 21
38.917881
 31
0.0
  0
LINE
  8
LC-001-002-----0
  6
CONTINUOUS
  5
2C4
 10
77.629901
 20
38.917881
 30
0.0
 11
70.908729
 21
38.917881
 31
0.0
  0
LINE
  8
LC-001-002-----0
  6
CONTINUOUS
  5
2C5
 10
73.030032
 20
35.917907
 30
0.0
 11
73.030032
 21
38.917881
 31
0.0
  0
LINE
  8
LC-001-002-----0
  6
CONTINUOUS
  5
2C6
 10
-14.762561
 20
159.417881
 30
0.0
 11
-10.762561
 21
159.417881
 31
0.0
  0
LINE
  8
LC-001-002-----0
  6
CONTINUOUS
  5
2C7
 10
-8.262561
 20
156.917881
 30
0.0
 11
-8.262561
 21
155.417881
 31
0.0
  0
LINE
  8
LC-001-002-----0
  6
CONTINUOUS
  5
2C8
 10
-9.762561
 20
155.417881
 30
0.0
 11
0.237439
 21
155.417881
 31
0.0
  0
LINE
  8
LC-001-002-----0
  6
CONTINUOUS
  5
2C9
 10
-1.262561
 20
155.417881
 30
0.0
 11
-1.262561
 21
156.917881
 31
0.0
  0
LINE
  8
LC-001-002-----0
  6
CONTINUOUS
  5
2CA
 10
1.237439
 20
159.417881
 30
0.0
 11
5.237439
 21
159.417881
 31
0.0
  0
LINE
  8
LC-001-002-----0
  6
CONTINUOUS
  5
2CB
 10
7.737439
 20
156.917881
 30
0.0
 11
7.737439
 21
155.417881
 31
0.0
  0
LINE
  8
LC-001-002-----0
  6
CONTINUOUS
  5
2CC
 10
6.237439
 20
155.417881
 30
0.0
 11
16.237439
 21
155.417881
 31
0.0
  0
LINE
  8
LC-001-002-----0
  6
CONTINUOUS
  5
2CD
 10
14.737439
 20
155.417881
 30
0.0
 11
14.737439
 21
156.917881
 31
0.0
  0
LINE
  8
LC-001-002-----0
  6
CONTINUOUS
  5
2CE
 10
17.237439
 20
159.417881
 30
0.0
 11
35.215439
 21
159.417881
 31
0.0
  0
LINE
  8
LC-001-002-----0
  6
CONTINUOUS
  5
2CF
 10
104.193439
 20
149.417881
 30
0.0
 11
104.193439
 21
156.917881
 31
0.0
  0
LINE
  8
LC-001-002-----0
  6
CONTINUOUS
  5
2D0
 10
101.693439
 20
159.417881
 30
0.0
 11
97.193439
 21
159.417881
 31
0.0
  0
LINE
  8
LC-001-002-----0
  6
CONTINUOUS
  5
2D1
 10
94.693439
 20
156.917881
 30
0.0
 11
94.693439
 21
155.417881
 31
0.0
  0
LINE
  8
LC-001-002-----0
  6
CONTINUOUS
  5
2D2
 10
96.193439
 20
155.417881
 30
0.0
 11
86.193439
 21
155.417881
 31
0.0
  0
LINE
  8
LC-001-002-----0
  6
CONTINUOUS
  5
2D3
 10
87.693439
 20
155.417881
 30
0.0
 11
87.693439
 21
156.917881
 31
0.0
  0
LINE
  8
LC-001-002-----0
  6
CONTINUOUS
  5
2D4
 10
85.193439
 20
159.417881
 30
0.0
 11
81.193439
 21
159.417881
 31
0.0
  0
LINE
  8
LC-001-002-----0
  6
CONTINUOUS
  5
2D5
 10
78.693439
 20
156.917881
 30
0.0
 11
78.693439
 21
155.417881
 31
0.0
  0
LINE
  8
LC-001-002-----0
  6
CONTINUOUS
  5
2D6
 10
80.193439
 20
155.417881
 30
0.0
 11
70.193439
 21
155.417881
 31
0.0
  0
LINE
  8
LC-001-002-----0
  6
CONTINUOUS
  5
2D7
 10
71.693439
 20
155.417881
 30
0.0
 11
71.693439
 21
156.917881
 31
0.0
  0
LINE
  8
LC-001-002-----0
  6
CONTINUOUS
  5
2D8
 10
69.193439
 20
159.417881
 30
0.0
 11
65.193439
 21
159.417881
 31
0.0
  0
LINE
  8
LC-001-002-----0
  6
CONTINUOUS
  5
2D9
 10
62.693439
 20
156.917881
 30
0.0
 11
62.693439
 21
155.417881
 31
0.0
  0
LINE
  8
LC-001-002-----0
  6
CONTINUOUS
  5
2DA
 10
64.193439
 20
155.417881
 30
0.0
 11
54.193439
 21
155.417881
 31
0.0
  0
LINE
  8
LC-001-002-----0
  6
CONTINUOUS
  5
2DB
 10
55.693439
 20
155.417881
 30
0.0
 11
55.693439
 21
156.917881
 31
0.0
  0
LINE
  8
LC-001-002-----0
  6
CONTINUOUS
  5
2DC
 10
53.193439
 20
159.417881
 30
0.0
 11
35.215439
 21
159.417881
 31
0.0
  0
LINE
  8
LC-001-002-----0
  6
CONTINUOUS
  5
2DD
 10
53.193439
 20
159.417881
 30
0.0
 11
65.193439
 21
159.417881
 31
0.0
  0
LINE
  8
LC-001-002-----0
  6
CONTINUOUS
  5
2DE
 10
86.193439
 20
155.417881
 30
0.0
 11
86.193439
 21
156.917881
 31
0.0
  0
ARC
  8
LC-001-002-----0
  6
CONTINUOUS
  5
2DF
 10
85.193439
 20
156.917881
 30
0.0
 40
1.0
 50
0.0
 51
90.0
  0
LINE
  8
LC-001-002-----0
  6
CONTINUOUS
  5
2E0
 10
85.193439
 20
157.917881
 30
0.0
 11
81.193439
 21
157.917881
 31
0.0
  0
ARC
  8
LC-001-002-----0
  6
CONTINUOUS
  5
2E1
 10
81.193439
 20
156.917881
 30
0.0
 40
1.0
 50
90.0
 51
180.0
  0
LINE
  8
LC-001-002-----0
  6
CONTINUOUS
  5
2E2
 10
80.193439
 20
156.917881
 30
0.0
 11
80.193439
 21
155.417881
 31
0.0
  0
LINE
  8
LC-001-002-----0
  6
CONTINUOUS
  5
2E3
 10
69.193439
 20
159.417881
 30
0.0
 11
81.193439
 21
159.417881
 31
0.0
  0
LINE
  8
LC-001-002-----0
  6
CONTINUOUS
  5
2E4
 10
70.193439
 20
155.417881
 30
0.0
 11
70.193439
 21
156.917881
 31
0.0
  0
ARC
  8
LC-001-002-----0
  6
CONTINUOUS
  5
2E5
 10
69.193439
 20
156.917881
 30
0.0
 40
1.0
 50
0.0
 51
90.0
  0
LINE
  8
LC-001-002-----0
  6
CONTINUOUS
  5
2E6
 10
69.193439
 20
157.917881
 30
0.0
 11
65.193439
 21
157.917881
 31
0.0
  0
ARC
  8
LC-001-002-----0
  6
CONTINUOUS
  5
2E7
 10
65.193439
 20
156.917881
 30
0.0
 40
1.0
 50
90.0
 51
180.0
  0
LINE
  8
LC-001-002-----0
  6
CONTINUOUS
  5
2E8
 10
64.193439
 20
156.917881
 30
0.0
 11
64.193439
 21
155.417881
 31
0.0
  0
LINE
  8
LC-001-002-----0
  6
CONTINUOUS
  5
2E9
 10
85.193439
 20
159.417881
 30
0.0
 11
97.193439
 21
159.417881
 31
0.0
  0
LINE
  8
LC-001-002-----0
  6
CONTINUOUS
  5
2EA
 10
54.193439
 20
155.417881
 30
0.0
 11
54.193439
 21
156.917881
 31
0.0
  0
ARC
  8
LC-001-002-----0
  6
CONTINUOUS
  5
2EB
 10
53.193439
 20
156.917881
 30
0.0
 40
1.0
 50
0.0
 51
90.0
  0
LINE
  8
LC-001-002-----0
  6
CONTINUOUS
  5
2EC
 10
53.193439
 20
157.917881
 30
0.0
 11
35.215439
 21
157.917881
 31
0.0
  0
LINE
  8
LC-001-002-----0
  6
CONTINUOUS
  5
2ED
 10
35.215439
 20
157.917881
 30
0.0
 11
17.237439
 21
157.917881
 31
0.0
  0
ARC
  8
LC-001-002-----0
  6
CONTINUOUS
  5
2EE
 10
17.237439
 20
156.917881
 30
0.0
 40
1.0
 50
90.0
 51
180.0
  0
LINE
  8
LC-001-002-----0
  6
CONTINUOUS
  5
2EF
 10
16.237439
 20
156.917881
 30
0.0
 11
16.237439
 21
155.417881
 31
0.0
  0
LINE
  8
LC-001-002-----0
  6
CONTINUOUS
  5
2F0
 10
-33.762561
 20
149.417881
 30
0.0
 11
-32.262561
 21
149.417881
 31
0.0
  0
LINE
  8
LC-001-002-----0
  6
CONTINUOUS
  5
2F1
 10
6.237439
 20
155.417881
 30
0.0
 11
6.237439
 21
156.917881
 31
0.0
  0
ARC
  8
LC-001-002-----0
  6
CONTINUOUS
  5
2F2
 10
5.237439
 20
156.917881
 30
0.0
 40
1.0
 50
0.0
 51
90.0
  0
LINE
  8
LC-001-002-----0
  6
CONTINUOUS
  5
2F3
 10
5.237439
 20
157.917881
 30
0.0
 11
1.237439
 21
157.917881
 31
0.0
  0
ARC
  8
LC-001-002-----0
  6
CONTINUOUS
  5
2F4
 10
1.237439
 20
156.917881
 30
0.0
 40
1.0
 50
90.0
 51
180.0
  0
LINE
  8
LC-001-002-----0
  6
CONTINUOUS
  5
2F5
 10
0.237439
 20
156.917881
 30
0.0
 11
0.237439
 21
155.417881
 31
0.0
  0
LINE
  8
LC-001-002-----0
  6
CONTINUOUS
  5
2F6
 10
102.693439
 20
149.417881
 30
0.0
 11
104.193439
 21
149.417881
 31
0.0
  0
LINE
  8
LC-001-002-----0
  6
CONTINUOUS
  5
2F7
 10
-9.762561
 20
155.417881
 30
0.0
 11
-9.762561
 21
156.917881
 31
0.0
  0
ARC
  8
LC-001-002-----0
  6
CONTINUOUS
  5
2F8
 10
-10.762561
 20
156.917881
 30
0.0
 40
1.0
 50
0.0
 51
90.0
  0
LINE
  8
LC-001-002-----0
  6
CONTINUOUS
  5
2F9
 10
-10.762561
 20
157.917881
 30
0.0
 11
-14.762561
 21
157.917881
 31
0.0
  0
ARC
  8
LC-001-002-----0
  6
CONTINUOUS
  5
2FA
 10
-14.762561
 20
156.917881
 30
0.0
 40
1.0
 50
90.0
 51
180.0
  0
LINE
  8
LC-001-002-----0
  6
CONTINUOUS
  5
2FB
 10
-15.762561
 20
156.917881
 30
0.0
 11
-15.762561
 21
155.417881
 31
0.0
  0
LINE
  8
LC-001-002-----0
  6
CONTINUOUS
  5
2FC
 10
-25.762561
 20
155.417881
 30
0.0
 11
-25.762561
 21
156.917881
 31
0.0
  0
ARC
  8
LC-001-002-----0
  6
CONTINUOUS
  5
2FD
 10
-26.762561
 20
156.917881
 30
0.0
 40
1.0
 50
0.0
 51
90.0
  0
LINE
  8
LC-001-002-----0
  6
CONTINUOUS
  5
2FE
 10
-26.762561
 20
157.917881
 30
0.0
 11
-31.262561
 21
157.917881
 31
0.0
  0
ARC
  8
LC-001-002-----0
  6
CONTINUOUS
  5
2FF
 10
-31.262561
 20
156.917881
 30
0.0
 40
1.0
 50
90.0
 51
180.0
  0
LINE
  8
LC-001-002-----0
  6
CONTINUOUS
  5
300
 10
-32.262561
 20
156.917881
 30
0.0
 11
-32.262561
 21
149.417881
 31
0.0
  0
LINE
  8
LC-001-002-----0
  6
CONTINUOUS
  5
301
 10
5.237439
 20
159.417881
 30
0.0
 11
17.237439
 21
159.417881
 31
0.0
  0
LINE
  8
LC-001-002-----0
  6
DASHDOT
 62
     2
  5
303
 10
35.215439
 20
35.917907
 30
0.0
 11
35.215439
 21
159.417881
 31
0.0
  0
LINE
  8
LC-001-002-----0
  6
CONTINUOUS
 62
     2
  5
304
 10
87.215439
 20
52.917881
 30
0.0
 11
-16.784561
 21
52.917881
 31
0.0
  0
ENDSEC
  0
EOF
