  0
SECTION
  2
HEADER
  9
$ACADVER
  1
AC1009
  9
$DWGCODEPAGE
  3
dos850
  9
$INSBASE
 10
0.0
 20
0.0
 30
0.0
  9
$EXTMIN
 10
-17.906903
 20
-52.548
 30
0.0
  9
$EXTMAX
 10
822.093097
 20
541.452
 30
0.0
  9
$LIMMIN
 10
-17.906903
 20
-52.548
  9
$LIMMAX
 10
822.093097
 20
541.452
  9
$ORTHOMODE
 70
     0
  9
$REGENMODE
 70
     1
  9
$FILLMODE
 70
     1
  9
$QTEXTMODE
 70
     0
  9
$MIRRTEXT
 70
     1
  9
$DRAGMODE
 70
     2
  9
$LTSCALE
 40
2.0
  9
$OSMODE
 70
     0
  9
$ATTMODE
 70
     1
  9
$TEXTSIZE
 40
0.2
  9
$TRACEWID
 40
0.05
  9
$TEXTSTYLE
  7
STANDARD
  9
$CLAYER
  8
0
  9
$CELTYPE
  6
BYBLOCK
  9
$CECOLOR
 62
     7
  9
$DIMSCALE
 40
2.0
  9
$DIMASZ
 40
3.5
  9
$DIMEXO
 40
0.0625
  9
$DIMDLI
 40
0.38
  9
$DIMRND
 40
0.0
  9
$DIMDLE
 40
0.0
  9
$DIMEXE
 40
0.18
  9
$DIMTP
 40
0.0
  9
$DIMTM
 40
0.0
  9
$DIMTXT
 40
3.5
  9
$DIMCEN
 40
0.09
  9
$DIMTSZ
 40
0.0
  9
$DIMTOL
 70
     0
  9
$DIMLIM
 70
     0
  9
$DIMTIH
 70
     1
  9
$DIMTOH
 70
     1
  9
$DIMSE1
 70
     0
  9
$DIMSE2
 70
     0
  9
$DIMTAD
 70
     1
  9
$DIMZIN
 70
     0
  9
$DIMBLK
  1

  9
$DIMASO
 70
     1
  9
$DIMSHO
 70
     1
  9
$DIMPOST
  1

  9
$DIMAPOST
  1

  9
$DIMALT
 70
     0
  9
$DIMALTD
 70
     2
  9
$DIMALTF
 40
25.4
  9
$DIMLFAC
 40
1.0
  9
$DIMTOFL
 70
     0
  9
$DIMTVP
 40
0.0
  9
$DIMTIX
 70
     0
  9
$DIMSOXD
 70
     0
  9
$DIMSAH
 70
     0
  9
$DIMBLK1
  1

  9
$DIMBLK2
  1

  9
$DIMSTYLE
  2
STANDARD
  9
$DIMCLRD
 70
     0
  9
$DIMCLRE
 70
     0
  9
$DIMCLRT
 70
     0
  9
$DIMTFAC
 40
1.0
  9
$DIMGAP
 40
0.09
  9
$LUNITS
 70
     2
  9
$LUPREC
 70
     6
  9
$AXISMODE
 70
     0
  9
$AXISUNIT
 10
0.0
 20
0.0
  9
$SKETCHINC
 40
0.1
  9
$FILLETRAD
 40
0.0
  9
$AUNITS
 70
     0
  9
$AUPREC
 70
     0
  9
$MENU
  1
acad
  9
$ELEVATION
 40
0.0
  9
$PELEVATION
 40
0.0
  9
$THICKNESS
 40
0.0
  9
$LIMCHECK
 70
     0
  9
$BLIPMODE
 70
     1
  9
$CHAMFERA
 40
0.0
  9
$CHAMFERB
 40
0.0
  9
$SKPOLY
 70
     0
  9
$TDCREATE
 40
0.000000000
  9
$TDUPDATE
 40
0.000000000
  9
$TDINDWG
 40
0.0000000000
  9
$TDUSRTIMER
 40
0.0000000000
  9
$USRTIMER
 70
     1
  9
$ANGBASE
 50
0.0
  9
$ANGDIR
 70
     0
  9
$PDMODE
 70
     0
  9
$PDSIZE
 40
0.0
  9
$PLINEWID
 40
0.0
  9
$COORDS
 70
     0
  9
$SPLFRAME
 70
     0
  9
$SPLINETYPE
 70
     6
  9
$SPLINESEGS
 70
     8
  9
$ATTDIA
 70
     0
  9
$ATTREQ
 70
     1
  9
$HANDLING
 70
     1
  9
$HANDSEED
  5
664
  9
$SURFTAB1
 70
     6
  9
$SURFTAB2
 70
     6
  9
$SURFTYPE
 70
     6
  9
$SURFU
 70
     6
  9
$SURFV
 70
     6
  9
$UCSNAME
  2

  9
$UCSORG
 10
0.0
 20
0.0
 30
0.0
  9
$UCSXDIR
 10
1.0
 20
0.0
 30
0.0
  9
$UCSYDIR
 10
0.0
 20
1.0
 30
0.0
  9
$PUCSNAME
  2

  9
$PUCSORG
 10
0.0
 20
0.0
 30
0.0
  9
$PUCSXDIR
 10
1.0
 20
0.0
 30
0.0
  9
$PUCSYDIR
 10
0.0
 20
1.0
 30
0.0
  9
$USERI1
 70
     0
  9
$USERI2
 70
     0
  9
$USERI3
 70
     0
  9
$USERI4
 70
     0
  9
$USERI5
 70
     0
  9
$USERR1
 40
0.0
  9
$USERR2
 40
0.0
  9
$USERR3
 40
0.0
  9
$USERR4
 40
0.0
  9
$USERR5
 40
0.0
  9
$WORLDVIEW
 70
     1
  9
$SHADEDGE
 70
     3
  9
$SHADEDIF
 70
    70
  9
$TILEMODE
 70
     1
  9
$MAXACTVP
 70
    16
  9
$PINSBASE
 10
0.0
 20
0.0
 30
0.0
  9
$PLIMCHECK
 70
     0
  9
$PEXTMIN
 10
-17.906903
 20
-52.548
 30
0.0
  9
$PEXTMAX
 10
822.093097
 20
541.452
 30
0.0
  9
$PLIMMIN
 10
-17.906903
 20
-52.548
  9
$PLIMMAX
 10
822.093097
 20
541.452
  9
$UNITMODE
 70
     0
  9
$VISRETAIN
 70
     0
  9
$PLINEGEN
 70
     1
  9
$PSLTSCALE
 70
     0
  9
$TREEDEPTH
 70
  3020
  0
ENDSEC
  0
SECTION
  2
TABLES
  0
TABLE
  2
VPORT
 70
     1
  0
VPORT
  2
*ACTIVE
 70
     0
 10
0.0
 20
0.0
 11
1.0
 21
1.0
 12
420.0
 22
297.0
 13
0.0
 23
0.0
 14
1.0
 24
1.0
 15
0.0
 25
0.0
 16
0.0
 26
0.0
 36
1.0
 17
-17.906903
 27
-52.548
 37
0.0
 40
594.0
 41
1.604229
 42
50.0
 43
0.0
 44
0.0
 50
0.0
 51
0.0
 71
     0
 72
   100
 73
     1
 74
     1
 75
     0
 76
     0
 77
     0
 78
     0
  0
ENDTAB
  0
TABLE
  2
LTYPE
 70
     3
  0
LTYPE
  2
CONTINUOUS
 70
    64
  3
Solid line
 72
    65
 73
     0
 40
0.0
  0
LTYPE
  2
DASHED
 70
    64
  3
__ __ __ __ __
 72
    65
 73
     2
 40
6.25
 49
5.0
 49
-1.25
  0
LTYPE
  2
DASHDOT
 70
    64
  3
__ . __ . __ . __ . __
 72
    65
 73
     4
 40
7.5
 49
5.0
 49
-1.25
 49
0.0
 49
-1.25
  0
ENDTAB
  0
TABLE
  2
LAYER
 70
    12
  0
LAYER
  2
0
 70
     0
 62
     7
  6
CONTINUOUS
  0
LAYER
  2
LC-INFO-1-2-MM-A3-0
 70
     1
 62
   255
  6
BYBLOCK
  0
LAYER
  2
LC-3D-HIDDEN
 70
     0
 62
     9
  6
DASHED
  0
LAYER
  2
LC-CUT-HIDDEN
 70
     0
 62
     9
  6
DASHED
  0
LAYER
  2
LC-VIEWPORT
 70
     0
 62
     7
  6
BYBLOCK
  0
LAYER
  2
LC-001-002-----0
 70
     0
 62
     1
  6
BYBLOCK
  0
LAYER
  2
LC-002-002-RND-0
 70
     0
 62
     1
  6
BYBLOCK
  0
LAYER
  2
LC-003-002-___-0
 70
     0
 62
     2
  6
DASHED
  0
LAYER
  2
LC-004-005-----0
 70
     0
 62
     2
  6
BYBLOCK
  0
LAYER
  2
LC-005-003-MTH-0
 70
     0
 62
     2
  6
BYBLOCK
  0
LAYER
  2
LC-006-003-MTG-0
 70
     0
 62
     2
  6
BYBLOCK
  0
LAYER
  2
LC-007-003-----0
 70
     0
 62
     2
  6
BYBLOCK
  0
ENDTAB
  0
TABLE
  2
STYLE
 70
     4
  0
STYLE
  2
STANDARD
 70
     0
 40
0.0
 41
1.0
 50
0.0
 71
     0
 42
0.0
  3
txt
  4

  0
STYLE
  2
LCTX15-400-0-0-ARIAL
 70
    64
 40
3.5
 41
1.0
 50
0.0
 71
     0
 42
0.0
  3
Arial
  4

  0
STYLE
  2
LCTX0-400-0-0-DIN-SCHRIFT
 70
    64
 40
3.5
 41
1.0
 50
0.0
 71
     0
 42
0.0
  3
MONOTXT
  4

  0
STYLE
  2
LCTX15-400-0-0-DIN-SCHRIFTP
 70
    64
 40
0.0
 41
1.0
 50
1.5
 71
     0
 42
3.5
  3
STANDARD
  4

  0
ENDTAB
  0
TABLE
  2
VIEW
 70
     0
  0
ENDTAB
  0
TABLE
  2
UCS
 70
     0
  0
ENDTAB
  0
TABLE
  2
APPID
 70
     1
  0
APPID
  2
ACAD
 70
     0
  0
ENDTAB
  0
TABLE
  2
DIMSTYLE
 70
     3
  0
DIMSTYLE
  2
STANDARD
 70
     0
  3

  4

  5

  6

  7

 40
1.0
 41
0.18
 42
0.0625
 43
0.38
 44
0.18
 45
0.0
 46
0.0
 47
0.0
 48
0.0
 71
     0
 72
     0
 73
     1
 74
     1
 75
     0
 76
     0
 77
     0
 78
     0
140
0.18
141
0.09
142
0.0
143
25.4
144
1.0
145
0.0
146
1.0
147
0.09
170
     0
171
     2
172
     0
173
     0
174
     0
175
     0
176
     0
177
     0
178
     0
  0
DIMSTYLE
  2
LC-DIM-L-0140-02-02
 70
     0
  3

  4

  5

  6

  7

 40
2.0
 41
3.5
 42
0.0
 43
7.5
 44
1.8
 45
0.0
 46
0.0
 47
0.0
 48
0.0
 71
     0
 72
     0
 73
     0
 74
     0
 75
     0
 76
     0
 77
     1
 78
     8
140
14.0
141
0.0
142
0.0
143
25.4
144
1.0
145
0.0
146
0.71
147
1.5
170
     0
171
     2
172
     0
173
     0
174
     0
175
     0
176
     2
177
     2
178
     2
  0
DIMSTYLE
  2
LC-DIM-L-0140-01-02
 70
     0
  3

  4

  5

  6

  7

 40
2.0
 41
3.5
 42
0.0
 43
7.5
 44
1.8
 45
0.0
 46
0.0
 47
0.0
 48
0.0
 71
     0
 72
     0
 73
     0
 74
     0
 75
     0
 76
     0
 77
     1
 78
     8
140
14.0
141
0.0
142
0.0
143
25.4
144
1.0
145
0.0
146
0.71
147
1.5
170
     0
171
     2
172
     0
173
     0
174
     0
175
     0
176
     2
177
     2
178
     2
  0
ENDTAB
  0
ENDSEC
  0
SECTION
  2
BLOCKS
  0
BLOCK
  8
0
  5
3C
  2
*X0
 70
    65
 10
0.0
 20
0.0
 30
0.0
  3
*X0
  0
LINE
  8
LC-004-005-----0
 62
     2
  5
3E
 10
276.8366
 20
384.31683
 30
0.0
 11
277.725767
 21
385.205998
 31
0.0
  0
LINE
  8
LC-004-005-----0
 62
     2
  5
3F
 10
274.047631
 20
384.356289
 30
0.0
 11
277.725763
 21
388.034421
 31
0.0
  0
LINE
  8
LC-004-005-----0
 62
     2
  5
40
 10
274.825763
 20
387.962848
 30
0.0
 11
277.725759
 21
390.862844
 31
0.0
  0
LINE
  8
LC-004-005-----0
 62
     2
  5
41
 10
274.82576
 20
390.791272
 30
0.0
 11
277.725756
 21
393.691268
 31
0.0
  0
LINE
  8
LC-004-005-----0
 62
     2
  5
42
 10
274.825756
 20
393.619695
 30
0.0
 11
277.725752
 21
396.519691
 31
0.0
  0
LINE
  8
LC-004-005-----0
 62
     2
  5
43
 10
274.825752
 20
396.448118
 30
0.0
 11
277.725748
 21
399.348114
 31
0.0
  0
LINE
  8
LC-004-005-----0
 62
     2
  5
44
 10
274.825748
 20
399.276541
 30
0.0
 11
277.725744
 21
402.176537
 31
0.0
  0
LINE
  8
LC-004-005-----0
 62
     2
  5
45
 10
274.825744
 20
402.104965
 30
0.0
 11
277.72574
 21
405.004961
 31
0.0
  0
LINE
  8
LC-004-005-----0
 62
     2
  5
46
 10
274.82574
 20
404.933388
 30
0.0
 11
278.225736
 21
408.333383
 31
0.0
  0
LINE
  8
LC-004-005-----0
 62
     2
  5
47
 10
274.825736
 20
407.761811
 30
0.0
 11
278.225732
 21
411.161806
 31
0.0
  0
LINE
  8
LC-004-005-----0
 62
     2
  5
48
 10
274.825732
 20
410.590234
 30
0.0
 11
277.552328
 21
413.31683
 31
0.0
  0
ENDBLK
  8
0
  5
49
  0
BLOCK
  8
0
  5
6B
  2
*X1
 70
    65
 10
0.0
 20
0.0
 30
0.0
  3
*X1
  0
LINE
  8
LC-004-005-----0
 62
     2
  5
6C
 10
291.559702
 20
449.951621
 30
0.0
 11
292.529759
 21
450.921678
 31
0.0
  0
LINE
  8
LC-004-005-----0
 62
     2
  5
6D
 10
305.998473
 20
484.189382
 30
0.0
 11
306.351629
 21
484.542538
 31
0.0
  0
LINE
  8
LC-004-005-----0
 62
     2
  5
6E
 10
304.50832
 20
485.527656
 30
0.0
 11
307.297503
 21
488.316839
 31
0.0
  0
ENDBLK
  8
0
  5
6F
  0
BLOCK
  8
0
  5
72
  2
*X2
 70
    65
 10
0.0
 20
0.0
 30
0.0
  3
*X2
  0
LINE
  8
LC-004-005-----0
 62
     2
  5
73
 10
405.691613
 20
448.11802
 30
0.0
 11
406.327223
 21
448.75363
 31
0.0
  0
LINE
  8
LC-004-005-----0
 62
     2
  5
74
 10
404.921071
 20
450.175905
 30
0.0
 11
405.572463
 21
450.827297
 31
0.0
  0
LINE
  8
LC-004-005-----0
 62
     2
  5
75
 10
393.345931
 20
483.855599
 30
0.0
 11
393.496308
 21
484.005976
 31
0.0
  0
LINE
  8
LC-004-005-----0
 62
     2
  5
76
 10
391.127246
 20
484.465341
 30
0.0
 11
392.741549
 21
486.079644
 31
0.0
  0
LINE
  8
LC-004-005-----0
 62
     2
  5
77
 10
390.372487
 20
486.539009
 30
0.0
 11
391.986789
 21
488.153311
 31
0.0
  0
ENDBLK
  8
0
  5
78
  0
BLOCK
  8
0
  5
7D
  2
*X3
 70
    65
 10
0.0
 20
0.0
 30
0.0
  3
*X3
  0
LINE
  8
LC-004-005-----0
 62
     2
  5
7E
 10
421.086582
 20
384.317029
 30
0.0
 11
423.087978
 21
386.318425
 31
0.0
  0
LINE
  8
LC-004-005-----0
 62
     2
  5
7F
 10
419.72524
 20
385.784115
 30
0.0
 11
422.625236
 21
388.684111
 31
0.0
  0
LINE
  8
LC-004-005-----0
 62
     2
  5
80
 10
419.725236
 20
388.612538
 30
0.0
 11
422.625232
 21
391.512534
 31
0.0
  0
LINE
  8
LC-004-005-----0
 62
     2
  5
81
 10
419.725232
 20
391.440961
 30
0.0
 11
422.625229
 21
394.340957
 31
0.0
  0
LINE
  8
LC-004-005-----0
 62
     2
  5
82
 10
419.725229
 20
394.269384
 30
0.0
 11
422.625225
 21
397.169381
 31
0.0
  0
LINE
  8
LC-004-005-----0
 62
     2
  5
83
 10
419.725225
 20
397.097808
 30
0.0
 11
422.625221
 21
399.997804
 31
0.0
  0
LINE
  8
LC-004-005-----0
 62
     2
  5
84
 10
419.725221
 20
399.926231
 30
0.0
 11
422.625217
 21
402.826227
 31
0.0
  0
LINE
  8
LC-004-005-----0
 62
     2
  5
85
 10
419.725217
 20
402.754654
 30
0.0
 11
422.625213
 21
405.65465
 31
0.0
  0
LINE
  8
LC-004-005-----0
 62
     2
  5
86
 10
419.725213
 20
405.583077
 30
0.0
 11
422.625209
 21
408.483073
 31
0.0
  0
LINE
  8
LC-004-005-----0
 62
     2
  5
87
 10
419.22521
 20
407.911501
 30
0.0
 11
422.625205
 21
411.311497
 31
0.0
  0
LINE
  8
LC-004-005-----0
 62
     2
  5
88
 10
419.225206
 20
410.739925
 30
0.0
 11
421.802312
 21
413.317031
 31
0.0
  0
ENDBLK
  8
0
  5
89
  0
BLOCK
  8
0
  5
C6
  2
*X4
 70
    65
 10
0.0
 20
0.0
 30
0.0
  3
*X4
  0
LINE
  8
LC-004-005-----0
 62
     2
  5
C7
 10
250.863376
 20
413.816998
 30
0.0
 11
249.863376
 21
414.816998
 31
0.0
  0
LINE
  8
LC-004-005-----0
 62
     2
  5
C8
 10
248.891708
 20
412.960239
 30
0.0
 11
248.126782
 21
413.725165
 31
0.0
  0
LINE
  8
LC-004-005-----0
 62
     2
  5
C9
 10
246.680178
 20
412.343342
 30
0.0
 11
245.381866
 21
413.641654
 31
0.0
  0
LINE
  8
LC-004-005-----0
 62
     2
  5
CA
 10
243.088246
 20
413.106847
 30
0.0
 11
241.789934
 21
414.405159
 31
0.0
  0
LINE
  8
LC-004-005-----0
 62
     2
  5
CB
 10
239.496314
 20
413.870352
 30
0.0
 11
238.198002
 21
415.168664
 31
0.0
  0
LINE
  8
LC-004-005-----0
 62
     2
  5
CC
 10
235.904382
 20
414.633857
 30
0.0
 11
234.60607
 21
415.932169
 31
0.0
  0
LINE
  8
LC-004-005-----0
 62
     2
  5
CD
 10
232.31245
 20
415.397362
 30
0.0
 11
231.014138
 21
416.695674
 31
0.0
  0
LINE
  8
LC-004-005-----0
 62
     2
  5
CE
 10
228.720518
 20
416.160867
 30
0.0
 11
227.422206
 21
417.459179
 31
0.0
  0
ENDBLK
  8
0
  5
CF
  0
BLOCK
  8
0
  5
F7
  2
*D5
 70
    65
 10
0.0
 20
0.0
 30
0.0
  3
*D5
  0
LINE
  8
LC-005-003-MTH-0
 62
     2
  5
F9
 10
286.227023
 20
372.865441
 30
0.0
 11
286.227023
 21
310.8
 31
0.0
  0
LINE
  8
LC-005-003-MTH-0
 62
     2
  5
FA
 10
411.227023
 20
372.865441
 30
0.0
 11
411.227023
 21
310.8
 31
0.0
  0
LINE
  8
LC-006-003-MTG-0
 62
     2
  5
FC
 10
286.227023
 20
327.6
 30
0.0
 11
411.227023
 21
327.6
 31
0.0
  0
LINE
  8
LC-007-003-----0
 62
     2
  5
FE
 10
313.987479
 20
331.254733
 30
0.0
 11
286.227023
 21
327.6
 31
0.0
  0
LINE
  8
LC-007-003-----0
 62
     2
  5
FF
 10
286.227023
 20
327.6
 30
0.0
 11
313.987479
 21
323.945267
 31
0.0
  0
LINE
  8
LC-007-003-----0
 62
     2
  5
100
 10
313.987479
 20
323.945267
 30
0.0
 11
313.987479
 21
331.254733
 31
0.0
  0
LINE
  8
LC-007-003-----0
 62
     2
  5
101
 10
314.04976
 20
330.304503
 30
0.0
 11
293.507023
 21
327.6
 31
0.0
  0
LINE
  8
LC-007-003-----0
 62
     2
  5
102
 10
293.507023
 20
327.6
 30
0.0
 11
314.04976
 21
324.895497
 31
0.0
  0
LINE
  8
LC-007-003-----0
 62
     2
  5
103
 10
314.112042
 20
329.354272
 30
0.0
 11
300.787023
 21
327.6
 31
0.0
  0
LINE
  8
LC-007-003-----0
 62
     2
  5
104
 10
300.787023
 20
327.6
 30
0.0
 11
314.112042
 21
325.845728
 31
0.0
  0
LINE
  8
LC-007-003-----0
 62
     2
  5
105
 10
314.174323
 20
328.404041
 30
0.0
 11
308.067023
 21
327.6
 31
0.0
  0
LINE
  8
LC-007-003-----0
 62
     2
  5
106
 10
308.067023
 20
327.6
 30
0.0
 11
314.174323
 21
326.795959
 31
0.0
  0
LINE
  8
LC-007-003-----0
 62
     2
  5
107
 10
383.466567
 20
323.945267
 30
0.0
 11
411.227023
 21
327.6
 31
0.0
  0
LINE
  8
LC-007-003-----0
 62
     2
  5
108
 10
411.227023
 20
327.6
 30
0.0
 11
383.466567
 21
331.254733
 31
0.0
  0
LINE
  8
LC-007-003-----0
 62
     2
  5
109
 10
383.466567
 20
331.254733
 30
0.0
 11
383.466567
 21
323.945267
 31
0.0
  0
LINE
  8
LC-007-003-----0
 62
     2
  5
10A
 10
383.404285
 20
324.895497
 30
0.0
 11
403.947023
 21
327.6
 31
0.0
  0
LINE
  8
LC-007-003-----0
 62
     2
  5
10B
 10
403.947023
 20
327.6
 30
0.0
 11
383.404285
 21
330.304503
 31
0.0
  0
LINE
  8
LC-007-003-----0
 62
     2
  5
10C
 10
383.342004
 20
325.845728
 30
0.0
 11
396.667023
 21
327.6
 31
0.0
  0
LINE
  8
LC-007-003-----0
 62
     2
  5
10D
 10
396.667023
 20
327.6
 30
0.0
 11
383.342004
 21
329.354272
 31
0.0
  0
LINE
  8
LC-007-003-----0
 62
     2
  5
10E
 10
383.279723
 20
326.795959
 30
0.0
 11
389.387023
 21
327.6
 31
0.0
  0
LINE
  8
LC-007-003-----0
 62
     2
  5
10F
 10
389.387023
 20
327.6
 30
0.0
 11
383.279723
 21
328.404041
 31
0.0
  0
TEXT
  8
LC-007-003-----0
 62
     7
  5
110
 10
290.075183
 20
335.427554
 30
0.0
 40
28.0
  1
%%c125
 41
0.9
 51
15.0
  7
LCTX15-400-0-0-ARIAL
 72
     1
 11
353.075183
 21
335.427554
 31
0.0
  0
ENDBLK
  8
0
  5
111
  0
BLOCK
  8
0
  5
117
  2
*X6
 70
    65
 10
0.0
 20
0.0
 30
0.0
  3
*X6
  0
LINE
  8
LC-004-005-----0
 62
     2
  5
118
 10
437.643035
 20
413.71353
 30
0.0
 11
436.935928
 21
414.420637
 31
0.0
  0
LINE
  8
LC-004-005-----0
 62
     2
  5
119
 10
436.156965
 20
412.371172
 30
0.0
 11
435.21111
 21
413.317027
 31
0.0
  0
LINE
  8
LC-004-005-----0
 62
     2
  5
11A
 10
433.382714
 20
412.316997
 30
0.0
 11
432.382695
 21
413.317015
 31
0.0
  0
LINE
  8
LC-004-005-----0
 62
     2
  5
11B
 10
430.56104
 20
412.310243
 30
0.0
 11
429.725693
 21
413.14559
 31
0.0
  0
LINE
  8
LC-004-005-----0
 62
     2
  5
11C
 10
428.902568
 20
411.140288
 30
0.0
 11
428.163927
 21
411.878929
 31
0.0
  0
LINE
  8
LC-004-005-----0
 62
     2
  5
11D
 10
428.725259
 20
408.48917
 30
0.0
 11
427.725257
 21
409.489172
 31
0.0
  0
LINE
  8
LC-004-005-----0
 62
     2
  5
11E
 10
428.725265
 20
405.660737
 30
0.0
 11
427.725263
 21
406.660739
 31
0.0
  0
LINE
  8
LC-004-005-----0
 62
     2
  5
11F
 10
428.72527
 20
402.832304
 30
0.0
 11
427.725268
 21
403.832306
 31
0.0
  0
LINE
  8
LC-004-005-----0
 62
     2
  5
120
 10
428.725276
 20
400.003872
 30
0.0
 11
427.725274
 21
401.003874
 31
0.0
  0
LINE
  8
LC-004-005-----0
 62
     2
  5
121
 10
428.725282
 20
397.175439
 30
0.0
 11
427.72528
 21
398.175441
 31
0.0
  0
LINE
  8
LC-004-005-----0
 62
     2
  5
122
 10
428.725287
 20
394.347006
 30
0.0
 11
427.725285
 21
395.347008
 31
0.0
  0
LINE
  8
LC-004-005-----0
 62
     2
  5
123
 10
427.94501
 20
392.298856
 30
0.0
 11
427.236697
 21
393.007169
 31
0.0
  0
LINE
  8
LC-004-005-----0
 62
     2
  5
124
 10
426.077687
 20
391.337752
 30
0.0
 11
425.103432
 21
392.312007
 31
0.0
  0
LINE
  8
LC-004-005-----0
 62
     2
  5
125
 10
424.725652
 20
389.86136
 30
0.0
 11
423.726286
 21
390.860726
 31
0.0
  0
ENDBLK
  8
0
  5
126
  0
BLOCK
  8
0
  5
129
  2
*X7
 70
    65
 10
0.0
 20
0.0
 30
0.0
  3
*X7
  0
LINE
  8
LC-004-005-----0
 62
     2
  5
12A
 10
472.95955
 20
417.994995
 30
0.0
 11
472.432723
 21
418.521821
 31
0.0
  0
LINE
  8
LC-004-005-----0
 62
     2
  5
12B
 10
471.380857
 20
416.74526
 30
0.0
 11
470.555305
 21
417.570812
 31
0.0
  0
LINE
  8
LC-004-005-----0
 62
     2
  5
12C
 10
469.065825
 20
416.231865
 30
0.0
 11
468.222699
 21
417.074991
 31
0.0
  0
LINE
  8
LC-004-005-----0
 62
     2
  5
12D
 10
466.733219
 20
415.736044
 30
0.0
 11
465.890093
 21
416.57917
 31
0.0
  0
LINE
  8
LC-004-005-----0
 62
     2
  5
12E
 10
464.400613
 20
415.240223
 30
0.0
 11
463.557487
 21
416.083348
 31
0.0
  0
LINE
  8
LC-004-005-----0
 62
     2
  5
12F
 10
462.068007
 20
414.744401
 30
0.0
 11
461.224881
 21
415.587527
 31
0.0
  0
LINE
  8
LC-004-005-----0
 62
     2
  5
130
 10
459.735401
 20
414.24858
 30
0.0
 11
458.892276
 21
415.091706
 31
0.0
  0
LINE
  8
LC-004-005-----0
 62
     2
  5
131
 10
457.402795
 20
413.752759
 30
0.0
 11
456.55967
 21
414.595885
 31
0.0
  0
LINE
  8
LC-004-005-----0
 62
     2
  5
132
 10
455.07019
 20
413.256938
 30
0.0
 11
454.227064
 21
414.100064
 31
0.0
  0
LINE
  8
LC-004-005-----0
 62
     2
  5
133
 10
452.737584
 20
412.761117
 30
0.0
 11
451.894458
 21
413.604242
 31
0.0
  0
LINE
  8
LC-004-005-----0
 62
     2
  5
134
 10
450.35328
 20
412.316993
 30
0.0
 11
447.866607
 21
414.803666
 31
0.0
  0
ENDBLK
  8
0
  5
135
  0
BLOCK
  8
0
  5
159
  2
*X8
 70
    65
 10
0.0
 20
0.0
 30
0.0
  3
*X8
  0
LINE
  8
LC-004-005-----0
 62
     2
  5
15A
 10
269.72583
 20
409.09668
 30
0.0
 11
268.725828
 21
410.096682
 31
0.0
  0
LINE
  8
LC-004-005-----0
 62
     2
  5
15B
 10
266.50587
 20
412.31664
 30
0.0
 11
265.505857
 21
413.316653
 31
0.0
  0
LINE
  8
LC-004-005-----0
 62
     2
  5
15C
 10
269.725837
 20
406.268246
 30
0.0
 11
268.725835
 21
407.268248
 31
0.0
  0
LINE
  8
LC-004-005-----0
 62
     2
  5
15D
 10
263.677454
 20
412.316629
 30
0.0
 11
262.67743
 21
413.316653
 31
0.0
  0
LINE
  8
LC-004-005-----0
 62
     2
  5
15E
 10
269.725843
 20
403.439812
 30
0.0
 11
268.725841
 21
404.439815
 31
0.0
  0
LINE
  8
LC-004-005-----0
 62
     2
  5
15F
 10
259.349045
 20
413.816611
 30
0.0
 11
258.349049
 21
414.816607
 31
0.0
  0
LINE
  8
LC-004-005-----0
 62
     2
  5
160
 10
269.72585
 20
400.611379
 30
0.0
 11
268.725848
 21
401.611381
 31
0.0
  0
LINE
  8
LC-004-005-----0
 62
     2
  5
161
 10
269.725856
 20
397.782945
 30
0.0
 11
268.725854
 21
398.782947
 31
0.0
  0
LINE
  8
LC-004-005-----0
 62
     2
  5
162
 10
273.71847
 20
390.961904
 30
0.0
 11
272.370759
 21
392.309615
 31
0.0
  0
LINE
  8
LC-004-005-----0
 62
     2
  5
163
 10
269.725863
 20
394.954511
 30
0.0
 11
268.725861
 21
395.954514
 31
0.0
  0
LINE
  8
LC-004-005-----0
 62
     2
  5
164
 10
273.535282
 20
388.316665
 30
0.0
 11
272.725519
 21
389.126429
 31
0.0
  0
LINE
  8
LC-004-005-----0
 62
     2
  5
165
 10
269.961924
 20
391.890023
 30
0.0
 11
269.299238
 21
392.552709
 31
0.0
  0
ENDBLK
  8
0
  5
166
  0
BLOCK
  8
0
  5
16A
  2
*D9
 70
    65
 10
0.0
 20
0.0
 30
0.0
  3
*D9
  0
LINE
  8
LC-005-003-MTH-0
 62
     2
  5
16B
 10
375.521252
 20
71.816649
 30
0.0
 11
506.652456
 21
71.816649
 31
0.0
  0
LINE
  8
LC-005-003-MTH-0
 62
     2
  5
16C
 10
428.977023
 20
372.865441
 30
0.0
 11
506.652456
 21
372.865441
 31
0.0
  0
LINE
  8
LC-006-003-MTG-0
 62
     2
  5
16D
 10
489.852456
 20
71.816649
 30
0.0
 11
489.852456
 21
372.865441
 31
0.0
  0
LINE
  8
LC-007-003-----0
 62
     2
  5
16E
 10
486.197723
 20
99.577105
 30
0.0
 11
489.852456
 21
71.816649
 31
0.0
  0
LINE
  8
LC-007-003-----0
 62
     2
  5
16F
 10
489.852456
 20
71.816649
 30
0.0
 11
493.50719
 21
99.577105
 31
0.0
  0
LINE
  8
LC-007-003-----0
 62
     2
  5
170
 10
493.50719
 20
99.577105
 30
0.0
 11
486.197723
 21
99.577105
 31
0.0
  0
LINE
  8
LC-007-003-----0
 62
     2
  5
171
 10
487.147954
 20
99.639387
 30
0.0
 11
489.852456
 21
79.096649
 31
0.0
  0
LINE
  8
LC-007-003-----0
 62
     2
  5
172
 10
489.852456
 20
79.096649
 30
0.0
 11
492.556959
 21
99.639387
 31
0.0
  0
LINE
  8
LC-007-003-----0
 62
     2
  5
173
 10
488.098184
 20
99.701668
 30
0.0
 11
489.852456
 21
86.376649
 31
0.0
  0
LINE
  8
LC-007-003-----0
 62
     2
  5
174
 10
489.852456
 20
86.376649
 30
0.0
 11
491.606728
 21
99.701668
 31
0.0
  0
LINE
  8
LC-007-003-----0
 62
     2
  5
175
 10
489.048415
 20
99.76395
 30
0.0
 11
489.852456
 21
93.656649
 31
0.0
  0
LINE
  8
LC-007-003-----0
 62
     2
  5
176
 10
489.852456
 20
93.656649
 30
0.0
 11
490.656498
 21
99.76395
 31
0.0
  0
LINE
  8
LC-007-003-----0
 62
     2
  5
177
 10
493.50719
 20
345.104985
 30
0.0
 11
489.852456
 21
372.865441
 31
0.0
  0
LINE
  8
LC-007-003-----0
 62
     2
  5
178
 10
489.852456
 20
372.865441
 30
0.0
 11
486.197723
 21
345.104985
 31
0.0
  0
LINE
  8
LC-007-003-----0
 62
     2
  5
179
 10
486.197723
 20
345.104985
 30
0.0
 11
493.50719
 21
345.104985
 31
0.0
  0
LINE
  8
LC-007-003-----0
 62
     2
  5
17A
 10
492.556959
 20
345.042704
 30
0.0
 11
489.852456
 21
365.585441
 31
0.0
  0
LINE
  8
LC-007-003-----0
 62
     2
  5
17B
 10
489.852456
 20
365.585441
 30
0.0
 11
487.147954
 21
345.042704
 31
0.0
  0
LINE
  8
LC-007-003-----0
 62
     2
  5
17C
 10
491.606728
 20
344.980422
 30
0.0
 11
489.852456
 21
358.305441
 31
0.0
  0
LINE
  8
LC-007-003-----0
 62
     2
  5
17D
 10
489.852456
 20
358.305441
 30
0.0
 11
488.098184
 21
344.980422
 31
0.0
  0
LINE
  8
LC-007-003-----0
 62
     2
  5
17E
 10
490.656498
 20
344.918141
 30
0.0
 11
489.852456
 21
351.025441
 31
0.0
  0
LINE
  8
LC-007-003-----0
 62
     2
  5
17F
 10
489.852456
 20
351.025441
 30
0.0
 11
489.048415
 21
344.918141
 31
0.0
  0
TEXT
  8
LC-007-003-----0
 62
     7
  5
180
 10
482.024903
 20
200.061205
 30
0.0
 40
28.0
  1
301
 50
90.0
 41
0.9
 51
15.0
  7
LCTX15-400-0-0-ARIAL
 72
     1
 11
482.024903
 21
226.689205
 31
0.0
  0
ENDBLK
  8
0
  5
181
  0
BLOCK
  8
0
  5
19E
  2
*X10
 70
    65
 10
0.0
 20
0.0
 30
0.0
  3
*X10
  0
LINE
  8
LC-004-005-----0
 62
     2
  5
19F
 10
323.546663
 20
71.816649
 30
0.0
 11
323.727023
 21
71.997009
 31
0.0
  0
LINE
  8
LC-004-005-----0
 62
     2
  5
1A0
 10
321.676128
 20
72.774541
 30
0.0
 11
323.727023
 21
74.825436
 31
0.0
  0
LINE
  8
LC-004-005-----0
 62
     2
  5
1A1
 10
321.078411
 20
75.005251
 30
0.0
 11
323.727023
 21
77.653863
 31
0.0
  0
LINE
  8
LC-004-005-----0
 62
     2
  5
1A2
 10
320.727023
 20
77.48229
 30
0.0
 11
323.727023
 21
80.48229
 31
0.0
  0
LINE
  8
LC-004-005-----0
 62
     2
  5
1A3
 10
320.727023
 20
80.310717
 30
0.0
 11
323.727023
 21
83.310717
 31
0.0
  0
LINE
  8
LC-004-005-----0
 62
     2
  5
1A4
 10
320.727023
 20
83.139144
 30
0.0
 11
323.727023
 21
86.139144
 31
0.0
  0
LINE
  8
LC-004-005-----0
 62
     2
  5
1A5
 10
320.727023
 20
85.967572
 30
0.0
 11
323.727023
 21
88.967572
 31
0.0
  0
LINE
  8
LC-004-005-----0
 62
     2
  5
1A6
 10
320.727023
 20
88.795999
 30
0.0
 11
323.727023
 21
91.795999
 31
0.0
  0
LINE
  8
LC-004-005-----0
 62
     2
  5
1A7
 10
320.727023
 20
91.624426
 30
0.0
 11
323.727023
 21
94.624426
 31
0.0
  0
LINE
  8
LC-004-005-----0
 62
     2
  5
1A8
 10
320.727023
 20
94.452853
 30
0.0
 11
323.727023
 21
97.452853
 31
0.0
  0
LINE
  8
LC-004-005-----0
 62
     2
  5
1A9
 10
320.727023
 20
97.28128
 30
0.0
 11
323.727023
 21
100.28128
 31
0.0
  0
LINE
  8
LC-004-005-----0
 62
     2
  5
1AA
 10
320.727023
 20
100.109707
 30
0.0
 11
323.727023
 21
103.109707
 31
0.0
  0
LINE
  8
LC-004-005-----0
 62
     2
  5
1AB
 10
320.727023
 20
102.938134
 30
0.0
 11
323.727023
 21
105.938134
 31
0.0
  0
LINE
  8
LC-004-005-----0
 62
     2
  5
1AC
 10
320.727023
 20
105.766561
 30
0.0
 11
323.727023
 21
108.766561
 31
0.0
  0
LINE
  8
LC-004-005-----0
 62
     2
  5
1AD
 10
320.727023
 20
108.594989
 30
0.0
 11
323.727023
 21
111.594989
 31
0.0
  0
LINE
  8
LC-004-005-----0
 62
     2
  5
1AE
 10
320.727023
 20
111.423416
 30
0.0
 11
323.727023
 21
114.423416
 31
0.0
  0
LINE
  8
LC-004-005-----0
 62
     2
  5
1AF
 10
320.727023
 20
114.251843
 30
0.0
 11
323.727023
 21
117.251843
 31
0.0
  0
LINE
  8
LC-004-005-----0
 62
     2
  5
1B0
 10
320.727023
 20
117.08027
 30
0.0
 11
323.727023
 21
120.08027
 31
0.0
  0
LINE
  8
LC-004-005-----0
 62
     2
  5
1B1
 10
320.727023
 20
119.908697
 30
0.0
 11
323.727023
 21
122.908697
 31
0.0
  0
LINE
  8
LC-004-005-----0
 62
     2
  5
1B2
 10
320.727023
 20
122.737124
 30
0.0
 11
323.727023
 21
125.737124
 31
0.0
  0
LINE
  8
LC-004-005-----0
 62
     2
  5
1B3
 10
320.727023
 20
125.565551
 30
0.0
 11
323.727023
 21
128.565551
 31
0.0
  0
LINE
  8
LC-004-005-----0
 62
     2
  5
1B4
 10
320.727023
 20
128.393978
 30
0.0
 11
323.727023
 21
131.393978
 31
0.0
  0
LINE
  8
LC-004-005-----0
 62
     2
  5
1B5
 10
320.727023
 20
131.222406
 30
0.0
 11
323.727023
 21
134.222406
 31
0.0
  0
LINE
  8
LC-004-005-----0
 62
     2
  5
1B6
 10
320.727023
 20
134.050833
 30
0.0
 11
323.727023
 21
137.050833
 31
0.0
  0
LINE
  8
LC-004-005-----0
 62
     2
  5
1B7
 10
320.727023
 20
136.87926
 30
0.0
 11
323.727023
 21
139.87926
 31
0.0
  0
LINE
  8
LC-004-005-----0
 62
     2
  5
1B8
 10
320.727023
 20
139.707687
 30
0.0
 11
323.727023
 21
142.707687
 31
0.0
  0
LINE
  8
LC-004-005-----0
 62
     2
  5
1B9
 10
320.727023
 20
142.536114
 30
0.0
 11
323.727023
 21
145.536114
 31
0.0
  0
LINE
  8
LC-004-005-----0
 62
     2
  5
1BA
 10
320.727023
 20
145.364541
 30
0.0
 11
323.727023
 21
148.364541
 31
0.0
  0
LINE
  8
LC-004-005-----0
 62
     2
  5
1BB
 10
320.727023
 20
148.192968
 30
0.0
 11
323.727023
 21
151.192968
 31
0.0
  0
LINE
  8
LC-004-005-----0
 62
     2
  5
1BC
 10
320.727023
 20
151.021395
 30
0.0
 11
323.727023
 21
154.021395
 31
0.0
  0
LINE
  8
LC-004-005-----0
 62
     2
  5
1BD
 10
320.727023
 20
153.849823
 30
0.0
 11
323.727023
 21
156.849823
 31
0.0
  0
LINE
  8
LC-004-005-----0
 62
     2
  5
1BE
 10
320.727023
 20
156.67825
 30
0.0
 11
323.727023
 21
159.67825
 31
0.0
  0
LINE
  8
LC-004-005-----0
 62
     2
  5
1BF
 10
320.727023
 20
159.506677
 30
0.0
 11
323.727023
 21
162.506677
 31
0.0
  0
LINE
  8
LC-004-005-----0
 62
     2
  5
1C0
 10
320.727023
 20
162.335104
 30
0.0
 11
323.727023
 21
165.335104
 31
0.0
  0
LINE
  8
LC-004-005-----0
 62
     2
  5
1C1
 10
320.727023
 20
165.163531
 30
0.0
 11
323.727023
 21
168.163531
 31
0.0
  0
LINE
  8
LC-004-005-----0
 62
     2
  5
1C2
 10
320.727023
 20
167.991958
 30
0.0
 11
323.727023
 21
170.991958
 31
0.0
  0
LINE
  8
LC-004-005-----0
 62
     2
  5
1C3
 10
320.727023
 20
170.820385
 30
0.0
 11
323.727023
 21
173.820385
 31
0.0
  0
LINE
  8
LC-004-005-----0
 62
     2
  5
1C4
 10
320.727023
 20
173.648812
 30
0.0
 11
323.727023
 21
176.648812
 31
0.0
  0
LINE
  8
LC-004-005-----0
 62
     2
  5
1C5
 10
320.727023
 20
176.47724
 30
0.0
 11
323.727023
 21
179.47724
 31
0.0
  0
LINE
  8
LC-004-005-----0
 62
     2
  5
1C6
 10
320.727023
 20
179.305667
 30
0.0
 11
323.727023
 21
182.305667
 31
0.0
  0
LINE
  8
LC-004-005-----0
 62
     2
  5
1C7
 10
320.727023
 20
182.134094
 30
0.0
 11
323.727023
 21
185.134094
 31
0.0
  0
LINE
  8
LC-004-005-----0
 62
     2
  5
1C8
 10
320.727023
 20
184.962521
 30
0.0
 11
323.727023
 21
187.962521
 31
0.0
  0
LINE
  8
LC-004-005-----0
 62
     2
  5
1C9
 10
320.727023
 20
187.790948
 30
0.0
 11
323.727023
 21
190.790948
 31
0.0
  0
LINE
  8
LC-004-005-----0
 62
     2
  5
1CA
 10
320.727023
 20
190.619375
 30
0.0
 11
323.727023
 21
193.619375
 31
0.0
  0
LINE
  8
LC-004-005-----0
 62
     2
  5
1CB
 10
320.727023
 20
193.447802
 30
0.0
 11
323.727023
 21
196.447802
 31
0.0
  0
LINE
  8
LC-004-005-----0
 62
     2
  5
1CC
 10
320.727023
 20
196.276229
 30
0.0
 11
323.727023
 21
199.276229
 31
0.0
  0
LINE
  8
LC-004-005-----0
 62
     2
  5
1CD
 10
320.727023
 20
199.104657
 30
0.0
 11
323.727023
 21
202.104657
 31
0.0
  0
LINE
  8
LC-004-005-----0
 62
     2
  5
1CE
 10
320.727023
 20
201.933084
 30
0.0
 11
323.727023
 21
204.933084
 31
0.0
  0
LINE
  8
LC-004-005-----0
 62
     2
  5
1CF
 10
320.727023
 20
204.761511
 30
0.0
 11
323.727023
 21
207.761511
 31
0.0
  0
LINE
  8
LC-004-005-----0
 62
     2
  5
1D0
 10
320.727023
 20
207.589938
 30
0.0
 11
323.727023
 21
210.589938
 31
0.0
  0
LINE
  8
LC-004-005-----0
 62
     2
  5
1D1
 10
320.727023
 20
210.418365
 30
0.0
 11
323.727023
 21
213.418365
 31
0.0
  0
LINE
  8
LC-004-005-----0
 62
     2
  5
1D2
 10
320.727023
 20
213.246792
 30
0.0
 11
323.727023
 21
216.246792
 31
0.0
  0
LINE
  8
LC-004-005-----0
 62
     2
  5
1D3
 10
320.727023
 20
216.075219
 30
0.0
 11
323.727023
 21
219.075219
 31
0.0
  0
LINE
  8
LC-004-005-----0
 62
     2
  5
1D4
 10
320.727023
 20
218.903646
 30
0.0
 11
323.727023
 21
221.903646
 31
0.0
  0
LINE
  8
LC-004-005-----0
 62
     2
  5
1D5
 10
320.727023
 20
221.732074
 30
0.0
 11
323.727023
 21
224.732074
 31
0.0
  0
LINE
  8
LC-004-005-----0
 62
     2
  5
1D6
 10
320.727023
 20
224.560501
 30
0.0
 11
323.727023
 21
227.560501
 31
0.0
  0
LINE
  8
LC-004-005-----0
 62
     2
  5
1D7
 10
320.727023
 20
227.388928
 30
0.0
 11
323.727023
 21
230.388928
 31
0.0
  0
LINE
  8
LC-004-005-----0
 62
     2
  5
1D8
 10
320.727023
 20
230.217355
 30
0.0
 11
323.727023
 21
233.217355
 31
0.0
  0
LINE
  8
LC-004-005-----0
 62
     2
  5
1D9
 10
320.727023
 20
233.045782
 30
0.0
 11
323.727023
 21
236.045782
 31
0.0
  0
LINE
  8
LC-004-005-----0
 62
     2
  5
1DA
 10
320.727023
 20
235.874209
 30
0.0
 11
323.727023
 21
238.874209
 31
0.0
  0
LINE
  8
LC-004-005-----0
 62
     2
  5
1DB
 10
320.727023
 20
238.702636
 30
0.0
 11
323.727023
 21
241.702636
 31
0.0
  0
LINE
  8
LC-004-005-----0
 62
     2
  5
1DC
 10
320.727023
 20
241.531063
 30
0.0
 11
323.727023
 21
244.531063
 31
0.0
  0
LINE
  8
LC-004-005-----0
 62
     2
  5
1DD
 10
320.727023
 20
244.359491
 30
0.0
 11
323.727023
 21
247.359491
 31
0.0
  0
LINE
  8
LC-004-005-----0
 62
     2
  5
1DE
 10
320.727023
 20
247.187918
 30
0.0
 11
323.727023
 21
250.187918
 31
0.0
  0
LINE
  8
LC-004-005-----0
 62
     2
  5
1DF
 10
320.727023
 20
250.016345
 30
0.0
 11
323.727023
 21
253.016345
 31
0.0
  0
LINE
  8
LC-004-005-----0
 62
     2
  5
1E0
 10
320.727023
 20
252.844772
 30
0.0
 11
323.727023
 21
255.844772
 31
0.0
  0
LINE
  8
LC-004-005-----0
 62
     2
  5
1E1
 10
320.727023
 20
255.673199
 30
0.0
 11
323.727023
 21
258.673199
 31
0.0
  0
LINE
  8
LC-004-005-----0
 62
     2
  5
1E2
 10
320.727023
 20
258.501626
 30
0.0
 11
323.727023
 21
261.501626
 31
0.0
  0
LINE
  8
LC-004-005-----0
 62
     2
  5
1E3
 10
320.727023
 20
261.330053
 30
0.0
 11
323.727023
 21
264.330053
 31
0.0
  0
LINE
  8
LC-004-005-----0
 62
     2
  5
1E4
 10
320.727023
 20
264.15848
 30
0.0
 11
323.727023
 21
267.15848
 31
0.0
  0
LINE
  8
LC-004-005-----0
 62
     2
  5
1E5
 10
320.727023
 20
266.986908
 30
0.0
 11
323.727023
 21
269.986908
 31
0.0
  0
LINE
  8
LC-004-005-----0
 62
     2
  5
1E6
 10
320.727023
 20
269.815335
 30
0.0
 11
323.727023
 21
272.815335
 31
0.0
  0
LINE
  8
LC-004-005-----0
 62
     2
  5
1E7
 10
320.727023
 20
272.643762
 30
0.0
 11
323.727023
 21
275.643762
 31
0.0
  0
LINE
  8
LC-004-005-----0
 62
     2
  5
1E8
 10
320.727023
 20
275.472189
 30
0.0
 11
323.727023
 21
278.472189
 31
0.0
  0
LINE
  8
LC-004-005-----0
 62
     2
  5
1E9
 10
320.727023
 20
278.300616
 30
0.0
 11
323.727023
 21
281.300616
 31
0.0
  0
LINE
  8
LC-004-005-----0
 62
     2
  5
1EA
 10
320.727023
 20
281.129043
 30
0.0
 11
323.727023
 21
284.129043
 31
0.0
  0
LINE
  8
LC-004-005-----0
 62
     2
  5
1EB
 10
320.727023
 20
283.95747
 30
0.0
 11
323.727023
 21
286.95747
 31
0.0
  0
LINE
  8
LC-004-005-----0
 62
     2
  5
1EC
 10
320.727023
 20
286.785897
 30
0.0
 11
323.727023
 21
289.785897
 31
0.0
  0
LINE
  8
LC-004-005-----0
 62
     2
  5
1ED
 10
320.727023
 20
289.614325
 30
0.0
 11
323.727023
 21
292.614325
 31
0.0
  0
LINE
  8
LC-004-005-----0
 62
     2
  5
1EE
 10
320.727023
 20
292.442752
 30
0.0
 11
323.727023
 21
295.442752
 31
0.0
  0
LINE
  8
LC-004-005-----0
 62
     2
  5
1EF
 10
320.727023
 20
295.271179
 30
0.0
 11
323.727023
 21
298.271179
 31
0.0
  0
LINE
  8
LC-004-005-----0
 62
     2
  5
1F0
 10
320.727023
 20
298.099606
 30
0.0
 11
323.727023
 21
301.099606
 31
0.0
  0
LINE
  8
LC-004-005-----0
 62
     2
  5
1F1
 10
320.727023
 20
300.928033
 30
0.0
 11
323.727023
 21
303.928033
 31
0.0
  0
LINE
  8
LC-004-005-----0
 62
     2
  5
1F2
 10
320.727023
 20
303.75646
 30
0.0
 11
323.727023
 21
306.75646
 31
0.0
  0
LINE
  8
LC-004-005-----0
 62
     2
  5
1F3
 10
320.727023
 20
306.584887
 30
0.0
 11
323.727023
 21
309.584887
 31
0.0
  0
LINE
  8
LC-004-005-----0
 62
     2
  5
1F4
 10
320.727023
 20
309.413314
 30
0.0
 11
323.727023
 21
312.413314
 31
0.0
  0
LINE
  8
LC-004-005-----0
 62
     2
  5
1F5
 10
320.727023
 20
312.241742
 30
0.0
 11
323.727023
 21
315.241742
 31
0.0
  0
LINE
  8
LC-004-005-----0
 62
     2
  5
1F6
 10
320.727023
 20
315.070169
 30
0.0
 11
323.727023
 21
318.070169
 31
0.0
  0
LINE
  8
LC-004-005-----0
 62
     2
  5
1F7
 10
320.727023
 20
317.898596
 30
0.0
 11
323.727023
 21
320.898596
 31
0.0
  0
LINE
  8
LC-004-005-----0
 62
     2
  5
1F8
 10
320.727023
 20
320.727023
 30
0.0
 11
323.327071
 21
323.327071
 31
0.0
  0
LINE
  8
LC-004-005-----0
 62
     2
  5
1F9
 10
320.025782
 20
322.854209
 30
0.0
 11
322.186428
 21
325.014855
 31
0.0
  0
LINE
  8
LC-004-005-----0
 62
     2
  5
1FA
 10
318.885138
 20
324.541993
 30
0.0
 11
321.045784
 21
326.702639
 31
0.0
  0
LINE
  8
LC-004-005-----0
 62
     2
  5
1FB
 10
317.744495
 20
326.229776
 30
0.0
 11
319.905141
 21
328.390422
 31
0.0
  0
LINE
  8
LC-004-005-----0
 62
     2
  5
1FC
 10
316.603851
 20
327.91756
 30
0.0
 11
318.764497
 21
330.078206
 31
0.0
  0
LINE
  8
LC-004-005-----0
 62
     2
  5
1FD
 10
315.463208
 20
329.605343
 30
0.0
 11
317.623854
 21
331.765989
 31
0.0
  0
LINE
  8
LC-004-005-----0
 62
     2
  5
1FE
 10
314.322564
 20
331.293127
 30
0.0
 11
316.48321
 21
333.453773
 31
0.0
  0
LINE
  8
LC-004-005-----0
 62
     2
  5
1FF
 10
313.181921
 20
332.98091
 30
0.0
 11
315.342567
 21
335.141556
 31
0.0
  0
LINE
  8
LC-004-005-----0
 62
     2
  5
200
 10
312.041277
 20
334.668694
 30
0.0
 11
314.201923
 21
336.82934
 31
0.0
  0
LINE
  8
LC-004-005-----0
 62
     2
  5
201
 10
310.900633
 20
336.356478
 30
0.0
 11
313.061279
 21
338.517124
 31
0.0
  0
LINE
  8
LC-004-005-----0
 62
     2
  5
202
 10
309.75999
 20
338.044261
 30
0.0
 11
311.920636
 21
340.204907
 31
0.0
  0
LINE
  8
LC-004-005-----0
 62
     2
  5
203
 10
308.619346
 20
339.732045
 30
0.0
 11
310.779992
 21
341.892691
 31
0.0
  0
LINE
  8
LC-004-005-----0
 62
     2
  5
204
 10
307.478703
 20
341.419828
 30
0.0
 11
309.639349
 21
343.580474
 31
0.0
  0
LINE
  8
LC-004-005-----0
 62
     2
  5
205
 10
306.338059
 20
343.107612
 30
0.0
 11
308.498705
 21
345.268258
 31
0.0
  0
LINE
  8
LC-004-005-----0
 62
     2
  5
206
 10
305.197416
 20
344.795395
 30
0.0
 11
307.358062
 21
346.956041
 31
0.0
  0
LINE
  8
LC-004-005-----0
 62
     2
  5
207
 10
304.056772
 20
346.483179
 30
0.0
 11
306.217418
 21
348.643825
 31
0.0
  0
LINE
  8
LC-004-005-----0
 62
     2
  5
208
 10
302.916129
 20
348.170963
 30
0.0
 11
305.076775
 21
350.331609
 31
0.0
  0
LINE
  8
LC-004-005-----0
 62
     2
  5
209
 10
301.775485
 20
349.858746
 30
0.0
 11
303.936131
 21
352.019392
 31
0.0
  0
LINE
  8
LC-004-005-----0
 62
     2
  5
20A
 10
300.634841
 20
351.54653
 30
0.0
 11
302.795487
 21
353.707176
 31
0.0
  0
LINE
  8
LC-004-005-----0
 62
     2
  5
20B
 10
299.494198
 20
353.234313
 30
0.0
 11
301.654844
 21
355.394959
 31
0.0
  0
LINE
  8
LC-004-005-----0
 62
     2
  5
20C
 10
298.353554
 20
354.922097
 30
0.0
 11
300.5142
 21
357.082743
 31
0.0
  0
LINE
  8
LC-004-005-----0
 62
     2
  5
20D
 10
297.212911
 20
356.60988
 30
0.0
 11
299.373557
 21
358.770526
 31
0.0
  0
LINE
  8
LC-004-005-----0
 62
     2
  5
20E
 10
296.072267
 20
358.297664
 30
0.0
 11
298.232913
 21
360.45831
 31
0.0
  0
LINE
  8
LC-004-005-----0
 62
     2
  5
20F
 10
294.931624
 20
359.985448
 30
0.0
 11
297.09227
 21
362.146094
 31
0.0
  0
LINE
  8
LC-004-005-----0
 62
     2
  5
210
 10
293.79098
 20
361.673231
 30
0.0
 11
295.951626
 21
363.833877
 31
0.0
  0
LINE
  8
LC-004-005-----0
 62
     2
  5
211
 10
292.650337
 20
363.361015
 30
0.0
 11
294.810983
 21
365.521661
 31
0.0
  0
LINE
  8
LC-004-005-----0
 62
     2
  5
212
 10
291.509693
 20
365.048798
 30
0.0
 11
293.670339
 21
367.209444
 31
0.0
  0
LINE
  8
LC-004-005-----0
 62
     2
  5
213
 10
290.369049
 20
366.736582
 30
0.0
 11
292.529695
 21
368.897228
 31
0.0
  0
LINE
  8
LC-004-005-----0
 62
     2
  5
214
 10
289.228406
 20
368.424365
 30
0.0
 11
291.389052
 21
370.585011
 31
0.0
  0
LINE
  8
LC-004-005-----0
 62
     2
  5
215
 10
288.087762
 20
370.112149
 30
0.0
 11
290.248408
 21
372.272795
 31
0.0
  0
LINE
  8
LC-004-005-----0
 62
     2
  5
216
 10
286.947119
 20
371.799932
 30
0.0
 11
289.107765
 21
373.960579
 31
0.0
  0
LINE
  8
LC-004-005-----0
 62
     2
  5
217
 10
285.184201
 20
372.865441
 30
0.0
 11
287.967121
 21
375.648362
 31
0.0
  0
LINE
  8
LC-004-005-----0
 62
     2
  5
218
 10
282.355773
 20
372.865441
 30
0.0
 11
285.355773
 21
375.865441
 31
0.0
  0
LINE
  8
LC-004-005-----0
 62
     2
  5
219
 10
279.527346
 20
372.865441
 30
0.0
 11
282.527346
 21
375.865441
 31
0.0
  0
LINE
  8
LC-004-005-----0
 62
     2
  5
21A
 10
276.698919
 20
372.865441
 30
0.0
 11
279.698919
 21
375.865441
 31
0.0
  0
LINE
  8
LC-004-005-----0
 62
     2
  5
21B
 10
273.870492
 20
372.865441
 30
0.0
 11
276.870492
 21
375.865441
 31
0.0
  0
LINE
  8
LC-004-005-----0
 62
     2
  5
21C
 10
271.042065
 20
372.865441
 30
0.0
 11
274.042065
 21
375.865441
 31
0.0
  0
LINE
  8
LC-004-005-----0
 62
     2
  5
21D
 10
268.213638
 20
372.865441
 30
0.0
 11
271.213638
 21
375.865441
 31
0.0
  0
LINE
  8
LC-004-005-----0
 62
     2
  5
21E
 10
267.977023
 20
375.457254
 30
0.0
 11
270.977023
 21
378.457254
 31
0.0
  0
LINE
  8
LC-004-005-----0
 62
     2
  5
21F
 10
267.977023
 20
378.285681
 30
0.0
 11
270.977023
 21
381.285681
 31
0.0
  0
LINE
  8
LC-004-005-----0
 62
     2
  5
220
 10
267.977023
 20
381.114108
 30
0.0
 11
270.977023
 21
384.114108
 31
0.0
  0
LINE
  8
LC-004-005-----0
 62
     2
  5
221
 10
267.977023
 20
383.942535
 30
0.0
 11
270.977023
 21
386.942535
 31
0.0
  0
LINE
  8
LC-004-005-----0
 62
     2
  5
222
 10
267.977023
 20
386.770962
 30
0.0
 11
270.977023
 21
389.770962
 31
0.0
  0
LINE
  8
LC-004-005-----0
 62
     2
  5
223
 10
266.694283
 20
388.316649
 30
0.0
 11
269.694283
 21
391.316649
 31
0.0
  0
LINE
  8
LC-004-005-----0
 62
     2
  5
224
 10
263.865856
 20
388.316649
 30
0.0
 11
266.865856
 21
391.316649
 31
0.0
  0
LINE
  8
LC-004-005-----0
 62
     2
  5
225
 10
262.537691
 20
389.816911
 30
0.0
 11
266.227022
 21
393.506243
 31
0.0
  0
LINE
  8
LC-004-005-----0
 62
     2
  5
226
 10
259.709127
 20
389.816774
 30
0.0
 11
266.227022
 21
396.33467
 31
0.0
  0
LINE
  8
LC-004-005-----0
 62
     2
  5
227
 10
257.473487
 20
390.409562
 30
0.0
 11
266.227022
 21
399.163097
 31
0.0
  0
LINE
  8
LC-004-005-----0
 62
     2
  5
228
 10
257.473217
 20
393.237719
 30
0.0
 11
266.227022
 21
401.991524
 31
0.0
  0
LINE
  8
LC-004-005-----0
 62
     2
  5
229
 10
257.472946
 20
396.065875
 30
0.0
 11
266.227022
 21
404.819951
 31
0.0
  0
LINE
  8
LC-004-005-----0
 62
     2
  5
22A
 10
257.472676
 20
398.894032
 30
0.0
 11
266.227022
 21
407.648378
 31
0.0
  0
LINE
  8
LC-004-005-----0
 62
     2
  5
22B
 10
257.472405
 20
401.722188
 30
0.0
 11
263.810092
 21
408.059875
 31
0.0
  0
LINE
  8
LC-004-005-----0
 62
     2
  5
22C
 10
257.472134
 20
404.550345
 30
0.0
 11
260.98139
 21
408.0596
 31
0.0
  0
LINE
  8
LC-004-005-----0
 62
     2
  5
22D
 10
257.471864
 20
407.378501
 30
0.0
 11
258.152688
 21
408.059326
 31
0.0
  0
ENDBLK
  8
0
  5
22E
  0
BLOCK
  8
0
  5
234
  2
*X11
 70
    65
 10
0.0
 20
0.0
 30
0.0
  3
*X11
  0
LINE
  8
LC-004-005-----0
 62
     2
  5
235
 10
374.458352
 20
71.816649
 30
0.0
 11
375.9103
 21
73.268598
 31
0.0
  0
LINE
  8
LC-004-005-----0
 62
     2
  5
236
 10
373.727023
 20
73.913748
 30
0.0
 11
376.727023
 21
76.913748
 31
0.0
  0
LINE
  8
LC-004-005-----0
 62
     2
  5
237
 10
373.727023
 20
76.742175
 30
0.0
 11
376.727023
 21
79.742175
 31
0.0
  0
LINE
  8
LC-004-005-----0
 62
     2
  5
238
 10
373.727023
 20
79.570602
 30
0.0
 11
376.727023
 21
82.570602
 31
0.0
  0
LINE
  8
LC-004-005-----0
 62
     2
  5
239
 10
373.727023
 20
82.399029
 30
0.0
 11
376.727023
 21
85.399029
 31
0.0
  0
LINE
  8
LC-004-005-----0
 62
     2
  5
23A
 10
373.727023
 20
85.227457
 30
0.0
 11
376.727023
 21
88.227456
 31
0.0
  0
LINE
  8
LC-004-005-----0
 62
     2
  5
23B
 10
373.727023
 20
88.055884
 30
0.0
 11
376.727023
 21
91.055884
 31
0.0
  0
LINE
  8
LC-004-005-----0
 62
     2
  5
23C
 10
373.727023
 20
90.884311
 30
0.0
 11
376.727023
 21
93.884311
 31
0.0
  0
LINE
  8
LC-004-005-----0
 62
     2
  5
23D
 10
373.727023
 20
93.712738
 30
0.0
 11
376.727023
 21
96.712738
 31
0.0
  0
LINE
  8
LC-004-005-----0
 62
     2
  5
23E
 10
373.727023
 20
96.541165
 30
0.0
 11
376.727023
 21
99.541165
 31
0.0
  0
LINE
  8
LC-004-005-----0
 62
     2
  5
23F
 10
373.727024
 20
99.369592
 30
0.0
 11
376.727024
 21
102.369592
 31
0.0
  0
LINE
  8
LC-004-005-----0
 62
     2
  5
240
 10
373.727024
 20
102.19802
 30
0.0
 11
376.727024
 21
105.19802
 31
0.0
  0
LINE
  8
LC-004-005-----0
 62
     2
  5
241
 10
373.727024
 20
105.026447
 30
0.0
 11
376.727024
 21
108.026447
 31
0.0
  0
LINE
  8
LC-004-005-----0
 62
     2
  5
242
 10
373.727024
 20
107.854874
 30
0.0
 11
376.727024
 21
110.854874
 31
0.0
  0
LINE
  8
LC-004-005-----0
 62
     2
  5
243
 10
373.727024
 20
110.683301
 30
0.0
 11
376.727024
 21
113.683301
 31
0.0
  0
LINE
  8
LC-004-005-----0
 62
     2
  5
244
 10
373.727024
 20
113.511728
 30
0.0
 11
376.727024
 21
116.511728
 31
0.0
  0
LINE
  8
LC-004-005-----0
 62
     2
  5
245
 10
373.727024
 20
116.340156
 30
0.0
 11
376.727024
 21
119.340156
 31
0.0
  0
LINE
  8
LC-004-005-----0
 62
     2
  5
246
 10
373.727024
 20
119.168583
 30
0.0
 11
376.727024
 21
122.168583
 31
0.0
  0
LINE
  8
LC-004-005-----0
 62
     2
  5
247
 10
373.727024
 20
121.99701
 30
0.0
 11
376.727024
 21
124.99701
 31
0.0
  0
LINE
  8
LC-004-005-----0
 62
     2
  5
248
 10
373.727024
 20
124.825437
 30
0.0
 11
376.727024
 21
127.825437
 31
0.0
  0
LINE
  8
LC-004-005-----0
 62
     2
  5
249
 10
373.727024
 20
127.653864
 30
0.0
 11
376.727024
 21
130.653864
 31
0.0
  0
LINE
  8
LC-004-005-----0
 62
     2
  5
24A
 10
373.727024
 20
130.482291
 30
0.0
 11
376.727024
 21
133.482291
 31
0.0
  0
LINE
  8
LC-004-005-----0
 62
     2
  5
24B
 10
373.727024
 20
133.310719
 30
0.0
 11
376.727024
 21
136.310719
 31
0.0
  0
LINE
  8
LC-004-005-----0
 62
     2
  5
24C
 10
373.727024
 20
136.139146
 30
0.0
 11
376.727024
 21
139.139146
 31
0.0
  0
LINE
  8
LC-004-005-----0
 62
     2
  5
24D
 10
373.727024
 20
138.967573
 30
0.0
 11
376.727024
 21
141.967573
 31
0.0
  0
LINE
  8
LC-004-005-----0
 62
     2
  5
24E
 10
373.727024
 20
141.796
 30
0.0
 11
376.727024
 21
144.796
 31
0.0
  0
LINE
  8
LC-004-005-----0
 62
     2
  5
24F
 10
373.727024
 20
144.624427
 30
0.0
 11
376.727024
 21
147.624427
 31
0.0
  0
LINE
  8
LC-004-005-----0
 62
     2
  5
250
 10
373.727024
 20
147.452855
 30
0.0
 11
376.727024
 21
150.452855
 31
0.0
  0
LINE
  8
LC-004-005-----0
 62
     2
  5
251
 10
373.727025
 20
150.281282
 30
0.0
 11
376.727025
 21
153.281282
 31
0.0
  0
LINE
  8
LC-004-005-----0
 62
     2
  5
252
 10
373.727025
 20
153.109709
 30
0.0
 11
376.727025
 21
156.109709
 31
0.0
  0
LINE
  8
LC-004-005-----0
 62
     2
  5
253
 10
373.727025
 20
155.938136
 30
0.0
 11
376.727025
 21
158.938136
 31
0.0
  0
LINE
  8
LC-004-005-----0
 62
     2
  5
254
 10
373.727025
 20
158.766563
 30
0.0
 11
376.727025
 21
161.766563
 31
0.0
  0
LINE
  8
LC-004-005-----0
 62
     2
  5
255
 10
373.727025
 20
161.59499
 30
0.0
 11
376.727025
 21
164.59499
 31
0.0
  0
LINE
  8
LC-004-005-----0
 62
     2
  5
256
 10
373.727025
 20
164.423418
 30
0.0
 11
376.727025
 21
167.423418
 31
0.0
  0
LINE
  8
LC-004-005-----0
 62
     2
  5
257
 10
373.727025
 20
167.251845
 30
0.0
 11
376.727025
 21
170.251845
 31
0.0
  0
LINE
  8
LC-004-005-----0
 62
     2
  5
258
 10
373.727025
 20
170.080272
 30
0.0
 11
376.727025
 21
173.080272
 31
0.0
  0
LINE
  8
LC-004-005-----0
 62
     2
  5
259
 10
373.727025
 20
172.908699
 30
0.0
 11
376.727025
 21
175.908699
 31
0.0
  0
LINE
  8
LC-004-005-----0
 62
     2
  5
25A
 10
373.727025
 20
175.737126
 30
0.0
 11
376.727025
 21
178.737126
 31
0.0
  0
LINE
  8
LC-004-005-----0
 62
     2
  5
25B
 10
373.727025
 20
178.565554
 30
0.0
 11
376.727025
 21
181.565554
 31
0.0
  0
LINE
  8
LC-004-005-----0
 62
     2
  5
25C
 10
373.727025
 20
181.393981
 30
0.0
 11
376.727025
 21
184.393981
 31
0.0
  0
LINE
  8
LC-004-005-----0
 62
     2
  5
25D
 10
373.727025
 20
184.222408
 30
0.0
 11
376.727025
 21
187.222408
 31
0.0
  0
LINE
  8
LC-004-005-----0
 62
     2
  5
25E
 10
373.727025
 20
187.050835
 30
0.0
 11
376.727025
 21
190.050835
 31
0.0
  0
LINE
  8
LC-004-005-----0
 62
     2
  5
25F
 10
373.727025
 20
189.879262
 30
0.0
 11
376.727025
 21
192.879262
 31
0.0
  0
LINE
  8
LC-004-005-----0
 62
     2
  5
260
 10
373.727025
 20
192.707689
 30
0.0
 11
376.727025
 21
195.707689
 31
0.0
  0
LINE
  8
LC-004-005-----0
 62
     2
  5
261
 10
373.727025
 20
195.536117
 30
0.0
 11
376.727025
 21
198.536117
 31
0.0
  0
LINE
  8
LC-004-005-----0
 62
     2
  5
262
 10
373.727026
 20
198.364544
 30
0.0
 11
376.727026
 21
201.364544
 31
0.0
  0
LINE
  8
LC-004-005-----0
 62
     2
  5
263
 10
373.727026
 20
201.192971
 30
0.0
 11
376.727026
 21
204.192971
 31
0.0
  0
LINE
  8
LC-004-005-----0
 62
     2
  5
264
 10
373.727026
 20
204.021398
 30
0.0
 11
376.727026
 21
207.021398
 31
0.0
  0
LINE
  8
LC-004-005-----0
 62
     2
  5
265
 10
373.727026
 20
206.849825
 30
0.0
 11
376.727026
 21
209.849825
 31
0.0
  0
LINE
  8
LC-004-005-----0
 62
     2
  5
266
 10
373.727026
 20
209.678253
 30
0.0
 11
376.727026
 21
212.678253
 31
0.0
  0
LINE
  8
LC-004-005-----0
 62
     2
  5
267
 10
373.727026
 20
212.50668
 30
0.0
 11
376.727026
 21
215.50668
 31
0.0
  0
LINE
  8
LC-004-005-----0
 62
     2
  5
268
 10
373.727026
 20
215.335107
 30
0.0
 11
376.727026
 21
218.335107
 31
0.0
  0
LINE
  8
LC-004-005-----0
 62
     2
  5
269
 10
373.727026
 20
218.163534
 30
0.0
 11
376.727026
 21
221.163534
 31
0.0
  0
LINE
  8
LC-004-005-----0
 62
     2
  5
26A
 10
373.727026
 20
220.991961
 30
0.0
 11
376.727026
 21
223.991961
 31
0.0
  0
LINE
  8
LC-004-005-----0
 62
     2
  5
26B
 10
373.727026
 20
223.820388
 30
0.0
 11
376.727026
 21
226.820388
 31
0.0
  0
LINE
  8
LC-004-005-----0
 62
     2
  5
26C
 10
373.727026
 20
226.648816
 30
0.0
 11
376.727026
 21
229.648816
 31
0.0
  0
LINE
  8
LC-004-005-----0
 62
     2
  5
26D
 10
373.727026
 20
229.477243
 30
0.0
 11
376.727026
 21
232.477243
 31
0.0
  0
LINE
  8
LC-004-005-----0
 62
     2
  5
26E
 10
373.727026
 20
232.30567
 30
0.0
 11
376.727026
 21
235.30567
 31
0.0
  0
LINE
  8
LC-004-005-----0
 62
     2
  5
26F
 10
373.727026
 20
235.134097
 30
0.0
 11
376.727026
 21
238.134097
 31
0.0
  0
LINE
  8
LC-004-005-----0
 62
     2
  5
270
 10
373.727026
 20
237.962524
 30
0.0
 11
376.727026
 21
240.962524
 31
0.0
  0
LINE
  8
LC-004-005-----0
 62
     2
  5
271
 10
373.727026
 20
240.790952
 30
0.0
 11
376.727026
 21
243.790952
 31
0.0
  0
LINE
  8
LC-004-005-----0
 62
     2
  5
272
 10
373.727026
 20
243.619379
 30
0.0
 11
376.727026
 21
246.619379
 31
0.0
  0
LINE
  8
LC-004-005-----0
 62
     2
  5
273
 10
373.727027
 20
246.447806
 30
0.0
 11
376.727027
 21
249.447806
 31
0.0
  0
LINE
  8
LC-004-005-----0
 62
     2
  5
274
 10
373.727027
 20
249.276233
 30
0.0
 11
376.727027
 21
252.276233
 31
0.0
  0
LINE
  8
LC-004-005-----0
 62
     2
  5
275
 10
373.727027
 20
252.10466
 30
0.0
 11
376.727027
 21
255.10466
 31
0.0
  0
LINE
  8
LC-004-005-----0
 62
     2
  5
276
 10
373.727027
 20
254.933087
 30
0.0
 11
376.727027
 21
257.933087
 31
0.0
  0
LINE
  8
LC-004-005-----0
 62
     2
  5
277
 10
373.727027
 20
257.761515
 30
0.0
 11
376.727027
 21
260.761515
 31
0.0
  0
LINE
  8
LC-004-005-----0
 62
     2
  5
278
 10
373.727027
 20
260.589942
 30
0.0
 11
376.727027
 21
263.589942
 31
0.0
  0
LINE
  8
LC-004-005-----0
 62
     2
  5
279
 10
373.727027
 20
263.418369
 30
0.0
 11
376.727027
 21
266.418369
 31
0.0
  0
LINE
  8
LC-004-005-----0
 62
     2
  5
27A
 10
373.727027
 20
266.246796
 30
0.0
 11
376.727027
 21
269.246796
 31
0.0
  0
LINE
  8
LC-004-005-----0
 62
     2
  5
27B
 10
373.727027
 20
269.075223
 30
0.0
 11
376.727027
 21
272.075223
 31
0.0
  0
LINE
  8
LC-004-005-----0
 62
     2
  5
27C
 10
373.727027
 20
271.903651
 30
0.0
 11
376.727027
 21
274.903651
 31
0.0
  0
LINE
  8
LC-004-005-----0
 62
     2
  5
27D
 10
373.727027
 20
274.732078
 30
0.0
 11
376.727027
 21
277.732078
 31
0.0
  0
LINE
  8
LC-004-005-----0
 62
     2
  5
27E
 10
373.727027
 20
277.560505
 30
0.0
 11
376.727027
 21
280.560505
 31
0.0
  0
LINE
  8
LC-004-005-----0
 62
     2
  5
27F
 10
373.727027
 20
280.388932
 30
0.0
 11
376.727027
 21
283.388932
 31
0.0
  0
LINE
  8
LC-004-005-----0
 62
     2
  5
280
 10
373.727027
 20
283.217359
 30
0.0
 11
376.727027
 21
286.217359
 31
0.0
  0
LINE
  8
LC-004-005-----0
 62
     2
  5
281
 10
373.727027
 20
286.045786
 30
0.0
 11
376.727027
 21
289.045786
 31
0.0
  0
LINE
  8
LC-004-005-----0
 62
     2
  5
282
 10
373.727027
 20
288.874214
 30
0.0
 11
376.727027
 21
291.874214
 31
0.0
  0
LINE
  8
LC-004-005-----0
 62
     2
  5
283
 10
373.727027
 20
291.702641
 30
0.0
 11
376.727027
 21
294.702641
 31
0.0
  0
LINE
  8
LC-004-005-----0
 62
     2
  5
284
 10
373.727027
 20
294.531068
 30
0.0
 11
376.727028
 21
297.531068
 31
0.0
  0
LINE
  8
LC-004-005-----0
 62
     2
  5
285
 10
373.727028
 20
297.359495
 30
0.0
 11
376.727028
 21
300.359495
 31
0.0
  0
LINE
  8
LC-004-005-----0
 62
     2
  5
286
 10
373.727028
 20
300.187922
 30
0.0
 11
376.727028
 21
303.187922
 31
0.0
  0
LINE
  8
LC-004-005-----0
 62
     2
  5
287
 10
373.727028
 20
303.01635
 30
0.0
 11
376.727028
 21
306.01635
 31
0.0
  0
LINE
  8
LC-004-005-----0
 62
     2
  5
288
 10
373.727028
 20
305.844777
 30
0.0
 11
376.727028
 21
308.844777
 31
0.0
  0
LINE
  8
LC-004-005-----0
 62
     2
  5
289
 10
373.727028
 20
308.673204
 30
0.0
 11
376.727028
 21
311.673204
 31
0.0
  0
LINE
  8
LC-004-005-----0
 62
     2
  5
28A
 10
373.727028
 20
311.501631
 30
0.0
 11
376.727028
 21
314.501631
 31
0.0
  0
LINE
  8
LC-004-005-----0
 62
     2
  5
28B
 10
373.727028
 20
314.330058
 30
0.0
 11
376.727028
 21
317.330058
 31
0.0
  0
LINE
  8
LC-004-005-----0
 62
     2
  5
28C
 10
373.727028
 20
317.158485
 30
0.0
 11
376.727028
 21
320.158485
 31
0.0
  0
LINE
  8
LC-004-005-----0
 62
     2
  5
28D
 10
429.433984
 20
372.865441
 30
0.0
 11
429.477023
 21
372.90848
 31
0.0
  0
LINE
  8
LC-004-005-----0
 62
     2
  5
28E
 10
373.727028
 20
319.986913
 30
0.0
 11
379.16681
 21
325.426694
 31
0.0
  0
LINE
  8
LC-004-005-----0
 62
     2
  5
28F
 10
426.605557
 20
372.865441
 30
0.0
 11
429.477023
 21
375.736908
 31
0.0
  0
LINE
  8
LC-004-005-----0
 62
     2
  5
290
 10
373.893932
 20
322.982243
 30
0.0
 11
385.063339
 21
334.151651
 31
0.0
  0
LINE
  8
LC-004-005-----0
 62
     2
  5
291
 10
423.77713
 20
372.865441
 30
0.0
 11
429.477023
 21
378.565335
 31
0.0
  0
LINE
  8
LC-004-005-----0
 62
     2
  5
292
 10
379.790461
 20
331.7072
 30
0.0
 11
390.959869
 21
342.876607
 31
0.0
  0
LINE
  8
LC-004-005-----0
 62
     2
  5
293
 10
420.948703
 20
372.865441
 30
0.0
 11
423.948703
 21
375.865441
 31
0.0
  0
LINE
  8
LC-004-005-----0
 62
     2
  5
294
 10
426.477023
 20
378.393762
 30
0.0
 11
429.477023
 21
381.393762
 31
0.0
  0
LINE
  8
LC-004-005-----0
 62
     2
  5
295
 10
437.900086
 20
389.816825
 30
0.0
 11
439.98086
 21
391.897599
 31
0.0
  0
LINE
  8
LC-004-005-----0
 62
     2
  5
296
 10
385.68699
 20
340.432156
 30
0.0
 11
396.856398
 21
351.601564
 31
0.0
  0
LINE
  8
LC-004-005-----0
 62
     2
  5
297
 10
418.120275
 20
372.865441
 30
0.0
 11
421.120275
 21
375.865441
 31
0.0
  0
LINE
  8
LC-004-005-----0
 62
     2
  5
298
 10
426.477023
 20
381.222189
 30
0.0
 11
429.477023
 21
384.222189
 31
0.0
  0
LINE
  8
LC-004-005-----0
 62
     2
  5
299
 10
433.571483
 20
388.316649
 30
0.0
 11
434.227024
 21
388.97219
 31
0.0
  0
LINE
  8
LC-004-005-----0
 62
     2
  5
29A
 10
435.071723
 20
389.816889
 30
0.0
 11
439.981112
 21
394.726279
 31
0.0
  0
LINE
  8
LC-004-005-----0
 62
     2
  5
29B
 10
391.58352
 20
349.157113
 30
0.0
 11
402.752927
 21
360.32652
 31
0.0
  0
LINE
  8
LC-004-005-----0
 62
     2
  5
29C
 10
415.291848
 20
372.865441
 30
0.0
 11
418.291848
 21
375.865441
 31
0.0
  0
LINE
  8
LC-004-005-----0
 62
     2
  5
29D
 10
426.477023
 20
384.050616
 30
0.0
 11
429.477023
 21
387.050616
 31
0.0
  0
LINE
  8
LC-004-005-----0
 62
     2
  5
29E
 10
430.743056
 20
388.316649
 30
0.0
 11
439.981365
 21
397.554958
 31
0.0
  0
LINE
  8
LC-004-005-----0
 62
     2
  5
29F
 10
397.480049
 20
357.882069
 30
0.0
 11
408.649457
 21
369.051477
 31
0.0
  0
LINE
  8
LC-004-005-----0
 62
     2
  5
2A0
 10
412.463421
 20
372.865441
 30
0.0
 11
415.463421
 21
375.865441
 31
0.0
  0
LINE
  8
LC-004-005-----0
 62
     2
  5
2A1
 10
426.477023
 20
386.879043
 30
0.0
 11
430.914629
 21
391.316649
 31
0.0
  0
LINE
  8
LC-004-005-----0
 62
     2
  5
2A2
 10
431.227022
 20
391.629042
 30
0.0
 11
439.981618
 21
400.383638
 31
0.0
  0
LINE
  8
LC-004-005-----0
 62
     2
  5
2A3
 10
403.376579
 20
366.607026
 30
0.0
 11
412.634994
 21
375.865441
 31
0.0
  0
LINE
  8
LC-004-005-----0
 62
     2
  5
2A4
 10
426.477023
 20
389.70747
 30
0.0
 11
428.086202
 21
391.316649
 31
0.0
  0
LINE
  8
LC-004-005-----0
 62
     2
  5
2A5
 10
431.227022
 20
394.457469
 30
0.0
 11
439.98187
 21
403.212318
 31
0.0
  0
LINE
  8
LC-004-005-----0
 62
     2
  5
2A6
 10
409.273108
 20
375.331982
 30
0.0
 11
409.806567
 21
375.865441
 31
0.0
  0
LINE
  8
LC-004-005-----0
 62
     2
  5
2A7
 10
431.227022
 20
397.285896
 30
0.0
 11
439.982123
 21
406.040997
 31
0.0
  0
LINE
  8
LC-004-005-----0
 62
     2
  5
2A8
 10
431.227022
 20
400.114324
 30
0.0
 11
439.172428
 21
408.05973
 31
0.0
  0
LINE
  8
LC-004-005-----0
 62
     2
  5
2A9
 10
431.227022
 20
402.942751
 30
0.0
 11
436.344263
 21
408.059992
 31
0.0
  0
LINE
  8
LC-004-005-----0
 62
     2
  5
2AA
 10
431.227022
 20
405.771178
 30
0.0
 11
433.516098
 21
408.060254
 31
0.0
  0
ENDBLK
  8
0
  5
2AB
  0
BLOCK
  8
0
  5
2E3
  2
*X12
 70
    65
 10
0.0
 20
0.0
 30
0.0
  3
*X12
  0
LINE
  8
LC-004-005-----0
 62
     2
  5
2E4
 10
524.125307
 20
413.816649
 30
0.0
 11
525.655474
 21
415.346816
 31
0.0
  0
LINE
  8
LC-004-005-----0
 62
     2
  5
2E5
 10
521.29688
 20
413.816649
 30
0.0
 11
524.232063
 21
416.751832
 31
0.0
  0
LINE
  8
LC-004-005-----0
 62
     2
  5
2E6
 10
518.468453
 20
413.816649
 30
0.0
 11
521.468453
 21
416.816649
 31
0.0
  0
LINE
  8
LC-004-005-----0
 62
     2
  5
2E7
 10
515.640026
 20
413.816649
 30
0.0
 11
518.640026
 21
416.816649
 31
0.0
  0
LINE
  8
LC-004-005-----0
 62
     2
  5
2E8
 10
512.811599
 20
413.816649
 30
0.0
 11
515.811599
 21
416.816649
 31
0.0
  0
LINE
  8
LC-004-005-----0
 62
     2
  5
2E9
 10
509.983171
 20
413.816649
 30
0.0
 11
512.983171
 21
416.816649
 31
0.0
  0
LINE
  8
LC-004-005-----0
 62
     2
  5
2EA
 10
507.154744
 20
413.816649
 30
0.0
 11
510.154744
 21
416.816649
 31
0.0
  0
LINE
  8
LC-004-005-----0
 62
     2
  5
2EB
 10
504.326317
 20
413.816649
 30
0.0
 11
507.326317
 21
416.816649
 31
0.0
  0
LINE
  8
LC-004-005-----0
 62
     2
  5
2EC
 10
501.49789
 20
413.816649
 30
0.0
 11
504.49789
 21
416.816649
 31
0.0
  0
LINE
  8
LC-004-005-----0
 62
     2
  5
2ED
 10
498.669463
 20
413.816649
 30
0.0
 11
501.669463
 21
416.816649
 31
0.0
  0
LINE
  8
LC-004-005-----0
 62
     2
  5
2EE
 10
495.841036
 20
413.816649
 30
0.0
 11
498.841036
 21
416.816649
 31
0.0
  0
LINE
  8
LC-004-005-----0
 62
     2
  5
2EF
 10
493.012609
 20
413.816649
 30
0.0
 11
496.012609
 21
416.816649
 31
0.0
  0
LINE
  8
LC-004-005-----0
 62
     2
  5
2F0
 10
490.184182
 20
413.816649
 30
0.0
 11
493.184182
 21
416.816649
 31
0.0
  0
LINE
  8
LC-004-005-----0
 62
     2
  5
2F1
 10
487.355754
 20
413.816649
 30
0.0
 11
490.355754
 21
416.816649
 31
0.0
  0
LINE
  8
LC-004-005-----0
 62
     2
  5
2F2
 10
484.527327
 20
413.816649
 30
0.0
 11
487.527327
 21
416.816649
 31
0.0
  0
LINE
  8
LC-004-005-----0
 62
     2
  5
2F3
 10
481.6989
 20
413.816649
 30
0.0
 11
484.6989
 21
416.816649
 31
0.0
  0
LINE
  8
LC-004-005-----0
 62
     2
  5
2F4
 10
478.870473
 20
413.816649
 30
0.0
 11
481.870473
 21
416.816649
 31
0.0
  0
LINE
  8
LC-004-005-----0
 62
     2
  5
2F5
 10
475.644391
 20
413.418995
 30
0.0
 11
479.042046
 21
416.816649
 31
0.0
  0
LINE
  8
LC-004-005-----0
 62
     2
  5
2F6
 10
471.198178
 20
411.801208
 30
0.0
 11
476.070845
 21
416.673875
 31
0.0
  0
LINE
  8
LC-004-005-----0
 62
     2
  5
2F7
 10
446.385195
 20
389.816653
 30
0.0
 11
448.732219
 21
392.163676
 31
0.0
  0
LINE
  8
LC-004-005-----0
 62
     2
  5
2F8
 10
466.751964
 20
410.183422
 30
0.0
 11
471.624602
 21
415.05606
 31
0.0
  0
LINE
  8
LC-004-005-----0
 62
     2
  5
2F9
 10
445.480846
 20
391.740731
 30
0.0
 11
448.732217
 21
394.992101
 31
0.0
  0
LINE
  8
LC-004-005-----0
 62
     2
  5
2FA
 10
462.30575
 20
408.565635
 30
0.0
 11
467.17836
 21
413.438245
 31
0.0
  0
LINE
  8
LC-004-005-----0
 62
     2
  5
2FB
 10
445.481098
 20
394.56941
 30
0.0
 11
448.732214
 21
397.820526
 31
0.0
  0
LINE
  8
LC-004-005-----0
 62
     2
  5
2FC
 10
457.859537
 20
406.947849
 30
0.0
 11
462.732117
 21
411.820429
 31
0.0
  0
LINE
  8
LC-004-005-----0
 62
     2
  5
2FD
 10
445.481351
 20
397.39809
 30
0.0
 11
448.732212
 21
400.648951
 31
0.0
  0
LINE
  8
LC-004-005-----0
 62
     2
  5
2FE
 10
453.413323
 20
405.330062
 30
0.0
 11
458.285875
 21
410.202614
 31
0.0
  0
LINE
  8
LC-004-005-----0
 62
     2
  5
2FF
 10
445.481604
 20
400.22677
 30
0.0
 11
448.73221
 21
403.477376
 31
0.0
  0
LINE
  8
LC-004-005-----0
 62
     2
  5
300
 10
450.313091
 20
405.058257
 30
0.0
 11
453.839632
 21
408.584798
 31
0.0
  0
LINE
  8
LC-004-005-----0
 62
     2
  5
301
 10
445.481856
 20
403.055449
 30
0.0
 11
450.485551
 21
408.059144
 31
0.0
  0
LINE
  8
LC-004-005-----0
 62
     2
  5
302
 10
445.482109
 20
405.884129
 30
0.0
 11
447.657124
 21
408.059144
 31
0.0
  0
LINE
  8
LC-004-005-----0
 62
     2
  5
303
 10
251.223709
 20
389.816638
 30
0.0
 11
251.973472
 21
390.566402
 31
0.0
  0
LINE
  8
LC-004-005-----0
 62
     2
  5
304
 10
248.74503
 20
390.166387
 30
0.0
 11
251.973202
 21
393.394558
 31
0.0
  0
LINE
  8
LC-004-005-----0
 62
     2
  5
305
 10
248.721909
 20
392.971692
 30
0.0
 11
251.972931
 21
396.222715
 31
0.0
  0
LINE
  8
LC-004-005-----0
 62
     2
  5
306
 10
248.721892
 20
395.800103
 30
0.0
 11
251.972661
 21
399.050871
 31
0.0
  0
LINE
  8
LC-004-005-----0
 62
     2
  5
307
 10
248.721875
 20
398.628513
 30
0.0
 11
251.97239
 21
401.879028
 31
0.0
  0
LINE
  8
LC-004-005-----0
 62
     2
  5
308
 10
248.721859
 20
401.456923
 30
0.0
 11
251.972119
 21
404.707184
 31
0.0
  0
LINE
  8
LC-004-005-----0
 62
     2
  5
309
 10
248.608415
 20
404.171907
 30
0.0
 11
251.971849
 21
407.535341
 31
0.0
  0
LINE
  8
LC-004-005-----0
 62
     2
  5
30A
 10
246.666292
 20
405.058211
 30
0.0
 11
249.667529
 21
408.059448
 31
0.0
  0
LINE
  8
LC-004-005-----0
 62
     2
  5
30B
 10
244.087961
 20
405.308307
 30
0.0
 11
246.839988
 21
408.060334
 31
0.0
  0
LINE
  8
LC-004-005-----0
 62
     2
  5
30C
 10
242.014281
 20
406.063055
 30
0.0
 11
244.286917
 21
408.33569
 31
0.0
  0
LINE
  8
LC-004-005-----0
 62
     2
  5
30D
 10
239.940602
 20
406.817802
 30
0.0
 11
242.213237
 21
409.090438
 31
0.0
  0
LINE
  8
LC-004-005-----0
 62
     2
  5
30E
 10
237.866922
 20
407.57255
 30
0.0
 11
240.139558
 21
409.845185
 31
0.0
  0
LINE
  8
LC-004-005-----0
 62
     2
  5
30F
 10
235.793242
 20
408.327297
 30
0.0
 11
238.065878
 21
410.599933
 31
0.0
  0
LINE
  8
LC-004-005-----0
 62
     2
  5
310
 10
233.719563
 20
409.082045
 30
0.0
 11
235.992198
 21
411.35468
 31
0.0
  0
LINE
  8
LC-004-005-----0
 62
     2
  5
311
 10
231.645883
 20
409.836792
 30
0.0
 11
233.918519
 21
412.109428
 31
0.0
  0
LINE
  8
LC-004-005-----0
 62
     2
  5
312
 10
229.572204
 20
410.59154
 30
0.0
 11
231.844839
 21
412.864175
 31
0.0
  0
LINE
  8
LC-004-005-----0
 62
     2
  5
313
 10
227.498524
 20
411.346287
 30
0.0
 11
229.77116
 21
413.618923
 31
0.0
  0
LINE
  8
LC-004-005-----0
 62
     2
  5
314
 10
225.424844
 20
412.101035
 30
0.0
 11
227.69748
 21
414.37367
 31
0.0
  0
LINE
  8
LC-004-005-----0
 62
     2
  5
315
 10
223.351165
 20
412.855782
 30
0.0
 11
225.6238
 21
415.128418
 31
0.0
  0
LINE
  8
LC-004-005-----0
 62
     2
  5
316
 10
221.277485
 20
413.61053
 30
0.0
 11
223.550121
 21
415.883165
 31
0.0
  0
LINE
  8
LC-004-005-----0
 62
     2
  5
317
 10
218.655178
 20
413.816649
 30
0.0
 11
221.476441
 21
416.637913
 31
0.0
  0
LINE
  8
LC-004-005-----0
 62
     2
  5
318
 10
215.82675
 20
413.816649
 30
0.0
 11
218.82675
 21
416.816649
 31
0.0
  0
LINE
  8
LC-004-005-----0
 62
     2
  5
319
 10
212.998323
 20
413.816649
 30
0.0
 11
215.998323
 21
416.816649
 31
0.0
  0
LINE
  8
LC-004-005-----0
 62
     2
  5
31A
 10
210.169896
 20
413.816649
 30
0.0
 11
213.169896
 21
416.816649
 31
0.0
  0
LINE
  8
LC-004-005-----0
 62
     2
  5
31B
 10
207.341469
 20
413.816649
 30
0.0
 11
210.341469
 21
416.816649
 31
0.0
  0
LINE
  8
LC-004-005-----0
 62
     2
  5
31C
 10
204.513042
 20
413.816649
 30
0.0
 11
207.513042
 21
416.816649
 31
0.0
  0
LINE
  8
LC-004-005-----0
 62
     2
  5
31D
 10
201.684615
 20
413.816649
 30
0.0
 11
204.684615
 21
416.816649
 31
0.0
  0
LINE
  8
LC-004-005-----0
 62
     2
  5
31E
 10
198.856188
 20
413.816649
 30
0.0
 11
201.856188
 21
416.816649
 31
0.0
  0
LINE
  8
LC-004-005-----0
 62
     2
  5
31F
 10
196.027761
 20
413.816649
 30
0.0
 11
199.027761
 21
416.816649
 31
0.0
  0
LINE
  8
LC-004-005-----0
 62
     2
  5
320
 10
193.199333
 20
413.816649
 30
0.0
 11
196.199333
 21
416.816649
 31
0.0
  0
LINE
  8
LC-004-005-----0
 62
     2
  5
321
 10
190.370906
 20
413.816649
 30
0.0
 11
193.370906
 21
416.816649
 31
0.0
  0
LINE
  8
LC-004-005-----0
 62
     2
  5
322
 10
187.542479
 20
413.816649
 30
0.0
 11
190.542479
 21
416.816649
 31
0.0
  0
LINE
  8
LC-004-005-----0
 62
     2
  5
323
 10
184.714052
 20
413.816649
 30
0.0
 11
187.714052
 21
416.816649
 31
0.0
  0
LINE
  8
LC-004-005-----0
 62
     2
  5
324
 10
181.885625
 20
413.816649
 30
0.0
 11
184.885625
 21
416.816649
 31
0.0
  0
LINE
  8
LC-004-005-----0
 62
     2
  5
325
 10
179.057198
 20
413.816649
 30
0.0
 11
182.057198
 21
416.816649
 31
0.0
  0
LINE
  8
LC-004-005-----0
 62
     2
  5
326
 10
176.228771
 20
413.816649
 30
0.0
 11
179.228771
 21
416.816649
 31
0.0
  0
LINE
  8
LC-004-005-----0
 62
     2
  5
327
 10
173.400344
 20
413.816649
 30
0.0
 11
176.400344
 21
416.816649
 31
0.0
  0
LINE
  8
LC-004-005-----0
 62
     2
  5
328
 10
171.733566
 20
414.978299
 30
0.0
 11
173.565373
 21
416.810106
 31
0.0
  0
ENDBLK
  8
0
  5
329
  0
BLOCK
  8
0
  5
331
  2
*X13
 70
    65
 10
0.0
 20
0.0
 30
0.0
  3
*X13
  0
LINE
  8
LC-004-005-----0
 62
     2
  5
332
 10
320.727023
 20
307.183799
 30
0.0
 11
320.094025
 21
307.816797
 31
0.0
  0
LINE
  8
LC-004-005-----0
 62
     2
  5
333
 10
320.727023
 20
301.526944
 30
0.0
 11
319.727023
 21
302.526944
 31
0.0
  0
LINE
  8
LC-004-005-----0
 62
     2
  5
334
 10
315.857827
 20
306.39614
 30
0.0
 11
314.437171
 21
307.816797
 31
0.0
  0
LINE
  8
LC-004-005-----0
 62
     2
  5
335
 10
320.727023
 20
298.698517
 30
0.0
 11
319.727023
 21
299.698517
 31
0.0
  0
LINE
  8
LC-004-005-----0
 62
     2
  5
336
 10
320.727023
 20
293.041663
 30
0.0
 11
318.282055
 21
295.486631
 31
0.0
  0
LINE
  8
LC-004-005-----0
 62
     2
  5
337
 10
320.727023
 20
290.213236
 30
0.0
 11
319.727023
 21
291.213236
 31
0.0
  0
LINE
  8
LC-004-005-----0
 62
     2
  5
338
 10
317.211656
 20
293.728603
 30
0.0
 11
315.453628
 21
295.486631
 31
0.0
  0
LINE
  8
LC-004-005-----0
 62
     2
  5
339
 10
320.727023
 20
284.556382
 30
0.0
 11
319.727023
 21
285.556382
 31
0.0
  0
LINE
  8
LC-004-005-----0
 62
     2
  5
33A
 10
320.727023
 20
281.727955
 30
0.0
 11
319.294005
 21
283.160972
 31
0.0
  0
LINE
  8
LC-004-005-----0
 62
     2
  5
33B
 10
320.727023
 20
276.0711
 30
0.0
 11
319.727023
 21
277.0711
 31
0.0
  0
LINE
  8
LC-004-005-----0
 62
     2
  5
33C
 10
314.797625
 20
282.000498
 30
0.0
 11
313.833961
 21
282.964162
 31
0.0
  0
LINE
  8
LC-004-005-----0
 62
     2
  5
33D
 10
320.727023
 20
273.242673
 30
0.0
 11
319.727023
 21
274.242673
 31
0.0
  0
LINE
  8
LC-004-005-----0
 62
     2
  5
33E
 10
320.727023
 20
267.585819
 30
0.0
 11
317.486542
 21
270.8263
 31
0.0
  0
LINE
  8
LC-004-005-----0
 62
     2
  5
33F
 10
320.727023
 20
264.757392
 30
0.0
 11
319.727023
 21
265.757392
 31
0.0
  0
LINE
  8
LC-004-005-----0
 62
     2
  5
340
 10
316.151454
 20
269.332961
 30
0.0
 11
314.658115
 21
270.8263
 31
0.0
  0
LINE
  8
LC-004-005-----0
 62
     2
  5
341
 10
320.727023
 20
259.100538
 30
0.0
 11
319.727023
 21
260.100538
 31
0.0
  0
LINE
  8
LC-004-005-----0
 62
     2
  5
342
 10
320.727023
 20
256.27211
 30
0.0
 11
318.502999
 21
258.496134
 31
0.0
  0
LINE
  8
LC-004-005-----0
 62
     2
  5
343
 10
320.727023
 20
250.615256
 30
0.0
 11
319.727023
 21
251.615256
 31
0.0
  0
LINE
  8
LC-004-005-----0
 62
     2
  5
344
 10
320.727023
 20
247.786829
 30
0.0
 11
319.727023
 21
248.786829
 31
0.0
  0
LINE
  8
LC-004-005-----0
 62
     2
  5
345
 10
320.727023
 20
242.129975
 30
0.0
 11
319.721189
 21
243.135809
 31
0.0
  0
LINE
  8
LC-004-005-----0
 62
     2
  5
346
 10
318.859112
 20
243.997886
 30
0.0
 11
316.691029
 21
246.165968
 31
0.0
  0
LINE
  8
LC-004-005-----0
 62
     2
  5
347
 10
320.727023
 20
239.301548
 30
0.0
 11
319.727023
 21
240.301548
 31
0.0
  0
LINE
  8
LC-004-005-----0
 62
     2
  5
348
 10
315.091252
 20
244.937319
 30
0.0
 11
313.949044
 21
246.079527
 31
0.0
  0
LINE
  8
LC-004-005-----0
 62
     2
  5
349
 10
320.727023
 20
233.644693
 30
0.0
 11
319.727023
 21
234.644693
 31
0.0
  0
LINE
  8
LC-004-005-----0
 62
     2
  5
34A
 10
320.727023
 20
230.816266
 30
0.0
 11
317.707487
 21
233.835803
 31
0.0
  0
LINE
  8
LC-004-005-----0
 62
     2
  5
34B
 10
320.727023
 20
225.159412
 30
0.0
 11
319.727023
 21
226.159412
 31
0.0
  0
LINE
  8
LC-004-005-----0
 62
     2
  5
34C
 10
320.727023
 20
222.330985
 30
0.0
 11
319.727023
 21
223.330985
 31
0.0
  0
LINE
  8
LC-004-005-----0
 62
     2
  5
34D
 10
320.727023
 20
216.674131
 30
0.0
 11
319.727023
 21
217.674131
 31
0.0
  0
LINE
  8
LC-004-005-----0
 62
     2
  5
34E
 10
317.79891
 20
219.602244
 30
0.0
 11
315.895517
 21
221.505637
 31
0.0
  0
LINE
  8
LC-004-005-----0
 62
     2
  5
34F
 10
320.727023
 20
213.845704
 30
0.0
 11
319.727023
 21
214.845704
 31
0.0
  0
LINE
  8
LC-004-005-----0
 62
     2
  5
350
 10
314.017713
 20
220.555013
 30
0.0
 11
313.779923
 21
220.792804
 31
0.0
  0
LINE
  8
LC-004-005-----0
 62
     2
  5
351
 10
320.727023
 20
208.188849
 30
0.0
 11
319.587202
 21
209.32867
 31
0.0
  0
LINE
  8
LC-004-005-----0
 62
     2
  5
352
 10
320.727023
 20
205.360422
 30
0.0
 11
319.622667
 21
206.464778
 31
0.0
  0
LINE
  8
LC-004-005-----0
 62
     2
  5
353
 10
319.188609
 20
206.898837
 30
0.0
 11
316.911974
 21
209.175471
 31
0.0
  0
LINE
  8
LC-004-005-----0
 62
     2
  5
354
 10
320.727023
 20
199.703568
 30
0.0
 11
319.727023
 21
200.703568
 31
0.0
  0
LINE
  8
LC-004-005-----0
 62
     2
  5
355
 10
320.727023
 20
196.875141
 30
0.0
 11
319.727023
 21
197.875141
 31
0.0
  0
LINE
  8
LC-004-005-----0
 62
     2
  5
356
 10
320.727023
 20
191.218287
 30
0.0
 11
319.727023
 21
192.218287
 31
0.0
  0
LINE
  8
LC-004-005-----0
 62
     2
  5
357
 10
316.738707
 20
195.206602
 30
0.0
 11
315.100004
 21
196.845306
 31
0.0
  0
LINE
  8
LC-004-005-----0
 62
     2
  5
358
 10
320.727023
 20
188.389859
 30
0.0
 11
319.727023
 21
189.389859
 31
0.0
  0
LINE
  8
LC-004-005-----0
 62
     2
  5
359
 10
320.727023
 20
182.733005
 30
0.0
 11
318.944888
 21
184.51514
 31
0.0
  0
LINE
  8
LC-004-005-----0
 62
     2
  5
35A
 10
320.727023
 20
179.904578
 30
0.0
 11
319.727023
 21
180.904578
 31
0.0
  0
LINE
  8
LC-004-005-----0
 62
     2
  5
35B
 10
318.092536
 20
182.539065
 30
0.0
 11
316.116461
 21
184.51514
 31
0.0
  0
LINE
  8
LC-004-005-----0
 62
     2
  5
35C
 10
320.727023
 20
174.247724
 30
0.0
 11
319.727023
 21
175.247724
 31
0.0
  0
LINE
  8
LC-004-005-----0
 62
     2
  5
35D
 10
320.727023
 20
171.419297
 30
0.0
 11
319.677761
 21
172.468559
 31
0.0
  0
LINE
  8
LC-004-005-----0
 62
     2
  5
35E
 10
320.727023
 20
165.762442
 30
0.0
 11
319.727023
 21
166.762442
 31
0.0
  0
LINE
  8
LC-004-005-----0
 62
     2
  5
35F
 10
315.678505
 20
170.810961
 30
0.0
 11
314.304491
 21
172.184974
 31
0.0
  0
LINE
  8
LC-004-005-----0
 62
     2
  5
360
 10
320.727023
 20
162.934015
 30
0.0
 11
319.727023
 21
163.934015
 31
0.0
  0
LINE
  8
LC-004-005-----0
 62
     2
  5
361
 10
320.727023
 20
157.277161
 30
0.0
 11
318.149375
 21
159.854809
 31
0.0
  0
LINE
  8
LC-004-005-----0
 62
     2
  5
362
 10
320.727023
 20
154.448734
 30
0.0
 11
319.727023
 21
155.448734
 31
0.0
  0
LINE
  8
LC-004-005-----0
 62
     2
  5
363
 10
317.032334
 20
158.143423
 30
0.0
 11
315.320948
 21
159.854809
 31
0.0
  0
LINE
  8
LC-004-005-----0
 62
     2
  5
364
 10
320.727023
 20
148.79188
 30
0.0
 11
319.727023
 21
149.79188
 31
0.0
  0
LINE
  8
LC-004-005-----0
 62
     2
  5
365
 10
320.727023
 20
145.963453
 30
0.0
 11
319.165832
 21
147.524643
 31
0.0
  0
LINE
  8
LC-004-005-----0
 62
     2
  5
366
 10
320.727023
 20
140.306598
 30
0.0
 11
319.727023
 21
141.306598
 31
0.0
  0
LINE
  8
LC-004-005-----0
 62
     2
  5
367
 10
314.618303
 20
146.415319
 30
0.0
 11
313.787598
 21
147.246024
 31
0.0
  0
LINE
  8
LC-004-005-----0
 62
     2
  5
368
 10
320.727023
 20
137.478171
 30
0.0
 11
319.727023
 21
138.478171
 31
0.0
  0
LINE
  8
LC-004-005-----0
 62
     2
  5
369
 10
320.727023
 20
131.821317
 30
0.0
 11
317.353862
 21
135.194477
 31
0.0
  0
LINE
  8
LC-004-005-----0
 62
     2
  5
36A
 10
320.727023
 20
128.99289
 30
0.0
 11
319.727023
 21
129.99289
 31
0.0
  0
LINE
  8
LC-004-005-----0
 62
     2
  5
36B
 10
315.972132
 20
133.747781
 30
0.0
 11
314.525435
 21
135.194477
 31
0.0
  0
LINE
  8
LC-004-005-----0
 62
     2
  5
36C
 10
320.727023
 20
123.336036
 30
0.0
 11
319.727023
 21
124.336036
 31
0.0
  0
LINE
  8
LC-004-005-----0
 62
     2
  5
36D
 10
320.727023
 20
120.507608
 30
0.0
 11
318.37032
 21
122.864312
 31
0.0
  0
LINE
  8
LC-004-005-----0
 62
     2
  5
36E
 10
320.727023
 20
114.850754
 30
0.0
 11
319.727023
 21
115.850754
 31
0.0
  0
LINE
  8
LC-004-005-----0
 62
     2
  5
36F
 10
320.727023
 20
112.022327
 30
0.0
 11
319.727023
 21
113.022327
 31
0.0
  0
LINE
  8
LC-004-005-----0
 62
     2
  5
370
 10
320.727023
 20
106.365473
 30
0.0
 11
318.679789
 21
108.412706
 31
0.0
  0
LINE
  8
LC-004-005-----0
 62
     2
  5
371
 10
320.727023
 20
103.537046
 30
0.0
 11
319.727023
 21
104.537046
 31
0.0
  0
LINE
  8
LC-004-005-----0
 62
     2
  5
372
 10
314.911929
 20
109.352139
 30
0.0
 11
313.880375
 21
110.383693
 31
0.0
  0
LINE
  8
LC-004-005-----0
 62
     2
  5
373
 10
320.727023
 20
97.880191
 30
0.0
 11
319.727023
 21
98.880191
 31
0.0
  0
LINE
  8
LC-004-005-----0
 62
     2
  5
374
 10
320.727023
 20
95.051764
 30
0.0
 11
317.574807
 21
98.20398
 31
0.0
  0
LINE
  8
LC-004-005-----0
 62
     2
  5
375
 10
320.727023
 20
89.39491
 30
0.0
 11
319.727023
 21
90.39491
 31
0.0
  0
LINE
  8
LC-004-005-----0
 62
     2
  5
376
 10
320.727023
 20
86.566483
 30
0.0
 11
319.727023
 21
87.566483
 31
0.0
  0
LINE
  8
LC-004-005-----0
 62
     2
  5
377
 10
317.619587
 20
84.017065
 30
0.0
 11
315.762837
 21
85.873815
 31
0.0
  0
ENDBLK
  8
0
  5
378
  0
BLOCK
  8
0
  5
37E
  2
*X14
 70
    65
 10
0.0
 20
0.0
 30
0.0
  3
*X14
  0
LINE
  8
LC-004-005-----0
 62
     2
  5
37F
 10
381.04827
 20
306.259521
 30
0.0
 11
379.490995
 21
307.816797
 31
0.0
  0
LINE
  8
LC-004-005-----0
 62
     2
  5
380
 10
378.784311
 20
305.695053
 30
0.0
 11
376.727023
 21
307.752341
 31
0.0
  0
LINE
  8
LC-004-005-----0
 62
     2
  5
381
 10
383.710503
 20
295.112007
 30
0.0
 11
383.351694
 21
295.470816
 31
0.0
  0
LINE
  8
LC-004-005-----0
 62
     2
  5
382
 10
377.727023
 20
301.095487
 30
0.0
 11
376.727023
 21
302.095487
 31
0.0
  0
LINE
  8
LC-004-005-----0
 62
     2
  5
383
 10
381.861733
 20
294.13235
 30
0.0
 11
380.507452
 21
295.486631
 31
0.0
  0
LINE
  8
LC-004-005-----0
 62
     2
  5
384
 10
377.727023
 20
298.26706
 30
0.0
 11
376.727023
 21
299.26706
 31
0.0
  0
LINE
  8
LC-004-005-----0
 62
     2
  5
385
 10
377.759977
 20
292.577252
 30
0.0
 11
376.727023
 21
293.610206
 31
0.0
  0
LINE
  8
LC-004-005-----0
 62
     2
  5
386
 10
377.727023
 20
289.781778
 30
0.0
 11
376.727023
 21
290.781778
 31
0.0
  0
LINE
  8
LC-004-005-----0
 62
     2
  5
387
 10
380.411236
 20
281.440711
 30
0.0
 11
378.695482
 21
283.156465
 31
0.0
  0
LINE
  8
LC-004-005-----0
 62
     2
  5
388
 10
377.727023
 20
284.124924
 30
0.0
 11
376.727023
 21
285.124924
 31
0.0
  0
LINE
  8
LC-004-005-----0
 62
     2
  5
389
 10
378.189531
 20
280.833989
 30
0.0
 11
376.727023
 21
282.296497
 31
0.0
  0
LINE
  8
LC-004-005-----0
 62
     2
  5
38A
 10
383.47323
 20
269.893436
 30
0.0
 11
382.540366
 21
270.8263
 31
0.0
  0
LINE
  8
LC-004-005-----0
 62
     2
  5
38B
 10
377.727023
 20
275.639643
 30
0.0
 11
376.727023
 21
276.639643
 31
0.0
  0
LINE
  8
LC-004-005-----0
 62
     2
  5
38C
 10
381.224699
 20
269.31354
 30
0.0
 11
379.711939
 21
270.8263
 31
0.0
  0
LINE
  8
LC-004-005-----0
 62
     2
  5
38D
 10
377.727023
 20
272.811216
 30
0.0
 11
376.727023
 21
273.811216
 31
0.0
  0
LINE
  8
LC-004-005-----0
 62
     2
  5
38E
 10
377.727023
 20
267.154361
 30
0.0
 11
376.727023
 21
268.154361
 31
0.0
  0
LINE
  8
LC-004-005-----0
 62
     2
  5
38F
 10
377.727023
 20
264.325934
 30
0.0
 11
376.727023
 21
265.325934
 31
0.0
  0
LINE
  8
LC-004-005-----0
 62
     2
  5
390
 10
379.774203
 20
256.621901
 30
0.0
 11
376.727023
 21
259.66908
 31
0.0
  0
LINE
  8
LC-004-005-----0
 62
     2
  5
391
 10
377.817156
 20
255.75052
 30
0.0
 11
376.727023
 21
256.840653
 31
0.0
  0
LINE
  8
LC-004-005-----0
 62
     2
  5
392
 10
382.851624
 20
245.059198
 30
0.0
 11
381.744853
 21
246.165968
 31
0.0
  0
LINE
  8
LC-004-005-----0
 62
     2
  5
393
 10
377.727023
 20
250.183799
 30
0.0
 11
376.727023
 21
251.183799
 31
0.0
  0
LINE
  8
LC-004-005-----0
 62
     2
  5
394
 10
380.587665
 20
244.49473
 30
0.0
 11
378.916426
 21
246.165968
 31
0.0
  0
LINE
  8
LC-004-005-----0
 62
     2
  5
395
 10
377.727023
 20
247.355372
 30
0.0
 11
376.727023
 21
248.355372
 31
0.0
  0
LINE
  8
LC-004-005-----0
 62
     2
  5
396
 10
377.727023
 20
241.698517
 30
0.0
 11
376.727023
 21
242.698517
 31
0.0
  0
LINE
  8
LC-004-005-----0
 62
     2
  5
397
 10
383.59462
 20
233.002493
 30
0.0
 11
382.76131
 21
233.835803
 31
0.0
  0
LINE
  8
LC-004-005-----0
 62
     2
  5
398
 10
377.727023
 20
238.87009
 30
0.0
 11
376.727023
 21
239.87009
 31
0.0
  0
LINE
  8
LC-004-005-----0
 62
     2
  5
399
 10
379.137169
 20
231.80309
 30
0.0
 11
376.727023
 21
234.213236
 31
0.0
  0
LINE
  8
LC-004-005-----0
 62
     2
  5
39A
 10
377.727023
 20
230.384809
 30
0.0
 11
376.727023
 21
231.384809
 31
0.0
  0
LINE
  8
LC-004-005-----0
 62
     2
  5
39B
 10
382.21459
 20
220.240388
 30
0.0
 11
380.94934
 21
221.505637
 31
0.0
  0
LINE
  8
LC-004-005-----0
 62
     2
  5
39C
 10
377.727023
 20
224.727955
 30
0.0
 11
376.727023
 21
225.727955
 31
0.0
  0
LINE
  8
LC-004-005-----0
 62
     2
  5
39D
 10
379.950631
 20
219.675919
 30
0.0
 11
378.106061
 21
221.52049
 31
0.0
  0
LINE
  8
LC-004-005-----0
 62
     2
  5
39E
 10
377.741875
 20
221.884675
 30
0.0
 11
376.727023
 21
222.899527
 31
0.0
  0
LINE
  8
LC-004-005-----0
 62
     2
  5
39F
 10
377.727023
 20
216.242673
 30
0.0
 11
376.727023
 21
217.242673
 31
0.0
  0
LINE
  8
LC-004-005-----0
 62
     2
  5
3A0
 10
383.028052
 20
208.113217
 30
0.0
 11
381.965798
 21
209.175471
 31
0.0
  0
LINE
  8
LC-004-005-----0
 62
     2
  5
3A1
 10
377.727023
 20
213.414246
 30
0.0
 11
376.727023
 21
214.414246
 31
0.0
  0
LINE
  8
LC-004-005-----0
 62
     2
  5
3A2
 10
378.500135
 20
206.98428
 30
0.0
 11
376.727023
 21
208.757392
 31
0.0
  0
LINE
  8
LC-004-005-----0
 62
     2
  5
3A3
 10
377.727023
 20
204.928965
 30
0.0
 11
376.727023
 21
205.928965
 31
0.0
  0
LINE
  8
LC-004-005-----0
 62
     2
  5
3A4
 10
381.577556
 20
195.421577
 30
0.0
 11
380.153828
 21
196.845306
 31
0.0
  0
LINE
  8
LC-004-005-----0
 62
     2
  5
3A5
 10
377.727023
 20
199.27211
 30
0.0
 11
376.727023
 21
200.27211
 31
0.0
  0
LINE
  8
LC-004-005-----0
 62
     2
  5
3A6
 10
379.313597
 20
194.857109
 30
0.0
 11
376.727023
 21
197.443683
 31
0.0
  0
LINE
  8
LC-004-005-----0
 62
     2
  5
3A7
 10
377.727023
 20
190.786829
 30
0.0
 11
376.727023
 21
191.786829
 31
0.0
  0
LINE
  8
LC-004-005-----0
 62
     2
  5
3A8
 10
382.391019
 20
183.294406
 30
0.0
 11
381.170285
 21
184.51514
 31
0.0
  0
LINE
  8
LC-004-005-----0
 62
     2
  5
3A9
 10
377.727023
 20
187.958402
 30
0.0
 11
376.727023
 21
188.958402
 31
0.0
  0
LINE
  8
LC-004-005-----0
 62
     2
  5
3AA
 10
377.993199
 20
182.035372
 30
0.0
 11
376.727023
 21
183.301548
 31
0.0
  0
LINE
  8
LC-004-005-----0
 62
     2
  5
3AB
 10
377.727023
 20
179.473121
 30
0.0
 11
376.727023
 21
180.473121
 31
0.0
  0
LINE
  8
LC-004-005-----0
 62
     2
  5
3AC
 10
380.940522
 20
170.602767
 30
0.0
 11
379.358315
 21
172.184974
 31
0.0
  0
LINE
  8
LC-004-005-----0
 62
     2
  5
3AD
 10
377.727023
 20
173.816266
 30
0.0
 11
376.727023
 21
174.816266
 31
0.0
  0
LINE
  8
LC-004-005-----0
 62
     2
  5
3AE
 10
378.676564
 20
170.038299
 30
0.0
 11
376.727023
 21
171.987839
 31
0.0
  0
LINE
  8
LC-004-005-----0
 62
     2
  5
3AF
 10
383.718316
 20
159.339692
 30
0.0
 11
383.203199
 21
159.854809
 31
0.0
  0
LINE
  8
LC-004-005-----0
 62
     2
  5
3B0
 10
377.727023
 20
165.330985
 30
0.0
 11
376.727023
 21
166.330985
 31
0.0
  0
LINE
  8
LC-004-005-----0
 62
     2
  5
3B1
 10
381.753985
 20
158.475596
 30
0.0
 11
380.374772
 21
159.854809
 31
0.0
  0
LINE
  8
LC-004-005-----0
 62
     2
  5
3B2
 10
377.727023
 20
162.502558
 30
0.0
 11
376.727023
 21
163.502558
 31
0.0
  0
LINE
  8
LC-004-005-----0
 62
     2
  5
3B3
 10
377.730504
 20
156.842222
 30
0.0
 11
376.727023
 21
157.845704
 31
0.0
  0
LINE
  8
LC-004-005-----0
 62
     2
  5
3B4
 10
377.727023
 20
154.017276
 30
0.0
 11
376.727023
 21
155.017276
 31
0.0
  0
LINE
  8
LC-004-005-----0
 62
     2
  5
3B5
 10
380.303489
 20
145.783957
 30
0.0
 11
378.562802
 21
147.524643
 31
0.0
  0
LINE
  8
LC-004-005-----0
 62
     2
  5
3B6
 10
377.727023
 20
148.360422
 30
0.0
 11
376.727023
 21
149.360422
 31
0.0
  0
LINE
  8
LC-004-005-----0
 62
     2
  5
3B7
 10
378.108287
 20
145.150731
 30
0.0
 11
376.727023
 21
146.531995
 31
0.0
  0
LINE
  8
LC-004-005-----0
 62
     2
  5
3B8
 10
383.379417
 20
134.222746
 30
0.0
 11
382.407686
 21
135.194477
 31
0.0
  0
LINE
  8
LC-004-005-----0
 62
     2
  5
3B9
 10
377.727023
 20
139.875141
 30
0.0
 11
376.727023
 21
140.875141
 31
0.0
  0
LINE
  8
LC-004-005-----0
 62
     2
  5
3BA
 10
381.116951
 20
133.656786
 30
0.0
 11
379.579259
 21
135.194477
 31
0.0
  0
LINE
  8
LC-004-005-----0
 62
     2
  5
3BB
 10
377.727023
 20
137.046714
 30
0.0
 11
376.727023
 21
138.046714
 31
0.0
  0
LINE
  8
LC-004-005-----0
 62
     2
  5
3BC
 10
377.727023
 20
131.389859
 30
0.0
 11
376.727023
 21
132.389859
 31
0.0
  0
LINE
  8
LC-004-005-----0
 62
     2
  5
3BD
 10
377.727023
 20
128.561432
 30
0.0
 11
376.727023
 21
129.561432
 31
0.0
  0
LINE
  8
LC-004-005-----0
 62
     2
  5
3BE
 10
379.666455
 20
120.965146
 30
0.0
 11
376.727023
 21
123.904578
 31
0.0
  0
LINE
  8
LC-004-005-----0
 62
     2
  5
3BF
 10
377.773259
 20
120.029915
 30
0.0
 11
376.727023
 21
121.076151
 31
0.0
  0
LINE
  8
LC-004-005-----0
 62
     2
  5
3C0
 10
382.743876
 20
109.402444
 30
0.0
 11
381.612174
 21
110.534146
 31
0.0
  0
LINE
  8
LC-004-005-----0
 62
     2
  5
3C1
 10
377.727023
 20
114.419297
 30
0.0
 11
376.727023
 21
115.419297
 31
0.0
  0
LINE
  8
LC-004-005-----0
 62
     2
  5
3C2
 10
380.479917
 20
108.837975
 30
0.0
 11
378.783746
 21
110.534146
 31
0.0
  0
LINE
  8
LC-004-005-----0
 62
     2
  5
3C3
 10
377.727023
 20
111.59087
 30
0.0
 11
376.727023
 21
112.59087
 31
0.0
  0
LINE
  8
LC-004-005-----0
 62
     2
  5
3C4
 10
377.727023
 20
105.934015
 30
0.0
 11
376.727023
 21
106.934015
 31
0.0
  0
LINE
  8
LC-004-005-----0
 62
     2
  5
3C5
 10
383.522151
 20
97.310461
 30
0.0
 11
382.628631
 21
98.20398
 31
0.0
  0
LINE
  8
LC-004-005-----0
 62
     2
  5
3C6
 10
377.727023
 20
103.105588
 30
0.0
 11
376.727023
 21
104.105588
 31
0.0
  0
LINE
  8
LC-004-005-----0
 62
     2
  5
3C7
 10
379.029421
 20
96.146336
 30
0.0
 11
376.727023
 21
98.448734
 31
0.0
  0
LINE
  8
LC-004-005-----0
 62
     2
  5
3C8
 10
377.727023
 20
94.620307
 30
0.0
 11
376.727023
 21
95.620307
 31
0.0
  0
LINE
  8
LC-004-005-----0
 62
     2
  5
3C9
 10
382.106842
 20
84.583633
 30
0.0
 11
380.816661
 21
85.873815
 31
0.0
  0
LINE
  8
LC-004-005-----0
 62
     2
  5
3CA
 10
377.727023
 20
88.963453
 30
0.0
 11
376.727023
 21
89.963453
 31
0.0
  0
LINE
  8
LC-004-005-----0
 62
     2
  5
3CB
 10
379.842883
 20
84.019165
 30
0.0
 11
376.727023
 21
87.135025
 31
0.0
  0
ENDBLK
  8
0
  5
3CC
  0
BLOCK
  8
0
  5
4B6
  2
*D15
 70
    65
 10
0.0
 20
0.0
 30
0.0
  3
*D15
  0
LINE
  8
LC-005-003-MTH-0
 62
     2
  5
4B7
 10
171.727023
 20
413.816649
 30
0.0
 11
171.727023
 21
520.8
 31
0.0
  0
LINE
  8
LC-005-003-MTH-0
 62
     2
  5
4B8
 10
525.727023
 20
413.816649
 30
0.0
 11
525.727023
 21
520.8
 31
0.0
  0
LINE
  8
LC-006-003-MTG-0
 62
     2
  5
4B9
 10
171.727023
 20
504.0
 30
0.0
 11
525.727023
 21
504.0
 31
0.0
  0
LINE
  8
LC-007-003-----0
 62
     2
  5
4BA
 10
199.487479
 20
507.654733
 30
0.0
 11
171.727023
 21
504.0
 31
0.0
  0
LINE
  8
LC-007-003-----0
 62
     2
  5
4BB
 10
171.727023
 20
504.0
 30
0.0
 11
199.487479
 21
500.345267
 31
0.0
  0
LINE
  8
LC-007-003-----0
 62
     2
  5
4BC
 10
199.487479
 20
500.345267
 30
0.0
 11
199.487479
 21
507.654733
 31
0.0
  0
LINE
  8
LC-007-003-----0
 62
     2
  5
4BD
 10
199.54976
 20
506.704503
 30
0.0
 11
179.007023
 21
504.0
 31
0.0
  0
LINE
  8
LC-007-003-----0
 62
     2
  5
4BE
 10
179.007023
 20
504.0
 30
0.0
 11
199.54976
 21
501.295497
 31
0.0
  0
LINE
  8
LC-007-003-----0
 62
     2
  5
4BF
 10
199.612042
 20
505.754272
 30
0.0
 11
186.287023
 21
504.0
 31
0.0
  0
LINE
  8
LC-007-003-----0
 62
     2
  5
4C0
 10
186.287023
 20
504.0
 30
0.0
 11
199.612042
 21
502.245728
 31
0.0
  0
LINE
  8
LC-007-003-----0
 62
     2
  5
4C1
 10
199.674323
 20
504.804041
 30
0.0
 11
193.567023
 21
504.0
 31
0.0
  0
LINE
  8
LC-007-003-----0
 62
     2
  5
4C2
 10
193.567023
 20
504.0
 30
0.0
 11
199.674323
 21
503.195959
 31
0.0
  0
LINE
  8
LC-007-003-----0
 62
     2
  5
4C3
 10
497.966567
 20
500.345267
 30
0.0
 11
525.727023
 21
504.0
 31
0.0
  0
LINE
  8
LC-007-003-----0
 62
     2
  5
4C4
 10
525.727023
 20
504.0
 30
0.0
 11
497.966567
 21
507.654733
 31
0.0
  0
LINE
  8
LC-007-003-----0
 62
     2
  5
4C5
 10
497.966567
 20
507.654733
 30
0.0
 11
497.966567
 21
500.345267
 31
0.0
  0
LINE
  8
LC-007-003-----0
 62
     2
  5
4C6
 10
497.904285
 20
501.295497
 30
0.0
 11
518.447023
 21
504.0
 31
0.0
  0
LINE
  8
LC-007-003-----0
 62
     2
  5
4C7
 10
518.447023
 20
504.0
 30
0.0
 11
497.904285
 21
506.704503
 31
0.0
  0
LINE
  8
LC-007-003-----0
 62
     2
  5
4C8
 10
497.842004
 20
502.245728
 30
0.0
 11
511.167023
 21
504.0
 31
0.0
  0
LINE
  8
LC-007-003-----0
 62
     2
  5
4C9
 10
511.167023
 20
504.0
 30
0.0
 11
497.842004
 21
505.754272
 31
0.0
  0
LINE
  8
LC-007-003-----0
 62
     2
  5
4CA
 10
497.779723
 20
503.195959
 30
0.0
 11
503.887023
 21
504.0
 31
0.0
  0
LINE
  8
LC-007-003-----0
 62
     2
  5
4CB
 10
503.887023
 20
504.0
 30
0.0
 11
497.779723
 21
504.804041
 31
0.0
  0
TEXT
  8
LC-007-003-----0
 62
     7
  5
4CC
 10
290.075183
 20
511.827554
 30
0.0
 40
28.0
  1
%%c354
 41
0.9
 51
15.0
  7
LCTX15-400-0-0-ARIAL
 72
     1
 11
353.075183
 21
511.827554
 31
0.0
  0
ENDBLK
  8
0
  5
4CD
  0
BLOCK
  8
0
  5
4D0
  2
*D16
 70
    65
 10
0.0
 20
0.0
 30
0.0
  3
*D16
  0
LINE
  8
LC-005-003-MTH-0
 62
     2
  5
4D1
 10
375.521252
 20
71.816649
 30
0.0
 11
566.820473
 21
71.816649
 31
0.0
  0
LINE
  8
LC-005-003-MTH-0
 62
     2
  5
4D2
 10
580.722451
 20
416.816649
 30
0.0
 11
533.220473
 21
416.816649
 31
0.0
  0
LINE
  8
LC-006-003-MTG-0
 62
     2
  5
4D3
 10
550.020473
 20
71.816649
 30
0.0
 11
550.020473
 21
416.816649
 31
0.0
  0
LINE
  8
LC-007-003-----0
 62
     2
  5
4D4
 10
546.36574
 20
99.577105
 30
0.0
 11
550.020473
 21
71.816649
 31
0.0
  0
LINE
  8
LC-007-003-----0
 62
     2
  5
4D5
 10
550.020473
 20
71.816649
 30
0.0
 11
553.675206
 21
99.577105
 31
0.0
  0
LINE
  8
LC-007-003-----0
 62
     2
  5
4D6
 10
553.675206
 20
99.577105
 30
0.0
 11
546.36574
 21
99.577105
 31
0.0
  0
LINE
  8
LC-007-003-----0
 62
     2
  5
4D7
 10
547.31597
 20
99.639387
 30
0.0
 11
550.020473
 21
79.096649
 31
0.0
  0
LINE
  8
LC-007-003-----0
 62
     2
  5
4D8
 10
550.020473
 20
79.096649
 30
0.0
 11
552.724976
 21
99.639387
 31
0.0
  0
LINE
  8
LC-007-003-----0
 62
     2
  5
4D9
 10
548.266201
 20
99.701668
 30
0.0
 11
550.020473
 21
86.376649
 31
0.0
  0
LINE
  8
LC-007-003-----0
 62
     2
  5
4DA
 10
550.020473
 20
86.376649
 30
0.0
 11
551.774745
 21
99.701668
 31
0.0
  0
LINE
  8
LC-007-003-----0
 62
     2
  5
4DB
 10
549.216432
 20
99.76395
 30
0.0
 11
550.020473
 21
93.656649
 31
0.0
  0
LINE
  8
LC-007-003-----0
 62
     2
  5
4DC
 10
550.020473
 20
93.656649
 30
0.0
 11
550.824514
 21
99.76395
 31
0.0
  0
LINE
  8
LC-007-003-----0
 62
     2
  5
4DD
 10
553.675206
 20
389.056193
 30
0.0
 11
550.020473
 21
416.816649
 31
0.0
  0
LINE
  8
LC-007-003-----0
 62
     2
  5
4DE
 10
550.020473
 20
416.816649
 30
0.0
 11
546.36574
 21
389.056193
 31
0.0
  0
LINE
  8
LC-007-003-----0
 62
     2
  5
4DF
 10
546.36574
 20
389.056193
 30
0.0
 11
553.675206
 21
389.056193
 31
0.0
  0
LINE
  8
LC-007-003-----0
 62
     2
  5
4E0
 10
552.724976
 20
388.993912
 30
0.0
 11
550.020473
 21
409.536649
 31
0.0
  0
LINE
  8
LC-007-003-----0
 62
     2
  5
4E1
 10
550.020473
 20
409.536649
 30
0.0
 11
547.31597
 21
388.993912
 31
0.0
  0
LINE
  8
LC-007-003-----0
 62
     2
  5
4E2
 10
551.774745
 20
388.93163
 30
0.0
 11
550.020473
 21
402.256649
 31
0.0
  0
LINE
  8
LC-007-003-----0
 62
     2
  5
4E3
 10
550.020473
 20
402.256649
 30
0.0
 11
548.266201
 21
388.93163
 31
0.0
  0
LINE
  8
LC-007-003-----0
 62
     2
  5
4E4
 10
550.824514
 20
388.869349
 30
0.0
 11
550.020473
 21
394.976649
 31
0.0
  0
LINE
  8
LC-007-003-----0
 62
     2
  5
4E5
 10
550.020473
 20
394.976649
 30
0.0
 11
549.216432
 21
388.869349
 31
0.0
  0
TEXT
  8
LC-007-003-----0
 62
     7
  5
4E6
 10
542.192919
 20
222.036809
 30
0.0
 40
28.0
  1
345
 50
90.0
 41
0.9
 51
15.0
  7
LCTX15-400-0-0-ARIAL
 72
     1
 11
542.192919
 21
248.664809
 31
0.0
  0
ENDBLK
  8
0
  5
4E7
  0
BLOCK
  8
0
  5
522
  2
*D17
 70
    65
 10
0.0
 20
0.0
 30
0.0
  3
*D17
  0
LINE
  8
LC-005-003-MTH-0
 62
     2
  5
523
 10
320.727023
 20
76.316649
 30
0.0
 11
320.727023
 21
12.972
 31
0.0
  0
LINE
  8
LC-005-003-MTH-0
 62
     2
  5
524
 10
376.727023
 20
76.316649
 30
0.0
 11
376.727023
 21
12.972
 31
0.0
  0
LINE
  8
LC-007-003-----0
 62
     2
  5
525
 10
292.966567
 20
26.117267
 30
0.0
 11
320.727023
 21
29.772
 31
0.0
  0
LINE
  8
LC-007-003-----0
 62
     2
  5
526
 10
320.727023
 20
29.772
 30
0.0
 11
292.966567
 21
33.426733
 31
0.0
  0
LINE
  8
LC-007-003-----0
 62
     2
  5
527
 10
292.966567
 20
33.426733
 30
0.0
 11
292.966567
 21
26.117267
 31
0.0
  0
LINE
  8
LC-007-003-----0
 62
     2
  5
528
 10
292.904285
 20
27.067497
 30
0.0
 11
313.447023
 21
29.772
 31
0.0
  0
LINE
  8
LC-007-003-----0
 62
     2
  5
529
 10
313.447023
 20
29.772
 30
0.0
 11
292.904285
 21
32.476503
 31
0.0
  0
LINE
  8
LC-007-003-----0
 62
     2
  5
52A
 10
292.842004
 20
28.017728
 30
0.0
 11
306.167023
 21
29.772
 31
0.0
  0
LINE
  8
LC-007-003-----0
 62
     2
  5
52B
 10
306.167023
 20
29.772
 30
0.0
 11
292.842004
 21
31.526272
 31
0.0
  0
LINE
  8
LC-007-003-----0
 62
     2
  5
52C
 10
292.779723
 20
28.967959
 30
0.0
 11
298.887023
 21
29.772
 31
0.0
  0
LINE
  8
LC-007-003-----0
 62
     2
  5
52D
 10
298.887023
 20
29.772
 30
0.0
 11
292.779723
 21
30.576041
 31
0.0
  0
LINE
  8
LC-007-003-----0
 62
     2
  5
52E
 10
404.487479
 20
33.426733
 30
0.0
 11
376.727023
 21
29.772
 31
0.0
  0
LINE
  8
LC-007-003-----0
 62
     2
  5
52F
 10
376.727023
 20
29.772
 30
0.0
 11
404.487479
 21
26.117267
 31
0.0
  0
LINE
  8
LC-007-003-----0
 62
     2
  5
530
 10
404.487479
 20
26.117267
 30
0.0
 11
404.487479
 21
33.426733
 31
0.0
  0
LINE
  8
LC-007-003-----0
 62
     2
  5
531
 10
404.54976
 20
32.476503
 30
0.0
 11
384.007023
 21
29.772
 31
0.0
  0
LINE
  8
LC-007-003-----0
 62
     2
  5
532
 10
384.007023
 20
29.772
 30
0.0
 11
404.54976
 21
27.067497
 31
0.0
  0
LINE
  8
LC-007-003-----0
 62
     2
  5
533
 10
404.612042
 20
31.526272
 30
0.0
 11
391.287023
 21
29.772
 31
0.0
  0
LINE
  8
LC-007-003-----0
 62
     2
  5
534
 10
391.287023
 20
29.772
 30
0.0
 11
404.612042
 21
28.017728
 31
0.0
  0
LINE
  8
LC-007-003-----0
 62
     2
  5
535
 10
404.674323
 20
30.576041
 30
0.0
 11
398.567023
 21
29.772
 31
0.0
  0
LINE
  8
LC-007-003-----0
 62
     2
  5
536
 10
398.567023
 20
29.772
 30
0.0
 11
404.674323
 21
28.967959
 31
0.0
  0
LINE
  8
LC-006-003-MTG-0
 62
     2
  5
537
 10
281.527023
 20
29.772
 30
0.0
 11
487.495023
 21
29.772
 31
0.0
  0
TEXT
  8
LC-007-003-----0
 62
     7
  5
538
 10
420.275183
 20
31.999554
 30
0.0
 40
28.0
  1
%%c56
 41
0.9
 51
15.0
  7
LCTX15-400-0-0-ARIAL
  0
ENDBLK
  8
0
  5
539
  0
BLOCK
  8
0
  5
53C
  2
*D18
 70
    65
 10
0.0
 20
0.0
 30
0.0
  3
*D18
  0
LINE
  8
LC-005-003-MTH-0
 62
     2
  5
53D
 10
313.739707
 20
85.37452
 30
0.0
 11
313.739707
 21
-34.068
 31
0.0
  0
LINE
  8
LC-005-003-MTH-0
 62
     2
  5
53E
 10
383.710617
 20
85.435368
 30
0.0
 11
383.710617
 21
-34.068
 31
0.0
  0
LINE
  8
LC-007-003-----0
 62
     2
  5
53F
 10
285.979251
 20
-20.922733
 30
0.0
 11
313.739707
 21
-17.268
 31
0.0
  0
LINE
  8
LC-007-003-----0
 62
     2
  5
540
 10
313.739707
 20
-17.268
 30
0.0
 11
285.979251
 21
-13.613267
 31
0.0
  0
LINE
  8
LC-007-003-----0
 62
     2
  5
541
 10
285.979251
 20
-13.613267
 30
0.0
 11
285.979251
 21
-20.922733
 31
0.0
  0
LINE
  8
LC-007-003-----0
 62
     2
  5
542
 10
285.91697
 20
-19.972503
 30
0.0
 11
306.459707
 21
-17.268
 31
0.0
  0
LINE
  8
LC-007-003-----0
 62
     2
  5
543
 10
306.459707
 20
-17.268
 30
0.0
 11
285.91697
 21
-14.563497
 31
0.0
  0
LINE
  8
LC-007-003-----0
 62
     2
  5
544
 10
285.854689
 20
-19.022272
 30
0.0
 11
299.179707
 21
-17.268
 31
0.0
  0
LINE
  8
LC-007-003-----0
 62
     2
  5
545
 10
299.179707
 20
-17.268
 30
0.0
 11
285.854689
 21
-15.513728
 31
0.0
  0
LINE
  8
LC-007-003-----0
 62
     2
  5
546
 10
285.792407
 20
-18.072041
 30
0.0
 11
291.899707
 21
-17.268
 31
0.0
  0
LINE
  8
LC-007-003-----0
 62
     2
  5
547
 10
291.899707
 20
-17.268
 30
0.0
 11
285.792407
 21
-16.463959
 31
0.0
  0
LINE
  8
LC-007-003-----0
 62
     2
  5
548
 10
411.471073
 20
-13.613267
 30
0.0
 11
383.710617
 21
-17.268
 31
0.0
  0
LINE
  8
LC-007-003-----0
 62
     2
  5
549
 10
383.710617
 20
-17.268
 30
0.0
 11
411.471073
 21
-20.922733
 31
0.0
  0
LINE
  8
LC-007-003-----0
 62
     2
  5
54A
 10
411.471073
 20
-20.922733
 30
0.0
 11
411.471073
 21
-13.613267
 31
0.0
  0
LINE
  8
LC-007-003-----0
 62
     2
  5
54B
 10
411.533354
 20
-14.563497
 30
0.0
 11
390.990617
 21
-17.268
 31
0.0
  0
LINE
  8
LC-007-003-----0
 62
     2
  5
54C
 10
390.990617
 20
-17.268
 30
0.0
 11
411.533354
 21
-19.972503
 31
0.0
  0
LINE
  8
LC-007-003-----0
 62
     2
  5
54D
 10
411.595636
 20
-15.513728
 30
0.0
 11
398.270617
 21
-17.268
 31
0.0
  0
LINE
  8
LC-007-003-----0
 62
     2
  5
54E
 10
398.270617
 20
-17.268
 30
0.0
 11
411.595636
 21
-19.022272
 31
0.0
  0
LINE
  8
LC-007-003-----0
 62
     2
  5
54F
 10
411.657917
 20
-16.463959
 30
0.0
 11
405.550617
 21
-17.268
 31
0.0
  0
LINE
  8
LC-007-003-----0
 62
     2
  5
550
 10
405.550617
 20
-17.268
 30
0.0
 11
411.657917
 21
-18.072041
 31
0.0
  0
LINE
  8
LC-006-003-MTG-0
 62
     2
  5
551
 10
274.539707
 20
-17.268
 30
0.0
 11
521.078617
 21
-17.268
 31
0.0
  0
TEXT
  8
LC-007-003-----0
 62
     7
  5
552
 10
427.258777
 20
-9.440446
 30
0.0
 40
28.0
  1
%%c73,5
 41
0.9
 51
15.0
  7
LCTX15-400-0-0-ARIAL
  0
ENDBLK
  8
0
  5
553
  0
BLOCK
  8
0
  5
556
  2
*D19
 70
    65
 10
0.0
 20
0.0
 30
0.0
  3
*D19
  0
LINE
  8
LC-005-003-MTH-0
 62
     2
  5
557
 10
373.727023
 20
71.816649
 30
0.0
 11
448.0
 21
71.816649
 31
0.0
  0
LINE
  8
LC-005-003-MTH-0
 62
     2
  5
558
 10
383.227728
 20
307.816797
 30
0.0
 11
448.0
 21
307.816797
 31
0.0
  0
LINE
  8
LC-006-003-MTG-0
 62
     2
  5
559
 10
431.2
 20
71.816649
 30
0.0
 11
431.2
 21
307.816797
 31
0.0
  0
LINE
  8
LC-007-003-----0
 62
     2
  5
55A
 10
427.545267
 20
99.577105
 30
0.0
 11
431.2
 21
71.816649
 31
0.0
  0
LINE
  8
LC-007-003-----0
 62
     2
  5
55B
 10
431.2
 20
71.816649
 30
0.0
 11
434.854733
 21
99.577105
 31
0.0
  0
LINE
  8
LC-007-003-----0
 62
     2
  5
55C
 10
434.854733
 20
99.577105
 30
0.0
 11
427.545267
 21
99.577105
 31
0.0
  0
LINE
  8
LC-007-003-----0
 62
     2
  5
55D
 10
428.495497
 20
99.639387
 30
0.0
 11
431.2
 21
79.096649
 31
0.0
  0
LINE
  8
LC-007-003-----0
 62
     2
  5
55E
 10
431.2
 20
79.096649
 30
0.0
 11
433.904503
 21
99.639387
 31
0.0
  0
LINE
  8
LC-007-003-----0
 62
     2
  5
55F
 10
429.445728
 20
99.701668
 30
0.0
 11
431.2
 21
86.376649
 31
0.0
  0
LINE
  8
LC-007-003-----0
 62
     2
  5
560
 10
431.2
 20
86.376649
 30
0.0
 11
432.954272
 21
99.701668
 31
0.0
  0
LINE
  8
LC-007-003-----0
 62
     2
  5
561
 10
430.395959
 20
99.76395
 30
0.0
 11
431.2
 21
93.656649
 31
0.0
  0
LINE
  8
LC-007-003-----0
 62
     2
  5
562
 10
431.2
 20
93.656649
 30
0.0
 11
432.004041
 21
99.76395
 31
0.0
  0
LINE
  8
LC-007-003-----0
 62
     2
  5
563
 10
434.854733
 20
280.056341
 30
0.0
 11
431.2
 21
307.816797
 31
0.0
  0
LINE
  8
LC-007-003-----0
 62
     2
  5
564
 10
431.2
 20
307.816797
 30
0.0
 11
427.545267
 21
280.056341
 31
0.0
  0
LINE
  8
LC-007-003-----0
 62
     2
  5
565
 10
427.545267
 20
280.056341
 30
0.0
 11
434.854733
 21
280.056341
 31
0.0
  0
LINE
  8
LC-007-003-----0
 62
     2
  5
566
 10
433.904503
 20
279.994059
 30
0.0
 11
431.2
 21
300.536797
 31
0.0
  0
LINE
  8
LC-007-003-----0
 62
     2
  5
567
 10
431.2
 20
300.536797
 30
0.0
 11
428.495497
 21
279.994059
 31
0.0
  0
LINE
  8
LC-007-003-----0
 62
     2
  5
568
 10
432.954272
 20
279.931778
 30
0.0
 11
431.2
 21
293.256797
 31
0.0
  0
LINE
  8
LC-007-003-----0
 62
     2
  5
569
 10
431.2
 20
293.256797
 30
0.0
 11
429.445728
 21
279.931778
 31
0.0
  0
LINE
  8
LC-007-003-----0
 62
     2
  5
56A
 10
432.004041
 20
279.869496
 30
0.0
 11
431.2
 21
285.976797
 31
0.0
  0
LINE
  8
LC-007-003-----0
 62
     2
  5
56B
 10
431.2
 20
285.976797
 30
0.0
 11
430.395959
 21
279.869496
 31
0.0
  0
TEXT
  8
LC-007-003-----0
 62
     7
  5
56C
 10
423.372446
 20
167.536883
 30
0.0
 40
28.0
  1
236
 50
90.0
 41
0.9
 51
15.0
  7
LCTX15-400-0-0-ARIAL
 72
     1
 11
423.372446
 21
194.164883
 31
0.0
  0
ENDBLK
  8
0
  5
56D
  0
BLOCK
  8
0
  5
581
  2
*X20
 70
    65
 10
0.0
 20
0.0
 30
0.0
  3
*X20
  0
LINE
  8
LC-004-005-----0
 62
     2
  5
582
 10
448.204863
 20
415.172517
 30
0.0
 11
447.480912
 21
415.896468
 31
0.0
  0
LINE
  8
LC-004-005-----0
 62
     2
  5
583
 10
447.465974
 20
415.204299
 30
0.0
 11
446.45328
 21
416.216993
 31
0.0
  0
LINE
  8
LC-004-005-----0
 62
     2
  5
584
 10
446.446173
 20
415.516993
 30
0.0
 11
445.924487
 21
416.038679
 31
0.0
  0
LINE
  8
LC-004-005-----0
 62
     2
  5
585
 10
439.524487
 20
416.074718
 30
0.0
 11
439.382231
 21
416.216974
 31
0.0
  0
LINE
  8
LC-004-005-----0
 62
     2
  5
586
 10
439.375125
 20
415.516974
 30
0.0
 11
438.675127
 21
416.216972
 31
0.0
  0
LINE
  8
LC-004-005-----0
 62
     2
  5
587
 10
438.66802
 20
415.516972
 30
0.0
 11
437.294366
 21
416.890626
 31
0.0
  0
LINE
  8
LC-004-005-----0
 62
     2
  5
588
 10
437.279428
 20
416.198457
 30
0.0
 11
437.244112
 21
416.233772
 31
0.0
  0
ENDBLK
  8
0
  5
589
  0
BLOCK
  8
0
  5
5A4
  2
*X21
 70
    65
 10
0.0
 20
0.0
 30
0.0
  3
*X21
  0
LINE
  8
LC-004-005-----0
 62
     2
  5
5A5
 10
438.970152
 20
388.058464
 30
0.0
 11
439.230456
 21
388.318768
 31
0.0
  0
LINE
  8
LC-004-005-----0
 62
     2
  5
5A6
 10
436.141718
 20
388.058456
 30
0.0
 11
437.14172
 21
389.058459
 31
0.0
  0
ENDBLK
  8
0
  5
5A7
  0
BLOCK
  8
0
  5
5BF
  2
*X22
 70
    65
 10
0.0
 20
0.0
 30
0.0
  3
*X22
  0
LINE
  8
LC-004-005-----0
 62
     2
  5
5C0
 10
473.44495
 20
411.219553
 30
0.0
 11
473.458009
 21
411.232612
 31
0.0
  0
LINE
  8
LC-004-005-----0
 62
     2
  5
5C1
 10
447.455457
 20
388.058488
 30
0.0
 11
448.45546
 21
389.05849
 31
0.0
  0
LINE
  8
LC-004-005-----0
 62
     2
  5
5C2
 10
449.230452
 20
389.833482
 30
0.0
 11
450.230449
 21
390.83348
 31
0.0
  0
LINE
  8
LC-004-005-----0
 62
     2
  5
5C3
 10
468.997923
 20
409.600954
 30
0.0
 11
470.435414
 21
411.038445
 31
0.0
  0
LINE
  8
LC-004-005-----0
 62
     2
  5
5C4
 10
449.230444
 20
392.661902
 30
0.0
 11
450.230442
 21
393.661899
 31
0.0
  0
LINE
  8
LC-004-005-----0
 62
     2
  5
5C5
 10
464.550897
 20
407.982355
 30
0.0
 11
465.988388
 21
409.419846
 31
0.0
  0
LINE
  8
LC-004-005-----0
 62
     2
  5
5C6
 10
449.230437
 20
395.490321
 30
0.0
 11
450.230434
 21
396.490318
 31
0.0
  0
LINE
  8
LC-004-005-----0
 62
     2
  5
5C7
 10
460.103871
 20
406.363756
 30
0.0
 11
461.541362
 21
407.801247
 31
0.0
  0
LINE
  8
LC-004-005-----0
 62
     2
  5
5C8
 10
449.230429
 20
398.318741
 30
0.0
 11
450.230426
 21
399.318738
 31
0.0
  0
LINE
  8
LC-004-005-----0
 62
     2
  5
5C9
 10
455.656845
 20
404.745157
 30
0.0
 11
457.094336
 21
406.182648
 31
0.0
  0
LINE
  8
LC-004-005-----0
 62
     2
  5
5CA
 10
449.230421
 20
401.14716
 30
0.0
 11
450.230418
 21
402.147157
 31
0.0
  0
LINE
  8
LC-004-005-----0
 62
     2
  5
5CB
 10
452.141761
 20
404.0585
 30
0.0
 11
453.141764
 21
405.058503
 31
0.0
  0
LINE
  8
LC-004-005-----0
 62
     2
  5
5CC
 10
449.317783
 20
404.062949
 30
0.0
 11
450.225962
 21
404.971128
 31
0.0
  0
ENDBLK
  8
0
  5
5CD
  0
BLOCK
  8
0
  5
5F4
  2
*X23
 70
    65
 10
0.0
 20
0.0
 30
0.0
  3
*X23
  0
LINE
  8
LC-004-005-----0
 62
     2
  5
5F5
 10
260.209934
 20
416.491255
 30
0.0
 11
259.930626
 21
416.770564
 31
0.0
  0
LINE
  8
LC-004-005-----0
 62
     2
  5
5F6
 10
259.925963
 20
416.06812
 30
0.0
 11
259.466696
 21
416.527387
 31
0.0
  0
LINE
  8
LC-004-005-----0
 62
     2
  5
5F7
 10
259.462032
 20
415.824944
 30
0.0
 11
259.002765
 21
416.284211
 31
0.0
  0
LINE
  8
LC-004-005-----0
 62
     2
  5
5F8
 10
258.998102
 20
415.581767
 30
0.0
 11
258.362896
 21
416.216973
 31
0.0
  0
LINE
  8
LC-004-005-----0
 62
     2
  5
5F9
 10
258.355789
 20
415.516973
 30
0.0
 11
257.929559
 21
415.943204
 31
0.0
  0
LINE
  8
LC-004-005-----0
 62
     2
  5
5FA
 10
251.529559
 20
415.979243
 30
0.0
 11
251.291809
 21
416.216992
 31
0.0
  0
LINE
  8
LC-004-005-----0
 62
     2
  5
5FB
 10
251.284702
 20
415.516992
 30
0.0
 11
250.5847
 21
416.216994
 31
0.0
  0
LINE
  8
LC-004-005-----0
 62
     2
  5
5FC
 10
250.580014
 20
415.514574
 30
0.0
 11
250.120747
 21
415.973841
 31
0.0
  0
LINE
  8
LC-004-005-----0
 62
     2
  5
5FD
 10
250.116083
 20
415.271398
 30
0.0
 11
249.656816
 21
415.730665
 31
0.0
  0
LINE
  8
LC-004-005-----0
 62
     2
  5
5FE
 10
249.652153
 20
415.028222
 30
0.0
 11
249.249183
 21
415.431191
 31
0.0
  0
ENDBLK
  8
0
  5
5FF
  0
BLOCK
  8
0
  5
61A
  2
*X24
 70
    65
 10
0.0
 20
0.0
 30
0.0
  3
*X24
  0
LINE
  8
LC-004-005-----0
 62
     2
  5
61B
 10
260.779237
 20
388.058458
 30
0.0
 11
261.774197
 21
389.053418
 31
0.0
  0
LINE
  8
LC-004-005-----0
 62
     2
  5
61C
 10
258.22359
 20
388.331238
 30
0.0
 11
258.950815
 21
389.058463
 31
0.0
  0
ENDBLK
  8
0
  5
61D
  0
BLOCK
  8
0
  5
637
  2
*X25
 70
    65
 10
0.0
 20
0.0
 30
0.0
  3
*X25
  0
LINE
  8
LC-004-005-----0
 62
     2
  5
638
 10
249.46556
 20
388.058489
 30
0.0
 11
250.465557
 21
389.058486
 31
0.0
  0
LINE
  8
LC-004-005-----0
 62
     2
  5
639
 10
247.411042
 20
388.832399
 30
0.0
 11
248.223593
 21
389.64495
 31
0.0
  0
LINE
  8
LC-004-005-----0
 62
     2
  5
63A
 10
247.223598
 20
391.473382
 30
0.0
 11
248.223601
 21
392.473384
 31
0.0
  0
LINE
  8
LC-004-005-----0
 62
     2
  5
63B
 10
247.223606
 20
394.301817
 30
0.0
 11
248.223609
 21
395.301819
 31
0.0
  0
LINE
  8
LC-004-005-----0
 62
     2
  5
63C
 10
247.223614
 20
397.130252
 30
0.0
 11
248.223617
 21
398.130254
 31
0.0
  0
LINE
  8
LC-004-005-----0
 62
     2
  5
63D
 10
247.223622
 20
399.958686
 30
0.0
 11
248.223624
 21
400.958689
 31
0.0
  0
LINE
  8
LC-004-005-----0
 62
     2
  5
63E
 10
247.223629
 20
402.787121
 30
0.0
 11
248.208378
 21
403.77187
 31
0.0
  0
LINE
  8
LC-004-005-----0
 62
     2
  5
63F
 10
245.66658
 20
404.058499
 30
0.0
 11
246.666578
 21
405.058497
 31
0.0
  0
LINE
  8
LC-004-005-----0
 62
     2
  5
640
 10
243.063802
 20
404.284148
 30
0.0
 11
243.838158
 21
405.058504
 31
0.0
  0
LINE
  8
LC-004-005-----0
 62
     2
  5
641
 10
240.990134
 20
405.038908
 30
0.0
 11
241.660443
 21
405.709216
 31
0.0
  0
LINE
  8
LC-004-005-----0
 62
     2
  5
642
 10
238.916467
 20
405.793667
 30
0.0
 11
239.586775
 21
406.463975
 31
0.0
  0
LINE
  8
LC-004-005-----0
 62
     2
  5
643
 10
236.842799
 20
406.548427
 30
0.0
 11
237.513108
 21
407.218735
 31
0.0
  0
LINE
  8
LC-004-005-----0
 62
     2
  5
644
 10
234.769132
 20
407.303187
 30
0.0
 11
235.43944
 21
407.973495
 31
0.0
  0
LINE
  8
LC-004-005-----0
 62
     2
  5
645
 10
232.695465
 20
408.057946
 30
0.0
 11
233.365773
 21
408.728254
 31
0.0
  0
LINE
  8
LC-004-005-----0
 62
     2
  5
646
 10
230.621797
 20
408.812706
 30
0.0
 11
231.292105
 21
409.483014
 31
0.0
  0
LINE
  8
LC-004-005-----0
 62
     2
  5
647
 10
228.54813
 20
409.567466
 30
0.0
 11
229.218438
 21
410.237774
 31
0.0
  0
LINE
  8
LC-004-005-----0
 62
     2
  5
648
 10
226.474462
 20
410.322225
 30
0.0
 11
227.14477
 21
410.992533
 31
0.0
  0
LINE
  8
LC-004-005-----0
 62
     2
  5
649
 10
224.400795
 20
411.076985
 30
0.0
 11
225.071103
 21
411.747293
 31
0.0
  0
ENDBLK
  8
0
  5
64A
  0
ENDSEC
  0
SECTION
  2
ENTITIES
  0
VIEWPORT
  8
LC-VIEWPORT
  5
65C
 67
     1
 68
     1
 10
420.0
 20
297.0
 30
0.0
 40
840.0
 41
594.0
 69
     1
1001
ACAD
1000
MVIEW
1002
{
1070
    16
1010
0.0
1020
0.0
1030
0.0
1010
0.0
1020
0.0
1030
1.0
1040
0.0
1040
594.0
1040
420.0
1040
297.0
1040
50.0
1040
0.0
1040
0.0
1070
     0
1070
   100
1070
     1
1070
     1
1070
     0
1070
     0
1070
     0
1070
     0
1040
0.0
1040
0.0
1040
0.0
1040
1.0
1040
1.0
1040
0.0
1040
0.0
1070
     0
1002
{
1002
}
1002
}
  0
ARC
  8
LC-001-002-----0
 62
     1
  5
26
 10
227.034784
 20
419.585578
 30
0.0
 40
3.0
 50
200.55718
 51
257.999909
  0
LINE
  8
LC-001-002-----0
 62
     1
  5
27
 10
345.420049
 20
473.516891
 30
0.0
 11
345.420049
 21
488.316891
 31
0.0
  0
LINE
  8
LC-001-002-----0
 62
     1
  5
28
 10
352.030717
 20
473.5169
 30
0.0
 11
352.030676
 21
488.3169
 31
0.0
  0
ARC
  8
LC-001-002-----0
 62
     1
  5
29
 10
227.034784
 20
419.585578
 30
0.0
 40
2.0
 50
212.292587
 51
257.999909
  0
LINE
  8
LC-001-002-----0
 62
     1
  5
2A
 10
224.225817
 20
418.532152
 30
0.0
 11
225.344122
 21
418.517092
 31
0.0
  0
LINE
  8
LC-001-002-----0
 62
     1
  5
2B
 10
313.593012
 20
418.517088
 30
0.0
 11
301.264924
 21
418.517061
 31
0.0
  0
ARC
  8
LC-002-002-RND-0
 62
     1
  5
2D
 10
397.173989
 20
473.316962
 30
0.0
 40
15.0
 50
20.000157
 51
90.000079
  0
LINE
  8
LC-001-002-----0
 62
     1
  5
2E
 10
263.139897
 20
415.141154
 30
0.0
 11
266.038228
 21
423.104252
 31
0.0
  0
ARC
  8
LC-002-002-RND-0
 62
     1
  5
2F
 10
300.276778
 20
473.316829
 30
0.0
 40
15.0
 50
90.000079
 51
160.0
  0
LINE
  8
LC-001-002-----0
 62
     1
  5
30
 10
434.311029
 20
415.141389
 30
0.0
 11
431.410504
 21
423.110449
 31
0.0
  0
LINE
  8
LC-001-002-----0
 62
     1
  5
31
 10
300.276757
 20
488.316829
 30
0.0
 11
397.173968
 21
488.316962
 31
0.0
  0
LINE
  8
LC-001-002-----0
 62
     1
  5
32
 10
419.225202
 20
413.317024
 30
0.0
 11
391.927227
 21
488.316955
 31
0.0
  0
LINE
  8
LC-001-002-----0
 62
     1
  5
33
 10
391.212242
 20
484.231821
 30
0.0
 11
389.725363
 21
488.316952
 31
0.0
  0
LINE
  8
LC-001-002-----0
 62
     1
  5
34
 10
393.565108
 20
483.816953
 30
0.0
 11
391.212242
 21
484.231821
 31
0.0
  0
LINE
  8
LC-001-002-----0
 62
     1
  5
35
 10
278.225729
 20
413.31683
 30
0.0
 11
305.523498
 21
488.316836
 31
0.0
  0
LINE
  8
LC-001-002-----0
 62
     1
  5
36
 10
306.238495
 20
484.231704
 30
0.0
 11
307.725363
 21
488.316839
 31
0.0
  0
LINE
  8
LC-001-002-----0
 62
     1
  5
37
 10
303.88563
 20
483.81683
 30
0.0
 11
306.238495
 21
484.231704
 31
0.0
  0
LINE
  8
LC-003-002-___-0
 62
     2
  5
39
 10
417.707414
 20
396.61702
 30
0.0
 11
419.725225
 21
396.617025
 31
0.0
  0
LINE
  8
LC-001-002-----0
 62
     1
  5
3A
 10
431.118467
 20
413.317056
 30
0.0
 11
434.311029
 21
415.141389
 31
0.0
  0
INSERT
  8
LC-004-005-----0
 62
     2
  5
4A
  2
*X0
 10
0.0
 20
0.0
 30
0.0
  0
ARC
  8
LC-002-002-RND-0
 62
     1
  5
4B
 10
423.125241
 20
385.317035
 30
0.0
 40
1.0
 50
0.000079
 51
90.000157
  0
LINE
  8
LC-003-002-___-0
 62
     2
  5
4C
 10
279.743563
 20
396.61683
 30
0.0
 11
277.725752
 21
396.61683
 31
0.0
  0
LINE
  8
LC-001-002-----0
 62
     1
  5
4D
 10
404.921064
 20
452.616985
 30
0.0
 11
404.921076
 21
448.253884
 31
0.0
  0
ARC
  8
LC-002-002-RND-0
 62
     1
  5
4E
 10
423.125241
 20
385.317035
 30
0.0
 40
1.0
 50
270.000157
 51
0.000079
  0
LINE
  8
LC-001-002-----0
 62
     1
  5
4F
 10
423.225244
 20
384.317035
 30
0.0
 11
421.725242
 21
384.317031
 31
0.0
  0
LINE
  8
LC-001-002-----0
 62
     1
  5
50
 10
266.332464
 20
413.31683
 30
0.0
 11
263.139897
 21
415.141154
 31
0.0
  0
LINE
  8
LC-001-002-----0
 62
     1
  5
51
 10
426.625225
 20
396.617044
 30
0.0
 11
422.625225
 21
396.617033
 31
0.0
  0
ARC
  8
LC-002-002-RND-0
 62
     1
  5
52
 10
423.125239
 20
386.817035
 30
0.0
 40
0.5
 50
180.000079
 51
270.000157
  0
LINE
  8
LC-001-002-----0
 62
     1
  5
53
 10
423.125244
 20
384.317035
 30
0.0
 11
419.725242
 21
384.317025
 31
0.0
  0
LINE
  8
LC-001-002-----0
 62
     1
  5
54
 10
406.717507
 20
447.93713
 30
0.0
 11
404.921076
 21
448.253884
 31
0.0
  0
ARC
  8
LC-002-002-RND-0
 62
     1
  5
55
 10
426.625224
 20
397.117044
 30
0.0
 40
0.5
 50
270.000157
 51
0.000079
  0
LINE
  8
LC-001-002-----0
 62
     1
  5
56
 10
419.725213
 20
405.617025
 30
0.0
 11
419.725242
 21
384.317025
 31
0.0
  0
LINE
  8
LC-001-002-----0
 62
     1
  5
57
 10
427.125202
 20
413.317046
 30
0.0
 11
427.125224
 21
397.117045
 31
0.0
  0
LINE
  8
LC-001-002-----0
 62
     1
  5
58
 10
419.725213
 20
405.617025
 30
0.0
 11
419.225213
 21
405.617024
 31
0.0
  0
LINE
  8
LC-001-002-----0
 62
     1
  5
59
 10
419.225202
 20
413.317024
 30
0.0
 11
419.225213
 21
405.617024
 31
0.0
  0
LINE
  8
LC-001-002-----0
 62
     1
  5
5A
 10
422.625202
 20
413.317033
 30
0.0
 11
422.625239
 21
386.817034
 31
0.0
  0
LINE
  8
LC-001-002-----0
 62
     1
  5
5B
 10
349.875726
 20
473.516897
 30
0.0
 11
349.875726
 21
452.61683
 31
0.0
  0
LINE
  8
LC-001-002-----0
 62
     1
  5
5C
 10
347.575726
 20
473.516894
 30
0.0
 11
347.575726
 21
452.61683
 31
0.0
  0
ARC
  8
LC-002-002-RND-0
 62
     1
  5
5D
 10
274.325767
 20
385.31683
 30
0.0
 40
1.0
 50
90.0
 51
180.000079
  0
LINE
  8
LC-001-002-----0
 62
     1
  5
5E
 10
292.529759
 20
452.61683
 30
0.0
 11
292.529759
 21
448.25373
 31
0.0
  0
ARC
  8
LC-002-002-RND-0
 62
     1
  5
5F
 10
274.325767
 20
385.31683
 30
0.0
 40
1.0
 50
180.000079
 51
270.0
  0
LINE
  8
LC-001-002-----0
 62
     1
  5
60
 10
274.325767
 20
384.31683
 30
0.0
 11
275.725769
 21
384.31683
 31
0.0
  0
LINE
  8
LC-001-002-----0
 62
     1
  5
61
 10
270.825752
 20
396.61683
 30
0.0
 11
274.825752
 21
396.61683
 31
0.0
  0
ARC
  8
LC-002-002-RND-0
 62
     1
  5
62
 10
274.325765
 20
386.81683
 30
0.0
 40
0.5
 50
270.0
 51
0.000079
  0
LINE
  8
LC-001-002-----0
 62
     1
  5
63
 10
274.325767
 20
384.31683
 30
0.0
 11
277.725768
 21
384.31683
 31
0.0
  0
LINE
  8
LC-001-002-----0
 62
     1
  5
64
 10
290.832814
 20
447.954513
 30
0.0
 11
292.529759
 21
448.25373
 31
0.0
  0
ARC
  8
LC-002-002-RND-0
 62
     1
  5
65
 10
270.825752
 20
397.11683
 30
0.0
 40
0.5
 50
180.000079
 51
270.0
  0
LINE
  8
LC-001-002-----0
 62
     1
  5
66
 10
277.725739
 20
405.61683
 30
0.0
 11
277.725768
 21
384.31683
 31
0.0
  0
LINE
  8
LC-001-002-----0
 62
     1
  5
67
 10
277.725752
 20
396.61683
 30
0.0
 11
334.925488
 21
396.61683
 31
0.0
  0
LINE
  8
LC-001-002-----0
 62
     1
  5
68
 10
270.325729
 20
413.31683
 30
0.0
 11
270.325752
 21
397.11683
 31
0.0
  0
LINE
  8
LC-001-002-----0
 62
     1
  5
69
 10
300.136736
 20
473.516829
 30
0.0
 11
397.31403
 21
473.516962
 31
0.0
  0
INSERT
  8
LC-004-005-----0
 62
     2
  5
70
  2
*X1
 10
0.0
 20
0.0
 30
0.0
  0
INSERT
  8
LC-004-005-----0
 62
     2
  5
79
  2
*X2
 10
0.0
 20
0.0
 30
0.0
  0
LINE
  8
LC-001-002-----0
 62
     1
  5
7A
 10
292.529759
 20
452.61683
 30
0.0
 11
404.921064
 21
452.61683
 31
0.0
  0
LINE
  8
LC-001-002-----0
 62
     1
  5
7B
 10
290.832814
 20
447.954513
 30
0.0
 11
406.618022
 21
447.954513
 31
0.0
  0
INSERT
  8
LC-004-005-----0
 62
     2
  5
8A
  2
*X3
 10
0.0
 20
0.0
 30
0.0
  0
LINE
  8
LC-001-002-----0
 62
     1
  5
8B
 10
360.525478
 20
404.616864
 30
0.0
 11
360.525505
 21
384.31683
 31
0.0
  0
LINE
  8
LC-001-002-----0
 62
     1
  5
8C
 10
336.925505
 20
384.31683
 30
0.0
 11
360.525505
 21
384.31683
 31
0.0
  0
LINE
  8
LC-001-002-----0
 62
     1
  5
8D
 10
336.925478
 20
404.616832
 30
0.0
 11
336.925505
 21
384.31683
 31
0.0
  0
LINE
  8
LC-001-002-----0
 62
     1
  5
8E
 10
278.225739
 20
405.61683
 30
0.0
 11
419.225213
 21
405.61683
 31
0.0
  0
LINE
  8
LC-001-002-----0
 62
     1
  5
8F
 10
334.925478
 20
404.616829
 30
0.0
 11
334.925488
 21
396.61683
 31
0.0
  0
LINE
  8
LC-001-002-----0
 62
     1
  5
90
 10
362.525478
 20
404.616867
 30
0.0
 11
362.525488
 21
396.616868
 31
0.0
  0
ARC
  8
LC-002-002-RND-0
 62
     1
  5
91
 10
335.925478
 20
404.61683
 30
0.0
 40
1.0
 50
90.0
 51
180.000079
  0
ARC
  8
LC-002-002-RND-0
 62
     1
  5
92
 10
335.925478
 20
404.61683
 30
0.0
 40
1.0
 50
0.000079
 51
90.0
  0
ARC
  8
LC-002-002-RND-0
 62
     1
  5
93
 10
361.525478
 20
404.616866
 30
0.0
 40
1.0
 50
0.000079
 51
90.000157
  0
ARC
  8
LC-002-002-RND-0
 62
     1
  5
94
 10
361.525478
 20
404.616866
 30
0.0
 40
1.0
 50
90.000157
 51
180.000079
  0
LINE
  8
LC-001-002-----0
 62
     1
  5
95
 10
362.525488
 20
396.61683
 30
0.0
 11
419.725225
 21
396.61683
 31
0.0
  0
LINE
  8
LC-001-002-----0
 62
     1
  5
96
 10
347.575726
 20
447.954513
 30
0.0
 11
347.575726
 21
413.31683
 31
0.0
  0
LINE
  8
LC-001-002-----0
 62
     1
  5
97
 10
349.875726
 20
447.954513
 30
0.0
 11
349.875726
 21
413.31683
 31
0.0
  0
LINE
  8
LC-001-002-----0
 62
     1
  5
98
 10
277.725739
 20
405.61683
 30
0.0
 11
278.225739
 21
405.61683
 31
0.0
  0
LINE
  8
LC-001-002-----0
 62
     1
  5
99
 10
266.332464
 20
413.31683
 30
0.0
 11
431.118071
 21
413.31683
 31
0.0
  0
LINE
  8
LC-001-002-----0
 62
     1
  5
9A
 10
278.225729
 20
413.31683
 30
0.0
 11
278.225739
 21
405.61683
 31
0.0
  0
LINE
  8
LC-001-002-----0
 62
     1
  5
9B
 10
274.825729
 20
413.31683
 30
0.0
 11
274.825765
 21
386.816831
 31
0.0
  0
LINE
  8
LC-001-002-----0
 62
     1
  5
9C
 10
297.118711
 20
452.61683
 30
0.0
 11
305.725501
 21
473.516837
 31
0.0
  0
LINE
  8
LC-001-002-----0
 62
     1
  5
9D
 10
288.254059
 20
413.31683
 30
0.0
 11
301.042876
 21
447.954513
 31
0.0
  0
LINE
  8
LC-001-002-----0
 62
     1
  5
9E
 10
314.476345
 20
413.31683
 30
0.0
 11
321.85997
 21
447.954513
 31
0.0
  0
LINE
  8
LC-001-002-----0
 62
     1
  5
9F
 10
312.484487
 20
413.31683
 30
0.0
 11
319.868112
 21
447.954513
 31
0.0
  0
LINE
  8
LC-001-002-----0
 62
     1
  5
A0
 10
329.370597
 20
413.31683
 30
0.0
 11
333.192641
 21
447.954513
 31
0.0
  0
LINE
  8
LC-001-002-----0
 62
     1
  5
A1
 10
331.592226
 20
413.31683
 30
0.0
 11
335.41427
 21
447.954513
 31
0.0
  0
LINE
  8
LC-001-002-----0
 62
     1
  5
A2
 10
287.104059
 20
413.31683
 30
0.0
 11
299.892876
 21
447.954513
 31
0.0
  0
LINE
  8
LC-001-002-----0
 62
     1
  5
A3
 10
296.523428
 20
452.61683
 30
0.0
 11
305.130217
 21
473.516836
 31
0.0
  0
LINE
  8
LC-001-002-----0
 62
     1
  5
A4
 10
299.694504
 20
413.31683
 30
0.0
 11
310.154754
 21
447.954513
 31
0.0
  0
LINE
  8
LC-001-002-----0
 62
     1
  5
A5
 10
298.068158
 20
413.31683
 30
0.0
 11
308.510182
 21
447.954513
 31
0.0
  0
LINE
  8
LC-001-002-----0
 62
     1
  5
A6
 10
301.614283
 20
452.61683
 30
0.0
 11
309.33092
 21
473.516842
 31
0.0
  0
LINE
  8
LC-001-002-----0
 62
     1
  5
A7
 10
302.764283
 20
452.61683
 30
0.0
 11
310.48092
 21
473.516843
 31
0.0
  0
LINE
  8
LC-001-002-----0
 62
     1
  5
A8
 10
280.934658
 20
413.31683
 30
0.0
 11
295.198732
 21
447.954513
 31
0.0
  0
LINE
  8
LC-001-002-----0
 62
     1
  5
A9
 10
280.339374
 20
413.31683
 30
0.0
 11
294.603448
 21
447.954513
 31
0.0
  0
LINE
  8
LC-001-002-----0
 62
     1
  5
AA
 10
309.915705
 20
452.61683
 30
0.0
 11
316.216315
 21
473.516851
 31
0.0
  0
LINE
  8
LC-001-002-----0
 62
     1
  5
AB
 10
311.56273
 20
452.61683
 30
0.0
 11
317.874338
 21
473.516853
 31
0.0
  0
LINE
  8
LC-001-002-----0
 62
     1
  5
AC
 10
320.861966
 20
452.61683
 30
0.0
 11
325.317172
 21
473.516864
 31
0.0
  0
LINE
  8
LC-001-002-----0
 62
     1
  5
AD
 10
322.853824
 20
452.61683
 30
0.0
 11
327.30903
 21
473.516866
 31
0.0
  0
LINE
  8
LC-001-002-----0
 62
     1
  5
AE
 10
333.707098
 20
452.61683
 30
0.0
 11
336.013283
 21
473.516878
 31
0.0
  0
LINE
  8
LC-001-002-----0
 62
     1
  5
AF
 10
335.928727
 20
452.61683
 30
0.0
 11
338.234912
 21
473.516881
 31
0.0
  0
LINE
  8
LC-001-002-----0
 62
     1
  5
B0
 10
365.858705
 20
413.316877
 30
0.0
 11
362.036566
 21
447.954549
 31
0.0
  0
LINE
  8
LC-001-002-----0
 62
     1
  5
B1
 10
368.080335
 20
413.316884
 30
0.0
 11
364.258195
 21
447.954555
 31
0.0
  0
LINE
  8
LC-001-002-----0
 62
     1
  5
B2
 10
361.522096
 20
452.616866
 30
0.0
 11
359.215854
 21
473.51691
 31
0.0
  0
LINE
  8
LC-001-002-----0
 62
     1
  5
B3
 10
363.743726
 20
452.616872
 30
0.0
 11
361.437483
 21
473.516913
 31
0.0
  0
LINE
  8
LC-001-002-----0
 62
     1
  5
B4
 10
374.596999
 20
452.616901
 30
0.0
 11
370.141736
 21
473.516925
 31
0.0
  0
LINE
  8
LC-001-002-----0
 62
     1
  5
B5
 10
376.588857
 20
452.616907
 30
0.0
 11
372.133594
 21
473.516928
 31
0.0
  0
LINE
  8
LC-001-002-----0
 62
     1
  5
B6
 10
385.888094
 20
452.616932
 30
0.0
 11
379.576428
 21
473.516938
 31
0.0
  0
LINE
  8
LC-001-002-----0
 62
     1
  5
B7
 10
387.535119
 20
452.616937
 30
0.0
 11
381.234451
 21
473.51694
 31
0.0
  0
LINE
  8
LC-001-002-----0
 62
     1
  5
B8
 10
384.966444
 20
413.31693
 30
0.0
 11
377.582724
 21
447.954592
 31
0.0
  0
LINE
  8
LC-001-002-----0
 62
     1
  5
B9
 10
382.974586
 20
413.316924
 30
0.0
 11
375.590866
 21
447.954587
 31
0.0
  0
LINE
  8
LC-001-002-----0
 62
     1
  5
BA
 10
397.756428
 20
413.316965
 30
0.0
 11
387.296082
 21
447.954619
 31
0.0
  0
LINE
  8
LC-001-002-----0
 62
     1
  5
BB
 10
399.382773
 20
413.316969
 30
0.0
 11
388.940654
 21
447.954623
 31
0.0
  0
LINE
  8
LC-001-002-----0
 62
     1
  5
BC
 10
409.196873
 20
413.316996
 30
0.0
 11
396.40796
 21
447.954644
 31
0.0
  0
LINE
  8
LC-001-002-----0
 62
     1
  5
BD
 10
410.346873
 20
413.316999
 30
0.0
 11
397.55796
 21
447.954647
 31
0.0
  0
LINE
  8
LC-001-002-----0
 62
     1
  5
BE
 10
394.686541
 20
452.616957
 30
0.0
 11
386.969846
 21
473.516948
 31
0.0
  0
LINE
  8
LC-001-002-----0
 62
     1
  5
BF
 10
395.83654
 20
452.61696
 30
0.0
 11
388.119846
 21
473.51695
 31
0.0
  0
LINE
  8
LC-001-002-----0
 62
     1
  5
C0
 10
400.332112
 20
452.616972
 30
0.0
 11
391.725265
 21
473.516955
 31
0.0
  0
LINE
  8
LC-001-002-----0
 62
     1
  5
C1
 10
400.332112
 20
452.616972
 30
0.0
 11
391.725265
 21
473.516955
 31
0.0
  0
LINE
  8
LC-001-002-----0
 62
     1
  5
C2
 10
400.927396
 20
452.616974
 30
0.0
 11
392.320549
 21
473.516955
 31
0.0
  0
LINE
  8
LC-001-002-----0
 62
     1
  5
C3
 10
416.516273
 20
413.317016
 30
0.0
 11
402.252104
 21
447.95466
 31
0.0
  0
LINE
  8
LC-001-002-----0
 62
     1
  5
C4
 10
417.111557
 20
413.317018
 30
0.0
 11
402.847388
 21
447.954661
 31
0.0
  0
INSERT
  8
LC-004-005-----0
 62
     2
  5
D0
  2
*X4
 10
0.0
 20
0.0
 30
0.0
  0
LINE
  8
LC-001-002-----0
 62
     1
  5
D1
 10
280.118441
 20
418.517015
 30
0.0
 11
282.480854
 21
418.517021
 31
0.0
  0
LINE
  8
LC-001-002-----0
 62
     1
  5
D2
 10
299.635841
 20
418.517058
 30
0.0
 11
290.174063
 21
418.517037
 31
0.0
  0
LINE
  8
LC-001-002-----0
 62
     1
  5
D3
 10
266.725827
 20
413.316653
 30
0.0
 11
348.725535
 21
413.31683
 31
0.0
  0
LINE
  8
LC-001-002-----0
 62
     1
  5
D4
 10
430.725242
 20
413.317008
 30
0.0
 11
348.725535
 21
413.31683
 31
0.0
  0
ARC
  8
LC-002-002-RND-0
 62
     1
  5
D5
 10
425.725287
 20
394.316982
 30
0.0
 40
3.0
 50
270.000248
 51
0.000111
  0
LINE
  8
LC-001-002-----0
 62
     1
  5
D6
 10
428.725255
 20
410.316996
 30
0.0
 11
428.725287
 21
394.316988
 31
0.0
  0
ARC
  8
LC-002-002-RND-0
 62
     1
  5
D7
 10
430.725255
 20
410.316996
 30
0.0
 40
2.0
 50
90.0
 51
180.0
  0
LINE
  8
LC-001-002-----0
 62
     1
  5
D8
 10
435.832289
 20
412.316998
 30
0.0
 11
430.725255
 21
412.316996
 31
0.0
  0
LINE
  8
LC-001-002-----0
 62
     1
  5
D9
 10
439.72696
 20
413.816998
 30
0.0
 11
437.746502
 21
413.816998
 31
0.0
  0
LINE
  8
LC-001-002-----0
 62
     1
  5
DA
 10
450.648174
 20
412.316989
 30
0.0
 11
449.618063
 21
412.317001
 31
0.0
  0
LINE
  8
LC-001-002-----0
 62
     1
  5
DB
 10
450.648174
 20
412.316989
 30
0.0
 11
471.039878
 21
416.651472
 31
0.0
  0
LINE
  8
LC-001-002-----0
 62
     1
  5
DC
 10
446.225182
 20
414.816998
 30
0.0
 11
446.225182
 21
413.816998
 31
0.0
  0
LINE
  8
LC-001-002-----0
 62
     1
  5
DD
 10
439.225182
 20
414.816998
 30
0.0
 11
439.225182
 21
413.816998
 31
0.0
  0
ARC
  8
LC-002-002-RND-0
 62
     1
  5
DE
 10
435.832289
 20
413.316998
 30
0.0
 40
1.0
 50
270.00002
 51
315.0
  0
ARC
  8
LC-002-002-RND-0
 62
     1
  5
DF
 10
449.618073
 20
413.317001
 30
0.0
 40
1.0
 50
225.0
 51
269.999425
  0
LINE
  8
LC-001-002-----0
 62
     1
  5
E0
 10
447.703861
 20
413.816998
 30
0.0
 11
445.72696
 21
413.816998
 31
0.0
  0
LINE
  8
LC-001-002-----0
 62
     1
  5
E1
 10
436.539395
 20
412.609891
 30
0.0
 11
437.746502
 21
413.816998
 31
0.0
  0
LINE
  8
LC-001-002-----0
 62
     1
  5
E2
 10
447.703861
 20
413.816998
 30
0.0
 11
448.910966
 21
412.609894
 31
0.0
  0
LINE
  8
LC-001-002-----0
 62
     1
  5
E3
 10
473.2251
 20
418.532494
 30
0.0
 11
472.106795
 21
418.517431
 31
0.0
  0
LINE
  8
LC-001-002-----0
 62
     1
  5
E4
 10
425.7253
 20
391.316982
 30
0.0
 11
425.225646
 21
391.31698
 31
0.0
  0
LINE
  8
LC-001-002-----0
 62
     1
  5
E5
 10
430.725242
 20
413.317008
 30
0.0
 11
435.832321
 21
413.31703
 31
0.0
  0
LINE
  8
LC-001-002-----0
 62
     1
  5
E6
 10
423.725648
 20
390.816987
 30
0.0
 11
423.725659
 21
388.316989
 31
0.0
  0
ARC
  8
LC-002-002-RND-0
 62
     1
  5
E7
 10
425.725287
 20
394.316994
 30
0.0
 40
2.0
 50
270.00002
 51
0.000111
  0
ARC
  8
LC-002-002-RND-0
 62
     1
  5
E8
 10
430.725255
 20
410.317008
 30
0.0
 40
3.0
 50
90.000248
 51
180.000111
  0
ARC
  8
LC-001-002-----0
 62
     1
  5
E9
 10
470.41613
 20
419.585912
 30
0.0
 40
3.0
 50
282.000248
 51
339.442977
  0
ARC
  8
LC-001-002-----0
 62
     1
  5
EA
 10
470.41613
 20
419.585912
 30
0.0
 40
2.0
 50
282.000248
 51
327.70757
  0
ARC
  8
LC-002-002-RND-0
 62
     1
  5
EB
 10
425.225648
 20
390.81698
 30
0.0
 40
0.5
 50
90.000248
 51
180.000248
  0
ARC
  8
LC-002-002-RND-0
 62
     1
  5
EC
 10
425.225648
 20
390.816994
 30
0.0
 40
1.5
 50
90.00002
 51
180.000248
  0
LINE
  8
LC-001-002-----0
 62
     1
  5
ED
 10
424.725648
 20
390.816978
 30
0.0
 11
424.725659
 21
388.316994
 31
0.0
  0
LINE
  8
LC-001-002-----0
 62
     1
  5
EE
 10
424.725659
 20
388.316994
 30
0.0
 11
423.725659
 21
388.316989
 31
0.0
  0
LINE
  8
LC-001-002-----0
 62
     1
  5
EF
 10
425.725288
 20
392.316994
 30
0.0
 11
425.225648
 21
392.316994
 31
0.0
  0
LINE
  8
LC-001-002-----0
 62
     1
  5
F0
 10
427.725255
 20
410.317002
 30
0.0
 11
427.725287
 21
394.316998
 31
0.0
  0
LINE
  8
LC-001-002-----0
 62
     1
  5
F1
 10
435.832289
 20
413.316998
 30
0.0
 11
437.039396
 21
414.524105
 31
0.0
  0
LINE
  8
LC-001-002-----0
 62
     1
  5
F2
 10
450.543073
 20
413.31699
 30
0.0
 11
449.618073
 21
413.317001
 31
0.0
  0
LINE
  8
LC-001-002-----0
 62
     1
  5
F3
 10
448.410969
 20
414.524105
 30
0.0
 11
449.618073
 21
413.317001
 31
0.0
  0
DIMENSION
  8
LC-007-003-----0
 62
     2
  5
112
  2
*D5
 10
348.727023
 20
327.6
 30
0.0
 11
348.727023
 21
327.6
 31
0.0
  1
%%c<>
 13
286.227023
 23
372.865441
 33
0.0
 14
411.227023
 24
372.865441
 34
0.0
  3
LC-DIM-L-0140-02-02
  0
LINE
  8
LC-001-002-----0
 62
     1
  5
113
 10
450.543073
 20
413.31699
 30
0.0
 11
470.831962
 21
417.629619
 31
0.0
  0
ARC
  8
LC-002-002-RND-0
 62
     1
  5
114
 10
437.746503
 20
413.816998
 30
0.0
 40
1.0
 50
90.0
 51
135.0
  0
ARC
  8
LC-002-002-RND-0
 62
     1
  5
115
 10
447.703862
 20
413.816998
 30
0.0
 40
1.0
 50
45.0
 51
90.0
  0
INSERT
  8
LC-004-005-----0
 62
     2
  5
127
  2
*X6
 10
0.0
 20
0.0
 30
0.0
  0
INSERT
  8
LC-004-005-----0
 62
     2
  5
136
  2
*X7
 10
0.0
 20
0.0
 30
0.0
  0
ARC
  8
LC-002-002-RND-0
 62
     1
  5
137
 10
271.725864
 20
394.316649
 30
0.0
 40
3.0
 50
180.000136
 51
270.0
  0
LINE
  8
LC-001-002-----0
 62
     1
  5
138
 10
268.725827
 20
410.31665
 30
0.0
 11
268.725864
 21
394.316642
 31
0.0
  0
ARC
  8
LC-002-002-RND-0
 62
     1
  5
139
 10
266.725827
 20
410.316641
 30
0.0
 40
2.0
 50
0.000248
 51
90.000248
  0
LINE
  8
LC-001-002-----0
 62
     1
  5
13A
 10
261.618785
 20
412.316621
 30
0.0
 11
266.725819
 21
412.316641
 31
0.0
  0
LINE
  8
LC-001-002-----0
 62
     1
  5
13B
 10
257.725886
 20
413.816604
 30
0.0
 11
259.704565
 21
413.816613
 31
0.0
  0
LINE
  8
LC-001-002-----0
 62
     1
  5
13C
 10
246.8029
 20
412.316548
 30
0.0
 11
247.833011
 21
412.316564
 31
0.0
  0
LINE
  8
LC-001-002-----0
 62
     1
  5
13D
 10
246.8029
 20
412.316548
 30
0.0
 11
226.41101
 21
416.650978
 31
0.0
  0
LINE
  8
LC-001-002-----0
 62
     1
  5
13E
 10
251.225881
 20
414.816576
 30
0.0
 11
251.225886
 21
413.816576
 31
0.0
  0
LINE
  8
LC-001-002-----0
 62
     1
  5
13F
 10
258.225881
 20
414.816607
 30
0.0
 11
258.225886
 21
413.816607
 31
0.0
  0
ARC
  8
LC-002-002-RND-0
 62
     1
  5
140
 10
261.618781
 20
413.316621
 30
0.0
 40
1.0
 50
225.000248
 51
270.000228
  0
ARC
  8
LC-002-002-RND-0
 62
     1
  5
141
 10
247.832997
 20
413.316564
 30
0.0
 40
1.0
 50
270.000823
 51
315.000248
  0
LINE
  8
LC-001-002-----0
 62
     1
  5
142
 10
249.747206
 20
413.81657
 30
0.0
 11
251.725886
 21
413.816579
 31
0.0
  0
LINE
  8
LC-001-002-----0
 62
     1
  5
143
 10
260.911677
 20
412.609511
 30
0.0
 11
259.704565
 21
413.816613
 31
0.0
  0
LINE
  8
LC-001-002-----0
 62
     1
  5
144
 10
249.747206
 20
413.81657
 30
0.0
 11
248.540107
 21
412.60946
 31
0.0
  0
LINE
  8
LC-001-002-----0
 62
     1
  5
145
 10
271.725864
 20
391.316649
 30
0.0
 11
272.225519
 21
391.316649
 31
0.0
  0
LINE
  8
LC-001-002-----0
 62
     1
  5
146
 10
266.725827
 20
413.316653
 30
0.0
 11
261.618749
 21
413.316653
 31
0.0
  0
LINE
  8
LC-001-002-----0
 62
     1
  5
147
 10
273.725519
 20
390.816663
 30
0.0
 11
273.725519
 21
388.316665
 31
0.0
  0
ARC
  8
LC-002-002-RND-0
 62
     1
  5
148
 10
271.725864
 20
394.316661
 30
0.0
 40
2.0
 50
180.000136
 51
270.000228
  0
ARC
  8
LC-002-002-RND-0
 62
     1
  5
149
 10
266.725827
 20
410.316653
 30
0.0
 40
3.0
 50
0.000136
 51
90.0
  0
LINE
  8
LC-001-002-----0
 62
     1
  5
14A
 10
251.72554
 20
414.816579
 30
0.0
 11
249.747201
 21
414.81657
 31
0.0
  0
ARC
  8
LC-002-002-RND-0
 62
     1
  5
14B
 10
272.225519
 20
390.816649
 30
0.0
 40
0.5
 50
0.0
 51
90.0
  0
ARC
  8
LC-002-002-RND-0
 62
     1
  5
14C
 10
272.225519
 20
390.816663
 30
0.0
 40
1.5
 50
0.0
 51
90.000228
  0
LINE
  8
LC-001-002-----0
 62
     1
  5
14D
 10
272.725519
 20
390.816649
 30
0.0
 11
272.725519
 21
388.316665
 31
0.0
  0
LINE
  8
LC-001-002-----0
 62
     1
  5
14E
 10
272.725519
 20
388.316665
 30
0.0
 11
273.725519
 21
388.316665
 31
0.0
  0
LINE
  8
LC-001-002-----0
 62
     1
  5
14F
 10
271.725872
 20
392.316661
 30
0.0
 11
272.225513
 21
392.316663
 31
0.0
  0
LINE
  8
LC-001-002-----0
 62
     1
  5
150
 10
269.725827
 20
410.31666
 30
0.0
 11
269.725864
 21
394.316656
 31
0.0
  0
LINE
  8
LC-001-002-----0
 62
     1
  5
151
 10
260.20993
 20
414.816615
 30
0.0
 11
257.72554
 21
414.816604
 31
0.0
  0
LINE
  8
LC-001-002-----0
 62
     1
  5
152
 10
261.618781
 20
413.316621
 30
0.0
 11
260.411669
 21
414.523723
 31
0.0
  0
LINE
  8
LC-001-002-----0
 62
     1
  5
153
 10
246.907997
 20
413.31655
 30
0.0
 11
247.832997
 21
413.316564
 31
0.0
  0
LINE
  8
LC-001-002-----0
 62
     1
  5
154
 10
249.040096
 20
414.523674
 30
0.0
 11
247.832997
 21
413.316564
 31
0.0
  0
LINE
  8
LC-001-002-----0
 62
     1
  5
155
 10
246.907997
 20
413.31655
 30
0.0
 11
226.618924
 21
417.629125
 31
0.0
  0
ARC
  8
LC-002-002-RND-0
 62
     1
  5
156
 10
259.704565
 20
413.816613
 30
0.0
 40
1.0
 50
45.000248
 51
90.000248
  0
ARC
  8
LC-002-002-RND-0
 62
     1
  5
157
 10
249.747206
 20
413.81657
 30
0.0
 40
1.0
 50
90.000248
 51
135.000248
  0
INSERT
  8
LC-004-005-----0
 62
     2
  5
167
  2
*X8
 10
0.0
 20
0.0
 30
0.0
  0
DIMENSION
  8
LC-007-003-----0
 62
     2
  5
182
  2
*D9
 10
489.852456
 20
222.341045
 30
0.0
 11
489.852456
 21
222.341045
 31
0.0
 13
428.977023
 23
372.865441
 33
0.0
 14
375.521252
 24
71.816649
 34
0.0
 50
90.0
  3
LC-DIM-L-0140-01-02
  0
LINE
  8
LC-001-002-----0
 62
     1
  5
183
 10
301.027991
 20
423.135019
 30
0.0
 11
291.8791
 21
423.135019
 31
0.0
  0
LINE
  8
LC-001-002-----0
 62
     1
  5
184
 10
314.577405
 20
423.135019
 30
0.0
 11
302.659503
 21
423.135019
 31
0.0
  0
LINE
  8
LC-001-002-----0
 62
     1
  5
185
 10
330.45397
 20
423.135019
 30
0.0
 11
316.569263
 21
423.135019
 31
0.0
  0
LINE
  8
LC-001-002-----0
 62
     1
  5
186
 10
347.575726
 20
423.135019
 30
0.0
 11
332.6756
 21
423.135019
 31
0.0
  0
LINE
  8
LC-001-002-----0
 62
     1
  5
187
 10
364.775309
 20
423.135019
 30
0.0
 11
349.875726
 21
423.135019
 31
0.0
  0
LINE
  8
LC-001-002-----0
 62
     1
  5
188
 10
380.88166
 20
423.135019
 30
0.0
 11
366.996939
 21
423.135019
 31
0.0
  0
LINE
  8
LC-001-002-----0
 62
     1
  5
189
 10
394.791439
 20
423.135019
 30
0.0
 11
382.873519
 21
423.135019
 31
0.0
  0
LINE
  8
LC-001-002-----0
 62
     1
  5
18A
 10
405.571862
 20
423.135019
 30
0.0
 11
396.422952
 21
423.135019
 31
0.0
  0
LINE
  8
LC-001-002-----0
 62
     1
  5
18B
 10
269.250686
 20
431.930409
 30
0.0
 11
286.181389
 21
478.447131
 31
0.0
  0
LINE
  8
LC-001-002-----0
 62
     1
  5
18C
 10
428.215467
 20
431.888665
 30
0.0
 11
411.269364
 21
478.447303
 31
0.0
  0
LINE
  8
LC-001-002-----0
 62
     1
  5
18D
 10
365.284869
 20
418.5172
 30
0.0
 11
349.875726
 21
418.517166
 31
0.0
  0
LINE
  8
LC-001-002-----0
 62
     1
  5
18E
 10
381.866034
 20
418.517236
 30
0.0
 11
367.506498
 21
418.517204
 31
0.0
  0
LINE
  8
LC-001-002-----0
 62
     1
  5
18F
 10
396.18597
 20
418.517267
 30
0.0
 11
383.857893
 21
418.51724
 31
0.0
  0
LINE
  8
LC-001-002-----0
 62
     1
  5
190
 10
407.27682
 20
418.517291
 30
0.0
 11
397.815053
 21
418.51727
 31
0.0
  0
LINE
  8
LC-001-002-----0
 62
     1
  5
191
 10
419.725231
 20
392.316981
 30
0.0
 11
360.525494
 21
392.316853
 31
0.0
  0
LINE
  8
LC-001-002-----0
 62
     1
  5
192
 10
348.725466
 20
405.61683
 30
0.0
 11
348.725551
 21
405.61683
 31
0.0
  0
LINE
  8
LC-001-002-----0
 62
     1
  5
193
 10
361.517097
 20
405.61683
 30
0.0
 11
361.533858
 21
405.61683
 31
0.0
  0
LINE
  8
LC-001-002-----0
 62
     1
  5
194
 10
289.024062
 20
418.517035
 30
0.0
 11
283.076138
 21
418.517022
 31
0.0
  0
LINE
  8
LC-001-002-----0
 62
     1
  5
195
 10
347.575726
 20
418.517161
 30
0.0
 11
332.166045
 21
418.517128
 31
0.0
  0
LINE
  8
LC-001-002-----0
 62
     1
  5
196
 10
301.264924
 20
418.517061
 30
0.0
 11
313.593012
 21
418.517088
 31
0.0
  0
LINE
  8
LC-001-002-----0
 62
     1
  5
197
 10
329.944415
 20
418.517123
 30
0.0
 11
315.584872
 21
418.517092
 31
0.0
  0
LINE
  8
LC-001-002-----0
 62
     1
  5
198
 10
332.166045
 20
418.517128
 30
0.0
 11
347.575726
 21
418.517161
 31
0.0
  0
LINE
  8
LC-001-002-----0
 62
     1
  5
199
 10
315.584872
 20
418.517092
 30
0.0
 11
329.944415
 21
418.517123
 31
0.0
  0
LINE
  8
LC-001-002-----0
 62
     1
  5
19A
 10
290.174063
 20
418.517037
 30
0.0
 11
299.635841
 21
418.517058
 31
0.0
  0
LINE
  8
LC-001-002-----0
 62
     1
  5
19B
 10
283.076138
 20
418.517022
 30
0.0
 11
289.024062
 21
418.517035
 31
0.0
  0
LINE
  8
LC-001-002-----0
 62
     1
  5
19C
 10
266.227022
 20
391.316649
 30
0.0
 11
270.977023
 21
391.316649
 31
0.0
  0
INSERT
  8
LC-004-005-----0
 62
     2
  5
22F
  2
*X10
 10
0.0
 20
0.0
 30
0.0
  0
LINE
  8
LC-001-002-----0
 62
     1
  5
230
 10
323.727023
 20
71.816649
 30
0.0
 11
348.727023
 21
71.816649
 31
0.0
  0
LINE
  8
LC-001-002-----0
 62
     1
  5
231
 10
409.633632
 20
375.865441
 30
0.0
 11
426.477023
 21
375.865441
 31
0.0
  0
LINE
  8
LC-001-002-----0
 62
     1
  5
232
 10
426.477023
 20
391.316649
 30
0.0
 11
431.227022
 21
391.316649
 31
0.0
  0
INSERT
  8
LC-004-005-----0
 62
     2
  5
2AC
  2
*X11
 10
0.0
 20
0.0
 30
0.0
  0
LINE
  8
LC-001-002-----0
 62
     1
  5
2AD
 10
263.227022
 20
388.316649
 30
0.0
 11
266.977023
 21
388.316649
 31
0.0
  0
LINE
  8
LC-001-002-----0
 62
     1
  5
2AE
 10
266.227022
 20
391.316649
 30
0.0
 11
266.227022
 21
407.560061
 31
0.0
  0
LINE
  8
LC-001-002-----0
 62
     1
  5
2AF
 10
431.227022
 20
408.060466
 30
0.0
 11
431.227022
 21
391.316649
 31
0.0
  0
LINE
  8
LC-001-002-----0
 62
     1
  5
2B0
 10
244.775608
 20
405.058027
 30
0.0
 11
247.721837
 21
405.058313
 31
0.0
  0
LINE
  8
LC-001-002-----0
 62
     1
  5
2B1
 10
266.977023
 20
388.316649
 30
0.0
 11
267.977023
 21
387.316649
 31
0.0
  0
LINE
  8
LC-001-002-----0
 62
     1
  5
2B2
 10
320.727023
 20
321.816395
 30
0.0
 11
320.727023
 21
76.316649
 31
0.0
  0
LINE
  8
LC-001-002-----0
 62
     1
  5
2B3
 10
434.227024
 20
388.316649
 30
0.0
 11
430.477023
 21
388.316649
 31
0.0
  0
LINE
  8
LC-001-002-----0
 62
     1
  5
2B4
 10
430.477023
 20
388.316649
 30
0.0
 11
429.477023
 21
387.316649
 31
0.0
  0
LINE
  8
LC-001-002-----0
 62
     1
  5
2B5
 10
323.727023
 20
322.735273
 30
0.0
 11
373.727028
 21
322.735311
 31
0.0
  0
LINE
  8
LC-001-002-----0
 62
     1
  5
2B6
 10
270.977023
 20
375.865441
 30
0.0
 11
270.977023
 21
391.316649
 31
0.0
  0
LINE
  8
LC-001-002-----0
 62
     1
  5
2B7
 10
426.477023
 20
375.865441
 30
0.0
 11
426.477023
 21
391.316649
 31
0.0
  0
LINE
  8
LC-001-002-----0
 62
     1
  5
2B8
 10
323.727023
 20
322.735273
 30
0.0
 11
323.727023
 21
71.816649
 31
0.0
  0
LINE
  8
LC-001-002-----0
 62
     1
  5
2B9
 10
376.727028
 20
321.816433
 30
0.0
 11
376.727023
 21
76.316649
 31
0.0
  0
LINE
  8
LC-001-002-----0
 62
     1
  5
2BA
 10
375.521252
 20
71.816649
 30
0.0
 11
376.727023
 21
76.316649
 31
0.0
  0
LINE
  8
LC-001-002-----0
 62
     1
  5
2BB
 10
321.932794
 20
71.816649
 30
0.0
 11
320.727023
 21
76.316649
 31
0.0
  0
LINE
  8
LC-001-002-----0
 62
     1
  5
2BC
 10
270.977023
 20
375.865441
 30
0.0
 11
287.820414
 21
375.865441
 31
0.0
  0
LINE
  8
LC-001-002-----0
 62
     1
  5
2BD
 10
323.727023
 20
71.816649
 30
0.0
 11
321.932794
 21
71.816649
 31
0.0
  0
LINE
  8
LC-001-002-----0
 62
     1
  5
2BE
 10
373.727023
 20
71.816649
 30
0.0
 11
375.521252
 21
71.816649
 31
0.0
  0
LINE
  8
LC-001-002-----0
 62
     1
  5
2BF
 10
373.727028
 20
322.73528
 30
0.0
 11
373.727023
 21
71.816649
 31
0.0
  0
LINE
  8
LC-001-002-----0
 62
     1
  5
2C0
 10
411.227023
 20
372.865441
 30
0.0
 11
429.477023
 21
372.865441
 31
0.0
  0
ARC
  8
LC-002-002-RND-0
 62
     1
  5
2C1
 10
249.221925
 20
390.316626
 30
0.0
 40
0.5
 50
180.000334
 51
270.000248
  0
LINE
  8
LC-001-002-----0
 62
     1
  5
2C2
 10
267.977023
 20
387.316649
 30
0.0
 11
267.977023
 21
372.865441
 31
0.0
  0
LINE
  8
LC-001-002-----0
 62
     1
  5
2C3
 10
263.227022
 20
388.316649
 30
0.0
 11
263.227022
 21
389.816945
 31
0.0
  0
LINE
  8
LC-001-002-----0
 62
     1
  5
2C4
 10
409.633632
 20
375.865441
 30
0.0
 11
373.727023
 21
322.735273
 31
0.0
  0
LINE
  8
LC-001-002-----0
 62
     1
  5
2C5
 10
286.227023
 20
372.865441
 30
0.0
 11
320.726989
 21
321.816649
 31
0.0
  0
LINE
  8
LC-001-002-----0
 62
     1
  5
2C6
 10
287.820414
 20
375.865441
 30
0.0
 11
323.727023
 21
322.735273
 31
0.0
  0
LINE
  8
LC-001-002-----0
 62
     1
  5
2C7
 10
411.227023
 20
372.865441
 30
0.0
 11
376.727057
 21
321.816649
 31
0.0
  0
LINE
  8
LC-001-002-----0
 62
     1
  5
2C8
 10
266.227022
 20
391.316649
 30
0.0
 11
266.227022
 21
408.060466
 31
0.0
  0
LINE
  8
LC-001-002-----0
 62
     1
  5
2C9
 10
267.977023
 20
372.865441
 30
0.0
 11
286.227023
 21
372.865441
 31
0.0
  0
LINE
  8
LC-001-002-----0
 62
     1
  5
2CA
 10
452.665685
 20
405.058029
 30
0.0
 11
449.732209
 21
405.058313
 31
0.0
  0
LINE
  8
LC-001-002-----0
 62
     1
  5
2CB
 10
434.227024
 20
388.316649
 30
0.0
 11
434.227024
 21
389.816908
 31
0.0
  0
LINE
  8
LC-001-002-----0
 62
     1
  5
2CC
 10
429.477023
 20
387.316649
 30
0.0
 11
429.477023
 21
372.865441
 31
0.0
  0
LINE
  8
LC-001-002-----0
 62
     1
  5
2CD
 10
220.98536
 20
416.816649
 30
0.0
 11
245.041912
 21
408.060898
 31
0.0
  0
LINE
  8
LC-001-002-----0
 62
     1
  5
2CE
 10
220.711168
 20
413.816649
 30
0.0
 11
244.775608
 21
405.058027
 31
0.0
  0
LINE
  8
LC-001-002-----0
 62
     1
  5
2CF
 10
248.721843
 20
404.058502
 30
0.0
 11
248.721925
 21
390.316623
 31
0.0
  0
LINE
  8
LC-001-002-----0
 62
     1
  5
2D0
 10
249.221927
 20
389.816626
 30
0.0
 11
251.727086
 21
389.816641
 31
0.0
  0
LINE
  8
LC-001-002-----0
 62
     1
  5
2D1
 10
266.220103
 20
408.060109
 30
0.0
 11
257.727086
 21
408.059285
 31
0.0
  0
LINE
  8
LC-001-002-----0
 62
     1
  5
2D2
 10
257.727086
 20
389.816678
 30
0.0
 11
263.227022
 21
389.816945
 31
0.0
  0
LINE
  8
LC-001-002-----0
 62
     1
  5
2D3
 10
476.46323
 20
416.816649
 30
0.0
 11
452.394977
 21
408.059144
 31
0.0
  0
LINE
  8
LC-001-002-----0
 62
     1
  5
2D4
 10
476.737278
 20
413.816649
 30
0.0
 11
452.665685
 21
405.058029
 31
0.0
  0
LINE
  8
LC-001-002-----0
 62
     1
  5
2D5
 10
445.72696
 20
408.059144
 30
0.0
 11
452.394977
 21
408.059144
 31
0.0
  0
LINE
  8
LC-001-002-----0
 62
     1
  5
2D6
 10
448.732209
 20
404.058508
 30
0.0
 11
448.73222
 21
390.31665
 31
0.0
  0
LINE
  8
LC-001-002-----0
 62
     1
  5
2D7
 10
448.23222
 20
389.816649
 30
0.0
 11
445.72696
 21
389.816654
 31
0.0
  0
LINE
  8
LC-001-002-----0
 62
     1
  5
2D8
 10
439.72696
 20
389.816784
 30
0.0
 11
434.227024
 21
389.816908
 31
0.0
  0
LINE
  8
LC-001-002-----0
 62
     1
  5
2D9
 10
431.233999
 20
408.060466
 30
0.0
 11
439.72696
 21
408.059678
 31
0.0
  0
ARC
  8
LC-002-002-RND-0
 62
     1
  5
2DA
 10
448.23222
 20
390.316649
 30
0.0
 40
0.5
 50
270.0
 51
0.000045
  0
LINE
  8
LC-001-002-----0
 62
     1
  5
2DB
 10
287.820414
 20
375.865441
 30
0.0
 11
409.633632
 21
375.865441
 31
0.0
  0
LINE
  8
LC-001-002-----0
 62
     1
  5
2DC
 10
525.727023
 20
414.816649
 30
0.0
 11
525.727023
 21
413.816649
 31
0.0
  0
LINE
  8
LC-001-002-----0
 62
     1
  5
2DD
 10
476.46323
 20
416.816649
 30
0.0
 11
523.727023
 21
416.816649
 31
0.0
  0
LINE
  8
LC-001-002-----0
 62
     1
  5
2DE
 10
476.737278
 20
413.816649
 30
0.0
 11
525.727023
 21
413.816649
 31
0.0
  0
LINE
  8
LC-001-002-----0
 62
     1
  5
2DF
 10
221.127119
 20
416.816649
 30
0.0
 11
173.727023
 21
416.816649
 31
0.0
  0
LINE
  8
LC-001-002-----0
 62
     1
  5
2E0
 10
220.716768
 20
413.816649
 30
0.0
 11
171.727023
 21
413.816649
 31
0.0
  0
LINE
  8
LC-001-002-----0
 62
     1
  5
2E1
 10
171.727023
 20
414.816649
 30
0.0
 11
171.727023
 21
413.816649
 31
0.0
  0
INSERT
  8
LC-004-005-----0
 62
     2
  5
32A
  2
*X12
 10
0.0
 20
0.0
 30
0.0
  0
LINE
  8
LC-001-002-----0
 62
     1
  5
32B
 10
247.721837
 20
405.058313
 30
0.0
 11
248.721843
 21
404.058502
 31
0.0
  0
LINE
  8
LC-001-002-----0
 62
     1
  5
32C
 10
449.732209
 20
405.058313
 30
0.0
 11
448.732209
 21
404.058508
 31
0.0
  0
ARC
  8
LC-002-002-RND-0
 62
     1
  5
32D
 10
173.727023
 20
414.816649
 30
0.0
 40
2.0
 50
90.0
 51
180.0
  0
ARC
  8
LC-002-002-RND-0
 62
     1
  5
32E
 10
523.727023
 20
414.816649
 30
0.0
 40
2.0
 50
360.0
 51
90.0
  0
ARC
  8
LC-001-002-----0
 62
     1
  5
32F
 10
318.727023
 20
304.650156
 30
0.0
 40
1.0
 50
360.0
 51
76.0
  0
INSERT
  8
LC-004-005-----0
 62
     2
  5
379
  2
*X13
 10
0.0
 20
0.0
 30
0.0
  0
ARC
  8
LC-001-002-----0
 62
     1
  5
37A
 10
314.226318
 20
307.317501
 30
0.0
 40
0.499295
 50
90.0
 51
256.0
  0
ARC
  8
LC-001-002-----0
 62
     1
  5
37B
 10
378.727023
 20
304.650156
 30
0.0
 40
1.0
 50
104.0
 51
180.0
  0
LINE
  8
LC-001-002-----0
 62
     1
  5
37C
 10
314.105528
 20
306.833037
 30
0.0
 11
318.968945
 21
305.620451
 31
0.0
  0
INSERT
  8
LC-004-005-----0
 62
     2
  5
3CD
  2
*X14
 10
0.0
 20
0.0
 30
0.0
  0
LINE
  8
LC-001-002-----0
 62
     1
  5
3CE
 10
314.106232
 20
294.502872
 30
0.0
 11
318.96965
 21
293.290286
 31
0.0
  0
ARC
  8
LC-001-002-----0
 62
     1
  5
3CF
 10
318.727728
 20
292.31999
 30
0.0
 40
1.0
 50
360.0
 51
76.0
  0
ARC
  8
LC-001-002-----0
 62
     1
  5
3D0
 10
314.227023
 20
294.987336
 30
0.0
 40
0.499295
 50
90.0
 51
256.0
  0
ARC
  8
LC-001-002-----0
 62
     1
  5
3D1
 10
318.728432
 20
279.989824
 30
0.0
 40
1.0
 50
360.0
 51
76.0
  0
ARC
  8
LC-001-002-----0
 62
     1
  5
3D2
 10
383.227728
 20
307.317501
 30
0.0
 40
0.499295
 50
284.0
 51
90.0
  0
LINE
  8
LC-001-002-----0
 62
     1
  5
3D3
 10
383.348518
 20
306.833037
 30
0.0
 11
378.485101
 21
305.620451
 31
0.0
  0
LINE
  8
LC-001-002-----0
 62
     1
  5
3D4
 10
383.347813
 20
294.502872
 30
0.0
 11
378.484396
 21
293.290286
 31
0.0
  0
ARC
  8
LC-001-002-----0
 62
     1
  5
3D5
 10
378.726318
 20
292.31999
 30
0.0
 40
1.0
 50
104.0
 51
180.0
  0
ARC
  8
LC-001-002-----0
 62
     1
  5
3D6
 10
383.227023
 20
294.987336
 30
0.0
 40
0.499295
 50
284.0
 51
90.0
  0
ARC
  8
LC-001-002-----0
 62
     1
  5
3D7
 10
314.227728
 20
282.65717
 30
0.0
 40
0.499295
 50
90.0
 51
256.0
  0
LINE
  8
LC-001-002-----0
 62
     1
  5
3D8
 10
314.106937
 20
282.172706
 30
0.0
 11
318.970354
 21
280.96012
 31
0.0
  0
LINE
  8
LC-001-002-----0
 62
     1
  5
3D9
 10
314.227023
 20
270.8263
 30
0.0
 11
319.227023
 21
270.8263
 31
0.0
  0
LINE
  8
LC-001-002-----0
 62
     1
  5
3DA
 10
314.227023
 20
283.156465
 30
0.0
 11
319.227023
 21
283.156465
 31
0.0
  0
LINE
  8
LC-001-002-----0
 62
     1
  5
3DB
 10
314.227023
 20
295.486631
 30
0.0
 11
319.227023
 21
295.486631
 31
0.0
  0
LINE
  8
LC-001-002-----0
 62
     1
  5
3DC
 10
314.226318
 20
307.816797
 30
0.0
 11
320.727023
 21
307.816797
 31
0.0
  0
LINE
  8
LC-001-002-----0
 62
     1
  5
3DD
 10
314.107642
 20
269.84254
 30
0.0
 11
318.971059
 21
268.629954
 31
0.0
  0
ARC
  8
LC-001-002-----0
 62
     1
  5
3DE
 10
378.725614
 20
279.989824
 30
0.0
 40
1.0
 50
104.0
 51
180.0
  0
ARC
  8
LC-001-002-----0
 62
     1
  5
3DF
 10
383.226318
 20
282.65717
 30
0.0
 40
0.499295
 50
284.0
 51
90.0
  0
LINE
  8
LC-001-002-----0
 62
     1
  5
3E0
 10
383.347109
 20
282.172706
 30
0.0
 11
378.483692
 21
280.96012
 31
0.0
  0
ARC
  8
LC-001-002-----0
 62
     1
  5
3E1
 10
318.729137
 20
267.659659
 30
0.0
 40
1.0
 50
360.0
 51
76.0
  0
ARC
  8
LC-001-002-----0
 62
     1
  5
3E2
 10
314.228432
 20
270.327004
 30
0.0
 40
0.499295
 50
90.0
 51
256.0
  0
ARC
  8
LC-001-002-----0
 62
     1
  5
3E3
 10
318.729842
 20
255.329493
 30
0.0
 40
1.0
 50
360.0
 51
76.0
  0
LINE
  8
LC-001-002-----0
 62
     1
  5
3E4
 10
314.108347
 20
257.512375
 30
0.0
 11
318.971764
 21
256.299789
 31
0.0
  0
ARC
  8
LC-001-002-----0
 62
     1
  5
3E5
 10
314.229137
 20
257.996839
 30
0.0
 40
0.499295
 50
90.0
 51
256.0
  0
LINE
  8
LC-001-002-----0
 62
     1
  5
3E6
 10
314.109051
 20
245.182209
 30
0.0
 11
318.972468
 21
243.969623
 31
0.0
  0
ARC
  8
LC-001-002-----0
 62
     1
  5
3E7
 10
318.730546
 20
242.999327
 30
0.0
 40
1.0
 50
360.0
 51
76.0
  0
ARC
  8
LC-001-002-----0
 62
     1
  5
3E8
 10
314.229842
 20
245.666673
 30
0.0
 40
0.499295
 50
90.0
 51
256.0
  0
ARC
  8
LC-001-002-----0
 62
     1
  5
3E9
 10
318.731251
 20
230.669162
 30
0.0
 40
1.0
 50
360.0
 51
76.0
  0
LINE
  8
LC-001-002-----0
 62
     1
  5
3EA
 10
314.109756
 20
232.852043
 30
0.0
 11
318.973173
 21
231.639457
 31
0.0
  0
ARC
  8
LC-001-002-----0
 62
     1
  5
3EB
 10
314.230546
 20
233.336507
 30
0.0
 40
0.499295
 50
90.0
 51
256.0
  0
ARC
  8
LC-001-002-----0
 62
     1
  5
3EC
 10
318.731956
 20
218.338996
 30
0.0
 40
1.0
 50
360.0
 51
76.0
  0
LINE
  8
LC-001-002-----0
 62
     1
  5
3ED
 10
319.727023
 20
258.996134
 30
0.0
 11
319.727023
 21
267.657034
 31
0.0
  0
LINE
  8
LC-001-002-----0
 62
     1
  5
3EE
 10
319.727023
 20
271.3263
 30
0.0
 11
319.727023
 21
279.9872
 31
0.0
  0
LINE
  8
LC-001-002-----0
 62
     1
  5
3EF
 10
319.727023
 20
283.656465
 30
0.0
 11
319.727023
 21
292.317366
 31
0.0
  0
LINE
  8
LC-001-002-----0
 62
     1
  5
3F0
 10
319.727023
 20
295.986631
 30
0.0
 11
319.727023
 21
304.650156
 31
0.0
  0
LINE
  8
LC-001-002-----0
 62
     1
  5
3F1
 10
314.110461
 20
220.521878
 30
0.0
 11
318.973878
 21
219.309292
 31
0.0
  0
ARC
  8
LC-002-002-RND-0
 62
     1
  5
3F2
 10
319.227023
 20
258.996134
 30
0.0
 40
0.5
 50
270.0
 51
360.0
  0
ARC
  8
LC-002-002-RND-0
 62
     1
  5
3F3
 10
319.227023
 20
271.3263
 30
0.0
 40
0.5
 50
270.0
 51
360.0
  0
ARC
  8
LC-002-002-RND-0
 62
     1
  5
3F4
 10
319.227023
 20
283.656465
 30
0.0
 40
0.5
 50
270.0
 51
360.0
  0
ARC
  8
LC-002-002-RND-0
 62
     1
  5
3F5
 10
319.227023
 20
295.986631
 30
0.0
 40
0.5
 50
270.0
 51
360.0
  0
ARC
  8
LC-001-002-----0
 62
     1
  5
3F6
 10
314.231251
 20
221.006342
 30
0.0
 40
0.499295
 50
90.0
 51
256.0
  0
LINE
  8
LC-001-002-----0
 62
     1
  5
3F7
 10
383.227023
 20
270.8263
 30
0.0
 11
378.227023
 21
270.8263
 31
0.0
  0
LINE
  8
LC-001-002-----0
 62
     1
  5
3F8
 10
383.227023
 20
283.156465
 30
0.0
 11
378.227023
 21
283.156465
 31
0.0
  0
LINE
  8
LC-001-002-----0
 62
     1
  5
3F9
 10
383.227023
 20
295.486631
 30
0.0
 11
378.227023
 21
295.486631
 31
0.0
  0
LINE
  8
LC-001-002-----0
 62
     1
  5
3FA
 10
383.227728
 20
307.816797
 30
0.0
 11
376.727023
 21
307.816797
 31
0.0
  0
ARC
  8
LC-001-002-----0
 62
     1
  5
3FB
 10
318.732661
 20
206.00883
 30
0.0
 40
1.0
 50
360.0
 51
76.0
  0
LINE
  8
LC-001-002-----0
 62
     1
  5
3FC
 10
383.346404
 20
269.84254
 30
0.0
 11
378.482987
 21
268.629954
 31
0.0
  0
ARC
  8
LC-001-002-----0
 62
     1
  5
3FD
 10
378.724909
 20
267.659659
 30
0.0
 40
1.0
 50
104.0
 51
180.0
  0
ARC
  8
LC-001-002-----0
 62
     1
  5
3FE
 10
383.225614
 20
270.327004
 30
0.0
 40
0.499295
 50
284.0
 51
90.0
  0
ARC
  8
LC-001-002-----0
 62
     1
  5
3FF
 10
378.724204
 20
255.329493
 30
0.0
 40
1.0
 50
104.0
 51
180.0
  0
LINE
  8
LC-001-002-----0
 62
     1
  5
400
 10
314.111165
 20
208.191712
 30
0.0
 11
318.974582
 21
206.979126
 31
0.0
  0
LINE
  8
LC-001-002-----0
 62
     1
  5
401
 10
383.345699
 20
257.512375
 30
0.0
 11
378.482282
 21
256.299789
 31
0.0
  0
ARC
  8
LC-001-002-----0
 62
     1
  5
402
 10
383.224909
 20
257.996839
 30
0.0
 40
0.499295
 50
284.0
 51
90.0
  0
LINE
  8
LC-001-002-----0
 62
     1
  5
403
 10
383.344995
 20
245.182209
 30
0.0
 11
378.481578
 21
243.969623
 31
0.0
  0
ARC
  8
LC-001-002-----0
 62
     1
  5
404
 10
378.723499
 20
242.999327
 30
0.0
 40
1.0
 50
104.0
 51
180.0
  0
ARC
  8
LC-001-002-----0
 62
     1
  5
405
 10
314.231956
 20
208.676176
 30
0.0
 40
0.499295
 50
90.0
 51
256.0
  0
ARC
  8
LC-001-002-----0
 62
     1
  5
406
 10
383.224204
 20
245.666673
 30
0.0
 40
0.499295
 50
284.0
 51
90.0
  0
ARC
  8
LC-001-002-----0
 62
     1
  5
407
 10
378.722795
 20
230.669162
 30
0.0
 40
1.0
 50
104.0
 51
180.0
  0
LINE
  8
LC-001-002-----0
 62
     1
  5
408
 10
383.34429
 20
232.852043
 30
0.0
 11
378.480873
 21
231.639457
 31
0.0
  0
ARC
  8
LC-001-002-----0
 62
     1
  5
409
 10
383.223499
 20
233.336507
 30
0.0
 40
0.499295
 50
284.0
 51
90.0
  0
ARC
  8
LC-001-002-----0
 62
     1
  5
40A
 10
378.72209
 20
218.338996
 30
0.0
 40
1.0
 50
104.0
 51
180.0
  0
ARC
  8
LC-001-002-----0
 62
     1
  5
40B
 10
318.733365
 20
193.678665
 30
0.0
 40
1.0
 50
360.0
 51
76.0
  0
LINE
  8
LC-001-002-----0
 62
     1
  5
40C
 10
314.11187
 20
195.861546
 30
0.0
 11
318.975287
 21
194.64896
 31
0.0
  0
ARC
  8
LC-001-002-----0
 62
     1
  5
40D
 10
314.232661
 20
196.34601
 30
0.0
 40
0.499295
 50
90.0
 51
256.0
  0
ARC
  8
LC-001-002-----0
 62
     1
  5
40E
 10
318.73407
 20
181.348499
 30
0.0
 40
1.0
 50
360.0
 51
76.0
  0
LINE
  8
LC-001-002-----0
 62
     1
  5
40F
 10
314.112575
 20
183.531381
 30
0.0
 11
318.975992
 21
182.318795
 31
0.0
  0
ARC
  8
LC-001-002-----0
 62
     1
  5
410
 10
314.233365
 20
184.015845
 30
0.0
 40
0.499295
 50
90.0
 51
256.0
  0
ARC
  8
LC-001-002-----0
 62
     1
  5
411
 10
318.734775
 20
169.018333
 30
0.0
 40
1.0
 50
360.0
 51
76.0
  0
LINE
  8
LC-001-002-----0
 62
     1
  5
412
 10
314.113279
 20
171.201215
 30
0.0
 11
318.976696
 21
169.988629
 31
0.0
  0
ARC
  8
LC-001-002-----0
 62
     1
  5
413
 10
314.23407
 20
171.685679
 30
0.0
 40
0.499295
 50
90.0
 51
256.0
  0
ARC
  8
LC-001-002-----0
 62
     1
  5
414
 10
318.735479
 20
156.688168
 30
0.0
 40
1.0
 50
360.0
 51
76.0
  0
LINE
  8
LC-001-002-----0
 62
     1
  5
415
 10
314.113984
 20
158.871049
 30
0.0
 11
318.977401
 21
157.658463
 31
0.0
  0
ARC
  8
LC-001-002-----0
 62
     1
  5
416
 10
314.234775
 20
159.355513
 30
0.0
 40
0.499295
 50
90.0
 51
256.0
  0
ARC
  8
LC-001-002-----0
 62
     1
  5
417
 10
318.736184
 20
144.358002
 30
0.0
 40
1.0
 50
360.0
 51
76.0
  0
LINE
  8
LC-001-002-----0
 62
     1
  5
418
 10
319.727023
 20
82.70455
 30
0.0
 11
319.727023
 21
82.316649
 31
0.0
  0
LINE
  8
LC-001-002-----0
 62
     1
  5
419
 10
319.727023
 20
86.373815
 30
0.0
 11
319.727023
 21
95.034715
 31
0.0
  0
LINE
  8
LC-001-002-----0
 62
     1
  5
41A
 10
319.727023
 20
246.665968
 30
0.0
 11
319.727023
 21
255.326869
 31
0.0
  0
LINE
  8
LC-001-002-----0
 62
     1
  5
41B
 10
319.227023
 20
85.873815
 30
0.0
 11
314.227023
 21
85.873815
 31
0.0
  0
LINE
  8
LC-001-002-----0
 62
     1
  5
41C
 10
319.727023
 20
234.335803
 30
0.0
 11
319.727023
 21
242.996703
 31
0.0
  0
LINE
  8
LC-001-002-----0
 62
     1
  5
41D
 10
319.727023
 20
222.005637
 30
0.0
 11
319.727023
 21
230.666537
 31
0.0
  0
LINE
  8
LC-001-002-----0
 62
     1
  5
41E
 10
319.727023
 20
209.675471
 30
0.0
 11
319.727023
 21
218.336372
 31
0.0
  0
LINE
  8
LC-001-002-----0
 62
     1
  5
41F
 10
314.114689
 20
146.540884
 30
0.0
 11
318.978106
 21
145.328298
 31
0.0
  0
LINE
  8
LC-001-002-----0
 62
     1
  5
420
 10
319.227023
 20
98.20398
 30
0.0
 11
314.227023
 21
98.20398
 31
0.0
  0
ARC
  8
LC-001-002-----0
 62
     1
  5
421
 10
314.235479
 20
147.025348
 30
0.0
 40
0.499295
 50
90.0
 51
256.0
  0
ARC
  8
LC-001-002-----0
 62
     1
  5
422
 10
318.736889
 20
132.027836
 30
0.0
 40
1.0
 50
360.0
 51
76.0
  0
LINE
  8
LC-001-002-----0
 62
     1
  5
423
 10
319.227023
 20
110.534146
 30
0.0
 11
314.227023
 21
110.534146
 31
0.0
  0
LINE
  8
LC-001-002-----0
 62
     1
  5
424
 10
314.115394
 20
134.210718
 30
0.0
 11
318.978811
 21
132.998132
 31
0.0
  0
ARC
  8
LC-001-002-----0
 62
     1
  5
425
 10
314.236184
 20
134.695182
 30
0.0
 40
0.499295
 50
90.0
 51
256.0
  0
LINE
  8
LC-001-002-----0
 62
     1
  5
426
 10
319.227023
 20
122.864312
 30
0.0
 11
314.227023
 21
122.864312
 31
0.0
  0
ARC
  8
LC-001-002-----0
 62
     1
  5
427
 10
318.737593
 20
119.697671
 30
0.0
 40
1.0
 50
360.0
 51
76.0
  0
LINE
  8
LC-001-002-----0
 62
     1
  5
428
 10
314.116098
 20
121.880552
 30
0.0
 11
318.979515
 21
120.667966
 31
0.0
  0
LINE
  8
LC-001-002-----0
 62
     1
  5
429
 10
319.227023
 20
135.194477
 30
0.0
 11
314.227023
 21
135.194477
 31
0.0
  0
ARC
  8
LC-001-002-----0
 62
     1
  5
42A
 10
314.236889
 20
122.365017
 30
0.0
 40
0.499295
 50
90.0
 51
256.0
  0
ARC
  8
LC-001-002-----0
 62
     1
  5
42B
 10
318.738298
 20
107.367505
 30
0.0
 40
1.0
 50
360.0
 51
76.0
  0
LINE
  8
LC-001-002-----0
 62
     1
  5
42C
 10
314.116803
 20
109.550387
 30
0.0
 11
318.98022
 21
108.337801
 31
0.0
  0
LINE
  8
LC-001-002-----0
 62
     1
  5
42D
 10
319.227023
 20
147.524643
 30
0.0
 11
314.227023
 21
147.524643
 31
0.0
  0
ARC
  8
LC-001-002-----0
 62
     1
  5
42E
 10
314.237593
 20
110.034851
 30
0.0
 40
0.499295
 50
90.0
 51
256.0
  0
ARC
  8
LC-001-002-----0
 62
     1
  5
42F
 10
318.739003
 20
95.037339
 30
0.0
 40
1.0
 50
360.0
 51
76.0
  0
LINE
  8
LC-001-002-----0
 62
     1
  5
430
 10
319.227023
 20
159.854809
 30
0.0
 11
314.227023
 21
159.854809
 31
0.0
  0
LINE
  8
LC-001-002-----0
 62
     1
  5
431
 10
319.727023
 20
197.345306
 30
0.0
 11
319.727023
 21
206.006206
 31
0.0
  0
LINE
  8
LC-001-002-----0
 62
     1
  5
432
 10
319.727023
 20
185.01514
 30
0.0
 11
319.727023
 21
193.67604
 31
0.0
  0
LINE
  8
LC-001-002-----0
 62
     1
  5
433
 10
314.117508
 20
97.220221
 30
0.0
 11
318.980925
 21
96.007635
 31
0.0
  0
ARC
  8
LC-001-002-----0
 62
     1
  5
434
 10
314.238298
 20
97.704685
 30
0.0
 40
0.499295
 50
90.0
 51
256.0
  0
LINE
  8
LC-001-002-----0
 62
     1
  5
435
 10
319.227023
 20
172.184974
 30
0.0
 11
314.227023
 21
172.184974
 31
0.0
  0
ARC
  8
LC-001-002-----0
 62
     1
  5
436
 10
318.739707
 20
82.707174
 30
0.0
 40
1.0
 50
360.0
 51
76.0
  0
LINE
  8
LC-001-002-----0
 62
     1
  5
437
 10
314.118212
 20
84.890055
 30
0.0
 11
318.981629
 21
83.677469
 31
0.0
  0
LINE
  8
LC-001-002-----0
 62
     1
  5
438
 10
319.227023
 20
184.51514
 30
0.0
 11
314.227023
 21
184.51514
 31
0.0
  0
ARC
  8
LC-001-002-----0
 62
     1
  5
439
 10
314.239003
 20
85.37452
 30
0.0
 40
0.499295
 50
90.0
 51
256.0
  0
LINE
  8
LC-001-002-----0
 62
     1
  5
43A
 10
319.727023
 20
160.354809
 30
0.0
 11
319.727023
 21
169.015709
 31
0.0
  0
LINE
  8
LC-001-002-----0
 62
     1
  5
43B
 10
319.727023
 20
135.694477
 30
0.0
 11
319.727023
 21
144.355378
 31
0.0
  0
LINE
  8
LC-001-002-----0
 62
     1
  5
43C
 10
319.727023
 20
123.364312
 30
0.0
 11
319.727023
 21
132.025212
 31
0.0
  0
LINE
  8
LC-001-002-----0
 62
     1
  5
43D
 10
319.727023
 20
111.034146
 30
0.0
 11
319.727023
 21
119.695047
 31
0.0
  0
LINE
  8
LC-001-002-----0
 62
     1
  5
43E
 10
319.727023
 20
98.70398
 30
0.0
 11
319.727023
 21
107.364881
 31
0.0
  0
LINE
  8
LC-001-002-----0
 62
     1
  5
43F
 10
377.727023
 20
258.996134
 30
0.0
 11
377.727023
 21
267.657034
 31
0.0
  0
LINE
  8
LC-001-002-----0
 62
     1
  5
440
 10
377.727023
 20
271.3263
 30
0.0
 11
377.727023
 21
279.9872
 31
0.0
  0
LINE
  8
LC-001-002-----0
 62
     1
  5
441
 10
377.727023
 20
283.656465
 30
0.0
 11
377.727023
 21
292.317366
 31
0.0
  0
LINE
  8
LC-001-002-----0
 62
     1
  5
442
 10
377.727023
 20
295.986631
 30
0.0
 11
377.727023
 21
304.650156
 31
0.0
  0
LINE
  8
LC-001-002-----0
 62
     1
  5
443
 10
319.727023
 20
148.024643
 30
0.0
 11
319.727023
 21
156.685544
 31
0.0
  0
LINE
  8
LC-001-002-----0
 62
     1
  5
444
 10
383.343585
 20
220.521878
 30
0.0
 11
378.480168
 21
219.309292
 31
0.0
  0
ARC
  8
LC-002-002-RND-0
 62
     1
  5
445
 10
378.227023
 20
258.996134
 30
0.0
 40
0.5
 50
180.0
 51
270.0
  0
LINE
  8
LC-001-002-----0
 62
     1
  5
446
 10
319.727023
 20
172.684974
 30
0.0
 11
319.727023
 21
181.345875
 31
0.0
  0
ARC
  8
LC-002-002-RND-0
 62
     1
  5
447
 10
378.227023
 20
271.3263
 30
0.0
 40
0.5
 50
180.0
 51
270.0
  0
ARC
  8
LC-002-002-RND-0
 62
     1
  5
448
 10
378.227023
 20
283.656465
 30
0.0
 40
0.5
 50
180.0
 51
270.0
  0
ARC
  8
LC-002-002-RND-0
 62
     1
  5
449
 10
378.227023
 20
295.986631
 30
0.0
 40
0.5
 50
180.0
 51
270.0
  0
ARC
  8
LC-001-002-----0
 62
     1
  5
44A
 10
383.222795
 20
221.006342
 30
0.0
 40
0.499295
 50
284.0
 51
90.0
  0
ARC
  8
LC-001-002-----0
 62
     1
  5
44B
 10
378.721385
 20
206.00883
 30
0.0
 40
1.0
 50
104.0
 51
180.0
  0
LINE
  8
LC-001-002-----0
 62
     1
  5
44C
 10
383.342881
 20
208.191712
 30
0.0
 11
378.479464
 21
206.979126
 31
0.0
  0
ARC
  8
LC-001-002-----0
 62
     1
  5
44D
 10
383.22209
 20
208.676176
 30
0.0
 40
0.499295
 50
284.0
 51
90.0
  0
ARC
  8
LC-001-002-----0
 62
     1
  5
44E
 10
378.720681
 20
193.678665
 30
0.0
 40
1.0
 50
104.0
 51
180.0
  0
LINE
  8
LC-001-002-----0
 62
     1
  5
44F
 10
383.342176
 20
195.861546
 30
0.0
 11
378.478759
 21
194.64896
 31
0.0
  0
LINE
  8
LC-001-002-----0
 62
     1
  5
450
 10
320.227023
 20
81.816649
 30
0.0
 11
320.727023
 21
81.816649
 31
0.0
  0
LINE
  8
LC-001-002-----0
 62
     1
  5
451
 10
319.727023
 20
82.316649
 30
0.0
 11
320.227023
 21
81.816649
 31
0.0
  0
ARC
  8
LC-001-002-----0
 62
     1
  5
452
 10
383.221385
 20
196.34601
 30
0.0
 40
0.499295
 50
284.0
 51
90.0
  0
LINE
  8
LC-001-002-----0
 62
     1
  5
453
 10
319.227023
 20
196.845306
 30
0.0
 11
314.227023
 21
196.845306
 31
0.0
  0
ARC
  8
LC-001-002-----0
 62
     1
  5
454
 10
378.719976
 20
181.348499
 30
0.0
 40
1.0
 50
104.0
 51
180.0
  0
LINE
  8
LC-001-002-----0
 62
     1
  5
455
 10
383.341471
 20
183.531381
 30
0.0
 11
378.478054
 21
182.318795
 31
0.0
  0
LINE
  8
LC-001-002-----0
 62
     1
  5
456
 10
319.227023
 20
209.175471
 30
0.0
 11
314.227023
 21
209.175471
 31
0.0
  0
ARC
  8
LC-001-002-----0
 62
     1
  5
457
 10
383.220681
 20
184.015845
 30
0.0
 40
0.499295
 50
284.0
 51
90.0
  0
ARC
  8
LC-001-002-----0
 62
     1
  5
458
 10
378.719271
 20
169.018333
 30
0.0
 40
1.0
 50
104.0
 51
180.0
  0
LINE
  8
LC-001-002-----0
 62
     1
  5
459
 10
319.227023
 20
221.505637
 30
0.0
 11
314.227023
 21
221.505637
 31
0.0
  0
LINE
  8
LC-001-002-----0
 62
     1
  5
45A
 10
383.340766
 20
171.201215
 30
0.0
 11
378.477349
 21
169.988629
 31
0.0
  0
ARC
  8
LC-001-002-----0
 62
     1
  5
45B
 10
383.219976
 20
171.685679
 30
0.0
 40
0.499295
 50
284.0
 51
90.0
  0
LINE
  8
LC-001-002-----0
 62
     1
  5
45C
 10
319.227023
 20
233.835803
 30
0.0
 11
314.227023
 21
233.835803
 31
0.0
  0
ARC
  8
LC-001-002-----0
 62
     1
  5
45D
 10
378.718567
 20
156.688168
 30
0.0
 40
1.0
 50
104.0
 51
180.0
  0
LINE
  8
LC-001-002-----0
 62
     1
  5
45E
 10
383.340062
 20
158.871049
 30
0.0
 11
378.476645
 21
157.658463
 31
0.0
  0
LINE
  8
LC-001-002-----0
 62
     1
  5
45F
 10
319.227023
 20
246.165968
 30
0.0
 11
314.227023
 21
246.165968
 31
0.0
  0
ARC
  8
LC-001-002-----0
 62
     1
  5
460
 10
383.219271
 20
159.355513
 30
0.0
 40
0.499295
 50
284.0
 51
90.0
  0
ARC
  8
LC-001-002-----0
 62
     1
  5
461
 10
378.717862
 20
144.358002
 30
0.0
 40
1.0
 50
104.0
 51
180.0
  0
LINE
  8
LC-001-002-----0
 62
     1
  5
462
 10
377.727023
 20
82.70455
 30
0.0
 11
377.727023
 21
82.316649
 31
0.0
  0
LINE
  8
LC-001-002-----0
 62
     1
  5
463
 10
377.727023
 20
86.373815
 30
0.0
 11
377.727023
 21
95.034715
 31
0.0
  0
LINE
  8
LC-001-002-----0
 62
     1
  5
464
 10
377.727023
 20
246.665968
 30
0.0
 11
377.727023
 21
255.326869
 31
0.0
  0
LINE
  8
LC-001-002-----0
 62
     1
  5
465
 10
378.227023
 20
85.873815
 30
0.0
 11
383.227023
 21
85.873815
 31
0.0
  0
LINE
  8
LC-001-002-----0
 62
     1
  5
466
 10
377.727023
 20
234.335803
 30
0.0
 11
377.727023
 21
242.996703
 31
0.0
  0
LINE
  8
LC-001-002-----0
 62
     1
  5
467
 10
377.727023
 20
222.005637
 30
0.0
 11
377.727023
 21
230.666537
 31
0.0
  0
ARC
  8
LC-002-002-RND-0
 62
     1
  5
468
 10
319.227023
 20
98.70398
 30
0.0
 40
0.5
 50
270.0
 51
360.0
  0
LINE
  8
LC-001-002-----0
 62
     1
  5
469
 10
377.727023
 20
209.675471
 30
0.0
 11
377.727023
 21
218.336372
 31
0.0
  0
ARC
  8
LC-002-002-RND-0
 62
     1
  5
46A
 10
319.227023
 20
86.373815
 30
0.0
 40
0.5
 50
270.0
 51
360.0
  0
LINE
  8
LC-001-002-----0
 62
     1
  5
46B
 10
383.339357
 20
146.540884
 30
0.0
 11
378.47594
 21
145.328298
 31
0.0
  0
ARC
  8
LC-002-002-RND-0
 62
     1
  5
46C
 10
319.227023
 20
111.034146
 30
0.0
 40
0.5
 50
270.0
 51
360.0
  0
LINE
  8
LC-001-002-----0
 62
     1
  5
46D
 10
378.227023
 20
98.20398
 30
0.0
 11
383.227023
 21
98.20398
 31
0.0
  0
ARC
  8
LC-002-002-RND-0
 62
     1
  5
46E
 10
319.227023
 20
123.364312
 30
0.0
 40
0.5
 50
270.0
 51
360.0
  0
ARC
  8
LC-001-002-----0
 62
     1
  5
46F
 10
383.218567
 20
147.025348
 30
0.0
 40
0.499295
 50
284.0
 51
90.0
  0
ARC
  8
LC-002-002-RND-0
 62
     1
  5
470
 10
319.227023
 20
135.694477
 30
0.0
 40
0.5
 50
270.0
 51
360.0
  0
ARC
  8
LC-002-002-RND-0
 62
     1
  5
471
 10
319.227023
 20
148.024643
 30
0.0
 40
0.5
 50
270.0
 51
360.0
  0
ARC
  8
LC-002-002-RND-0
 62
     1
  5
472
 10
319.227023
 20
160.354809
 30
0.0
 40
0.5
 50
270.0
 51
360.0
  0
ARC
  8
LC-002-002-RND-0
 62
     1
  5
473
 10
319.227023
 20
172.684974
 30
0.0
 40
0.5
 50
270.0
 51
360.0
  0
ARC
  8
LC-002-002-RND-0
 62
     1
  5
474
 10
319.227023
 20
185.01514
 30
0.0
 40
0.5
 50
270.0
 51
360.0
  0
ARC
  8
LC-002-002-RND-0
 62
     1
  5
475
 10
319.227023
 20
197.345306
 30
0.0
 40
0.5
 50
270.0
 51
360.0
  0
ARC
  8
LC-002-002-RND-0
 62
     1
  5
476
 10
319.227023
 20
209.675471
 30
0.0
 40
0.5
 50
270.0
 51
360.0
  0
ARC
  8
LC-002-002-RND-0
 62
     1
  5
477
 10
319.227023
 20
222.005637
 30
0.0
 40
0.5
 50
270.0
 51
360.0
  0
ARC
  8
LC-002-002-RND-0
 62
     1
  5
478
 10
319.227023
 20
234.335803
 30
0.0
 40
0.5
 50
270.0
 51
360.0
  0
ARC
  8
LC-002-002-RND-0
 62
     1
  5
479
 10
319.227023
 20
246.665968
 30
0.0
 40
0.5
 50
270.0
 51
360.0
  0
ARC
  8
LC-001-002-----0
 62
     1
  5
47A
 10
378.717157
 20
132.027836
 30
0.0
 40
1.0
 50
104.0
 51
180.0
  0
LINE
  8
LC-001-002-----0
 62
     1
  5
47B
 10
378.227023
 20
110.534146
 30
0.0
 11
383.227023
 21
110.534146
 31
0.0
  0
LINE
  8
LC-001-002-----0
 62
     1
  5
47C
 10
383.338652
 20
134.210718
 30
0.0
 11
378.475235
 21
132.998132
 31
0.0
  0
ARC
  8
LC-001-002-----0
 62
     1
  5
47D
 10
383.217862
 20
134.695182
 30
0.0
 40
0.499295
 50
284.0
 51
90.0
  0
LINE
  8
LC-001-002-----0
 62
     1
  5
47E
 10
378.227023
 20
122.864312
 30
0.0
 11
383.227023
 21
122.864312
 31
0.0
  0
ARC
  8
LC-001-002-----0
 62
     1
  5
47F
 10
378.716453
 20
119.697671
 30
0.0
 40
1.0
 50
104.0
 51
180.0
  0
LINE
  8
LC-001-002-----0
 62
     1
  5
480
 10
383.337948
 20
121.880552
 30
0.0
 11
378.474531
 21
120.667966
 31
0.0
  0
LINE
  8
LC-001-002-----0
 62
     1
  5
481
 10
378.227023
 20
135.194477
 30
0.0
 11
383.227023
 21
135.194477
 31
0.0
  0
ARC
  8
LC-001-002-----0
 62
     1
  5
482
 10
383.217157
 20
122.365017
 30
0.0
 40
0.499295
 50
284.0
 51
90.0
  0
ARC
  8
LC-001-002-----0
 62
     1
  5
483
 10
378.715748
 20
107.367505
 30
0.0
 40
1.0
 50
104.0
 51
180.0
  0
LINE
  8
LC-001-002-----0
 62
     1
  5
484
 10
383.337243
 20
109.550387
 30
0.0
 11
378.473826
 21
108.337801
 31
0.0
  0
LINE
  8
LC-001-002-----0
 62
     1
  5
485
 10
378.227023
 20
147.524643
 30
0.0
 11
383.227023
 21
147.524643
 31
0.0
  0
ARC
  8
LC-001-002-----0
 62
     1
  5
486
 10
383.216453
 20
110.034851
 30
0.0
 40
0.499295
 50
284.0
 51
90.0
  0
ARC
  8
LC-001-002-----0
 62
     1
  5
487
 10
378.715043
 20
95.037339
 30
0.0
 40
1.0
 50
104.0
 51
180.0
  0
LINE
  8
LC-001-002-----0
 62
     1
  5
488
 10
378.227023
 20
159.854809
 30
0.0
 11
383.227023
 21
159.854809
 31
0.0
  0
LINE
  8
LC-001-002-----0
 62
     1
  5
489
 10
377.727023
 20
197.345306
 30
0.0
 11
377.727023
 21
206.006206
 31
0.0
  0
LINE
  8
LC-001-002-----0
 62
     1
  5
48A
 10
377.727023
 20
185.01514
 30
0.0
 11
377.727023
 21
193.67604
 31
0.0
  0
LINE
  8
LC-001-002-----0
 62
     1
  5
48B
 10
383.336538
 20
97.220221
 30
0.0
 11
378.473121
 21
96.007635
 31
0.0
  0
LINE
  8
LC-001-002-----0
 62
     1
  5
48C
 10
378.227023
 20
172.184974
 30
0.0
 11
383.227023
 21
172.184974
 31
0.0
  0
ARC
  8
LC-001-002-----0
 62
     1
  5
48D
 10
378.714338
 20
82.707174
 30
0.0
 40
1.0
 50
104.0
 51
180.0
  0
LINE
  8
LC-001-002-----0
 62
     1
  5
48E
 10
383.335834
 20
84.890055
 30
0.0
 11
378.472417
 21
83.677469
 31
0.0
  0
LINE
  8
LC-001-002-----0
 62
     1
  5
48F
 10
378.227023
 20
184.51514
 30
0.0
 11
383.227023
 21
184.51514
 31
0.0
  0
ARC
  8
LC-001-002-----0
 62
     1
  5
490
 10
383.215043
 20
85.37452
 30
0.0
 40
0.499295
 50
284.0
 51
90.0
  0
LINE
  8
LC-001-002-----0
 62
     1
  5
491
 10
377.727023
 20
160.354809
 30
0.0
 11
377.727023
 21
169.015709
 31
0.0
  0
LINE
  8
LC-001-002-----0
 62
     1
  5
492
 10
377.727023
 20
135.694477
 30
0.0
 11
377.727023
 21
144.355378
 31
0.0
  0
LINE
  8
LC-001-002-----0
 62
     1
  5
493
 10
377.727023
 20
123.364312
 30
0.0
 11
377.727023
 21
132.025212
 31
0.0
  0
LINE
  8
LC-001-002-----0
 62
     1
  5
494
 10
377.727023
 20
111.034146
 30
0.0
 11
377.727023
 21
119.695047
 31
0.0
  0
LINE
  8
LC-001-002-----0
 62
     1
  5
495
 10
377.727023
 20
98.70398
 30
0.0
 11
377.727023
 21
107.364881
 31
0.0
  0
LINE
  8
LC-001-002-----0
 62
     1
  5
496
 10
377.727023
 20
148.024643
 30
0.0
 11
377.727023
 21
156.685544
 31
0.0
  0
LINE
  8
LC-001-002-----0
 62
     1
  5
497
 10
377.727023
 20
172.684974
 30
0.0
 11
377.727023
 21
181.345875
 31
0.0
  0
LINE
  8
LC-001-002-----0
 62
     1
  5
498
 10
377.227023
 20
81.816649
 30
0.0
 11
376.727023
 21
81.816649
 31
0.0
  0
LINE
  8
LC-001-002-----0
 62
     1
  5
499
 10
377.727023
 20
82.316649
 30
0.0
 11
377.227023
 21
81.816649
 31
0.0
  0
LINE
  8
LC-001-002-----0
 62
     1
  5
49A
 10
378.227023
 20
196.845306
 30
0.0
 11
383.227023
 21
196.845306
 31
0.0
  0
LINE
  8
LC-001-002-----0
 62
     1
  5
49B
 10
378.227023
 20
209.175471
 30
0.0
 11
383.227023
 21
209.175471
 31
0.0
  0
LINE
  8
LC-001-002-----0
 62
     1
  5
49C
 10
378.227023
 20
221.505637
 30
0.0
 11
383.227023
 21
221.505637
 31
0.0
  0
LINE
  8
LC-001-002-----0
 62
     1
  5
49D
 10
378.227023
 20
233.835803
 30
0.0
 11
383.227023
 21
233.835803
 31
0.0
  0
LINE
  8
LC-001-002-----0
 62
     1
  5
49E
 10
378.227023
 20
246.165968
 30
0.0
 11
383.227023
 21
246.165968
 31
0.0
  0
ARC
  8
LC-002-002-RND-0
 62
     1
  5
49F
 10
378.227023
 20
98.70398
 30
0.0
 40
0.5
 50
180.0
 51
270.0
  0
ARC
  8
LC-002-002-RND-0
 62
     1
  5
4A0
 10
378.227023
 20
86.373815
 30
0.0
 40
0.5
 50
180.0
 51
270.0
  0
ARC
  8
LC-002-002-RND-0
 62
     1
  5
4A1
 10
378.227023
 20
111.034146
 30
0.0
 40
0.5
 50
180.0
 51
270.0
  0
ARC
  8
LC-002-002-RND-0
 62
     1
  5
4A2
 10
378.227023
 20
123.364312
 30
0.0
 40
0.5
 50
180.0
 51
270.0
  0
ARC
  8
LC-002-002-RND-0
 62
     1
  5
4A3
 10
378.227023
 20
135.694477
 30
0.0
 40
0.5
 50
180.0
 51
270.0
  0
ARC
  8
LC-002-002-RND-0
 62
     1
  5
4A4
 10
378.227023
 20
148.024643
 30
0.0
 40
0.5
 50
180.0
 51
270.0
  0
ARC
  8
LC-002-002-RND-0
 62
     1
  5
4A5
 10
378.227023
 20
160.354809
 30
0.0
 40
0.5
 50
180.0
 51
270.0
  0
ARC
  8
LC-002-002-RND-0
 62
     1
  5
4A6
 10
378.227023
 20
172.684974
 30
0.0
 40
0.5
 50
180.0
 51
270.0
  0
ARC
  8
LC-002-002-RND-0
 62
     1
  5
4A7
 10
378.227023
 20
185.01514
 30
0.0
 40
0.5
 50
180.0
 51
270.0
  0
ARC
  8
LC-002-002-RND-0
 62
     1
  5
4A8
 10
378.227023
 20
197.345306
 30
0.0
 40
0.5
 50
180.0
 51
270.0
  0
ARC
  8
LC-002-002-RND-0
 62
     1
  5
4A9
 10
378.227023
 20
209.675471
 30
0.0
 40
0.5
 50
180.0
 51
270.0
  0
ARC
  8
LC-002-002-RND-0
 62
     1
  5
4AA
 10
378.227023
 20
222.005637
 30
0.0
 40
0.5
 50
180.0
 51
270.0
  0
ARC
  8
LC-002-002-RND-0
 62
     1
  5
4AB
 10
378.227023
 20
234.335803
 30
0.0
 40
0.5
 50
180.0
 51
270.0
  0
ARC
  8
LC-002-002-RND-0
 62
     1
  5
4AC
 10
378.227023
 20
246.665968
 30
0.0
 40
0.5
 50
180.0
 51
270.0
  0
LINE
  8
LC-001-002-----0
 62
     1
  5
4AD
 10
376.727023
 20
81.816649
 30
0.0
 11
376.727023
 21
307.816797
 31
0.0
  0
LINE
  8
LC-001-002-----0
 62
     1
  5
4AE
 10
383.227023
 20
258.496134
 30
0.0
 11
378.227023
 21
258.496134
 31
0.0
  0
LINE
  8
LC-001-002-----0
 62
     1
  5
4AF
 10
320.727023
 20
81.816649
 30
0.0
 11
320.727023
 21
307.816797
 31
0.0
  0
LINE
  8
LC-001-002-----0
 62
     1
  5
4B0
 10
314.227023
 20
258.496134
 30
0.0
 11
319.227023
 21
258.496134
 31
0.0
  0
LINE
  8
LC-001-002-----0
  6
DASHDOT
 62
     2
  5
4B2
 10
348.727023
 20
488.316896
 30
0.0
 11
348.727023
 21
365.682
 31
0.0
  0
LINE
  8
LC-001-002-----0
  6
DASHDOT
 62
     2
  5
4B3
 10
348.727023
 20
309.252
 30
0.0
 11
348.727023
 21
71.816649
 31
0.0
  0
LINE
  8
LC-001-002-----0
 62
     1
  5
4B4
 10
251.727086
 20
408.058803
 30
0.0
 11
245.041912
 21
408.060898
 31
0.0
  0
DIMENSION
  8
LC-007-003-----0
 62
     2
  5
4CE
  2
*D15
 10
348.727023
 20
504.0
 30
0.0
 11
348.727023
 21
504.0
 31
0.0
  1
%%c<>
 13
171.727023
 23
413.816649
 33
0.0
 14
525.727023
 24
413.816649
 34
0.0
  3
LC-DIM-L-0140-02-02
  0
DIMENSION
  8
LC-007-003-----0
 62
     2
  5
4E8
  2
*D16
 10
550.020473
 20
244.316649
 30
0.0
 11
550.020473
 21
244.316649
 31
0.0
 13
580.722451
 23
416.816649
 33
0.0
 14
375.521252
 24
71.816649
 34
0.0
 50
90.0
  3
LC-DIM-L-0140-02-02
  0
LINE
  8
LC-001-002-----0
 62
     1
  5
4E9
 10
439.72696
 20
381.816692
 30
0.0
 11
439.72696
 21
382.858466
 31
0.0
  0
LINE
  8
LC-001-002-----0
 62
     1
  5
4EA
 10
445.226962
 20
381.316692
 30
0.0
 11
440.226962
 21
381.316692
 31
0.0
  0
LINE
  8
LC-001-002-----0
 62
     1
  5
4EB
 10
445.72696
 20
381.816692
 30
0.0
 11
445.72696
 21
382.858483
 31
0.0
  0
LINE
  8
LC-001-002-----0
 62
     1
  5
4EC
 10
440.226962
 20
431.316692
 30
0.0
 11
445.226962
 21
431.316692
 31
0.0
  0
LINE
  8
LC-001-002-----0
 62
     1
  5
4ED
 10
440.226962
 20
431.316692
 30
0.0
 11
439.726962
 21
430.816692
 31
0.0
  0
LINE
  8
LC-001-002-----0
 62
     1
  5
4EE
 10
445.226962
 20
431.316692
 30
0.0
 11
445.726962
 21
430.816692
 31
0.0
  0
LINE
  8
LC-001-002-----0
 62
     1
  5
4EF
 10
439.726962
 20
430.816692
 30
0.0
 11
445.726962
 21
430.816692
 31
0.0
  0
LINE
  8
LC-001-002-----0
 62
     1
  5
4F0
 10
445.226962
 20
381.316692
 30
0.0
 11
445.726962
 21
381.816692
 31
0.0
  0
LINE
  8
LC-001-002-----0
 62
     1
  5
4F1
 10
440.226962
 20
381.316692
 30
0.0
 11
439.726962
 21
381.816692
 31
0.0
  0
LINE
  8
LC-007-003-----0
 62
     2
  5
4F2
 10
440.226962
 20
381.316692
 30
0.0
 11
440.226962
 21
382.858468
 31
0.0
  0
LINE
  8
LC-007-003-----0
 62
     2
  5
4F3
 10
445.226962
 20
381.316692
 30
0.0
 11
445.226962
 21
382.858481
 31
0.0
  0
LINE
  8
LC-001-002-----0
 62
     1
  5
4F4
 10
445.72696
 20
394.316692
 30
0.0
 11
443.72696
 21
394.316692
 31
0.0
  0
LINE
  8
LC-001-002-----0
 62
     1
  5
4F5
 10
447.72696
 20
400.316692
 30
0.0
 11
447.72696
 21
396.316692
 31
0.0
  0
LINE
  8
LC-001-002-----0
 62
     1
  5
4F6
 10
437.72696
 20
400.316692
 30
0.0
 11
437.72696
 21
396.316692
 31
0.0
  0
LINE
  8
LC-001-002-----0
 62
     1
  5
4F7
 10
445.72696
 20
402.316692
 30
0.0
 11
443.72696
 21
402.316692
 31
0.0
  0
LINE
  8
LC-001-002-----0
 62
     1
  5
4F8
 10
441.72696
 20
402.316692
 30
0.0
 11
439.72696
 21
402.316692
 31
0.0
  0
LINE
  8
LC-001-002-----0
 62
     1
  5
4F9
 10
441.72696
 20
394.316692
 30
0.0
 11
439.72696
 21
394.316692
 31
0.0
  0
LINE
  8
LC-001-002-----0
 62
     1
  5
4FA
 10
439.72696
 20
402.316692
 30
0.0
 11
439.72696
 21
416.916975
 31
0.0
  0
LINE
  8
LC-001-002-----0
 62
     1
  5
4FB
 10
445.72696
 20
402.316692
 30
0.0
 11
445.72696
 21
416.916991
 31
0.0
  0
LINE
  8
LC-007-003-----0
 62
     2
  5
4FC
 10
445.22696
 20
402.316692
 30
0.0
 11
445.22696
 21
416.91699
 31
0.0
  0
LINE
  8
LC-007-003-----0
 62
     2
  5
4FD
 10
440.22696
 20
402.316692
 30
0.0
 11
440.22696
 21
416.916976
 31
0.0
  0
LINE
  8
LC-001-002-----0
 62
     1
  5
4FE
 10
441.72696
 20
402.316692
 30
0.0
 11
441.72696
 21
394.316692
 31
0.0
  0
LINE
  8
LC-001-002-----0
 62
     1
  5
4FF
 10
443.72696
 20
402.316692
 30
0.0
 11
443.72696
 21
394.316692
 31
0.0
  0
ARC
  8
LC-002-002-RND-0
 62
     1
  5
500
 10
439.72696
 20
400.316692
 30
0.0
 40
2.0
 50
90.0
 51
180.0
  0
ARC
  8
LC-002-002-RND-0
 62
     1
  5
501
 10
439.72696
 20
396.316692
 30
0.0
 40
2.0
 50
180.0
 51
270.0
  0
ARC
  8
LC-002-002-RND-0
 62
     1
  5
502
 10
445.72696
 20
396.316692
 30
0.0
 40
2.0
 50
270.0
 51
0.0
  0
ARC
  8
LC-002-002-RND-0
 62
     1
  5
503
 10
445.72696
 20
400.316692
 30
0.0
 40
2.0
 50
0.0
 51
90.0
  0
LINE
  8
LC-001-002-----0
 62
     1
  5
504
 10
257.727086
 20
381.816692
 30
0.0
 11
257.727086
 21
382.858466
 31
0.0
  0
LINE
  8
LC-001-002-----0
 62
     1
  5
505
 10
252.227084
 20
381.316692
 30
0.0
 11
257.227084
 21
381.316692
 31
0.0
  0
LINE
  8
LC-001-002-----0
 62
     1
  5
506
 10
251.727086
 20
381.816692
 30
0.0
 11
251.727086
 21
382.858483
 31
0.0
  0
LINE
  8
LC-001-002-----0
 62
     1
  5
507
 10
257.227084
 20
431.316692
 30
0.0
 11
252.227084
 21
431.316692
 31
0.0
  0
LINE
  8
LC-001-002-----0
 62
     1
  5
508
 10
257.227084
 20
431.316692
 30
0.0
 11
257.727084
 21
430.816692
 31
0.0
  0
LINE
  8
LC-001-002-----0
 62
     1
  5
509
 10
252.227084
 20
431.316692
 30
0.0
 11
251.727084
 21
430.816692
 31
0.0
  0
LINE
  8
LC-001-002-----0
 62
     1
  5
50A
 10
257.727084
 20
430.816692
 30
0.0
 11
251.727084
 21
430.816692
 31
0.0
  0
LINE
  8
LC-001-002-----0
 62
     1
  5
50B
 10
252.227084
 20
381.316692
 30
0.0
 11
251.727084
 21
381.816692
 31
0.0
  0
LINE
  8
LC-001-002-----0
 62
     1
  5
50C
 10
257.227084
 20
381.316692
 30
0.0
 11
257.727084
 21
381.816692
 31
0.0
  0
LINE
  8
LC-001-002-----0
 62
     1
  5
50D
 10
251.727084
 20
381.816692
 30
0.0
 11
257.727084
 21
381.816692
 31
0.0
  0
LINE
  8
LC-007-003-----0
 62
     2
  5
50E
 10
257.227084
 20
381.316692
 30
0.0
 11
257.227084
 21
382.858468
 31
0.0
  0
LINE
  8
LC-007-003-----0
 62
     2
  5
50F
 10
252.227084
 20
381.316692
 30
0.0
 11
252.227084
 21
382.858481
 31
0.0
  0
LINE
  8
LC-001-002-----0
 62
     1
  5
510
 10
251.727086
 20
394.316692
 30
0.0
 11
253.727086
 21
394.316692
 31
0.0
  0
LINE
  8
LC-001-002-----0
 62
     1
  5
511
 10
249.727086
 20
400.316692
 30
0.0
 11
249.727086
 21
396.316692
 31
0.0
  0
LINE
  8
LC-001-002-----0
 62
     1
  5
512
 10
259.727086
 20
400.316692
 30
0.0
 11
259.727086
 21
396.316692
 31
0.0
  0
LINE
  8
LC-001-002-----0
 62
     1
  5
513
 10
251.727086
 20
402.316692
 30
0.0
 11
253.727086
 21
402.316692
 31
0.0
  0
LINE
  8
LC-001-002-----0
 62
     1
  5
514
 10
255.727086
 20
402.316692
 30
0.0
 11
257.727086
 21
402.316692
 31
0.0
  0
LINE
  8
LC-001-002-----0
 62
     1
  5
515
 10
255.727086
 20
394.316692
 30
0.0
 11
257.727086
 21
394.316692
 31
0.0
  0
LINE
  8
LC-001-002-----0
 62
     1
  5
516
 10
257.727086
 20
402.316692
 30
0.0
 11
257.727086
 21
416.916975
 31
0.0
  0
LINE
  8
LC-001-002-----0
 62
     1
  5
517
 10
251.727086
 20
402.316692
 30
0.0
 11
251.727086
 21
416.916991
 31
0.0
  0
LINE
  8
LC-007-003-----0
 62
     2
  5
518
 10
252.227086
 20
402.316692
 30
0.0
 11
252.227086
 21
416.91699
 31
0.0
  0
LINE
  8
LC-007-003-----0
 62
     2
  5
519
 10
257.227086
 20
402.316692
 30
0.0
 11
257.227086
 21
416.916976
 31
0.0
  0
LINE
  8
LC-001-002-----0
 62
     1
  5
51A
 10
255.727086
 20
402.316692
 30
0.0
 11
255.727086
 21
394.316692
 31
0.0
  0
LINE
  8
LC-001-002-----0
 62
     1
  5
51B
 10
253.727086
 20
402.316692
 30
0.0
 11
253.727086
 21
394.316692
 31
0.0
  0
ARC
  8
LC-002-002-RND-0
 62
     1
  5
51C
 10
257.727086
 20
400.316692
 30
0.0
 40
2.0
 50
360.0
 51
90.0
  0
ARC
  8
LC-002-002-RND-0
 62
     1
  5
51D
 10
257.727086
 20
396.316692
 30
0.0
 40
2.0
 50
270.0
 51
360.0
  0
ARC
  8
LC-002-002-RND-0
 62
     1
  5
51E
 10
251.727086
 20
396.316692
 30
0.0
 40
2.0
 50
180.0
 51
270.0
  0
ARC
  8
LC-002-002-RND-0
 62
     1
  5
51F
 10
251.727086
 20
400.316692
 30
0.0
 40
2.0
 50
90.0
 51
180.0
  0
LINE
  8
LC-001-002-----0
 62
     1
  5
520
 10
348.727023
 20
71.816649
 30
0.0
 11
373.727023
 21
71.816649
 31
0.0
  0
DIMENSION
  8
LC-007-003-----0
 62
     2
  5
53A
  2
*D17
 10
348.727023
 20
29.772
 30
0.0
 11
348.727023
 21
29.772
 31
0.0
  1
%%c<>
 13
320.727023
 23
76.316649
 33
0.0
 14
376.727023
 24
76.316649
 34
0.0
  3
LC-DIM-L-0140-02-02
  0
DIMENSION
  8
LC-007-003-----0
 62
     2
  5
554
  2
*D18
 10
348.725162
 20
-17.268
 30
0.0
 11
348.725162
 21
-17.268
 31
0.0
  1
%%c73,5
 13
313.739707
 23
85.37452
 33
0.0
 14
383.710617
 24
85.435368
 34
0.0
  3
LC-DIM-L-0140-02-02
  0
DIMENSION
  8
LC-007-003-----0
 62
     2
  5
56E
  2
*D19
 10
431.2
 20
189.816723
 30
0.0
 11
431.2
 21
189.816723
 31
0.0
 13
373.727023
 23
71.816649
 33
0.0
 14
383.227728
 24
307.816797
 34
0.0
 50
90.0
  3
LC-DIM-L-0140-02-02
  0
LINE
  8
LC-001-002-----0
 62
     1
  5
56F
 10
437.244116
 20
414.816998
 30
0.0
 11
439.72696
 21
414.816998
 31
0.0
  0
LINE
  8
LC-001-002-----0
 62
     1
  5
570
 10
447.703862
 20
414.816998
 30
0.0
 11
446.225182
 21
414.816998
 31
0.0
  0
LINE
  8
LC-001-002-----0
 62
     1
  5
571
 10
436.722074
 20
416.916966
 30
0.0
 11
448.722074
 21
416.916999
 31
0.0
  0
LINE
  8
LC-001-002-----0
 62
     1
  5
572
 10
437.72205
 20
425.916969
 30
0.0
 11
447.72205
 21
425.916997
 31
0.0
  0
LINE
  8
LC-001-002-----0
 62
     1
  5
573
 10
449.409934
 20
431.604827
 30
0.0
 11
447.72205
 21
425.916997
 31
0.0
  0
LINE
  8
LC-001-002-----0
 62
     1
  5
574
 10
436.722074
 20
416.916966
 30
0.0
 11
437.72205
 21
425.916969
 31
0.0
  0
LINE
  8
LC-001-002-----0
 62
     1
  5
575
 10
447.72205
 20
425.916997
 30
0.0
 11
448.722074
 21
416.916999
 31
0.0
  0
ARC
  8
LC-002-002-RND-0
 62
     1
  5
576
 10
453.025505
 20
429.992021
 30
0.0
 40
3.925
 50
89.872747
 51
155.894262
  0
LINE
  8
LC-001-002-----0
 62
     1
  5
577
 10
436.034134
 20
431.604791
 30
0.0
 11
437.72205
 21
425.916969
 31
0.0
  0
ARC
  8
LC-002-002-RND-0
 62
     1
  5
578
 10
431.146562
 20
429.447453
 30
0.0
 40
3.925
 50
139.911906
 51
224.495971
  0
LINE
  8
LC-001-002-----0
 62
     1
  5
579
 10
428.167163
 20
426.8923
 30
0.0
 11
436.722074
 21
416.916966
 31
0.0
  0
LINE
  8
LC-001-002-----0
 62
     1
  5
57A
 10
457.276931
 20
426.89238
 30
0.0
 11
448.722074
 21
416.916999
 31
0.0
  0
ARC
  8
LC-002-002-RND-0
 62
     1
  5
57B
 10
432.418572
 20
429.991964
 30
0.0
 40
3.925
 50
24.106052
 51
90.127567
  0
ARC
  8
LC-001-002-----0
 62
     1
  5
57C
 10
432.409752
 20
428.384197
 30
0.0
 40
5.576109
 50
89.908773
 51
139.911906
  0
LINE
  8
LC-001-002-----0
 62
     1
  5
57D
 10
445.722074
 20
416.916991
 30
0.0
 11
445.722074
 21
416.916991
 31
0.0
  0
ARC
  8
LC-001-002-----0
 62
     1
  5
57E
 10
453.034247
 20
428.384253
 30
0.0
 40
5.576109
 50
40.088409
 51
90.091541
  0
ARC
  8
LC-002-002-RND-0
 62
     1
  5
57F
 10
454.299698
 20
429.447516
 30
0.0
 40
3.925
 50
315.504344
 51
40.088409
  0
INSERT
  8
LC-004-005-----0
 62
     2
  5
58A
  2
*X20
 10
0.0
 20
0.0
 30
0.0
  0
LINE
  8
LC-001-002-----0
 62
     1
  5
58B
 10
439.723167
 20
416.216975
 30
0.0
 11
438.579559
 21
416.216972
 31
0.0
  0
LINE
  8
LC-001-002-----0
 62
     1
  5
58C
 10
439.723169
 20
415.516975
 30
0.0
 11
438.579561
 21
415.516972
 31
0.0
  0
LINE
  8
LC-001-002-----0
 62
     1
  5
58D
 10
437.244116
 20
414.816968
 30
0.0
 11
438.579561
 21
415.516972
 31
0.0
  0
LINE
  8
LC-001-002-----0
 62
     1
  5
58E
 10
437.244114
 20
415.516968
 30
0.0
 11
437.244116
 21
414.816968
 31
0.0
  0
LINE
  8
LC-001-002-----0
 62
     1
  5
58F
 10
437.244114
 20
415.516968
 30
0.0
 11
437.911837
 21
415.86697
 31
0.0
  0
LINE
  8
LC-001-002-----0
 62
     1
  5
590
 10
437.244113
 20
416.216968
 30
0.0
 11
438.579561
 21
415.516972
 31
0.0
  0
LINE
  8
LC-001-002-----0
 62
     1
  5
591
 10
437.244113
 20
416.216968
 30
0.0
 11
437.244111
 21
416.916968
 31
0.0
  0
LINE
  8
LC-001-002-----0
 62
     1
  5
592
 10
437.244111
 20
416.916968
 30
0.0
 11
438.579559
 21
416.216972
 31
0.0
  0
LINE
  8
LC-001-002-----0
 62
     1
  5
593
 10
448.204858
 20
416.916998
 30
0.0
 11
446.869414
 21
416.216994
 31
0.0
  0
LINE
  8
LC-001-002-----0
 62
     1
  5
594
 10
448.20486
 20
416.216998
 30
0.0
 11
448.204858
 21
416.916998
 31
0.0
  0
LINE
  8
LC-001-002-----0
 62
     1
  5
595
 10
448.20486
 20
416.216998
 30
0.0
 11
447.537138
 21
415.866996
 31
0.0
  0
LINE
  8
LC-001-002-----0
 62
     1
  5
596
 10
446.869414
 20
416.216994
 30
0.0
 11
445.723167
 21
416.216991
 31
0.0
  0
LINE
  8
LC-001-002-----0
 62
     1
  5
597
 10
448.204862
 20
415.516998
 30
0.0
 11
446.869414
 21
416.216994
 31
0.0
  0
LINE
  8
LC-001-002-----0
 62
     1
  5
598
 10
448.204862
 20
415.516998
 30
0.0
 11
448.204864
 21
414.816998
 31
0.0
  0
LINE
  8
LC-001-002-----0
 62
     1
  5
599
 10
448.204864
 20
414.816998
 30
0.0
 11
446.869415
 21
415.516994
 31
0.0
  0
LINE
  8
LC-001-002-----0
 62
     1
  5
59A
 10
446.869415
 20
415.516994
 30
0.0
 11
445.723169
 21
415.516991
 31
0.0
  0
LINE
  8
LC-001-002-----0
 62
     1
  5
59B
 10
445.924486
 20
416.216992
 30
0.0
 11
445.924488
 21
415.516992
 31
0.0
  0
LINE
  8
LC-001-002-----0
 62
     1
  5
59C
 10
439.524488
 20
415.516974
 30
0.0
 11
439.524486
 21
416.216974
 31
0.0
  0
LINE
  8
LC-001-002-----0
 62
     1
  5
59D
 10
448.730454
 20
389.058491
 30
0.0
 11
445.730467
 21
389.058483
 31
0.0
  0
LINE
  8
LC-001-002-----0
 62
     1
  5
59E
 10
446.230454
 20
389.058484
 30
0.0
 11
446.230457
 21
388.058484
 31
0.0
  0
LINE
  8
LC-001-002-----0
 62
     1
  5
59F
 10
439.730467
 20
389.058466
 30
0.0
 11
435.679849
 21
389.058455
 31
0.0
  0
LINE
  8
LC-001-002-----0
 62
     1
  5
5A0
 10
439.230454
 20
389.058465
 30
0.0
 11
439.230457
 21
388.058465
 31
0.0
  0
LINE
  8
LC-001-002-----0
 62
     1
  5
5A1
 10
435.679849
 20
389.058455
 30
0.0
 11
435.679852
 21
388.058455
 31
0.0
  0
LINE
  8
LC-001-002-----0
 62
     1
  5
5A2
 10
448.730457
 20
388.058491
 30
0.0
 11
446.230457
 21
388.058484
 31
0.0
  0
INSERT
  8
LC-004-005-----0
 62
     2
  5
5A8
  2
*X21
 10
0.0
 20
0.0
 30
0.0
  0
LINE
  8
LC-001-002-----0
 62
     1
  5
5A9
 10
439.230457
 20
388.058465
 30
0.0
 11
435.679852
 21
388.058455
 31
0.0
  0
LINE
  8
LC-001-002-----0
 62
     1
  5
5AA
 10
447.060612
 20
382.858486
 30
0.0
 11
438.400358
 21
382.858463
 31
0.0
  0
LINE
  8
LC-001-002-----0
 62
     1
  5
5AB
 10
447.060598
 20
388.058486
 30
0.0
 11
438.400345
 21
388.058463
 31
0.0
  0
LINE
  8
LC-001-002-----0
 62
     1
  5
5AC
 10
448.503975
 20
387.389362
 30
0.0
 11
448.503985
 21
383.527619
 31
0.0
  0
LINE
  8
LC-001-002-----0
 62
     1
  5
5AD
 10
436.956969
 20
387.38933
 30
0.0
 11
436.95698
 21
383.527588
 31
0.0
  0
LINE
  8
LC-001-002-----0
 62
     1
  5
5AE
 10
445.617234
 20
383.527559
 30
0.0
 11
445.617223
 21
387.395083
 31
0.0
  0
LINE
  8
LC-001-002-----0
 62
     1
  5
5AF
 10
439.843731
 20
383.527594
 30
0.0
 11
439.843721
 21
387.389311
 31
0.0
  0
ARC
  8
LC-002-002-RND-0
 62
     1
  5
5BC
 10
448.730453
 20
389.558491
 30
0.0
 40
1.5
 50
270.000157
 51
0.000157
  0
ARC
  8
LC-002-002-RND-0
 62
     1
  5
5BD
 10
448.730453
 20
389.558491
 30
0.0
 40
0.5
 50
270.000157
 51
0.000157
  0
INSERT
  8
LC-004-005-----0
 62
     2
  5
5CE
  2
*X22
 10
0.0
 20
0.0
 30
0.0
  0
LINE
  8
LC-001-002-----0
 62
     1
  5
5CF
 10
449.230453
 20
389.558492
 30
0.0
 11
449.230414
 21
403.558492
 31
0.0
  0
LINE
  8
LC-001-002-----0
 62
     1
  5
5D0
 10
450.230453
 20
389.558495
 30
0.0
 11
450.230414
 21
403.558495
 31
0.0
  0
ARC
  8
LC-002-002-RND-0
 62
     1
  5
5D1
 10
450.730414
 20
403.558496
 30
0.0
 40
0.5
 50
90.000157
 51
180.000157
  0
ARC
  8
LC-002-002-RND-0
 62
     1
  5
5D2
 10
450.730414
 20
403.558496
 30
0.0
 40
1.5
 50
90.000157
 51
180.000157
  0
LINE
  8
LC-001-002-----0
 62
     1
  5
5D3
 10
450.73041
 20
405.058496
 30
0.0
 11
454.005807
 21
405.058505
 31
0.0
  0
LINE
  8
LC-001-002-----0
 62
     1
  5
5D4
 10
450.730413
 20
404.058496
 30
0.0
 11
453.7703
 21
404.058505
 31
0.0
  0
LINE
  8
LC-001-002-----0
 62
     1
  5
5D5
 10
473.460678
 20
411.225278
 30
0.0
 11
453.7703
 21
404.058505
 31
0.0
  0
LINE
  8
LC-001-002-----0
 62
     1
  5
5D6
 10
473.166831
 20
412.032608
 30
0.0
 11
454.005807
 21
405.058505
 31
0.0
  0
LINE
  8
LC-001-002-----0
 62
     1
  5
5D7
 10
473.460678
 20
411.225278
 30
0.0
 11
473.166831
 21
412.032608
 31
0.0
  0
LINE
  8
LC-001-002-----0
  6
DASHDOT
 62
     2
  5
5D8
 10
442.734184
 20
431.316692
 30
0.0
 11
442.734184
 21
381.316692
 31
0.0
  0
LINE
  8
LC-001-002-----0
 62
     1
  5
5D9
 10
445.72696
 20
388.058483
 30
0.0
 11
445.72696
 21
394.316692
 31
0.0
  0
LINE
  8
LC-001-002-----0
 62
     1
  5
5DA
 10
439.72696
 20
388.058466
 30
0.0
 11
439.72696
 21
394.316692
 31
0.0
  0
LINE
  8
LC-007-003-----0
 62
     2
  5
5DB
 10
440.226962
 20
388.058468
 30
0.0
 11
440.226962
 21
394.316692
 31
0.0
  0
LINE
  8
LC-007-003-----0
 62
     2
  5
5DC
 10
445.226962
 20
388.058481
 30
0.0
 11
445.226962
 21
394.316692
 31
0.0
  0
LINE
  8
LC-007-003-----0
 62
     2
  5
5DD
 10
440.22696
 20
425.916976
 30
0.0
 11
440.22696
 21
431.316692
 31
0.0
  0
LINE
  8
LC-001-002-----0
 62
     1
  5
5DE
 10
439.72696
 20
425.916975
 30
0.0
 11
439.72696
 21
430.816692
 31
0.0
  0
LINE
  8
LC-007-003-----0
 62
     2
  5
5DF
 10
445.22696
 20
425.91699
 30
0.0
 11
445.22696
 21
431.316695
 31
0.0
  0
LINE
  8
LC-001-002-----0
 62
     1
  5
5E0
 10
445.72696
 20
425.916991
 30
0.0
 11
445.72696
 21
430.816695
 31
0.0
  0
LINE
  8
LC-001-002-----0
 62
     1
  5
5E1
 10
445.72696
 20
414.817132
 30
0.0
 11
448.204864
 21
414.817132
 31
0.0
  0
LINE
  8
LC-001-002-----0
  6
DASHDOT
 62
     2
  5
5E2
 10
254.719862
 20
431.316692
 30
0.0
 11
254.719862
 21
381.316692
 31
0.0
  0
LINE
  8
LC-001-002-----0
 62
     1
  5
5E3
 10
249.249182
 20
414.816998
 30
0.0
 11
251.228864
 21
414.816998
 31
0.0
  0
LINE
  8
LC-001-002-----0
 62
     1
  5
5E4
 10
260.731972
 20
416.916966
 30
0.0
 11
248.731972
 21
416.916999
 31
0.0
  0
LINE
  8
LC-001-002-----0
 62
     1
  5
5E5
 10
259.731996
 20
425.916969
 30
0.0
 11
249.731996
 21
425.916997
 31
0.0
  0
LINE
  8
LC-001-002-----0
 62
     1
  5
5E6
 10
248.044112
 20
431.604827
 30
0.0
 11
249.731996
 21
425.916997
 31
0.0
  0
LINE
  8
LC-001-002-----0
 62
     1
  5
5E7
 10
260.731972
 20
416.916966
 30
0.0
 11
259.731996
 21
425.916969
 31
0.0
  0
LINE
  8
LC-001-002-----0
 62
     1
  5
5E8
 10
249.731996
 20
425.916997
 30
0.0
 11
248.731972
 21
416.916999
 31
0.0
  0
ARC
  8
LC-002-002-RND-0
 62
     1
  5
5E9
 10
244.428541
 20
429.992021
 30
0.0
 40
3.925
 50
24.105738
 51
90.127253
  0
LINE
  8
LC-001-002-----0
 62
     1
  5
5EA
 10
261.419911
 20
431.604791
 30
0.0
 11
259.731996
 21
425.916969
 31
0.0
  0
ARC
  8
LC-002-002-RND-0
 62
     1
  5
5EB
 10
266.307483
 20
429.447453
 30
0.0
 40
3.925
 50
315.504029
 51
40.088094
  0
LINE
  8
LC-001-002-----0
 62
     1
  5
5EC
 10
269.286883
 20
426.8923
 30
0.0
 11
260.731972
 21
416.916966
 31
0.0
  0
LINE
  8
LC-001-002-----0
 62
     1
  5
5ED
 10
240.177115
 20
426.89238
 30
0.0
 11
248.731972
 21
416.916999
 31
0.0
  0
ARC
  8
LC-002-002-RND-0
 62
     1
  5
5EE
 10
265.035474
 20
429.991964
 30
0.0
 40
3.925
 50
89.872433
 51
155.893948
  0
ARC
  8
LC-001-002-----0
 62
     1
  5
5EF
 10
265.044294
 20
428.384197
 30
0.0
 40
5.576109
 50
40.088094
 51
90.091227
  0
LINE
  8
LC-001-002-----0
 62
     1
  5
5F0
 10
251.731972
 20
416.916991
 30
0.0
 11
251.731972
 21
416.916991
 31
0.0
  0
ARC
  8
LC-001-002-----0
 62
     1
  5
5F1
 10
244.419799
 20
428.384253
 30
0.0
 40
5.576109
 50
89.908459
 51
139.911591
  0
ARC
  8
LC-002-002-RND-0
 62
     1
  5
5F2
 10
243.154348
 20
429.447516
 30
0.0
 40
3.925
 50
139.911591
 51
224.495656
  0
INSERT
  8
LC-004-005-----0
 62
     2
  5
600
  2
*X23
 10
0.0
 20
0.0
 30
0.0
  0
LINE
  8
LC-001-002-----0
 62
     1
  5
601
 10
257.730879
 20
416.216975
 30
0.0
 11
258.874487
 21
416.216972
 31
0.0
  0
LINE
  8
LC-001-002-----0
 62
     1
  5
602
 10
257.730877
 20
415.516975
 30
0.0
 11
258.874485
 21
415.516972
 31
0.0
  0
LINE
  8
LC-001-002-----0
 62
     1
  5
603
 10
260.20993
 20
414.816968
 30
0.0
 11
258.874485
 21
415.516972
 31
0.0
  0
LINE
  8
LC-001-002-----0
 62
     1
  5
604
 10
260.209931
 20
415.516968
 30
0.0
 11
260.20993
 21
414.816968
 31
0.0
  0
LINE
  8
LC-001-002-----0
 62
     1
  5
605
 10
260.209931
 20
415.516968
 30
0.0
 11
259.542209
 21
415.86697
 31
0.0
  0
LINE
  8
LC-001-002-----0
 62
     1
  5
606
 10
260.209933
 20
416.216968
 30
0.0
 11
258.874485
 21
415.516972
 31
0.0
  0
LINE
  8
LC-001-002-----0
 62
     1
  5
607
 10
260.209933
 20
416.216968
 30
0.0
 11
260.209935
 21
416.916968
 31
0.0
  0
LINE
  8
LC-001-002-----0
 62
     1
  5
608
 10
260.209935
 20
416.916968
 30
0.0
 11
258.874487
 21
416.216972
 31
0.0
  0
LINE
  8
LC-001-002-----0
 62
     1
  5
609
 10
249.249188
 20
416.916998
 30
0.0
 11
250.584632
 21
416.216994
 31
0.0
  0
LINE
  8
LC-001-002-----0
 62
     1
  5
60A
 10
249.249186
 20
416.216998
 30
0.0
 11
249.249188
 21
416.916998
 31
0.0
  0
LINE
  8
LC-001-002-----0
 62
     1
  5
60B
 10
249.249186
 20
416.216998
 30
0.0
 11
249.916908
 21
415.866996
 31
0.0
  0
LINE
  8
LC-001-002-----0
 62
     1
  5
60C
 10
250.584632
 20
416.216994
 30
0.0
 11
251.730879
 21
416.216991
 31
0.0
  0
LINE
  8
LC-001-002-----0
 62
     1
  5
60D
 10
249.249184
 20
415.516998
 30
0.0
 11
250.584632
 21
416.216994
 31
0.0
  0
LINE
  8
LC-001-002-----0
 62
     1
  5
60E
 10
249.249184
 20
415.516998
 30
0.0
 11
249.249182
 21
414.816998
 31
0.0
  0
LINE
  8
LC-001-002-----0
 62
     1
  5
60F
 10
249.249182
 20
414.816998
 30
0.0
 11
250.58463
 21
415.516994
 31
0.0
  0
LINE
  8
LC-001-002-----0
 62
     1
  5
610
 10
250.58463
 20
415.516994
 30
0.0
 11
251.730877
 21
415.516991
 31
0.0
  0
LINE
  8
LC-001-002-----0
 62
     1
  5
611
 10
251.52956
 20
416.216992
 30
0.0
 11
251.529558
 21
415.516992
 31
0.0
  0
LINE
  8
LC-001-002-----0
 62
     1
  5
612
 10
257.929558
 20
415.516974
 30
0.0
 11
257.92956
 21
416.216974
 31
0.0
  0
LINE
  8
LC-001-002-----0
 62
     1
  5
613
 10
248.723592
 20
389.058491
 30
0.0
 11
251.723578
 21
389.058483
 31
0.0
  0
LINE
  8
LC-001-002-----0
 62
     1
  5
614
 10
251.223592
 20
389.058484
 30
0.0
 11
251.223589
 21
388.058484
 31
0.0
  0
LINE
  8
LC-001-002-----0
 62
     1
  5
615
 10
257.723578
 20
389.058466
 30
0.0
 11
261.774197
 21
389.058455
 31
0.0
  0
LINE
  8
LC-001-002-----0
 62
     1
  5
616
 10
258.223592
 20
389.058465
 30
0.0
 11
258.223589
 21
388.058465
 31
0.0
  0
LINE
  8
LC-001-002-----0
 62
     1
  5
617
 10
261.774197
 20
389.058455
 30
0.0
 11
261.774194
 21
388.058455
 31
0.0
  0
LINE
  8
LC-001-002-----0
 62
     1
  5
618
 10
248.723589
 20
388.058491
 30
0.0
 11
251.223589
 21
388.058484
 31
0.0
  0
INSERT
  8
LC-004-005-----0
 62
     2
  5
61E
  2
*X24
 10
0.0
 20
0.0
 30
0.0
  0
LINE
  8
LC-001-002-----0
 62
     1
  5
61F
 10
258.223589
 20
388.058465
 30
0.0
 11
261.774194
 21
388.058455
 31
0.0
  0
LINE
  8
LC-001-002-----0
 62
     1
  5
620
 10
250.393434
 20
382.858486
 30
0.0
 11
259.053688
 21
382.858463
 31
0.0
  0
LINE
  8
LC-001-002-----0
 62
     1
  5
621
 10
250.393448
 20
388.058486
 30
0.0
 11
259.053701
 21
388.058463
 31
0.0
  0
LINE
  8
LC-001-002-----0
 62
     1
  5
622
 10
248.950071
 20
387.389362
 30
0.0
 11
248.950061
 21
383.527619
 31
0.0
  0
LINE
  8
LC-001-002-----0
 62
     1
  5
623
 10
260.497077
 20
387.38933
 30
0.0
 11
260.497066
 21
383.527588
 31
0.0
  0
LINE
  8
LC-001-002-----0
 62
     1
  5
624
 10
251.836812
 20
383.527559
 30
0.0
 11
251.836823
 21
387.395083
 31
0.0
  0
LINE
  8
LC-001-002-----0
 62
     1
  5
625
 10
257.610315
 20
383.527594
 30
0.0
 11
257.610325
 21
387.389311
 31
0.0
  0
ARC
  8
LC-002-002-RND-0
 62
     1
  5
632
 10
248.723593
 20
389.558491
 30
0.0
 40
0.5
 50
179.999843
 51
269.999843
  0
ARC
  8
LC-002-002-RND-0
 62
     1
  5
633
 10
248.723593
 20
389.558491
 30
0.0
 40
1.5
 50
179.999843
 51
269.999843
  0
LINE
  8
LC-001-002-----0
 62
     1
  5
634
 10
247.223593
 20
389.558495
 30
0.0
 11
247.223632
 21
403.558495
 31
0.0
  0
LINE
  8
LC-001-002-----0
 62
     1
  5
635
 10
248.223593
 20
389.558492
 30
0.0
 11
248.223632
 21
403.558492
 31
0.0
  0
INSERT
  8
LC-004-005-----0
 62
     2
  5
64B
  2
*X25
 10
0.0
 20
0.0
 30
0.0
  0
ARC
  8
LC-002-002-RND-0
 62
     1
  5
64C
 10
246.723632
 20
403.558496
 30
0.0
 40
1.5
 50
359.999843
 51
89.999843
  0
ARC
  8
LC-002-002-RND-0
 62
     1
  5
64D
 10
246.723632
 20
403.558496
 30
0.0
 40
0.5
 50
359.999843
 51
89.999843
  0
LINE
  8
LC-001-002-----0
 62
     1
  5
64E
 10
246.723633
 20
404.058496
 30
0.0
 11
243.683746
 21
404.058505
 31
0.0
  0
LINE
  8
LC-001-002-----0
 62
     1
  5
64F
 10
246.723636
 20
405.058496
 30
0.0
 11
243.448239
 21
405.058505
 31
0.0
  0
LINE
  8
LC-001-002-----0
 62
     1
  5
650
 10
224.287215
 20
412.032608
 30
0.0
 11
243.448239
 21
405.058505
 31
0.0
  0
LINE
  8
LC-001-002-----0
 62
     1
  5
651
 10
223.993368
 20
411.225278
 30
0.0
 11
243.683746
 21
404.058505
 31
0.0
  0
LINE
  8
LC-001-002-----0
 62
     1
  5
652
 10
223.993368
 20
411.225278
 30
0.0
 11
224.287215
 21
412.032608
 31
0.0
  0
LINE
  8
LC-001-002-----0
 62
     1
  5
653
 10
439.72696
 20
381.816692
 30
0.0
 11
445.72696
 21
381.816692
 31
0.0
  0
LINE
  8
LC-007-003-----0
 62
     2
  5
654
 10
252.227086
 20
425.91699
 30
0.0
 11
252.227086
 21
431.316695
 31
0.0
  0
LINE
  8
LC-001-002-----0
 62
     1
  5
655
 10
251.727086
 20
425.916991
 30
0.0
 11
251.727086
 21
430.816695
 31
0.0
  0
LINE
  8
LC-007-003-----0
 62
     2
  5
656
 10
257.227086
 20
425.916976
 30
0.0
 11
257.227086
 21
431.316692
 31
0.0
  0
LINE
  8
LC-001-002-----0
 62
     1
  5
657
 10
257.727086
 20
425.916975
 30
0.0
 11
257.727086
 21
430.816692
 31
0.0
  0
LINE
  8
LC-007-003-----0
 62
     2
  5
658
 10
252.227084
 20
388.058481
 30
0.0
 11
252.227084
 21
393.316692
 31
0.0
  0
LINE
  8
LC-001-002-----0
 62
     1
  5
659
 10
251.727086
 20
388.058483
 30
0.0
 11
251.727086
 21
394.316692
 31
0.0
  0
LINE
  8
LC-007-003-----0
 62
     2
  5
65A
 10
257.227084
 20
388.058468
 30
0.0
 11
257.227084
 21
393.316692
 31
0.0
  0
LINE
  8
LC-001-002-----0
 62
     1
  5
65B
 10
257.727086
 20
388.058466
 30
0.0
 11
257.727086
 21
394.316692
 31
0.0
  0
ENDSEC
  0
EOF
