  0
SECTION
  2
HEADER
  9
$ACADVER
  1
AC1015
  9
$ACADMAINTVER
 70
     6
  9
$DWGCODEPAGE
  3
ANSI_1252
  9
$INSBASE
 10
0.0
 20
0.0
 30
0.0
  9
$EXTMIN
 10
0.0
 20
0.0
 30
0.0
  9
$EXTMAX
 10
840.0
 20
594.0
 30
0.0
  9
$LIMMIN
 10
0.0
 20
0.0
  9
$LIMMAX
 10
840.0
 20
594.0
  9
$ORTHOMODE
 70
     0
  9
$REGENMODE
 70
     1
  9
$FILLMODE
 70
     1
  9
$QTEXTMODE
 70
     0
  9
$MIRRTEXT
 70
     1
  9
$LTSCALE
 40
2.0
  9
$ATTMODE
 70
     1
  9
$TEXTSIZE
 40
2.5
  9
$TRACEWID
 40
1.0
  9
$TEXTSTYLE
  7
Standard
  9
$CLAYER
  8
0
  9
$CELTYPE
  6
ByLayer
  9
$CECOLOR
 62
     7
  9
$CELTSCALE
 40
1.0
  9
$DISPSILH
 70
     0
  9
$DIMSCALE
 40
2.0
  9
$DIMASZ
 40
3.5
  9
$DIMEXO
 40
0.625
  9
$DIMDLI
 40
3.75
  9
$DIMRND
 40
0.0
  9
$DIMDLE
 40
0.0
  9
$DIMEXE
 40
1.25
  9
$DIMTP
 40
0.0
  9
$DIMTM
 40
0.0
  9
$DIMTXT
 40
3.5
  9
$DIMCEN
 40
2.5
  9
$DIMTSZ
 40
0.0
  9
$DIMTOL
 70
     0
  9
$DIMLIM
 70
     0
  9
$DIMTIH
 70
     0
  9
$DIMTOH
 70
     0
  9
$DIMSE1
 70
     0
  9
$DIMSE2
 70
     0
  9
$DIMTAD
 70
     1
  9
$DIMZIN
 70
     8
  9
$DIMBLK
  1

  9
$DIMASO
 70
     1
  9
$DIMSHO
 70
     1
  9
$DIMPOST
  1

  9
$DIMAPOST
  1

  9
$DIMALT
 70
     0
  9
$DIMALTD
 70
     3
  9
$DIMALTF
 40
0.03937
  9
$DIMLFAC
 40
1.0
  9
$DIMTOFL
 70
     1
  9
$DIMTVP
 40
0.0
  9
$DIMTIX
 70
     0
  9
$DIMSOXD
 70
     0
  9
$DIMSAH
 70
     0
  9
$DIMBLK1
  1

  9
$DIMBLK2
  1

  9
$DIMSTYLE
  2
ISO-25
  9
$DIMCLRD
 70
     0
  9
$DIMCLRE
 70
     0
  9
$DIMCLRT
 70
     0
  9
$DIMTFAC
 40
1.0
  9
$DIMGAP
 40
0.625
  9
$DIMJUST
 70
     0
  9
$DIMSD1
 70
     0
  9
$DIMSD2
 70
     0
  9
$DIMTOLJ
 70
     0
  9
$DIMTZIN
 70
     8
  9
$DIMALTZ
 70
     0
  9
$DIMALTTZ
 70
     0
  9
$DIMUPT
 70
     0
  9
$DIMDEC
 70
     2
  9
$DIMTDEC
 70
     2
  9
$DIMALTU
 70
     2
  9
$DIMALTTD
 70
     3
  9
$DIMTXSTY
  7
Standard
  9
$DIMAUNIT
 70
     0
  9
$DIMADEC
 70
     0
  9
$DIMALTRND
 40
0.0
  9
$DIMAZIN
 70
     0
  9
$DIMDSEP
 70
    44
  9
$DIMATFIT
 70
     3
  9
$DIMFRAC
 70
     0
  9
$DIMLDRBLK
  1

  9
$DIMLUNIT
 70
     2
  9
$DIMLWD
 70
    -2
  9
$DIMLWE
 70
    -2
  9
$DIMTMOVE
 70
     0
  9
$LUNITS
 70
     2
  9
$LUPREC
 70
     4
  9
$SKETCHINC
 40
1.0
  9
$FILLETRAD
 40
10.0
  9
$AUNITS
 70
     0
  9
$AUPREC
 70
     0
  9
$MENU
  1
.
  9
$ELEVATION
 40
0.0
  9
$PELEVATION
 40
0.0
  9
$THICKNESS
 40
0.0
  9
$LIMCHECK
 70
     0
  9
$CHAMFERA
 40
10.0
  9
$CHAMFERB
 40
10.0
  9
$CHAMFERC
 40
20.0
  9
$CHAMFERD
 40
0.0
  9
$SKPOLY
 70
     0
  9
$TDCREATE
 40
2455404.358672512
  9
$TDUCREATE
 40
2455404.275339178
  9
$TDUPDATE
 40
2455404.358672523
  9
$TDUUPDATE
 40
2455404.27533919
  9
$TDINDWG
 40
0.0000000116
  9
$TDUSRTIMER
 40
0.0000000116
  9
$USRTIMER
 70
     1
  9
$ANGBASE
 50
0.0
  9
$ANGDIR
 70
     0
  9
$PDMODE
 70
     0
  9
$PDSIZE
 40
0.0
  9
$PLINEWID
 40
0.0
  9
$SPLFRAME
 70
     0
  9
$SPLINETYPE
 70
     6
  9
$SPLINESEGS
 70
     8
  9
$HANDSEED
  5
4C7
  9
$SURFTAB1
 70
     6
  9
$SURFTAB2
 70
     6
  9
$SURFTYPE
 70
     6
  9
$SURFU
 70
     6
  9
$SURFV
 70
     6
  9
$UCSBASE
  2

  9
$UCSNAME
  2

  9
$UCSORG
 10
0.0
 20
0.0
 30
0.0
  9
$UCSXDIR
 10
1.0
 20
0.0
 30
0.0
  9
$UCSYDIR
 10
0.0
 20
1.0
 30
0.0
  9
$UCSORTHOREF
  2

  9
$UCSORTHOVIEW
 70
     0
  9
$UCSORGTOP
 10
0.0
 20
0.0
 30
0.0
  9
$UCSORGBOTTOM
 10
0.0
 20
0.0
 30
0.0
  9
$UCSORGLEFT
 10
0.0
 20
0.0
 30
0.0
  9
$UCSORGRIGHT
 10
0.0
 20
0.0
 30
0.0
  9
$UCSORGFRONT
 10
0.0
 20
0.0
 30
0.0
  9
$UCSORGBACK
 10
0.0
 20
0.0
 30
0.0
  9
$PUCSBASE
  2

  9
$PUCSNAME
  2

  9
$PUCSORG
 10
0.0
 20
0.0
 30
0.0
  9
$PUCSXDIR
 10
1.0
 20
0.0
 30
0.0
  9
$PUCSYDIR
 10
0.0
 20
1.0
 30
0.0
  9
$PUCSORTHOREF
  2

  9
$PUCSORTHOVIEW
 70
     0
  9
$PUCSORGTOP
 10
0.0
 20
0.0
 30
0.0
  9
$PUCSORGBOTTOM
 10
0.0
 20
0.0
 30
0.0
  9
$PUCSORGLEFT
 10
0.0
 20
0.0
 30
0.0
  9
$PUCSORGRIGHT
 10
0.0
 20
0.0
 30
0.0
  9
$PUCSORGFRONT
 10
0.0
 20
0.0
 30
0.0
  9
$PUCSORGBACK
 10
0.0
 20
0.0
 30
0.0
  9
$USERI1
 70
     0
  9
$USERI2
 70
     0
  9
$USERI3
 70
     0
  9
$USERI4
 70
     0
  9
$USERI5
 70
     0
  9
$USERR1
 40
0.0
  9
$USERR2
 40
0.0
  9
$USERR3
 40
0.0
  9
$USERR4
 40
0.0
  9
$USERR5
 40
0.0
  9
$WORLDVIEW
 70
     1
  9
$SHADEDGE
 70
     3
  9
$SHADEDIF
 70
    70
  9
$TILEMODE
 70
     1
  9
$MAXACTVP
 70
    64
  9
$PINSBASE
 10
0.0
 20
0.0
 30
0.0
  9
$PLIMCHECK
 70
     0
  9
$PEXTMIN
 10
0.0
 20
0.0
 30
0.0
  9
$PEXTMAX
 10
840.0
 20
594.0
 30
0.0
  9
$PLIMMIN
 10
0.0
 20
0.0
  9
$PLIMMAX
 10
840.0
 20
594.0
  9
$UNITMODE
 70
     0
  9
$VISRETAIN
 70
     1
  9
$PLINEGEN
 70
     0
  9
$PSLTSCALE
 70
     1
  9
$TREEDEPTH
 70
  3020
  9
$CMLSTYLE
  2
Standard
  9
$CMLJUST
 70
     0
  9
$CMLSCALE
 40
20.0
  9
$PROXYGRAPHICS
 70
     1
  9
$MEASUREMENT
 70
     1
  9
$CELWEIGHT
370
    -1
  9
$ENDCAPS
280
     0
  9
$JOINSTYLE
280
     0
  9
$LWDISPLAY
290
     0
  9
$INSUNITS
 70
     4
  9
$HYPERLINKBASE
  1

  9
$STYLESHEET
  1

  9
$XEDIT
290
     1
  9
$CEPSNTYPE
380
     0
  9
$PSTYLEMODE
290
     1
  9
$FINGERPRINTGUID
  2
{FAEB1C30-E019-11D5-929B-00C0DF256EC4}
  9
$VERSIONGUID
  2
{FAEB1C32-E019-11D5-929B-00C0DF256EC4}
  9
$EXTNAMES
290
     1
  9
$PSVPSCALE
 40
0.0
  9
$OLESTARTUP
290
     0
  0
ENDSEC
  0
SECTION
  2
CLASSES
  0
CLASS
  1
ACDBDICTIONARYWDFLT
  2
AcDbDictionaryWithDefault
  3
ObjectDBX Classes
 90
        0
280
     0
281
     0
  0
CLASS
  1
ACDBPLACEHOLDER
  2
AcDbPlaceHolder
  3
ObjectDBX Classes
 90
        0
280
     0
281
     0
  0
CLASS
  1
LAYOUT
  2
AcDbLayout
  3
ObjectDBX Classes
 90
        0
280
     0
281
     0
  0
ENDSEC
  0
SECTION
  2
TABLES
  0
TABLE
  2
VPORT
  5
8
330
0
100
AcDbSymbolTable
 70
     2
  0
VPORT
  5
29
330
8
100
AcDbSymbolTableRecord
100
AcDbViewportTableRecord
  2
*ACTIVE
 70
     0
 10
0.0
 20
0.0
 11
1.0
 21
1.0
 12
420.0
 22
297.0
 13
0.0
 23
0.0
 14
1.0
 24
1.0
 15
0.0
 25
0.0
 16
0.0
 26
0.0
 36
1.0
 17
0.0
 27
0.0
 37
0.0
 40
594.0
 41
1.414141
 42
50.0
 43
0.0
 44
0.0
 50
0.0
 51
0.0
 71
    16
 72
   100
 73
     1
 74
     0
 75
     0
 76
     0
 77
     0
 78
     0
281
     0
 65
     0
110
0.0
120
0.0
130
0.0
111
1.0
121
0.0
131
0.0
112
0.0
122
1.0
132
0.0
 79
     0
146
0.0
  0
ENDTAB
  0
TABLE
  2
LTYPE
  5
5
330
0
100
AcDbSymbolTable
 70
     3
  0
LTYPE
  5
14
330
5
100
AcDbSymbolTableRecord
100
AcDbLinetypeTableRecord
  2
ByBlock
 70
     0
  3

 72
    65
 73
     0
 40
0.0
  0
LTYPE
  5
15
330
5
100
AcDbSymbolTableRecord
100
AcDbLinetypeTableRecord
  2
ByLayer
 70
     0
  3

 72
    65
 73
     0
 40
0.0
  0
LTYPE
  5
16
330
5
100
AcDbSymbolTableRecord
100
AcDbLinetypeTableRecord
  2
Continuous
 70
     0
  3
Solid line
 72
    65
 73
     0
 40
0.0
  0
LTYPE
  5
2A
330
5
100
AcDbSymbolTableRecord
100
AcDbLinetypeTableRecord
  2
DASHED
 70
     0
  3
__ __ __ __ __
 72
    65
 73
     2
 40
6.25
 49
5.0
 74
     4
 75
     0
340
0
 46
1.0
 50
0.0
 44
0.0
 45
0.0
 49
-1.25
 74
     4
 75
     0
340
0
 46
1.0
 50
0.0
 44
0.0
 45
0.0
  0
LTYPE
  5
36
330
5
100
AcDbSymbolTableRecord
100
AcDbLinetypeTableRecord
  2
DASHDOT
 70
     0
  3
__ . __ . __ . __ . __
 72
    65
 73
     4
 40
7.5
 49
5.0
 74
     4
 75
     0
340
0
 46
1.0
 50
0.0
 44
0.0
 45
0.0
 49
-1.25
 74
     4
 75
     0
340
0
 46
1.0
 50
0.0
 44
0.0
 45
0.0
 49
0.0
 74
     4
 75
     0
340
0
 46
1.0
 50
0.0
 44
0.0
 45
0.0
 49
-1.25
 74
     4
 75
     0
340
0
 46
1.0
 50
0.0
 44
0.0
 45
0.0
  0
ENDTAB
  0
TABLE
  2
LAYER
  5
2
330
0
100
AcDbSymbolTable
 70
    15
  0
LAYER
  5
10
330
2
100
AcDbSymbolTableRecord
100
AcDbLayerTableRecord
  2
0
 70
     0
 62
     7
  6
Continuous
370
    -3
390
F
  0
LAYER
  5
2B
330
2
100
AcDbSymbolTableRecord
100
AcDbLayerTableRecord
  2
LC-INFO-1-2-mm-A3-0
 70
     1
 62
     7
  6
ByBlock
370
    -3
390
F
  0
LAYER
  5
2C
330
2
100
AcDbSymbolTableRecord
100
AcDbLayerTableRecord
  2
LC-CUT-HIDDEN
 70
     0
 62
     7
  6
DASHED
370
    -3
390
F
  0
LAYER
  5
2D
330
2
100
AcDbSymbolTableRecord
100
AcDbLayerTableRecord
  2
LC-VIEWPORT
 70
     0
 62
     7
  6
ByBlock
370
    -3
390
F
  0
LAYER
  5
2E
330
2
100
AcDbSymbolTableRecord
100
AcDbLayerTableRecord
  2
LC-3D-HIDDEN
 70
     0
 62
     9
  6
DASHED
370
    -3
390
F
  0
LAYER
  5
30
330
2
100
AcDbSymbolTableRecord
100
AcDbLayerTableRecord
  2
LC-001-002-----0
 70
     0
 62
     1
  6
ByBlock
370
    -3
390
F
  0
LAYER
  5
3C
330
2
100
AcDbSymbolTableRecord
100
AcDbLayerTableRecord
  2
LC-002-004-----0
 70
     0
 62
     1
  6
ByBlock
370
    -3
390
F
  0
LAYER
  5
54
330
2
100
AcDbSymbolTableRecord
100
AcDbLayerTableRecord
  2
LC-003-002-RND-0
 70
     0
 62
     1
  6
ByBlock
370
    -3
390
F
  0
LAYER
  5
59
330
2
100
AcDbSymbolTableRecord
100
AcDbLayerTableRecord
  2
LC-004-205-RND-0
 70
     0
 62
     1
  6
ByBlock
370
    -3
390
F
  0
LAYER
  5
68
330
2
100
AcDbSymbolTableRecord
100
AcDbLayerTableRecord
  2
LC-005-205-----0
 70
     0
 62
     1
  6
ByBlock
370
    -3
390
F
  0
LAYER
  5
7A
330
2
100
AcDbSymbolTableRecord
100
AcDbLayerTableRecord
  2
LC-006-005-----0
 70
     0
 62
     2
  6
ByBlock
370
    -3
390
F
  0
LAYER
  5
DF
330
2
100
AcDbSymbolTableRecord
100
AcDbLayerTableRecord
  2
LC-007-003-----0
 70
     0
 62
     2
  6
ByBlock
370
    -3
390
F
  0
LAYER
  5
E1
330
2
100
AcDbSymbolTableRecord
100
AcDbLayerTableRecord
  2
Defpoints
 70
     0
 62
     7
  6
Continuous
290
     0
370
    -3
390
F
  0
LAYER
  5
2D3
330
2
100
AcDbSymbolTableRecord
100
AcDbLayerTableRecord
  2
LC-008-003-MTG-0
 70
     0
 62
     2
  6
ByBlock
370
    -3
390
F
  0
LAYER
  5
2D5
330
2
100
AcDbSymbolTableRecord
100
AcDbLayerTableRecord
  2
LC-009-003-MTH-0
 70
     0
 62
     2
  6
ByBlock
370
    -3
390
F
  0
ENDTAB
  0
TABLE
  2
STYLE
  5
3
330
0
100
AcDbSymbolTable
 70
     3
  0
STYLE
  5
11
330
3
100
AcDbSymbolTableRecord
100
AcDbTextStyleTableRecord
  2
Standard
 70
     0
 40
0.0
 41
1.0
 50
0.0
 71
     0
 42
2.5
  3
txt
  4

  0
STYLE
  5
2F
330
3
100
AcDbSymbolTableRecord
100
AcDbTextStyleTableRecord
  2
LCTX15-400-0-0-Arial
 70
     0
 40
0.0
 41
0.9
 50
0.0
 71
     0
 42
3.5
  3
ARIAL.TTF
  4

1001
ACAD
1000
Arial
1071
 16777218
  0
STYLE
  5
DD
330
3
100
AcDbSymbolTableRecord
100
AcDbTextStyleTableRecord
  2
LCTX15-400-0-0pDIN-Schrift
 70
     0
 40
2.5
 41
0.8
 50
15.0
 71
     0
 42
3.5
  3
STANDARD
  4

  0
ENDTAB
  0
TABLE
  2
VIEW
  5
6
330
0
100
AcDbSymbolTable
 70
     0
  0
ENDTAB
  0
TABLE
  2
UCS
  5
7
330
0
100
AcDbSymbolTable
 70
     0
  0
ENDTAB
  0
TABLE
  2
APPID
  5
9
330
0
100
AcDbSymbolTable
 70
     1
  0
APPID
  5
12
330
9
100
AcDbSymbolTableRecord
100
AcDbRegAppTableRecord
  2
ACAD
 70
     0
  0
ENDTAB
  0
TABLE
  2
DIMSTYLE
  5
A
330
0
100
AcDbSymbolTable
 70
     3
100
AcDbDimStyleTable
  0
DIMSTYLE
105
27
330
A
100
AcDbSymbolTableRecord
100
AcDbDimStyleTableRecord
  2
ISO-25
 70
     0
 41
2.5
 42
0.625
 43
3.75
 44
1.25
 73
     0
 74
     0
 77
     1
 78
     8
140
2.5
141
2.5
143
0.03937
147
0.625
171
     3
172
     1
271
     2
272
     2
274
     3
278
    44
283
     0
284
     8
340
11
  0
DIMSTYLE
105
DE
102
{ACAD_REACTORS
330
E0
330
248
330
2AF
330
2E7
330
2F4
330
3D8
330
3FA
330
492
330
4A0
102
}
330
A
100
AcDbSymbolTableRecord
100
AcDbDimStyleTableRecord
  2
LC-DIM-L-0140-02-02
 70
     0
 40
2.0
 41
14.0
 42
0.0
 43
7.5
 44
1.8
 73
     0
 74
     0
 77
     1
 78
     8
 79
     2
140
14.0
141
0.0
146
0.71
147
1.5
176
     2
177
     2
178
     2
179
     2
271
     2
278
    44
289
     1
340
DD
  0
DIMSTYLE
105
2BC
330
A
100
AcDbSymbolTableRecord
100
AcDbDimStyleTableRecord
  2
LC-DIM-W-0140-02-02
 70
     0
 40
2.0
 41
14.0
 42
0.0
 43
7.5
 44
1.8
 73
     0
 74
     0
 77
     1
 78
     8
 79
     2
140
14.0
141
0.0
146
0.71
147
1.5
176
     2
177
     2
178
     2
179
     2
271
     2
278
    44
289
     1
340
DD
  0
ENDTAB
  0
TABLE
  2
BLOCK_RECORD
  5
1
330
0
100
AcDbSymbolTable
 70
    23
  0
BLOCK_RECORD
  5
1F
330
1
100
AcDbSymbolTableRecord
100
AcDbBlockTableRecord
  2
*Model_Space
340
22
  0
BLOCK_RECORD
  5
1B
330
1
100
AcDbSymbolTableRecord
100
AcDbBlockTableRecord
  2
*Paper_Space
340
1E
  0
BLOCK_RECORD
  5
23
330
1
100
AcDbSymbolTableRecord
100
AcDbBlockTableRecord
  2
*Paper_Space0
340
26
  0
BLOCK_RECORD
  5
77
330
1
100
AcDbSymbolTableRecord
100
AcDbBlockTableRecord
  2
*X11
340
0
102
{BLKREFS
331
CC
102
}
  0
BLOCK_RECORD
  5
E2
330
1
100
AcDbSymbolTableRecord
100
AcDbBlockTableRecord
  2
*D2
340
0
  0
BLOCK_RECORD
  5
102
330
1
100
AcDbSymbolTableRecord
100
AcDbBlockTableRecord
  2
*X23
340
0
102
{BLKREFS
331
10E
102
}
  0
BLOCK_RECORD
  5
117
330
1
100
AcDbSymbolTableRecord
100
AcDbBlockTableRecord
  2
*X34
340
0
102
{BLKREFS
331
123
102
}
  0
BLOCK_RECORD
  5
13B
330
1
100
AcDbSymbolTableRecord
100
AcDbBlockTableRecord
  2
*X45
340
0
102
{BLKREFS
331
14B
102
}
  0
BLOCK_RECORD
  5
1DD
330
1
100
AcDbSymbolTableRecord
100
AcDbBlockTableRecord
  2
*X56
340
0
102
{BLKREFS
331
1F4
102
}
  0
BLOCK_RECORD
  5
249
330
1
100
AcDbSymbolTableRecord
100
AcDbBlockTableRecord
  2
*D7
340
0
  0
BLOCK_RECORD
  5
26D
330
1
100
AcDbSymbolTableRecord
100
AcDbBlockTableRecord
  2
*X68
340
0
102
{BLKREFS
331
294
102
}
  0
BLOCK_RECORD
  5
2B0
330
1
100
AcDbSymbolTableRecord
100
AcDbBlockTableRecord
  2
*D9
340
0
  0
BLOCK_RECORD
  5
2BD
330
1
100
AcDbSymbolTableRecord
100
AcDbBlockTableRecord
  2
LCDIM1
340
0
102
{BLKREFS
331
2D8
102
}
  0
BLOCK_RECORD
  5
2D9
330
1
100
AcDbSymbolTableRecord
100
AcDbBlockTableRecord
  2
*X711
340
0
102
{BLKREFS
331
2E5
102
}
  0
BLOCK_RECORD
  5
2E8
330
1
100
AcDbSymbolTableRecord
100
AcDbBlockTableRecord
  2
*D12
340
0
  0
BLOCK_RECORD
  5
2F5
330
1
100
AcDbSymbolTableRecord
100
AcDbBlockTableRecord
  2
*D13
340
0
  0
BLOCK_RECORD
  5
305
330
1
100
AcDbSymbolTableRecord
100
AcDbBlockTableRecord
  2
*X814
340
0
102
{BLKREFS
331
311
102
}
  0
BLOCK_RECORD
  5
319
330
1
100
AcDbSymbolTableRecord
100
AcDbBlockTableRecord
  2
*X915
340
0
102
{BLKREFS
331
346
102
}
  0
BLOCK_RECORD
  5
38A
330
1
100
AcDbSymbolTableRecord
100
AcDbBlockTableRecord
  2
*X1016
340
0
102
{BLKREFS
331
3B4
102
}
  0
BLOCK_RECORD
  5
3D9
330
1
100
AcDbSymbolTableRecord
100
AcDbBlockTableRecord
  2
*D17
340
0
  0
BLOCK_RECORD
  5
3FB
330
1
100
AcDbSymbolTableRecord
100
AcDbBlockTableRecord
  2
*D18
340
0
  0
BLOCK_RECORD
  5
474
330
1
100
AcDbSymbolTableRecord
100
AcDbBlockTableRecord
  2
*X1119
340
0
102
{BLKREFS
331
480
102
}
  0
BLOCK_RECORD
  5
481
330
1
100
AcDbSymbolTableRecord
100
AcDbBlockTableRecord
  2
*X1220
340
0
102
{BLKREFS
331
48E
102
}
  0
BLOCK_RECORD
  5
493
330
1
100
AcDbSymbolTableRecord
100
AcDbBlockTableRecord
  2
*D21
340
0
  0
BLOCK_RECORD
  5
4A1
330
1
100
AcDbSymbolTableRecord
100
AcDbBlockTableRecord
  2
*D22
340
0
  0
ENDTAB
  0
ENDSEC
  0
SECTION
  2
BLOCKS
  0
BLOCK
  5
20
330
1F
100
AcDbEntity
  8
0
100
AcDbBlockBegin
  2
*Model_Space
 70
     0
 71
     0
 10
0.0
 20
0.0
 30
0.0
  3
*Model_Space
  1

  0
ENDBLK
  5
21
330
1F
100
AcDbEntity
  8
0
100
AcDbBlockEnd
  0
BLOCK
  5
1C
330
1B
100
AcDbEntity
 67
     1
  8
0
100
AcDbBlockBegin
  2
*Paper_Space
 70
     0
 71
     0
 10
0.0
 20
0.0
 30
0.0
  3
*Paper_Space
  1

  0
ENDBLK
  5
1D
330
1B
100
AcDbEntity
 67
     1
  8
0
100
AcDbBlockEnd
  0
BLOCK
  5
24
330
23
100
AcDbEntity
  8
0
100
AcDbBlockBegin
  2
*Paper_Space0
 70
     0
 71
     0
 10
0.0
 20
0.0
 30
0.0
  3
*Paper_Space0
  1

  0
ENDBLK
  5
25
330
23
100
AcDbEntity
  8
0
100
AcDbBlockEnd
  0
BLOCK
  5
78
330
77
100
AcDbEntity
  8
0
100
AcDbBlockBegin
  2
*X11
 70
     1
 71
     0
 10
0.0
 20
0.0
 30
0.0
  3
*X11
  1

  4
*X1
  0
LINE
  5
7B
330
77
100
AcDbEntity
  8
LC-006-005-----0
 62
     7
370
    25
100
AcDbLine
 10
491.836389
 20
285.361208
 30
0.0
 11
495.101306
 21
288.626126
 31
0.0
  0
LINE
  5
7C
330
77
100
AcDbEntity
  8
LC-006-005-----0
 62
     7
370
    25
100
AcDbLine
 10
488.101306
 20
284.454553
 30
0.0
 11
492.717303
 21
289.07055
 31
0.0
  0
LINE
  5
7D
330
77
100
AcDbEntity
  8
LC-006-005-----0
 62
     7
370
    25
100
AcDbLine
 10
482.990604
 20
282.172278
 30
0.0
 11
483.601306
 21
282.78298
 31
0.0
  0
LINE
  5
7E
330
77
100
AcDbEntity
  8
LC-006-005-----0
 62
     7
370
    25
100
AcDbLine
 10
487.077372
 20
286.259046
 30
0.0
 11
489.888876
 21
289.07055
 31
0.0
  0
LINE
  5
7F
330
77
100
AcDbEntity
  8
LC-006-005-----0
 62
     7
370
    25
100
AcDbLine
 10
479.733117
 20
281.743218
 30
0.0
 11
483.601306
 21
285.611407
 31
0.0
  0
LINE
  5
80
330
77
100
AcDbEntity
  8
LC-006-005-----0
 62
     7
370
    25
100
AcDbLine
 10
484.248945
 20
286.259046
 30
0.0
 11
487.060449
 21
289.07055
 31
0.0
  0
LINE
  5
81
330
77
100
AcDbEntity
  8
LC-006-005-----0
 62
     7
370
    25
100
AcDbLine
 10
476.828198
 20
281.666726
 30
0.0
 11
484.232022
 21
289.07055
 31
0.0
  0
LINE
  5
82
330
77
100
AcDbEntity
  8
LC-006-005-----0
 62
     7
370
    25
100
AcDbLine
 10
474.179232
 20
281.846187
 30
0.0
 11
481.403595
 21
289.07055
 31
0.0
  0
LINE
  5
83
330
77
100
AcDbEntity
  8
LC-006-005-----0
 62
     7
370
    25
100
AcDbLine
 10
471.731648
 20
282.22703
 30
0.0
 11
478.575168
 21
289.07055
 31
0.0
  0
LINE
  5
84
330
77
100
AcDbEntity
  8
LC-006-005-----0
 62
     7
370
    25
100
AcDbLine
 10
469.451239
 20
282.775048
 30
0.0
 11
475.746741
 21
289.07055
 31
0.0
  0
LINE
  5
85
330
77
100
AcDbEntity
  8
LC-006-005-----0
 62
     7
370
    25
100
AcDbLine
 10
467.315114
 20
283.467351
 30
0.0
 11
472.918313
 21
289.07055
 31
0.0
  0
LINE
  5
86
330
77
100
AcDbEntity
  8
LC-006-005-----0
 62
     7
370
    25
100
AcDbLine
 10
465.30731
 20
284.287974
 30
0.0
 11
470.089886
 21
289.07055
 31
0.0
  0
LINE
  5
87
330
77
100
AcDbEntity
  8
LC-006-005-----0
 62
     7
370
    25
100
AcDbLine
 10
461.949955
 20
283.759046
 30
0.0
 11
462.101306
 21
283.910397
 31
0.0
  0
LINE
  5
88
330
77
100
AcDbEntity
  8
LC-006-005-----0
 62
     7
370
    25
100
AcDbLine
 10
463.416432
 20
285.225523
 30
0.0
 11
467.261459
 21
289.07055
 31
0.0
  0
LINE
  5
89
330
77
100
AcDbEntity
  8
LC-006-005-----0
 62
     7
370
    25
100
AcDbLine
 10
459.601306
 20
284.238824
 30
0.0
 11
464.433032
 21
289.07055
 31
0.0
  0
LINE
  5
8A
330
77
100
AcDbEntity
  8
LC-006-005-----0
 62
     7
370
    25
100
AcDbLine
 10
458.604605
 20
286.07055
 30
0.0
 11
461.604605
 21
289.07055
 31
0.0
  0
LINE
  5
8B
330
77
100
AcDbEntity
  8
LC-006-005-----0
 62
     7
370
    25
100
AcDbLine
 10
455.776178
 20
286.07055
 30
0.0
 11
458.776178
 21
289.07055
 31
0.0
  0
LINE
  5
8C
330
77
100
AcDbEntity
  8
LC-006-005-----0
 62
     7
370
    25
100
AcDbLine
 10
452.947751
 20
286.07055
 30
0.0
 11
455.947751
 21
289.07055
 31
0.0
  0
LINE
  5
8D
330
77
100
AcDbEntity
  8
LC-006-005-----0
 62
     7
370
    25
100
AcDbLine
 10
445.201425
 20
281.152652
 30
0.0
 11
447.931401
 21
283.882628
 31
0.0
  0
LINE
  5
8E
330
77
100
AcDbEntity
  8
LC-006-005-----0
 62
     7
370
    25
100
AcDbLine
 10
450.119324
 20
286.07055
 30
0.0
 11
453.119324
 21
289.07055
 31
0.0
  0
LINE
  5
8F
330
77
100
AcDbEntity
  8
LC-006-005-----0
 62
     7
370
    25
100
AcDbLine
 10
442.302401
 20
281.082055
 30
0.0
 11
450.290896
 21
289.07055
 31
0.0
  0
LINE
  5
90
330
77
100
AcDbEntity
  8
LC-006-005-----0
 62
     7
370
    25
100
AcDbLine
 10
439.473974
 20
281.082055
 30
0.0
 11
442.473974
 21
284.082055
 31
0.0
  0
LINE
  5
91
330
77
100
AcDbEntity
  8
LC-006-005-----0
 62
     7
370
    25
100
AcDbLine
 10
445.001998
 20
286.610079
 30
0.0
 11
447.462469
 21
289.07055
 31
0.0
  0
LINE
  5
92
330
77
100
AcDbEntity
  8
LC-006-005-----0
 62
     7
370
    25
100
AcDbLine
 10
436.645547
 20
281.082055
 30
0.0
 11
439.645547
 21
284.082055
 31
0.0
  0
LINE
  5
93
330
77
100
AcDbEntity
  8
LC-006-005-----0
 62
     7
370
    25
100
AcDbLine
 10
433.817119
 20
281.082055
 30
0.0
 11
436.817119
 21
284.082055
 31
0.0
  0
LINE
  5
94
330
77
100
AcDbEntity
  8
LC-006-005-----0
 62
     7
370
    25
100
AcDbLine
 10
430.988692
 20
281.082055
 30
0.0
 11
433.988692
 21
284.082055
 31
0.0
  0
LINE
  5
95
330
77
100
AcDbEntity
  8
LC-006-005-----0
 62
     7
370
    25
100
AcDbLine
 10
428.160265
 20
281.082055
 30
0.0
 11
431.160265
 21
284.082055
 31
0.0
  0
LINE
  5
96
330
77
100
AcDbEntity
  8
LC-006-005-----0
 62
     7
370
    25
100
AcDbLine
 10
425.331838
 20
281.082055
 30
0.0
 11
428.331838
 21
284.082055
 31
0.0
  0
LINE
  5
97
330
77
100
AcDbEntity
  8
LC-006-005-----0
 62
     7
370
    25
100
AcDbLine
 10
422.503411
 20
281.082055
 30
0.0
 11
425.503411
 21
284.082055
 31
0.0
  0
LINE
  5
98
330
77
100
AcDbEntity
  8
LC-006-005-----0
 62
     7
370
    25
100
AcDbLine
 10
419.674984
 20
281.082055
 30
0.0
 11
422.674984
 21
284.082055
 31
0.0
  0
LINE
  5
99
330
77
100
AcDbEntity
  8
LC-006-005-----0
 62
     7
370
    25
100
AcDbLine
 10
416.846557
 20
281.082055
 30
0.0
 11
419.846557
 21
284.082055
 31
0.0
  0
LINE
  5
9A
330
77
100
AcDbEntity
  8
LC-006-005-----0
 62
     7
370
    25
100
AcDbLine
 10
414.01813
 20
281.082055
 30
0.0
 11
417.01813
 21
284.082055
 31
0.0
  0
LINE
  5
9B
330
77
100
AcDbEntity
  8
LC-006-005-----0
 62
     7
370
    25
100
AcDbLine
 10
411.189702
 20
281.082055
 30
0.0
 11
414.189702
 21
284.082055
 31
0.0
  0
LINE
  5
9C
330
77
100
AcDbEntity
  8
LC-006-005-----0
 62
     7
370
    25
100
AcDbLine
 10
408.361275
 20
281.082055
 30
0.0
 11
411.361275
 21
284.082055
 31
0.0
  0
LINE
  5
9D
330
77
100
AcDbEntity
  8
LC-006-005-----0
 62
     7
370
    25
100
AcDbLine
 10
405.532848
 20
281.082055
 30
0.0
 11
408.532848
 21
284.082055
 31
0.0
  0
LINE
  5
9E
330
77
100
AcDbEntity
  8
LC-006-005-----0
 62
     7
370
    25
100
AcDbLine
 10
402.704421
 20
281.082055
 30
0.0
 11
405.704421
 21
284.082055
 31
0.0
  0
LINE
  5
9F
330
77
100
AcDbEntity
  8
LC-006-005-----0
 62
     7
370
    25
100
AcDbLine
 10
399.875994
 20
281.082055
 30
0.0
 11
402.875994
 21
284.082055
 31
0.0
  0
LINE
  5
A0
330
77
100
AcDbEntity
  8
LC-006-005-----0
 62
     7
370
    25
100
AcDbLine
 10
397.047567
 20
281.082055
 30
0.0
 11
400.047567
 21
284.082055
 31
0.0
  0
LINE
  5
A1
330
77
100
AcDbEntity
  8
LC-006-005-----0
 62
     7
370
    25
100
AcDbLine
 10
394.21914
 20
281.082055
 30
0.0
 11
397.21914
 21
284.082055
 31
0.0
  0
LINE
  5
A2
330
77
100
AcDbEntity
  8
LC-006-005-----0
 62
     7
370
    25
100
AcDbLine
 10
391.390713
 20
281.082055
 30
0.0
 11
394.390713
 21
284.082055
 31
0.0
  0
LINE
  5
A3
330
77
100
AcDbEntity
  8
LC-006-005-----0
 62
     7
370
    25
100
AcDbLine
 10
388.562285
 20
281.082055
 30
0.0
 11
391.562285
 21
284.082055
 31
0.0
  0
LINE
  5
A4
330
77
100
AcDbEntity
  8
LC-006-005-----0
 62
     7
370
    25
100
AcDbLine
 10
385.733858
 20
281.082055
 30
0.0
 11
388.733858
 21
284.082055
 31
0.0
  0
LINE
  5
A5
330
77
100
AcDbEntity
  8
LC-006-005-----0
 62
     7
370
    25
100
AcDbLine
 10
382.905431
 20
281.082055
 30
0.0
 11
385.905431
 21
284.082055
 31
0.0
  0
LINE
  5
A6
330
77
100
AcDbEntity
  8
LC-006-005-----0
 62
     7
370
    25
100
AcDbLine
 10
380.077004
 20
281.082055
 30
0.0
 11
383.077004
 21
284.082055
 31
0.0
  0
LINE
  5
A7
330
77
100
AcDbEntity
  8
LC-006-005-----0
 62
     7
370
    25
100
AcDbLine
 10
377.248577
 20
281.082055
 30
0.0
 11
380.248577
 21
284.082055
 31
0.0
  0
LINE
  5
A8
330
77
100
AcDbEntity
  8
LC-006-005-----0
 62
     7
370
    25
100
AcDbLine
 10
374.42015
 20
281.082055
 30
0.0
 11
377.42015
 21
284.082055
 31
0.0
  0
LINE
  5
A9
330
77
100
AcDbEntity
  8
LC-006-005-----0
 62
     7
370
    25
100
AcDbLine
 10
371.591723
 20
281.082055
 30
0.0
 11
374.591723
 21
284.082055
 31
0.0
  0
LINE
  5
AA
330
77
100
AcDbEntity
  8
LC-006-005-----0
 62
     7
370
    25
100
AcDbLine
 10
368.763296
 20
281.082055
 30
0.0
 11
371.763296
 21
284.082055
 31
0.0
  0
LINE
  5
AB
330
77
100
AcDbEntity
  8
LC-006-005-----0
 62
     7
370
    25
100
AcDbLine
 10
365.934868
 20
281.082055
 30
0.0
 11
368.934868
 21
284.082055
 31
0.0
  0
LINE
  5
AC
330
77
100
AcDbEntity
  8
LC-006-005-----0
 62
     7
370
    25
100
AcDbLine
 10
363.106441
 20
281.082055
 30
0.0
 11
366.106441
 21
284.082055
 31
0.0
  0
LINE
  5
AD
330
77
100
AcDbEntity
  8
LC-006-005-----0
 62
     7
370
    25
100
AcDbLine
 10
360.278014
 20
281.082055
 30
0.0
 11
363.278014
 21
284.082055
 31
0.0
  0
LINE
  5
AE
330
77
100
AcDbEntity
  8
LC-006-005-----0
 62
     7
370
    25
100
AcDbLine
 10
357.449587
 20
281.082055
 30
0.0
 11
360.449587
 21
284.082055
 31
0.0
  0
LINE
  5
AF
330
77
100
AcDbEntity
  8
LC-006-005-----0
 62
     7
370
    25
100
AcDbLine
 10
354.62116
 20
281.082055
 30
0.0
 11
357.62116
 21
284.082055
 31
0.0
  0
LINE
  5
B0
330
77
100
AcDbEntity
  8
LC-006-005-----0
 62
     7
370
    25
100
AcDbLine
 10
351.792733
 20
281.082055
 30
0.0
 11
354.792733
 21
284.082055
 31
0.0
  0
LINE
  5
B1
330
77
100
AcDbEntity
  8
LC-006-005-----0
 62
     7
370
    25
100
AcDbLine
 10
348.964306
 20
281.082055
 30
0.0
 11
351.964306
 21
284.082055
 31
0.0
  0
LINE
  5
B2
330
77
100
AcDbEntity
  8
LC-006-005-----0
 62
     7
370
    25
100
AcDbLine
 10
346.135879
 20
281.082055
 30
0.0
 11
349.135879
 21
284.082055
 31
0.0
  0
LINE
  5
B3
330
77
100
AcDbEntity
  8
LC-006-005-----0
 62
     7
370
    25
100
AcDbLine
 10
343.307451
 20
281.082055
 30
0.0
 11
346.307451
 21
284.082055
 31
0.0
  0
LINE
  5
B4
330
77
100
AcDbEntity
  8
LC-006-005-----0
 62
     7
370
    25
100
AcDbLine
 10
340.597829
 20
281.20086
 30
0.0
 11
343.479024
 21
284.082055
 31
0.0
  0
LINE
  5
B5
330
77
100
AcDbEntity
  8
LC-006-005-----0
 62
     7
370
    25
100
AcDbLine
 10
338.857669
 20
282.289126
 30
0.0
 11
341.019493
 21
284.45095
 31
0.0
  0
LINE
  5
B6
330
77
100
AcDbEntity
  8
LC-006-005-----0
 62
     7
370
    25
100
AcDbLine
 10
338.015463
 20
284.275347
 30
0.0
 11
341.001998
 21
287.261883
 31
0.0
  0
LINE
  5
B7
330
77
100
AcDbEntity
  8
LC-006-005-----0
 62
     7
370
    25
100
AcDbLine
 10
338.001998
 20
287.09031
 30
0.0
 11
341.001998
 21
290.09031
 31
0.0
  0
LINE
  5
B8
330
77
100
AcDbEntity
  8
LC-006-005-----0
 62
     7
370
    25
100
AcDbLine
 10
337.203811
 20
289.12055
 30
0.0
 11
338.753811
 21
290.67055
 31
0.0
  0
LINE
  5
B9
330
77
100
AcDbEntity
  8
LC-006-005-----0
 62
     7
370
    25
100
AcDbLine
 10
334.375384
 20
289.12055
 30
0.0
 11
335.925384
 21
290.67055
 31
0.0
  0
LINE
  5
BA
330
77
100
AcDbEntity
  8
LC-006-005-----0
 62
     7
370
    25
100
AcDbLine
 10
331.546957
 20
289.12055
 30
0.0
 11
333.096957
 21
290.67055
 31
0.0
  0
LINE
  5
BB
330
77
100
AcDbEntity
  8
LC-006-005-----0
 62
     7
370
    25
100
AcDbLine
 10
328.71853
 20
289.12055
 30
0.0
 11
330.26853
 21
290.67055
 31
0.0
  0
LINE
  5
BC
330
77
100
AcDbEntity
  8
LC-006-005-----0
 62
     7
370
    25
100
AcDbLine
 10
325.890103
 20
289.12055
 30
0.0
 11
327.440103
 21
290.67055
 31
0.0
  0
LINE
  5
BD
330
77
100
AcDbEntity
  8
LC-006-005-----0
 62
     7
370
    25
100
AcDbLine
 10
323.061676
 20
289.12055
 30
0.0
 11
324.611676
 21
290.67055
 31
0.0
  0
LINE
  5
BE
330
77
100
AcDbEntity
  8
LC-006-005-----0
 62
     7
370
    25
100
AcDbLine
 10
320.233249
 20
289.12055
 30
0.0
 11
321.783249
 21
290.67055
 31
0.0
  0
LINE
  5
BF
330
77
100
AcDbEntity
  8
LC-006-005-----0
 62
     7
370
    25
100
AcDbLine
 10
317.404822
 20
289.12055
 30
0.0
 11
318.954822
 21
290.67055
 31
0.0
  0
LINE
  5
C0
330
77
100
AcDbEntity
  8
LC-006-005-----0
 62
     7
370
    25
100
AcDbLine
 10
314.576394
 20
289.12055
 30
0.0
 11
316.126394
 21
290.67055
 31
0.0
  0
LINE
  5
C1
330
77
100
AcDbEntity
  8
LC-006-005-----0
 62
     7
370
    25
100
AcDbLine
 10
311.747967
 20
289.12055
 30
0.0
 11
313.297967
 21
290.67055
 31
0.0
  0
LINE
  5
C2
330
77
100
AcDbEntity
  8
LC-006-005-----0
 62
     7
370
    25
100
AcDbLine
 10
308.91954
 20
289.12055
 30
0.0
 11
310.46954
 21
290.67055
 31
0.0
  0
LINE
  5
C3
330
77
100
AcDbEntity
  8
LC-006-005-----0
 62
     7
370
    25
100
AcDbLine
 10
306.091113
 20
289.12055
 30
0.0
 11
307.641113
 21
290.67055
 31
0.0
  0
LINE
  5
C4
330
77
100
AcDbEntity
  8
LC-006-005-----0
 62
     7
370
    25
100
AcDbLine
 10
303.262686
 20
289.12055
 30
0.0
 11
304.812686
 21
290.67055
 31
0.0
  0
LINE
  5
C5
330
77
100
AcDbEntity
  8
LC-006-005-----0
 62
     7
370
    25
100
AcDbLine
 10
295.384259
 20
284.07055
 30
0.0
 11
301.984259
 21
290.67055
 31
0.0
  0
LINE
  5
C6
330
77
100
AcDbEntity
  8
LC-006-005-----0
 62
     7
370
    25
100
AcDbLine
 10
292.555832
 20
284.07055
 30
0.0
 11
294.705832
 21
286.22055
 31
0.0
  0
LINE
  5
C7
330
77
100
AcDbEntity
  8
LC-006-005-----0
 62
     7
370
    25
100
AcDbLine
 10
297.494165
 20
289.008883
 30
0.0
 11
299.155832
 21
290.67055
 31
0.0
  0
LINE
  5
C8
330
77
100
AcDbEntity
  8
LC-006-005-----0
 62
     7
370
    25
100
AcDbLine
 10
289.738333
 20
284.081479
 30
0.0
 11
291.877405
 21
286.22055
 31
0.0
  0
LINE
  5
C9
330
77
100
AcDbEntity
  8
LC-006-005-----0
 62
     7
370
    25
100
AcDbLine
 10
287.825785
 20
284.997358
 30
0.0
 11
289.696571
 21
286.868144
 31
0.0
  0
LINE
  5
CA
330
77
100
AcDbEntity
  8
LC-006-005-----0
 62
     7
370
    25
100
AcDbLine
 10
286.995113
 20
286.995113
 30
0.0
 11
288.282358
 21
288.282358
 31
0.0
  0
LINE
  5
CB
330
77
100
AcDbEntity
  8
LC-006-005-----0
 62
     7
370
    25
100
AcDbLine
 10
284.242123
 20
287.07055
 30
0.0
 11
285.742123
 21
288.57055
 31
0.0
  0
ENDBLK
  5
79
330
77
100
AcDbEntity
  8
0
100
AcDbBlockEnd
  0
BLOCK
  5
EC
330
E2
100
AcDbEntity
  8
0
100
AcDbBlockBegin
  2
*D2
 70
     1
 71
     0
 10
0.0
 20
0.0
 30
0.0
  3
*D2
  1

  0
LINE
  5
E3
330
E2
100
AcDbEntity
  8
LC-007-003-----0
 62
     2
370
    -2
100
AcDbLine
 10
278.001998
 20
361.008818
 30
0.0
 11
278.001998
 21
407.52
 31
0.0
  0
LINE
  5
E4
330
E2
100
AcDbEntity
  8
LC-007-003-----0
 62
     2
370
    -2
100
AcDbLine
 10
508.001998
 20
361.008818
 30
0.0
 11
508.001998
 21
407.52
 31
0.0
  0
LINE
  5
E5
330
E2
100
AcDbEntity
  8
LC-007-003-----0
 62
     2
370
    -2
100
AcDbLine
 10
306.001998
 20
403.92
 30
0.0
 11
480.001998
 21
403.92
 31
0.0
  0
SOLID
  5
E6
330
E2
100
AcDbEntity
  8
LC-007-003-----0
 62
     2
100
AcDbTrace
 10
306.001998
 20
408.586667
 30
0.0
 11
306.001998
 21
399.253333
 31
0.0
 12
278.001998
 22
403.92
 32
0.0
 13
278.001998
 23
403.92
 33
0.0
  0
SOLID
  5
E7
330
E2
100
AcDbEntity
  8
LC-007-003-----0
 62
     2
100
AcDbTrace
 10
480.001998
 20
399.253333
 30
0.0
 11
480.001998
 21
408.586667
 31
0.0
 12
508.001998
 22
403.92
 32
0.0
 13
508.001998
 23
403.92
 33
0.0
  0
MTEXT
  5
E8
330
E2
100
AcDbEntity
  8
LC-007-003-----0
 62
     2
100
AcDbMText
 10
393.001998
 20
434.72
 30
0.0
 40
28.0
 41
0.0
 71
     5
 72
     1
  1
%%c\A1;230
  7
LCTX15-400-0-0pDIN-Schrift
 73
     1
 44
1.0
  0
POINT
  5
E9
330
E2
100
AcDbEntity
  8
Defpoints
 62
     0
100
AcDbPoint
 10
278.001998
 20
361.008818
 30
0.0
  0
POINT
  5
EA
330
E2
100
AcDbEntity
  8
Defpoints
 62
     0
100
AcDbPoint
 10
508.001998
 20
361.008818
 30
0.0
  0
POINT
  5
EB
330
E2
100
AcDbEntity
  8
Defpoints
 62
     0
100
AcDbPoint
 10
508.001998
 20
403.92
 30
0.0
  0
ENDBLK
  5
ED
330
E2
100
AcDbEntity
  8
0
100
AcDbBlockEnd
  0
BLOCK
  5
103
330
102
100
AcDbEntity
  8
0
100
AcDbBlockBegin
  2
*X23
 70
     1
 71
     0
 10
0.0
 20
0.0
 30
0.0
  3
*X23
  1

  4
*X2
  0
LINE
  5
105
330
102
100
AcDbEntity
  8
LC-006-005-----0
 62
     7
370
    25
100
AcDbLine
 10
486.86976
 20
336.397437
 30
0.0
 11
487.274419
 21
336.802096
 31
0.0
  0
LINE
  5
106
330
102
100
AcDbEntity
  8
LC-006-005-----0
 62
     7
370
    25
100
AcDbLine
 10
485.982081
 20
336.075443
 30
0.0
 11
487.596413
 21
337.689775
 31
0.0
  0
LINE
  5
107
330
102
100
AcDbEntity
  8
LC-006-005-----0
 62
     7
370
    25
100
AcDbLine
 10
485.456597
 20
336.115644
 30
0.0
 11
487.556212
 21
338.21526
 31
0.0
  0
LINE
  5
108
330
102
100
AcDbEntity
  8
LC-006-005-----0
 62
     7
370
    25
100
AcDbLine
 10
485.043445
 20
336.268178
 30
0.0
 11
487.403678
 21
338.628412
 31
0.0
  0
LINE
  5
109
330
102
100
AcDbEntity
  8
LC-006-005-----0
 62
     7
370
    25
100
AcDbLine
 10
484.706517
 20
336.496935
 30
0.0
 11
487.174921
 21
338.96534
 31
0.0
  0
LINE
  5
10A
330
102
100
AcDbEntity
  8
LC-006-005-----0
 62
     7
370
    25
100
AcDbLine
 10
484.435651
 20
336.791755
 30
0.0
 11
486.880102
 21
339.236206
 31
0.0
  0
LINE
  5
10B
330
102
100
AcDbEntity
  8
LC-006-005-----0
 62
     7
370
    25
100
AcDbLine
 10
484.232924
 20
337.154713
 30
0.0
 11
486.517143
 21
339.438933
 31
0.0
  0
LINE
  5
10C
330
102
100
AcDbEntity
  8
LC-006-005-----0
 62
     7
370
    25
100
AcDbLine
 10
484.114953
 20
337.602428
 30
0.0
 11
486.069429
 21
339.556904
 31
0.0
  0
LINE
  5
10D
330
102
100
AcDbEntity
  8
LC-006-005-----0
 62
     7
370
    25
100
AcDbLine
 10
484.141835
 20
338.194995
 30
0.0
 11
485.476861
 21
339.530021
 31
0.0
  0
ENDBLK
  5
104
330
102
100
AcDbEntity
  8
0
100
AcDbBlockEnd
  0
BLOCK
  5
118
330
117
100
AcDbEntity
  8
0
100
AcDbBlockBegin
  2
*X34
 70
     1
 71
     0
 10
0.0
 20
0.0
 30
0.0
  3
*X34
  1

  4
*X3
  0
LINE
  5
11A
330
117
100
AcDbEntity
  8
LC-006-005-----0
 62
     7
370
    25
100
AcDbLine
 10
486.552356
 20
282.905603
 30
0.0
 11
487.454749
 21
283.807996
 31
0.0
  0
LINE
  5
11B
330
117
100
AcDbEntity
  8
LC-006-005-----0
 62
     7
370
    25
100
AcDbLine
 10
485.840149
 20
282.759082
 30
0.0
 11
487.60127
 21
284.520203
 31
0.0
  0
LINE
  5
11C
330
117
100
AcDbEntity
  8
LC-006-005-----0
 62
     7
370
    25
100
AcDbLine
 10
485.348282
 20
282.8329
 30
0.0
 11
487.527452
 21
285.01207
 31
0.0
  0
LINE
  5
11D
330
117
100
AcDbEntity
  8
LC-006-005-----0
 62
     7
370
    25
100
AcDbLine
 10
484.955439
 20
283.005742
 30
0.0
 11
487.35461
 21
285.404913
 31
0.0
  0
LINE
  5
11E
330
117
100
AcDbEntity
  8
LC-006-005-----0
 62
     7
370
    25
100
AcDbLine
 10
484.634921
 20
283.25091
 30
0.0
 11
487.109442
 21
285.725431
 31
0.0
  0
LINE
  5
11F
330
117
100
AcDbEntity
  8
LC-006-005-----0
 62
     7
370
    25
100
AcDbLine
 10
484.379949
 20
283.561623
 30
0.0
 11
486.798729
 21
285.980403
 31
0.0
  0
LINE
  5
120
330
117
100
AcDbEntity
  8
LC-006-005-----0
 62
     7
370
    25
100
AcDbLine
 10
484.195446
 20
283.942806
 30
0.0
 11
486.417546
 21
286.164906
 31
0.0
  0
LINE
  5
121
330
117
100
AcDbEntity
  8
LC-006-005-----0
 62
     7
370
    25
100
AcDbLine
 10
484.10374
 20
284.416785
 30
0.0
 11
485.943567
 21
286.256612
 31
0.0
  0
LINE
  5
122
330
117
100
AcDbEntity
  8
LC-006-005-----0
 62
     7
370
    25
100
AcDbLine
 10
484.194871
 20
285.073601
 30
0.0
 11
485.286751
 21
286.165481
 31
0.0
  0
ENDBLK
  5
119
330
117
100
AcDbEntity
  8
0
100
AcDbBlockEnd
  0
BLOCK
  5
13C
330
13B
100
AcDbEntity
  8
0
100
AcDbBlockBegin
  2
*X45
 70
     1
 71
     0
 10
0.0
 20
0.0
 30
0.0
  3
*X45
  1

  4
*X4
  0
LINE
  5
13E
330
13B
100
AcDbEntity
  8
LC-006-005-----0
  6
DASHED
 62
     7
370
    25
100
AcDbLine
 10
297.494165
 20
333.810769
 30
0.0
 11
296.134165
 21
335.170769
 31
0.0
  0
LINE
  5
13F
330
13B
100
AcDbEntity
  8
LC-006-005-----0
  6
DASHED
 62
     7
370
    25
100
AcDbLine
 10
297.494165
 20
333.245084
 30
0.0
 11
295.698698
 21
335.04055
 31
0.0
  0
LINE
  5
140
330
13B
100
AcDbEntity
  8
LC-006-005-----0
  6
DASHED
 62
     7
370
    25
100
AcDbLine
 10
295.334165
 20
335.405084
 30
0.0
 11
295.178698
 21
335.56055
 31
0.0
  0
LINE
  5
141
330
13B
100
AcDbEntity
  8
LC-006-005-----0
 62
     7
370
    25
100
AcDbLine
 10
297.058084
 20
332.549794
 30
0.0
 11
294.047328
 21
335.56055
 31
0.0
  0
LINE
  5
142
330
13B
100
AcDbEntity
  8
LC-006-005-----0
 62
     7
370
    25
100
AcDbLine
 10
296.410544
 20
332.631648
 30
0.0
 11
293.175031
 21
335.867162
 31
0.0
  0
LINE
  5
143
330
13B
100
AcDbEntity
  8
LC-006-005-----0
  6
DASHED
 62
     7
370
    25
100
AcDbLine
 10
295.067041
 20
332.84378
 30
0.0
 11
292.350271
 21
335.56055
 31
0.0
  0
LINE
  5
144
330
13B
100
AcDbEntity
  8
LC-006-005-----0
  6
DASHED
 62
     7
370
    25
100
AcDbLine
 10
294.649423
 20
332.695714
 30
0.0
 11
291.663864
 21
335.681272
 31
0.0
  0
LINE
  5
145
330
13B
100
AcDbEntity
  8
LC-006-005-----0
 62
     7
370
    25
100
AcDbLine
 10
295.18007
 20
331.033696
 30
0.0
 11
290.726815
 21
335.48695
 31
0.0
  0
LINE
  5
146
330
13B
100
AcDbEntity
  8
LC-006-005-----0
 62
     7
370
    25
100
AcDbLine
 10
295.527785
 20
330.120295
 30
0.0
 11
290.38838
 21
335.2597
 31
0.0
  0
LINE
  5
147
330
13B
100
AcDbEntity
  8
LC-006-005-----0
  6
DASHED
 62
     7
370
    25
100
AcDbLine
 10
295.105357
 20
329.411352
 30
0.0
 11
290.044428
 21
334.472281
 31
0.0
  0
LINE
  5
148
330
13B
100
AcDbEntity
  8
LC-006-005-----0
  6
DASHED
 62
     7
370
    25
100
AcDbLine
 10
294.126782
 20
329.824242
 30
0.0
 11
289.924885
 21
334.026139
 31
0.0
  0
LINE
  5
149
330
13B
100
AcDbEntity
  8
LC-006-005-----0
 62
     7
370
    25
100
AcDbLine
 10
291.86404
 20
330.955613
 30
0.0
 11
289.701717
 21
333.117936
 31
0.0
  0
LINE
  5
14A
330
13B
100
AcDbEntity
  8
LC-006-005-----0
 62
     7
370
    25
100
AcDbLine
 10
290.732669
 20
331.521298
 30
0.0
 11
289.776503
 21
332.477465
 31
0.0
  0
ENDBLK
  5
13D
330
13B
100
AcDbEntity
  8
0
100
AcDbBlockEnd
  0
BLOCK
  5
1DE
330
1DD
100
AcDbEntity
  8
0
100
AcDbBlockBegin
  2
*X56
 70
     1
 71
     0
 10
0.0
 20
0.0
 30
0.0
  3
*X56
  1

  4
*X5
  0
LINE
  5
1E0
330
1DD
100
AcDbEntity
  8
LC-006-005-----0
 62
     7
370
    25
100
AcDbLine
 10
295.569855
 20
292.177302
 30
0.0
 11
295.019214
 21
292.727942
 31
0.0
  0
LINE
  5
1E1
330
1DD
100
AcDbEntity
  8
LC-006-005-----0
  6
DASHED
 62
     7
370
    25
100
AcDbLine
 10
297.493439
 20
289.122347
 30
0.0
 11
297.021103
 21
289.594682
 31
0.0
  0
LINE
  5
1E2
330
1DD
100
AcDbEntity
  8
LC-006-005-----0
  6
DASHED
 62
     7
370
    25
100
AcDbLine
 10
295.270592
 20
291.345194
 30
0.0
 11
294.241545
 21
292.374241
 31
0.0
  0
LINE
  5
1E3
330
1DD
100
AcDbEntity
  8
LC-006-005-----0
  6
DASHED
 62
     7
370
    25
100
AcDbLine
 10
297.494165
 20
288.555935
 30
0.0
 11
296.522906
 21
289.527194
 31
0.0
  0
LINE
  5
1E4
330
1DD
100
AcDbEntity
  8
LC-006-005-----0
  6
DASHED
 62
     7
370
    25
100
AcDbLine
 10
295.114621
 20
290.935479
 30
0.0
 11
293.864422
 21
292.185679
 31
0.0
  0
LINE
  5
1E5
330
1DD
100
AcDbEntity
  8
LC-006-005-----0
 62
     7
370
    25
100
AcDbLine
 10
297.325953
 20
287.592776
 30
0.0
 11
295.545813
 21
289.372916
 31
0.0
  0
LINE
  5
1E6
330
1DD
100
AcDbEntity
  8
LC-006-005-----0
 62
     7
370
    25
100
AcDbLine
 10
294.802679
 20
290.11605
 30
0.0
 11
293.110174
 21
291.808555
 31
0.0
  0
LINE
  5
1E7
330
1DD
100
AcDbEntity
  8
LC-006-005-----0
 62
     7
370
    25
100
AcDbLine
 10
297.194155
 20
287.158889
 30
0.0
 11
295.057267
 21
289.295777
 31
0.0
  0
LINE
  5
1E8
330
1DD
100
AcDbEntity
  8
LC-006-005-----0
 62
     7
370
    25
100
AcDbLine
 10
294.646708
 20
289.706336
 30
0.0
 11
292.733051
 21
291.619993
 31
0.0
  0
LINE
  5
1E9
330
1DD
100
AcDbEntity
  8
LC-006-005-----0
  6
DASHED
 62
     7
370
    25
100
AcDbLine
 10
296.593214
 20
286.628459
 30
0.0
 11
296.134165
 21
287.087508
 31
0.0
  0
LINE
  5
1EA
330
1DD
100
AcDbEntity
  8
LC-006-005-----0
  6
DASHED
 62
     7
370
    25
100
AcDbLine
 10
296.121123
 20
287.10055
 30
0.0
 11
291.978803
 21
291.24287
 31
0.0
  0
LINE
  5
1EB
330
1DD
100
AcDbEntity
  8
LC-006-005-----0
  6
DASHED
 62
     7
370
    25
100
AcDbLine
 10
295.555437
 20
287.10055
 30
0.0
 11
291.60168
 21
291.054308
 31
0.0
  0
LINE
  5
1EC
330
1DD
100
AcDbEntity
  8
LC-006-005-----0
 62
     7
370
    25
100
AcDbLine
 10
294.975828
 20
286.548789
 30
0.0
 11
290.847433
 21
290.677184
 31
0.0
  0
LINE
  5
1ED
330
1DD
100
AcDbEntity
  8
LC-006-005-----0
 62
     7
370
    25
100
AcDbLine
 10
294.733467
 20
286.225465
 30
0.0
 11
294.415726
 21
286.543206
 31
0.0
  0
LINE
  5
1EE
330
1DD
100
AcDbEntity
  8
LC-006-005-----0
 62
     7
370
    25
100
AcDbLine
 10
294.378381
 20
286.58055
 30
0.0
 11
290.471172
 21
290.48776
 31
0.0
  0
LINE
  5
1EF
330
1DD
100
AcDbEntity
  8
LC-006-005-----0
  6
DASHED
 62
     7
370
    25
100
AcDbLine
 10
293.467097
 20
286.360463
 30
0.0
 11
289.898407
 21
289.929153
 31
0.0
  0
LINE
  5
1F0
330
1DD
100
AcDbEntity
  8
LC-006-005-----0
  6
DASHED
 62
     7
370
    25
100
AcDbLine
 10
292.681325
 20
286.58055
 30
0.0
 11
289.736114
 21
289.525761
 31
0.0
  0
LINE
  5
1F1
330
1DD
100
AcDbEntity
  8
LC-006-005-----0
 62
     7
370
    25
100
AcDbLine
 10
291.90924
 20
286.221264
 30
0.0
 11
291.654558
 21
286.475946
 31
0.0
  0
LINE
  5
1F2
330
1DD
100
AcDbEntity
  8
LC-006-005-----0
 62
     7
370
    25
100
AcDbLine
 10
291.549954
 20
286.58055
 30
0.0
 11
289.891702
 21
288.238803
 31
0.0
  0
LINE
  5
1F3
330
1DD
100
AcDbEntity
  8
LC-006-005-----0
 62
     7
370
    25
100
AcDbLine
 10
290.976144
 20
286.588675
 30
0.0
 11
290.098757
 21
287.466062
 31
0.0
  0
ENDBLK
  5
1DF
330
1DD
100
AcDbEntity
  8
0
100
AcDbBlockEnd
  0
BLOCK
  5
254
330
249
100
AcDbEntity
  8
0
100
AcDbBlockBegin
  2
*D7
 70
     1
 71
     0
 10
0.0
 20
0.0
 30
0.0
  3
*D7
  1

  0
LINE
  5
24A
330
249
100
AcDbEntity
  8
LC-007-003-----0
 62
     2
370
    -2
100
AcDbLine
 10
297.946178
 20
331.47055
 30
0.0
 11
250.626496
 21
331.47055
 31
0.0
  0
LINE
  5
24B
330
249
100
AcDbEntity
  8
LC-007-003-----0
 62
     2
370
    -2
100
AcDbLine
 10
297.494165
 20
290.67055
 30
0.0
 11
250.626496
 21
290.67055
 31
0.0
  0
LINE
  5
24C
330
249
100
AcDbEntity
  8
LC-007-003-----0
 62
     2
370
    -2
100
AcDbLine
 10
254.226496
 20
262.67055
 30
0.0
 11
254.226496
 21
234.67055
 31
0.0
  0
LINE
  5
24D
330
249
100
AcDbEntity
  8
LC-007-003-----0
 62
     2
370
    -2
100
AcDbLine
 10
254.226496
 20
359.47055
 30
0.0
 11
254.226496
 21
384.132328
 31
0.0
  0
SOLID
  5
24E
330
249
100
AcDbEntity
  8
LC-007-003-----0
 62
     2
100
AcDbTrace
 10
249.559829
 20
359.47055
 30
0.0
 11
258.893163
 21
359.47055
 31
0.0
 12
254.226496
 22
331.47055
 32
0.0
 13
254.226496
 23
331.47055
 33
0.0
  0
SOLID
  5
24F
330
249
100
AcDbEntity
  8
LC-007-003-----0
 62
     2
100
AcDbTrace
 10
258.893163
 20
262.67055
 30
0.0
 11
249.559829
 21
262.67055
 31
0.0
 12
254.226496
 22
290.67055
 32
0.0
 13
254.226496
 23
290.67055
 33
0.0
  0
MTEXT
  5
250
330
249
100
AcDbEntity
  8
LC-007-003-----0
 62
     2
100
AcDbMText
 10
223.426496
 20
361.746
 30
0.0
 40
28.0
 41
0.0
 71
     5
 72
     1
  1
\A1;%%c40
  7
LCTX15-400-0-0pDIN-Schrift
 11
6.123031769111886E-17
 21
1.0
 31
0.0
 73
     1
 44
1.0
  0
POINT
  5
251
330
249
100
AcDbEntity
  8
Defpoints
 62
     0
100
AcDbPoint
 10
297.946178
 20
331.47055
 30
0.0
  0
POINT
  5
252
330
249
100
AcDbEntity
  8
Defpoints
 62
     0
100
AcDbPoint
 10
297.494165
 20
290.67055
 30
0.0
  0
POINT
  5
253
330
249
100
AcDbEntity
  8
Defpoints
 62
     0
100
AcDbPoint
 10
254.226496
 20
290.67055
 30
0.0
  0
ENDBLK
  5
255
330
249
100
AcDbEntity
  8
0
100
AcDbBlockEnd
  0
BLOCK
  5
26E
330
26D
100
AcDbEntity
  8
0
100
AcDbBlockBegin
  2
*X68
 70
     1
 71
     0
 10
0.0
 20
0.0
 30
0.0
  3
*X68
  1

  4
*X6
  0
LINE
  5
270
330
26D
100
AcDbEntity
  8
LC-006-005-----0
 62
     7
370
    25
100
AcDbLine
 10
305.29267
 20
291.150535
 30
0.0
 11
307.994165
 21
293.852029
 31
0.0
  0
LINE
  5
271
330
26D
100
AcDbEntity
  8
LC-006-005-----0
 62
     7
370
    25
100
AcDbLine
 10
302.384259
 20
291.07055
 30
0.0
 11
304.384259
 21
293.07055
 31
0.0
  0
LINE
  5
272
330
26D
100
AcDbEntity
  8
LC-006-005-----0
 62
     7
370
    25
100
AcDbLine
 10
305.994165
 20
294.680456
 30
0.0
 11
307.994165
 21
296.680456
 31
0.0
  0
LINE
  5
273
330
26D
100
AcDbEntity
  8
LC-006-005-----0
 62
     7
370
    25
100
AcDbLine
 10
299.555832
 20
291.07055
 30
0.0
 11
301.555832
 21
293.07055
 31
0.0
  0
LINE
  5
274
330
26D
100
AcDbEntity
  8
LC-006-005-----0
 62
     7
370
    25
100
AcDbLine
 10
305.994165
 20
297.508883
 30
0.0
 11
307.994165
 21
299.508883
 31
0.0
  0
LINE
  5
275
330
26D
100
AcDbEntity
  8
LC-006-005-----0
 62
     7
370
    25
100
AcDbLine
 10
296.727405
 20
291.07055
 30
0.0
 11
298.727405
 21
293.07055
 31
0.0
  0
LINE
  5
276
330
26D
100
AcDbEntity
  8
LC-006-005-----0
 62
     7
370
    25
100
AcDbLine
 10
305.994165
 20
300.337311
 30
0.0
 11
307.994165
 21
302.337311
 31
0.0
  0
LINE
  5
277
330
26D
100
AcDbEntity
  8
LC-006-005-----0
 62
     7
370
    25
100
AcDbLine
 10
293.898977
 20
291.07055
 30
0.0
 11
295.898977
 21
293.07055
 31
0.0
  0
LINE
  5
278
330
26D
100
AcDbEntity
  8
LC-006-005-----0
 62
     7
370
    25
100
AcDbLine
 10
305.994165
 20
303.165738
 30
0.0
 11
307.994165
 21
305.165738
 31
0.0
  0
LINE
  5
279
330
26D
100
AcDbEntity
  8
LC-006-005-----0
 62
     7
370
    25
100
AcDbLine
 10
291.07055
 20
291.07055
 30
0.0
 11
293.07055
 21
293.07055
 31
0.0
  0
LINE
  5
27A
330
26D
100
AcDbEntity
  8
LC-006-005-----0
 62
     7
370
    25
100
AcDbLine
 10
305.994165
 20
305.994165
 30
0.0
 11
307.994165
 21
307.994165
 31
0.0
  0
LINE
  5
27B
330
26D
100
AcDbEntity
  8
LC-006-005-----0
 62
     7
370
    25
100
AcDbLine
 10
282.242123
 20
285.07055
 30
0.0
 11
282.994165
 21
285.822592
 31
0.0
  0
LINE
  5
27C
330
26D
100
AcDbEntity
  8
LC-006-005-----0
 62
     7
370
    25
100
AcDbLine
 10
288.242123
 20
291.07055
 30
0.0
 11
290.242123
 21
293.07055
 31
0.0
  0
LINE
  5
27D
330
26D
100
AcDbEntity
  8
LC-006-005-----0
 62
     7
370
    25
100
AcDbLine
 10
305.994165
 20
308.822592
 30
0.0
 11
307.994165
 21
310.822592
 31
0.0
  0
LINE
  5
27E
330
26D
100
AcDbEntity
  8
LC-006-005-----0
 62
     7
370
    25
100
AcDbLine
 10
280.994165
 20
286.651019
 30
0.0
 11
282.994165
 21
288.651019
 31
0.0
  0
LINE
  5
27F
330
26D
100
AcDbEntity
  8
LC-006-005-----0
 62
     7
370
    25
100
AcDbLine
 10
285.413696
 20
291.07055
 30
0.0
 11
287.413696
 21
293.07055
 31
0.0
  0
LINE
  5
280
330
26D
100
AcDbEntity
  8
LC-006-005-----0
 62
     7
370
    25
100
AcDbLine
 10
305.994165
 20
311.651019
 30
0.0
 11
307.994165
 21
313.651019
 31
0.0
  0
LINE
  5
281
330
26D
100
AcDbEntity
  8
LC-006-005-----0
 62
     7
370
    25
100
AcDbLine
 10
280.994165
 20
289.479446
 30
0.0
 11
284.585269
 21
293.07055
 31
0.0
  0
LINE
  5
282
330
26D
100
AcDbEntity
  8
LC-006-005-----0
 62
     7
370
    25
100
AcDbLine
 10
305.994165
 20
314.479446
 30
0.0
 11
307.994165
 21
316.479446
 31
0.0
  0
LINE
  5
283
330
26D
100
AcDbEntity
  8
LC-006-005-----0
 62
     7
370
    25
100
AcDbLine
 10
280.994165
 20
292.307873
 30
0.0
 11
281.756842
 21
293.07055
 31
0.0
  0
LINE
  5
284
330
26D
100
AcDbEntity
  8
LC-006-005-----0
 62
     7
370
    25
100
AcDbLine
 10
305.994165
 20
317.307873
 30
0.0
 11
307.994165
 21
319.307873
 31
0.0
  0
LINE
  5
285
330
26D
100
AcDbEntity
  8
LC-006-005-----0
 62
     7
370
    25
100
AcDbLine
 10
305.994165
 20
320.1363
 30
0.0
 11
307.994165
 21
322.1363
 31
0.0
  0
LINE
  5
286
330
26D
100
AcDbEntity
  8
LC-006-005-----0
 62
     7
370
    25
100
AcDbLine
 10
305.994165
 20
322.964728
 30
0.0
 11
307.994165
 21
324.964728
 31
0.0
  0
LINE
  5
287
330
26D
100
AcDbEntity
  8
LC-006-005-----0
 62
     7
370
    25
100
AcDbLine
 10
305.994165
 20
325.793155
 30
0.0
 11
307.994165
 21
327.793155
 31
0.0
  0
LINE
  5
288
330
26D
100
AcDbEntity
  8
LC-006-005-----0
 62
     7
370
    25
100
AcDbLine
 10
305.889176
 20
328.516593
 30
0.0
 11
307.714281
 21
330.341698
 31
0.0
  0
LINE
  5
289
330
26D
100
AcDbEntity
  8
LC-006-005-----0
 62
     7
370
    25
100
AcDbLine
 10
303.614706
 20
329.07055
 30
0.0
 11
305.48357
 21
330.939414
 31
0.0
  0
LINE
  5
28A
330
26D
100
AcDbEntity
  8
LC-006-005-----0
 62
     7
370
    25
100
AcDbLine
 10
300.786279
 20
329.07055
 30
0.0
 11
302.786279
 21
331.07055
 31
0.0
  0
LINE
  5
28B
330
26D
100
AcDbEntity
  8
LC-006-005-----0
 62
     7
370
    25
100
AcDbLine
 10
297.957852
 20
329.07055
 30
0.0
 11
299.957852
 21
331.07055
 31
0.0
  0
LINE
  5
28C
330
26D
100
AcDbEntity
  8
LC-006-005-----0
 62
     7
370
    25
100
AcDbLine
 10
295.129425
 20
329.07055
 30
0.0
 11
297.129425
 21
331.07055
 31
0.0
  0
LINE
  5
28D
330
26D
100
AcDbEntity
  8
LC-006-005-----0
 62
     7
370
    25
100
AcDbLine
 10
292.300998
 20
329.07055
 30
0.0
 11
294.300998
 21
331.07055
 31
0.0
  0
LINE
  5
28E
330
26D
100
AcDbEntity
  8
LC-006-005-----0
 62
     7
370
    25
100
AcDbLine
 10
289.472571
 20
329.07055
 30
0.0
 11
291.472571
 21
331.07055
 31
0.0
  0
LINE
  5
28F
330
26D
100
AcDbEntity
  8
LC-006-005-----0
 62
     7
370
    25
100
AcDbLine
 10
286.644143
 20
329.07055
 30
0.0
 11
288.644143
 21
331.07055
 31
0.0
  0
LINE
  5
290
330
26D
100
AcDbEntity
  8
LC-006-005-----0
 62
     7
370
    25
100
AcDbLine
 10
283.815716
 20
329.07055
 30
0.0
 11
285.815716
 21
331.07055
 31
0.0
  0
LINE
  5
291
330
26D
100
AcDbEntity
  8
LC-006-005-----0
 62
     7
370
    25
100
AcDbLine
 10
280.994165
 20
329.077426
 30
0.0
 11
282.994165
 21
331.077426
 31
0.0
  0
LINE
  5
292
330
26D
100
AcDbEntity
  8
LC-006-005-----0
 62
     7
370
    25
100
AcDbLine
 10
280.994165
 20
331.905853
 30
0.0
 11
282.994165
 21
333.905853
 31
0.0
  0
LINE
  5
293
330
26D
100
AcDbEntity
  8
LC-006-005-----0
 62
     7
370
    25
100
AcDbLine
 10
280.994165
 20
334.73428
 30
0.0
 11
282.994165
 21
336.73428
 31
0.0
  0
ENDBLK
  5
26F
330
26D
100
AcDbEntity
  8
0
100
AcDbBlockEnd
  0
BLOCK
  5
2BA
330
2B0
100
AcDbEntity
  8
0
100
AcDbBlockBegin
  2
*D9
 70
     1
 71
     0
 10
0.0
 20
0.0
 30
0.0
  3
*D9
  1

  0
LINE
  5
2B1
330
2B0
100
AcDbEntity
  8
LC-007-003-----0
 62
     2
370
    -2
100
AcDbLine
 10
283.041289
 20
287.246419
 30
0.0
 11
283.041289
 21
147.271823
 31
0.0
  0
LINE
  5
2B2
330
2B0
100
AcDbEntity
  8
LC-007-003-----0
 62
     2
370
    -2
100
AcDbLine
 10
577.049566
 20
279.746419
 30
0.0
 11
577.049566
 21
147.271823
 31
0.0
  0
LINE
  5
2B3
330
2B0
100
AcDbEntity
  8
LC-007-003-----0
 62
     2
370
    -2
100
AcDbLine
 10
311.041289
 20
150.871823
 30
0.0
 11
549.049566
 21
150.871823
 31
0.0
  0
SOLID
  5
2B4
330
2B0
100
AcDbEntity
  8
LC-007-003-----0
 62
     2
100
AcDbTrace
 10
311.041289
 20
155.53849
 30
0.0
 11
311.041289
 21
146.205157
 31
0.0
 12
283.041289
 22
150.871823
 32
0.0
 13
283.041289
 23
150.871823
 33
0.0
  0
SOLID
  5
2B5
330
2B0
100
AcDbEntity
  8
LC-007-003-----0
 62
     2
100
AcDbTrace
 10
549.049566
 20
146.205157
 30
0.0
 11
549.049566
 21
155.53849
 31
0.0
 12
577.049566
 22
150.871823
 32
0.0
 13
577.049566
 23
150.871823
 33
0.0
  0
MTEXT
  5
2B6
330
2B0
100
AcDbEntity
  8
LC-007-003-----0
 62
     2
100
AcDbMText
 10
430.045428
 20
181.671823
 30
0.0
 40
28.0
 41
0.0
 71
     5
 72
     1
  1
\A1;295
  7
LCTX15-400-0-0pDIN-Schrift
 73
     1
 44
1.0
  0
POINT
  5
2B7
330
2B0
100
AcDbEntity
  8
Defpoints
 62
     0
100
AcDbPoint
 10
283.041289
 20
287.246419
 30
0.0
  0
POINT
  5
2B8
330
2B0
100
AcDbEntity
  8
Defpoints
 62
     0
100
AcDbPoint
 10
577.049566
 20
279.746419
 30
0.0
  0
POINT
  5
2B9
330
2B0
100
AcDbEntity
  8
Defpoints
 62
     0
100
AcDbPoint
 10
577.049566
 20
150.871823
 30
0.0
  0
ENDBLK
  5
2BB
330
2B0
100
AcDbEntity
  8
0
100
AcDbBlockEnd
  0
BLOCK
  5
2BE
330
2BD
100
AcDbEntity
  8
0
100
AcDbBlockBegin
  2
LCDIM1
 70
     0
 71
     0
 10
0.0
 20
0.0
 30
0.0
  3
LCDIM1
  1

  4
LCDIM1
  0
TEXT
  5
2C0
330
2BD
100
AcDbEntity
  8
LC-007-003-----0
 62
     7
370
   140
100
AcDbText
 10
595.285103
 20
174.307443
 30
0.0
 40
28.0
  1
 15%%d
 50
48.227676
 41
0.8
 51
15.0
  7
LCTX15-400-0-0-Arial
 72
     1
 11
613.967772
 21
195.223195
 31
0.0
100
AcDbText
  0
LINE
  5
2C1
330
2BD
100
AcDbEntity
  8
LC-007-003-----0
 62
     7
370
    25
100
AcDbLine
 10
660.524993
 20
233.28156
 30
0.0
 11
666.155683
 21
260.709563
 31
0.0
  0
LINE
  5
2C2
330
2BD
100
AcDbEntity
  8
LC-007-003-----0
 62
     7
370
    25
100
AcDbLine
 10
666.155683
 20
260.709563
 30
0.0
 11
653.617965
 21
235.673476
 31
0.0
  0
LINE
  5
2C3
330
2BD
100
AcDbEntity
  8
LC-007-003-----0
 62
     7
370
    25
100
AcDbLine
 10
653.617965
 20
235.673476
 30
0.0
 11
660.524993
 21
233.28156
 31
0.0
  0
LINE
  5
2C4
330
2BD
100
AcDbEntity
  8
LC-007-003-----0
 62
     7
370
    25
100
AcDbLine
 10
659.606699
 20
233.533657
 30
0.0
 11
663.773409
 21
253.830379
 31
0.0
  0
LINE
  5
2C5
330
2BD
100
AcDbEntity
  8
LC-007-003-----0
 62
     7
370
    25
100
AcDbLine
 10
663.773409
 20
253.830379
 30
0.0
 11
654.495498
 21
235.303674
 31
0.0
  0
LINE
  5
2C6
330
2BD
100
AcDbEntity
  8
LC-007-003-----0
 62
     7
370
    25
100
AcDbLine
 10
658.688405
 20
233.785753
 30
0.0
 11
661.391135
 21
246.951195
 31
0.0
  0
LINE
  5
2C7
330
2BD
100
AcDbEntity
  8
LC-007-003-----0
 62
     7
370
    25
100
AcDbLine
 10
661.391135
 20
246.951195
 30
0.0
 11
655.373031
 21
234.933873
 31
0.0
  0
LINE
  5
2C8
330
2BD
100
AcDbEntity
  8
LC-007-003-----0
 62
     7
370
    25
100
AcDbLine
 10
657.77011
 20
234.03785
 30
0.0
 11
659.008862
 21
240.072011
 31
0.0
  0
LINE
  5
2C9
330
2BD
100
AcDbEntity
  8
LC-007-003-----0
 62
     7
370
    25
100
AcDbLine
 10
659.008862
 20
240.072011
 30
0.0
 11
656.250564
 21
234.564072
 31
0.0
  0
LINE
  5
2CA
330
2BD
100
AcDbEntity
  8
LC-007-003-----0
 62
     7
370
    25
100
AcDbLine
 10
667.178297
 20
338.674422
 30
0.0
 11
672.808986
 21
311.246419
 31
0.0
  0
LINE
  5
2CB
330
2BD
100
AcDbEntity
  8
LC-007-003-----0
 62
     7
370
    25
100
AcDbLine
 10
672.808986
 20
311.246419
 30
0.0
 11
674.469047
 21
339.197165
 31
0.0
  0
LINE
  5
2CC
330
2BD
100
AcDbEntity
  8
LC-007-003-----0
 62
     7
370
    25
100
AcDbLine
 10
674.469047
 20
339.197165
 30
0.0
 11
667.178297
 21
338.674422
 31
0.0
  0
LINE
  5
2CD
330
2BD
100
AcDbEntity
  8
LC-007-003-----0
 62
     7
370
    25
100
AcDbLine
 10
668.12164
 20
338.804501
 30
0.0
 11
672.28835
 21
318.507778
 31
0.0
  0
LINE
  5
2CE
330
2BD
100
AcDbEntity
  8
LC-007-003-----0
 62
     7
370
    25
100
AcDbLine
 10
672.28835
 20
318.507778
 30
0.0
 11
673.516796
 21
339.19133
 31
0.0
  0
LINE
  5
2CF
330
2BD
100
AcDbEntity
  8
LC-007-003-----0
 62
     7
370
    25
100
AcDbLine
 10
669.064984
 20
338.934579
 30
0.0
 11
671.767714
 21
325.769138
 31
0.0
  0
LINE
  5
2D0
330
2BD
100
AcDbEntity
  8
LC-007-003-----0
 62
     7
370
    25
100
AcDbLine
 10
671.767714
 20
325.769138
 30
0.0
 11
672.564544
 21
339.185496
 31
0.0
  0
LINE
  5
2D1
330
2BD
100
AcDbEntity
  8
LC-007-003-----0
 62
     7
370
    25
100
AcDbLine
 10
670.008327
 20
339.064658
 30
0.0
 11
671.247079
 21
333.030497
 31
0.0
  0
LINE
  5
2D2
330
2BD
100
AcDbEntity
  8
LC-007-003-----0
 62
     7
370
    25
100
AcDbLine
 10
671.247079
 20
333.030497
 30
0.0
 11
671.612292
 21
339.179661
 31
0.0
  0
ARC
  5
2D4
330
2BD
100
AcDbEntity
  8
LC-008-003-MTG-0
 62
     7
370
    25
100
AcDbCircle
 10
477.549566
 20
311.246419
 30
0.0
 40
195.2594195846585
100
AcDbArc
 50
307.596178
 51
11.351717
  0
LINE
  5
2D6
330
2BD
100
AcDbEntity
  8
LC-009-003-MTH-0
 62
     7
370
    25
100
AcDbLine
 10
573.659186
 20
285.493924
 30
0.0
 11
670.019386
 21
259.674286
 31
0.0
  0
LINE
  5
2D7
330
2BD
100
AcDbEntity
  8
LC-009-003-MTH-0
 62
     7
370
    25
100
AcDbLine
 10
608.049122
 20
311.246419
 30
0.0
 11
676.808986
 21
311.246419
 31
0.0
  0
ENDBLK
  5
2BF
330
2BD
100
AcDbEntity
  8
0
100
AcDbBlockEnd
  0
BLOCK
  5
2DA
330
2D9
100
AcDbEntity
  8
0
100
AcDbBlockBegin
  2
*X711
 70
     1
 71
     0
 10
0.0
 20
0.0
 30
0.0
  3
*X711
  1

  4
*X7
  0
LINE
  5
2DC
330
2D9
100
AcDbEntity
  8
LC-006-005-----0
 62
     7
370
    25
100
AcDbLine
 10
486.86976
 20
336.397437
 30
0.0
 11
487.274419
 21
336.802096
 31
0.0
  0
LINE
  5
2DD
330
2D9
100
AcDbEntity
  8
LC-006-005-----0
 62
     7
370
    25
100
AcDbLine
 10
485.982081
 20
336.075443
 30
0.0
 11
487.596413
 21
337.689775
 31
0.0
  0
LINE
  5
2DE
330
2D9
100
AcDbEntity
  8
LC-006-005-----0
 62
     7
370
    25
100
AcDbLine
 10
485.456597
 20
336.115644
 30
0.0
 11
487.556212
 21
338.21526
 31
0.0
  0
LINE
  5
2DF
330
2D9
100
AcDbEntity
  8
LC-006-005-----0
 62
     7
370
    25
100
AcDbLine
 10
485.043445
 20
336.268178
 30
0.0
 11
487.403678
 21
338.628412
 31
0.0
  0
LINE
  5
2E0
330
2D9
100
AcDbEntity
  8
LC-006-005-----0
 62
     7
370
    25
100
AcDbLine
 10
484.706517
 20
336.496935
 30
0.0
 11
487.174921
 21
338.96534
 31
0.0
  0
LINE
  5
2E1
330
2D9
100
AcDbEntity
  8
LC-006-005-----0
 62
     7
370
    25
100
AcDbLine
 10
484.435651
 20
336.791755
 30
0.0
 11
486.880102
 21
339.236206
 31
0.0
  0
LINE
  5
2E2
330
2D9
100
AcDbEntity
  8
LC-006-005-----0
 62
     7
370
    25
100
AcDbLine
 10
484.232924
 20
337.154713
 30
0.0
 11
486.517143
 21
339.438933
 31
0.0
  0
LINE
  5
2E3
330
2D9
100
AcDbEntity
  8
LC-006-005-----0
 62
     7
370
    25
100
AcDbLine
 10
484.114953
 20
337.602428
 30
0.0
 11
486.069429
 21
339.556904
 31
0.0
  0
LINE
  5
2E4
330
2D9
100
AcDbEntity
  8
LC-006-005-----0
 62
     7
370
    25
100
AcDbLine
 10
484.141835
 20
338.194995
 30
0.0
 11
485.476861
 21
339.530021
 31
0.0
  0
ENDBLK
  5
2DB
330
2D9
100
AcDbEntity
  8
0
100
AcDbBlockEnd
  0
BLOCK
  5
2F2
330
2E8
100
AcDbEntity
  8
0
100
AcDbBlockBegin
  2
*D12
 70
     1
 71
     0
 10
0.0
 20
0.0
 30
0.0
  3
*D12
  1

  0
LINE
  5
2E9
330
2E8
100
AcDbEntity
  8
LC-007-003-----0
 62
     2
370
    -2
100
AcDbLine
 10
577.049566
 20
342.746419
 30
0.0
 11
645.888077
 21
342.746419
 31
0.0
  0
LINE
  5
2EA
330
2E8
100
AcDbEntity
  8
LC-007-003-----0
 62
     2
370
    -2
100
AcDbLine
 10
577.049566
 20
279.746419
 30
0.0
 11
645.888077
 21
279.746419
 31
0.0
  0
LINE
  5
2EB
330
2E8
100
AcDbEntity
  8
LC-007-003-----0
 62
     2
370
    -2
100
AcDbLine
 10
642.288077
 20
314.746419
 30
0.0
 11
642.288077
 21
307.746419
 31
0.0
  0
SOLID
  5
2EC
330
2E8
100
AcDbEntity
  8
LC-007-003-----0
 62
     2
100
AcDbTrace
 10
646.954743
 20
314.746419
 30
0.0
 11
637.62141
 21
314.746419
 31
0.0
 12
642.288077
 22
342.746419
 32
0.0
 13
642.288077
 23
342.746419
 33
0.0
  0
SOLID
  5
2ED
330
2E8
100
AcDbEntity
  8
LC-007-003-----0
 62
     2
100
AcDbTrace
 10
637.62141
 20
307.746419
 30
0.0
 11
646.954743
 21
307.746419
 31
0.0
 12
642.288077
 22
279.746419
 32
0.0
 13
642.288077
 23
279.746419
 33
0.0
  0
MTEXT
  5
2EE
330
2E8
100
AcDbEntity
  8
LC-007-003-----0
 62
     2
100
AcDbMText
 10
611.488077
 20
311.246419
 30
0.0
 40
28.0
 41
0.0
 71
     5
 72
     1
  1
%%c\A1;63
  7
LCTX15-400-0-0pDIN-Schrift
 11
6.123031769111886E-17
 21
1.0
 31
0.0
 73
     1
 44
1.0
  0
POINT
  5
2EF
330
2E8
100
AcDbEntity
  8
Defpoints
 62
     0
100
AcDbPoint
 10
577.049566
 20
342.746419
 30
0.0
  0
POINT
  5
2F0
330
2E8
100
AcDbEntity
  8
Defpoints
 62
     0
100
AcDbPoint
 10
577.049566
 20
279.746419
 30
0.0
  0
POINT
  5
2F1
330
2E8
100
AcDbEntity
  8
Defpoints
 62
     0
100
AcDbPoint
 10
642.288077
 20
279.746419
 30
0.0
  0
ENDBLK
  5
2F3
330
2E8
100
AcDbEntity
  8
0
100
AcDbBlockEnd
  0
BLOCK
  5
301
330
2F5
100
AcDbEntity
  8
0
100
AcDbBlockBegin
  2
*D13
 70
     1
 71
     0
 10
0.0
 20
0.0
 30
0.0
  3
*D13
  1

  0
LINE
  5
2F6
330
2F5
100
AcDbEntity
  8
LC-007-003-----0
 62
     2
370
    -2
100
AcDbLine
 10
533.549566
 20
339.246419
 30
0.0
 11
601.503273
 21
339.246419
 31
0.0
  0
LINE
  5
2F7
330
2F5
100
AcDbEntity
  8
LC-007-003-----0
 62
     2
370
    -2
100
AcDbLine
 10
533.549566
 20
283.246419
 30
0.0
 11
601.503273
 21
283.246419
 31
0.0
  0
LINE
  5
2F8
330
2F5
100
AcDbEntity
  8
LC-007-003-----0
 62
     2
370
    -2
100
AcDbLine
 10
597.903273
 20
367.246419
 30
0.0
 11
597.903273
 21
395.246419
 31
0.0
  0
LINE
  5
2F9
330
2F5
100
AcDbEntity
  8
LC-007-003-----0
 62
     2
370
    -2
100
AcDbLine
 10
597.903273
 20
255.246419
 30
0.0
 11
597.903273
 21
227.246419
 31
0.0
  0
LINE
  5
2FA
330
2F5
100
AcDbEntity
  8
LC-007-003-----0
 62
     2
370
    -2
100
AcDbLine
 10
597.903273
 20
339.246419
 30
0.0
 11
597.903273
 21
283.246419
 31
0.0
  0
SOLID
  5
2FB
330
2F5
100
AcDbEntity
  8
LC-007-003-----0
 62
     2
100
AcDbTrace
 10
593.236606
 20
367.246419
 30
0.0
 11
602.569939
 21
367.246419
 31
0.0
 12
597.903273
 22
339.246419
 32
0.0
 13
597.903273
 23
339.246419
 33
0.0
  0
SOLID
  5
2FC
330
2F5
100
AcDbEntity
  8
LC-007-003-----0
 62
     2
100
AcDbTrace
 10
602.569939
 20
255.246419
 30
0.0
 11
593.236606
 21
255.246419
 31
0.0
 12
597.903273
 22
283.246419
 32
0.0
 13
597.903273
 23
283.246419
 33
0.0
  0
MTEXT
  5
2FD
330
2F5
100
AcDbEntity
  8
LC-007-003-----0
 62
     2
100
AcDbMText
 10
567.103273
 20
311.246419
 30
0.0
 40
28.0
 41
0.0
 71
     5
 72
     1
  1
%%c\A1;56
  7
LCTX15-400-0-0pDIN-Schrift
 11
6.123031769111886E-17
 21
1.0
 31
0.0
 73
     1
 44
1.0
  0
POINT
  5
2FE
330
2F5
100
AcDbEntity
  8
Defpoints
 62
     0
100
AcDbPoint
 10
533.549566
 20
339.246419
 30
0.0
  0
POINT
  5
2FF
330
2F5
100
AcDbEntity
  8
Defpoints
 62
     0
100
AcDbPoint
 10
533.549566
 20
283.246419
 30
0.0
  0
POINT
  5
300
330
2F5
100
AcDbEntity
  8
Defpoints
 62
     0
100
AcDbPoint
 10
597.903273
 20
283.246419
 30
0.0
  0
ENDBLK
  5
302
330
2F5
100
AcDbEntity
  8
0
100
AcDbBlockEnd
  0
BLOCK
  5
306
330
305
100
AcDbEntity
  8
0
100
AcDbBlockBegin
  2
*X814
 70
     1
 71
     0
 10
0.0
 20
0.0
 30
0.0
  3
*X814
  1

  4
*X8
  0
LINE
  5
308
330
305
100
AcDbEntity
  8
LC-006-005-----0
 62
     7
370
    25
100
AcDbLine
 10
486.552356
 20
282.905603
 30
0.0
 11
487.454749
 21
283.807996
 31
0.0
  0
LINE
  5
309
330
305
100
AcDbEntity
  8
LC-006-005-----0
 62
     7
370
    25
100
AcDbLine
 10
485.840149
 20
282.759082
 30
0.0
 11
487.60127
 21
284.520203
 31
0.0
  0
LINE
  5
30A
330
305
100
AcDbEntity
  8
LC-006-005-----0
 62
     7
370
    25
100
AcDbLine
 10
485.348282
 20
282.8329
 30
0.0
 11
487.527452
 21
285.01207
 31
0.0
  0
LINE
  5
30B
330
305
100
AcDbEntity
  8
LC-006-005-----0
 62
     7
370
    25
100
AcDbLine
 10
484.955439
 20
283.005742
 30
0.0
 11
487.35461
 21
285.404913
 31
0.0
  0
LINE
  5
30C
330
305
100
AcDbEntity
  8
LC-006-005-----0
 62
     7
370
    25
100
AcDbLine
 10
484.634921
 20
283.25091
 30
0.0
 11
487.109442
 21
285.725431
 31
0.0
  0
LINE
  5
30D
330
305
100
AcDbEntity
  8
LC-006-005-----0
 62
     7
370
    25
100
AcDbLine
 10
484.379949
 20
283.561623
 30
0.0
 11
486.798729
 21
285.980403
 31
0.0
  0
LINE
  5
30E
330
305
100
AcDbEntity
  8
LC-006-005-----0
 62
     7
370
    25
100
AcDbLine
 10
484.195446
 20
283.942806
 30
0.0
 11
486.417546
 21
286.164906
 31
0.0
  0
LINE
  5
30F
330
305
100
AcDbEntity
  8
LC-006-005-----0
 62
     7
370
    25
100
AcDbLine
 10
484.10374
 20
284.416785
 30
0.0
 11
485.943567
 21
286.256612
 31
0.0
  0
LINE
  5
310
330
305
100
AcDbEntity
  8
LC-006-005-----0
 62
     7
370
    25
100
AcDbLine
 10
484.194871
 20
285.073601
 30
0.0
 11
485.286751
 21
286.165481
 31
0.0
  0
ENDBLK
  5
307
330
305
100
AcDbEntity
  8
0
100
AcDbBlockEnd
  0
BLOCK
  5
31A
330
319
100
AcDbEntity
  8
0
100
AcDbBlockBegin
  2
*X915
 70
     1
 71
     0
 10
0.0
 20
0.0
 30
0.0
  3
*X915
  1

  4
*X9
  0
LINE
  5
31C
330
319
100
AcDbEntity
  8
LC-006-005-----0
 62
     7
370
    25
100
AcDbLine
 10
576.568312
 20
280.445107
 30
0.0
 11
574.244378
 21
282.769041
 31
0.0
  0
LINE
  5
31D
330
319
100
AcDbEntity
  8
LC-006-005-----0
 62
     7
370
    25
100
AcDbLine
 10
574.438573
 20
279.746419
 30
0.0
 11
571.392957
 21
282.792035
 31
0.0
  0
LINE
  5
31E
330
319
100
AcDbEntity
  8
LC-006-005-----0
 62
     7
370
    25
100
AcDbLine
 10
571.610145
 20
279.746419
 30
0.0
 11
568.541535
 21
282.815029
 31
0.0
  0
LINE
  5
31F
330
319
100
AcDbEntity
  8
LC-006-005-----0
 62
     7
370
    25
100
AcDbLine
 10
568.781718
 20
279.746419
 30
0.0
 11
565.690114
 21
282.838023
 31
0.0
  0
LINE
  5
320
330
319
100
AcDbEntity
  8
LC-006-005-----0
 62
     7
370
    25
100
AcDbLine
 10
565.953291
 20
279.746419
 30
0.0
 11
562.838693
 21
282.861018
 31
0.0
  0
LINE
  5
321
330
319
100
AcDbEntity
  8
LC-006-005-----0
 62
     7
370
    25
100
AcDbLine
 10
563.124864
 20
279.746419
 30
0.0
 11
559.987271
 21
282.884012
 31
0.0
  0
LINE
  5
322
330
319
100
AcDbEntity
  8
LC-006-005-----0
 62
     7
370
    25
100
AcDbLine
 10
560.296437
 20
279.746419
 30
0.0
 11
557.13585
 21
282.907006
 31
0.0
  0
LINE
  5
323
330
319
100
AcDbEntity
  8
LC-006-005-----0
 62
     7
370
    25
100
AcDbLine
 10
557.46801
 20
279.746419
 30
0.0
 11
554.284428
 21
282.93
 31
0.0
  0
LINE
  5
324
330
319
100
AcDbEntity
  8
LC-006-005-----0
 62
     7
370
    25
100
AcDbLine
 10
554.639583
 20
279.746419
 30
0.0
 11
551.433007
 21
282.952995
 31
0.0
  0
LINE
  5
325
330
319
100
AcDbEntity
  8
LC-006-005-----0
 62
     7
370
    25
100
AcDbLine
 10
551.811156
 20
279.746419
 30
0.0
 11
548.581586
 21
282.975989
 31
0.0
  0
LINE
  5
326
330
319
100
AcDbEntity
  8
LC-006-005-----0
 62
     7
370
    25
100
AcDbLine
 10
548.982728
 20
279.746419
 30
0.0
 11
545.730164
 21
282.998983
 31
0.0
  0
LINE
  5
327
330
319
100
AcDbEntity
  8
LC-006-005-----0
 62
     7
370
    25
100
AcDbLine
 10
546.154301
 20
279.746419
 30
0.0
 11
542.878743
 21
283.021978
 31
0.0
  0
LINE
  5
328
330
319
100
AcDbEntity
  8
LC-006-005-----0
 62
     7
370
    25
100
AcDbLine
 10
543.325874
 20
279.746419
 30
0.0
 11
540.027322
 21
283.044972
 31
0.0
  0
LINE
  5
329
330
319
100
AcDbEntity
  8
LC-006-005-----0
 62
     7
370
    25
100
AcDbLine
 10
537.049566
 20
286.022727
 30
0.0
 11
536.823906
 21
286.248387
 31
0.0
  0
LINE
  5
32A
330
319
100
AcDbEntity
  8
LC-006-005-----0
 62
     7
370
    25
100
AcDbLine
 10
540.497447
 20
279.746419
 30
0.0
 11
533.970592
 21
286.273274
 31
0.0
  0
LINE
  5
32B
330
319
100
AcDbEntity
  8
LC-006-005-----0
 62
     7
370
    25
100
AcDbLine
 10
537.66902
 20
279.746419
 30
0.0
 11
531.117279
 21
286.29816
 31
0.0
  0
LINE
  5
32C
330
319
100
AcDbEntity
  8
LC-006-005-----0
 62
     7
370
    25
100
AcDbLine
 10
534.840593
 20
279.746419
 30
0.0
 11
534.049566
 21
280.537446
 31
0.0
  0
LINE
  5
32D
330
319
100
AcDbEntity
  8
LC-006-005-----0
 62
     7
370
    25
100
AcDbLine
 10
531.340593
 20
283.246419
 30
0.0
 11
528.263965
 21
286.323046
 31
0.0
  0
LINE
  5
32E
330
319
100
AcDbEntity
  8
LC-006-005-----0
 62
     7
370
    25
100
AcDbLine
 10
528.512166
 20
283.246419
 30
0.0
 11
525.410652
 21
286.347933
 31
0.0
  0
LINE
  5
32F
330
319
100
AcDbEntity
  8
LC-006-005-----0
 62
     7
370
    25
100
AcDbLine
 10
525.683739
 20
283.246419
 30
0.0
 11
522.557338
 21
286.372819
 31
0.0
  0
LINE
  5
330
330
319
100
AcDbEntity
  8
LC-006-005-----0
 62
     7
370
    25
100
AcDbLine
 10
522.855311
 20
283.246419
 30
0.0
 11
519.704025
 21
286.397706
 31
0.0
  0
LINE
  5
331
330
319
100
AcDbEntity
  8
LC-006-005-----0
 62
     7
370
    25
100
AcDbLine
 10
520.026884
 20
283.246419
 30
0.0
 11
516.850711
 21
286.422592
 31
0.0
  0
LINE
  5
332
330
319
100
AcDbEntity
  8
LC-006-005-----0
 62
     7
370
    25
100
AcDbLine
 10
517.198457
 20
283.246419
 30
0.0
 11
513.997398
 21
286.447478
 31
0.0
  0
LINE
  5
333
330
319
100
AcDbEntity
  8
LC-006-005-----0
 62
     7
370
    25
100
AcDbLine
 10
514.37003
 20
283.246419
 30
0.0
 11
511.144085
 21
286.472365
 31
0.0
  0
LINE
  5
334
330
319
100
AcDbEntity
  8
LC-006-005-----0
 62
     7
370
    25
100
AcDbLine
 10
511.541603
 20
283.246419
 30
0.0
 11
508.290771
 21
286.497251
 31
0.0
  0
LINE
  5
335
330
319
100
AcDbEntity
  8
LC-006-005-----0
 62
     7
370
    25
100
AcDbLine
 10
508.713176
 20
283.246419
 30
0.0
 11
505.437458
 21
286.522137
 31
0.0
  0
LINE
  5
336
330
319
100
AcDbEntity
  8
LC-006-005-----0
 62
     7
370
    25
100
AcDbLine
 10
505.884749
 20
283.246419
 30
0.0
 11
502.584144
 21
286.547024
 31
0.0
  0
LINE
  5
337
330
319
100
AcDbEntity
  8
LC-006-005-----0
 62
     7
370
    25
100
AcDbLine
 10
503.056322
 20
283.246419
 30
0.0
 11
499.664931
 21
286.63781
 31
0.0
  0
LINE
  5
338
330
319
100
AcDbEntity
  8
LC-006-005-----0
 62
     7
370
    25
100
AcDbLine
 10
499.097025
 20
287.205716
 30
0.0
 11
498.179785
 21
288.122956
 31
0.0
  0
LINE
  5
339
330
319
100
AcDbEntity
  8
LC-006-005-----0
 62
     7
370
    25
100
AcDbLine
 10
500.227894
 20
283.246419
 30
0.0
 11
495.649269
 21
287.825045
 31
0.0
  0
LINE
  5
33A
330
319
100
AcDbEntity
  8
LC-006-005-----0
 62
     7
370
    25
100
AcDbLine
 10
497.399467
 20
283.246419
 30
0.0
 11
494.004348
 21
286.641538
 31
0.0
  0
LINE
  5
33B
330
319
100
AcDbEntity
  8
LC-006-005-----0
 62
     7
370
    25
100
AcDbLine
 10
494.57104
 20
283.246419
 30
0.0
 11
492.258026
 21
285.559434
 31
0.0
  0
LINE
  5
33C
330
319
100
AcDbEntity
  8
LC-006-005-----0
 62
     7
370
    25
100
AcDbLine
 10
492.565647
 20
282.423385
 30
0.0
 11
490.405189
 21
284.583843
 31
0.0
  0
LINE
  5
33D
330
319
100
AcDbEntity
  8
LC-006-005-----0
 62
     7
370
    25
100
AcDbLine
 10
490.654785
 20
281.50582
 30
0.0
 11
488.438542
 21
283.722063
 31
0.0
  0
LINE
  5
33E
330
319
100
AcDbEntity
  8
LC-006-005-----0
 62
     7
370
    25
100
AcDbLine
 10
488.636285
 20
280.695893
 30
0.0
 11
486.347909
 21
282.984269
 31
0.0
  0
LINE
  5
33F
330
319
100
AcDbEntity
  8
LC-006-005-----0
 62
     7
370
    25
100
AcDbLine
 10
486.500441
 20
280.00331
 30
0.0
 11
484.119094
 21
282.384657
 31
0.0
  0
LINE
  5
340
330
319
100
AcDbEntity
  8
LC-006-005-----0
 62
     7
370
    25
100
AcDbLine
 10
484.234055
 20
279.441268
 30
0.0
 11
481.731938
 21
281.943386
 31
0.0
  0
LINE
  5
341
330
319
100
AcDbEntity
  8
LC-006-005-----0
 62
     7
370
    25
100
AcDbLine
 10
481.818846
 20
279.028051
 30
0.0
 11
479.15681
 21
281.690087
 31
0.0
  0
LINE
  5
342
330
319
100
AcDbEntity
  8
LC-006-005-----0
 62
     7
370
    25
100
AcDbLine
 10
479.228647
 20
278.789822
 30
0.0
 11
476.347638
 21
281.670832
 31
0.0
  0
LINE
  5
343
330
319
100
AcDbEntity
  8
LC-006-005-----0
 62
     7
370
    25
100
AcDbLine
 10
476.443623
 20
278.746419
 30
0.0
 11
473.226184
 21
281.963858
 31
0.0
  0
LINE
  5
344
330
319
100
AcDbEntity
  8
LC-006-005-----0
 62
     7
370
    25
100
AcDbLine
 10
473.615196
 20
278.746419
 30
0.0
 11
469.810773
 21
282.550842
 31
0.0
  0
LINE
  5
345
330
319
100
AcDbEntity
  8
LC-006-005-----0
 62
     7
370
    25
100
AcDbLine
 10
470.786769
 20
278.746419
 30
0.0
 11
469.049566
 21
280.483622
 31
0.0
  0
ENDBLK
  5
31B
330
319
100
AcDbEntity
  8
0
100
AcDbBlockEnd
  0
BLOCK
  5
38B
330
38A
100
AcDbEntity
  8
0
100
AcDbBlockBegin
  2
*X1016
 70
     1
 71
     0
 10
0.0
 20
0.0
 30
0.0
  3
*X1016
  1

  4
*X10
  0
LINE
  5
38D
330
38A
100
AcDbEntity
  8
LC-006-005-----0
 62
     7
370
    25
100
AcDbLine
 10
576.667054
 20
339.743335
 30
0.0
 11
573.663969
 21
342.746419
 31
0.0
  0
LINE
  5
38E
330
38A
100
AcDbEntity
  8
LC-006-005-----0
 62
     7
370
    25
100
AcDbLine
 10
573.861253
 20
339.720708
 30
0.0
 11
570.835542
 21
342.746419
 31
0.0
  0
LINE
  5
38F
330
38A
100
AcDbEntity
  8
LC-006-005-----0
 62
     7
370
    25
100
AcDbLine
 10
571.055452
 20
339.698082
 30
0.0
 11
568.007115
 21
342.746419
 31
0.0
  0
LINE
  5
390
330
38A
100
AcDbEntity
  8
LC-006-005-----0
 62
     7
370
    25
100
AcDbLine
 10
568.249652
 20
339.675455
 30
0.0
 11
565.178688
 21
342.746419
 31
0.0
  0
LINE
  5
391
330
38A
100
AcDbEntity
  8
LC-006-005-----0
 62
     7
370
    25
100
AcDbLine
 10
565.443851
 20
339.652829
 30
0.0
 11
562.350261
 21
342.746419
 31
0.0
  0
LINE
  5
392
330
38A
100
AcDbEntity
  8
LC-006-005-----0
 62
     7
370
    25
100
AcDbLine
 10
562.63805
 20
339.630203
 30
0.0
 11
559.521834
 21
342.746419
 31
0.0
  0
LINE
  5
393
330
38A
100
AcDbEntity
  8
LC-006-005-----0
 62
     7
370
    25
100
AcDbLine
 10
559.832249
 20
339.607576
 30
0.0
 11
556.693407
 21
342.746419
 31
0.0
  0
LINE
  5
394
330
38A
100
AcDbEntity
  8
LC-006-005-----0
 62
     7
370
    25
100
AcDbLine
 10
557.026449
 20
339.58495
 30
0.0
 11
553.864979
 21
342.746419
 31
0.0
  0
LINE
  5
395
330
38A
100
AcDbEntity
  8
LC-006-005-----0
 62
     7
370
    25
100
AcDbLine
 10
554.220648
 20
339.562324
 30
0.0
 11
551.036552
 21
342.746419
 31
0.0
  0
LINE
  5
396
330
38A
100
AcDbEntity
  8
LC-006-005-----0
 62
     7
370
    25
100
AcDbLine
 10
551.414847
 20
339.539697
 30
0.0
 11
548.208125
 21
342.746419
 31
0.0
  0
LINE
  5
397
330
38A
100
AcDbEntity
  8
LC-006-005-----0
 62
     7
370
    25
100
AcDbLine
 10
548.609046
 20
339.517071
 30
0.0
 11
545.379698
 21
342.746419
 31
0.0
  0
LINE
  5
398
330
38A
100
AcDbEntity
  8
LC-006-005-----0
 62
     7
370
    25
100
AcDbLine
 10
545.803246
 20
339.494444
 30
0.0
 11
542.551271
 21
342.746419
 31
0.0
  0
LINE
  5
399
330
38A
100
AcDbEntity
  8
LC-006-005-----0
 62
     7
370
    25
100
AcDbLine
 10
542.997445
 20
339.471818
 30
0.0
 11
539.722844
 21
342.746419
 31
0.0
  0
LINE
  5
39A
330
38A
100
AcDbEntity
  8
LC-006-005-----0
 62
     7
370
    25
100
AcDbLine
 10
536.994253
 20
345.47501
 30
0.0
 11
536.778157
 21
345.691106
 31
0.0
  0
LINE
  5
39B
330
38A
100
AcDbEntity
  8
LC-006-005-----0
 62
     7
370
    25
100
AcDbLine
 10
540.191644
 20
339.449192
 30
0.0
 11
534.127054
 21
345.513782
 31
0.0
  0
LINE
  5
39C
330
38A
100
AcDbEntity
  8
LC-006-005-----0
 62
     7
370
    25
100
AcDbLine
 10
537.405688
 20
339.406721
 30
0.0
 11
534.049566
 21
342.762842
 31
0.0
  0
LINE
  5
39D
330
38A
100
AcDbEntity
  8
LC-006-005-----0
 62
     7
370
    25
100
AcDbLine
 10
537.049566
 20
336.934415
 30
0.0
 11
534.049566
 21
339.934415
 31
0.0
  0
LINE
  5
39E
330
38A
100
AcDbEntity
  8
LC-006-005-----0
 62
     7
370
    25
100
AcDbLine
 10
534.927643
 20
336.227912
 30
0.0
 11
531.909135
 21
339.246419
 31
0.0
  0
LINE
  5
39F
330
38A
100
AcDbEntity
  8
LC-006-005-----0
 62
     7
370
    25
100
AcDbLine
 10
532.123671
 20
336.203456
 30
0.0
 11
529.080708
 21
339.246419
 31
0.0
  0
LINE
  5
3A0
330
38A
100
AcDbEntity
  8
LC-006-005-----0
 62
     7
370
    25
100
AcDbLine
 10
529.3197
 20
336.179
 30
0.0
 11
526.252281
 21
339.246419
 31
0.0
  0
LINE
  5
3A1
330
38A
100
AcDbEntity
  8
LC-006-005-----0
 62
     7
370
    25
100
AcDbLine
 10
526.515729
 20
336.154544
 30
0.0
 11
523.423854
 21
339.246419
 31
0.0
  0
LINE
  5
3A2
330
38A
100
AcDbEntity
  8
LC-006-005-----0
 62
     7
370
    25
100
AcDbLine
 10
523.711758
 20
336.130088
 30
0.0
 11
520.595427
 21
339.246419
 31
0.0
  0
LINE
  5
3A3
330
38A
100
AcDbEntity
  8
LC-006-005-----0
 62
     7
370
    25
100
AcDbLine
 10
520.907787
 20
336.105632
 30
0.0
 11
517.767
 21
339.246419
 31
0.0
  0
LINE
  5
3A4
330
38A
100
AcDbEntity
  8
LC-006-005-----0
 62
     7
370
    25
100
AcDbLine
 10
518.103816
 20
336.081176
 30
0.0
 11
514.938573
 21
339.246419
 31
0.0
  0
LINE
  5
3A5
330
38A
100
AcDbEntity
  8
LC-006-005-----0
 62
     7
370
    25
100
AcDbLine
 10
515.299845
 20
336.05672
 30
0.0
 11
512.110145
 21
339.246419
 31
0.0
  0
LINE
  5
3A6
330
38A
100
AcDbEntity
  8
LC-006-005-----0
 62
     7
370
    25
100
AcDbLine
 10
512.495874
 20
336.032264
 30
0.0
 11
509.281718
 21
339.246419
 31
0.0
  0
LINE
  5
3A7
330
38A
100
AcDbEntity
  8
LC-006-005-----0
 62
     7
370
    25
100
AcDbLine
 10
509.691902
 20
336.007808
 30
0.0
 11
506.453291
 21
339.246419
 31
0.0
  0
LINE
  5
3A8
330
38A
100
AcDbEntity
  8
LC-006-005-----0
 62
     7
370
    25
100
AcDbLine
 10
506.887931
 20
335.983352
 30
0.0
 11
503.624864
 21
339.246419
 31
0.0
  0
LINE
  5
3A9
330
38A
100
AcDbEntity
  8
LC-006-005-----0
 62
     7
370
    25
100
AcDbLine
 10
504.08396
 20
335.958896
 30
0.0
 11
500.796437
 21
339.246419
 31
0.0
  0
LINE
  5
3AA
330
38A
100
AcDbEntity
  8
LC-006-005-----0
 62
     7
370
    25
100
AcDbLine
 10
501.279989
 20
335.93444
 30
0.0
 11
497.96801
 21
339.246419
 31
0.0
  0
LINE
  5
3AB
330
38A
100
AcDbEntity
  8
LC-006-005-----0
 62
     7
370
    25
100
AcDbLine
 10
499.097546
 20
335.288455
 30
0.0
 11
495.139583
 21
339.246419
 31
0.0
  0
LINE
  5
3AC
330
38A
100
AcDbEntity
  8
LC-006-005-----0
 62
     7
370
    25
100
AcDbLine
 10
497.187692
 20
334.369882
 30
0.0
 11
490.505005
 21
341.05257
 31
0.0
  0
LINE
  5
3AD
330
38A
100
AcDbEntity
  8
LC-006-005-----0
 62
     7
370
    25
100
AcDbLine
 10
491.23796
 20
337.491188
 30
0.0
 11
486.13807
 21
342.591077
 31
0.0
  0
LINE
  5
3AE
330
38A
100
AcDbEntity
  8
LC-006-005-----0
 62
     7
370
    25
100
AcDbLine
 10
486.412266
 20
339.488454
 30
0.0
 11
482.539682
 21
343.361038
 31
0.0
  0
LINE
  5
3AF
330
38A
100
AcDbEntity
  8
LC-006-005-----0
 62
     7
370
    25
100
AcDbLine
 10
482.672576
 20
340.399717
 30
0.0
 11
479.377309
 21
343.694984
 31
0.0
  0
LINE
  5
3B0
330
38A
100
AcDbEntity
  8
LC-006-005-----0
 62
     7
370
    25
100
AcDbLine
 10
479.459105
 20
340.784761
 30
0.0
 11
476.497447
 21
343.746419
 31
0.0
  0
LINE
  5
3B1
330
38A
100
AcDbEntity
  8
LC-006-005-----0
 62
     7
370
    25
100
AcDbLine
 10
476.584748
 20
340.830691
 30
0.0
 11
473.66902
 21
343.746419
 31
0.0
  0
LINE
  5
3B2
330
38A
100
AcDbEntity
  8
LC-006-005-----0
 62
     7
370
    25
100
AcDbLine
 10
473.959154
 20
340.627858
 30
0.0
 11
470.840593
 21
343.746419
 31
0.0
  0
LINE
  5
3B3
330
38A
100
AcDbEntity
  8
LC-006-005-----0
 62
     7
370
    25
100
AcDbLine
 10
471.530587
 20
340.227998
 30
0.0
 11
469.049566
 21
342.709018
 31
0.0
  0
ENDBLK
  5
38C
330
38A
100
AcDbEntity
  8
0
100
AcDbBlockEnd
  0
BLOCK
  5
3E3
330
3D9
100
AcDbEntity
  8
0
100
AcDbBlockBegin
  2
*D17
 70
     1
 71
     0
 10
0.0
 20
0.0
 30
0.0
  3
*D17
  1

  0
LINE
  5
3DA
330
3D9
100
AcDbEntity
  8
LC-007-003-----0
 62
     2
370
    -2
100
AcDbLine
 10
338.001998
 20
284.582055
 30
0.0
 11
338.001998
 21
225.495955
 31
0.0
  0
LINE
  5
3DB
330
3D9
100
AcDbEntity
  8
LC-007-003-----0
 62
     2
370
    -2
100
AcDbLine
 10
448.001998
 20
285.326303
 30
0.0
 11
448.001998
 21
225.495955
 31
0.0
  0
LINE
  5
3DC
330
3D9
100
AcDbEntity
  8
LC-007-003-----0
 62
     2
370
    -2
100
AcDbLine
 10
366.001998
 20
229.095955
 30
0.0
 11
420.001998
 21
229.095955
 31
0.0
  0
SOLID
  5
3DD
330
3D9
100
AcDbEntity
  8
LC-007-003-----0
 62
     2
100
AcDbTrace
 10
366.001998
 20
233.762621
 30
0.0
 11
366.001998
 21
224.429288
 31
0.0
 12
338.001998
 22
229.095955
 32
0.0
 13
338.001998
 23
229.095955
 33
0.0
  0
SOLID
  5
3DE
330
3D9
100
AcDbEntity
  8
LC-007-003-----0
 62
     2
100
AcDbTrace
 10
420.001998
 20
224.429288
 30
0.0
 11
420.001998
 21
233.762621
 31
0.0
 12
448.001998
 22
229.095955
 32
0.0
 13
448.001998
 23
229.095955
 33
0.0
  0
MTEXT
  5
3DF
330
3D9
100
AcDbEntity
  8
LC-007-003-----0
 62
     2
100
AcDbMText
 10
393.001998
 20
259.895955
 30
0.0
 40
28.0
 41
0.0
 71
     5
 72
     1
  1
%%c\A1;110
  7
LCTX15-400-0-0pDIN-Schrift
 73
     1
 44
1.0
  0
POINT
  5
3E0
330
3D9
100
AcDbEntity
  8
Defpoints
 62
     0
100
AcDbPoint
 10
338.001998
 20
284.582055
 30
0.0
  0
POINT
  5
3E1
330
3D9
100
AcDbEntity
  8
Defpoints
 62
     0
100
AcDbPoint
 10
448.001998
 20
285.326303
 30
0.0
  0
POINT
  5
3E2
330
3D9
100
AcDbEntity
  8
Defpoints
 62
     0
100
AcDbPoint
 10
448.001998
 20
229.095955
 30
0.0
  0
ENDBLK
  5
3E4
330
3D9
100
AcDbEntity
  8
0
100
AcDbBlockEnd
  0
BLOCK
  5
405
330
3FB
100
AcDbEntity
  8
0
100
AcDbBlockBegin
  2
*D18
 70
     1
 71
     0
 10
0.0
 20
0.0
 30
0.0
  3
*D18
  1

  0
LINE
  5
3FC
330
3FB
100
AcDbEntity
  8
LC-007-003-----0
 62
     2
370
    -2
100
AcDbLine
 10
282.994165
 20
287.07055
 30
0.0
 11
282.994165
 21
186.295955
 31
0.0
  0
LINE
  5
3FD
330
3FB
100
AcDbEntity
  8
LC-007-003-----0
 62
     2
370
    -2
100
AcDbLine
 10
393.001998
 20
245.895955
 30
0.0
 11
393.001998
 21
186.295955
 31
0.0
  0
LINE
  5
3FE
330
3FB
100
AcDbEntity
  8
LC-007-003-----0
 62
     2
370
    -2
100
AcDbLine
 10
310.994165
 20
189.895955
 30
0.0
 11
365.001998
 21
189.895955
 31
0.0
  0
SOLID
  5
3FF
330
3FB
100
AcDbEntity
  8
LC-007-003-----0
 62
     2
100
AcDbTrace
 10
310.994165
 20
194.562621
 30
0.0
 11
310.994165
 21
185.229288
 31
0.0
 12
282.994165
 22
189.895955
 32
0.0
 13
282.994165
 23
189.895955
 33
0.0
  0
SOLID
  5
400
330
3FB
100
AcDbEntity
  8
LC-007-003-----0
 62
     2
100
AcDbTrace
 10
365.001998
 20
185.229288
 30
0.0
 11
365.001998
 21
194.562621
 31
0.0
 12
393.001998
 22
189.895955
 32
0.0
 13
393.001998
 23
189.895955
 33
0.0
  0
MTEXT
  5
401
330
3FB
100
AcDbEntity
  8
LC-007-003-----0
 62
     2
100
AcDbMText
 10
337.998082
 20
220.695955
 30
0.0
 40
28.0
 41
0.0
 71
     5
 72
     1
  1
\A1;110
  7
LCTX15-400-0-0pDIN-Schrift
 73
     1
 44
1.0
  0
POINT
  5
402
330
3FB
100
AcDbEntity
  8
Defpoints
 62
     0
100
AcDbPoint
 10
282.994165
 20
287.07055
 30
0.0
  0
POINT
  5
403
330
3FB
100
AcDbEntity
  8
Defpoints
 62
     0
100
AcDbPoint
 10
393.001998
 20
245.895955
 30
0.0
  0
POINT
  5
404
330
3FB
100
AcDbEntity
  8
Defpoints
 62
     0
100
AcDbPoint
 10
393.001998
 20
189.895955
 30
0.0
  0
ENDBLK
  5
406
330
3FB
100
AcDbEntity
  8
0
100
AcDbBlockEnd
  0
BLOCK
  5
475
330
474
100
AcDbEntity
  8
0
100
AcDbBlockBegin
  2
*X1119
 70
     1
 71
     0
 10
0.0
 20
0.0
 30
0.0
  3
*X1119
  1

  4
*X11
  0
LINE
  5
477
330
474
100
AcDbEntity
  8
LC-006-005-----0
  6
DASHED
 62
     7
370
    25
100
AcDbLine
 10
340.130022
 20
366.269652
 30
0.0
 11
335.344783
 21
371.054892
 31
0.0
  0
LINE
  5
478
330
474
100
AcDbEntity
  8
LC-006-005-----0
  6
DASHED
 62
     7
370
    25
100
AcDbLine
 10
337.005958
 20
367.272396
 30
0.0
 11
333.581227
 21
370.697127
 31
0.0
  0
LINE
  5
479
330
474
100
AcDbEntity
  8
LC-006-005-----0
 62
     7
370
    25
100
AcDbLine
 10
337.001998
 20
363.033715
 30
0.0
 11
332.001998
 21
368.033715
 31
0.0
  0
LINE
  5
47A
330
474
100
AcDbEntity
  8
LC-006-005-----0
 62
     7
370
    25
100
AcDbLine
 10
337.001998
 20
360.912395
 30
0.0
 11
335.892518
 21
362.021875
 31
0.0
  0
LINE
  5
47B
330
474
100
AcDbEntity
  8
LC-006-005-----0
 62
     7
370
    25
100
AcDbLine
 10
335.468757
 20
362.445636
 30
0.0
 11
332.001998
 21
365.912395
 31
0.0
  0
LINE
  5
47C
330
474
100
AcDbEntity
  8
LC-006-005-----0
  6
DASHED
 62
     7
370
    25
100
AcDbLine
 10
337.997535
 20
355.674218
 30
0.0
 11
334.501886
 21
359.169866
 31
0.0
  0
LINE
  5
47D
330
474
100
AcDbEntity
  8
LC-006-005-----0
  6
DASHED
 62
     7
370
    25
100
AcDbLine
 10
337.512047
 20
354.038385
 30
0.0
 11
333.001886
 21
358.548546
 31
0.0
  0
LINE
  5
47E
330
474
100
AcDbEntity
  8
LC-006-005-----0
 62
     7
370
    25
100
AcDbLine
 10
336.287527
 20
351.020264
 30
0.0
 11
332.644707
 21
354.663084
 31
0.0
  0
LINE
  5
47F
330
474
100
AcDbEntity
  8
LC-006-005-----0
 62
     7
370
    25
100
AcDbLine
 10
334.166207
 20
351.020264
 30
0.0
 11
332.001886
 21
353.184585
 31
0.0
  0
ENDBLK
  5
476
330
474
100
AcDbEntity
  8
0
100
AcDbBlockEnd
  0
BLOCK
  5
482
330
481
100
AcDbEntity
  8
0
100
AcDbBlockBegin
  2
*X1220
 70
     1
 71
     0
 10
0.0
 20
0.0
 30
0.0
  3
*X1220
  1

  4
*X12
  0
LINE
  5
484
330
481
100
AcDbEntity
  8
LC-006-005-----0
 62
     7
370
    25
100
AcDbLine
 10
453.694634
 20
369.37766
 30
0.0
 11
452.324766
 21
370.747527
 31
0.0
  0
LINE
  5
485
330
481
100
AcDbEntity
  8
LC-006-005-----0
  6
DASHED
 62
     7
370
    25
100
AcDbLine
 10
454.001998
 20
364.827654
 30
0.0
 11
448.164014
 21
370.665638
 31
0.0
  0
LINE
  5
486
330
481
100
AcDbEntity
  8
LC-006-005-----0
  6
DASHED
 62
     7
370
    25
100
AcDbLine
 10
454.001998
 20
362.706334
 30
0.0
 11
447.387557
 21
369.320775
 31
0.0
  0
LINE
  5
487
330
481
100
AcDbEntity
  8
LC-006-005-----0
 62
     7
370
    25
100
AcDbLine
 10
453.002111
 20
359.463581
 30
0.0
 11
452.877898
 21
359.587794
 31
0.0
  0
LINE
  5
488
330
481
100
AcDbEntity
  8
LC-006-005-----0
 62
     7
370
    25
100
AcDbLine
 10
450.24609
 20
362.219601
 30
0.0
 11
449.001998
 21
363.463693
 31
0.0
  0
LINE
  5
489
330
481
100
AcDbEntity
  8
LC-006-005-----0
 62
     7
370
    25
100
AcDbLine
 10
446.078155
 20
366.387536
 30
0.0
 11
445.834643
 21
366.631049
 31
0.0
  0
LINE
  5
48A
330
481
100
AcDbEntity
  8
LC-006-005-----0
 62
     7
370
    25
100
AcDbLine
 10
453.002111
 20
357.342261
 30
0.0
 11
451.756577
 21
358.587794
 31
0.0
  0
LINE
  5
48B
330
481
100
AcDbEntity
  8
LC-006-005-----0
 62
     7
370
    25
100
AcDbLine
 10
451.502111
 20
358.842261
 30
0.0
 11
449.001998
 21
361.342373
 31
0.0
  0
LINE
  5
48C
330
481
100
AcDbEntity
  8
LC-006-005-----0
  6
DASHED
 62
     7
370
    25
100
AcDbLine
 10
454.002111
 20
352.09962
 30
0.0
 11
448.772048
 21
357.329683
 31
0.0
  0
LINE
  5
48D
330
481
100
AcDbEntity
  8
LC-006-005-----0
  6
DASHED
 62
     7
370
    25
100
AcDbLine
 10
452.960146
 20
351.020264
 30
0.0
 11
448.037238
 21
355.943172
 31
0.0
  0
ENDBLK
  5
483
330
481
100
AcDbEntity
  8
0
100
AcDbBlockEnd
  0
BLOCK
  5
49E
330
493
100
AcDbEntity
  8
0
100
AcDbBlockBegin
  2
*D21
 70
     1
 71
     0
 10
0.0
 20
0.0
 30
0.0
  3
*D21
  1

  0
LINE
  5
494
330
493
100
AcDbEntity
  8
LC-007-003-----0
 62
     2
370
    -2
100
AcDbLine
 10
286.097363
 20
359.219716
 30
0.0
 11
192.121998
 21
359.219716
 31
0.0
  0
LINE
  5
495
330
493
100
AcDbEntity
  8
LC-007-003-----0
 62
     2
370
    -2
100
AcDbLine
 10
280.994165
 20
311.07055
 30
0.0
 11
192.121998
 21
311.07055
 31
0.0
  0
LINE
  5
496
330
493
100
AcDbEntity
  8
LC-007-003-----0
 62
     2
370
    -2
100
AcDbLine
 10
195.721998
 20
283.07055
 30
0.0
 11
195.721998
 21
255.07055
 31
0.0
  0
LINE
  5
497
330
493
100
AcDbEntity
  8
LC-007-003-----0
 62
     2
370
    -2
100
AcDbLine
 10
195.721998
 20
387.219716
 30
0.0
 11
195.721998
 21
405.694961
 31
0.0
  0
SOLID
  5
498
330
493
100
AcDbEntity
  8
LC-007-003-----0
 62
     2
100
AcDbTrace
 10
191.055332
 20
387.219716
 30
0.0
 11
200.388665
 21
387.219716
 31
0.0
 12
195.721998
 22
359.219716
 32
0.0
 13
195.721998
 23
359.219716
 33
0.0
  0
SOLID
  5
499
330
493
100
AcDbEntity
  8
LC-007-003-----0
 62
     2
100
AcDbTrace
 10
200.388665
 20
283.07055
 30
0.0
 11
191.055332
 21
283.07055
 31
0.0
 12
195.721998
 22
311.07055
 32
0.0
 13
195.721998
 23
311.07055
 33
0.0
  0
MTEXT
  5
49A
330
493
100
AcDbEntity
  8
LC-007-003-----0
 62
     2
100
AcDbMText
 10
164.921998
 20
383.13
 30
0.0
 40
28.0
 41
0.0
 71
     5
 72
     1
  1
\A1;48
  7
LCTX15-400-0-0pDIN-Schrift
 11
6.123031769111886E-17
 21
1.0
 31
0.0
 73
     1
 44
1.0
  0
POINT
  5
49B
330
493
100
AcDbEntity
  8
Defpoints
 62
     0
100
AcDbPoint
 10
286.097363
 20
359.219716
 30
0.0
  0
POINT
  5
49C
330
493
100
AcDbEntity
  8
Defpoints
 62
     0
100
AcDbPoint
 10
280.994165
 20
311.07055
 30
0.0
  0
POINT
  5
49D
330
493
100
AcDbEntity
  8
Defpoints
 62
     0
100
AcDbPoint
 10
195.721998
 20
311.07055
 30
0.0
  0
ENDBLK
  5
49F
330
493
100
AcDbEntity
  8
0
100
AcDbBlockEnd
  0
BLOCK
  5
4AB
330
4A1
100
AcDbEntity
  8
0
100
AcDbBlockBegin
  2
*D22
 70
     1
 71
     0
 10
0.0
 20
0.0
 30
0.0
  3
*D22
  1

  0
LINE
  5
4A2
330
4A1
100
AcDbEntity
  8
LC-007-003-----0
 62
     2
370
    -2
100
AcDbLine
 10
286.097363
 20
359.219716
 30
0.0
 11
149.048218
 21
359.219716
 31
0.0
  0
LINE
  5
4A3
330
4A1
100
AcDbEntity
  8
LC-007-003-----0
 62
     2
370
    -2
100
AcDbLine
 10
341.501998
 20
281.082055
 30
0.0
 11
149.048218
 21
281.082055
 31
0.0
  0
LINE
  5
4A4
330
4A1
100
AcDbEntity
  8
LC-007-003-----0
 62
     2
370
    -2
100
AcDbLine
 10
152.648218
 20
331.219716
 30
0.0
 11
152.648218
 21
309.082055
 31
0.0
  0
SOLID
  5
4A5
330
4A1
100
AcDbEntity
  8
LC-007-003-----0
 62
     2
100
AcDbTrace
 10
157.314884
 20
331.219716
 30
0.0
 11
147.981551
 21
331.219716
 31
0.0
 12
152.648218
 22
359.219716
 32
0.0
 13
152.648218
 23
359.219716
 33
0.0
  0
SOLID
  5
4A6
330
4A1
100
AcDbEntity
  8
LC-007-003-----0
 62
     2
100
AcDbTrace
 10
147.981551
 20
309.082055
 30
0.0
 11
157.314884
 21
309.082055
 31
0.0
 12
152.648218
 22
281.082055
 32
0.0
 13
152.648218
 23
281.082055
 33
0.0
  0
MTEXT
  5
4A7
330
4A1
100
AcDbEntity
  8
LC-007-003-----0
 62
     2
100
AcDbMText
 10
121.848218
 20
318.227243
 30
0.0
 40
28.0
 41
0.0
 71
     5
 72
     1
  1
\A1;78
  7
LCTX15-400-0-0pDIN-Schrift
 11
6.123031769111886E-17
 21
1.0
 31
0.0
 73
     1
 44
1.0
  0
POINT
  5
4A8
330
4A1
100
AcDbEntity
  8
Defpoints
 62
     0
100
AcDbPoint
 10
286.097363
 20
359.219716
 30
0.0
  0
POINT
  5
4A9
330
4A1
100
AcDbEntity
  8
Defpoints
 62
     0
100
AcDbPoint
 10
341.501998
 20
281.082055
 30
0.0
  0
POINT
  5
4AA
330
4A1
100
AcDbEntity
  8
Defpoints
 62
     0
100
AcDbPoint
 10
152.648218
 20
281.082055
 30
0.0
  0
ENDBLK
  5
4AC
330
4A1
100
AcDbEntity
  8
0
100
AcDbBlockEnd
  0
ENDSEC
  0
SECTION
  2
ENTITIES
  0
LINE
  5
31
330
1F
100
AcDbEntity
  8
LC-001-002-----0
 62
     7
370
    50
100
AcDbLine
 10
334.001886
 20
344.551785
 30
0.0
 11
334.101886
 21
344.551785
 31
0.0
  0
LINE
  5
32
330
1F
100
AcDbEntity
  8
LC-001-002-----0
 62
     7
370
    50
100
AcDbLine
 10
319.913283
 20
346.552476
 30
0.0
 11
322.912648
 21
344.820791
 31
0.0
  0
LINE
  5
33
330
1F
100
AcDbEntity
  8
LC-001-002-----0
 62
     7
370
    50
100
AcDbLine
 10
447.502111
 20
343.051785
 30
0.0
 11
447.502111
 21
343.551785
 31
0.0
  0
LINE
  5
34
330
1F
100
AcDbEntity
  8
LC-001-002-----0
 62
     7
370
    50
100
AcDbLine
 10
341.001998
 20
343.551785
 30
0.0
 11
445.001998
 21
343.551785
 31
0.0
  0
LINE
  5
35
330
1F
100
AcDbEntity
  8
LC-001-002-----0
 62
     7
370
    50
100
AcDbLine
 10
334.001886
 20
345.551785
 30
0.0
 11
452.002111
 21
345.551785
 31
0.0
  0
LINE
  5
37
330
1F
100
AcDbEntity
  8
LC-001-002-----0
  6
DASHDOT
 62
     7
370
    25
100
AcDbLine
 10
323.001509
 20
362.554892
 30
0.0
 11
323.001509
 21
343.551785
 31
0.0
  0
LINE
  5
38
330
1F
100
AcDbEntity
  8
LC-001-002-----0
  6
DASHDOT
 62
     7
370
    25
100
AcDbLine
 10
463.002488
 20
356.552476
 30
0.0
 11
463.002488
 21
343.551785
 31
0.0
  0
LINE
  5
39
330
1F
100
AcDbEntity
  8
LC-001-002-----0
  6
DASHDOT
 62
     7
370
    25
100
AcDbLine
 10
393.001998
 20
357.052476
 30
0.0
 11
393.001998
 21
370.554892
 31
0.0
  0
LINE
  5
3A
330
1F
100
AcDbEntity
  8
LC-001-002-----0
 62
     7
370
    50
100
AcDbLine
 10
289.028212
 20
362.302027
 30
0.0
 11
289.028212
 21
362.554892
 31
0.0
  0
LINE
  5
3B
330
1F
100
AcDbEntity
  8
LC-001-002-----0
 62
     7
370
    50
100
AcDbLine
 10
316.913318
 20
361.052476
 30
0.0
 11
328.912059
 21
361.052444
 31
0.0
  0
LINE
  5
3D
102
{ACAD_REACTORS
330
4B7
102
}
330
1F
100
AcDbEntity
  8
LC-002-004-----0
 62
     7
370
    50
100
AcDbLine
 10
316.913318
 20
359.552476
 30
0.0
 11
322.913318
 21
359.55246
 31
0.0
  0
LINE
  5
3E
102
{ACAD_REACTORS
330
4B6
102
}
330
1F
100
AcDbEntity
  8
LC-002-004-----0
 62
     7
370
    50
100
AcDbLine
 10
319.913318
 20
359.552468
 30
0.0
 11
319.913283
 21
346.552476
 31
0.0
  0
LINE
  5
3F
102
{ACAD_REACTORS
330
4BA
102
}
330
1F
100
AcDbEntity
  8
LC-002-004-----0
 62
     7
370
    25
100
AcDbLine
 10
319.913312
 20
357.052475
 30
0.0
 11
320.913312
 21
357.052473
 31
0.0
  0
LINE
  5
40
102
{ACAD_REACTORS
330
4B9
102
}
330
1F
100
AcDbEntity
  8
LC-002-004-----0
 62
     7
370
    25
100
AcDbLine
 10
320.913312
 20
357.052473
 30
0.0
 11
320.913282
 21
345.975126
 31
0.0
  0
LINE
  5
41
102
{ACAD_REACTORS
330
4B8
102
}
330
1F
100
AcDbEntity
  8
LC-002-004-----0
 62
     7
370
    50
100
AcDbLine
 10
322.113328
 20
363.020454
 30
0.0
 11
322.113325
 21
362.051551
 31
0.0
  0
LINE
  5
42
102
{ACAD_REACTORS
330
4C1
102
}
330
1F
100
AcDbEntity
  8
LC-002-004-----0
 62
     7
370
    50
100
AcDbLine
 10
319.913283
 20
346.552476
 30
0.0
 11
322.913283
 21
346.552467
 31
0.0
  0
LINE
  5
43
102
{ACAD_REACTORS
330
4C0
102
}
330
1F
100
AcDbEntity
  8
LC-002-004-----0
 62
     7
370
    50
100
AcDbLine
 10
328.912058
 20
359.551547
 30
0.0
 11
322.912058
 21
359.551551
 31
0.0
  0
LINE
  5
44
102
{ACAD_REACTORS
330
4BF
102
}
330
1F
100
AcDbEntity
  8
LC-002-004-----0
 62
     7
370
    50
100
AcDbLine
 10
325.912056
 20
359.551549
 30
0.0
 11
325.912047
 21
346.551557
 31
0.0
  0
LINE
  5
45
102
{ACAD_REACTORS
330
4BE
102
}
330
1F
100
AcDbEntity
  8
LC-002-004-----0
 62
     7
370
    25
100
AcDbLine
 10
325.912054
 20
357.051556
 30
0.0
 11
320.913312
 21
357.05156
 31
0.0
  0
LINE
  5
46
102
{ACAD_REACTORS
330
4BD
102
}
330
1F
100
AcDbEntity
  8
LC-002-004-----0
 62
     7
370
    25
100
AcDbLine
 10
324.912054
 20
357.051557
 30
0.0
 11
324.912047
 21
345.975131
 31
0.0
  0
LINE
  5
47
102
{ACAD_REACTORS
330
4BC
102
}
330
1F
100
AcDbEntity
  8
LC-002-004-----0
 62
     7
370
    50
100
AcDbLine
 10
323.71206
 20
363.02045
 30
0.0
 11
323.712059
 21
362.05155
 31
0.0
  0
LINE
  5
48
102
{ACAD_REACTORS
330
4C6
102
}
330
1F
100
AcDbEntity
  8
LC-002-004-----0
 62
     7
370
    50
100
AcDbLine
 10
325.912047
 20
346.551557
 30
0.0
 11
322.912047
 21
346.551559
 31
0.0
  0
LINE
  5
49
102
{ACAD_REACTORS
330
4C5
102
}
330
1F
100
AcDbEntity
  8
LC-002-004-----0
 62
     7
370
    50
100
AcDbLine
 10
316.913322
 20
361.052476
 30
0.0
 11
316.913318
 21
359.552476
 31
0.0
  0
ARC
  5
4A
330
1F
100
AcDbEntity
  8
LC-001-002-----0
 62
     7
370
    50
100
AcDbCircle
 10
322.912669
 20
353.054349
 30
0.0
 40
9.998109803883391
100
AcDbArc
 50
94.585648
 51
126.873341
  0
LINE
  5
4B
330
1F
100
AcDbEntity
  8
LC-001-002-----0
 62
     7
370
    50
100
AcDbLine
 10
323.712059
 20
362.05155
 30
0.0
 11
322.113325
 21
362.051551
 31
0.0
  0
LINE
  5
4C
102
{ACAD_REACTORS
330
4C4
102
}
330
1F
100
AcDbEntity
  8
LC-002-004-----0
 62
     7
370
    50
100
AcDbLine
 10
328.912059
 20
361.052444
 30
0.0
 11
328.912058
 21
359.551547
 31
0.0
  0
ARC
  5
4D
330
1F
100
AcDbEntity
  8
LC-001-002-----0
 62
     7
370
    50
100
AcDbCircle
 10
322.912669
 20
353.054349
 30
0.0
 40
9.998109803883306
100
AcDbArc
 50
53.12635
 51
85.414066
  0
LINE
  5
4E
330
1F
100
AcDbEntity
  8
LC-001-002-----0
 62
     7
370
    50
100
AcDbLine
 10
325.912022
 20
346.552461
 30
0.0
 11
322.912648
 21
344.820791
 31
0.0
  0
LINE
  5
4F
330
1F
100
AcDbEntity
  8
LC-001-002-----0
  6
DASHDOT
 62
     7
370
    25
100
AcDbLine
 10
393.001998
 20
281.082055
 30
0.0
 11
393.001998
 21
357.052476
 31
0.0
  0
LINE
  5
50
330
1F
100
AcDbEntity
  8
LC-001-002-----0
 62
     7
370
    50
100
AcDbLine
 10
282.994165
 20
333.57055
 30
0.0
 11
287.994165
 21
333.57055
 31
0.0
  0
LINE
  5
51
330
1F
100
AcDbEntity
  8
LC-001-002-----0
 62
     7
370
    50
100
AcDbLine
 10
282.994165
 20
333.57055
 30
0.0
 11
282.994165
 21
335.07055
 31
0.0
  0
LINE
  5
52
330
1F
100
AcDbEntity
  8
LC-001-002-----0
 62
     7
370
    50
100
AcDbLine
 10
286.994165
 20
335.07055
 30
0.0
 11
282.994165
 21
335.07055
 31
0.0
  0
LINE
  5
53
330
1F
100
AcDbEntity
  8
LC-001-002-----0
 62
     7
370
    50
100
AcDbLine
 10
445.001998
 20
289.07055
 30
0.0
 11
445.001998
 21
284.582055
 31
0.0
  0
ARC
  5
55
330
1F
100
AcDbEntity
  8
LC-003-002-RND-0
 62
     7
370
    50
100
AcDbCircle
 10
289.994165
 20
335.07055
 30
0.0
 40
3.0
100
AcDbArc
 50
90.0
 51
180.0
  0
LINE
  5
56
330
1F
100
AcDbEntity
  8
LC-001-002-----0
 62
     7
370
    50
100
AcDbLine
 10
289.994165
 20
338.07055
 30
0.0
 11
296.994165
 21
338.07055
 31
0.0
  0
LINE
  5
57
330
1F
100
AcDbEntity
  8
LC-001-002-----0
 62
     7
370
    50
100
AcDbLine
 10
300.994165
 20
333.07055
 30
0.0
 11
296.994165
 21
338.07055
 31
0.0
  0
ARC
  5
58
330
1F
100
AcDbEntity
  8
LC-001-002-----0
 62
     7
370
    50
100
AcDbCircle
 10
296.494165
 20
334.92055
 30
0.0
 40
1.0
100
AcDbArc
 50
0.0
 51
90.0
  0
ARC
  5
5A
102
{ACAD_REACTORS
330
4B1
102
}
330
1F
100
AcDbEntity
  8
LC-004-205-RND-0
 62
     7
370
    50
100
AcDbCircle
 10
483.301306
 20
339.794443
 30
0.0
 40
0.2999999999999545
100
AcDbArc
 50
0.0
 51
78.586371
  0
LINE
  5
5B
330
1F
100
AcDbEntity
  8
LC-001-002-----0
 62
     7
370
    50
100
AcDbLine
 10
290.344165
 20
335.92055
 30
0.0
 11
296.494165
 21
335.92055
 31
0.0
  0
LINE
  5
5C
330
1F
100
AcDbEntity
  8
LC-001-002-----0
 62
     7
370
    50
100
AcDbLine
 10
287.994165
 20
333.57055
 30
0.0
 11
290.344165
 21
335.92055
 31
0.0
  0
LINE
  5
5D
330
1F
100
AcDbEntity
  8
LC-001-002-----0
 62
     7
370
    50
100
AcDbLine
 10
282.994165
 20
288.57055
 30
0.0
 11
287.994165
 21
288.57055
 31
0.0
  0
LINE
  5
5E
330
1F
100
AcDbEntity
  8
LC-001-002-----0
 62
     7
370
    50
100
AcDbLine
 10
287.994165
 20
288.57055
 30
0.0
 11
290.344165
 21
286.22055
 31
0.0
  0
LINE
  5
5F
330
1F
100
AcDbEntity
  8
LC-001-002-----0
 62
     7
370
    50
100
AcDbLine
 10
290.344165
 20
286.22055
 30
0.0
 11
296.494165
 21
286.22055
 31
0.0
  0
ARC
  5
60
330
1F
100
AcDbEntity
  8
LC-001-002-----0
 62
     7
370
    50
100
AcDbCircle
 10
296.494165
 20
287.22055
 30
0.0
 40
1.0
100
AcDbArc
 50
270.0
 51
0.0
  0
LINE
  5
61
330
1F
100
AcDbEntity
  8
LC-001-002-----0
 62
     7
370
    50
100
AcDbLine
 10
297.494165
 20
290.67055
 30
0.0
 11
297.494165
 21
287.22055
 31
0.0
  0
LINE
  5
62
330
1F
100
AcDbEntity
  8
LC-001-002-----0
 62
     7
370
    50
100
AcDbLine
 10
301.034165
 20
289.12055
 30
0.0
 11
296.994165
 21
284.07055
 31
0.0
  0
LINE
  5
63
330
1F
100
AcDbEntity
  8
LC-001-002-----0
 62
     7
370
    50
100
AcDbLine
 10
289.994165
 20
284.07055
 30
0.0
 11
296.994165
 21
284.07055
 31
0.0
  0
ARC
  5
64
330
1F
100
AcDbEntity
  8
LC-003-002-RND-0
 62
     7
370
    50
100
AcDbCircle
 10
289.994165
 20
287.07055
 30
0.0
 40
3.0
100
AcDbArc
 50
180.0
 51
270.0
  0
LINE
  5
65
330
1F
100
AcDbEntity
  8
LC-001-002-----0
 62
     7
370
    50
100
AcDbLine
 10
286.994165
 20
287.07055
 30
0.0
 11
282.994165
 21
287.07055
 31
0.0
  0
LINE
  5
66
330
1F
100
AcDbEntity
  8
LC-001-002-----0
 62
     7
370
    50
100
AcDbLine
 10
282.994165
 20
288.57055
 30
0.0
 11
282.994165
 21
287.07055
 31
0.0
  0
LINE
  5
67
330
1F
100
AcDbEntity
  8
LC-001-002-----0
 62
     7
370
    50
100
AcDbLine
 10
322.014459
 20
357.051559
 30
0.0
 11
322.01393
 21
357.052476
 31
0.0
  0
LINE
  5
69
330
1F
100
AcDbEntity
  8
LC-005-205-----0
 62
     7
370
    50
100
AcDbLine
 10
447.683315
 20
336.07055
 30
0.0
 11
459.601306
 21
336.07055
 31
0.0
  0
LINE
  5
6A
330
1F
100
AcDbEntity
  8
LC-001-002-----0
 62
     7
370
    50
100
AcDbLine
 10
459.601306
 20
336.07055
 30
0.0
 11
459.601306
 21
338.382055
 31
0.0
  0
LINE
  5
6B
330
1F
100
AcDbEntity
  8
LC-001-002-----0
 62
     7
370
    50
100
AcDbLine
 10
459.601306
 20
338.382055
 30
0.0
 11
462.101306
 21
338.382055
 31
0.0
  0
LINE
  5
6C
330
1F
100
AcDbEntity
  8
LC-001-002-----0
 62
     7
370
    50
100
AcDbLine
 10
462.101306
 20
336.35228
 30
0.0
 11
462.101306
 21
338.382055
 31
0.0
  0
LINE
  5
6D
330
1F
100
AcDbEntity
  8
LC-001-002-----0
 62
     7
370
    50
100
AcDbLine
 10
447.683315
 20
341.051785
 30
0.0
 11
447.683315
 21
336.07055
 31
0.0
  0
LINE
  5
6E
330
1F
100
AcDbEntity
  8
LC-001-002-----0
 62
     7
370
    50
100
AcDbLine
 10
495.101306
 20
289.07055
 30
0.0
 11
495.101306
 21
333.07055
 31
0.0
  0
LINE
  5
6F
330
1F
100
AcDbEntity
  8
LC-001-002-----0
 62
     7
370
    50
100
AcDbLine
 10
448.001998
 20
286.07055
 30
0.0
 11
448.001998
 21
284.582055
 31
0.0
  0
ARC
  5
70
330
1F
100
AcDbEntity
  8
LC-003-002-RND-0
 62
     7
370
    50
100
AcDbCircle
 10
444.501998
 20
284.582055
 30
0.0
 40
3.5
100
AcDbArc
 50
270.0
 51
360.0
  0
ARC
  5
71
102
{ACAD_REACTORS
330
4B1
102
}
330
1F
100
AcDbEntity
  8
LC-003-002-RND-0
 62
     7
370
    50
100
AcDbCircle
 10
444.501998
 20
284.582055
 30
0.0
 40
0.5
100
AcDbArc
 50
270.0
 51
360.0
  0
ARC
  5
72
330
1F
100
AcDbEntity
  8
LC-003-002-RND-0
 62
     7
370
    50
100
AcDbCircle
 10
341.501998
 20
284.582055
 30
0.0
 40
3.5
100
AcDbArc
 50
180.0
 51
270.0
  0
ARC
  5
73
330
1F
100
AcDbEntity
  8
LC-003-002-RND-0
 62
     7
370
    50
100
AcDbCircle
 10
341.501998
 20
284.582055
 30
0.0
 40
0.5
100
AcDbArc
 50
180.0
 51
270.0
  0
LINE
  5
74
330
1F
100
AcDbEntity
  8
LC-001-002-----0
 62
     7
370
    50
100
AcDbLine
 10
338.001998
 20
284.582055
 30
0.0
 11
338.001998
 21
289.12055
 31
0.0
  0
LINE
  5
75
330
1F
100
AcDbEntity
  8
LC-001-002-----0
 62
     7
370
    50
100
AcDbLine
 10
341.001998
 20
284.582055
 30
0.0
 11
341.001998
 21
290.67055
 31
0.0
  0
ARC
  5
76
330
1F
100
AcDbEntity
  8
LC-001-002-----0
 62
     7
370
    50
100
AcDbCircle
 10
314.379542
 20
311.07055
 30
0.0
 40
33.53975507606346
100
AcDbArc
 50
322.538123
 51
37.461877
  0
INSERT
  5
CC
330
1F
100
AcDbEntity
  8
LC-006-005-----0
 62
     7
370
    25
100
AcDbBlockReference
  2
*X11
 10
0.0
 20
0.0
 30
0.0
  0
LINE
  5
CD
330
1F
100
AcDbEntity
  8
LC-001-002-----0
 62
     7
370
    50
100
AcDbLine
 10
319.713237
 20
356.552476
 30
0.0
 11
318.290674
 21
356.552476
 31
0.0
  0
LINE
  5
CE
330
1F
100
AcDbEntity
  8
LC-001-002-----0
 62
     7
370
    50
100
AcDbLine
 10
465.713409
 20
356.552476
 30
0.0
 11
466.002084
 21
357.052476
 31
0.0
  0
LINE
  5
CF
330
1F
100
AcDbEntity
  8
LC-001-002-----0
 62
     7
370
    50
100
AcDbLine
 10
333.001972
 20
345.551785
 30
0.0
 11
334.001886
 21
345.551785
 31
0.0
  0
LINE
  5
D0
330
1F
100
AcDbEntity
  8
LC-001-002-----0
 62
     7
370
    50
100
AcDbLine
 10
453.002025
 20
345.551785
 30
0.0
 11
452.002111
 21
345.551785
 31
0.0
  0
ARC
  5
D1
330
1F
100
AcDbEntity
  8
LC-003-002-RND-0
 62
     7
370
    50
100
AcDbCircle
 10
469.50252
 20
349.552476
 30
0.0
 40
1.0
100
AcDbArc
 50
90.0
 51
180.0
  0
LINE
  5
D2
330
1F
100
AcDbEntity
  8
LC-001-002-----0
 62
     7
370
    50
100
AcDbLine
 10
460.502574
 20
356.552476
 30
0.0
 11
460.502574
 21
343.051785
 31
0.0
  0
LINE
  5
D3
330
1F
100
AcDbEntity
  8
LC-001-002-----0
 62
     7
370
    50
100
AcDbLine
 10
468.50252
 20
349.552476
 30
0.0
 11
468.50252
 21
342.051785
 31
0.0
  0
LINE
  5
D4
330
1F
100
AcDbEntity
  8
LC-001-002-----0
  6
DASHDOT
 62
     7
370
    25
100
AcDbLine
 10
449.885115
 20
311.07055
 30
0.0
 11
440.118882
 21
311.07055
 31
0.0
  0
LINE
  5
D5
102
{ACAD_REACTORS
330
4B1
102
}
330
1F
100
AcDbEntity
  8
LC-001-002-----0
 62
     7
370
    50
100
AcDbLine
 10
341.001998
 20
343.551785
 30
0.0
 11
341.001998
 21
331.47055
 31
0.0
  0
LINE
  5
D6
330
1F
100
AcDbEntity
  8
LC-001-002-----0
  6
DASHDOT
 62
     7
370
    25
100
AcDbLine
 10
463.002488
 20
343.051785
 30
0.0
 11
463.002489
 21
356.552476
 31
0.0
  0
LINE
  5
D7
102
{ACAD_REACTORS
330
4B1
102
}
330
1F
100
AcDbEntity
  8
LC-001-002-----0
 62
     7
370
    50
100
AcDbLine
 10
445.001998
 20
343.551785
 30
0.0
 11
445.001998
 21
333.07055
 31
0.0
  0
LINE
  5
D8
330
1F
100
AcDbEntity
  8
LC-001-002-----0
 62
     7
370
    50
100
AcDbLine
 10
463.713409
 20
356.552476
 30
0.0
 11
464.002084
 21
357.052476
 31
0.0
  0
LINE
  5
D9
330
1F
100
AcDbEntity
  8
LC-001-002-----0
 62
     7
370
    50
100
AcDbLine
 10
464.002084
 20
357.052476
 30
0.0
 11
464.29076
 21
356.552476
 31
0.0
  0
LINE
  5
DA
102
{ACAD_REACTORS
330
4B3
102
}
330
1F
100
AcDbEntity
  8
LC-001-002-----0
 62
     7
370
    50
100
AcDbLine
 10
297.494165
 20
288.245409
 30
0.0
 11
297.494165
 21
287.37055
 31
0.0
  0
LINE
  5
DB
330
1F
100
AcDbEntity
  8
LC-001-002-----0
 62
     7
370
    50
100
AcDbLine
 10
322.007878
 20
357.052476
 30
0.0
 11
322.007349
 21
357.051559
 31
0.0
  0
LINE
  5
DC
330
1F
100
AcDbEntity
  8
LC-001-002-----0
 62
     7
370
    50
100
AcDbLine
 10
324.020426
 20
357.051558
 30
0.0
 11
324.019896
 21
357.052476
 31
0.0
  0
DIMENSION
  5
E0
330
1F
100
AcDbEntity
  8
LC-007-003-----0
 62
     7
370
    25
100
AcDbDimension
  2
*D2
 10
508.001998
 20
403.92
 30
0.0
 11
393.001998
 21
434.72
 31
0.0
 70
   160
  1
%%c<>
 71
     5
 42
230.0
  3
LC-DIM-L-0140-02-02
100
AcDbAlignedDimension
 13
278.001998
 23
361.008818
 33
0.0
 14
508.001998
 24
361.008818
 34
0.0
100
AcDbRotatedDimension
  0
LINE
  5
EE
330
1F
100
AcDbEntity
  8
LC-001-002-----0
 62
     7
370
    50
100
AcDbLine
 10
461.713409
 20
356.552476
 30
0.0
 11
462.002084
 21
357.052476
 31
0.0
  0
LINE
  5
EF
330
1F
100
AcDbEntity
  8
LC-001-002-----0
 62
     7
370
    50
100
AcDbLine
 10
326.290587
 20
356.552476
 30
0.0
 11
326.001912
 21
357.052476
 31
0.0
  0
LINE
  5
F0
330
1F
100
AcDbEntity
  8
LC-001-002-----0
 62
     7
370
    50
100
AcDbLine
 10
324.013844
 20
357.052476
 30
0.0
 11
324.013314
 21
357.051558
 31
0.0
  0
LINE
  5
F1
330
1F
100
AcDbEntity
  8
LC-001-002-----0
 62
     7
370
    50
100
AcDbLine
 10
460.002084
 20
357.052476
 30
0.0
 11
460.010165
 21
357.038481
 31
0.0
  0
LINE
  5
F2
330
1F
100
AcDbEntity
  8
LC-001-002-----0
 62
     7
370
    50
100
AcDbLine
 10
459.713409
 20
356.552476
 30
0.0
 11
460.002084
 21
357.052476
 31
0.0
  0
LINE
  5
F3
330
1F
100
AcDbEntity
  8
LC-001-002-----0
 62
     7
370
    50
100
AcDbLine
 10
466.002084
 20
357.052476
 30
0.0
 11
467.002574
 21
357.052476
 31
0.0
  0
LINE
  5
F4
102
{ACAD_REACTORS
330
4B1
102
}
330
1F
100
AcDbEntity
  8
LC-001-002-----0
 62
     7
370
    50
100
AcDbLine
 10
318.501477
 20
341.051785
 30
0.0
 11
335.001998
 21
341.051785
 31
0.0
  0
LINE
  5
F5
330
1F
100
AcDbEntity
  8
LC-001-002-----0
 62
     7
370
    50
100
AcDbLine
 10
462.002084
 20
357.052476
 30
0.0
 11
462.29076
 21
356.552476
 31
0.0
  0
LINE
  5
F6
330
1F
100
AcDbEntity
  8
LC-001-002-----0
 62
     7
370
    50
100
AcDbLine
 10
460.002084
 20
357.052476
 30
0.0
 11
460.29076
 21
356.552476
 31
0.0
  0
LINE
  5
F7
330
1F
100
AcDbEntity
  8
LC-001-002-----0
 62
     7
370
    50
100
AcDbLine
 10
326.01981
 20
357.052476
 30
0.0
 11
325.912054
 21
356.865838
 31
0.0
  0
LINE
  5
F8
330
1F
100
AcDbEntity
  8
LC-001-002-----0
 62
     7
370
    50
100
AcDbLine
 10
466.002084
 20
357.052476
 30
0.0
 11
466.29076
 21
356.552476
 31
0.0
  0
LINE
  5
F9
330
1F
100
AcDbEntity
  8
LC-001-002-----0
 62
     7
370
    50
100
AcDbLine
 10
460.29076
 20
356.552476
 30
0.0
 11
465.713409
 21
356.552476
 31
0.0
  0
LINE
  5
FA
330
1F
100
AcDbEntity
  8
LC-001-002-----0
 62
     7
370
    50
100
AcDbLine
 10
498.286928
 20
362.754201
 30
0.0
 11
505.935745
 21
363.00772
 31
0.0
  0
LINE
  5
FB
330
1F
100
AcDbEntity
  8
LC-001-002-----0
 62
     7
370
    50
100
AcDbLine
 10
498.627649
 20
359.171062
 30
0.0
 11
508.001998
 21
359.527674
 31
0.0
  0
LINE
  5
FC
102
{ACAD_REACTORS
330
4B1
102
}
330
1F
100
AcDbEntity
  8
LC-001-002-----0
 62
    70
370
    50
100
AcDbLine
 10
301.034165
 20
333.02055
 30
0.0
 11
337.001998
 21
333.02055
 31
0.0
  0
LINE
  5
FD
330
1F
100
AcDbEntity
  8
LC-001-002-----0
 62
     7
370
    50
100
AcDbLine
 10
478.451147
 20
353.001103
 30
0.0
 11
498.627649
 21
359.171062
 31
0.0
  0
LINE
  5
FE
330
1F
100
AcDbEntity
  8
LC-001-002-----0
 62
     7
370
    50
100
AcDbLine
 10
478.001998
 20
356.552476
 30
0.0
 11
498.286928
 21
362.754201
 31
0.0
  0
LINE
  5
FF
330
1F
100
AcDbEntity
  8
LC-001-002-----0
 62
     7
370
    50
100
AcDbLine
 10
320.007964
 20
357.041994
 30
0.0
 11
320.001912
 21
357.052476
 31
0.0
  0
LINE
  5
100
330
1F
100
AcDbEntity
  8
LC-001-002-----0
 62
     7
370
    50
100
AcDbLine
 10
320.001912
 20
357.052476
 30
0.0
 11
319.713237
 21
356.552476
 31
0.0
  0
LINE
  5
101
330
1F
100
AcDbEntity
  8
LC-001-002-----0
 62
     7
370
    50
100
AcDbLine
 10
467.50252
 20
341.051785
 30
0.0
 11
447.683315
 21
341.051785
 31
0.0
  0
INSERT
  5
10E
330
1F
100
AcDbEntity
  8
LC-006-005-----0
 62
     7
370
    25
100
AcDbBlockReference
  2
*X23
 10
0.0
 20
0.0
 30
0.0
  0
LINE
  5
10F
102
{ACAD_REACTORS
330
4B3
102
}
330
1F
100
AcDbEntity
  8
LC-001-002-----0
 62
     7
370
    50
100
AcDbLine
 10
297.494165
 20
331.47055
 30
0.0
 11
297.494165
 21
334.92055
 31
0.0
  0
ARC
  5
110
330
1F
100
AcDbEntity
  8
LC-003-002-RND-0
 62
     7
370
    50
100
AcDbCircle
 10
506.001998
 20
361.008818
 30
0.0
 40
2.0
100
AcDbArc
 50
0.0
 51
91.898364
  0
LINE
  5
111
102
{ACAD_REACTORS
330
4B5
102
}
330
1F
100
AcDbEntity
  8
LC-001-002-----0
 62
     7
370
    50
100
AcDbLine
 10
297.494165
 20
333.895692
 30
0.0
 11
297.494165
 21
334.77055
 31
0.0
  0
LINE
  5
112
102
{ACAD_REACTORS
330
4B1
102
}
330
1F
100
AcDbEntity
  8
LC-001-002-----0
 62
    70
370
    50
100
AcDbLine
 10
341.001998
 20
331.47055
 30
0.0
 11
297.494165
 21
331.47055
 31
0.0
  0
LINE
  5
113
102
{ACAD_REACTORS
330
4B1
102
}
330
1F
100
AcDbEntity
  8
LC-001-002-----0
 62
    70
370
    50
100
AcDbLine
 10
341.001998
 20
290.67055
 30
0.0
 11
297.494165
 21
290.67055
 31
0.0
  0
LINE
  5
114
102
{ACAD_REACTORS
330
4B1
102
}
330
1F
100
AcDbEntity
  8
LC-001-002-----0
 62
    70
370
    50
100
AcDbLine
 10
301.034165
 20
289.12055
 30
0.0
 11
338.001998
 21
289.12055
 31
0.0
  0
CIRCLE
  5
115
330
1F
100
AcDbEntity
  8
LC-001-002-----0
 62
     7
370
    50
100
AcDbCircle
 10
485.851306
 20
337.82055
 30
0.0
 40
1.75
  0
CIRCLE
  5
116
330
1F
100
AcDbEntity
  8
LC-001-002-----0
 62
     7
370
    50
100
AcDbCircle
 10
485.851306
 20
284.509046
 30
0.0
 40
1.75
  0
INSERT
  5
123
330
1F
100
AcDbEntity
  8
LC-006-005-----0
 62
     7
370
    25
100
AcDbBlockReference
  2
*X34
 10
0.0
 20
0.0
 30
0.0
  0
ARC
  5
124
330
1F
100
AcDbEntity
  8
LC-003-002-RND-0
 62
     7
370
    50
100
AcDbCircle
 10
467.50252
 20
342.051785
 30
0.0
 40
1.0
100
AcDbArc
 50
270.0
 51
0.0
  0
ARC
  5
125
102
{ACAD_REACTORS
330
4B1
102
}
330
1F
100
AcDbEntity
  8
LC-003-002-RND-0
 62
     7
370
    50
100
AcDbCircle
 10
318.501477
 20
342.051785
 30
0.0
 40
1.0
100
AcDbArc
 50
180.0
 51
270.0
  0
LINE
  5
126
102
{ACAD_REACTORS
330
4B5
102
}
330
1F
100
AcDbEntity
  8
LC-001-002-----0
 62
     7
370
    50
100
AcDbLine
 10
291.103356
 20
335.56055
 30
0.0
 11
291.594165
 21
335.56055
 31
0.0
  0
LINE
  5
127
102
{ACAD_REACTORS
330
4B5
102
}
330
1F
100
AcDbEntity
  8
LC-001-002-----0
 62
     7
370
    50
100
AcDbLine
 10
294.994165
 20
335.56055
 30
0.0
 11
294.832396
 21
335.840743
 31
0.0
  0
LINE
  5
128
102
{ACAD_REACTORS
330
4B5
102
}
330
1F
100
AcDbEntity
  8
LC-001-002-----0
 62
     7
370
    50
100
AcDbLine
 10
289.745276
 20
333.35583
 30
0.0
 11
290.13743
 21
334.819369
 31
0.0
  0
LINE
  5
129
102
{ACAD_REACTORS
330
4B5
102
}
330
1F
100
AcDbEntity
  8
LC-001-002-----0
 62
     7
370
    50
100
AcDbLine
 10
296.134165
 20
335.04055
 30
0.0
 11
296.134165
 21
335.56055
 31
0.0
  0
LINE
  5
12A
102
{ACAD_REACTORS
330
4B5
102
}
330
1F
100
AcDbEntity
  8
LC-001-002-----0
 62
     7
370
    50
100
AcDbLine
 10
293.594165
 20
335.56055
 30
0.0
 11
294.394165
 21
335.56055
 31
0.0
  0
LINE
  5
12B
102
{ACAD_REACTORS
330
4B5
102
}
330
1F
100
AcDbEntity
  8
LC-001-002-----0
 62
     7
370
    50
100
AcDbLine
 10
292.194165
 20
335.56055
 30
0.0
 11
292.032396
 21
335.840743
 31
0.0
  0
ARC
  5
12C
102
{ACAD_REACTORS
330
4B5
102
}
330
1F
100
AcDbEntity
  8
LC-001-002-----0
 62
     7
370
    50
100
AcDbCircle
 10
291.894165
 20
335.760935
 30
0.0
 40
0.1596152422705388
100
AcDbArc
 50
30.0
 51
150.0
  0
LINE
  5
12D
102
{ACAD_REACTORS
330
4B5
102
}
330
1F
100
AcDbEntity
  8
LC-001-002-----0
 62
     7
370
    50
100
AcDbLine
 10
291.594165
 20
335.56055
 30
0.0
 11
291.755934
 21
335.840743
 31
0.0
  0
LINE
  5
12E
102
{ACAD_REACTORS
330
4B5
102
}
330
1F
100
AcDbEntity
  8
LC-001-002-----0
 62
     7
370
    50
100
AcDbLine
 10
293.594165
 20
335.56055
 30
0.0
 11
293.432396
 21
335.840743
 31
0.0
  0
LINE
  5
12F
102
{ACAD_REACTORS
330
4B5
102
}
330
1F
100
AcDbEntity
  8
LC-001-002-----0
 62
     7
370
    50
100
AcDbLine
 10
296.916184
 20
332.551811
 30
0.0
 11
294.965498
 21
332.859813
 31
0.0
  0
ARC
  5
130
102
{ACAD_REACTORS
330
4B5
102
}
330
1F
100
AcDbEntity
  8
LC-001-002-----0
 62
     7
370
    50
100
AcDbCircle
 10
293.294165
 20
335.760935
 30
0.0
 40
0.1596152422705388
100
AcDbArc
 50
30.0
 51
150.0
  0
ARC
  5
131
102
{ACAD_REACTORS
330
4B5
102
}
330
1F
100
AcDbEntity
  8
LC-003-002-RND-0
 62
     7
370
    50
100
AcDbCircle
 10
294.918709
 20
332.563485
 30
0.0
 40
0.2999999999999971
100
AcDbArc
 50
81.027373
 51
200.840919
  0
LINE
  5
132
102
{ACAD_REACTORS
330
4B5
102
}
330
1F
100
AcDbEntity
  8
LC-001-002-----0
 62
     7
370
    50
100
AcDbLine
 10
292.994165
 20
335.56055
 30
0.0
 11
293.155934
 21
335.840743
 31
0.0
  0
LINE
  5
133
102
{ACAD_REACTORS
330
4B5
102
}
330
1F
100
AcDbEntity
  8
LC-001-002-----0
 62
     7
370
    50
100
AcDbLine
 10
297.494165
 20
333.92055
 30
0.0
 11
297.253327
 21
334.819369
 31
0.0
  0
LINE
  5
134
102
{ACAD_REACTORS
330
4B5
102
}
330
1F
100
AcDbEntity
  8
LC-001-002-----0
 62
     7
370
    50
100
AcDbLine
 10
292.194165
 20
335.56055
 30
0.0
 11
292.994165
 21
335.56055
 31
0.0
  0
LINE
  5
135
102
{ACAD_REACTORS
330
4B5
102
}
330
1F
100
AcDbEntity
  8
LC-001-002-----0
 62
     7
370
    50
100
AcDbLine
 10
294.994165
 20
335.56055
 30
0.0
 11
295.334165
 21
335.56055
 31
0.0
  0
ARC
  5
136
102
{ACAD_REACTORS
330
4B5
102
}
330
1F
100
AcDbEntity
  8
LC-001-002-----0
 62
     7
370
    50
100
AcDbCircle
 10
294.694165
 20
335.760935
 30
0.0
 40
0.1596152422705388
100
AcDbArc
 50
30.0
 51
150.0
  0
LINE
  5
137
102
{ACAD_REACTORS
330
4B5
102
}
330
1F
100
AcDbEntity
  8
LC-001-002-----0
 62
     7
370
    50
100
AcDbLine
 10
296.134165
 20
335.56055
 30
0.0
 11
296.287401
 21
335.56055
 31
0.0
  0
ARC
  5
138
102
{ACAD_REACTORS
330
4B5
102
}
330
1F
100
AcDbEntity
  8
LC-003-002-RND-0
 62
     7
370
    50
100
AcDbCircle
 10
295.072727
 20
329.910286
 30
0.0
 40
0.5000000000000342
100
AcDbArc
 50
243.434949
 51
20.840919
  0
LINE
  5
139
102
{ACAD_REACTORS
330
4B5
102
}
330
1F
100
AcDbEntity
  8
LC-001-002-----0
 62
     7
370
    50
100
AcDbLine
 10
294.394165
 20
335.56055
 30
0.0
 11
294.555934
 21
335.840743
 31
0.0
  0
LINE
  5
13A
102
{ACAD_REACTORS
330
4B5
102
}
330
1F
100
AcDbEntity
  8
LC-001-002-----0
 62
     7
370
    50
100
AcDbLine
 10
295.540013
 20
330.088174
 30
0.0
 11
294.638338
 21
332.456752
 31
0.0
  0
INSERT
  5
14B
102
{ACAD_REACTORS
330
4B5
102
}
330
1F
100
AcDbEntity
  8
LC-006-005-----0
 62
     7
370
    25
100
AcDbBlockReference
  2
*X45
 10
0.0
 20
0.0
 30
0.0
  0
LINE
  5
14C
102
{ACAD_REACTORS
330
4B5
102
}
330
1F
100
AcDbEntity
  8
LC-001-002-----0
 62
     7
370
    50
100
AcDbLine
 10
295.334165
 20
335.04055
 30
0.0
 11
296.134165
 21
335.04055
 31
0.0
  0
ARC
  5
14D
102
{ACAD_REACTORS
330
4B5
102
}
330
1F
100
AcDbEntity
  8
LC-003-002-RND-0
 62
     7
370
    50
100
AcDbCircle
 10
296.287401
 20
334.56055
 30
0.0
 40
0.9999999999999206
100
AcDbArc
 50
15.0
 51
90.0
  0
ARC
  5
14E
102
{ACAD_REACTORS
330
4B5
102
}
330
1F
100
AcDbEntity
  8
LC-003-002-RND-0
 62
     7
370
    50
100
AcDbCircle
 10
291.194165
 20
332.967601
 30
0.0
 40
1.500000000000031
100
AcDbArc
 50
165.0
 51
243.434949
  0
ARC
  5
14F
102
{ACAD_REACTORS
330
4B5
102
}
330
1F
100
AcDbEntity
  8
LC-003-002-RND-0
 62
     7
370
    50
100
AcDbCircle
 10
291.103356
 20
334.56055
 30
0.0
 40
1.0
100
AcDbArc
 50
90.0
 51
165.0
  0
LINE
  5
150
102
{ACAD_REACTORS
330
4B5
102
}
330
1F
100
AcDbEntity
  8
LC-001-002-----0
 62
     7
370
    50
100
AcDbLine
 10
295.334165
 20
335.04055
 30
0.0
 11
295.334165
 21
335.56055
 31
0.0
  0
ARC
  5
151
102
{ACAD_REACTORS
330
4B5
102
}
330
1F
100
AcDbEntity
  8
LC-003-002-RND-0
 62
     7
370
    50
100
AcDbCircle
 10
296.994165
 20
333.045692
 30
0.0
 40
0.4999999999999755
100
AcDbArc
 50
261.027373
 51
0.0
  0
LINE
  5
152
102
{ACAD_REACTORS
330
4B5
102
}
330
1F
100
AcDbEntity
  8
LC-001-002-----0
 62
     7
370
    50
100
AcDbLine
 10
290.523344
 20
331.625961
 30
0.0
 11
294.84912
 21
329.463073
 31
0.0
  0
LINE
  5
153
102
{ACAD_REACTORS
330
4B5
102
}
330
1F
100
AcDbEntity
  8
LC-001-002-----0
 62
     7
370
    50
100
AcDbLine
 10
297.494165
 20
290.67055
 30
0.0
 11
297.494165
 21
287.22055
 31
0.0
  0
LINE
  5
154
102
{ACAD_REACTORS
330
4B5
102
}
330
1F
100
AcDbEntity
  8
LC-001-002-----0
 62
     7
370
    50
100
AcDbLine
 10
297.494165
 20
333.895692
 30
0.0
 11
297.494165
 21
331.47055
 31
0.0
  0
LINE
  5
155
330
1F
100
AcDbEntity
  8
LC-001-002-----0
 62
     7
370
    50
100
AcDbLine
 10
466.29076
 20
356.552476
 30
0.0
 11
467.713409
 21
356.552476
 31
0.0
  0
ELLIPSE
  5
156
330
1F
100
AcDbEntity
  8
LC-001-002-----0
 62
     7
370
    50
100
AcDbEllipse
 10
445.001998
 20
311.07055
 30
0.0
 11
0.0
 21
-21.999999999246
 31
0.0
210
0.0
220
0.0
230
1.0
 40
0.22196
 41
6.283092605574667
 42
9.424777960769484
  0
LINE
  5
157
330
1F
100
AcDbEntity
  8
LC-001-002-----0
 62
     7
370
    50
100
AcDbLine
 10
508.001998
 20
359.527674
 30
0.0
 11
508.001998
 21
361.008818
 31
0.0
  0
LINE
  5
158
330
1F
100
AcDbEntity
  8
LC-001-002-----0
 62
     7
370
    50
100
AcDbLine
 10
278.001998
 20
359.527674
 30
0.0
 11
278.001998
 21
361.008818
 31
0.0
  0
ARC
  5
159
102
{ACAD_REACTORS
330
4C3
102
}
330
1F
100
AcDbEntity
  8
LC-003-002-RND-0
 62
     7
370
    50
100
AcDbCircle
 10
280.001998
 20
361.008818
 30
0.0
 40
1.999999999999994
100
AcDbArc
 50
88.101636
 51
180.0
  0
LINE
  5
15A
102
{ACAD_REACTORS
330
4AE
102
}
330
1F
100
AcDbEntity
  8
LC-006-005-----0
 62
     7
370
    25
100
AcDbLine
 10
340.372584
 20
331.47055
 30
0.0
 11
341.001998
 21
332.099964
 31
0.0
  0
LINE
  5
15B
102
{ACAD_REACTORS
330
4AE
102
}
330
1F
100
AcDbEntity
  8
LC-006-005-----0
 62
     7
370
    25
100
AcDbLine
 10
337.544157
 20
331.47055
 30
0.0
 11
341.001998
 21
334.928392
 31
0.0
  0
LINE
  5
15C
102
{ACAD_REACTORS
330
4AE
102
}
330
1F
100
AcDbEntity
  8
LC-006-005-----0
 62
     7
370
    25
100
AcDbLine
 10
334.71573
 20
331.47055
 30
0.0
 11
336.26573
 21
333.02055
 31
0.0
  0
LINE
  5
15D
102
{ACAD_REACTORS
330
4AE
102
}
330
1F
100
AcDbEntity
  8
LC-006-005-----0
 62
     7
370
    25
100
AcDbLine
 10
338.001998
 20
334.756819
 30
0.0
 11
341.001998
 21
337.756819
 31
0.0
  0
LINE
  5
15E
102
{ACAD_REACTORS
330
4AE
102
}
330
1F
100
AcDbEntity
  8
LC-006-005-----0
 62
     7
370
    25
100
AcDbLine
 10
331.887303
 20
331.47055
 30
0.0
 11
333.437303
 21
333.02055
 31
0.0
  0
LINE
  5
15F
102
{ACAD_REACTORS
330
4AE
102
}
330
1F
100
AcDbEntity
  8
LC-006-005-----0
 62
     7
370
    25
100
AcDbLine
 10
338.001998
 20
337.585246
 30
0.0
 11
341.001998
 21
340.585246
 31
0.0
  0
LINE
  5
160
102
{ACAD_REACTORS
330
4AE
102
}
330
1F
100
AcDbEntity
  8
LC-006-005-----0
 62
     7
370
    25
100
AcDbLine
 10
329.058876
 20
331.47055
 30
0.0
 11
330.608876
 21
333.02055
 31
0.0
  0
LINE
  5
161
102
{ACAD_REACTORS
330
4AE
102
}
330
1F
100
AcDbEntity
  8
LC-006-005-----0
 62
     7
370
    25
100
AcDbLine
 10
337.418244
 20
339.829919
 30
0.0
 11
341.001998
 21
343.413673
 31
0.0
  0
LINE
  5
162
102
{ACAD_REACTORS
330
4AE
102
}
330
1F
100
AcDbEntity
  8
LC-006-005-----0
 62
     7
370
    25
100
AcDbLine
 10
326.230449
 20
331.47055
 30
0.0
 11
327.780449
 21
333.02055
 31
0.0
  0
LINE
  5
163
102
{ACAD_REACTORS
330
4AE
102
}
330
1F
100
AcDbEntity
  8
LC-006-005-----0
 62
     7
370
    25
100
AcDbLine
 10
335.723605
 20
340.963706
 30
0.0
 11
337.811684
 21
343.051785
 31
0.0
  0
LINE
  5
164
102
{ACAD_REACTORS
330
4AE
102
}
330
1F
100
AcDbEntity
  8
LC-006-005-----0
 62
     7
370
    25
100
AcDbLine
 10
323.402022
 20
331.47055
 30
0.0
 11
324.952022
 21
333.02055
 31
0.0
  0
LINE
  5
165
102
{ACAD_REACTORS
330
4AE
102
}
330
1F
100
AcDbEntity
  8
LC-006-005-----0
 62
     7
370
    25
100
AcDbLine
 10
332.983257
 20
341.051785
 30
0.0
 11
335.501886
 21
343.570415
 31
0.0
  0
LINE
  5
166
102
{ACAD_REACTORS
330
4AE
102
}
330
1F
100
AcDbEntity
  8
LC-006-005-----0
 62
     7
370
    25
100
AcDbLine
 10
320.573595
 20
331.47055
 30
0.0
 11
322.123595
 21
333.02055
 31
0.0
  0
LINE
  5
167
102
{ACAD_REACTORS
330
4AE
102
}
330
1F
100
AcDbEntity
  8
LC-006-005-----0
 62
     7
370
    25
100
AcDbLine
 10
330.15483
 20
341.051785
 30
0.0
 11
334.001886
 21
344.898842
 31
0.0
  0
LINE
  5
168
102
{ACAD_REACTORS
330
4AE
102
}
330
1F
100
AcDbEntity
  8
LC-006-005-----0
 62
     7
370
    25
100
AcDbLine
 10
317.745167
 20
331.47055
 30
0.0
 11
319.295167
 21
333.02055
 31
0.0
  0
LINE
  5
169
102
{ACAD_REACTORS
330
4AE
102
}
330
1F
100
AcDbEntity
  8
LC-006-005-----0
 62
     7
370
    25
100
AcDbLine
 10
327.326403
 20
341.051785
 30
0.0
 11
333.001972
 21
346.727355
 31
0.0
  0
LINE
  5
16A
102
{ACAD_REACTORS
330
4AE
102
}
330
1F
100
AcDbEntity
  8
LC-006-005-----0
 62
     7
370
    25
100
AcDbLine
 10
314.91674
 20
331.47055
 30
0.0
 11
316.46674
 21
333.02055
 31
0.0
  0
LINE
  5
16B
102
{ACAD_REACTORS
330
4AE
102
}
330
1F
100
AcDbEntity
  8
LC-006-005-----0
 62
     7
370
    25
100
AcDbLine
 10
324.497975
 20
341.051785
 30
0.0
 11
333.001972
 21
349.555782
 31
0.0
  0
LINE
  5
16C
102
{ACAD_REACTORS
330
4AE
102
}
330
1F
100
AcDbEntity
  8
LC-006-005-----0
 62
     7
370
    25
100
AcDbLine
 10
312.088313
 20
331.47055
 30
0.0
 11
313.638313
 21
333.02055
 31
0.0
  0
LINE
  5
16D
102
{ACAD_REACTORS
330
4AE
102
}
330
1F
100
AcDbEntity
  8
LC-006-005-----0
 62
     7
370
    25
100
AcDbLine
 10
321.669548
 20
341.051785
 30
0.0
 11
323.669548
 21
343.051785
 31
0.0
  0
LINE
  5
16E
102
{ACAD_REACTORS
330
4AE
102
}
330
1F
100
AcDbEntity
  8
LC-006-005-----0
 62
     7
370
    25
100
AcDbLine
 10
325.501509
 20
344.883746
 30
0.0
 11
333.001972
 21
352.38421
 31
0.0
  0
LINE
  5
16F
102
{ACAD_REACTORS
330
4AE
102
}
330
1F
100
AcDbEntity
  8
LC-006-005-----0
 62
     7
370
    25
100
AcDbLine
 10
309.259886
 20
331.47055
 30
0.0
 11
310.809886
 21
333.02055
 31
0.0
  0
LINE
  5
170
102
{ACAD_REACTORS
330
4AE
102
}
330
1F
100
AcDbEntity
  8
LC-006-005-----0
 62
     7
370
    25
100
AcDbLine
 10
318.841121
 20
341.051785
 30
0.0
 11
320.841121
 21
343.051785
 31
0.0
  0
LINE
  5
171
102
{ACAD_REACTORS
330
4AE
102
}
330
1F
100
AcDbEntity
  8
LC-006-005-----0
 62
     7
370
    25
100
AcDbLine
 10
325.912048
 20
348.122713
 30
0.0
 11
333.001972
 21
355.212637
 31
0.0
  0
LINE
  5
172
102
{ACAD_REACTORS
330
4AE
102
}
330
1F
100
AcDbEntity
  8
LC-006-005-----0
 62
     7
370
    25
100
AcDbLine
 10
306.431459
 20
331.47055
 30
0.0
 11
307.981459
 21
333.02055
 31
0.0
  0
LINE
  5
173
102
{ACAD_REACTORS
330
4AE
102
}
330
1F
100
AcDbEntity
  8
LC-006-005-----0
 62
     7
370
    25
100
AcDbLine
 10
317.501477
 20
342.540568
 30
0.0
 11
320.501509
 21
345.5406
 31
0.0
  0
LINE
  5
174
102
{ACAD_REACTORS
330
4AE
102
}
330
1F
100
AcDbEntity
  8
LC-006-005-----0
 62
     7
370
    25
100
AcDbLine
 10
325.91205
 20
350.951142
 30
0.0
 11
333.001972
 21
358.041064
 31
0.0
  0
LINE
  5
175
102
{ACAD_REACTORS
330
4AE
102
}
330
1F
100
AcDbEntity
  8
LC-006-005-----0
 62
     7
370
    25
100
AcDbLine
 10
303.603032
 20
331.47055
 30
0.0
 11
305.153032
 21
333.02055
 31
0.0
  0
LINE
  5
176
102
{ACAD_REACTORS
330
4AE
102
}
330
1F
100
AcDbEntity
  8
LC-006-005-----0
 62
     7
370
    25
100
AcDbLine
 10
317.501477
 20
345.368995
 30
0.0
 11
319.913287
 21
347.780805
 31
0.0
  0
LINE
  5
177
102
{ACAD_REACTORS
330
4AE
102
}
330
1F
100
AcDbEntity
  8
LC-006-005-----0
 62
     7
370
    25
100
AcDbLine
 10
325.912052
 20
353.779571
 30
0.0
 11
328.684957
 21
356.552476
 31
0.0
  0
LINE
  5
178
102
{ACAD_REACTORS
330
4AE
102
}
330
1F
100
AcDbEntity
  8
LC-006-005-----0
 62
     7
370
    25
100
AcDbLine
 10
329.001998
 20
356.869517
 30
0.0
 11
329.184957
 21
357.052476
 31
0.0
  0
LINE
  5
179
102
{ACAD_REACTORS
330
4AE
102
}
330
1F
100
AcDbEntity
  8
LC-006-005-----0
 62
     7
370
    25
100
AcDbLine
 10
300.774605
 20
331.47055
 30
0.0
 11
302.324605
 21
333.02055
 31
0.0
  0
ARC
  5
17A
102
{ACAD_REACTORS
330
4B1
102
}
330
1F
100
AcDbEntity
  8
LC-003-002-RND-0
 62
     7
370
    50
100
AcDbCircle
 10
335.001998
 20
338.051785
 30
0.0
 40
3.0
100
AcDbArc
 50
360.0
 51
90.0
  0
LINE
  5
17B
102
{ACAD_REACTORS
330
4B1
102
}
330
1F
100
AcDbEntity
  8
LC-001-002-----0
 62
     7
370
    50
100
AcDbLine
 10
341.001998
 20
342.22055
 30
0.0
 11
341.001998
 21
340.612825
 31
0.0
  0
LINE
  5
17C
102
{ACAD_REACTORS
330
4B1
102
}
330
1F
100
AcDbEntity
  8
LC-001-002-----0
 62
     7
370
    50
100
AcDbLine
 10
338.001998
 20
338.051785
 30
0.0
 11
338.001998
 21
334.02055
 31
0.0
  0
LINE
  5
17D
102
{ACAD_REACTORS
330
4AE
102
}
330
1F
100
AcDbEntity
  8
LC-006-005-----0
 62
     7
370
    25
100
AcDbLine
 10
317.501477
 20
348.197422
 30
0.0
 11
319.913294
 21
350.60924
 31
0.0
  0
ARC
  5
17E
102
{ACAD_REACTORS
330
4B1
102
}
330
1F
100
AcDbEntity
  8
LC-005-205-----0
 62
     7
370
    50
100
AcDbCircle
 10
488.351306
 20
338.345242
 30
0.0
 40
0.2500000000000429
100
AcDbArc
 50
68.305797
 51
180.0
  0
ARC
  5
17F
102
{ACAD_REACTORS
330
4B1
102
}
330
1F
100
AcDbEntity
  8
LC-003-002-RND-0
 62
    70
370
    50
100
AcDbCircle
 10
337.001998
 20
334.02055
 30
0.0
 40
1.0
100
AcDbArc
 50
270.0
 51
360.0
  0
LINE
  5
180
102
{ACAD_REACTORS
330
4B1
102
}
330
1F
100
AcDbEntity
  8
LC-001-002-----0
 62
     7
370
    50
100
AcDbLine
 10
341.501998
 20
281.082055
 30
0.0
 11
444.501998
 21
281.082055
 31
0.0
  0
LINE
  5
181
102
{ACAD_REACTORS
330
4AE
102
}
330
1F
100
AcDbEntity
  8
LC-006-005-----0
 62
     7
370
    25
100
AcDbLine
 10
297.946178
 20
331.47055
 30
0.0
 11
300.350615
 21
333.874988
 31
0.0
  0
LINE
  5
182
102
{ACAD_REACTORS
330
4AE
102
}
330
1F
100
AcDbEntity
  8
LC-006-005-----0
 62
     7
370
    25
100
AcDbLine
 10
316.931108
 20
350.45548
 30
0.0
 11
319.913302
 21
353.437675
 31
0.0
  0
ARC
  5
183
102
{ACAD_REACTORS
330
4B1
102
}
330
1F
100
AcDbEntity
  8
LC-001-002-----0
 62
     7
370
    50
100
AcDbCircle
 10
477.502442
 20
311.07055
 30
0.0
 40
29.60339290378799
100
AcDbArc
 50
78.506497
 51
121.348957
  0
LINE
  5
184
102
{ACAD_REACTORS
330
4AE
102
}
330
1F
100
AcDbEntity
  8
LC-006-005-----0
 62
     7
370
    25
100
AcDbLine
 10
297.494165
 20
333.846965
 30
0.0
 11
299.093536
 21
335.446336
 31
0.0
  0
LINE
  5
185
102
{ACAD_REACTORS
330
4B3
102
}
330
1F
100
AcDbEntity
  8
LC-001-002-----0
 62
     7
370
    50
100
AcDbLine
 10
296.134165
 20
287.10055
 30
0.0
 11
296.134165
 21
286.58055
 31
0.0
  0
LINE
  5
186
102
{ACAD_REACTORS
330
4AE
102
}
330
1F
100
AcDbEntity
  8
LC-006-005-----0
 62
     7
370
    25
100
AcDbLine
 10
314.199676
 20
350.552476
 30
0.0
 11
316.699676
 21
353.052476
 31
0.0
  0
LINE
  5
187
102
{ACAD_REACTORS
330
4AE
102
}
330
1F
100
AcDbEntity
  8
LC-006-005-----0
 62
     7
370
    25
100
AcDbLine
 10
317.001998
 20
353.354798
 30
0.0
 11
319.91331
 21
356.266109
 31
0.0
  0
LINE
  5
188
102
{ACAD_REACTORS
330
4AE
102
}
330
1F
100
AcDbEntity
  8
LC-006-005-----0
 62
     7
370
    25
100
AcDbLine
 10
296.714702
 20
335.895929
 30
0.0
 11
297.836457
 21
337.017685
 31
0.0
  0
LINE
  5
189
102
{ACAD_REACTORS
330
4B1
102
}
330
1F
100
AcDbEntity
  8
LC-001-002-----0
 62
     7
370
    50
100
AcDbLine
 10
459.601306
 20
283.759046
 30
0.0
 11
462.101306
 21
283.759046
 31
0.0
  0
LINE
  5
18A
102
{ACAD_REACTORS
330
4B1
102
}
330
1F
100
AcDbEntity
  8
LC-001-002-----0
 62
     7
370
    50
100
AcDbLine
 10
459.601306
 20
286.07055
 30
0.0
 11
459.601306
 21
283.759046
 31
0.0
  0
LINE
  5
18B
102
{ACAD_REACTORS
330
4AE
102
}
330
1F
100
AcDbEntity
  8
LC-006-005-----0
 62
     7
370
    25
100
AcDbLine
 10
311.371249
 20
350.552476
 30
0.0
 11
313.871249
 21
353.052476
 31
0.0
  0
LINE
  5
18C
330
1F
100
AcDbEntity
  8
LC-001-002-----0
 62
     7
370
    50
100
AcDbLine
 10
468.002084
 20
357.052476
 30
0.0
 11
467.002574
 21
357.052476
 31
0.0
  0
LINE
  5
18D
330
1F
100
AcDbEntity
  8
LC-001-002-----0
 62
     7
370
    50
100
AcDbLine
 10
458.002084
 20
357.052476
 30
0.0
 11
466.002084
 21
357.052476
 31
0.0
  0
LINE
  5
18E
330
1F
100
AcDbEntity
  8
LC-001-002-----0
 62
     7
370
    50
100
AcDbLine
 10
458.002084
 20
357.052476
 30
0.0
 11
457.002084
 21
357.052476
 31
0.0
  0
LINE
  5
18F
330
1F
100
AcDbEntity
  8
LC-001-002-----0
 62
     7
370
    50
100
AcDbLine
 10
476.002606
 20
356.552476
 30
0.0
 11
469.002084
 21
356.552476
 31
0.0
  0
LINE
  5
190
330
1F
100
AcDbEntity
  8
LC-001-002-----0
 62
     7
370
    50
100
AcDbLine
 10
457.002084
 20
358.052476
 30
0.0
 11
457.002084
 21
356.552476
 31
0.0
  0
LINE
  5
191
330
1F
100
AcDbEntity
  8
LC-001-002-----0
 62
     7
370
    50
100
AcDbLine
 10
469.002084
 20
356.552476
 30
0.0
 11
469.002084
 21
353.052476
 31
0.0
  0
LINE
  5
192
330
1F
100
AcDbEntity
  8
LC-001-002-----0
 62
     7
370
    50
100
AcDbLine
 10
457.002084
 20
356.552476
 30
0.0
 11
457.713409
 21
356.552476
 31
0.0
  0
LINE
  5
193
330
1F
100
AcDbEntity
  8
LC-001-002-----0
 62
     7
370
    50
100
AcDbLine
 10
469.002606
 20
353.052476
 30
0.0
 11
476.002606
 21
353.052476
 31
0.0
  0
LINE
  5
194
330
1F
100
AcDbEntity
  8
LC-001-002-----0
 62
     7
370
    50
100
AcDbLine
 10
476.002606
 20
353.052476
 30
0.0
 11
476.002606
 21
356.552476
 31
0.0
  0
LINE
  5
195
330
1F
100
AcDbEntity
  8
LC-001-002-----0
 62
     7
370
    50
100
AcDbLine
 10
469.50252
 20
350.552476
 30
0.0
 11
476.002606
 21
350.552476
 31
0.0
  0
LINE
  5
196
330
1F
100
AcDbEntity
  8
LC-001-002-----0
 62
     7
370
    50
100
AcDbLine
 10
476.002606
 20
350.552476
 30
0.0
 11
478.451271
 21
353.001141
 31
0.0
  0
LINE
  5
197
330
1F
100
AcDbEntity
  8
LC-001-002-----0
 62
     7
370
    50
100
AcDbLine
 10
457.713409
 20
356.552476
 30
0.0
 11
458.002084
 21
357.052476
 31
0.0
  0
LINE
  5
198
330
1F
100
AcDbEntity
  8
LC-001-002-----0
 62
     7
370
    50
100
AcDbLine
 10
458.002084
 20
357.052476
 30
0.0
 11
458.29076
 21
356.552476
 31
0.0
  0
LINE
  5
199
330
1F
100
AcDbEntity
  8
LC-001-002-----0
 62
     7
370
    50
100
AcDbLine
 10
458.29076
 20
356.552476
 30
0.0
 11
459.713409
 21
356.552476
 31
0.0
  0
LINE
  5
19A
330
1F
100
AcDbEntity
  8
LC-001-002-----0
 62
     7
370
    50
100
AcDbLine
 10
468.002084
 20
357.052476
 30
0.0
 11
468.29076
 21
356.552476
 31
0.0
  0
LINE
  5
19B
330
1F
100
AcDbEntity
  8
LC-001-002-----0
 62
     7
370
    50
100
AcDbLine
 10
467.713409
 20
356.552476
 30
0.0
 11
468.002084
 21
357.052476
 31
0.0
  0
LINE
  5
19C
330
1F
100
AcDbEntity
  8
LC-001-002-----0
 62
     7
370
    50
100
AcDbLine
 10
468.29076
 20
356.552476
 30
0.0
 11
469.002084
 21
356.552476
 31
0.0
  0
LINE
  5
19D
330
1F
100
AcDbEntity
  8
LC-001-002-----0
 62
     7
370
    50
100
AcDbLine
 10
465.502574
 20
343.051785
 30
0.0
 11
460.502574
 21
343.051785
 31
0.0
  0
LINE
  5
19E
102
{ACAD_REACTORS
330
4AE
102
}
330
1F
100
AcDbEntity
  8
LC-006-005-----0
 62
     7
370
    25
100
AcDbLine
 10
317.001998
 20
356.183226
 30
0.0
 11
317.371249
 21
356.552476
 31
0.0
  0
LINE
  5
19F
330
1F
100
AcDbEntity
  8
LC-001-002-----0
 62
     7
370
    50
100
AcDbLine
 10
465.502574
 20
356.552476
 30
0.0
 11
465.502574
 21
343.051785
 31
0.0
  0
LINE
  5
1A0
330
1F
100
AcDbEntity
  8
LC-001-002-----0
 62
     7
370
    50
100
AcDbLine
 10
457.002084
 20
358.052476
 30
0.0
 11
453.002197
 21
358.052476
 31
0.0
  0
LINE
  5
1A1
330
1F
100
AcDbEntity
  8
LC-001-002-----0
 62
     7
370
    50
100
AcDbLine
 10
476.002606
 20
356.552476
 30
0.0
 11
478.002084
 21
356.552476
 31
0.0
  0
LINE
  5
1A2
102
{ACAD_REACTORS
330
4AE
102
}
330
1F
100
AcDbEntity
  8
LC-006-005-----0
 62
     7
370
    25
100
AcDbLine
 10
293.910896
 20
335.92055
 30
0.0
 11
296.060896
 21
338.07055
 31
0.0
  0
LINE
  5
1A3
102
{ACAD_REACTORS
330
4AE
102
}
330
1F
100
AcDbEntity
  8
LC-006-005-----0
 62
     7
370
    25
100
AcDbLine
 10
309.272149
 20
351.281803
 30
0.0
 11
311.042822
 21
353.052476
 31
0.0
  0
LINE
  5
1A4
102
{ACAD_REACTORS
330
4AE
102
}
330
1F
100
AcDbEntity
  8
LC-006-005-----0
 62
     7
370
    25
100
AcDbLine
 10
291.082469
 20
335.92055
 30
0.0
 11
293.232469
 21
338.07055
 31
0.0
  0
LINE
  5
1A5
102
{ACAD_REACTORS
330
4AE
102
}
330
1F
100
AcDbEntity
  8
LC-006-005-----0
 62
     7
370
    25
100
AcDbLine
 10
307.857936
 20
352.696017
 30
0.0
 11
310.001477
 21
354.839558
 31
0.0
  0
LINE
  5
1A6
102
{ACAD_REACTORS
330
4AE
102
}
330
1F
100
AcDbEntity
  8
LC-006-005-----0
 62
     7
370
    25
100
AcDbLine
 10
285.904042
 20
333.57055
 30
0.0
 11
290.404042
 21
338.07055
 31
0.0
  0
LINE
  5
1A7
102
{ACAD_REACTORS
330
4AE
102
}
330
1F
100
AcDbEntity
  8
LC-006-005-----0
 62
     7
370
    25
100
AcDbLine
 10
305.854078
 20
353.520586
 30
0.0
 11
308.885967
 21
356.552476
 31
0.0
  0
LINE
  5
1A8
102
{ACAD_REACTORS
330
4AE
102
}
330
1F
100
AcDbEntity
  8
LC-006-005-----0
 62
     7
370
    25
100
AcDbLine
 10
283.075615
 20
333.57055
 30
0.0
 11
284.575615
 21
335.07055
 31
0.0
  0
LINE
  5
1A9
102
{ACAD_REACTORS
330
4AE
102
}
330
1F
100
AcDbEntity
  8
LC-006-005-----0
 62
     7
370
    25
100
AcDbLine
 10
303.688027
 20
354.182963
 30
0.0
 11
306.512826
 21
357.007762
 31
0.0
  0
LINE
  5
1AA
330
1F
100
AcDbEntity
  8
LC-001-002-----0
 62
     7
370
    50
100
AcDbLine
 10
310.001477
 20
356.552476
 30
0.0
 11
317.077615
 21
356.552476
 31
0.0
  0
LINE
  5
1AB
330
1F
100
AcDbEntity
  8
LC-001-002-----0
 62
     7
370
    50
100
AcDbLine
 10
329.001998
 20
358.052476
 30
0.0
 11
329.001998
 21
356.552476
 31
0.0
  0
LINE
  5
1AC
330
1F
100
AcDbEntity
  8
LC-001-002-----0
 62
     7
370
    50
100
AcDbLine
 10
317.001998
 20
356.552476
 30
0.0
 11
317.001998
 21
353.052476
 31
0.0
  0
LINE
  5
1AD
330
1F
100
AcDbEntity
  8
LC-001-002-----0
 62
     7
370
    50
100
AcDbLine
 10
329.001998
 20
356.552476
 30
0.0
 11
328.290674
 21
356.552476
 31
0.0
  0
LINE
  5
1AE
330
1F
100
AcDbEntity
  8
LC-001-002-----0
 62
     7
370
    50
100
AcDbLine
 10
317.001477
 20
353.052476
 30
0.0
 11
310.001477
 21
353.052476
 31
0.0
  0
LINE
  5
1AF
330
1F
100
AcDbEntity
  8
LC-001-002-----0
 62
     7
370
    50
100
AcDbLine
 10
310.001477
 20
353.052476
 30
0.0
 11
310.001477
 21
356.552476
 31
0.0
  0
LINE
  5
1B0
330
1F
100
AcDbEntity
  8
LC-001-002-----0
 62
     7
370
    50
100
AcDbLine
 10
316.501477
 20
350.552476
 30
0.0
 11
310.001477
 21
350.552476
 31
0.0
  0
LINE
  5
1B1
330
1F
100
AcDbEntity
  8
LC-001-002-----0
 62
     7
370
    50
100
AcDbLine
 10
310.001477
 20
350.552476
 30
0.0
 11
307.55285
 21
353.001103
 31
0.0
  0
LINE
  5
1B2
330
1F
100
AcDbEntity
  8
LC-001-002-----0
 62
     7
370
    50
100
AcDbLine
 10
328.290674
 20
356.552476
 30
0.0
 11
328.001998
 21
357.052476
 31
0.0
  0
LINE
  5
1B3
330
1F
100
AcDbEntity
  8
LC-001-002-----0
 62
     7
370
    50
100
AcDbLine
 10
328.001998
 20
357.052476
 30
0.0
 11
327.713323
 21
356.552476
 31
0.0
  0
LINE
  5
1B4
330
1F
100
AcDbEntity
  8
LC-001-002-----0
 62
     7
370
    50
100
AcDbLine
 10
327.713323
 20
356.552476
 30
0.0
 11
327.001509
 21
356.552476
 31
0.0
  0
LINE
  5
1B5
330
1F
100
AcDbEntity
  8
LC-001-002-----0
 62
     7
370
    50
100
AcDbLine
 10
318.001998
 20
357.052476
 30
0.0
 11
317.713323
 21
356.552476
 31
0.0
  0
LINE
  5
1B6
330
1F
100
AcDbEntity
  8
LC-001-002-----0
 62
     7
370
    50
100
AcDbLine
 10
318.290674
 20
356.552476
 30
0.0
 11
318.001998
 21
357.052476
 31
0.0
  0
LINE
  5
1B7
330
1F
100
AcDbEntity
  8
LC-001-002-----0
 62
     7
370
    50
100
AcDbLine
 10
326.997973
 20
356.552476
 30
0.0
 11
326.290587
 21
356.552476
 31
0.0
  0
LINE
  5
1B8
330
1F
100
AcDbEntity
  8
LC-001-002-----0
 62
     7
370
    50
100
AcDbLine
 10
317.713323
 20
356.552476
 30
0.0
 11
317.001998
 21
356.552476
 31
0.0
  0
LINE
  5
1B9
330
1F
100
AcDbEntity
  8
LC-001-002-----0
 62
     7
370
    50
100
AcDbLine
 10
310.001477
 20
356.552476
 30
0.0
 11
308.001998
 21
356.552476
 31
0.0
  0
LINE
  5
1BA
330
1F
100
AcDbEntity
  8
LC-001-002-----0
 62
     7
370
    50
100
AcDbLine
 10
325.501509
 20
346.315454
 30
0.0
 11
325.501509
 21
343.051785
 31
0.0
  0
LINE
  5
1BB
330
1F
100
AcDbEntity
  8
LC-001-002-----0
 62
     7
370
    50
100
AcDbLine
 10
320.501509
 20
346.212863
 30
0.0
 11
320.501509
 21
343.051785
 31
0.0
  0
LINE
  5
1BC
330
1F
100
AcDbEntity
  8
LC-001-002-----0
 62
     7
370
    50
100
AcDbLine
 10
320.501509
 20
343.051785
 30
0.0
 11
325.501509
 21
343.051785
 31
0.0
  0
LINE
  5
1BD
102
{ACAD_REACTORS
330
4AE
102
}
330
1F
100
AcDbEntity
  8
LC-006-005-----0
 62
     7
370
    25
100
AcDbLine
 10
301.521977
 20
354.845339
 30
0.0
 11
304.346662
 21
357.670024
 31
0.0
  0
LINE
  5
1BE
102
{ACAD_REACTORS
330
4AE
102
}
330
1F
100
AcDbEntity
  8
LC-006-005-----0
 62
     7
370
    25
100
AcDbLine
 10
299.355926
 20
355.507716
 30
0.0
 11
302.180498
 21
358.332287
 31
0.0
  0
LINE
  5
1BF
102
{ACAD_REACTORS
330
4B1
102
}
330
1F
100
AcDbEntity
  8
LC-001-002-----0
 62
     7
370
    50
100
AcDbLine
 10
462.101306
 20
285.981289
 30
0.0
 11
462.101306
 21
283.759046
 31
0.0
  0
ARC
  5
1C0
102
{ACAD_REACTORS
330
4B1
102
}
330
1F
100
AcDbEntity
  8
LC-005-205-----0
 62
     7
370
    50
100
AcDbCircle
 10
487.601306
 20
336.57055
 30
0.0
 40
0.5000000000002274
100
AcDbArc
 50
270.0
 51
0.0
  0
ARC
  5
1C1
102
{ACAD_REACTORS
330
4B1
102
}
330
1F
100
AcDbEntity
  8
LC-001-002-----0
 62
     7
370
    50
100
AcDbCircle
 10
477.502442
 20
311.07055
 30
0.0
 40
29.6025923914001
100
AcDbArc
 50
53.522709
 51
68.309138
  0
LINE
  5
1C2
102
{ACAD_REACTORS
330
4B1
102
}
330
1F
100
AcDbEntity
  8
LC-005-205-----0
 62
     7
370
    50
100
AcDbLine
 10
495.101306
 20
334.873774
 30
0.0
 11
495.101306
 21
333.07055
 31
0.0
  0
LINE
  5
1C3
102
{ACAD_REACTORS
330
4AE
102
}
330
1F
100
AcDbEntity
  8
LC-006-005-----0
 62
     7
370
    25
100
AcDbLine
 10
297.189875
 20
356.170092
 30
0.0
 11
300.014333
 21
358.99455
 31
0.0
  0
LINE
  5
1C4
102
{ACAD_REACTORS
330
4B1
102
}
330
1F
100
AcDbEntity
  8
LC-001-002-----0
 62
     7
370
    50
100
AcDbLine
 10
444.501998
 20
284.082055
 30
0.0
 11
341.501998
 21
284.082055
 31
0.0
  0
LINE
  5
1C5
102
{ACAD_REACTORS
330
4B1
102
}
330
1F
100
AcDbEntity
  8
LC-005-205-----0
 62
     7
370
    50
100
AcDbLine
 10
495.101306
 20
289.07055
 30
0.0
 11
495.101306
 21
287.459046
 31
0.0
  0
LINE
  5
1C6
102
{ACAD_REACTORS
330
4B1
102
}
330
1F
100
AcDbEntity
  8
LC-005-205-----0
 62
     7
370
    50
100
AcDbLine
 10
484.101306
 20
286.259046
 30
0.0
 11
487.601306
 21
286.259046
 31
0.0
  0
ARC
  5
1C7
102
{ACAD_REACTORS
330
4B1
102
}
330
1F
100
AcDbEntity
  8
LC-005-205-----0
 62
     7
370
    50
100
AcDbCircle
 10
487.601306
 20
285.759046
 30
0.0
 40
0.5
100
AcDbArc
 50
0.0
 51
90.0
  0
LINE
  5
1C8
102
{ACAD_REACTORS
330
4B1
102
}
330
1F
100
AcDbEntity
  8
LC-005-205-----0
 62
     7
370
    50
100
AcDbLine
 10
488.101306
 20
285.759046
 30
0.0
 11
488.101306
 21
284.061532
 31
0.0
  0
LINE
  5
1C9
102
{ACAD_REACTORS
330
4AE
102
}
330
1F
100
AcDbEntity
  8
LC-006-005-----0
 62
     7
370
    25
100
AcDbLine
 10
295.023825
 20
356.832469
 30
0.0
 11
297.848169
 21
359.656813
 31
0.0
  0
ARC
  5
1CA
102
{ACAD_REACTORS
330
4B1
102
}
330
1F
100
AcDbEntity
  8
LC-005-205-----0
 62
     7
370
    50
100
AcDbCircle
 10
488.401306
 20
284.061532
 30
0.0
 40
0.2999999999997272
100
AcDbArc
 50
180.0
 51
291.837464
  0
ARC
  5
1CB
102
{ACAD_REACTORS
330
4B1
102
}
330
1F
100
AcDbEntity
  8
LC-005-205-----0
 62
     7
370
    50
100
AcDbCircle
 10
477.502442
 20
311.259046
 30
0.0
 40
29.60000000000002
100
AcDbArc
 50
291.837464
 51
306.481001
  0
LINE
  5
1CC
102
{ACAD_REACTORS
330
4B1
102
}
330
1F
100
AcDbEntity
  8
LC-001-002-----0
 62
     7
370
    50
100
AcDbLine
 10
445.001998
 20
289.07055
 30
0.0
 11
495.101306
 21
289.07055
 31
0.0
  0
ARC
  5
1CD
102
{ACAD_REACTORS
330
4B1
102
}
330
1F
100
AcDbEntity
  8
LC-005-205-----0
 62
     7
370
    50
100
AcDbCircle
 10
483.351306
 20
339.835329
 30
0.0
 40
0.25
100
AcDbArc
 50
0.0
 51
78.504265
  0
LINE
  5
1CE
102
{ACAD_REACTORS
330
4B1
102
}
330
1F
100
AcDbEntity
  8
LC-005-205-----0
 62
     7
370
    50
100
AcDbLine
 10
483.601306
 20
339.835329
 30
0.0
 11
483.601306
 21
336.57055
 31
0.0
  0
LINE
  5
1CF
102
{ACAD_REACTORS
330
4B1
102
}
330
1F
100
AcDbEntity
  8
LC-005-205-----0
 62
     7
370
    50
100
AcDbLine
 10
488.101306
 20
338.345242
 30
0.0
 11
488.101306
 21
336.57055
 31
0.0
  0
LINE
  5
1D0
102
{ACAD_REACTORS
330
4B1
102
}
330
1F
100
AcDbEntity
  8
LC-005-205-----0
 62
     7
370
    50
100
AcDbLine
 10
484.101306
 20
336.07055
 30
0.0
 11
487.601306
 21
336.07055
 31
0.0
  0
ARC
  5
1D1
102
{ACAD_REACTORS
330
4B1
102
}
330
1F
100
AcDbEntity
  8
LC-005-205-----0
 62
     7
370
    50
100
AcDbCircle
 10
484.101306
 20
336.57055
 30
0.0
 40
0.5
100
AcDbArc
 50
180.0
 51
270.0
  0
LINE
  5
1D2
102
{ACAD_REACTORS
330
4B1
102
}
330
1F
100
AcDbEntity
  8
LC-005-205-----0
 62
     7
370
    50
100
AcDbLine
 10
483.601306
 20
285.759046
 30
0.0
 11
483.601306
 21
282.49773
 31
0.0
  0
ARC
  5
1D3
102
{ACAD_REACTORS
330
4B1
102
}
330
1F
100
AcDbEntity
  8
LC-005-205-----0
 62
     7
370
    50
100
AcDbCircle
 10
484.101306
 20
285.759046
 30
0.0
 40
0.5
100
AcDbArc
 50
90.0
 51
180.0
  0
ARC
  5
1D4
102
{ACAD_REACTORS
330
4B1
102
}
330
1F
100
AcDbEntity
  8
LC-005-205-----0
 62
     7
370
    50
100
AcDbCircle
 10
477.502442
 20
311.259046
 30
0.0
 40
29.60000000000006
100
AcDbArc
 50
238.647042
 51
281.49485
  0
ARC
  5
1D5
102
{ACAD_REACTORS
330
4B1
102
}
330
1F
100
AcDbEntity
  8
LC-005-205-----0
 62
     7
370
    50
100
AcDbCircle
 10
488.351306
 20
338.345242
 30
0.0
 40
0.2500000000000429
100
AcDbArc
 50
68.305797
 51
180.0
  0
ARC
  5
1D6
102
{ACAD_REACTORS
330
4B1
102
}
330
1F
100
AcDbEntity
  8
LC-005-205-----0
 62
     7
370
    50
100
AcDbCircle
 10
483.351306
 20
282.49773
 30
0.0
 40
0.2500000000000769
100
AcDbArc
 50
281.49485
 51
0.0
  0
LINE
  5
1D7
102
{ACAD_REACTORS
330
4B1
102
}
330
1F
100
AcDbEntity
  8
LC-005-205-----0
 62
     7
370
    50
100
AcDbLine
 10
448.001998
 20
286.07055
 30
0.0
 11
459.601306
 21
286.07055
 31
0.0
  0
LINE
  5
1D8
102
{ACAD_REACTORS
330
4B1
102
}
330
1F
100
AcDbEntity
  8
LC-001-002-----0
 62
     7
370
    50
100
AcDbLine
 10
495.101306
 20
333.07055
 30
0.0
 11
445.001998
 21
333.07055
 31
0.0
  0
LINE
  5
1D9
102
{ACAD_REACTORS
330
4AE
102
}
330
1F
100
AcDbEntity
  8
LC-006-005-----0
 62
     7
370
    25
100
AcDbLine
 10
292.857774
 20
357.494846
 30
0.0
 11
295.682005
 21
360.319076
 31
0.0
  0
LINE
  5
1DA
102
{ACAD_REACTORS
330
4AE
102
}
330
1F
100
AcDbEntity
  8
LC-006-005-----0
 62
     7
370
    25
100
AcDbLine
 10
290.691724
 20
358.157222
 30
0.0
 11
293.51584
 21
360.981339
 31
0.0
  0
LINE
  5
1DB
102
{ACAD_REACTORS
330
4AE
102
}
330
1F
100
AcDbEntity
  8
LC-006-005-----0
 62
     7
370
    25
100
AcDbLine
 10
288.525673
 20
358.819599
 30
0.0
 11
291.349676
 21
361.643602
 31
0.0
  0
LINE
  5
1DC
102
{ACAD_REACTORS
330
4AE
102
}
330
1F
100
AcDbEntity
  8
LC-006-005-----0
 62
     7
370
    25
100
AcDbLine
 10
286.097363
 20
359.219716
 30
0.0
 11
289.183512
 21
362.305865
 31
0.0
  0
INSERT
  5
1F4
102
{ACAD_REACTORS
330
4B3
102
}
330
1F
100
AcDbEntity
  8
LC-006-005-----0
 62
     7
370
    25
100
AcDbBlockReference
  2
*X56
 10
0.0
 20
0.0
 30
0.0
  0
LINE
  5
1F5
102
{ACAD_REACTORS
330
4AE
102
}
330
1F
100
AcDbEntity
  8
LC-006-005-----0
 62
     7
370
    25
100
AcDbLine
 10
283.37259
 20
359.32337
 30
0.0
 11
286.832733
 21
362.783512
 31
0.0
  0
LINE
  5
1F6
102
{ACAD_REACTORS
330
4AE
102
}
330
1F
100
AcDbEntity
  8
LC-006-005-----0
 62
     7
370
    25
100
AcDbLine
 10
280.647817
 20
359.427024
 30
0.0
 11
284.095046
 21
362.874253
 31
0.0
  0
LINE
  5
1F7
102
{ACAD_REACTORS
330
4AE
102
}
330
1F
100
AcDbEntity
  8
LC-006-005-----0
 62
     7
370
    25
100
AcDbLine
 10
277.923044
 20
359.530678
 30
0.0
 11
281.357359
 21
362.964993
 31
0.0
  0
LINE
  5
1F8
102
{ACAD_REACTORS
330
4B3
102
}
330
1F
100
AcDbEntity
  8
LC-001-002-----0
 62
     7
370
    50
100
AcDbLine
 10
295.334165
 20
287.10055
 30
0.0
 11
295.334165
 21
286.58055
 31
0.0
  0
ARC
  5
1F9
102
{ACAD_REACTORS
330
4B3
102
}
330
1F
100
AcDbEntity
  8
LC-003-002-RND-0
 62
     7
370
    50
100
AcDbCircle
 10
296.994165
 20
289.095409
 30
0.0
 40
0.5
100
AcDbArc
 50
0.0
 51
98.972627
  0
LINE
  5
1FA
102
{ACAD_REACTORS
330
4B4
102
}
330
1F
100
AcDbEntity
  8
LC-006-005-----0
 62
     7
370
    25
100
AcDbLine
 10
494.707649
 20
333.07055
 30
0.0
 11
495.101306
 21
333.464207
 31
0.0
  0
LINE
  5
1FB
102
{ACAD_REACTORS
330
4B4
102
}
330
1F
100
AcDbEntity
  8
LC-006-005-----0
 62
     7
370
    25
100
AcDbLine
 10
491.879222
 20
333.07055
 30
0.0
 11
494.273066
 21
335.464395
 31
0.0
  0
ARC
  5
1FC
102
{ACAD_REACTORS
330
4B3
102
}
330
1F
100
AcDbEntity
  8
LC-003-002-RND-0
 62
     7
370
    50
100
AcDbCircle
 10
294.918709
 20
289.577616
 30
0.0
 40
0.3000000000000571
100
AcDbArc
 50
159.159081
 51
278.972627
  0
LINE
  5
1FD
102
{ACAD_REACTORS
330
4B3
102
}
330
1F
100
AcDbEntity
  8
LC-001-002-----0
 62
     7
370
    50
100
AcDbLine
 10
297.494165
 20
288.22055
 30
0.0
 11
297.253327
 21
287.321731
 31
0.0
  0
LINE
  5
1FE
102
{ACAD_REACTORS
330
4B3
102
}
330
1F
100
AcDbEntity
  8
LC-001-002-----0
 62
     7
370
    50
100
AcDbLine
 10
289.745276
 20
288.785271
 30
0.0
 11
290.13743
 21
287.321731
 31
0.0
  0
LINE
  5
1FF
102
{ACAD_REACTORS
330
4B3
102
}
330
1F
100
AcDbEntity
  8
LC-001-002-----0
 62
     7
370
    50
100
AcDbLine
 10
291.103356
 20
286.58055
 30
0.0
 11
291.594165
 21
286.58055
 31
0.0
  0
LINE
  5
200
102
{ACAD_REACTORS
330
4B3
102
}
330
1F
100
AcDbEntity
  8
LC-001-002-----0
 62
     7
370
    50
100
AcDbLine
 10
290.523344
 20
290.51514
 30
0.0
 11
294.84912
 21
292.678028
 31
0.0
  0
ARC
  5
201
102
{ACAD_REACTORS
330
4B3
102
}
330
1F
100
AcDbEntity
  8
LC-003-002-RND-0
 62
     7
370
    50
100
AcDbCircle
 10
291.103356
 20
287.58055
 30
0.0
 40
1.00000000000003
100
AcDbArc
 50
195.0
 51
270.0
  0
ARC
  5
202
102
{ACAD_REACTORS
330
4B3
102
}
330
1F
100
AcDbEntity
  8
LC-003-002-RND-0
 62
     7
370
    50
100
AcDbCircle
 10
291.194165
 20
289.173499
 30
0.0
 40
1.500000000000001
100
AcDbArc
 50
116.565051
 51
195.0
  0
ARC
  5
203
102
{ACAD_REACTORS
330
4B3
102
}
330
1F
100
AcDbEntity
  8
LC-003-002-RND-0
 62
     7
370
    50
100
AcDbCircle
 10
296.287401
 20
287.58055
 30
0.0
 40
1.0
100
AcDbArc
 50
270.0
 51
345.0
  0
LINE
  5
204
102
{ACAD_REACTORS
330
4B3
102
}
330
1F
100
AcDbEntity
  8
LC-001-002-----0
 62
     7
370
    50
100
AcDbLine
 10
295.334165
 20
287.10055
 30
0.0
 11
296.134165
 21
287.10055
 31
0.0
  0
LINE
  5
205
102
{ACAD_REACTORS
330
4B3
102
}
330
1F
100
AcDbEntity
  8
LC-001-002-----0
 62
     7
370
    50
100
AcDbLine
 10
295.540013
 20
292.052927
 30
0.0
 11
294.638338
 21
289.684348
 31
0.0
  0
ARC
  5
206
102
{ACAD_REACTORS
330
4B3
102
}
330
1F
100
AcDbEntity
  8
LC-003-002-RND-0
 62
     7
370
    50
100
AcDbCircle
 10
295.072727
 20
292.230814
 30
0.0
 40
0.500000000000095
100
AcDbArc
 50
339.159081
 51
116.565051
  0
LINE
  5
207
102
{ACAD_REACTORS
330
4B3
102
}
330
1F
100
AcDbEntity
  8
LC-001-002-----0
 62
     7
370
    50
100
AcDbLine
 10
296.134165
 20
286.58055
 30
0.0
 11
296.287401
 21
286.58055
 31
0.0
  0
LINE
  5
208
102
{ACAD_REACTORS
330
4B3
102
}
330
1F
100
AcDbEntity
  8
LC-001-002-----0
 62
     7
370
    50
100
AcDbLine
 10
292.194165
 20
286.58055
 30
0.0
 11
292.994165
 21
286.58055
 31
0.0
  0
LINE
  5
209
102
{ACAD_REACTORS
330
4B3
102
}
330
1F
100
AcDbEntity
  8
LC-001-002-----0
 62
     7
370
    50
100
AcDbLine
 10
296.916184
 20
289.58929
 30
0.0
 11
294.965498
 21
289.281287
 31
0.0
  0
LINE
  5
20A
102
{ACAD_REACTORS
330
4B3
102
}
330
1F
100
AcDbEntity
  8
LC-001-002-----0
 62
     7
370
    50
100
AcDbLine
 10
293.594165
 20
286.58055
 30
0.0
 11
294.394165
 21
286.58055
 31
0.0
  0
LINE
  5
20B
102
{ACAD_REACTORS
330
4B3
102
}
330
1F
100
AcDbEntity
  8
LC-001-002-----0
 62
     7
370
    50
100
AcDbLine
 10
294.994165
 20
286.58055
 30
0.0
 11
294.832396
 21
286.300358
 31
0.0
  0
LINE
  5
20C
102
{ACAD_REACTORS
330
4B3
102
}
330
1F
100
AcDbEntity
  8
LC-001-002-----0
 62
     7
370
    50
100
AcDbLine
 10
294.394165
 20
286.58055
 30
0.0
 11
294.555934
 21
286.300358
 31
0.0
  0
ARC
  5
20D
102
{ACAD_REACTORS
330
4B3
102
}
330
1F
100
AcDbEntity
  8
LC-001-002-----0
 62
     7
370
    50
100
AcDbCircle
 10
294.694165
 20
286.380166
 30
0.0
 40
0.1596152422705804
100
AcDbArc
 50
210.0
 51
330.0
  0
LINE
  5
20E
102
{ACAD_REACTORS
330
4B3
102
}
330
1F
100
AcDbEntity
  8
LC-001-002-----0
 62
     7
370
    50
100
AcDbLine
 10
294.994165
 20
286.58055
 30
0.0
 11
295.334165
 21
286.58055
 31
0.0
  0
LINE
  5
20F
102
{ACAD_REACTORS
330
4B3
102
}
330
1F
100
AcDbEntity
  8
LC-001-002-----0
 62
     7
370
    50
100
AcDbLine
 10
292.994165
 20
286.58055
 30
0.0
 11
293.155934
 21
286.300358
 31
0.0
  0
ARC
  5
210
102
{ACAD_REACTORS
330
4B3
102
}
330
1F
100
AcDbEntity
  8
LC-001-002-----0
 62
     7
370
    50
100
AcDbCircle
 10
293.294165
 20
286.380166
 30
0.0
 40
0.1596152422705804
100
AcDbArc
 50
210.0
 51
330.0
  0
LINE
  5
211
102
{ACAD_REACTORS
330
4B3
102
}
330
1F
100
AcDbEntity
  8
LC-001-002-----0
 62
     7
370
    50
100
AcDbLine
 10
293.594165
 20
286.58055
 30
0.0
 11
293.432396
 21
286.300358
 31
0.0
  0
LINE
  5
212
102
{ACAD_REACTORS
330
4B4
102
}
330
1F
100
AcDbEntity
  8
LC-006-005-----0
 62
     7
370
    25
100
AcDbLine
 10
489.050795
 20
333.07055
 30
0.0
 11
492.545992
 21
336.565748
 31
0.0
  0
LINE
  5
213
102
{ACAD_REACTORS
330
4B4
102
}
330
1F
100
AcDbEntity
  8
LC-006-005-----0
 62
     7
370
    25
100
AcDbLine
 10
486.222368
 20
333.07055
 30
0.0
 11
490.713517
 21
337.5617
 31
0.0
  0
LINE
  5
214
102
{ACAD_REACTORS
330
4B4
102
}
330
1F
100
AcDbEntity
  8
LC-006-005-----0
 62
     7
370
    25
100
AcDbLine
 10
483.393941
 20
333.07055
 30
0.0
 11
486.393941
 21
336.07055
 31
0.0
  0
LINE
  5
215
102
{ACAD_REACTORS
330
4B4
102
}
330
1F
100
AcDbEntity
  8
LC-006-005-----0
 62
     7
370
    25
100
AcDbLine
 10
488.101306
 20
337.777916
 30
0.0
 11
488.768797
 21
338.445406
 31
0.0
  0
LINE
  5
216
102
{ACAD_REACTORS
330
4B4
102
}
330
1F
100
AcDbEntity
  8
LC-006-005-----0
 62
     7
370
    25
100
AcDbLine
 10
480.565513
 20
333.07055
 30
0.0
 11
483.73031
 21
336.235346
 31
0.0
  0
LINE
  5
217
102
{ACAD_REACTORS
330
4B4
102
}
330
1F
100
AcDbEntity
  8
LC-006-005-----0
 62
     7
370
    25
100
AcDbLine
 10
506.983908
 20
359.488945
 30
0.0
 11
508.001998
 21
360.507035
 31
0.0
  0
LINE
  5
218
102
{ACAD_REACTORS
330
4B4
102
}
330
1F
100
AcDbEntity
  8
LC-006-005-----0
 62
     7
370
    25
100
AcDbLine
 10
477.737086
 20
333.07055
 30
0.0
 11
483.601306
 21
338.93477
 31
0.0
  0
LINE
  5
219
102
{ACAD_REACTORS
330
4B4
102
}
330
1F
100
AcDbEntity
  8
LC-006-005-----0
 62
     7
370
    25
100
AcDbLine
 10
504.043629
 20
359.377093
 30
0.0
 11
507.243427
 21
362.576891
 31
0.0
  0
LINE
  5
21A
102
{ACAD_REACTORS
330
4B4
102
}
330
1F
100
AcDbEntity
  8
LC-006-005-----0
 62
     7
370
    25
100
AcDbLine
 10
474.908659
 20
333.07055
 30
0.0
 11
482.145648
 21
340.307539
 31
0.0
  0
LINE
  5
21B
102
{ACAD_REACTORS
330
4B4
102
}
330
1F
100
AcDbEntity
  8
LC-006-005-----0
 62
     7
370
    25
100
AcDbLine
 10
501.103349
 20
359.265241
 30
0.0
 11
504.808465
 21
362.970356
 31
0.0
  0
LINE
  5
21C
102
{ACAD_REACTORS
330
4B4
102
}
330
1F
100
AcDbEntity
  8
LC-006-005-----0
 62
     7
370
    25
100
AcDbLine
 10
472.080232
 20
333.07055
 30
0.0
 11
479.608607
 21
340.598926
 31
0.0
  0
LINE
  5
21D
102
{ACAD_REACTORS
330
4B4
102
}
330
1F
100
AcDbEntity
  8
LC-006-005-----0
 62
     7
370
    25
100
AcDbLine
 10
497.983879
 20
358.974197
 30
0.0
 11
501.883077
 21
362.873395
 31
0.0
  0
LINE
  5
21E
102
{ACAD_REACTORS
330
4B4
102
}
330
1F
100
AcDbEntity
  8
LC-006-005-----0
 62
     7
370
    25
100
AcDbLine
 10
469.251805
 20
333.07055
 30
0.0
 11
476.847962
 21
340.666708
 31
0.0
  0
LINE
  5
21F
102
{ACAD_REACTORS
330
4B3
102
}
330
1F
100
AcDbEntity
  8
LC-001-002-----0
 62
     7
370
    50
100
AcDbLine
 10
291.594165
 20
286.58055
 30
0.0
 11
291.755934
 21
286.300358
 31
0.0
  0
LINE
  5
220
102
{ACAD_REACTORS
330
4B4
102
}
330
1F
100
AcDbEntity
  8
LC-006-005-----0
 62
     7
370
    25
100
AcDbLine
 10
493.909514
 20
357.72826
 30
0.0
 11
498.957688
 21
362.776433
 31
0.0
  0
LINE
  5
221
102
{ACAD_REACTORS
330
4B4
102
}
330
1F
100
AcDbEntity
  8
LC-006-005-----0
 62
     7
370
    25
100
AcDbLine
 10
466.423378
 20
333.07055
 30
0.0
 11
473.793511
 21
340.440683
 31
0.0
  0
LINE
  5
222
102
{ACAD_REACTORS
330
4B4
102
}
330
1F
100
AcDbEntity
  8
LC-006-005-----0
 62
     7
370
    25
100
AcDbLine
 10
489.83515
 20
356.482322
 30
0.0
 11
495.147081
 21
361.794254
 31
0.0
  0
LINE
  5
223
102
{ACAD_REACTORS
330
4B4
102
}
330
1F
100
AcDbEntity
  8
LC-006-005-----0
 62
     7
370
    25
100
AcDbLine
 10
463.594951
 20
333.07055
 30
0.0
 11
470.311756
 21
339.787355
 31
0.0
  0
LINE
  5
224
102
{ACAD_REACTORS
330
4B4
102
}
330
1F
100
AcDbEntity
  8
LC-006-005-----0
 62
     7
370
    25
100
AcDbLine
 10
485.760785
 20
355.236384
 30
0.0
 11
491.073119
 21
360.548718
 31
0.0
  0
LINE
  5
225
102
{ACAD_REACTORS
330
4B4
102
}
330
1F
100
AcDbEntity
  8
LC-006-005-----0
 62
     7
370
    25
100
AcDbLine
 10
460.766524
 20
333.07055
 30
0.0
 11
466.075678
 21
338.379705
 31
0.0
  0
LINE
  5
226
102
{ACAD_REACTORS
330
4B4
102
}
330
1F
100
AcDbEntity
  8
LC-006-005-----0
 62
     7
370
    25
100
AcDbLine
 10
481.68642
 20
353.990447
 30
0.0
 11
486.999156
 21
359.303183
 31
0.0
  0
LINE
  5
227
102
{ACAD_REACTORS
330
4B4
102
}
330
1F
100
AcDbEntity
  8
LC-006-005-----0
 62
     7
370
    25
100
AcDbLine
 10
457.938096
 20
333.07055
 30
0.0
 11
462.101306
 21
337.23376
 31
0.0
  0
LINE
  5
228
102
{ACAD_REACTORS
330
4B4
102
}
330
1F
100
AcDbEntity
  8
LC-006-005-----0
 62
     7
370
    25
100
AcDbLine
 10
465.919332
 20
341.051785
 30
0.0
 11
468.50252
 21
343.634974
 31
0.0
  0
LINE
  5
229
102
{ACAD_REACTORS
330
4B4
102
}
330
1F
100
AcDbEntity
  8
LC-006-005-----0
 62
     7
370
    25
100
AcDbLine
 10
475.420022
 20
350.552476
 30
0.0
 11
482.925194
 21
358.057648
 31
0.0
  0
LINE
  5
22A
102
{ACAD_REACTORS
330
4B4
102
}
330
1F
100
AcDbEntity
  8
LC-006-005-----0
 62
     7
370
    25
100
AcDbLine
 10
455.109669
 20
333.07055
 30
0.0
 11
458.109669
 21
336.07055
 31
0.0
  0
LINE
  5
22B
102
{ACAD_REACTORS
330
4B4
102
}
330
1F
100
AcDbEntity
  8
LC-006-005-----0
 62
     7
370
    25
100
AcDbLine
 10
459.601306
 20
337.562187
 30
0.0
 11
460.421174
 21
338.382055
 31
0.0
  0
LINE
  5
22C
102
{ACAD_REACTORS
330
4B4
102
}
330
1F
100
AcDbEntity
  8
LC-006-005-----0
 62
     7
370
    25
100
AcDbLine
 10
463.090905
 20
341.051785
 30
0.0
 11
465.090905
 21
343.051785
 31
0.0
  0
LINE
  5
22D
102
{ACAD_REACTORS
330
4B4
102
}
330
1F
100
AcDbEntity
  8
LC-006-005-----0
 62
     7
370
    25
100
AcDbLine
 10
465.502574
 20
343.463455
 30
0.0
 11
468.50252
 21
346.463401
 31
0.0
  0
LINE
  5
22E
102
{ACAD_REACTORS
330
4B4
102
}
330
1F
100
AcDbEntity
  8
LC-006-005-----0
 62
     7
370
    25
100
AcDbLine
 10
472.591595
 20
350.552476
 30
0.0
 11
475.091595
 21
353.052476
 31
0.0
  0
LINE
  5
22F
102
{ACAD_REACTORS
330
4B4
102
}
330
1F
100
AcDbEntity
  8
LC-006-005-----0
 62
     7
370
    25
100
AcDbLine
 10
476.002606
 20
353.963487
 30
0.0
 11
478.851232
 21
356.812113
 31
0.0
  0
LINE
  5
230
102
{ACAD_REACTORS
330
4B4
102
}
330
1F
100
AcDbEntity
  8
LC-006-005-----0
 62
     7
370
    25
100
AcDbLine
 10
452.281242
 20
333.07055
 30
0.0
 11
455.281242
 21
336.07055
 31
0.0
  0
LINE
  5
231
102
{ACAD_REACTORS
330
4B4
102
}
330
1F
100
AcDbEntity
  8
LC-006-005-----0
 62
     7
370
    25
100
AcDbLine
 10
460.262477
 20
341.051785
 30
0.0
 11
462.262477
 21
343.051785
 31
0.0
  0
LINE
  5
232
102
{ACAD_REACTORS
330
4B4
102
}
330
1F
100
AcDbEntity
  8
LC-006-005-----0
 62
     7
370
    25
100
AcDbLine
 10
465.502574
 20
346.291882
 30
0.0
 11
468.50252
 21
349.291828
 31
0.0
  0
LINE
  5
233
102
{ACAD_REACTORS
330
4B4
102
}
330
1F
100
AcDbEntity
  8
LC-006-005-----0
 62
     7
370
    25
100
AcDbLine
 10
469.763168
 20
350.552476
 30
0.0
 11
472.263168
 21
353.052476
 31
0.0
  0
LINE
  5
234
102
{ACAD_REACTORS
330
4B4
102
}
330
1F
100
AcDbEntity
  8
LC-006-005-----0
 62
     7
370
    25
100
AcDbLine
 10
449.452815
 20
333.07055
 30
0.0
 11
452.452815
 21
336.07055
 31
0.0
  0
LINE
  5
235
102
{ACAD_REACTORS
330
4B4
102
}
330
1F
100
AcDbEntity
  8
LC-006-005-----0
 62
     7
370
    25
100
AcDbLine
 10
457.43405
 20
341.051785
 30
0.0
 11
460.502574
 21
344.120309
 31
0.0
  0
LINE
  5
236
102
{ACAD_REACTORS
330
4B4
102
}
330
1F
100
AcDbEntity
  8
LC-006-005-----0
 62
     7
370
    25
100
AcDbLine
 10
465.502574
 20
349.120309
 30
0.0
 11
469.434741
 21
353.052476
 31
0.0
  0
LINE
  5
237
102
{ACAD_REACTORS
330
4B4
102
}
330
1F
100
AcDbEntity
  8
LC-006-005-----0
 62
     7
370
    25
100
AcDbLine
 10
446.624388
 20
333.07055
 30
0.0
 11
449.624388
 21
336.07055
 31
0.0
  0
LINE
  5
238
102
{ACAD_REACTORS
330
4B4
102
}
330
1F
100
AcDbEntity
  8
LC-006-005-----0
 62
     7
370
    25
100
AcDbLine
 10
454.605623
 20
341.051785
 30
0.0
 11
460.502574
 21
346.948736
 31
0.0
  0
LINE
  5
239
102
{ACAD_REACTORS
330
4B4
102
}
330
1F
100
AcDbEntity
  8
LC-006-005-----0
 62
     7
370
    25
100
AcDbLine
 10
465.502574
 20
351.948736
 30
0.0
 11
469.002084
 21
355.448247
 31
0.0
  0
LINE
  5
23A
102
{ACAD_REACTORS
330
4B4
102
}
330
1F
100
AcDbEntity
  8
LC-006-005-----0
 62
     7
370
    25
100
AcDbLine
 10
445.001998
 20
334.276588
 30
0.0
 11
447.683315
 21
336.957905
 31
0.0
  0
LINE
  5
23B
102
{ACAD_REACTORS
330
4B4
102
}
330
1F
100
AcDbEntity
  8
LC-006-005-----0
 62
     7
370
    25
100
AcDbLine
 10
451.777196
 20
341.051785
 30
0.0
 11
460.502574
 21
349.777163
 31
0.0
  0
LINE
  5
23C
102
{ACAD_REACTORS
330
4B4
102
}
330
1F
100
AcDbEntity
  8
LC-006-005-----0
 62
     7
370
    25
100
AcDbLine
 10
465.502574
 20
354.777163
 30
0.0
 11
467.277886
 21
356.552476
 31
0.0
  0
LINE
  5
23D
102
{ACAD_REACTORS
330
4B4
102
}
330
1F
100
AcDbEntity
  8
LC-006-005-----0
 62
     7
370
    25
100
AcDbLine
 10
445.001998
 20
337.105015
 30
0.0
 11
447.683315
 21
339.786332
 31
0.0
  0
LINE
  5
23E
102
{ACAD_REACTORS
330
4B4
102
}
330
1F
100
AcDbEntity
  8
LC-006-005-----0
 62
     7
370
    25
100
AcDbLine
 10
448.948769
 20
341.051785
 30
0.0
 11
460.502574
 21
352.60559
 31
0.0
  0
LINE
  5
23F
102
{ACAD_REACTORS
330
4B4
102
}
330
1F
100
AcDbEntity
  8
LC-006-005-----0
 62
     7
370
    25
100
AcDbLine
 10
445.001998
 20
339.933442
 30
0.0
 11
448.120342
 21
343.051785
 31
0.0
  0
LINE
  5
240
102
{ACAD_REACTORS
330
4B4
102
}
330
1F
100
AcDbEntity
  8
LC-006-005-----0
 62
     7
370
    25
100
AcDbLine
 10
453.002111
 20
347.933554
 30
0.0
 11
460.502574
 21
355.434018
 31
0.0
  0
LINE
  5
241
102
{ACAD_REACTORS
330
4B4
102
}
330
1F
100
AcDbEntity
  8
LC-006-005-----0
 62
     7
370
    25
100
AcDbLine
 10
445.001998
 20
342.761869
 30
0.0
 11
445.791915
 21
343.551785
 31
0.0
  0
LINE
  5
242
102
{ACAD_REACTORS
330
4B4
102
}
330
1F
100
AcDbEntity
  8
LC-006-005-----0
 62
     7
370
    25
100
AcDbLine
 10
453.002111
 20
350.761981
 30
0.0
 11
458.792605
 21
356.552476
 31
0.0
  0
LINE
  5
243
102
{ACAD_REACTORS
330
4B4
102
}
330
1F
100
AcDbEntity
  8
LC-006-005-----0
 62
     7
370
    25
100
AcDbLine
 10
453.002111
 20
353.590409
 30
0.0
 11
457.002084
 21
357.590382
 31
0.0
  0
LINE
  5
244
102
{ACAD_REACTORS
330
4B4
102
}
330
1F
100
AcDbEntity
  8
LC-006-005-----0
 62
     7
370
    25
100
AcDbLine
 10
453.002111
 20
356.418836
 30
0.0
 11
454.635751
 21
358.052476
 31
0.0
  0
ARC
  5
245
102
{ACAD_REACTORS
330
4B3
102
}
330
1F
100
AcDbEntity
  8
LC-001-002-----0
 62
     7
370
    50
100
AcDbCircle
 10
291.894165
 20
286.380166
 30
0.0
 40
0.1596152422705804
100
AcDbArc
 50
210.0
 51
330.0
  0
LINE
  5
246
102
{ACAD_REACTORS
330
4B3
102
}
330
1F
100
AcDbEntity
  8
LC-001-002-----0
 62
     7
370
    50
100
AcDbLine
 10
292.194165
 20
286.58055
 30
0.0
 11
292.032396
 21
286.300358
 31
0.0
  0
LINE
  5
247
102
{ACAD_REACTORS
330
4B3
102
}
330
1F
100
AcDbEntity
  8
LC-001-002-----0
 62
     7
370
    50
100
AcDbLine
 10
297.494165
 20
288.245409
 30
0.0
 11
297.494165
 21
290.67055
 31
0.0
  0
DIMENSION
  5
248
330
1F
100
AcDbEntity
  8
LC-007-003-----0
 62
     7
370
    25
100
AcDbDimension
  2
*D7
 10
254.226496
 20
290.67055
 30
0.0
 11
223.426496
 21
361.746
 31
0.0
 70
   160
  1
%%c40
 71
     5
 42
40.8
 53
90.0
  3
LC-DIM-L-0140-02-02
100
AcDbAlignedDimension
 13
297.946178
 23
331.47055
 33
0.0
 14
297.494165
 24
290.67055
 34
0.0
 50
90.0
100
AcDbRotatedDimension
  0
LINE
  5
256
102
{ACAD_REACTORS
330
4C3
102
}
330
1F
100
AcDbEntity
  8
LC-001-002-----0
 62
     7
370
    50
100
AcDbLine
 10
287.717069
 20
362.754201
 30
0.0
 11
280.068252
 21
363.00772
 31
0.0
  0
LINE
  5
257
102
{ACAD_REACTORS
330
4C3
102
}
330
1F
100
AcDbEntity
  8
LC-001-002-----0
 62
     7
370
    50
100
AcDbLine
 10
308.001998
 20
356.552476
 30
0.0
 11
287.717069
 21
362.754201
 31
0.0
  0
LINE
  5
258
102
{ACAD_REACTORS
330
4C3
102
}
330
1F
100
AcDbEntity
  8
LC-001-002-----0
 62
     7
370
    50
100
AcDbLine
 10
307.55285
 20
353.001103
 30
0.0
 11
287.376348
 21
359.171062
 31
0.0
  0
LINE
  5
259
102
{ACAD_REACTORS
330
4C3
102
}
330
1F
100
AcDbEntity
  8
LC-001-002-----0
 62
     7
370
    50
100
AcDbLine
 10
287.376348
 20
359.171062
 30
0.0
 11
278.001998
 21
359.527674
 31
0.0
  0
ARC
  5
25A
330
1F
100
AcDbEntity
  8
LC-003-002-RND-0
 62
     7
370
    50
100
AcDbCircle
 10
316.501477
 20
349.552476
 30
0.0
 40
1.0
100
AcDbArc
 50
360.0
 51
90.0
  0
LINE
  5
25B
330
1F
100
AcDbEntity
  8
LC-001-002-----0
 62
     7
370
    50
100
AcDbLine
 10
333.001972
 20
358.051785
 30
0.0
 11
333.001972
 21
345.551785
 31
0.0
  0
LINE
  5
25C
330
1F
100
AcDbEntity
  8
LC-001-002-----0
 62
     7
370
    50
100
AcDbLine
 10
453.002111
 20
358.051785
 30
0.0
 11
453.002111
 21
345.551785
 31
0.0
  0
LINE
  5
25D
330
1F
100
AcDbEntity
  8
LC-001-002-----0
 62
     7
370
    50
100
AcDbLine
 10
317.501477
 20
349.552476
 30
0.0
 11
317.501477
 21
342.051785
 31
0.0
  0
LINE
  5
25E
102
{ACAD_REACTORS
330
4BB
102
}
330
1F
100
AcDbEntity
  8
LC-001-002-----0
 62
     7
370
    50
100
AcDbLine
 10
280.994165
 20
337.07055
 30
0.0
 11
280.994165
 21
285.07055
 31
0.0
  0
LINE
  5
25F
102
{ACAD_REACTORS
330
4BB
102
}
330
1F
100
AcDbEntity
  8
LC-001-002-----0
 62
     7
370
    50
100
AcDbLine
 10
280.994165
 20
285.07055
 30
0.0
 11
282.994165
 21
285.07055
 31
0.0
  0
LINE
  5
260
102
{ACAD_REACTORS
330
4BB
102
}
330
1F
100
AcDbEntity
  8
LC-001-002-----0
 62
     7
370
    50
100
AcDbLine
 10
282.994165
 20
285.07055
 30
0.0
 11
282.994165
 21
291.07055
 31
0.0
  0
LINE
  5
261
102
{ACAD_REACTORS
330
4BB
102
}
330
1F
100
AcDbEntity
  8
LC-001-002-----0
 62
     7
370
    50
100
AcDbLine
 10
282.994165
 20
291.07055
 30
0.0
 11
304.994165
 21
291.07055
 31
0.0
  0
LINE
  5
262
102
{ACAD_REACTORS
330
4BB
102
}
330
1F
100
AcDbEntity
  8
LC-001-002-----0
 62
     7
370
    50
100
AcDbLine
 10
307.994165
 20
291.874398
 30
0.0
 11
307.994165
 21
330.266703
 31
0.0
  0
LINE
  5
263
102
{ACAD_REACTORS
330
4BB
102
}
330
1F
100
AcDbEntity
  8
LC-001-002-----0
 62
     7
370
    50
100
AcDbLine
 10
304.994165
 20
331.07055
 30
0.0
 11
282.994165
 21
331.07055
 31
0.0
  0
LINE
  5
264
102
{ACAD_REACTORS
330
4BB
102
}
330
1F
100
AcDbEntity
  8
LC-001-002-----0
 62
     7
370
    50
100
AcDbLine
 10
282.994165
 20
331.07055
 30
0.0
 11
282.994165
 21
337.07055
 31
0.0
  0
LINE
  5
265
102
{ACAD_REACTORS
330
4BB
102
}
330
1F
100
AcDbEntity
  8
LC-001-002-----0
 62
     7
370
    50
100
AcDbLine
 10
282.994165
 20
337.07055
 30
0.0
 11
280.994165
 21
337.07055
 31
0.0
  0
LINE
  5
266
102
{ACAD_REACTORS
330
4BB
102
}
330
1F
100
AcDbEntity
  8
LC-001-002-----0
 62
     7
370
    50
100
AcDbLine
 10
305.994165
 20
294.07055
 30
0.0
 11
305.994165
 21
328.07055
 31
0.0
  0
LINE
  5
267
102
{ACAD_REACTORS
330
4BB
102
}
330
1F
100
AcDbEntity
  8
LC-001-002-----0
 62
     7
370
    50
100
AcDbLine
 10
304.994165
 20
329.07055
 30
0.0
 11
280.994165
 21
329.07055
 31
0.0
  0
LINE
  5
268
102
{ACAD_REACTORS
330
4BB
102
}
330
1F
100
AcDbEntity
  8
LC-001-002-----0
 62
     7
370
    50
100
AcDbLine
 10
280.994165
 20
293.07055
 30
0.0
 11
304.994165
 21
293.07055
 31
0.0
  0
LINE
  5
269
102
{ACAD_REACTORS
330
4BB
102
}
330
1F
100
AcDbEntity
  8
LC-001-002-----0
 62
     7
370
    50
100
AcDbLine
 10
307.994165
 20
330.266703
 30
0.0
 11
304.994165
 21
331.07055
 31
0.0
  0
LINE
  5
26A
102
{ACAD_REACTORS
330
4BB
102
}
330
1F
100
AcDbEntity
  8
LC-001-002-----0
 62
     7
370
    50
100
AcDbLine
 10
307.994165
 20
291.874398
 30
0.0
 11
304.994165
 21
291.07055
 31
0.0
  0
ARC
  5
26B
102
{ACAD_REACTORS
330
4BB
102
}
330
1F
100
AcDbEntity
  8
LC-003-002-RND-0
 62
     7
370
    50
100
AcDbCircle
 10
304.994165
 20
328.07055
 30
0.0
 40
1.0
100
AcDbArc
 50
0.0
 51
90.0
  0
ARC
  5
26C
102
{ACAD_REACTORS
330
4BB
102
}
330
1F
100
AcDbEntity
  8
LC-003-002-RND-0
 62
     7
370
    50
100
AcDbCircle
 10
304.994165
 20
294.07055
 30
0.0
 40
1.0
100
AcDbArc
 50
270.0
 51
0.0
  0
INSERT
  5
294
102
{ACAD_REACTORS
330
4BB
102
}
330
1F
100
AcDbEntity
  8
LC-006-005-----0
 62
     7
370
    25
100
AcDbBlockReference
  2
*X68
 10
0.0
 20
0.0
 30
0.0
  0
LINE
  5
295
102
{ACAD_REACTORS
330
4C2
102
}
330
1F
100
AcDbEntity
  8
LC-001-002-----0
 62
     7
370
    50
100
AcDbLine
 10
334.001886
 20
345.551785
 30
0.0
 11
334.001886
 21
344.551785
 31
0.0
  0
LINE
  5
296
102
{ACAD_REACTORS
330
4C2
102
}
330
1F
100
AcDbEntity
  8
LC-001-002-----0
 62
     7
370
    50
100
AcDbLine
 10
335.501886
 20
343.570415
 30
0.0
 11
335.501886
 21
343.051785
 31
0.0
  0
LINE
  5
297
102
{ACAD_REACTORS
330
4C2
102
}
330
1F
100
AcDbEntity
  8
LC-001-002-----0
 62
     7
370
    50
100
AcDbLine
 10
335.501886
 20
343.051785
 30
0.0
 11
338.501886
 21
343.051785
 31
0.0
  0
LINE
  5
298
102
{ACAD_REACTORS
330
4C2
102
}
330
1F
100
AcDbEntity
  8
LC-001-002-----0
 62
     7
370
    50
100
AcDbLine
 10
338.501886
 20
343.051785
 30
0.0
 11
338.501886
 21
343.551785
 31
0.0
  0
LINE
  5
299
102
{ACAD_REACTORS
330
4AD
102
}
330
1F
100
AcDbEntity
  8
LC-001-002-----0
 62
     7
370
    50
100
AcDbLine
 10
334.679237
 20
343.551785
 30
0.0
 11
341.001998
 21
343.551785
 31
0.0
  0
LINE
  5
29A
102
{ACAD_REACTORS
330
4AD
102
}
330
1F
100
AcDbEntity
  8
LC-001-002-----0
 62
     7
370
    50
100
AcDbLine
 10
334.101886
 20
344.551785
 30
0.0
 11
334.679237
 21
343.551785
 31
0.0
  0
LINE
  5
29B
330
1F
100
AcDbEntity
  8
LC-001-002-----0
 62
     7
370
    50
100
AcDbLine
 10
451.32476
 20
343.551785
 30
0.0
 11
445.001998
 21
343.551785
 31
0.0
  0
LINE
  5
29C
330
1F
100
AcDbEntity
  8
LC-001-002-----0
 62
     7
370
    50
100
AcDbLine
 10
450.502111
 20
343.051785
 30
0.0
 11
447.502111
 21
343.051785
 31
0.0
  0
LINE
  5
29D
330
1F
100
AcDbEntity
  8
LC-001-002-----0
 62
     7
370
    50
100
AcDbLine
 10
450.502111
 20
343.570415
 30
0.0
 11
450.502111
 21
343.051785
 31
0.0
  0
LINE
  5
29E
330
1F
100
AcDbEntity
  8
LC-001-002-----0
 62
     7
370
    50
100
AcDbLine
 10
452.002111
 20
345.551785
 30
0.0
 11
452.002111
 21
344.551785
 31
0.0
  0
LINE
  5
29F
330
1F
100
AcDbEntity
  8
LC-001-002-----0
 62
     7
370
    50
100
AcDbLine
 10
452.002111
 20
344.551785
 30
0.0
 11
451.90211
 21
344.551785
 31
0.0
  0
LINE
  5
2A0
330
1F
100
AcDbEntity
  8
LC-001-002-----0
 62
     7
370
    50
100
AcDbLine
 10
451.90211
 20
344.551785
 30
0.0
 11
451.32476
 21
343.551785
 31
0.0
  0
LINE
  5
2A1
330
1F
100
AcDbEntity
  8
LC-001-002-----0
  6
DASHDOT
 62
     7
370
    25
100
AcDbLine
 10
347.919297
 20
311.07055
 30
0.0
 11
283.075615
 21
311.07055
 31
0.0
  0
LINE
  5
2A2
330
1F
100
AcDbEntity
  8
LC-001-002-----0
 62
     7
370
    50
100
AcDbLine
 10
445.001998
 20
289.07055
 30
0.0
 11
445.001998
 21
284.582055
 31
0.0
  0
LINE
  5
2A3
330
1F
100
AcDbEntity
  8
LC-001-002-----0
 62
     7
370
    50
100
AcDbLine
 10
469.413884
 20
348.746419
 30
0.0
 11
469.413884
 21
345.746419
 31
0.0
  0
ARC
  5
2A4
102
{ACAD_REACTORS
330
4B0
102
}
330
1F
100
AcDbEntity
  8
LC-004-205-RND-0
 62
     7
370
    50
100
AcDbCircle
 10
483.301306
 20
339.794443
 30
0.0
 40
0.2999999999999545
100
AcDbArc
 50
0.0
 51
78.586371
  0
LINE
  5
2A5
330
1F
100
AcDbEntity
  8
LC-001-002-----0
 62
     7
370
    50
100
AcDbLine
 10
459.601306
 20
336.07055
 30
0.0
 11
459.601306
 21
338.382055
 31
0.0
  0
LINE
  5
2A6
330
1F
100
AcDbEntity
  8
LC-001-002-----0
 62
     7
370
    50
100
AcDbLine
 10
459.601306
 20
338.382055
 30
0.0
 11
462.101306
 21
338.382055
 31
0.0
  0
LINE
  5
2A7
330
1F
100
AcDbEntity
  8
LC-001-002-----0
 62
     7
370
    50
100
AcDbLine
 10
462.101306
 20
336.35228
 30
0.0
 11
462.101306
 21
338.382055
 31
0.0
  0
LINE
  5
2A8
330
1F
100
AcDbEntity
  8
LC-001-002-----0
 62
     7
370
    50
100
AcDbLine
 10
495.101306
 20
289.07055
 30
0.0
 11
495.101306
 21
333.07055
 31
0.0
  0
LINE
  5
2A9
330
1F
100
AcDbEntity
  8
LC-001-002-----0
 62
     7
370
    50
100
AcDbLine
 10
448.001998
 20
286.07055
 30
0.0
 11
448.001998
 21
284.582055
 31
0.0
  0
ARC
  5
2AA
330
1F
100
AcDbEntity
  8
LC-003-002-RND-0
 62
     7
370
    50
100
AcDbCircle
 10
444.501998
 20
284.582055
 30
0.0
 40
3.5
100
AcDbArc
 50
270.0
 51
360.0
  0
ARC
  5
2AB
102
{ACAD_REACTORS
330
4B0
102
}
330
1F
100
AcDbEntity
  8
LC-003-002-RND-0
 62
     7
370
    50
100
AcDbCircle
 10
444.501998
 20
284.582055
 30
0.0
 40
0.5
100
AcDbArc
 50
270.0
 51
360.0
  0
LINE
  5
2AC
330
1F
100
AcDbEntity
  8
LC-001-002-----0
 62
     7
370
    50
100
AcDbLine
 10
466.550284
 20
276.746419
 30
0.0
 11
466.550284
 21
283.759769
 31
0.0
  0
LINE
  5
2AD
330
1F
100
AcDbEntity
  8
LC-001-002-----0
  6
DASHDOT
 62
     7
370
    25
100
AcDbLine
 10
577.049566
 20
311.246419
 30
0.0
 11
440.166006
 21
311.246419
 31
0.0
  0
LINE
  5
2AE
330
1F
100
AcDbEntity
  8
LC-001-002-----0
 62
     7
370
    50
100
AcDbLine
 10
488.185812
 20
276.746419
 30
0.0
 11
488.185812
 21
280.536156
 31
0.0
  0
DIMENSION
  5
2AF
330
1F
100
AcDbEntity
  8
LC-007-003-----0
 62
     7
370
    25
100
AcDbDimension
  2
*D9
 10
577.049566
 20
150.871823
 30
0.0
 11
430.045428
 21
181.671823
 31
0.0
 70
   160
  1
295
 71
     5
 42
294.008278
  3
LC-DIM-L-0140-02-02
100
AcDbAlignedDimension
 13
283.041289
 23
287.246419
 33
0.0
 14
577.049566
 24
279.746419
 34
0.0
100
AcDbRotatedDimension
  0
INSERT
  5
2D8
330
1F
100
AcDbEntity
  8
LC-007-003-----0
 62
     7
370
    25
100
AcDbBlockReference
  2
LCDIM1
 10
0.0
 20
0.0
 30
0.0
  0
INSERT
  5
2E5
330
1F
100
AcDbEntity
  8
LC-006-005-----0
 62
     7
370
    25
100
AcDbBlockReference
  2
*X711
 10
0.0
 20
0.0
 30
0.0
  0
LINE
  5
2E6
330
1F
100
AcDbEntity
  8
LC-001-002-----0
 62
     7
370
    50
100
AcDbLine
 10
577.049566
 20
282.746419
 30
0.0
 11
577.049566
 21
342.746419
 31
0.0
  0
DIMENSION
  5
2E7
330
1F
100
AcDbEntity
  8
LC-007-003-----0
 62
     7
370
    25
100
AcDbDimension
  2
*D12
 10
642.288077
 20
279.746419
 30
0.0
 11
611.488077
 21
311.246419
 31
0.0
 70
   160
  1
%%c<>
 71
     5
 42
63.0
 53
90.0
  3
LC-DIM-L-0140-02-02
100
AcDbAlignedDimension
 13
577.049566
 23
342.746419
 33
0.0
 14
577.049566
 24
279.746419
 34
0.0
 50
90.0
100
AcDbRotatedDimension
  0
DIMENSION
  5
2F4
330
1F
100
AcDbEntity
  8
LC-007-003-----0
 62
     7
370
    25
100
AcDbDimension
  2
*D13
 10
597.903273
 20
283.246419
 30
0.0
 11
567.103273
 21
311.246419
 31
0.0
 70
   160
  1
%%c<>
 71
     5
 42
56.0
 53
90.0
  3
LC-DIM-L-0140-02-02
100
AcDbAlignedDimension
 13
533.549566
 23
339.246419
 33
0.0
 14
533.549566
 24
283.246419
 34
0.0
 50
90.0
100
AcDbRotatedDimension
  0
CIRCLE
  5
303
330
1F
100
AcDbEntity
  8
LC-001-002-----0
 62
     7
370
    50
100
AcDbCircle
 10
485.851306
 20
337.82055
 30
0.0
 40
1.75
  0
CIRCLE
  5
304
330
1F
100
AcDbEntity
  8
LC-001-002-----0
 62
     7
370
    50
100
AcDbCircle
 10
485.851306
 20
284.509046
 30
0.0
 40
1.75
  0
INSERT
  5
311
330
1F
100
AcDbEntity
  8
LC-006-005-----0
 62
     7
370
    25
100
AcDbBlockReference
  2
*X814
 10
0.0
 20
0.0
 30
0.0
  0
ARC
  5
312
330
1F
100
AcDbEntity
  8
LC-003-002-RND-0
 62
     7
370
    50
100
AcDbCircle
 10
467.50252
 20
342.051785
 30
0.0
 40
1.0
100
AcDbArc
 50
270.0
 51
0.0
  0
ARC
  5
313
330
1F
100
AcDbEntity
  8
LC-001-002-----0
 62
     7
370
    50
100
AcDbCircle
 10
477.549566
 20
311.246419
 30
0.0
 40
29.6000000000001
100
AcDbArc
 50
69.268737
 51
104.187628
  0
ARC
  5
314
330
1F
100
AcDbEntity
  8
LC-001-002-----0
 62
     7
370
    50
100
AcDbCircle
 10
477.549566
 20
311.246419
 30
0.0
 40
29.60000000000009
100
AcDbArc
 50
290.717092
 51
308.629598
  0
LINE
  5
315
330
1F
100
AcDbEntity
  8
LC-001-002-----0
 62
     7
370
    50
100
AcDbLine
 10
577.049566
 20
279.746419
 30
0.0
 11
577.049566
 21
282.746419
 31
0.0
  0
LINE
  5
316
330
1F
100
AcDbEntity
  8
LC-001-002-----0
  6
DASHED
 62
     7
370
    25
100
AcDbLine
 10
524.394479
 20
269.70663
 30
0.0
 11
486.240409
 21
279.929982
 31
0.0
  0
ARC
  5
317
330
1F
100
AcDbEntity
  8
LC-003-002-RND-0
 62
     7
370
    50
100
AcDbCircle
 10
536.549566
 20
345.246419
 30
0.0
 40
0.5
100
AcDbArc
 50
0.0
 51
90.0
  0
ARC
  5
318
330
1F
100
AcDbEntity
  8
LC-003-002-RND-0
 62
     7
370
    50
100
AcDbCircle
 10
533.549566
 20
282.746419
 30
0.0
 40
0.5
100
AcDbArc
 50
0.0
 51
90.0
  0
INSERT
  5
346
330
1F
100
AcDbEntity
  8
LC-006-005-----0
 62
     7
370
    25
100
AcDbBlockReference
  2
*X915
 10
0.0
 20
0.0
 30
0.0
  0
LINE
  5
347
330
1F
100
AcDbEntity
  8
LC-001-002-----0
 62
     7
370
    50
100
AcDbLine
 10
534.549566
 20
345.746419
 30
0.0
 11
536.549566
 21
345.746419
 31
0.0
  0
ARC
  5
348
330
1F
100
AcDbEntity
  8
LC-003-002-RND-0
 62
     7
370
    50
100
AcDbCircle
 10
533.549566
 20
339.746419
 30
0.0
 40
0.5
100
AcDbArc
 50
270.0
 51
0.0
  0
ARC
  5
349
330
1F
100
AcDbEntity
  8
LC-003-002-RND-0
 62
     7
370
    50
100
AcDbCircle
 10
534.549566
 20
280.246419
 30
0.0
 40
0.5
100
AcDbArc
 50
180.0
 51
270.0
  0
ARC
  5
34A
330
1F
100
AcDbEntity
  8
LC-003-002-RND-0
 62
     7
370
    50
100
AcDbCircle
 10
537.549566
 20
283.564969
 30
0.0
 40
0.5
100
AcDbArc
 50
180.0
 51
269.5
  0
LINE
  5
34B
330
1F
100
AcDbEntity
  8
LC-001-002-----0
 62
     7
370
    50
100
AcDbLine
 10
537.545203
 20
339.42785
 30
0.0
 11
577.049566
 21
339.746419
 31
0.0
  0
LINE
  5
34C
330
1F
100
AcDbEntity
  8
LC-001-002-----0
  6
DASHED
 62
     7
370
    25
100
AcDbLine
 10
524.100985
 20
266.679443
 30
0.0
 11
524.748033
 21
269.094257
 31
0.0
  0
LINE
  5
34D
330
1F
100
AcDbEntity
  8
LC-001-002-----0
 62
     7
370
    50
100
AcDbLine
 10
537.049566
 20
286.246419
 30
0.0
 11
537.049566
 21
311.246419
 31
0.0
  0
ARC
  5
34E
102
{ACAD_REACTORS
330
4B0
102
}
330
1F
100
AcDbEntity
  8
LC-005-205-----0
 62
     7
370
    50
100
AcDbCircle
 10
488.351306
 20
338.345242
 30
0.0
 40
0.2500000000000429
100
AcDbArc
 50
68.305797
 51
180.0
  0
LINE
  5
34F
330
1F
100
AcDbEntity
  8
LC-001-002-----0
 62
     7
370
    50
100
AcDbLine
 10
537.049566
 20
336.246419
 30
0.0
 11
537.049566
 21
311.246419
 31
0.0
  0
LINE
  5
350
330
1F
100
AcDbEntity
  8
LC-001-002-----0
 62
     7
370
    50
100
AcDbLine
 10
499.028566
 20
288.122956
 30
0.0
 11
499.028566
 21
334.369882
 31
0.0
  0
ARC
  5
351
330
1F
100
AcDbEntity
  8
LC-003-002-RND-0
 62
     7
370
    50
100
AcDbCircle
 10
537.549566
 20
338.927869
 30
0.0
 40
0.4999999999999737
100
AcDbArc
 50
90.5
 51
180.0
  0
LINE
  5
352
330
1F
100
AcDbEntity
  8
LC-001-002-----0
 62
     7
370
    50
100
AcDbLine
 10
577.049566
 20
340.746419
 30
0.0
 11
577.049566
 21
339.746419
 31
0.0
  0
ARC
  5
353
102
{ACAD_REACTORS
330
4B0
102
}
330
1F
100
AcDbEntity
  8
LC-001-002-----0
 62
     7
370
    50
100
AcDbCircle
 10
477.502442
 20
311.07055
 30
0.0
 40
29.60339290378799
100
AcDbArc
 50
78.506497
 51
121.348957
  0
LINE
  5
354
330
1F
100
AcDbEntity
  8
LC-001-002-----0
 62
     7
370
    50
100
AcDbLine
 10
500.01984
 20
286.569389
 30
0.0
 11
537.049566
 21
286.246419
 31
0.0
  0
LINE
  5
355
330
1F
100
AcDbEntity
  8
LC-001-002-----0
 62
     7
370
    50
100
AcDbLine
 10
537.049566
 20
342.746419
 30
0.0
 11
577.049566
 21
342.746419
 31
0.0
  0
LINE
  5
356
330
1F
100
AcDbEntity
  8
LC-001-002-----0
 62
     7
370
    50
100
AcDbLine
 10
537.545203
 20
283.064988
 30
0.0
 11
577.049566
 21
282.746419
 31
0.0
  0
LINE
  5
357
330
1F
100
AcDbEntity
  8
LC-001-002-----0
 62
     7
370
    50
100
AcDbLine
 10
500.01984
 20
335.923449
 30
0.0
 11
537.049566
 21
336.246419
 31
0.0
  0
LINE
  5
358
102
{ACAD_REACTORS
330
4B0
102
}
330
1F
100
AcDbEntity
  8
LC-001-002-----0
 62
     7
370
    50
100
AcDbLine
 10
459.601306
 20
283.759046
 30
0.0
 11
462.101306
 21
283.759046
 31
0.0
  0
LINE
  5
359
102
{ACAD_REACTORS
330
4B0
102
}
330
1F
100
AcDbEntity
  8
LC-001-002-----0
 62
     7
370
    50
100
AcDbLine
 10
459.601306
 20
286.07055
 30
0.0
 11
459.601306
 21
283.759046
 31
0.0
  0
ARC
  5
35A
330
1F
100
AcDbEntity
  8
LC-003-002-RND-0
 62
     7
370
    50
100
AcDbCircle
 10
534.549566
 20
345.246419
 30
0.0
 40
0.5
100
AcDbArc
 50
90.0
 51
180.0
  0
LINE
  5
35B
330
1F
100
AcDbEntity
  8
LC-001-002-----0
 62
     7
370
    50
100
AcDbLine
 10
465.502574
 20
343.051785
 30
0.0
 11
460.502574
 21
343.051785
 31
0.0
  0
ARC
  5
35C
330
1F
100
AcDbEntity
  8
LC-003-002-RND-0
 62
     7
370
    50
100
AcDbCircle
 10
470.049566
 20
281.579771
 30
0.0
 40
0.99999999999998
100
AcDbArc
 50
75.812372
 51
180.0
  0
LINE
  5
35D
330
1F
100
AcDbEntity
  8
LC-001-002-----0
 62
     7
370
    50
100
AcDbLine
 10
494.049566
 20
339.246419
 30
0.0
 11
533.549566
 21
339.246419
 31
0.0
  0
LINE
  5
35E
330
1F
100
AcDbEntity
  8
LC-001-002-----0
 62
     7
370
    50
100
AcDbLine
 10
495.505713
 20
339.246419
 30
0.0
 11
494.049566
 21
339.246419
 31
0.0
  0
LINE
  5
35F
330
1F
100
AcDbEntity
  8
LC-001-002-----0
 62
     7
370
    50
100
AcDbLine
 10
534.049566
 20
345.246419
 30
0.0
 11
534.049566
 21
339.746419
 31
0.0
  0
ARC
  5
360
330
1F
100
AcDbEntity
  8
LC-003-002-RND-0
 62
     7
370
    50
100
AcDbCircle
 10
500.028566
 20
287.569351
 30
0.0
 40
1.0
100
AcDbArc
 50
180.0
 51
269.5
  0
LINE
  5
361
330
1F
100
AcDbEntity
  8
LC-001-002-----0
 62
     7
370
    50
100
AcDbLine
 10
534.549566
 20
279.746419
 30
0.0
 11
577.049566
 21
279.746419
 31
0.0
  0
LINE
  5
362
330
1F
100
AcDbEntity
  8
LC-001-002-----0
 62
     7
370
    50
100
AcDbLine
 10
533.549566
 20
283.246419
 30
0.0
 11
494.049566
 21
283.246419
 31
0.0
  0
LINE
  5
363
330
1F
100
AcDbEntity
  8
LC-001-002-----0
 62
     7
370
    50
100
AcDbLine
 10
534.049566
 20
280.246419
 30
0.0
 11
534.049566
 21
282.746419
 31
0.0
  0
LINE
  5
364
330
1F
100
AcDbEntity
  8
LC-001-002-----0
 62
     7
370
    50
100
AcDbLine
 10
537.049566
 20
338.927869
 30
0.0
 11
537.049566
 21
336.246419
 31
0.0
  0
LINE
  5
365
330
1F
100
AcDbEntity
  8
LC-001-002-----0
 62
     7
370
    50
100
AcDbLine
 10
537.049566
 20
283.564969
 30
0.0
 11
537.049566
 21
286.246419
 31
0.0
  0
LINE
  5
366
102
{ACAD_REACTORS
330
4B0
102
}
330
1F
100
AcDbEntity
  8
LC-001-002-----0
 62
     7
370
    50
100
AcDbLine
 10
462.101306
 20
285.981289
 30
0.0
 11
462.101306
 21
283.759046
 31
0.0
  0
ARC
  5
367
102
{ACAD_REACTORS
330
4B0
102
}
330
1F
100
AcDbEntity
  8
LC-005-205-----0
 62
     7
370
    50
100
AcDbCircle
 10
487.601306
 20
336.57055
 30
0.0
 40
0.5000000000002274
100
AcDbArc
 50
270.0
 51
0.0
  0
ARC
  5
368
102
{ACAD_REACTORS
330
4B0
102
}
330
1F
100
AcDbEntity
  8
LC-001-002-----0
 62
     7
370
    50
100
AcDbCircle
 10
477.549566
 20
311.246419
 30
0.0
 40
29.60259239140007
100
AcDbArc
 50
51.370402
 51
69.268737
  0
LINE
  5
369
102
{ACAD_REACTORS
330
4B0
102
}
330
1F
100
AcDbEntity
  8
LC-005-205-----0
 62
     7
370
    50
100
AcDbLine
 10
495.101306
 20
334.873774
 30
0.0
 11
495.101306
 21
333.07055
 31
0.0
  0
ARC
  5
36A
330
1F
100
AcDbEntity
  8
LC-003-002-RND-0
 62
     7
370
    50
100
AcDbCircle
 10
500.028566
 20
334.923487
 30
0.0
 40
1.000000000000063
100
AcDbArc
 50
90.5
 51
180.0
  0
LINE
  5
36B
102
{ACAD_REACTORS
330
4B0
102
}
330
1F
100
AcDbEntity
  8
LC-005-205-----0
 62
     7
370
    50
100
AcDbLine
 10
495.101306
 20
289.07055
 30
0.0
 11
495.101306
 21
287.459046
 31
0.0
  0
LINE
  5
36C
102
{ACAD_REACTORS
330
4B0
102
}
330
1F
100
AcDbEntity
  8
LC-005-205-----0
 62
     7
370
    50
100
AcDbLine
 10
484.101306
 20
286.259046
 30
0.0
 11
487.601306
 21
286.259046
 31
0.0
  0
ARC
  5
36D
102
{ACAD_REACTORS
330
4B0
102
}
330
1F
100
AcDbEntity
  8
LC-005-205-----0
 62
     7
370
    50
100
AcDbCircle
 10
487.601306
 20
285.759046
 30
0.0
 40
0.5
100
AcDbArc
 50
0.0
 51
90.0
  0
LINE
  5
36E
102
{ACAD_REACTORS
330
4B0
102
}
330
1F
100
AcDbEntity
  8
LC-005-205-----0
 62
     7
370
    50
100
AcDbLine
 10
488.101306
 20
285.759046
 30
0.0
 11
488.101306
 21
284.061532
 31
0.0
  0
ARC
  5
36F
330
1F
100
AcDbEntity
  8
LC-001-002-----0
 62
     7
370
    50
100
AcDbCircle
 10
477.549566
 20
311.246419
 30
0.0
 40
32.4999999999999
100
AcDbArc
 50
59.489763
 51
90.0
  0
ARC
  5
370
102
{ACAD_REACTORS
330
4B0
102
}
330
1F
100
AcDbEntity
  8
LC-005-205-----0
 62
     7
370
    50
100
AcDbCircle
 10
488.401306
 20
284.061532
 30
0.0
 40
0.2999999999997272
100
AcDbArc
 50
180.0
 51
291.837464
  0
ARC
  5
371
102
{ACAD_REACTORS
330
4B0
102
}
330
1F
100
AcDbEntity
  8
LC-005-205-----0
 62
     7
370
    50
100
AcDbCircle
 10
477.502442
 20
311.259046
 30
0.0
 40
29.60000000000002
100
AcDbArc
 50
291.837464
 51
306.481001
  0
LINE
  5
372
102
{ACAD_REACTORS
330
4B0
102
}
330
1F
100
AcDbEntity
  8
LC-001-002-----0
 62
     7
370
    50
100
AcDbLine
 10
445.001998
 20
289.07055
 30
0.0
 11
495.101306
 21
289.07055
 31
0.0
  0
ARC
  5
373
102
{ACAD_REACTORS
330
4B0
102
}
330
1F
100
AcDbEntity
  8
LC-005-205-----0
 62
     7
370
    50
100
AcDbCircle
 10
483.351306
 20
339.835329
 30
0.0
 40
0.25
100
AcDbArc
 50
0.0
 51
78.504265
  0
LINE
  5
374
102
{ACAD_REACTORS
330
4B0
102
}
330
1F
100
AcDbEntity
  8
LC-005-205-----0
 62
     7
370
    50
100
AcDbLine
 10
483.601306
 20
339.835329
 30
0.0
 11
483.601306
 21
336.57055
 31
0.0
  0
LINE
  5
375
102
{ACAD_REACTORS
330
4B0
102
}
330
1F
100
AcDbEntity
  8
LC-005-205-----0
 62
     7
370
    50
100
AcDbLine
 10
488.101306
 20
338.345242
 30
0.0
 11
488.101306
 21
336.57055
 31
0.0
  0
LINE
  5
376
102
{ACAD_REACTORS
330
4B0
102
}
330
1F
100
AcDbEntity
  8
LC-005-205-----0
 62
     7
370
    50
100
AcDbLine
 10
484.101306
 20
336.07055
 30
0.0
 11
487.601306
 21
336.07055
 31
0.0
  0
ARC
  5
377
102
{ACAD_REACTORS
330
4B0
102
}
330
1F
100
AcDbEntity
  8
LC-005-205-----0
 62
     7
370
    50
100
AcDbCircle
 10
484.101306
 20
336.57055
 30
0.0
 40
0.5
100
AcDbArc
 50
180.0
 51
270.0
  0
LINE
  5
378
102
{ACAD_REACTORS
330
4B0
102
}
330
1F
100
AcDbEntity
  8
LC-005-205-----0
 62
     7
370
    50
100
AcDbLine
 10
483.601306
 20
285.759046
 30
0.0
 11
483.601306
 21
282.49773
 31
0.0
  0
ARC
  5
379
102
{ACAD_REACTORS
330
4B0
102
}
330
1F
100
AcDbEntity
  8
LC-005-205-----0
 62
     7
370
    50
100
AcDbCircle
 10
484.101306
 20
285.759046
 30
0.0
 40
0.5
100
AcDbArc
 50
90.0
 51
180.0
  0
ARC
  5
37A
102
{ACAD_REACTORS
330
4B0
102
}
330
1F
100
AcDbEntity
  8
LC-005-205-----0
 62
     7
370
    50
100
AcDbCircle
 10
477.502442
 20
311.259046
 30
0.0
 40
29.60000000000006
100
AcDbArc
 50
238.647042
 51
281.49485
  0
ARC
  5
37B
102
{ACAD_REACTORS
330
4B0
102
}
330
1F
100
AcDbEntity
  8
LC-005-205-----0
 62
     7
370
    50
100
AcDbCircle
 10
488.351306
 20
338.345242
 30
0.0
 40
0.2500000000000429
100
AcDbArc
 50
68.305797
 51
180.0
  0
ARC
  5
37C
102
{ACAD_REACTORS
330
4B0
102
}
330
1F
100
AcDbEntity
  8
LC-005-205-----0
 62
     7
370
    50
100
AcDbCircle
 10
483.351306
 20
282.49773
 30
0.0
 40
0.2500000000000769
100
AcDbArc
 50
281.49485
 51
0.0
  0
LINE
  5
37D
102
{ACAD_REACTORS
330
4B0
102
}
330
1F
100
AcDbEntity
  8
LC-005-205-----0
 62
     7
370
    50
100
AcDbLine
 10
448.001998
 20
286.07055
 30
0.0
 11
459.601306
 21
286.07055
 31
0.0
  0
LINE
  5
37E
330
1F
100
AcDbEntity
  8
LC-001-002-----0
 62
     7
370
    50
100
AcDbLine
 10
469.049566
 20
278.746419
 30
0.0
 11
469.049566
 21
281.579771
 31
0.0
  0
LINE
  5
37F
330
1F
100
AcDbEntity
  8
LC-001-002-----0
 62
     7
370
    50
100
AcDbLine
 10
477.549566
 20
343.746419
 30
0.0
 11
469.049566
 21
343.746419
 31
0.0
  0
LINE
  5
380
330
1F
100
AcDbEntity
  8
LC-001-002-----0
 62
     7
370
    50
100
AcDbLine
 10
477.549566
 20
278.746419
 30
0.0
 11
469.049566
 21
278.746419
 31
0.0
  0
ARC
  5
381
330
1F
100
AcDbEntity
  8
LC-003-002-RND-0
  6
DASHED
 62
     7
370
    25
100
AcDbCircle
 10
524.583948
 20
266.550033
 30
0.0
 40
0.5000000000000152
100
AcDbArc
 50
165.0
 51
255.0
  0
LINE
  5
382
330
1F
100
AcDbEntity
  8
LC-001-002-----0
  6
DASHED
 62
     7
370
    25
100
AcDbLine
 10
524.454539
 20
266.06707
 30
0.0
 11
565.506386
 21
255.067261
 31
0.0
  0
ARC
  5
383
330
1F
100
AcDbEntity
  8
LC-003-002-RND-0
  6
DASHED
 62
     7
370
    25
100
AcDbCircle
 10
524.26507
 20
269.223667
 30
0.0
 40
0.5000000000000152
100
AcDbArc
 50
345.0
 51
75.0
  0
LINE
  5
384
330
1F
100
AcDbEntity
  8
LC-001-002-----0
  6
DASHED
 62
     7
370
    25
100
AcDbLine
 10
565.506386
 20
255.067261
 30
0.0
 11
566.282843
 21
257.965038
 31
0.0
  0
LINE
  5
385
330
1F
100
AcDbEntity
  8
LC-001-002-----0
  6
DASHED
 62
     7
370
    25
100
AcDbLine
 10
543.174953
 20
326.27335
 30
0.0
 11
581.811986
 21
315.920588
 31
0.0
  0
ARC
  5
386
330
1F
100
AcDbEntity
  8
LC-001-002-----0
 62
     7
370
    50
100
AcDbCircle
 10
477.549566
 20
311.246419
 30
0.0
 40
32.49999999999994
100
AcDbArc
 50
270.0
 51
300.510237
  0
LINE
  5
387
330
1F
100
AcDbEntity
  8
LC-001-002-----0
  6
DASHED
 62
     7
370
    25
100
AcDbLine
 10
543.822001
 20
328.688164
 30
0.0
 11
543.174953
 21
326.27335
 31
0.0
  0
LINE
  5
388
330
1F
100
AcDbEntity
  8
LC-001-002-----0
 62
     7
370
    50
100
AcDbLine
 10
499.028566
 20
287.569351
 30
0.0
 11
499.028566
 21
288.122956
 31
0.0
  0
LINE
  5
389
330
1F
100
AcDbEntity
  8
LC-001-002-----0
 62
     7
370
    50
100
AcDbLine
 10
499.028566
 20
334.369882
 30
0.0
 11
499.028566
 21
334.923487
 31
0.0
  0
INSERT
  5
3B4
330
1F
100
AcDbEntity
  8
LC-006-005-----0
 62
     7
370
    25
100
AcDbBlockReference
  2
*X1016
 10
0.0
 20
0.0
 30
0.0
  0
ARC
  5
3B5
330
1F
100
AcDbEntity
  8
LC-003-002-RND-0
  6
DASHED
 62
     7
370
    25
100
AcDbCircle
 10
543.339038
 20
328.817574
 30
0.0
 40
0.50000000000003
100
AcDbArc
 50
345.0
 51
75.0
  0
LINE
  5
3B6
330
1F
100
AcDbEntity
  8
LC-001-002-----0
 62
     7
370
    50
100
AcDbLine
 10
469.049566
 20
340.913067
 30
0.0
 11
469.049566
 21
343.746419
 31
0.0
  0
LINE
  5
3B7
330
1F
100
AcDbEntity
  8
LC-001-002-----0
  6
DASHED
 62
     7
370
    25
100
AcDbLine
 10
541.536596
 20
329.818175
 30
0.0
 11
543.468447
 21
329.300537
 31
0.0
  0
LINE
  5
3B8
330
1F
100
AcDbEntity
  8
LC-001-002-----0
 62
     7
370
    50
100
AcDbLine
 10
496.02835
 20
334.369882
 30
0.0
 11
499.028566
 21
334.369882
 31
0.0
  0
ARC
  5
3B9
330
1F
100
AcDbEntity
  8
LC-003-002-RND-0
 62
     7
370
    50
100
AcDbCircle
 10
470.049566
 20
340.913067
 30
0.0
 40
1.0
100
AcDbArc
 50
180.0
 51
284.187628
  0
ARC
  5
3BA
330
1F
100
AcDbEntity
  8
LC-001-002-----0
 62
     7
370
    50
100
AcDbCircle
 10
477.549566
 20
311.246419
 30
0.0
 40
29.59999999999994
100
AcDbArc
 50
255.812372
 51
290.717092
  0
LINE
  5
3BB
330
1F
100
AcDbEntity
  8
LC-001-002-----0
 62
     7
370
    50
100
AcDbLine
 10
496.02835
 20
288.122956
 30
0.0
 11
496.02835
 21
334.369882
 31
0.0
  0
LINE
  5
3BC
330
1F
100
AcDbEntity
  8
LC-001-002-----0
 62
     7
370
    50
100
AcDbLine
 10
496.02835
 20
288.122956
 30
0.0
 11
499.028566
 21
288.122956
 31
0.0
  0
LINE
  5
3BD
330
1F
100
AcDbEntity
  8
LC-001-002-----0
 62
     7
370
    50
100
AcDbLine
 10
537.049566
 20
345.246419
 30
0.0
 11
537.049566
 21
342.746419
 31
0.0
  0
ARC
  5
3BE
330
1F
100
AcDbEntity
  8
LC-003-002-RND-0
  6
DASHED
 62
     7
370
    25
100
AcDbCircle
 10
541.407186
 20
329.335212
 30
0.0
 40
0.5000000000000006
100
AcDbArc
 50
75.0
 51
165.0
  0
LINE
  5
3BF
330
1F
100
AcDbEntity
  8
LC-001-002-----0
  6
DASHED
 62
     7
370
    25
100
AcDbLine
 10
540.924223
 20
329.464621
 30
0.0
 11
539.500718
 21
324.152029
 31
0.0
  0
ARC
  5
3C0
330
1F
100
AcDbEntity
  8
LC-003-002-RND-0
  6
DASHED
 62
     7
370
    25
100
AcDbCircle
 10
539.017755
 20
324.281439
 30
0.0
 40
0.5000000000000006
100
AcDbArc
 50
255.0
 51
345.0
  0
LINE
  5
3C1
330
1F
100
AcDbEntity
  8
LC-001-002-----0
  6
DASHED
 62
     7
370
    25
100
AcDbLine
 10
500.734276
 20
334.021828
 30
0.0
 11
538.888346
 21
323.798476
 31
0.0
  0
ARC
  5
3C2
330
1F
100
AcDbEntity
  8
LC-001-002-----0
  6
DASHED
 62
     7
370
    25
100
AcDbCircle
 10
477.549566
 20
311.246419
 30
0.0
 40
32.49999999999999
100
AcDbArc
 50
44.489763
 51
48.226453
  0
LINE
  5
3C3
330
1F
100
AcDbEntity
  8
LC-001-002-----0
  6
DASHDOT
 62
     7
370
    25
100
AcDbLine
 10
573.659186
 20
285.493924
 30
0.0
 11
477.502442
 21
311.259046
 31
0.0
  0
LINE
  5
3C4
330
1F
100
AcDbEntity
  8
LC-001-002-----0
  6
DASHED
 62
     7
370
    25
100
AcDbLine
 10
566.282843
 20
257.965038
 30
0.0
 11
581.811986
 21
315.920588
 31
0.0
  0
LINE
  5
3C5
102
{ACAD_REACTORS
330
4B2
102
}
330
1F
100
AcDbEntity
  8
LC-006-005-----0
 62
     7
370
    25
100
AcDbLine
 10
494.707649
 20
333.07055
 30
0.0
 11
495.101306
 21
333.464207
 31
0.0
  0
LINE
  5
3C6
102
{ACAD_REACTORS
330
4B2
102
}
330
1F
100
AcDbEntity
  8
LC-006-005-----0
 62
     7
370
    25
100
AcDbLine
 10
491.879222
 20
333.07055
 30
0.0
 11
494.273066
 21
335.464395
 31
0.0
  0
LINE
  5
3C7
102
{ACAD_REACTORS
330
4B2
102
}
330
1F
100
AcDbEntity
  8
LC-006-005-----0
 62
     7
370
    25
100
AcDbLine
 10
489.050795
 20
333.07055
 30
0.0
 11
492.545992
 21
336.565748
 31
0.0
  0
LINE
  5
3C8
102
{ACAD_REACTORS
330
4B2
102
}
330
1F
100
AcDbEntity
  8
LC-006-005-----0
 62
     7
370
    25
100
AcDbLine
 10
486.222368
 20
333.07055
 30
0.0
 11
490.713517
 21
337.5617
 31
0.0
  0
LINE
  5
3C9
102
{ACAD_REACTORS
330
4B2
102
}
330
1F
100
AcDbEntity
  8
LC-006-005-----0
 62
     7
370
    25
100
AcDbLine
 10
483.393941
 20
333.07055
 30
0.0
 11
486.393941
 21
336.07055
 31
0.0
  0
LINE
  5
3CA
102
{ACAD_REACTORS
330
4B2
102
}
330
1F
100
AcDbEntity
  8
LC-006-005-----0
 62
     7
370
    25
100
AcDbLine
 10
488.101306
 20
337.777916
 30
0.0
 11
488.768797
 21
338.445406
 31
0.0
  0
LINE
  5
3CB
102
{ACAD_REACTORS
330
4B2
102
}
330
1F
100
AcDbEntity
  8
LC-006-005-----0
 62
     7
370
    25
100
AcDbLine
 10
480.565513
 20
333.07055
 30
0.0
 11
483.73031
 21
336.235346
 31
0.0
  0
LINE
  5
3CC
102
{ACAD_REACTORS
330
4B2
102
}
330
1F
100
AcDbEntity
  8
LC-006-005-----0
 62
     7
370
    25
100
AcDbLine
 10
477.737086
 20
333.07055
 30
0.0
 11
483.601306
 21
338.93477
 31
0.0
  0
LINE
  5
3CD
102
{ACAD_REACTORS
330
4B2
102
}
330
1F
100
AcDbEntity
  8
LC-006-005-----0
 62
     7
370
    25
100
AcDbLine
 10
474.908659
 20
333.07055
 30
0.0
 11
482.145648
 21
340.307539
 31
0.0
  0
LINE
  5
3CE
102
{ACAD_REACTORS
330
4B2
102
}
330
1F
100
AcDbEntity
  8
LC-006-005-----0
 62
     7
370
    25
100
AcDbLine
 10
472.080232
 20
333.07055
 30
0.0
 11
479.608607
 21
340.598926
 31
0.0
  0
LINE
  5
3CF
102
{ACAD_REACTORS
330
4B2
102
}
330
1F
100
AcDbEntity
  8
LC-006-005-----0
 62
     7
370
    25
100
AcDbLine
 10
469.251805
 20
333.07055
 30
0.0
 11
476.847962
 21
340.666708
 31
0.0
  0
LINE
  5
3D0
102
{ACAD_REACTORS
330
4B2
102
}
330
1F
100
AcDbEntity
  8
LC-006-005-----0
 62
     7
370
    25
100
AcDbLine
 10
466.423378
 20
333.07055
 30
0.0
 11
473.793511
 21
340.440683
 31
0.0
  0
LINE
  5
3D1
102
{ACAD_REACTORS
330
4B2
102
}
330
1F
100
AcDbEntity
  8
LC-006-005-----0
 62
     7
370
    25
100
AcDbLine
 10
460.766524
 20
333.07055
 30
0.0
 11
466.075678
 21
338.379705
 31
0.0
  0
LINE
  5
3D2
102
{ACAD_REACTORS
330
4B2
102
}
330
1F
100
AcDbEntity
  8
LC-006-005-----0
 62
     7
370
    25
100
AcDbLine
 10
457.938096
 20
333.07055
 30
0.0
 11
462.101306
 21
337.23376
 31
0.0
  0
LINE
  5
3D3
102
{ACAD_REACTORS
330
4B2
102
}
330
1F
100
AcDbEntity
  8
LC-006-005-----0
 62
     7
370
    25
100
AcDbLine
 10
455.109669
 20
333.07055
 30
0.0
 11
458.109669
 21
336.07055
 31
0.0
  0
LINE
  5
3D4
102
{ACAD_REACTORS
330
4B2
102
}
330
1F
100
AcDbEntity
  8
LC-006-005-----0
 62
     7
370
    25
100
AcDbLine
 10
459.601306
 20
337.562187
 30
0.0
 11
460.421174
 21
338.382055
 31
0.0
  0
LINE
  5
3D5
102
{ACAD_REACTORS
330
4B2
102
}
330
1F
100
AcDbEntity
  8
LC-006-005-----0
 62
     7
370
    25
100
AcDbLine
 10
452.281242
 20
333.07055
 30
0.0
 11
455.281242
 21
336.07055
 31
0.0
  0
LINE
  5
3D6
102
{ACAD_REACTORS
330
4B2
102
}
330
1F
100
AcDbEntity
  8
LC-006-005-----0
 62
     7
370
    25
100
AcDbLine
 10
460.262477
 20
341.051785
 30
0.0
 11
462.262477
 21
343.051785
 31
0.0
  0
LINE
  5
3D7
102
{ACAD_REACTORS
330
4B2
102
}
330
1F
100
AcDbEntity
  8
LC-006-005-----0
 62
     7
370
    25
100
AcDbLine
 10
449.452815
 20
333.07055
 30
0.0
 11
452.452815
 21
336.07055
 31
0.0
  0
DIMENSION
  5
3D8
330
1F
100
AcDbEntity
  8
LC-007-003-----0
 62
     7
370
    25
100
AcDbDimension
  2
*D17
 10
448.001998
 20
229.095955
 30
0.0
 11
393.001998
 21
259.895955
 31
0.0
 70
   160
  1
%%c<>
 71
     5
 42
110.0
  3
LC-DIM-L-0140-02-02
100
AcDbAlignedDimension
 13
338.001998
 23
284.582055
 33
0.0
 14
448.001998
 24
285.326303
 34
0.0
100
AcDbRotatedDimension
  0
LINE
  5
3E5
102
{ACAD_REACTORS
330
4AF
102
}
330
1F
100
AcDbEntity
  8
LC-001-002-----0
 62
     7
370
    50
100
AcDbLine
 10
468.549644
 20
348.746419
 30
0.0
 11
489.428453
 21
348.746419
 31
0.0
  0
LINE
  5
3E6
102
{ACAD_REACTORS
330
4AF
102
}
330
1F
100
AcDbEntity
  8
LC-001-002-----0
 62
     7
370
    50
100
AcDbLine
 10
457.613055
 20
341.051785
 30
0.0
 11
455.807688
 21
339.246419
 31
0.0
  0
LINE
  5
3E7
102
{ACAD_REACTORS
330
4AF
102
}
330
1F
100
AcDbEntity
  8
LC-001-002-----0
 62
     7
370
    50
100
AcDbLine
 10
455.807688
 20
339.246419
 30
0.0
 11
449.799566
 21
339.246419
 31
0.0
  0
LINE
  5
3E8
102
{ACAD_REACTORS
330
4AF
102
}
330
1F
100
AcDbEntity
  8
LC-001-002-----0
 62
     7
370
    50
100
AcDbLine
 10
449.799566
 20
339.246419
 30
0.0
 11
449.799566
 21
336.07055
 31
0.0
  0
LINE
  5
3E9
102
{ACAD_REACTORS
330
4AF
102
}
330
1F
100
AcDbEntity
  8
LC-001-002-----0
 62
     7
370
    50
100
AcDbLine
 10
449.799566
 20
336.496419
 30
0.0
 11
457.300284
 21
336.496419
 31
0.0
  0
LINE
  5
3EA
102
{ACAD_REACTORS
330
4AF
102
}
330
1F
100
AcDbEntity
  8
LC-001-002-----0
 62
     7
370
    50
100
AcDbLine
 10
457.300284
 20
336.496419
 30
0.0
 11
461.855651
 21
341.051785
 31
0.0
  0
LINE
  5
3EB
102
{ACAD_REACTORS
330
4AF
102
}
330
1F
100
AcDbEntity
  8
LC-001-002-----0
 62
     7
370
    50
100
AcDbLine
 10
468.549644
 20
345.746419
 30
0.0
 11
488.185812
 21
345.746419
 31
0.0
  0
LINE
  5
3EC
102
{ACAD_REACTORS
330
4AF
102
}
330
1F
100
AcDbEntity
  8
LC-001-002-----0
 62
     7
370
    50
100
AcDbLine
 10
488.185812
 20
345.746419
 30
0.0
 11
492.799566
 21
341.132665
 31
0.0
  0
LINE
  5
3ED
102
{ACAD_REACTORS
330
4AF
102
}
330
1F
100
AcDbEntity
  8
LC-001-002-----0
 62
     7
370
    50
100
AcDbLine
 10
492.799566
 20
339.946376
 30
0.0
 11
492.799566
 21
345.375305
 31
0.0
  0
LINE
  5
3EE
102
{ACAD_REACTORS
330
4AF
102
}
330
1F
100
AcDbEntity
  8
LC-001-002-----0
 62
     7
370
    50
100
AcDbLine
 10
492.799566
 20
345.375305
 30
0.0
 11
489.428453
 21
348.746419
 31
0.0
  0
LINE
  5
3EF
102
{ACAD_REACTORS
330
4AF
102
}
330
1F
100
AcDbEntity
  8
LC-001-002-----0
 62
     7
370
    50
100
AcDbLine
 10
492.799566
 20
282.546463
 30
0.0
 11
492.799566
 21
277.117532
 31
0.0
  0
LINE
  5
3F0
102
{ACAD_REACTORS
330
4AF
102
}
330
1F
100
AcDbEntity
  8
LC-001-002-----0
 62
     7
370
    50
100
AcDbLine
 10
492.799566
 20
277.117532
 30
0.0
 11
489.428453
 21
273.746419
 31
0.0
  0
LINE
  5
3F1
102
{ACAD_REACTORS
330
4AF
102
}
330
1F
100
AcDbEntity
  8
LC-001-002-----0
 62
     7
370
    50
100
AcDbLine
 10
465.307688
 20
273.746419
 30
0.0
 11
455.799566
 21
283.254496
 31
0.0
  0
LINE
  5
3F2
102
{ACAD_REACTORS
330
4AF
102
}
330
1F
100
AcDbEntity
  8
LC-001-002-----0
 62
     7
370
    50
100
AcDbLine
 10
455.799566
 20
283.254496
 30
0.0
 11
449.799566
 21
283.254496
 31
0.0
  0
LINE
  5
3F3
102
{ACAD_REACTORS
330
4AF
102
}
330
1F
100
AcDbEntity
  8
LC-001-002-----0
 62
     7
370
    50
100
AcDbLine
 10
449.799566
 20
283.254496
 30
0.0
 11
449.799566
 21
286.07055
 31
0.0
  0
LINE
  5
3F4
102
{ACAD_REACTORS
330
4AF
102
}
330
1F
100
AcDbEntity
  8
LC-001-002-----0
 62
     7
370
    50
100
AcDbLine
 10
449.799566
 20
285.996419
 30
0.0
 11
457.300284
 21
285.996419
 31
0.0
  0
LINE
  5
3F5
102
{ACAD_REACTORS
330
4AF
102
}
330
1F
100
AcDbEntity
  8
LC-001-002-----0
 62
     7
370
    50
100
AcDbLine
 10
457.300284
 20
285.996419
 30
0.0
 11
466.550284
 21
276.746419
 31
0.0
  0
LINE
  5
3F6
102
{ACAD_REACTORS
330
4AF
102
}
330
1F
100
AcDbEntity
  8
LC-001-002-----0
 62
     7
370
    50
100
AcDbLine
 10
466.550284
 20
276.746419
 30
0.0
 11
488.185812
 21
276.746419
 31
0.0
  0
LINE
  5
3F7
102
{ACAD_REACTORS
330
4AF
102
}
330
1F
100
AcDbEntity
  8
LC-001-002-----0
 62
     7
370
    50
100
AcDbLine
 10
488.185812
 20
276.746419
 30
0.0
 11
492.799566
 21
281.360173
 31
0.0
  0
LINE
  5
3F8
102
{ACAD_REACTORS
330
4AF
102
}
330
1F
100
AcDbEntity
  8
LC-001-002-----0
 62
     7
370
    50
100
AcDbLine
 10
465.307688
 20
273.746419
 30
0.0
 11
489.428453
 21
273.746419
 31
0.0
  0
LINE
  5
3F9
330
1F
100
AcDbEntity
  8
LC-001-002-----0
 62
     7
370
    50
100
AcDbLine
 10
488.185812
 20
341.956682
 30
0.0
 11
488.185812
 21
345.746419
 31
0.0
  0
DIMENSION
  5
3FA
330
1F
100
AcDbEntity
  8
LC-007-003-----0
 62
     7
370
    25
100
AcDbDimension
  2
*D18
 10
393.001998
 20
189.895955
 30
0.0
 11
337.998082
 21
220.695955
 31
0.0
 70
   160
  1
110
 71
     5
 42
110.007834
  3
LC-DIM-L-0140-02-02
100
AcDbAlignedDimension
 13
282.994165
 23
287.07055
 33
0.0
 14
393.001998
 24
245.895955
 34
0.0
100
AcDbRotatedDimension
  0
LINE
  5
407
330
1F
100
AcDbEntity
  8
LC-001-002-----0
 62
     7
370
    50
100
AcDbLine
 10
326.501977
 20
359.552476
 30
0.0
 11
326.501977
 21
357.052476
 31
0.0
  0
LINE
  5
408
330
1F
100
AcDbEntity
  8
LC-001-002-----0
 62
     7
370
    50
100
AcDbLine
 10
319.501977
 20
359.552476
 30
0.0
 11
319.501977
 21
357.052476
 31
0.0
  0
LINE
  5
409
330
1F
100
AcDbEntity
  8
LC-001-002-----0
 62
     7
370
    50
100
AcDbLine
 10
329.251977
 20
362.554892
 30
0.0
 11
329.251977
 21
359.552476
 31
0.0
  0
LINE
  5
40A
330
1F
100
AcDbEntity
  8
LC-001-002-----0
 62
     7
370
    50
100
AcDbLine
 10
316.751977
 20
362.554892
 30
0.0
 11
316.751977
 21
359.552476
 31
0.0
  0
ARC
  5
40B
330
1F
100
AcDbEntity
  8
LC-001-002-----0
 62
     7
370
    50
100
AcDbCircle
 10
335.501998
 20
355.524892
 30
0.0
 40
2.500000000001069
100
AcDbArc
 50
306.869898
 51
53.130102
  0
LINE
  5
40C
330
1F
100
AcDbEntity
  8
LC-001-002-----0
 62
    70
370
    50
100
AcDbLine
 10
335.018225
 20
362.554892
 30
0.0
 11
329.251977
 21
362.554892
 31
0.0
  0
LINE
  5
40D
330
1F
100
AcDbEntity
  8
LC-001-002-----0
 62
     7
370
    50
100
AcDbLine
 10
326.501977
 20
359.552476
 30
0.0
 11
319.501977
 21
359.552476
 31
0.0
  0
LINE
  5
40E
330
1F
100
AcDbEntity
  8
LC-001-002-----0
 62
     7
370
    50
100
AcDbLine
 10
319.501977
 20
359.552476
 30
0.0
 11
316.751977
 21
359.552476
 31
0.0
  0
LINE
  5
40F
330
1F
100
AcDbEntity
  8
LC-001-002-----0
 62
     7
370
    50
100
AcDbLine
 10
319.501977
 20
357.052476
 30
0.0
 11
312.251998
 21
357.052476
 31
0.0
  0
LINE
  5
410
330
1F
100
AcDbEntity
  8
LC-001-002-----0
 62
     7
370
    50
100
AcDbLine
 10
326.501977
 20
357.052476
 30
0.0
 11
319.501977
 21
357.052476
 31
0.0
  0
LINE
  5
411
330
1F
100
AcDbEntity
  8
LC-001-002-----0
 62
     7
370
    50
100
AcDbLine
 10
329.251977
 20
362.554892
 30
0.0
 11
326.027453
 21
362.554892
 31
0.0
  0
LINE
  5
412
330
1F
100
AcDbEntity
  8
LC-001-002-----0
 62
     7
370
    50
100
AcDbLine
 10
316.751977
 20
362.554892
 30
0.0
 11
289.028212
 21
362.554892
 31
0.0
  0
LINE
  5
413
330
1F
100
AcDbEntity
  8
LC-001-002-----0
 62
    70
370
    50
100
AcDbLine
 10
329.501505
 20
362.554892
 30
0.0
 11
329.501505
 21
357.052476
 31
0.0
  0
ARC
  5
414
330
1F
100
AcDbEntity
  8
LC-003-002-RND-0
 62
     7
370
    50
100
AcDbCircle
 10
337.501998
 20
367.209592
 30
0.0
 40
0.4999999999999994
100
AcDbArc
 50
60.0
 51
180.0
  0
LINE
  5
415
330
1F
100
AcDbEntity
  8
LC-006-005-----0
 62
     7
370
    25
100
AcDbLine
 10
291.025317
 20
362.554892
 30
0.0
 11
292.482148
 21
361.098061
 31
0.0
  0
LINE
  5
416
330
1F
100
AcDbEntity
  8
LC-006-005-----0
 62
     7
370
    25
100
AcDbLine
 10
295.267958
 20
362.554892
 30
0.0
 11
298.453764
 21
359.369085
 31
0.0
  0
LINE
  5
417
330
1F
100
AcDbEntity
  8
LC-006-005-----0
 62
     7
370
    25
100
AcDbLine
 10
299.510598
 20
362.554892
 30
0.0
 11
303.552428
 21
358.513062
 31
0.0
  0
LINE
  5
418
330
1F
100
AcDbEntity
  8
LC-006-005-----0
 62
     7
370
    25
100
AcDbLine
 10
303.753239
 20
362.554892
 30
0.0
 11
308.651092
 21
357.657038
 31
0.0
  0
LINE
  5
419
330
1F
100
AcDbEntity
  8
LC-006-005-----0
 62
     7
370
    25
100
AcDbLine
 10
307.99588
 20
362.554892
 30
0.0
 11
313.498295
 21
357.052476
 31
0.0
  0
LINE
  5
41A
330
1F
100
AcDbEntity
  8
LC-006-005-----0
 62
     7
370
    25
100
AcDbLine
 10
312.23852
 20
362.554892
 30
0.0
 11
317.740936
 21
357.052476
 31
0.0
  0
LINE
  5
41B
330
1F
100
AcDbEntity
  8
LC-006-005-----0
 62
     7
370
    25
100
AcDbLine
 10
316.481161
 20
362.554892
 30
0.0
 11
316.751977
 21
362.284076
 31
0.0
  0
LINE
  5
41C
330
1F
100
AcDbEntity
  8
LC-006-005-----0
 62
     7
370
    25
100
AcDbLine
 10
328.968858
 20
359.552476
 30
0.0
 11
329.501505
 21
358.019829
 31
0.0
  0
LINE
  5
41D
330
1F
100
AcDbEntity
  8
LC-006-005-----0
 62
     7
370
    25
100
AcDbLine
 10
329.251977
 20
362.511998
 30
0.0
 11
329.501505
 21
362.26247
 31
0.0
  0
LINE
  5
41E
330
1F
100
AcDbEntity
  8
LC-006-005-----0
 62
     7
370
    25
100
AcDbLine
 10
451.502111
 20
359.055803
 30
0.0
 11
451.97012
 21
358.587794
 31
0.0
  0
LINE
  5
41F
330
1F
100
AcDbEntity
  8
LC-006-005-----0
 62
     7
370
    25
100
AcDbLine
 10
452.245663
 20
362.554892
 30
0.0
 11
457.748079
 21
357.052476
 31
0.0
  0
LINE
  5
420
330
1F
100
AcDbEntity
  8
LC-006-005-----0
 62
     7
370
    25
100
AcDbLine
 10
456.488304
 20
362.554892
 30
0.0
 11
461.990719
 21
357.052476
 31
0.0
  0
LINE
  5
421
330
1F
100
AcDbEntity
  8
LC-006-005-----0
 62
     7
370
    25
100
AcDbLine
 10
460.730944
 20
362.554892
 30
0.0
 11
466.23336
 21
357.052476
 31
0.0
  0
LINE
  5
422
330
1F
100
AcDbEntity
  8
LC-006-005-----0
 62
     7
370
    25
100
AcDbLine
 10
464.973585
 20
362.554892
 30
0.0
 11
470.476001
 21
357.052476
 31
0.0
  0
LINE
  5
423
330
1F
100
AcDbEntity
  8
LC-006-005-----0
 62
     7
370
    25
100
AcDbLine
 10
469.216226
 20
362.554892
 30
0.0
 11
474.579681
 21
357.191437
 31
0.0
  0
LINE
  5
424
330
1F
100
AcDbEntity
  8
LC-006-005-----0
 62
     7
370
    25
100
AcDbLine
 10
473.458866
 20
362.554892
 30
0.0
 11
478.212415
 21
357.801343
 31
0.0
  0
LINE
  5
425
330
1F
100
AcDbEntity
  8
LC-006-005-----0
 62
     7
370
    25
100
AcDbLine
 10
477.701507
 20
362.554892
 30
0.0
 11
481.84515
 21
358.411249
 31
0.0
  0
LINE
  5
426
330
1F
100
AcDbEntity
  8
LC-006-005-----0
 62
     7
370
    25
100
AcDbLine
 10
481.944148
 20
362.554892
 30
0.0
 11
485.477884
 21
359.021155
 31
0.0
  0
LINE
  5
427
330
1F
100
AcDbEntity
  8
LC-006-005-----0
 62
     7
370
    25
100
AcDbLine
 10
486.186788
 20
362.554892
 30
0.0
 11
489.019979
 21
359.721701
 31
0.0
  0
LINE
  5
428
330
1F
100
AcDbEntity
  8
LC-006-005-----0
 62
     7
370
    25
100
AcDbLine
 10
490.429429
 20
362.554892
 30
0.0
 11
492.269225
 21
360.715095
 31
0.0
  0
LINE
  5
429
330
1F
100
AcDbEntity
  8
LC-006-005-----0
 62
     7
370
    25
100
AcDbLine
 10
494.67207
 20
362.554892
 30
0.0
 11
495.518472
 21
361.70849
 31
0.0
  0
LINE
  5
42A
330
1F
100
AcDbEntity
  8
LC-001-002-----0
 62
     7
370
    50
100
AcDbLine
 10
449.001998
 20
357.524892
 30
0.0
 11
337.001998
 21
357.524892
 31
0.0
  0
LINE
  5
42B
330
1F
100
AcDbEntity
  8
LC-001-002-----0
 62
     7
370
    50
100
AcDbLine
 10
337.001998
 20
353.524892
 30
0.0
 11
449.001998
 21
353.524892
 31
0.0
  0
LINE
  5
42C
330
1F
100
AcDbEntity
  8
LC-001-002-----0
 62
     7
370
    50
100
AcDbLine
 10
473.751998
 20
357.052476
 30
0.0
 11
453.002111
 21
357.052476
 31
0.0
  0
LINE
  5
42D
330
1F
100
AcDbEntity
  8
LC-001-002-----0
 62
     7
370
    50
100
AcDbLine
 10
312.251998
 20
357.052476
 30
0.0
 11
297.751998
 21
359.486906
 31
0.0
  0
LINE
  5
42E
330
1F
100
AcDbEntity
  8
LC-001-002-----0
 62
     7
370
    50
100
AcDbLine
 10
454.002111
 20
354.020264
 30
0.0
 11
454.002111
 21
352.020264
 31
0.0
  0
ARC
  5
42F
330
1F
100
AcDbEntity
  8
LC-001-002-----0
 62
     7
370
    50
100
AcDbCircle
 10
335.018225
 20
361.571343
 30
0.0
 40
0.9835487938923961
100
AcDbArc
 50
270.0
 51
90.0
  0
LINE
  5
430
330
1F
100
AcDbEntity
  8
LC-001-002-----0
 62
     7
370
    50
100
AcDbLine
 10
450.985772
 20
362.554892
 30
0.0
 11
496.975785
 21
362.554892
 31
0.0
  0
LINE
  5
431
330
1F
100
AcDbEntity
  8
LC-001-002-----0
 62
     7
370
    50
100
AcDbLine
 10
488.251998
 20
359.486906
 30
0.0
 11
473.751998
 21
357.052476
 31
0.0
  0
LINE
  5
432
330
1F
100
AcDbEntity
  8
LC-001-002-----0
 62
     7
370
    50
100
AcDbLine
 10
453.002111
 20
351.020264
 30
0.0
 11
454.002111
 21
352.020264
 31
0.0
  0
LINE
  5
433
330
1F
100
AcDbEntity
  8
LC-001-002-----0
 62
     7
370
    50
100
AcDbLine
 10
340.501998
 20
366.054892
 30
0.0
 11
445.501998
 21
366.054892
 31
0.0
  0
LINE
  5
434
330
1F
100
AcDbEntity
  8
LC-001-002-----0
 62
     7
370
    50
100
AcDbLine
 10
450.985772
 20
360.587794
 30
0.0
 11
451.502111
 21
360.587794
 31
0.0
  0
LINE
  5
435
330
1F
100
AcDbEntity
  8
LC-001-002-----0
 62
     7
370
    50
100
AcDbLine
 10
488.251998
 20
359.486906
 30
0.0
 11
496.83426
 21
362.110766
 31
0.0
  0
LINE
  5
436
330
1F
100
AcDbEntity
  8
LC-001-002-----0
 62
     7
370
    50
100
AcDbLine
 10
335.018225
 20
360.587794
 30
0.0
 11
334.501886
 21
360.587794
 31
0.0
  0
LINE
  5
437
330
1F
100
AcDbEntity
  8
LC-001-002-----0
 62
     7
370
    50
100
AcDbLine
 10
297.751998
 20
359.486906
 30
0.0
 11
289.169737
 21
362.110766
 31
0.0
  0
LINE
  5
438
330
1F
100
AcDbEntity
  8
LC-001-002-----0
 62
     7
370
    50
100
AcDbLine
 10
452.002111
 20
358.587794
 30
0.0
 11
451.502111
 21
358.587794
 31
0.0
  0
LINE
  5
439
330
1F
100
AcDbEntity
  8
LC-001-002-----0
 62
     7
370
    50
100
AcDbLine
 10
451.502111
 20
358.587794
 30
0.0
 11
451.502111
 21
360.587794
 31
0.0
  0
LINE
  5
43A
330
1F
100
AcDbEntity
  8
LC-001-002-----0
 62
     7
370
    50
100
AcDbLine
 10
334.001886
 20
358.587794
 30
0.0
 11
334.501886
 21
358.587794
 31
0.0
  0
LINE
  5
43B
330
1F
100
AcDbEntity
  8
LC-001-002-----0
 62
     7
370
    50
100
AcDbLine
 10
329.251977
 20
359.552476
 30
0.0
 11
326.501977
 21
359.552476
 31
0.0
  0
LINE
  5
43C
330
1F
100
AcDbEntity
  8
LC-001-002-----0
 62
     7
370
    50
100
AcDbLine
 10
334.501886
 20
358.587794
 30
0.0
 11
334.501886
 21
360.587794
 31
0.0
  0
LINE
  5
43D
330
1F
100
AcDbEntity
  8
LC-001-002-----0
 62
     7
370
    50
100
AcDbLine
 10
333.001886
 20
357.052476
 30
0.0
 11
326.501977
 21
357.052476
 31
0.0
  0
LINE
  5
43E
330
1F
100
AcDbEntity
  8
LC-001-002-----0
 62
     7
370
    50
100
AcDbLine
 10
334.001886
 20
358.587794
 30
0.0
 11
333.501886
 21
359.587794
 31
0.0
  0
LINE
  5
43F
330
1F
100
AcDbEntity
  8
LC-001-002-----0
 62
     7
370
    50
100
AcDbLine
 10
333.501886
 20
359.587794
 30
0.0
 11
331.50847
 21
359.587794
 31
0.0
  0
LINE
  5
440
330
1F
100
AcDbEntity
  8
LC-001-002-----0
 62
     7
370
    50
100
AcDbLine
 10
452.002111
 20
358.587794
 30
0.0
 11
452.502111
 21
359.587794
 31
0.0
  0
LINE
  5
441
330
1F
100
AcDbEntity
  8
LC-001-002-----0
 62
     7
370
    50
100
AcDbLine
 10
452.502111
 20
359.587794
 30
0.0
 11
454.495527
 21
359.587794
 31
0.0
  0
LINE
  5
442
330
1F
100
AcDbEntity
  8
LC-001-002-----0
 62
     7
370
    50
100
AcDbLine
 10
454.495527
 20
359.587794
 30
0.0
 11
454.495527
 21
357.052476
 31
0.0
  0
LINE
  5
443
330
1F
100
AcDbEntity
  8
LC-001-002-----0
 62
     7
370
    50
100
AcDbLine
 10
331.50847
 20
359.587794
 30
0.0
 11
331.50847
 21
357.052476
 31
0.0
  0
ARC
  5
444
330
1F
100
AcDbEntity
  8
LC-003-002-RND-0
 62
     7
370
    50
100
AcDbCircle
 10
289.228212
 20
362.302027
 30
0.0
 40
0.1999999999999318
100
AcDbArc
 50
180.0
 51
253.0
  0
LINE
  5
445
330
1F
100
AcDbEntity
  8
LC-001-002-----0
 62
     7
370
    50
100
AcDbLine
 10
289.028212
 20
362.302027
 30
0.0
 11
289.028212
 21
362.554892
 31
0.0
  0
LINE
  5
446
330
1F
100
AcDbEntity
  8
LC-001-002-----0
 62
     7
370
    50
100
AcDbLine
 10
454.002111
 20
354.020264
 30
0.0
 11
453.002111
 21
355.020264
 31
0.0
  0
ARC
  5
447
330
1F
100
AcDbEntity
  8
LC-003-002-RND-0
 62
     7
370
    50
100
AcDbCircle
 10
496.775785
 20
362.302027
 30
0.0
 40
0.1999999999999649
100
AcDbArc
 50
287.0
 51
0.0
  0
LINE
  5
448
330
1F
100
AcDbEntity
  8
LC-001-002-----0
 62
     7
370
    50
100
AcDbLine
 10
496.975785
 20
362.302027
 30
0.0
 11
496.975785
 21
362.554892
 31
0.0
  0
LINE
  5
449
330
1F
100
AcDbEntity
  8
LC-001-002-----0
 62
     7
370
    50
100
AcDbLine
 10
454.001998
 20
362.554892
 30
0.0
 11
454.001998
 21
368.054892
 31
0.0
  0
LINE
  5
44A
330
1F
100
AcDbEntity
  8
LC-001-002-----0
 62
     7
370
    50
100
AcDbLine
 10
338.001998
 20
351.020264
 30
0.0
 11
393.001998
 21
351.020264
 31
0.0
  0
LINE
  5
44B
330
1F
100
AcDbEntity
  8
LC-001-002-----0
 62
     7
370
    50
100
AcDbLine
 10
336.558623
 20
371.054892
 30
0.0
 11
448.677425
 21
371.054892
 31
0.0
  0
ARC
  5
44C
330
1F
100
AcDbEntity
  8
LC-001-002-----0
 62
     7
370
    50
100
AcDbCircle
 10
450.985772
 20
361.571343
 30
0.0
 40
0.9835487938923961
100
AcDbArc
 50
90.0
 51
270.0
  0
LINE
  5
44D
330
1F
100
AcDbEntity
  8
LC-001-002-----0
 62
     7
370
    50
100
AcDbLine
 10
450.985772
 20
360.587794
 30
0.0
 11
451.502111
 21
360.587794
 31
0.0
  0
LINE
  5
44E
330
1F
100
AcDbEntity
  8
LC-001-002-----0
 62
     7
370
    50
100
AcDbLine
 10
452.002111
 20
358.587794
 30
0.0
 11
451.502111
 21
358.587794
 31
0.0
  0
LINE
  5
44F
330
1F
100
AcDbEntity
  8
LC-001-002-----0
 62
     7
370
    50
100
AcDbLine
 10
451.502111
 20
358.587794
 30
0.0
 11
451.502111
 21
360.587794
 31
0.0
  0
LINE
  5
450
330
1F
100
AcDbEntity
  8
LC-001-002-----0
 62
     7
370
    50
100
AcDbLine
 10
452.002111
 20
358.587794
 30
0.0
 11
452.502111
 21
359.587794
 31
0.0
  0
LINE
  5
451
330
1F
100
AcDbEntity
  8
LC-001-002-----0
 62
     7
370
    50
100
AcDbLine
 10
452.502111
 20
359.587794
 30
0.0
 11
453.002111
 21
359.587794
 31
0.0
  0
LINE
  5
452
330
1F
100
AcDbEntity
  8
LC-001-002-----0
 62
     7
370
    50
100
AcDbLine
 10
453.002111
 20
351.020264
 30
0.0
 11
448.001998
 21
351.020264
 31
0.0
  0
LINE
  5
453
330
1F
100
AcDbEntity
  8
LC-001-002-----0
 62
     7
370
    50
100
AcDbLine
 10
448.001998
 20
351.020264
 30
0.0
 11
393.001998
 21
351.020264
 31
0.0
  0
LINE
  5
454
330
1F
100
AcDbEntity
  8
LC-001-002-----0
 62
     7
370
    50
100
AcDbLine
 10
453.002111
 20
359.587794
 30
0.0
 11
453.002111
 21
355.020264
 31
0.0
  0
LINE
  5
455
330
1F
100
AcDbEntity
  8
LC-001-002-----0
 62
     7
370
    50
100
AcDbLine
 10
450.985772
 20
362.554892
 30
0.0
 11
454.001998
 21
362.554892
 31
0.0
  0
ARC
  5
456
330
1F
100
AcDbEntity
  8
LC-001-002-----0
 62
     7
370
    50
100
AcDbCircle
 10
451.001998
 20
368.054892
 30
0.0
 40
3.0
100
AcDbArc
 50
0.0
 51
90.0
  0
ARC
  5
457
330
1F
100
AcDbEntity
  8
LC-001-002-----0
 62
     7
370
    50
100
AcDbCircle
 10
450.985772
 20
361.571343
 30
0.0
 40
0.9835487938923961
100
AcDbArc
 50
90.0
 51
270.0
  0
LINE
  5
458
330
1F
100
AcDbEntity
  8
LC-001-002-----0
 62
     7
370
    50
100
AcDbLine
 10
332.001998
 20
362.554892
 30
0.0
 11
332.001998
 21
368.054892
 31
0.0
  0
ARC
  5
459
330
1F
100
AcDbEntity
  8
LC-001-002-----0
 62
     7
370
    50
100
AcDbCircle
 10
335.018225
 20
361.571343
 30
0.0
 40
0.9835487938923961
100
AcDbArc
 50
270.0
 51
90.0
  0
LINE
  5
45A
330
1F
100
AcDbEntity
  8
LC-001-002-----0
 62
     7
370
    50
100
AcDbLine
 10
335.018225
 20
360.587794
 30
0.0
 11
334.501886
 21
360.587794
 31
0.0
  0
LINE
  5
45B
330
1F
100
AcDbEntity
  8
LC-001-002-----0
 62
     7
370
    50
100
AcDbLine
 10
334.001886
 20
358.587794
 30
0.0
 11
334.501886
 21
358.587794
 31
0.0
  0
LINE
  5
45C
330
1F
100
AcDbEntity
  8
LC-001-002-----0
 62
     7
370
    50
100
AcDbLine
 10
334.501886
 20
358.587794
 30
0.0
 11
334.501886
 21
360.587794
 31
0.0
  0
LINE
  5
45D
330
1F
100
AcDbEntity
  8
LC-001-002-----0
 62
     7
370
    50
100
AcDbLine
 10
334.001886
 20
358.587794
 30
0.0
 11
333.501886
 21
359.587794
 31
0.0
  0
LINE
  5
45E
330
1F
100
AcDbEntity
  8
LC-001-002-----0
 62
     7
370
    50
100
AcDbLine
 10
333.501886
 20
359.587794
 30
0.0
 11
333.001886
 21
359.587794
 31
0.0
  0
LINE
  5
45F
330
1F
100
AcDbEntity
  8
LC-001-002-----0
 62
     7
370
    50
100
AcDbLine
 10
335.018225
 20
362.554892
 30
0.0
 11
332.001998
 21
362.554892
 31
0.0
  0
ARC
  5
460
330
1F
100
AcDbEntity
  8
LC-003-002-RND-0
 62
     7
370
    50
100
AcDbCircle
 10
337.326572
 20
370.554892
 30
0.0
 40
0.4999999999998857
100
AcDbArc
 50
30.0
 51
90.0
  0
LINE
  5
461
330
1F
100
AcDbEntity
  8
LC-001-002-----0
 62
     7
370
    50
100
AcDbLine
 10
335.001998
 20
371.054892
 30
0.0
 11
336.558623
 21
371.054892
 31
0.0
  0
LINE
  5
462
330
1F
100
AcDbEntity
  8
LC-001-002-----0
 62
     7
370
    50
100
AcDbLine
 10
337.759585
 20
370.804892
 30
0.0
 11
340.501998
 21
366.054892
 31
0.0
  0
ARC
  5
463
330
1F
100
AcDbEntity
  8
LC-001-002-----0
 62
     7
370
    50
100
AcDbCircle
 10
335.001998
 20
368.054892
 30
0.0
 40
3.0
100
AcDbArc
 50
90.0
 51
180.0
  0
LINE
  5
464
330
1F
100
AcDbEntity
  8
LC-001-002-----0
 62
     7
370
    50
100
AcDbLine
 10
333.001886
 20
351.020264
 30
0.0
 11
338.001998
 21
351.020264
 31
0.0
  0
LINE
  5
465
330
1F
100
AcDbEntity
  8
LC-001-002-----0
 62
     7
370
    50
100
AcDbLine
 10
333.001886
 20
359.587794
 30
0.0
 11
333.001886
 21
355.020264
 31
0.0
  0
LINE
  5
466
330
1F
100
AcDbEntity
  8
LC-001-002-----0
 62
     7
370
    50
100
AcDbLine
 10
332.001886
 20
354.020264
 30
0.0
 11
332.001886
 21
352.020264
 31
0.0
  0
LINE
  5
467
330
1F
100
AcDbEntity
  8
LC-001-002-----0
 62
     7
370
    50
100
AcDbLine
 10
333.001886
 20
351.020264
 30
0.0
 11
332.001886
 21
352.020264
 31
0.0
  0
LINE
  5
468
330
1F
100
AcDbEntity
  8
LC-001-002-----0
 62
     7
370
    50
100
AcDbLine
 10
332.001886
 20
354.020264
 30
0.0
 11
333.001886
 21
355.020264
 31
0.0
  0
LINE
  5
469
330
1F
100
AcDbEntity
  8
LC-001-002-----0
 62
     7
370
    50
100
AcDbLine
 10
337.751998
 20
367.642605
 30
0.0
 11
340.501998
 21
366.054892
 31
0.0
  0
LINE
  5
46A
330
1F
100
AcDbEntity
  8
LC-001-002-----0
 62
     7
370
    50
100
AcDbLine
 10
337.001998
 20
367.209592
 30
0.0
 11
337.001998
 21
357.524892
 31
0.0
  0
LINE
  5
46B
330
1F
100
AcDbEntity
  8
LC-001-002-----0
 62
     7
370
    50
100
AcDbLine
 10
337.001998
 20
353.524892
 30
0.0
 11
337.001998
 21
351.020264
 31
0.0
  0
LINE
  5
46C
330
1F
100
AcDbEntity
  8
LC-001-002-----0
 62
     7
370
    50
100
AcDbLine
 10
449.001998
 20
367.209592
 30
0.0
 11
449.001998
 21
357.524892
 31
0.0
  0
ARC
  5
46D
330
1F
100
AcDbEntity
  8
LC-001-002-----0
 62
     7
370
    50
100
AcDbCircle
 10
450.501998
 20
355.524892
 30
0.0
 40
2.500000000001046
100
AcDbArc
 50
126.869898
 51
233.130102
  0
LINE
  5
46E
330
1F
100
AcDbEntity
  8
LC-001-002-----0
 62
     7
370
    50
100
AcDbLine
 10
449.001998
 20
353.524892
 30
0.0
 11
449.001998
 21
351.020264
 31
0.0
  0
LINE
  5
46F
330
1F
100
AcDbEntity
  8
LC-001-002-----0
 62
     7
370
    50
100
AcDbLine
 10
448.244412
 20
370.804892
 30
0.0
 11
445.501998
 21
366.054892
 31
0.0
  0
LINE
  5
470
330
1F
100
AcDbEntity
  8
LC-001-002-----0
 62
     7
370
    50
100
AcDbLine
 10
448.251998
 20
367.642605
 30
0.0
 11
445.501998
 21
366.054892
 31
0.0
  0
ARC
  5
471
330
1F
100
AcDbEntity
  8
LC-003-002-RND-0
 62
     7
370
    50
100
AcDbCircle
 10
448.501998
 20
367.209592
 30
0.0
 40
0.5
100
AcDbArc
 50
0.0
 51
120.0
  0
ARC
  5
472
330
1F
100
AcDbEntity
  8
LC-003-002-RND-0
 62
     7
370
    50
100
AcDbCircle
 10
448.677425
 20
370.554892
 30
0.0
 40
0.4999999999998863
100
AcDbArc
 50
90.0
 51
150.0
  0
LINE
  5
473
330
1F
100
AcDbEntity
  8
LC-001-002-----0
 62
     7
370
    50
100
AcDbLine
 10
451.001998
 20
371.054892
 30
0.0
 11
448.677425
 21
371.054892
 31
0.0
  0
INSERT
  5
480
330
1F
100
AcDbEntity
  8
LC-006-005-----0
 62
     7
370
    25
100
AcDbBlockReference
  2
*X1119
 10
0.0
 20
0.0
 30
0.0
  0
INSERT
  5
48E
330
1F
100
AcDbEntity
  8
LC-006-005-----0
 62
     7
370
    25
100
AcDbBlockReference
  2
*X1220
 10
0.0
 20
0.0
 30
0.0
  0
LINE
  5
48F
330
1F
100
AcDbEntity
  8
LC-001-002-----0
 62
     7
370
    50
100
AcDbLine
 10
329.001912
 20
358.052476
 30
0.0
 11
333.0018
 21
358.052476
 31
0.0
  0
LINE
  5
490
330
1F
100
AcDbEntity
  8
LC-001-002-----0
 62
     7
370
    50
100
AcDbLine
 10
319.797885
 20
362.554892
 30
0.0
 11
316.751977
 21
362.554892
 31
0.0
  0
LINE
  5
491
330
1F
100
AcDbEntity
  8
LC-001-002-----0
 62
     7
370
    50
100
AcDbLine
 10
323.71206
 20
362.554892
 30
0.0
 11
322.113326
 21
362.554892
 31
0.0
  0
DIMENSION
  5
492
330
1F
100
AcDbEntity
  8
LC-007-003-----0
 62
     7
370
    25
100
AcDbDimension
  2
*D21
 10
195.721998
 20
311.07055
 30
0.0
 11
164.921998
 21
383.13
 31
0.0
 70
   160
  1
48
 71
     5
 42
48.149166
 53
90.0
  3
LC-DIM-L-0140-02-02
100
AcDbAlignedDimension
 13
286.097363
 23
359.219716
 33
0.0
 14
280.994165
 24
311.07055
 34
0.0
 50
90.0
100
AcDbRotatedDimension
  0
DIMENSION
  5
4A0
330
1F
100
AcDbEntity
  8
LC-007-003-----0
 62
     7
370
    25
100
AcDbDimension
  2
*D22
 10
152.648218
 20
281.082055
 30
0.0
 11
121.848218
 21
318.227243
 31
0.0
 70
   160
  1
78
 71
     5
 42
78.137661
 53
90.0
  3
LC-DIM-L-0140-02-02
100
AcDbAlignedDimension
 13
286.097363
 23
359.219716
 33
0.0
 14
341.501998
 24
281.082055
 34
0.0
 50
90.0
100
AcDbRotatedDimension
  0
ENDSEC
  0
SECTION
  2
OBJECTS
  0
DICTIONARY
  5
C
330
0
100
AcDbDictionary
281
     1
  3
ACAD_GROUP
350
D
  3
ACAD_LAYOUT
350
1A
  3
ACAD_MLINESTYLE
350
17
  3
ACAD_PLOTSETTINGS
350
19
  3
ACAD_PLOTSTYLENAME
350
E
  0
DICTIONARY
  5
D
102
{ACAD_REACTORS
330
C
102
}
330
C
100
AcDbDictionary
281
     1
  3
LCGROUP1578
350
4B7
  3
LCGROUP1580
350
4B6
  3
LCGROUP1584
350
4BA
  3
LCGROUP1587
350
4B9
  3
LCGROUP1590
350
4B8
  3
LCGROUP1602
350
4C1
  3
LCGROUP1604
350
4C0
  3
LCGROUP1606
350
4BF
  3
LCGROUP1610
350
4BE
  3
LCGROUP1612
350
4BD
  3
LCGROUP1614
350
4BC
  3
LCGROUP1616
350
4C6
  3
LCGROUP1618
350
4C5
  3
LCGROUP1622
350
4C4
  3
LCGROUP2470
350
4B1
  3
LCGROUP2563
350
4B3
  3
LCGROUP2631
350
4B4
  3
LCGROUP2649
350
4B5
  3
LCGROUP2719
350
4C3
  3
LCGROUP2721
350
4AE
  3
LCGROUP2973
350
4BB
  3
LCGROUP2991
350
4C2
  3
LCGROUP2996
350
4AD
  3
LCGROUP3016
350
4B0
  3
LCGROUP3083
350
4B2
  3
LCGROUP3284
350
4AF
  0
DICTIONARY
  5
1A
102
{ACAD_REACTORS
330
C
102
}
330
C
100
AcDbDictionary
281
     1
  3
Layout1
350
1E
  3
Layout2
350
26
  3
Model
350
22
  0
DICTIONARY
  5
17
102
{ACAD_REACTORS
330
C
102
}
330
C
100
AcDbDictionary
281
     1
  3
Standard
350
18
  0
DICTIONARY
  5
19
102
{ACAD_REACTORS
330
C
102
}
330
C
100
AcDbDictionary
281
     1
  0
ACDBDICTIONARYWDFLT
  5
E
102
{ACAD_REACTORS
330
C
102
}
330
C
100
AcDbDictionary
281
     1
  3
Normal
350
F
100
AcDbDictionaryWithDefault
340
F
  0
GROUP
  5
4B7
102
{ACAD_REACTORS
330
D
102
}
330
D
100
AcDbGroup
300
GRP1578
 70
     1
 71
     1
340
3D
  0
GROUP
  5
4B6
102
{ACAD_REACTORS
330
D
102
}
330
D
100
AcDbGroup
300
GRP1580
 70
     1
 71
     1
340
3E
  0
GROUP
  5
4BA
102
{ACAD_REACTORS
330
D
102
}
330
D
100
AcDbGroup
300
GRP1584
 70
     1
 71
     1
340
3F
  0
GROUP
  5
4B9
102
{ACAD_REACTORS
330
D
102
}
330
D
100
AcDbGroup
300
GRP1587
 70
     1
 71
     1
340
40
  0
GROUP
  5
4B8
102
{ACAD_REACTORS
330
D
102
}
330
D
100
AcDbGroup
300
GRP1590
 70
     1
 71
     1
340
41
  0
GROUP
  5
4C1
102
{ACAD_REACTORS
330
D
102
}
330
D
100
AcDbGroup
300
GRP1602
 70
     1
 71
     1
340
42
  0
GROUP
  5
4C0
102
{ACAD_REACTORS
330
D
102
}
330
D
100
AcDbGroup
300
GRP1604
 70
     1
 71
     1
340
43
  0
GROUP
  5
4BF
102
{ACAD_REACTORS
330
D
102
}
330
D
100
AcDbGroup
300
GRP1606
 70
     1
 71
     1
340
44
  0
GROUP
  5
4BE
102
{ACAD_REACTORS
330
D
102
}
330
D
100
AcDbGroup
300
GRP1610
 70
     1
 71
     1
340
45
  0
GROUP
  5
4BD
102
{ACAD_REACTORS
330
D
102
}
330
D
100
AcDbGroup
300
GRP1612
 70
     1
 71
     1
340
46
  0
GROUP
  5
4BC
102
{ACAD_REACTORS
330
D
102
}
330
D
100
AcDbGroup
300
GRP1614
 70
     1
 71
     1
340
47
  0
GROUP
  5
4C6
102
{ACAD_REACTORS
330
D
102
}
330
D
100
AcDbGroup
300
GRP1616
 70
     1
 71
     1
340
48
  0
GROUP
  5
4C5
102
{ACAD_REACTORS
330
D
102
}
330
D
100
AcDbGroup
300
GRP1618
 70
     1
 71
     1
340
49
  0
GROUP
  5
4C4
102
{ACAD_REACTORS
330
D
102
}
330
D
100
AcDbGroup
300
GRP1622
 70
     1
 71
     1
340
4C
  0
GROUP
  5
4B1
102
{ACAD_REACTORS
330
D
102
}
330
D
100
AcDbGroup
300
ablaufschn
 70
     1
 71
     1
340
5A
340
71
340
D5
340
D7
340
F4
340
FC
340
112
340
113
340
114
340
125
340
17A
340
17B
340
17C
340
17E
340
17F
340
180
340
183
340
189
340
18A
340
1BF
340
1C0
340
1C1
340
1C2
340
1C4
340
1C5
340
1C6
340
1C7
340
1C8
340
1CA
340
1CB
340
1CC
340
1CD
340
1CE
340
1CF
340
1D0
340
1D1
340
1D2
340
1D3
340
1D4
340
1D5
340
1D6
340
1D7
340
1D8
  0
GROUP
  5
4B3
102
{ACAD_REACTORS
330
D
102
}
330
D
100
AcDbGroup
300
GRP2563
 70
     1
 71
     1
340
DA
340
10F
340
185
340
1F4
340
1F8
340
1F9
340
1FC
340
1FD
340
1FE
340
1FF
340
200
340
201
340
202
340
203
340
204
340
205
340
206
340
207
340
208
340
209
340
20A
340
20B
340
20C
340
20D
340
20E
340
20F
340
210
340
211
340
21F
340
245
340
246
340
247
  0
GROUP
  5
4B4
102
{ACAD_REACTORS
330
D
102
}
330
D
100
AcDbGroup
300
GRP2631
 70
     1
 71
     1
340
1FA
340
1FB
340
212
340
213
340
214
340
215
340
216
340
217
340
218
340
219
340
21A
340
21B
340
21C
340
21D
340
21E
340
220
340
221
340
222
340
223
340
224
340
225
340
226
340
227
340
228
340
229
340
22A
340
22B
340
22C
340
22D
340
22E
340
22F
340
230
340
231
340
232
340
233
340
234
340
235
340
236
340
237
340
238
340
239
340
23A
340
23B
340
23C
340
23D
340
23E
340
23F
340
240
340
241
340
242
340
243
340
244
  0
GROUP
  5
4B5
102
{ACAD_REACTORS
330
D
102
}
330
D
100
AcDbGroup
300
GRP2649
 70
     1
 71
     1
340
111
340
126
340
127
340
128
340
129
340
12A
340
12B
340
12C
340
12D
340
12E
340
12F
340
130
340
131
340
132
340
133
340
134
340
135
340
136
340
137
340
138
340
139
340
13A
340
14B
340
14C
340
14D
340
14E
340
14F
340
150
340
151
340
152
340
153
340
154
  0
GROUP
  5
4C3
102
{ACAD_REACTORS
330
D
102
}
330
D
100
AcDbGroup
300
ablaufschn
 70
     1
 71
     1
340
159
340
256
340
257
340
258
340
259
  0
GROUP
  5
4AE
102
{ACAD_REACTORS
330
D
102
}
330
D
100
AcDbGroup
300
GRP2721
 70
     1
 71
     1
340
15A
340
15B
340
15C
340
15D
340
15E
340
15F
340
160
340
161
340
162
340
163
340
164
340
165
340
166
340
167
340
168
340
169
340
16A
340
16B
340
16C
340
16D
340
16E
340
16F
340
170
340
171
340
172
340
173
340
174
340
175
340
176
340
177
340
178
340
179
340
17D
340
181
340
182
340
184
340
186
340
187
340
188
340
18B
340
19E
340
1A2
340
1A3
340
1A4
340
1A5
340
1A6
340
1A7
340
1A8
340
1A9
340
1BD
340
1BE
340
1C3
340
1C9
340
1D9
340
1DA
340
1DB
340
1DC
340
1F5
340
1F6
340
1F7
  0
GROUP
  5
4BB
102
{ACAD_REACTORS
330
D
102
}
330
D
100
AcDbGroup
300
GRP2973
 70
     1
 71
     1
340
25E
340
25F
340
260
340
261
340
262
340
263
340
264
340
265
340
266
340
267
340
268
340
269
340
26A
340
26B
340
26C
340
294
  0
GROUP
  5
4C2
102
{ACAD_REACTORS
330
D
102
}
330
D
100
AcDbGroup
300
ablaufschn
 70
     1
 71
     1
340
295
340
296
340
297
340
298
  0
GROUP
  5
4AD
102
{ACAD_REACTORS
330
D
102
}
330
D
100
AcDbGroup
300
Deckel SN
 70
     1
 71
     1
340
299
340
29A
  0
GROUP
  5
4B0
102
{ACAD_REACTORS
330
D
102
}
330
D
100
AcDbGroup
300
ablaufschn
 70
     1
 71
     1
340
2A4
340
2AB
340
34E
340
353
340
358
340
359
340
366
340
367
340
368
340
369
340
36B
340
36C
340
36D
340
36E
340
370
340
371
340
372
340
373
340
374
340
375
340
376
340
377
340
378
340
379
340
37A
340
37B
340
37C
340
37D
  0
GROUP
  5
4B2
102
{ACAD_REACTORS
330
D
102
}
330
D
100
AcDbGroup
300
GRP3083
 70
     1
 71
     1
340
3C5
340
3C6
340
3C7
340
3C8
340
3C9
340
3CA
340
3CB
340
3CC
340
3CD
340
3CE
340
3CF
340
3D0
340
3D1
340
3D2
340
3D3
340
3D4
340
3D5
340
3D6
340
3D7
  0
GROUP
  5
4AF
102
{ACAD_REACTORS
330
D
102
}
330
D
100
AcDbGroup
300
rohrschelle
 70
     1
 71
     1
340
3E5
340
3E6
340
3E7
340
3E8
340
3E9
340
3EA
340
3EB
340
3EC
340
3ED
340
3EE
340
3EF
340
3F0
340
3F1
340
3F2
340
3F3
340
3F4
340
3F5
340
3F6
340
3F7
340
3F8
  0
LAYOUT
  5
1E
102
{ACAD_REACTORS
330
1A
102
}
330
1A
100
AcDbPlotSettings
  1

  2

  4

  6

 40
0.0
 41
0.0
 42
0.0
 43
0.0
 44
0.0
 45
0.0
 46
0.0
 47
0.0
 48
0.0
 49
0.0
140
0.0
141
0.0
142
1.0
143
1.0
 70
   688
 72
     0
 73
     0
 74
     5
  7

 75
    16
147
1.0
148
0.0
149
0.0
100
AcDbLayout
  1
Layout1
 70
     1
 71
     1
 10
0.0
 20
0.0
 11
840.0
 21
594.0
 12
0.0
 22
0.0
 32
0.0
 14
0.0
 24
0.0
 34
0.0
 15
840.0
 25
594.0
 35
0.0
146
0.0
 13
0.0
 23
0.0
 33
0.0
 16
1.0
 26
0.0
 36
0.0
 17
0.0
 27
1.0
 37
0.0
 76
     0
330
1B
  0
LAYOUT
  5
26
102
{ACAD_REACTORS
330
1A
102
}
330
1A
100
AcDbPlotSettings
  1

  2

  4

  6

 40
0.0
 41
0.0
 42
0.0
 43
0.0
 44
0.0
 45
0.0
 46
0.0
 47
0.0
 48
0.0
 49
0.0
140
0.0
141
0.0
142
1.0
143
1.0
 70
   688
 72
     0
 73
     0
 74
     5
  7

 75
    16
147
1.0
148
0.0
149
0.0
100
AcDbLayout
  1
Layout2
 70
     1
 71
     2
 10
0.0
 20
0.0
 11
0.0
 21
0.0
 12
0.0
 22
0.0
 32
0.0
 14
0.0
 24
0.0
 34
0.0
 15
0.0
 25
0.0
 35
0.0
146
0.0
 13
0.0
 23
0.0
 33
0.0
 16
1.0
 26
0.0
 36
0.0
 17
0.0
 27
1.0
 37
0.0
 76
     0
330
23
  0
LAYOUT
  5
22
102
{ACAD_REACTORS
330
1A
102
}
330
1A
100
AcDbPlotSettings
  1

  2

  4

  6

 40
0.0
 41
0.0
 42
0.0
 43
0.0
 44
0.0
 45
0.0
 46
0.0
 47
0.0
 48
0.0
 49
0.0
140
0.0
141
0.0
142
1.0
143
1.0
 70
  1776
 72
     0
 73
     0
 74
     0
  7

 75
     0
147
1.0
148
0.0
149
0.0
100
AcDbLayout
  1
Model
 70
     1
 71
     0
 10
0.0
 20
0.0
 11
840.0
 21
594.0
 12
0.0
 22
0.0
 32
0.0
 14
0.0
 24
0.0
 34
0.0
 15
840.0
 25
594.0
 35
0.0
146
0.0
 13
0.0
 23
0.0
 33
0.0
 16
1.0
 26
0.0
 36
0.0
 17
0.0
 27
1.0
 37
0.0
 76
     0
330
1F
  0
MLINESTYLE
  5
18
102
{ACAD_REACTORS
330
17
102
}
330
17
100
AcDbMlineStyle
  2
Standard
 70
     0
  3

 62
   256
 51
90.0
 52
90.0
 71
     2
 49
0.5
 62
   256
  6
BYLAYER
 49
-0.5
 62
   256
  6
BYLAYER
  0
ACDBPLACEHOLDER
  5
F
102
{ACAD_REACTORS
330
E
102
}
330
E
  0
ENDSEC
  0
EOF
