  0
SECTION
  2
HEADER
  9
$ACADVER
  1
AC1009
  9
$INSBASE
 10
0.0
 20
0.0
 30
0.0
  9
$EXTMIN
 10
-210.0
 20
-148.5
 30
0.0
  9
$EXTMAX
 10
630.0
 20
445.5
 30
0.0
  9
$LIMMIN
 10
-210.0
 20
-148.5
  9
$LIMMAX
 10
630.0
 20
445.5
  9
$ORTHOMODE
 70
     0
  9
$REGENMODE
 70
     1
  9
$FILLMODE
 70
     1
  9
$QTEXTMODE
 70
     0
  9
$MIRRTEXT
 70
     1
  9
$DRAGMODE
 70
     2
  9
$LTSCALE
 40
2.0
  9
$OSMODE
 70
     0
  9
$ATTMODE
 70
     1
  9
$TEXTSIZE
 40
0.2
  9
$TRACEWID
 40
0.05
  9
$TEXTSTYLE
  7
STANDARD
  9
$CLAYER
  8
0
  9
$CELTYPE
  6
BYLAYER
  9
$CECOLOR
 62
     7
  9
$DIMSCALE
 40
2.0
  9
$DIMASZ
 40
3.5
  9
$DIMEXO
 40
0.0625
  9
$DIMDLI
 40
0.38
  9
$DIMRND
 40
0.0
  9
$DIMDLE
 40
0.0
  9
$DIMEXE
 40
0.18
  9
$DIMTP
 40
0.0
  9
$DIMTM
 40
0.0
  9
$DIMTXT
 40
3.5
  9
$DIMCEN
 40
0.09
  9
$DIMTSZ
 40
0.0
  9
$DIMTOL
 70
     0
  9
$DIMLIM
 70
     0
  9
$DIMTIH
 70
     1
  9
$DIMTOH
 70
     1
  9
$DIMSE1
 70
     0
  9
$DIMSE2
 70
     0
  9
$DIMTAD
 70
     1
  9
$DIMZIN
 70
     0
  9
$DIMBLK
  1

  9
$DIMASO
 70
     1
  9
$DIMSHO
 70
     1
  9
$DIMPOST
  1

  9
$DIMAPOST
  1

  9
$DIMALT
 70
     0
  9
$DIMALTD
 70
     2
  9
$DIMALTF
 40
25.4
  9
$DIMLFAC
 40
1.0
  9
$DIMTOFL
 70
     0
  9
$DIMTVP
 40
0.0
  9
$DIMTIX
 70
     0
  9
$DIMSOXD
 70
     0
  9
$DIMSAH
 70
     0
  9
$DIMBLK1
  1

  9
$DIMBLK2
  1

  9
$DIMSTYLE
  2
STANDARD
  9
$DIMCLRD
 70
     0
  9
$DIMCLRE
 70
     0
  9
$DIMCLRT
 70
     0
  9
$DIMTFAC
 40
1.0
  9
$DIMGAP
 40
0.09
  9
$LUNITS
 70
     2
  9
$LUPREC
 70
     2
  9
$AXISMODE
 70
     0
  9
$AXISUNIT
 10
0.0
 20
0.0
  9
$SKETCHINC
 40
0.1
  9
$FILLETRAD
 40
0.0
  9
$AUNITS
 70
     0
  9
$AUPREC
 70
     0
  9
$MENU
  1
acad
  9
$ELEVATION
 40
0.0
  9
$PELEVATION
 40
0.0
  9
$THICKNESS
 40
0.0
  9
$LIMCHECK
 70
     0
  9
$BLIPMODE
 70
     1
  9
$CHAMFERA
 40
0.0
  9
$CHAMFERB
 40
0.0
  9
$SKPOLY
 70
     0
  9
$TDCREATE
 40
0.000000000
  9
$TDUPDATE
 40
0.000000000
  9
$TDINDWG
 40
0.0000000000
  9
$TDUSRTIMER
 40
0.0000000000
  9
$USRTIMER
 70
     1
  9
$ANGBASE
 50
0.0
  9
$ANGDIR
 70
     0
  9
$PDMODE
 70
     0
  9
$PDSIZE
 40
0.0
  9
$PLINEWID
 40
0.0
  9
$COORDS
 70
     0
  9
$SPLFRAME
 70
     0
  9
$SPLINETYPE
 70
     6
  9
$SPLINESEGS
 70
     8
  9
$ATTDIA
 70
     0
  9
$ATTREQ
 70
     1
  9
$HANDLING
 70
     1
  9
$HANDSEED
  5
182
  9
$SURFTAB1
 70
     6
  9
$SURFTAB2
 70
     6
  9
$SURFTYPE
 70
     6
  9
$SURFU
 70
     6
  9
$SURFV
 70
     6
  9
$UCSNAME
  2

  9
$UCSORG
 10
0.0
 20
0.0
 30
0.0
  9
$UCSXDIR
 10
1.0
 20
0.0
 30
0.0
  9
$UCSYDIR
 10
0.0
 20
1.0
 30
0.0
  9
$PUCSNAME
  2

  9
$PUCSORG
 10
0.0
 20
0.0
 30
0.0
  9
$PUCSXDIR
 10
1.0
 20
0.0
 30
0.0
  9
$PUCSYDIR
 10
0.0
 20
1.0
 30
0.0
  9
$USERI1
 70
     0
  9
$USERI2
 70
     0
  9
$USERI3
 70
     0
  9
$USERI4
 70
     0
  9
$USERI5
 70
     0
  9
$USERR1
 40
0.0
  9
$USERR2
 40
0.0
  9
$USERR3
 40
0.0
  9
$USERR4
 40
0.0
  9
$USERR5
 40
0.0
  9
$WORLDVIEW
 70
     1
  9
$SHADEDGE
 70
     3
  9
$SHADEDIF
 70
    70
  9
$TILEMODE
 70
     1
  9
$MAXACTVP
 70
    16
  9
$PINSBASE
 10
0.0
 20
0.0
 30
0.0
  9
$PLIMCHECK
 70
     0
  9
$PEXTMIN
 10
1.000000E+20
 20
1.000000E+20
 30
1.000000E+20
  9
$PEXTMAX
 10
-1.000000E+20
 20
-1.000000E+20
 30
-1.000000E+20
  9
$PLIMMIN
 10
-210.0
 20
-148.5
  9
$PLIMMAX
 10
630.0
 20
445.5
  9
$UNITMODE
 70
     0
  9
$VISRETAIN
 70
     0
  9
$PLINEGEN
 70
     1
  9
$PSLTSCALE
 70
     0
  9
$TREEDEPTH
 70
  3020
  9
$DWGCODEPAGE
  3
dos850
  0
ENDSEC
  0
SECTION
  2
TABLES
  0
TABLE
  2
VPORT
 70
     1
  0
VPORT
  2
*ACTIVE
 70
     0
 10
0.0
 20
0.0
 11
1.0
 21
1.0
 12
420.0
 22
297.0
 13
0.0
 23
0.0
 14
1.0
 24
1.0
 15
0.0
 25
0.0
 16
0.0
 26
0.0
 36
1.0
 17
-210.0
 27
-148.5
 37
0.0
 40
594.0
 41
1.604229
 42
50.0
 43
0.0
 44
0.0
 50
0.0
 51
0.0
 71
     0
 72
   100
 73
     1
 74
     1
 75
     0
 76
     0
 77
     0
 78
     0
  0
ENDTAB
  0
TABLE
  2
LTYPE
 70
     2
  0
LTYPE
  2
CONTINUOUS
 70
    64
  3
Solid line
 72
    65
 73
     0
 40
0.0
  0
LTYPE
  2
DASHDOT
 70
    64
  3
__ . __ . __ . __ . __
 72
    65
 73
     4
 40
7.5
 49
5.0
 49
-1.25
 49
0.0
 49
-1.25
  0
ENDTAB
  0
TABLE
  2
LAYER
 70
    11
  0
LAYER
  2
0
 70
     0
 62
     7
  6
CONTINUOUS
  0
LAYER
  2
LC-INFO-1-2-MM-A3-0
 70
     1
 62
    -1
  6
CONTINUOUS
  0
LAYER
  2
LC-004-005-----0
 70
     0
 62
     2
  6
CONTINUOUS
  0
LAYER
  2
LC-007-003-MTH-0
 70
     0
 62
     2
  6
CONTINUOUS
  0
LAYER
  2
LC-006-003-----0
 70
     0
 62
     2
  6
CONTINUOUS
  0
LAYER
  2
LC-008-003-MTG-0
 70
     0
 62
     2
  6
CONTINUOUS
  0
LAYER
  2
LC-001-001-----0
 70
     0
 62
     2
  6
CONTINUOUS
  0
LAYER
  2
LC-003-000-----0
 70
     0
 62
     7
  6
CONTINUOUS
  0
LAYER
  2
LC-002-002-----0
 70
     0
 62
     1
  6
CONTINUOUS
  0
LAYER
  2
LC-005-001-RND-0
 70
     0
 62
     1
  6
CONTINUOUS
  0
LAYER
  2
LC-000
 70
     0
 62
     7
  6
CONTINUOUS
  0
ENDTAB
  0
TABLE
  2
STYLE
 70
     4
  0
STYLE
  2
STANDARD
 70
     0
 40
0.0
 41
1.0
 50
0.0
 71
     0
 42
0.0
  3
txt
  4

  0
STYLE
  2
LC-STANDARD
 70
    64
 40
0.0
 41
1.0
 50
0.0
 71
     0
 42
3.5
  3
MONOTXT
  4

  0
STYLE
  2
LC-TXTSTYLE-150-400-0-0-A2
 70
    64
 40
0.0
 41
1.0
 50
15.0
 71
     0
 42
3.5
  3
MONOTXT
  4

  0
STYLE
  2
LC-TXTSTYLE-150-400-0-0-D3
 70
    64
 40
0.0
 41
1.0
 50
15.0
 71
     0
 42
3.5
  3
LC-STANDARD
  4

  0
ENDTAB
  0
TABLE
  2
VIEW
 70
     0
  0
ENDTAB
  0
TABLE
  2
UCS
 70
     0
  0
ENDTAB
  0
TABLE
  2
APPID
 70
     1
  0
APPID
  2
ACAD
 70
     0
  0
ENDTAB
  0
TABLE
  2
DIMSTYLE
 70
     4
  0
DIMSTYLE
  2
STANDARD
 70
     0
  3

  4

  5

  6

  7

 40
1.0
 41
0.18
 42
0.0625
 43
0.38
 44
0.18
 45
0.0
 46
0.0
 47
0.0
 48
0.0
 71
     0
 72
     0
 73
     1
 74
     1
 75
     0
 76
     0
 77
     0
 78
     0
140
0.18
141
0.09
142
0.0
143
25.4
144
1.0
145
0.0
146
1.0
147
0.09
170
     0
171
     2
172
     0
173
     0
174
     0
175
     0
176
     0
177
     0
178
     0
  0
DIMSTYLE
  2
LC-STANDARD
 70
     0
  3

  4

  5

  6

  7

 40
1.0
 41
3.5
 42
0.0
 43
7.5
 44
1.8
 45
0.0
 46
0.0
 47
0.0
 48
0.0
 71
     0
 72
     0
 73
     0
 74
     0
 75
     0
 76
     0
 77
     1
 78
     8
140
3.5
141
0.0
142
0.0
143
25.4
144
1.0
145
0.0
146
0.71
147
1.5
170
     0
171
     2
172
     1
173
     0
174
     0
175
     0
176
     0
177
     0
178
     3
  0
DIMSTYLE
  2
LC-DIM-L-0140-01-02
 70
     0
  3

  4

  5

  6

  7

 40
2.0
 41
3.5
 42
0.0
 43
7.5
 44
1.8
 45
0.0
 46
0.0
 47
0.0
 48
0.0
 71
     0
 72
     0
 73
     0
 74
     0
 75
     0
 76
     0
 77
     1
 78
     8
140
14.0
141
0.0
142
0.0
143
25.4
144
1.0
145
0.0
146
0.71
147
1.5
170
     0
171
     2
172
     0
173
     0
174
     0
175
     0
176
     2
177
     2
178
     8
  0
DIMSTYLE
  2
LC-DIM-L-0140-02-02
 70
     0
  3

  4

  5

  6

  7

 40
2.0
 41
3.5
 42
0.0
 43
7.5
 44
1.8
 45
0.0
 46
0.0
 47
0.0
 48
0.0
 71
     0
 72
     0
 73
     0
 74
     0
 75
     0
 76
     0
 77
     1
 78
     8
140
14.0
141
0.0
142
0.0
143
25.4
144
1.0
145
0.0
146
0.71
147
1.5
170
     0
171
     2
172
     0
173
     0
174
     0
175
     0
176
     2
177
     2
178
     8
  0
ENDTAB
  0
ENDSEC
  0
SECTION
  2
BLOCKS
  0
BLOCK
  8
0
  5
24
  2
SYM1
 70
    64
 10
-82.706211
 20
-213.357801
 30
0.0
  3
SYM1
  0
ENDBLK
  8
0
  5
25
  0
BLOCK
  8
0
  5
27
  2
SYM2
 70
    64
 10
-82.706211
 20
-213.357801
 30
0.0
  3
SYM2
  0
ENDBLK
  8
0
  5
28
  0
BLOCK
  8
0
  5
2A
  2
SYM3
 70
    64
 10
1170.098031
 20
-213.357801
 30
0.0
  3
SYM3
  0
ENDBLK
  8
0
  5
2B
  0
BLOCK
  8
0
  5
2D
  2
SYM4
 70
    64
 10
-76.005598
 20
-213.357801
 30
0.0
  3
SYM4
  0
ENDBLK
  8
0
  5
2E
  0
BLOCK
  8
0
  5
30
  2
BLK1
 70
    64
 10
0.0
 20
0.0
 30
0.0
  3
BLK1
  0
ENDBLK
  8
0
  5
31
  0
BLOCK
  8
0
  5
33
  2
*X5
 70
    65
 10
67.058701
 20
178.268755
 30
0.0
  3
*X5
  0
LINE
  8
LC-004-005-----0
  6
CONTINUOUS
  5
35
 10
77.581383
 20
179.40476
 30
0.0
 11
78.127527
 21
179.950904
 31
0.0
  0
LINE
  8
LC-004-005-----0
  6
CONTINUOUS
  5
36
 10
76.826747
 20
181.478551
 30
0.0
 11
78.258701
 21
182.910505
 31
0.0
  0
LINE
  8
LC-004-005-----0
  6
CONTINUOUS
  5
37
 10
77.558701
 20
185.038932
 30
0.0
 11
78.258701
 21
185.738932
 31
0.0
  0
LINE
  8
LC-004-005-----0
  6
CONTINUOUS
  5
38
 10
77.206449
 20
187.515107
 30
0.0
 11
77.726078
 21
188.034736
 31
0.0
  0
LINE
  8
LC-004-005-----0
  6
CONTINUOUS
  5
39
 10
74.697901
 20
187.834986
 30
0.0
 11
75.207784
 21
188.344869
 31
0.0
  0
LINE
  8
LC-004-005-----0
  6
CONTINUOUS
  5
3A
 10
73.958701
 20
189.924213
 30
0.0
 11
74.658701
 21
190.624213
 31
0.0
  0
LINE
  8
LC-004-005-----0
  6
CONTINUOUS
  5
3B
 10
73.958701
 20
192.75264
 30
0.0
 11
74.658701
 21
193.45264
 31
0.0
  0
LINE
  8
LC-004-005-----0
  6
CONTINUOUS
  5
3C
 10
70.258701
 20
191.881067
 30
0.0
 11
71.259171
 21
192.881537
 31
0.0
  0
LINE
  8
LC-004-005-----0
  6
CONTINUOUS
  5
3D
 10
73.958701
 20
195.581067
 30
0.0
 11
74.658701
 21
196.281067
 31
0.0
  0
LINE
  8
LC-004-005-----0
  6
CONTINUOUS
  5
3E
 10
70.758701
 20
195.209495
 30
0.0
 11
71.458701
 21
195.909495
 31
0.0
  0
LINE
  8
LC-004-005-----0
  6
CONTINUOUS
  5
3F
 10
73.079338
 20
197.530132
 30
0.0
 11
73.642885
 21
198.093678
 31
0.0
  0
ENDBLK
  8
0
  5
40
  0
BLOCK
  8
0
  5
42
  2
*X6
 70
    65
 10
162.908423
 20
178.268755
 30
0.0
  3
*X6
  0
LINE
  8
LC-004-005-----0
  6
CONTINUOUS
  5
43
 10
163.624232
 20
180.594795
 30
0.0
 11
164.732983
 21
181.703546
 31
0.0
  0
LINE
  8
LC-004-005-----0
  6
CONTINUOUS
  5
44
 10
163.258701
 20
183.057691
 30
0.0
 11
163.958701
 21
183.757691
 31
0.0
  0
LINE
  8
LC-004-005-----0
  6
CONTINUOUS
  5
45
 10
163.258701
 20
185.886118
 30
0.0
 11
163.958701
 21
186.586118
 31
0.0
  0
LINE
  8
LC-004-005-----0
  6
CONTINUOUS
  5
46
 10
164.910018
 20
187.537435
 30
0.0
 11
165.610018
 21
188.237435
 31
0.0
  0
LINE
  8
LC-004-005-----0
  6
CONTINUOUS
  5
47
 10
166.858701
 20
189.486118
 30
0.0
 11
167.558701
 21
190.186118
 31
0.0
  0
LINE
  8
LC-004-005-----0
  6
CONTINUOUS
  5
48
 10
170.256942
 20
192.884359
 30
0.0
 11
170.803952
 21
193.431369
 31
0.0
  0
LINE
  8
LC-004-005-----0
  6
CONTINUOUS
  5
49
 10
166.858701
 20
192.314545
 30
0.0
 11
167.558701
 21
193.014545
 31
0.0
  0
LINE
  8
LC-004-005-----0
  6
CONTINUOUS
  5
4A
 10
170.058701
 20
195.514545
 30
0.0
 11
170.758701
 21
196.214545
 31
0.0
  0
LINE
  8
LC-004-005-----0
  6
CONTINUOUS
  5
4B
 10
166.858701
 20
195.142972
 30
0.0
 11
167.558701
 21
195.842972
 31
0.0
  0
LINE
  8
LC-004-005-----0
  6
CONTINUOUS
  5
4C
 10
169.237119
 20
197.52139
 30
0.0
 11
169.78853
 21
198.072801
 31
0.0
  0
ENDBLK
  8
0
  5
4D
  0
BLOCK
  8
0
  5
4F
  2
*D7
 70
    65
 10
0.0
 20
0.0
 30
0.0
  3
*D7
  0
LINE
  8
LC-007-003-MTH-0
  6
CONTINUOUS
  5
51
 10
70.258701
 20
191.837435
 30
0.0
 11
22.4
 21
191.837435
 31
0.0
  0
LINE
  8
LC-007-003-MTH-0
  6
CONTINUOUS
  5
52
 10
72.458701
 20
198.237435
 30
0.0
 11
22.4
 21
198.237435
 31
0.0
  0
LINE
  8
LC-006-003-----0
  6
CONTINUOUS
  5
54
 10
42.854733
 20
164.076979
 30
0.0
 11
39.2
 21
191.837435
 31
0.0
  0
LINE
  8
LC-006-003-----0
  6
CONTINUOUS
  5
55
 10
39.2
 20
191.837435
 30
0.0
 11
35.545267
 21
164.076979
 31
0.0
  0
LINE
  8
LC-006-003-----0
  6
CONTINUOUS
  5
56
 10
35.545267
 20
164.076979
 30
0.0
 11
42.854733
 21
164.076979
 31
0.0
  0
LINE
  8
LC-006-003-----0
  6
CONTINUOUS
  5
57
 10
41.904503
 20
164.014697
 30
0.0
 11
39.2
 21
184.557435
 31
0.0
  0
LINE
  8
LC-006-003-----0
  6
CONTINUOUS
  5
58
 10
39.2
 20
184.557435
 30
0.0
 11
36.495497
 21
164.014697
 31
0.0
  0
LINE
  8
LC-006-003-----0
  6
CONTINUOUS
  5
59
 10
40.954272
 20
163.952416
 30
0.0
 11
39.2
 21
177.277435
 31
0.0
  0
LINE
  8
LC-006-003-----0
  6
CONTINUOUS
  5
5A
 10
39.2
 20
177.277435
 30
0.0
 11
37.445728
 21
163.952416
 31
0.0
  0
LINE
  8
LC-006-003-----0
  6
CONTINUOUS
  5
5B
 10
40.004041
 20
163.890135
 30
0.0
 11
39.2
 21
169.997435
 31
0.0
  0
LINE
  8
LC-006-003-----0
  6
CONTINUOUS
  5
5C
 10
39.2
 20
169.997435
 30
0.0
 11
38.395959
 21
163.890135
 31
0.0
  0
LINE
  8
LC-006-003-----0
  6
CONTINUOUS
  5
5D
 10
35.545267
 20
225.997891
 30
0.0
 11
39.2
 21
198.237435
 31
0.0
  0
LINE
  8
LC-006-003-----0
  6
CONTINUOUS
  5
5E
 10
39.2
 20
198.237435
 30
0.0
 11
42.854733
 21
225.997891
 31
0.0
  0
LINE
  8
LC-006-003-----0
  6
CONTINUOUS
  5
5F
 10
42.854733
 20
225.997891
 30
0.0
 11
35.545267
 21
225.997891
 31
0.0
  0
LINE
  8
LC-006-003-----0
  6
CONTINUOUS
  5
60
 10
36.495497
 20
226.060172
 30
0.0
 11
39.2
 21
205.517435
 31
0.0
  0
LINE
  8
LC-006-003-----0
  6
CONTINUOUS
  5
61
 10
39.2
 20
205.517435
 30
0.0
 11
41.904503
 21
226.060172
 31
0.0
  0
LINE
  8
LC-006-003-----0
  6
CONTINUOUS
  5
62
 10
37.445728
 20
226.122454
 30
0.0
 11
39.2
 21
212.797435
 31
0.0
  0
LINE
  8
LC-006-003-----0
  6
CONTINUOUS
  5
63
 10
39.2
 20
212.797435
 30
0.0
 11
40.954272
 21
226.122454
 31
0.0
  0
LINE
  8
LC-006-003-----0
  6
CONTINUOUS
  5
64
 10
38.395959
 20
226.184735
 30
0.0
 11
39.2
 21
220.077435
 31
0.0
  0
LINE
  8
LC-006-003-----0
  6
CONTINUOUS
  5
65
 10
39.2
 20
220.077435
 30
0.0
 11
40.004041
 21
226.184735
 31
0.0
  0
LINE
  8
LC-008-003-MTG-0
  6
CONTINUOUS
  5
67
 10
39.2
 20
126.075235
 30
0.0
 11
39.2
 21
237.437435
 31
0.0
  0
TEXT
  8
LC-006-003-----0
  6
CONTINUOUS
 62
     8
  5
69
 10
31.372446
 20
143.818981
 30
0.0
 40
28.0
  1
7
 50
90.0
 41
0.9
 51
15.0
  7
LC-TXTSTYLE-150-400-0-0-D0
 72
     2
 11
31.372446
 21
158.105595
 31
0.0
  0
ENDBLK
  8
0
  5
6A
  0
BLOCK
  8
0
  5
6C
  2
BLK2
 70
    64
 10
0.0
 20
0.0
 30
0.0
  3
BLK2
  0
ENDBLK
  8
0
  5
6D
  0
BLOCK
  8
0
  5
6F
  2
*X9
 70
    65
 10
164.008701
 20
143.037435
 30
0.0
  3
*X9
  0
LINE
  8
LC-004-005-----0
  6
CONTINUOUS
  5
70
 10
165.664852
 20
143.037435
 30
0.0
 11
166.222123
 21
143.594706
 31
0.0
  0
LINE
  8
LC-004-005-----0
  6
CONTINUOUS
  5
71
 10
164.608701
 20
144.809711
 30
0.0
 11
166.608701
 21
146.809711
 31
0.0
  0
LINE
  8
LC-004-005-----0
  6
CONTINUOUS
  5
72
 10
164.608701
 20
147.638138
 30
0.0
 11
166.608701
 21
149.638138
 31
0.0
  0
LINE
  8
LC-004-005-----0
  6
CONTINUOUS
  5
73
 10
164.608701
 20
150.466566
 30
0.0
 11
166.608701
 21
152.466566
 31
0.0
  0
LINE
  8
LC-004-005-----0
  6
CONTINUOUS
  5
74
 10
164.608701
 20
153.294993
 30
0.0
 11
166.608701
 21
155.294993
 31
0.0
  0
LINE
  8
LC-004-005-----0
  6
CONTINUOUS
  5
75
 10
164.608701
 20
156.12342
 30
0.0
 11
166.608701
 21
158.12342
 31
0.0
  0
LINE
  8
LC-004-005-----0
  6
CONTINUOUS
  5
76
 10
164.608701
 20
158.951847
 30
0.0
 11
166.608701
 21
160.951847
 31
0.0
  0
LINE
  8
LC-004-005-----0
  6
CONTINUOUS
  5
77
 10
164.608701
 20
161.780274
 30
0.0
 11
166.608701
 21
163.780274
 31
0.0
  0
LINE
  8
LC-004-005-----0
  6
CONTINUOUS
  5
78
 10
164.608701
 20
164.608701
 30
0.0
 11
166.608701
 21
166.608701
 31
0.0
  0
LINE
  8
LC-004-005-----0
  6
CONTINUOUS
  5
79
 10
164.608701
 20
167.437128
 30
0.0
 11
166.608701
 21
169.437128
 31
0.0
  0
LINE
  8
LC-004-005-----0
  6
CONTINUOUS
  5
7A
 10
164.608701
 20
170.265555
 30
0.0
 11
166.608701
 21
172.265555
 31
0.0
  0
LINE
  8
LC-004-005-----0
  6
CONTINUOUS
  5
7B
 10
164.608701
 20
173.093983
 30
0.0
 11
166.608701
 21
175.093983
 31
0.0
  0
LINE
  8
LC-004-005-----0
  6
CONTINUOUS
  5
7C
 10
164.608701
 20
175.92241
 30
0.0
 11
166.608701
 21
177.92241
 31
0.0
  0
LINE
  8
LC-004-005-----0
  6
CONTINUOUS
  5
7D
 10
164.608701
 20
178.750837
 30
0.0
 11
166.608701
 21
180.750837
 31
0.0
  0
LINE
  8
LC-004-005-----0
  6
CONTINUOUS
  5
7E
 10
164.608701
 20
181.579264
 30
0.0
 11
166.608701
 21
183.579264
 31
0.0
  0
LINE
  8
LC-004-005-----0
  6
CONTINUOUS
  5
7F
 10
164.201265
 20
184.000255
 30
0.0
 11
166.608701
 21
186.407691
 31
0.0
  0
LINE
  8
LC-004-005-----0
  6
CONTINUOUS
  5
80
 10
164.608701
 20
187.236118
 30
0.0
 11
164.910018
 21
187.537435
 31
0.0
  0
ENDBLK
  8
0
  5
81
  0
BLOCK
  8
0
  5
83
  2
*X10
 70
    65
 10
74.908701
 20
143.037435
 30
0.0
  3
*X10
  0
LINE
  8
LC-004-005-----0
  6
CONTINUOUS
  5
84
 10
75.383439
 20
143.26569
 30
0.0
 11
76.908701
 21
144.790952
 31
0.0
  0
LINE
  8
LC-004-005-----0
  6
CONTINUOUS
  5
85
 10
74.908701
 20
145.619379
 30
0.0
 11
76.908701
 21
147.619379
 31
0.0
  0
LINE
  8
LC-004-005-----0
  6
CONTINUOUS
  5
86
 10
74.908701
 20
148.447806
 30
0.0
 11
76.908701
 21
150.447806
 31
0.0
  0
LINE
  8
LC-004-005-----0
  6
CONTINUOUS
  5
87
 10
74.908701
 20
151.276234
 30
0.0
 11
76.908701
 21
153.276234
 31
0.0
  0
LINE
  8
LC-004-005-----0
  6
CONTINUOUS
  5
88
 10
74.908701
 20
154.104661
 30
0.0
 11
76.908701
 21
156.104661
 31
0.0
  0
LINE
  8
LC-004-005-----0
  6
CONTINUOUS
  5
89
 10
74.908701
 20
156.933088
 30
0.0
 11
76.908701
 21
158.933088
 31
0.0
  0
LINE
  8
LC-004-005-----0
  6
CONTINUOUS
  5
8A
 10
74.908701
 20
159.761515
 30
0.0
 11
76.908701
 21
161.761515
 31
0.0
  0
LINE
  8
LC-004-005-----0
  6
CONTINUOUS
  5
8B
 10
74.908701
 20
162.589942
 30
0.0
 11
76.908701
 21
164.589942
 31
0.0
  0
LINE
  8
LC-004-005-----0
  6
CONTINUOUS
  5
8C
 10
74.908701
 20
165.418369
 30
0.0
 11
76.908701
 21
167.418369
 31
0.0
  0
LINE
  8
LC-004-005-----0
  6
CONTINUOUS
  5
8D
 10
74.908701
 20
168.246796
 30
0.0
 11
76.908701
 21
170.246796
 31
0.0
  0
LINE
  8
LC-004-005-----0
  6
CONTINUOUS
  5
8E
 10
74.908701
 20
171.075223
 30
0.0
 11
76.908701
 21
173.075223
 31
0.0
  0
LINE
  8
LC-004-005-----0
  6
CONTINUOUS
  5
8F
 10
74.908701
 20
173.90365
 30
0.0
 11
76.908701
 21
175.90365
 31
0.0
  0
LINE
  8
LC-004-005-----0
  6
CONTINUOUS
  5
90
 10
74.908701
 20
176.732078
 30
0.0
 11
76.908701
 21
178.732078
 31
0.0
  0
LINE
  8
LC-004-005-----0
  6
CONTINUOUS
  5
91
 10
74.908701
 20
179.560505
 30
0.0
 11
76.908701
 21
181.560505
 31
0.0
  0
LINE
  8
LC-004-005-----0
  6
CONTINUOUS
  5
92
 10
74.908701
 20
182.388932
 30
0.0
 11
77.183452
 21
184.663682
 31
0.0
  0
LINE
  8
LC-004-005-----0
  6
CONTINUOUS
  5
93
 10
74.908701
 20
185.217359
 30
0.0
 11
76.908701
 21
187.217359
 31
0.0
  0
ENDBLK
  8
0
  5
94
  0
BLOCK
  8
0
  5
96
  2
BLK3
 70
    64
 10
0.0
 20
0.0
 30
0.0
  3
BLK3
  0
ENDBLK
  8
0
  5
97
  0
BLOCK
  8
0
  5
99
  2
*D12
 70
    65
 10
0.0
 20
0.0
 30
0.0
  3
*D12
  0
LINE
  8
LC-007-003-MTH-0
  6
CONTINUOUS
  5
9A
 10
74.908701
 20
145.037435
 30
0.0
 11
74.908701
 21
81.2
 31
0.0
  0
LINE
  8
LC-007-003-MTH-0
  6
CONTINUOUS
  5
9B
 10
166.608701
 20
145.037435
 30
0.0
 11
166.608701
 21
81.2
 31
0.0
  0
LINE
  8
LC-008-003-MTG-0
  6
CONTINUOUS
  5
9C
 10
74.908701
 20
98.0
 30
0.0
 11
166.608701
 21
98.0
 31
0.0
  0
LINE
  8
LC-006-003-----0
  6
CONTINUOUS
  5
9D
 10
102.669157
 20
101.654733
 30
0.0
 11
74.908701
 21
98.0
 31
0.0
  0
LINE
  8
LC-006-003-----0
  6
CONTINUOUS
  5
9E
 10
74.908701
 20
98.0
 30
0.0
 11
102.669157
 21
94.345267
 31
0.0
  0
LINE
  8
LC-006-003-----0
  6
CONTINUOUS
  5
9F
 10
102.669157
 20
94.345267
 30
0.0
 11
102.669157
 21
101.654733
 31
0.0
  0
LINE
  8
LC-006-003-----0
  6
CONTINUOUS
  5
A0
 10
102.731439
 20
100.704503
 30
0.0
 11
82.188701
 21
98.0
 31
0.0
  0
LINE
  8
LC-006-003-----0
  6
CONTINUOUS
  5
A1
 10
82.188701
 20
98.0
 30
0.0
 11
102.731439
 21
95.295497
 31
0.0
  0
LINE
  8
LC-006-003-----0
  6
CONTINUOUS
  5
A2
 10
102.79372
 20
99.754272
 30
0.0
 11
89.468701
 21
98.0
 31
0.0
  0
LINE
  8
LC-006-003-----0
  6
CONTINUOUS
  5
A3
 10
89.468701
 20
98.0
 30
0.0
 11
102.79372
 21
96.245728
 31
0.0
  0
LINE
  8
LC-006-003-----0
  6
CONTINUOUS
  5
A4
 10
102.856001
 20
98.804041
 30
0.0
 11
96.748701
 21
98.0
 31
0.0
  0
LINE
  8
LC-006-003-----0
  6
CONTINUOUS
  5
A5
 10
96.748701
 20
98.0
 30
0.0
 11
102.856001
 21
97.195959
 31
0.0
  0
LINE
  8
LC-006-003-----0
  6
CONTINUOUS
  5
A6
 10
138.848245
 20
94.345267
 30
0.0
 11
166.608701
 21
98.0
 31
0.0
  0
LINE
  8
LC-006-003-----0
  6
CONTINUOUS
  5
A7
 10
166.608701
 20
98.0
 30
0.0
 11
138.848245
 21
101.654733
 31
0.0
  0
LINE
  8
LC-006-003-----0
  6
CONTINUOUS
  5
A8
 10
138.848245
 20
101.654733
 30
0.0
 11
138.848245
 21
94.345267
 31
0.0
  0
LINE
  8
LC-006-003-----0
  6
CONTINUOUS
  5
A9
 10
138.785964
 20
95.295497
 30
0.0
 11
159.328701
 21
98.0
 31
0.0
  0
LINE
  8
LC-006-003-----0
  6
CONTINUOUS
  5
AA
 10
159.328701
 20
98.0
 30
0.0
 11
138.785964
 21
100.704503
 31
0.0
  0
LINE
  8
LC-006-003-----0
  6
CONTINUOUS
  5
AB
 10
138.723682
 20
96.245728
 30
0.0
 11
152.048701
 21
98.0
 31
0.0
  0
LINE
  8
LC-006-003-----0
  6
CONTINUOUS
  5
AC
 10
152.048701
 20
98.0
 30
0.0
 11
138.723682
 21
99.754272
 31
0.0
  0
LINE
  8
LC-006-003-----0
  6
CONTINUOUS
  5
AD
 10
138.661401
 20
97.195959
 30
0.0
 11
144.768701
 21
98.0
 31
0.0
  0
LINE
  8
LC-006-003-----0
  6
CONTINUOUS
  5
AE
 10
144.768701
 20
98.0
 30
0.0
 11
138.661401
 21
98.804041
 31
0.0
  0
TEXT
  8
LC-006-003-----0
  6
CONTINUOUS
 62
     8
  5
AF
 10
89.059617
 20
105.827554
 30
0.0
 40
28.0
  1
Ø91,5
 51
15.0
  7
LC-TXTSTYLE-150-400-0-0-D0
 72
     1
 11
125.106861
 21
105.827554
 31
0.0
  0
ENDBLK
  8
0
  5
B0
  0
BLOCK
  8
0
  5
B2
  2
*D13
 70
    65
 10
0.0
 20
0.0
 30
0.0
  3
*D13
  0
LINE
  8
LC-007-003-MTH-0
  6
CONTINUOUS
  5
B3
 10
164.608701
 20
143.037435
 30
0.0
 11
252.0
 21
143.037435
 31
0.0
  0
LINE
  8
LC-007-003-MTH-0
  6
CONTINUOUS
  5
B4
 10
169.058701
 20
198.237435
 30
0.0
 11
252.0
 21
198.237435
 31
0.0
  0
LINE
  8
LC-006-003-----0
  6
CONTINUOUS
  5
B5
 10
238.854733
 20
115.276979
 30
0.0
 11
235.2
 21
143.037435
 31
0.0
  0
LINE
  8
LC-006-003-----0
  6
CONTINUOUS
  5
B6
 10
235.2
 20
143.037435
 30
0.0
 11
231.545267
 21
115.276979
 31
0.0
  0
LINE
  8
LC-006-003-----0
  6
CONTINUOUS
  5
B7
 10
231.545267
 20
115.276979
 30
0.0
 11
238.854733
 21
115.276979
 31
0.0
  0
LINE
  8
LC-006-003-----0
  6
CONTINUOUS
  5
B8
 10
237.904503
 20
115.214697
 30
0.0
 11
235.2
 21
135.757435
 31
0.0
  0
LINE
  8
LC-006-003-----0
  6
CONTINUOUS
  5
B9
 10
235.2
 20
135.757435
 30
0.0
 11
232.495497
 21
115.214697
 31
0.0
  0
LINE
  8
LC-006-003-----0
  6
CONTINUOUS
  5
BA
 10
236.954272
 20
115.152416
 30
0.0
 11
235.2
 21
128.477435
 31
0.0
  0
LINE
  8
LC-006-003-----0
  6
CONTINUOUS
  5
BB
 10
235.2
 20
128.477435
 30
0.0
 11
233.445728
 21
115.152416
 31
0.0
  0
LINE
  8
LC-006-003-----0
  6
CONTINUOUS
  5
BC
 10
236.004041
 20
115.090135
 30
0.0
 11
235.2
 21
121.197435
 31
0.0
  0
LINE
  8
LC-006-003-----0
  6
CONTINUOUS
  5
BD
 10
235.2
 20
121.197435
 30
0.0
 11
234.395959
 21
115.090135
 31
0.0
  0
LINE
  8
LC-006-003-----0
  6
CONTINUOUS
  5
BE
 10
231.545267
 20
225.997891
 30
0.0
 11
235.2
 21
198.237435
 31
0.0
  0
LINE
  8
LC-006-003-----0
  6
CONTINUOUS
  5
BF
 10
235.2
 20
198.237435
 30
0.0
 11
238.854733
 21
225.997891
 31
0.0
  0
LINE
  8
LC-006-003-----0
  6
CONTINUOUS
  5
C0
 10
238.854733
 20
225.997891
 30
0.0
 11
231.545267
 21
225.997891
 31
0.0
  0
LINE
  8
LC-006-003-----0
  6
CONTINUOUS
  5
C1
 10
232.495497
 20
226.060172
 30
0.0
 11
235.2
 21
205.517435
 31
0.0
  0
LINE
  8
LC-006-003-----0
  6
CONTINUOUS
  5
C2
 10
235.2
 20
205.517435
 30
0.0
 11
237.904503
 21
226.060172
 31
0.0
  0
LINE
  8
LC-006-003-----0
  6
CONTINUOUS
  5
C3
 10
233.445728
 20
226.122454
 30
0.0
 11
235.2
 21
212.797435
 31
0.0
  0
LINE
  8
LC-006-003-----0
  6
CONTINUOUS
  5
C4
 10
235.2
 20
212.797435
 30
0.0
 11
236.954272
 21
226.122454
 31
0.0
  0
LINE
  8
LC-006-003-----0
  6
CONTINUOUS
  5
C5
 10
234.395959
 20
226.184735
 30
0.0
 11
235.2
 21
220.077435
 31
0.0
  0
LINE
  8
LC-006-003-----0
  6
CONTINUOUS
  5
C6
 10
235.2
 20
220.077435
 30
0.0
 11
236.004041
 21
226.184735
 31
0.0
  0
LINE
  8
LC-008-003-MTG-0
  6
CONTINUOUS
  5
C7
 10
235.2
 20
103.837435
 30
0.0
 11
235.2
 21
237.437435
 31
0.0
  0
TEXT
  8
LC-006-003-----0
  6
CONTINUOUS
 62
     8
  5
C8
 10
227.372446
 20
158.582445
 30
0.0
 40
28.0
  1
55
 50
90.0
 51
15.0
  7
LC-TXTSTYLE-150-400-0-0-D0
 72
     1
 11
227.372446
 21
174.985595
 31
0.0
  0
ENDBLK
  8
0
  5
C9
  0
BLOCK
  8
0
  5
CB
  2
*D14
 70
    65
 10
0.0
 20
0.0
 30
0.0
  3
*D14
  0
LINE
  8
LC-007-003-MTH-0
  6
CONTINUOUS
  5
CC
 10
70.758701
 20
195.167231
 30
0.0
 11
70.758701
 21
240.8
 31
0.0
  0
LINE
  8
LC-007-003-MTH-0
  6
CONTINUOUS
  5
CD
 10
170.758701
 20
195.167231
 30
0.0
 11
170.758701
 21
240.8
 31
0.0
  0
LINE
  8
LC-008-003-MTG-0
  6
CONTINUOUS
  5
CE
 10
70.758701
 20
224.0
 30
0.0
 11
170.758701
 21
224.0
 31
0.0
  0
LINE
  8
LC-006-003-----0
  6
CONTINUOUS
  5
CF
 10
98.519157
 20
227.654733
 30
0.0
 11
70.758701
 21
224.0
 31
0.0
  0
LINE
  8
LC-006-003-----0
  6
CONTINUOUS
  5
D0
 10
70.758701
 20
224.0
 30
0.0
 11
98.519157
 21
220.345267
 31
0.0
  0
LINE
  8
LC-006-003-----0
  6
CONTINUOUS
  5
D1
 10
98.519157
 20
220.345267
 30
0.0
 11
98.519157
 21
227.654733
 31
0.0
  0
LINE
  8
LC-006-003-----0
  6
CONTINUOUS
  5
D2
 10
98.581439
 20
226.704503
 30
0.0
 11
78.038701
 21
224.0
 31
0.0
  0
LINE
  8
LC-006-003-----0
  6
CONTINUOUS
  5
D3
 10
78.038701
 20
224.0
 30
0.0
 11
98.581439
 21
221.295497
 31
0.0
  0
LINE
  8
LC-006-003-----0
  6
CONTINUOUS
  5
D4
 10
98.64372
 20
225.754272
 30
0.0
 11
85.318701
 21
224.0
 31
0.0
  0
LINE
  8
LC-006-003-----0
  6
CONTINUOUS
  5
D5
 10
85.318701
 20
224.0
 30
0.0
 11
98.64372
 21
222.245728
 31
0.0
  0
LINE
  8
LC-006-003-----0
  6
CONTINUOUS
  5
D6
 10
98.706001
 20
224.804041
 30
0.0
 11
92.598701
 21
224.0
 31
0.0
  0
LINE
  8
LC-006-003-----0
  6
CONTINUOUS
  5
D7
 10
92.598701
 20
224.0
 30
0.0
 11
98.706001
 21
223.195959
 31
0.0
  0
LINE
  8
LC-006-003-----0
  6
CONTINUOUS
  5
D8
 10
142.998245
 20
220.345267
 30
0.0
 11
170.758701
 21
224.0
 31
0.0
  0
LINE
  8
LC-006-003-----0
  6
CONTINUOUS
  5
D9
 10
170.758701
 20
224.0
 30
0.0
 11
142.998245
 21
227.654733
 31
0.0
  0
LINE
  8
LC-006-003-----0
  6
CONTINUOUS
  5
DA
 10
142.998245
 20
227.654733
 30
0.0
 11
142.998245
 21
220.345267
 31
0.0
  0
LINE
  8
LC-006-003-----0
  6
CONTINUOUS
  5
DB
 10
142.935964
 20
221.295497
 30
0.0
 11
163.478701
 21
224.0
 31
0.0
  0
LINE
  8
LC-006-003-----0
  6
CONTINUOUS
  5
DC
 10
163.478701
 20
224.0
 30
0.0
 11
142.935964
 21
226.704503
 31
0.0
  0
LINE
  8
LC-006-003-----0
  6
CONTINUOUS
  5
DD
 10
142.873682
 20
222.245728
 30
0.0
 11
156.198701
 21
224.0
 31
0.0
  0
LINE
  8
LC-006-003-----0
  6
CONTINUOUS
  5
DE
 10
156.198701
 20
224.0
 30
0.0
 11
142.873682
 21
225.754272
 31
0.0
  0
LINE
  8
LC-006-003-----0
  6
CONTINUOUS
  5
DF
 10
142.811401
 20
223.195959
 30
0.0
 11
148.918701
 21
224.0
 31
0.0
  0
LINE
  8
LC-006-003-----0
  6
CONTINUOUS
  5
E0
 10
148.918701
 20
224.0
 30
0.0
 11
142.811401
 21
224.804041
 31
0.0
  0
TEXT
  8
LC-006-003-----0
  6
CONTINUOUS
 62
     8
  5
E1
 10
95.343082
 20
231.827554
 30
0.0
 40
28.0
  1
100
 51
15.0
  7
LC-TXTSTYLE-150-400-0-0-D0
 72
     1
 11
125.106861
 21
231.827554
 31
0.0
  0
ENDBLK
  8
0
  5
E2
  0
ENDSEC
  0
SECTION
  2
ENTITIES
  0
VIEWPORT
  8
LC-000
  5
17B
 67
     1
 68
     1
 10
420.0
 20
297.0
 30
0.0
 40
840.0
 41
594.0
 69
     1
1001
ACAD
1000
MVIEW
1002
{
1070
    16
1010
0.0
1020
0.0
1030
0.0
1010
0.0
1020
0.0
1030
1.0
1040
0.0
1040
594.0
1040
420.0
1040
297.0
1040
50.0
1040
0.0
1040
0.0
1070
     0
1070
   100
1070
     1
1070
     1
1070
     0
1070
     0
1070
     0
1070
     0
1040
0.0
1040
0.0
1040
0.0
1040
1.0
1040
1.0
1040
0.0
1040
0.0
1070
     0
1002
{
1002
}
1002
}
  0
VIEWPORT
  8
0
  5
17C
 67
     1
 68
     1
 10
0.0
 20
0.0
 30
0.0
 40
0.0
 41
0.0
 69
     1
1001
ACAD
1000
MVIEW
1002
{
1070
    16
1010
0.0
1020
0.0
1030
0.0
1010
0.0
1020
0.0
1030
1.0
1040
0.0
1040
594.0
1040
0.0
1040
0.0
1040
50.0
1040
0.0
1040
0.0
1070
     0
1070
   100
1070
     0
1070
     1
1070
     0
1070
     0
1070
     0
1070
     0
1040
0.0
1040
0.0
1040
0.0
1040
0.5
1040
0.5
1040
0.5
1040
0.5
1070
     0
1002
{
1002
}
1002
}
  0
INSERT
  8
0
  5
E4
  2
SYM1
 10
-82.706211
 20
-213.357801
 30
0.0
  0
INSERT
  8
0
  5
E5
  2
SYM2
 10
-82.706211
 20
-213.357801
 30
0.0
  0
INSERT
  8
0
  5
E6
  2
SYM3
 10
1170.098031
 20
-213.357801
 30
0.0
  0
INSERT
  8
0
  5
E7
  2
SYM4
 10
-76.005598
 20
-213.357801
 30
0.0
  0
INSERT
  8
0
  5
E9
  2
BLK1
 10
0.0
 20
0.0
 30
0.0
  0
INSERT
  8
0
  5
EA
  2
*X5
 10
67.058701
 20
178.268755
 30
0.0
  0
INSERT
  8
0
  5
EB
  2
*X6
 10
162.908423
 20
178.268755
 30
0.0
  0
DIMENSION
  8
0
  5
EC
  2
*D7
 10
39.2
 20
155.034
 30
0.0
 11
39.2
 21
155.034
 31
0.0
  1
7
 13
70.258701
 23
191.837435
 33
0.0
 14
72.458701
 24
198.237435
 34
0.0
 50
90.0
  3
LC-DIM-L-0140-01-02
  0
INSERT
  8
0
  5
ED
  2
BLK2
 10
0.0
 20
0.0
 30
0.0
  0
INSERT
  8
0
  5
EE
  2
*X9
 10
164.008701
 20
143.037435
 30
0.0
  0
INSERT
  8
0
  5
EF
  2
*X10
 10
74.908701
 20
143.037435
 30
0.0
  0
INSERT
  8
0
  5
F0
  2
BLK3
 10
0.0
 20
0.0
 30
0.0
  0
DIMENSION
  8
0
  5
F1
  2
*D12
 10
120.758701
 20
98.0
 30
0.0
 11
120.758701
 21
98.0
 31
0.0
  1
%%c91,5
 13
74.908701
 23
145.037435
 33
0.0
 14
166.608701
 24
145.037435
 34
0.0
  3
LC-DIM-L-0140-02-02
  0
DIMENSION
  8
0
  5
F2
  2
*D13
 10
235.2
 20
170.637435
 30
0.0
 11
235.2
 21
170.637435
 31
0.0
  1
55
 13
169.058701
 23
198.237435
 33
0.0
 14
164.608701
 24
143.037435
 34
0.0
 50
90.0
  3
LC-DIM-L-0140-02-02
  0
DIMENSION
  8
0
  5
F3
  2
*D14
 10
120.758701
 20
224.0
 30
0.0
 11
120.758701
 21
224.0
 31
0.0
 13
70.758701
 23
195.167231
 33
0.0
 14
170.758701
 24
195.167231
 34
0.0
  3
LC-DIM-L-0140-02-02
  0
CIRCLE
  8
LC-002-002-----0
  6
CONTINUOUS
  5
F5
 10
317.108701
 20
170.637435
 30
0.0
 40
42.5
  0
CIRCLE
  8
LC-002-002-----0
  6
CONTINUOUS
  5
F6
 10
278.608701
 20
132.137435
 30
0.0
 40
2.0
  0
ARC
  8
LC-002-002-----0
  6
CONTINUOUS
 62
     2
  5
F7
 10
355.608701
 20
209.137435
 30
0.0
 40
2.5
 50
0.0
 51
270.0
  0
CIRCLE
  8
LC-002-002-----0
  6
CONTINUOUS
  5
F8
 10
355.608701
 20
209.137435
 30
0.0
 40
2.0
  0
ARC
  8
LC-002-002-----0
  6
CONTINUOUS
 62
     2
  5
F9
 10
278.608701
 20
132.137435
 30
0.0
 40
2.5
 50
0.0
 51
270.0
  0
LINE
  8
LC-001-001-----0
  6
CONTINUOUS
 62
     1
  5
FA
 10
266.608701
 20
215.137435
 30
0.0
 11
266.608701
 21
126.137435
 31
0.0
  0
LINE
  8
LC-002-002-----0
  6
CONTINUOUS
  5
FB
 10
361.608701
 20
220.637435
 30
0.0
 11
272.608701
 21
220.637435
 31
0.0
  0
LINE
  8
LC-001-001-----0
  6
CONTINUOUS
 62
     1
  5
FC
 10
367.608701
 20
126.137435
 30
0.0
 11
367.608701
 21
215.137435
 31
0.0
  0
ARC
  8
LC-002-002-----0
  6
CONTINUOUS
  5
FD
 10
272.608701
 20
215.137435
 30
0.0
 40
5.5
 50
90.0
 51
180.0
  0
LINE
  8
LC-001-001-----0
  6
CONTINUOUS
 62
     1
  5
FE
 10
271.008701
 20
127.337435
 30
0.0
 11
271.008701
 21
213.937435
 31
0.0
  0
LINE
  8
LC-001-001-----0
  6
CONTINUOUS
 62
     1
  5
FF
 10
363.208701
 20
127.337435
 30
0.0
 11
363.208701
 21
213.937435
 31
0.0
  0
CIRCLE
  8
LC-001-001-----0
  6
CONTINUOUS
 62
     1
  5
100
 10
317.108701
 20
170.637435
 30
0.0
 40
46.1
  0
LINE
  8
LC-001-001-----0
  6
CONTINUOUS
 62
     1
  5
101
 10
75.658701
 20
192.537435
 30
0.0
 11
120.758701
 21
192.537435
 31
0.0
  0
LINE
  8
LC-001-001-----0
  6
CONTINUOUS
 62
     1
  5
102
 10
74.658701
 20
198.237435
 30
0.0
 11
120.758701
 21
198.237435
 31
0.0
  0
LINE
  8
LC-001-001-----0
  6
CONTINUOUS
 62
     1
  5
103
 10
77.058701
 20
188.237435
 30
0.0
 11
120.758701
 21
188.237435
 31
0.0
  0
LINE
  8
LC-001-001-----0
  6
CONTINUOUS
 62
     1
  5
104
 10
75.658701
 20
191.837435
 30
0.0
 11
120.758701
 21
191.837435
 31
0.0
  0
LINE
  8
LC-002-002-----0
  6
CONTINUOUS
  5
105
 10
78.60898
 20
178.628125
 30
0.0
 11
120.758701
 21
178.628125
 31
0.0
  0
LINE
  8
LC-002-002-----0
  6
CONTINUOUS
  5
106
 10
77.994855
 20
178.268755
 30
0.0
 11
120.758701
 21
178.268755
 31
0.0
  0
LINE
  8
LC-001-001-----0
  6
CONTINUOUS
 62
     1
  5
107
 10
77.558701
 20
187.037435
 30
0.0
 11
77.558701
 21
182.537435
 31
0.0
  0
LINE
  8
LC-001-001-----0
  6
CONTINUOUS
 62
     1
  5
108
 10
78.258701
 20
187.037435
 30
0.0
 11
78.258701
 21
181.837435
 31
0.0
  0
ARC
  8
LC-002-002-----0
  6
CONTINUOUS
  5
109
 10
77.583701
 20
181.737435
 30
0.0
 40
0.8
 50
90.0
 51
200.0
  0
LINE
  8
LC-002-002-----0
  6
CONTINUOUS
  5
10A
 10
120.758701
 20
181.837435
 30
0.0
 11
77.440886
 21
181.837435
 31
0.0
  0
LINE
  8
LC-001-001-----0
  6
CONTINUOUS
 62
     1
  5
10B
 10
165.858701
 20
192.537435
 30
0.0
 11
120.758701
 21
192.537435
 31
0.0
  0
LINE
  8
LC-001-001-----0
  6
CONTINUOUS
 62
     1
  5
10C
 10
74.658701
 20
196.537435
 30
0.0
 11
74.658701
 21
193.537435
 31
0.0
  0
LINE
  8
LC-001-001-----0
  6
CONTINUOUS
 62
     1
  5
10D
 10
73.958701
 20
196.537435
 30
0.0
 11
73.958701
 21
190.037435
 31
0.0
  0
ARC
  8
LC-001-001-----0
  6
CONTINUOUS
 62
     1
  5
10E
 10
77.058701
 20
187.037435
 30
0.0
 40
0.5
 50
0.0
 51
90.0
  0
LINE
  8
LC-001-001-----0
  6
CONTINUOUS
 62
     1
  5
10F
 10
77.058701
 20
187.537435
 30
0.0
 11
75.658701
 21
187.537435
 31
0.0
  0
LINE
  8
LC-001-001-----0
  6
CONTINUOUS
 62
     1
  5
110
 10
73.958701
 20
190.037435
 30
0.0
 11
73.958701
 21
189.237435
 31
0.0
  0
ARC
  8
LC-001-001-----0
  6
CONTINUOUS
 62
     1
  5
111
 10
75.658701
 20
189.237435
 30
0.0
 40
1.0
 50
180.0
 51
270.0
  0
LINE
  8
LC-001-001-----0
  6
CONTINUOUS
 62
     1
  5
112
 10
75.658701
 20
187.537435
 30
0.0
 11
77.058701
 21
187.537435
 31
0.0
  0
LINE
  8
LC-001-001-----0
  6
CONTINUOUS
 62
     1
  5
113
 10
75.658701
 20
188.237435
 30
0.0
 11
77.058701
 21
188.237435
 31
0.0
  0
LINE
  8
LC-001-001-----0
  6
CONTINUOUS
 62
     1
  5
114
 10
74.658701
 20
193.537435
 30
0.0
 11
74.658701
 21
189.237435
 31
0.0
  0
ARC
  8
LC-001-001-----0
  6
CONTINUOUS
 62
     1
  5
115
 10
75.658701
 20
193.537435
 30
0.0
 40
1.7
 50
233.968121
 51
270.0
  0
ARC
  8
LC-001-001-----0
  6
CONTINUOUS
 62
     1
  5
116
 10
75.658701
 20
193.537435
 30
0.0
 40
1.0
 50
180.0
 51
270.0
  0
ARC
  8
LC-001-001-----0
  6
CONTINUOUS
 62
     1
  5
117
 10
77.058701
 20
187.037435
 30
0.0
 40
1.2
 50
0.0
 51
90.0
  0
ARC
  8
LC-001-001-----0
  6
CONTINUOUS
 62
     1
  5
118
 10
75.658701
 20
189.237435
 30
0.0
 40
1.7
 50
180.0
 51
270.0
  0
LINE
  8
LC-001-001-----0
  6
CONTINUOUS
 62
     1
  5
119
 10
72.958701
 20
197.537435
 30
0.0
 11
72.458701
 21
197.537435
 31
0.0
  0
LINE
  8
LC-001-001-----0
  6
CONTINUOUS
 62
     1
  5
11A
 10
72.958701
 20
198.237435
 30
0.0
 11
72.458701
 21
198.237435
 31
0.0
  0
LINE
  8
LC-001-001-----0
  6
CONTINUOUS
 62
     1
  5
11B
 10
70.258701
 20
191.837435
 30
0.0
 11
73.958701
 21
191.837435
 31
0.0
  0
ARC
  8
LC-001-001-----0
  6
CONTINUOUS
 62
     1
  5
11C
 10
72.458701
 20
196.537435
 30
0.0
 40
1.0
 50
90.0
 51
180.0
  0
ARC
  8
LC-001-001-----0
  6
CONTINUOUS
 62
     1
  5
11D
 10
72.458701
 20
196.537435
 30
0.0
 40
1.7
 50
90.0
 51
180.0
  0
LINE
  8
LC-002-002-----0
  6
CONTINUOUS
  5
11E
 10
70.258701
 20
192.678993
 30
0.0
 11
70.258701
 21
191.837435
 31
0.0
  0
LINE
  8
LC-001-001-----0
  6
CONTINUOUS
 62
     1
  5
11F
 10
70.758701
 20
196.537435
 30
0.0
 11
70.758701
 21
193.797027
 31
0.0
  0
LINE
  8
LC-001-001-----0
  6
CONTINUOUS
 62
     1
  5
120
 10
71.458701
 20
193.797027
 30
0.0
 11
71.458701
 21
196.537435
 31
0.0
  0
ARC
  8
LC-001-001-----0
  6
CONTINUOUS
 62
     1
  5
121
 10
72.958701
 20
196.537435
 30
0.0
 40
1.0
 50
0.0
 51
90.0
  0
ARC
  8
LC-001-001-----0
  6
CONTINUOUS
 62
     1
  5
122
 10
72.958701
 20
196.537435
 30
0.0
 40
1.0
 50
0.0
 51
90.0
  0
ARC
  8
LC-001-001-----0
  6
CONTINUOUS
 62
     1
  5
123
 10
72.958701
 20
196.537435
 30
0.0
 40
1.7
 50
0.0
 51
90.0
  0
LINE
  8
LC-001-001-----0
  6
CONTINUOUS
 62
     1
  5
124
 10
74.658701
 20
198.237435
 30
0.0
 11
72.958701
 21
198.237435
 31
0.0
  0
LINE
  8
LC-001-001-----0
  6
CONTINUOUS
 62
     1
  5
125
 10
166.858701
 20
198.237435
 30
0.0
 11
120.758701
 21
198.237435
 31
0.0
  0
LINE
  8
LC-001-001-----0
  6
CONTINUOUS
 62
     1
  5
126
 10
164.458701
 20
188.237435
 30
0.0
 11
120.758701
 21
188.237435
 31
0.0
  0
LINE
  8
LC-001-001-----0
  6
CONTINUOUS
 62
     1
  5
127
 10
165.858701
 20
191.837435
 30
0.0
 11
120.758701
 21
191.837435
 31
0.0
  0
LINE
  8
LC-002-002-----0
  6
CONTINUOUS
  5
128
 10
162.908423
 20
178.628125
 30
0.0
 11
120.758701
 21
178.628125
 31
0.0
  0
LINE
  8
LC-002-002-----0
  6
CONTINUOUS
  5
129
 10
163.522547
 20
178.268755
 30
0.0
 11
120.758701
 21
178.268755
 31
0.0
  0
LINE
  8
LC-001-001-----0
  6
CONTINUOUS
 62
     1
  5
12A
 10
163.958701
 20
187.037435
 30
0.0
 11
163.958701
 21
182.537435
 31
0.0
  0
LINE
  8
LC-001-001-----0
  6
CONTINUOUS
 62
     1
  5
12B
 10
163.258701
 20
187.037435
 30
0.0
 11
163.258701
 21
181.837435
 31
0.0
  0
ARC
  8
LC-002-002-----0
  6
CONTINUOUS
  5
12C
 10
163.933701
 20
181.737435
 30
0.0
 40
0.8
 50
340.0
 51
88.209215
  0
LINE
  8
LC-002-002-----0
  6
CONTINUOUS
  5
12D
 10
120.758701
 20
181.837435
 30
0.0
 11
164.076516
 21
181.837435
 31
0.0
  0
LINE
  8
LC-001-001-----0
  6
CONTINUOUS
 62
     1
  5
12E
 10
166.858701
 20
196.537435
 30
0.0
 11
166.858701
 21
193.537435
 31
0.0
  0
LINE
  8
LC-001-001-----0
  6
CONTINUOUS
 62
     1
  5
12F
 10
167.558701
 20
196.537435
 30
0.0
 11
167.558701
 21
190.837435
 31
0.0
  0
ARC
  8
LC-001-001-----0
  6
CONTINUOUS
 62
     1
  5
130
 10
164.458701
 20
187.037435
 30
0.0
 40
0.5
 50
90.0
 51
180.0
  0
LINE
  8
LC-001-001-----0
  6
CONTINUOUS
 62
     1
  5
131
 10
164.458701
 20
187.537435
 30
0.0
 11
165.858701
 21
187.537435
 31
0.0
  0
LINE
  8
LC-001-001-----0
  6
CONTINUOUS
 62
     1
  5
132
 10
167.558701
 20
190.837435
 30
0.0
 11
167.558701
 21
189.237435
 31
0.0
  0
ARC
  8
LC-001-001-----0
  6
CONTINUOUS
 62
     1
  5
133
 10
165.858701
 20
189.237435
 30
0.0
 40
1.0
 50
270.0
 51
0.0
  0
LINE
  8
LC-001-001-----0
  6
CONTINUOUS
 62
     1
  5
134
 10
165.858701
 20
187.537435
 30
0.0
 11
164.458701
 21
187.537435
 31
0.0
  0
LINE
  8
LC-001-001-----0
  6
CONTINUOUS
 62
     1
  5
135
 10
165.858701
 20
188.237435
 30
0.0
 11
164.458701
 21
188.237435
 31
0.0
  0
LINE
  8
LC-001-001-----0
  6
CONTINUOUS
 62
     1
  5
136
 10
166.858701
 20
193.537435
 30
0.0
 11
166.858701
 21
189.237435
 31
0.0
  0
ARC
  8
LC-001-001-----0
  6
CONTINUOUS
 62
     1
  5
137
 10
165.858701
 20
193.537435
 30
0.0
 40
1.7
 50
270.0
 51
306.031879
  0
ARC
  8
LC-001-001-----0
  6
CONTINUOUS
 62
     1
  5
138
 10
165.858701
 20
193.537435
 30
0.0
 40
1.0
 50
270.0
 51
0.0
  0
ARC
  8
LC-001-001-----0
  6
CONTINUOUS
 62
     1
  5
139
 10
164.458701
 20
187.037435
 30
0.0
 40
1.2
 50
90.0
 51
180.0
  0
ARC
  8
LC-001-001-----0
  6
CONTINUOUS
 62
     1
  5
13A
 10
165.858701
 20
189.237435
 30
0.0
 40
1.7
 50
270.0
 51
0.0
  0
LINE
  8
LC-001-001-----0
  6
CONTINUOUS
 62
     1
  5
13B
 10
168.558701
 20
197.537435
 30
0.0
 11
169.058701
 21
197.537435
 31
0.0
  0
LINE
  8
LC-001-001-----0
  6
CONTINUOUS
 62
     1
  5
13C
 10
168.558701
 20
198.237435
 30
0.0
 11
169.058701
 21
198.237435
 31
0.0
  0
LINE
  8
LC-001-001-----0
  6
CONTINUOUS
 62
     1
  5
13D
 10
171.258701
 20
191.837435
 30
0.0
 11
167.558701
 21
191.837435
 31
0.0
  0
ARC
  8
LC-001-001-----0
  6
CONTINUOUS
 62
     1
  5
13E
 10
169.058701
 20
196.537435
 30
0.0
 40
1.0
 50
0.0
 51
90.0
  0
ARC
  8
LC-001-001-----0
  6
CONTINUOUS
 62
     1
  5
13F
 10
169.058701
 20
196.537435
 30
0.0
 40
1.7
 50
0.0
 51
90.0
  0
LINE
  8
LC-002-002-----0
  6
CONTINUOUS
  5
140
 10
171.258701
 20
192.678993
 30
0.0
 11
171.258701
 21
191.837435
 31
0.0
  0
LINE
  8
LC-001-001-----0
  6
CONTINUOUS
 62
     1
  5
141
 10
170.758701
 20
196.537435
 30
0.0
 11
170.758701
 21
193.797027
 31
0.0
  0
LINE
  8
LC-001-001-----0
  6
CONTINUOUS
 62
     1
  5
142
 10
272.608701
 20
120.137435
 30
0.0
 11
361.608701
 21
120.137435
 31
0.0
  0
LINE
  8
LC-002-002-----0
  6
CONTINUOUS
  5
143
 10
267.108701
 20
215.137435
 30
0.0
 11
267.108701
 21
126.137435
 31
0.0
  0
LINE
  8
LC-001-001-----0
  6
CONTINUOUS
 62
     1
  5
144
 10
360.408701
 20
124.537435
 30
0.0
 11
273.808701
 21
124.537435
 31
0.0
  0
ARC
  8
LC-002-002-----0
  6
CONTINUOUS
  5
145
 10
272.608701
 20
126.137435
 30
0.0
 40
5.5
 50
180.0
 51
270.0
  0
ARC
  8
LC-001-001-----0
  6
CONTINUOUS
 62
     1
  5
146
 10
272.608701
 20
126.137435
 30
0.0
 40
6.0
 50
180.0
 51
270.0
  0
ARC
  8
LC-005-001-RND-0
  6
CONTINUOUS
  5
148
 10
273.808701
 20
127.337435
 30
0.0
 40
2.8
 50
180.0
 51
270.0
  0
ARC
  8
LC-001-001-----0
  6
CONTINUOUS
 62
     1
  5
149
 10
361.608701
 20
126.137435
 30
0.0
 40
6.0
 50
270.0
 51
0.0
  0
LINE
  8
LC-002-002-----0
  6
CONTINUOUS
  5
14A
 10
272.608701
 20
120.637435
 30
0.0
 11
361.608701
 21
120.637435
 31
0.0
  0
ARC
  8
LC-001-001-----0
  6
CONTINUOUS
 62
     1
  5
14B
 10
360.408701
 20
127.337435
 30
0.0
 40
2.8
 50
270.0
 51
0.0
  0
ARC
  8
LC-002-002-----0
  6
CONTINUOUS
  5
14C
 10
361.608701
 20
126.137435
 30
0.0
 40
5.5
 50
270.0
 51
0.0
  0
LINE
  8
LC-001-001-----0
  6
CONTINUOUS
 62
     1
  5
14D
 10
361.608701
 20
221.137435
 30
0.0
 11
272.608701
 21
221.137435
 31
0.0
  0
LINE
  8
LC-001-001-----0
  6
CONTINUOUS
 62
     1
  5
14E
 10
360.408701
 20
216.737435
 30
0.0
 11
273.808701
 21
216.737435
 31
0.0
  0
ARC
  8
LC-001-001-----0
  6
CONTINUOUS
 62
     1
  5
14F
 10
272.608701
 20
215.137435
 30
0.0
 40
6.0
 50
90.0
 51
180.0
  0
LINE
  8
LC-002-002-----0
  6
CONTINUOUS
  5
150
 10
367.108701
 20
126.137435
 30
0.0
 11
367.108701
 21
215.137435
 31
0.0
  0
ARC
  8
LC-001-001-----0
  6
CONTINUOUS
 62
     1
  5
151
 10
273.808701
 20
213.937435
 30
0.0
 40
2.8
 50
90.0
 51
180.0
  0
ARC
  8
LC-001-001-----0
  6
CONTINUOUS
 62
     1
  5
152
 10
361.608701
 20
215.137435
 30
0.0
 40
6.0
 50
360.0
 51
90.0
  0
ARC
  8
LC-002-002-----0
  6
CONTINUOUS
  5
153
 10
361.608701
 20
215.137435
 30
0.0
 40
5.5
 50
0.0
 51
90.0
  0
ARC
  8
LC-005-001-RND-0
  6
CONTINUOUS
  5
154
 10
360.408701
 20
213.937435
 30
0.0
 40
2.8
 50
0.0
 51
90.0
  0
ARC
  8
LC-002-002-----0
  6
CONTINUOUS
  5
155
 10
69.258701
 20
193.797027
 30
0.0
 40
1.5
 50
311.810315
 51
0.0
  0
ARC
  8
LC-002-002-----0
  6
CONTINUOUS
  5
156
 10
69.258701
 20
193.797027
 30
0.0
 40
2.2
 50
297.035692
 51
0.0
  0
LINE
  8
LC-002-002-----0
  6
CONTINUOUS
  5
157
 10
77.994855
 20
178.268755
 30
0.0
 11
78.60898
 21
178.628125
 31
0.0
  0
LINE
  8
LC-001-001-----0
  6
CONTINUOUS
 62
     1
  5
158
 10
170.058701
 20
193.797027
 30
0.0
 11
170.058701
 21
196.537435
 31
0.0
  0
LINE
  8
LC-002-002-----0
  6
CONTINUOUS
  5
159
 10
76.831947
 20
181.463819
 30
0.0
 11
77.994855
 21
178.268755
 31
0.0
  0
LINE
  8
LC-002-002-----0
  6
CONTINUOUS
  5
15A
 10
77.440886
 20
181.837435
 30
0.0
 11
78.60898
 21
178.628125
 31
0.0
  0
ARC
  8
LC-001-001-----0
  6
CONTINUOUS
 62
     1
  5
15B
 10
168.558701
 20
196.537435
 30
0.0
 40
1.0
 50
90.0
 51
180.0
  0
ARC
  8
LC-001-001-----0
  6
CONTINUOUS
 62
     1
  5
15C
 10
168.558701
 20
196.537435
 30
0.0
 40
1.0
 50
90.0
 51
180.0
  0
ARC
  8
LC-001-001-----0
  6
CONTINUOUS
 62
     1
  5
15D
 10
168.558701
 20
196.537435
 30
0.0
 40
1.7
 50
90.0
 51
180.0
  0
LINE
  8
LC-001-001-----0
  6
CONTINUOUS
 62
     1
  5
15E
 10
166.858701
 20
198.237435
 30
0.0
 11
168.558701
 21
198.237435
 31
0.0
  0
ARC
  8
LC-002-002-----0
  6
CONTINUOUS
  5
15F
 10
172.258701
 20
193.797027
 30
0.0
 40
1.5
 50
180.0
 51
228.189685
  0
ARC
  8
LC-002-002-----0
  6
CONTINUOUS
  5
160
 10
172.258701
 20
193.797027
 30
0.0
 40
2.2
 50
180.0
 51
242.964308
  0
LINE
  8
LC-002-002-----0
  6
CONTINUOUS
  5
161
 10
163.522547
 20
178.268755
 30
0.0
 11
162.908423
 21
178.628125
 31
0.0
  0
LINE
  8
LC-002-002-----0
  6
CONTINUOUS
  5
162
 10
164.685455
 20
181.463819
 30
0.0
 11
163.522547
 21
178.268755
 31
0.0
  0
LINE
  8
LC-002-002-----0
  6
CONTINUOUS
  5
163
 10
164.076516
 20
181.837435
 30
0.0
 11
162.908423
 21
178.628125
 31
0.0
  0
LINE
  8
LC-002-002-----0
  6
CONTINUOUS
  5
164
 10
166.608701
 20
187.537435
 30
0.0
 11
166.608701
 21
145.037435
 31
0.0
  0
LINE
  8
LC-002-002-----0
  6
CONTINUOUS
  5
165
 10
166.608701
 20
145.037435
 30
0.0
 11
166.072803
 21
143.037435
 31
0.0
  0
LINE
  8
LC-002-002-----0
  6
CONTINUOUS
  5
166
 10
164.608701
 20
187.537435
 30
0.0
 11
166.608701
 21
187.537435
 31
0.0
  0
LINE
  8
LC-002-002-----0
  6
CONTINUOUS
  5
167
 10
76.908701
 20
187.537435
 30
0.0
 11
76.908701
 21
186.037435
 31
0.0
  0
LINE
  8
LC-002-002-----0
  6
CONTINUOUS
  5
168
 10
76.908701
 20
187.537435
 30
0.0
 11
75.008701
 21
187.537435
 31
0.0
  0
LINE
  8
LC-002-002-----0
  6
CONTINUOUS
  5
169
 10
75.4446
 20
143.037435
 30
0.0
 11
166.072803
 21
143.037435
 31
0.0
  0
LINE
  8
LC-002-002-----0
  6
CONTINUOUS
  5
16A
 10
76.330498
 20
143.037435
 30
0.0
 11
76.758701
 21
143.037435
 31
0.0
  0
LINE
  8
LC-002-002-----0
  6
CONTINUOUS
  5
16B
 10
164.608701
 20
187.537435
 30
0.0
 11
164.608701
 21
186.037435
 31
0.0
  0
LINE
  8
LC-002-002-----0
  6
CONTINUOUS
  5
16C
 10
74.908701
 20
145.037435
 30
0.0
 11
75.4446
 21
143.037435
 31
0.0
  0
LINE
  8
LC-002-002-----0
  6
CONTINUOUS
  5
16D
 10
164.008701
 20
183.037435
 30
0.0
 11
164.608701
 21
183.037435
 31
0.0
  0
LINE
  8
LC-002-002-----0
  6
CONTINUOUS
  5
16E
 10
164.608701
 20
186.037435
 30
0.0
 11
164.008701
 21
183.037435
 31
0.0
  0
LINE
  8
LC-002-002-----0
  6
CONTINUOUS
  5
16F
 10
164.608701
 20
183.037435
 30
0.0
 11
164.608701
 21
143.037435
 31
0.0
  0
LINE
  8
LC-002-002-----0
  6
CONTINUOUS
  5
170
 10
77.508701
 20
183.037435
 30
0.0
 11
76.908701
 21
183.037435
 31
0.0
  0
LINE
  8
LC-002-002-----0
  6
CONTINUOUS
  5
171
 10
76.908701
 20
186.037435
 30
0.0
 11
77.508701
 21
183.037435
 31
0.0
  0
LINE
  8
LC-002-002-----0
  6
CONTINUOUS
  5
172
 10
74.908701
 20
187.537435
 30
0.0
 11
74.908701
 21
145.037435
 31
0.0
  0
LINE
  8
LC-002-002-----0
  6
CONTINUOUS
  5
173
 10
76.908701
 20
183.037435
 30
0.0
 11
76.908701
 21
143.037435
 31
0.0
  0
LINE
  8
LC-002-002-----0
  6
DASHDOT
 62
     2
  5
175
 10
120.758701
 20
198.237435
 30
0.0
 11
120.758701
 21
143.037435
 31
0.0
  0
LINE
  8
LC-002-002-----0
  6
CONTINUOUS
 62
     2
  5
176
 10
79.843561
 20
234.036
 30
0.0
 11
94.843561
 21
234.036
 31
0.0
  0
LINE
  8
LC-002-002-----0
  6
CONTINUOUS
 62
     2
  5
177
 10
94.843561
 20
234.036
 30
0.0
 11
94.843561
 21
249.036
 31
0.0
  0
LINE
  8
LC-002-002-----0
  6
CONTINUOUS
 62
     2
  5
178
 10
79.843561
 20
249.036
 30
0.0
 11
94.843561
 21
249.036
 31
0.0
  0
LINE
  8
LC-002-002-----0
  6
CONTINUOUS
 62
     2
  5
179
 10
79.843561
 20
234.036
 30
0.0
 11
79.843561
 21
249.036
 31
0.0
  0
ENDSEC
  0
EOF
