  0
SECTION
  2
HEADER
  9
$ACADVER
  1
AC1009
  9
$DWGCODEPAGE
  3
dos850
  9
$INSBASE
 10
324.163033
 20
419.545525
 30
0.0
  9
$EXTMIN
 10
-305.836967
 20
-25.954475
 30
0.0
  9
$EXTMAX
 10
534.163033
 20
568.045525
 30
0.0
  9
$LIMMIN
 10
-305.836967
 20
-25.954475
  9
$LIMMAX
 10
534.163033
 20
568.045525
  9
$ORTHOMODE
 70
     0
  9
$REGENMODE
 70
     1
  9
$FILLMODE
 70
     1
  9
$QTEXTMODE
 70
     0
  9
$MIRRTEXT
 70
     1
  9
$DRAGMODE
 70
     2
  9
$LTSCALE
 40
2.0
  9
$OSMODE
 70
     0
  9
$ATTMODE
 70
     1
  9
$TEXTSIZE
 40
0.2
  9
$TRACEWID
 40
0.05
  9
$TEXTSTYLE
  7
STANDARD
  9
$CLAYER
  8
0
  9
$CELTYPE
  6
BYBLOCK
  9
$CECOLOR
 62
     7
  9
$DIMSCALE
 40
2.0
  9
$DIMASZ
 40
3.5
  9
$DIMEXO
 40
0.0625
  9
$DIMDLI
 40
0.38
  9
$DIMRND
 40
0.0
  9
$DIMDLE
 40
0.0
  9
$DIMEXE
 40
0.18
  9
$DIMTP
 40
0.0
  9
$DIMTM
 40
0.0
  9
$DIMTXT
 40
3.5
  9
$DIMCEN
 40
0.09
  9
$DIMTSZ
 40
0.0
  9
$DIMTOL
 70
     0
  9
$DIMLIM
 70
     0
  9
$DIMTIH
 70
     1
  9
$DIMTOH
 70
     1
  9
$DIMSE1
 70
     0
  9
$DIMSE2
 70
     0
  9
$DIMTAD
 70
     1
  9
$DIMZIN
 70
     0
  9
$DIMBLK
  1

  9
$DIMASO
 70
     1
  9
$DIMSHO
 70
     1
  9
$DIMPOST
  1

  9
$DIMAPOST
  1

  9
$DIMALT
 70
     0
  9
$DIMALTD
 70
     2
  9
$DIMALTF
 40
25.4
  9
$DIMLFAC
 40
1.0
  9
$DIMTOFL
 70
     0
  9
$DIMTVP
 40
0.0
  9
$DIMTIX
 70
     0
  9
$DIMSOXD
 70
     0
  9
$DIMSAH
 70
     0
  9
$DIMBLK1
  1

  9
$DIMBLK2
  1

  9
$DIMSTYLE
  2
STANDARD
  9
$DIMCLRD
 70
     0
  9
$DIMCLRE
 70
     0
  9
$DIMCLRT
 70
     0
  9
$DIMTFAC
 40
1.0
  9
$DIMGAP
 40
0.09
  9
$LUNITS
 70
     2
  9
$LUPREC
 70
     6
  9
$AXISMODE
 70
     0
  9
$AXISUNIT
 10
0.0
 20
0.0
  9
$SKETCHINC
 40
0.1
  9
$FILLETRAD
 40
0.0
  9
$AUNITS
 70
     0
  9
$AUPREC
 70
     0
  9
$MENU
  1
acad
  9
$ELEVATION
 40
0.0
  9
$PELEVATION
 40
0.0
  9
$THICKNESS
 40
0.0
  9
$LIMCHECK
 70
     0
  9
$BLIPMODE
 70
     1
  9
$CHAMFERA
 40
0.0
  9
$CHAMFERB
 40
0.0
  9
$SKPOLY
 70
     0
  9
$TDCREATE
 40
0.000000000
  9
$TDUPDATE
 40
0.000000000
  9
$TDINDWG
 40
0.0000000000
  9
$TDUSRTIMER
 40
0.0000000000
  9
$USRTIMER
 70
     1
  9
$ANGBASE
 50
0.0
  9
$ANGDIR
 70
     0
  9
$PDMODE
 70
     0
  9
$PDSIZE
 40
0.0
  9
$PLINEWID
 40
0.0
  9
$COORDS
 70
     0
  9
$SPLFRAME
 70
     0
  9
$SPLINETYPE
 70
     6
  9
$SPLINESEGS
 70
     8
  9
$ATTDIA
 70
     0
  9
$ATTREQ
 70
     1
  9
$HANDLING
 70
     1
  9
$HANDSEED
  5
19E
  9
$SURFTAB1
 70
     6
  9
$SURFTAB2
 70
     6
  9
$SURFTYPE
 70
     6
  9
$SURFU
 70
     6
  9
$SURFV
 70
     6
  9
$UCSNAME
  2

  9
$UCSORG
 10
0.0
 20
0.0
 30
0.0
  9
$UCSXDIR
 10
1.0
 20
0.0
 30
0.0
  9
$UCSYDIR
 10
0.0
 20
1.0
 30
0.0
  9
$PUCSNAME
  2

  9
$PUCSORG
 10
0.0
 20
0.0
 30
0.0
  9
$PUCSXDIR
 10
1.0
 20
0.0
 30
0.0
  9
$PUCSYDIR
 10
0.0
 20
1.0
 30
0.0
  9
$USERI1
 70
     0
  9
$USERI2
 70
     0
  9
$USERI3
 70
     0
  9
$USERI4
 70
     0
  9
$USERI5
 70
     0
  9
$USERR1
 40
0.0
  9
$USERR2
 40
0.0
  9
$USERR3
 40
0.0
  9
$USERR4
 40
0.0
  9
$USERR5
 40
0.0
  9
$WORLDVIEW
 70
     1
  9
$SHADEDGE
 70
     3
  9
$SHADEDIF
 70
    70
  9
$TILEMODE
 70
     1
  9
$MAXACTVP
 70
    16
  9
$PINSBASE
 10
0.0
 20
0.0
 30
0.0
  9
$PLIMCHECK
 70
     0
  9
$PEXTMIN
 10
-305.836967
 20
-25.954475
 30
0.0
  9
$PEXTMAX
 10
534.163033
 20
568.045525
 30
0.0
  9
$PLIMMIN
 10
-305.836967
 20
-25.954475
  9
$PLIMMAX
 10
534.163033
 20
568.045525
  9
$UNITMODE
 70
     0
  9
$VISRETAIN
 70
     0
  9
$PLINEGEN
 70
     1
  9
$PSLTSCALE
 70
     0
  9
$TREEDEPTH
 70
  3020
  0
ENDSEC
  0
SECTION
  2
TABLES
  0
TABLE
  2
VPORT
 70
     1
  0
VPORT
  2
*ACTIVE
 70
     0
 10
0.0
 20
0.0
 11
1.0
 21
1.0
 12
420.0
 22
297.0
 13
0.0
 23
0.0
 14
1.0
 24
1.0
 15
0.0
 25
0.0
 16
0.0
 26
0.0
 36
1.0
 17
-305.836967
 27
-25.954475
 37
0.0
 40
594.0
 41
1.604229
 42
50.0
 43
0.0
 44
0.0
 50
0.0
 51
0.0
 71
     0
 72
   100
 73
     1
 74
     1
 75
     0
 76
     0
 77
     0
 78
     0
  0
ENDTAB
  0
TABLE
  2
LTYPE
 70
     2
  0
LTYPE
  2
CONTINUOUS
 70
    64
  3
Solid line
 72
    65
 73
     0
 40
0.0
  0
LTYPE
  2
DASHDOT
 70
    64
  3
LC-Solid line
 72
    65
 73
     4
 40
4.0
 49
2.0
 49
-0.9
 49
0.2
 49
-0.9
  0
ENDTAB
  0
TABLE
  2
LAYER
 70
    11
  0
LAYER
  2
0
 70
     0
 62
     7
  6
CONTINUOUS
  0
LAYER
  2
LC-INFO-1-2-MM-A3-0
 70
     1
 62
   255
  6
BYBLOCK
  0
LAYER
  2
LC-3D-HIDDEN
 70
     0
 62
     9
  6
BYBLOCK
  0
LAYER
  2
LC-CUT-HIDDEN
 70
     0
 62
     9
  6
BYBLOCK
  0
LAYER
  2
LC-VIEWPORT
 70
     0
 62
     7
  6
BYBLOCK
  0
LAYER
  2
LC-001-002-----0
 70
     0
 62
     1
  6
BYBLOCK
  0
LAYER
  2
LC-002-005-----0
 70
     0
 62
     2
  6
BYBLOCK
  0
LAYER
  2
LC-003-002-RND-0
 70
     0
 62
     1
  6
BYBLOCK
  0
LAYER
  2
LC-004-003-MTH-0
 70
     0
 62
     2
  6
BYBLOCK
  0
LAYER
  2
LC-005-003-----0
 70
     0
 62
     2
  6
BYBLOCK
  0
LAYER
  2
LC-006-003-MTG-0
 70
     0
 62
     2
  6
BYBLOCK
  0
ENDTAB
  0
TABLE
  2
STYLE
 70
     3
  0
STYLE
  2
STANDARD
 70
     0
 40
0.0
 41
1.0
 50
0.0
 71
     0
 42
0.0
  3
txt
  4

  0
STYLE
  2
LCTX15-400-0-0-ARIAL
 70
    64
 40
3.5
 41
1.0
 50
0.0
 71
     0
 42
0.0
  3
Arial
  4

  0
STYLE
  2
LCTX15-400-0-0-DIN-SCHRIF2
 70
    64
 40
0.0
 41
1.0
 50
1.5
 71
     0
 42
3.5
  3
STANDARD
  4

  0
ENDTAB
  0
TABLE
  2
VIEW
 70
     0
  0
ENDTAB
  0
TABLE
  2
UCS
 70
     0
  0
ENDTAB
  0
TABLE
  2
APPID
 70
     1
  0
APPID
  2
ACAD
 70
     0
  0
ENDTAB
  0
TABLE
  2
DIMSTYLE
 70
     2
  0
DIMSTYLE
  2
STANDARD
 70
     0
  3

  4

  5

  6

  7

 40
1.0
 41
0.18
 42
0.0625
 43
0.38
 44
0.18
 45
0.0
 46
0.0
 47
0.0
 48
0.0
 71
     0
 72
     0
 73
     1
 74
     1
 75
     0
 76
     0
 77
     0
 78
     0
140
0.18
141
0.09
142
0.0
143
25.4
144
1.0
145
0.0
146
1.0
147
0.09
170
     0
171
     2
172
     0
173
     0
174
     0
175
     0
176
     0
177
     0
178
     0
  0
DIMSTYLE
  2
LC-DIM-L-0140-02-02
 70
     0
  3

  4

  5

  6

  7

 40
2.0
 41
3.5
 42
0.0
 43
7.5
 44
1.8
 45
0.0
 46
0.0
 47
0.0
 48
0.0
 71
     0
 72
     0
 73
     0
 74
     0
 75
     0
 76
     0
 77
     1
 78
     8
140
14.0
141
0.0
142
0.0
143
25.4
144
1.0
145
0.0
146
0.71
147
1.5
170
     0
171
     2
172
     0
173
     0
174
     0
175
     0
176
     2
177
     2
178
     2
  0
ENDTAB
  0
ENDSEC
  0
SECTION
  2
BLOCKS
  0
BLOCK
  8
0
  5
41
  2
*X0
 70
    65
 10
-14.282256
 20
356.069742
 30
0.0
  3
*X0
  0
LINE
  8
LC-002-005-----0
  6
BYBLOCK
 62
     2
  5
43
 10
-13.895945
 20
356.628009
 30
0.0
 11
-11.882256
 21
358.641697
 31
0.0
  0
LINE
  8
LC-002-005-----0
 62
     2
  5
44
 10
-14.282256
 20
359.070124
 30
0.0
 11
-11.882256
 21
361.470124
 31
0.0
  0
LINE
  8
LC-002-005-----0
 62
     2
  5
45
 10
-14.282256
 20
361.898552
 30
0.0
 11
-11.882256
 21
364.298552
 31
0.0
  0
LINE
  8
LC-002-005-----0
 62
     2
  5
46
 10
-14.282256
 20
364.726979
 30
0.0
 11
-11.882256
 21
367.126979
 31
0.0
  0
LINE
  8
LC-002-005-----0
 62
     2
  5
47
 10
-14.282256
 20
367.555406
 30
0.0
 11
-11.882256
 21
369.955406
 31
0.0
  0
LINE
  8
LC-002-005-----0
 62
     2
  5
48
 10
-14.282256
 20
370.383833
 30
0.0
 11
-11.882256
 21
372.783833
 31
0.0
  0
LINE
  8
LC-002-005-----0
 62
     2
  5
49
 10
-14.282256
 20
373.21226
 30
0.0
 11
-11.882256
 21
375.61226
 31
0.0
  0
LINE
  8
LC-002-005-----0
 62
     2
  5
4A
 10
-14.282256
 20
376.040687
 30
0.0
 11
-11.882256
 21
378.440687
 31
0.0
  0
LINE
  8
LC-002-005-----0
 62
     2
  5
4B
 10
-14.282256
 20
378.869114
 30
0.0
 11
-11.882256
 21
381.269114
 31
0.0
  0
LINE
  8
LC-002-005-----0
 62
     2
  5
4C
 10
-14.282256
 20
381.697541
 30
0.0
 11
-11.882256
 21
384.097541
 31
0.0
  0
LINE
  8
LC-002-005-----0
 62
     2
  5
4D
 10
-14.282256
 20
384.525969
 30
0.0
 11
-11.882256
 21
386.925969
 31
0.0
  0
LINE
  8
LC-002-005-----0
 62
     2
  5
4E
 10
-14.282256
 20
387.354396
 30
0.0
 11
-11.882256
 21
389.754396
 31
0.0
  0
LINE
  8
LC-002-005-----0
 62
     2
  5
4F
 10
-14.282256
 20
390.182823
 30
0.0
 11
-11.882256
 21
392.582823
 31
0.0
  0
LINE
  8
LC-002-005-----0
 62
     2
  5
50
 10
-14.282256
 20
393.01125
 30
0.0
 11
-11.882256
 21
395.41125
 31
0.0
  0
LINE
  8
LC-002-005-----0
 62
     2
  5
51
 10
-14.282256
 20
395.839677
 30
0.0
 11
-11.132256
 21
398.989677
 31
0.0
  0
LINE
  8
LC-002-005-----0
 62
     2
  5
52
 10
-14.282256
 20
398.668104
 30
0.0
 11
-12.256437
 21
400.693923
 31
0.0
  0
LINE
  8
LC-002-005-----0
 62
     2
  5
53
 10
-14.282256
 20
401.496531
 30
0.0
 11
-13.132256
 21
402.646531
 31
0.0
  0
ENDBLK
  8
0
  5
54
  0
BLOCK
  8
0
  5
57
  2
*X1
 70
    65
 10
92.367744
 20
356.069742
 30
0.0
  3
*X1
  0
LINE
  8
LC-002-005-----0
 62
     2
  5
58
 10
93.117744
 20
356.161467
 30
0.0
 11
95.517744
 21
358.561467
 31
0.0
  0
LINE
  8
LC-002-005-----0
 62
     2
  5
59
 10
93.117744
 20
358.989894
 30
0.0
 11
95.517744
 21
361.389894
 31
0.0
  0
LINE
  8
LC-002-005-----0
 62
     2
  5
5A
 10
93.117744
 20
361.818321
 30
0.0
 11
95.517744
 21
364.218321
 31
0.0
  0
LINE
  8
LC-002-005-----0
 62
     2
  5
5B
 10
93.117744
 20
364.646748
 30
0.0
 11
95.517744
 21
367.046748
 31
0.0
  0
LINE
  8
LC-002-005-----0
 62
     2
  5
5C
 10
93.117744
 20
367.475175
 30
0.0
 11
95.517744
 21
369.875175
 31
0.0
  0
LINE
  8
LC-002-005-----0
 62
     2
  5
5D
 10
93.117744
 20
370.303602
 30
0.0
 11
95.517744
 21
372.703602
 31
0.0
  0
LINE
  8
LC-002-005-----0
 62
     2
  5
5E
 10
93.117744
 20
373.132029
 30
0.0
 11
95.517744
 21
375.532029
 31
0.0
  0
LINE
  8
LC-002-005-----0
 62
     2
  5
5F
 10
93.117744
 20
375.960456
 30
0.0
 11
95.517744
 21
378.360456
 31
0.0
  0
LINE
  8
LC-002-005-----0
 62
     2
  5
60
 10
93.117744
 20
378.788884
 30
0.0
 11
95.517744
 21
381.188884
 31
0.0
  0
LINE
  8
LC-002-005-----0
 62
     2
  5
61
 10
93.117744
 20
381.617311
 30
0.0
 11
95.517744
 21
384.017311
 31
0.0
  0
LINE
  8
LC-002-005-----0
 62
     2
  5
62
 10
93.117744
 20
384.445738
 30
0.0
 11
95.517744
 21
386.845738
 31
0.0
  0
LINE
  8
LC-002-005-----0
 62
     2
  5
63
 10
93.117744
 20
387.274165
 30
0.0
 11
95.517744
 21
389.674165
 31
0.0
  0
LINE
  8
LC-002-005-----0
 62
     2
  5
64
 10
93.117744
 20
390.102592
 30
0.0
 11
95.517744
 21
392.502592
 31
0.0
  0
LINE
  8
LC-002-005-----0
 62
     2
  5
65
 10
93.117744
 20
392.931019
 30
0.0
 11
95.517744
 21
395.331019
 31
0.0
  0
LINE
  8
LC-002-005-----0
 62
     2
  5
66
 10
93.117744
 20
395.759446
 30
0.0
 11
95.517744
 21
398.159446
 31
0.0
  0
LINE
  8
LC-002-005-----0
 62
     2
  5
67
 10
92.599613
 20
398.069742
 30
0.0
 11
95.517744
 21
400.987873
 31
0.0
  0
LINE
  8
LC-002-005-----0
 62
     2
  5
68
 10
94.367744
 20
402.666301
 30
0.0
 11
94.771186
 21
403.069742
 31
0.0
  0
ENDBLK
  8
0
  5
69
  0
BLOCK
  8
0
  5
78
  2
*X2
 70
    65
 10
-58.382256
 20
368.319525
 30
0.0
  3
*X2
  0
LINE
  8
LC-002-005-----0
 62
     2
  5
79
 10
-16.346564
 20
368.319525
 30
0.0
 11
-15.382256
 21
369.283833
 31
0.0
  0
LINE
  8
LC-002-005-----0
 62
     2
  5
7A
 10
-16.882256
 20
370.61226
 30
0.0
 11
-15.382256
 21
372.11226
 31
0.0
  0
LINE
  8
LC-002-005-----0
 62
     2
  5
7B
 10
-19.703418
 20
370.619525
 30
0.0
 11
-17.703418
 21
372.619525
 31
0.0
  0
LINE
  8
LC-002-005-----0
 62
     2
  5
7C
 10
-22.531845
 20
370.619525
 30
0.0
 11
-20.531845
 21
372.619525
 31
0.0
  0
LINE
  8
LC-002-005-----0
 62
     2
  5
7D
 10
-25.360272
 20
370.619525
 30
0.0
 11
-23.360272
 21
372.619525
 31
0.0
  0
LINE
  8
LC-002-005-----0
 62
     2
  5
7E
 10
-28.188699
 20
370.619525
 30
0.0
 11
-26.188699
 21
372.619525
 31
0.0
  0
LINE
  8
LC-002-005-----0
 62
     2
  5
7F
 10
-33.317126
 20
368.319525
 30
0.0
 11
-29.017126
 21
372.619525
 31
0.0
  0
LINE
  8
LC-002-005-----0
 62
     2
  5
80
 10
-36.145553
 20
368.319525
 30
0.0
 11
-31.845553
 21
372.619525
 31
0.0
  0
LINE
  8
LC-002-005-----0
 62
     2
  5
81
 10
-38.973981
 20
368.319525
 30
0.0
 11
-34.673981
 21
372.619525
 31
0.0
  0
LINE
  8
LC-002-005-----0
 62
     2
  5
82
 10
-41.802408
 20
368.319525
 30
0.0
 11
-37.502408
 21
372.619525
 31
0.0
  0
LINE
  8
LC-002-005-----0
 62
     2
  5
83
 10
-44.630835
 20
368.319525
 30
0.0
 11
-40.330835
 21
372.619525
 31
0.0
  0
LINE
  8
LC-002-005-----0
 62
     2
  5
84
 10
-47.459262
 20
368.319525
 30
0.0
 11
-43.159262
 21
372.619525
 31
0.0
  0
LINE
  8
LC-002-005-----0
 62
     2
  5
85
 10
-50.287689
 20
368.319525
 30
0.0
 11
-45.987689
 21
372.619525
 31
0.0
  0
LINE
  8
LC-002-005-----0
 62
     2
  5
86
 10
-53.116116
 20
368.319525
 30
0.0
 11
-48.816116
 21
372.619525
 31
0.0
  0
LINE
  8
LC-002-005-----0
 62
     2
  5
87
 10
-55.944543
 20
368.319525
 30
0.0
 11
-51.644543
 21
372.619525
 31
0.0
  0
LINE
  8
LC-002-005-----0
 62
     2
  5
88
 10
-58.382256
 20
368.71024
 30
0.0
 11
-54.47297
 21
372.619525
 31
0.0
  0
LINE
  8
LC-002-005-----0
 62
     2
  5
89
 10
-58.382256
 20
371.538667
 30
0.0
 11
-57.301398
 21
372.619525
 31
0.0
  0
ENDBLK
  8
0
  5
8A
  0
BLOCK
  8
0
  5
8D
  2
*X3
 70
    65
 10
96.617744
 20
368.319525
 30
0.0
  3
*X3
  0
LINE
  8
LC-002-005-----0
 62
     2
  5
8E
 10
139.216928
 20
368.319525
 30
0.0
 11
139.617744
 21
368.720341
 31
0.0
  0
LINE
  8
LC-002-005-----0
 62
     2
  5
8F
 10
136.388501
 20
368.319525
 30
0.0
 11
139.617744
 21
371.548768
 31
0.0
  0
LINE
  8
LC-002-005-----0
 62
     2
  5
90
 10
133.560074
 20
368.319525
 30
0.0
 11
137.860074
 21
372.619525
 31
0.0
  0
LINE
  8
LC-002-005-----0
 62
     2
  5
91
 10
130.731647
 20
368.319525
 30
0.0
 11
135.031647
 21
372.619525
 31
0.0
  0
LINE
  8
LC-002-005-----0
 62
     2
  5
92
 10
127.90322
 20
368.319525
 30
0.0
 11
132.20322
 21
372.619525
 31
0.0
  0
LINE
  8
LC-002-005-----0
 62
     2
  5
93
 10
125.074793
 20
368.319525
 30
0.0
 11
129.374793
 21
372.619525
 31
0.0
  0
LINE
  8
LC-002-005-----0
 62
     2
  5
94
 10
122.246366
 20
368.319525
 30
0.0
 11
126.546366
 21
372.619525
 31
0.0
  0
LINE
  8
LC-002-005-----0
 62
     2
  5
95
 10
119.417938
 20
368.319525
 30
0.0
 11
123.717938
 21
372.619525
 31
0.0
  0
LINE
  8
LC-002-005-----0
 62
     2
  5
96
 10
116.589511
 20
368.319525
 30
0.0
 11
120.889511
 21
372.619525
 31
0.0
  0
LINE
  8
LC-002-005-----0
 62
     2
  5
97
 10
113.761084
 20
368.319525
 30
0.0
 11
118.061084
 21
372.619525
 31
0.0
  0
LINE
  8
LC-002-005-----0
 62
     2
  5
98
 10
112.117744
 20
369.504612
 30
0.0
 11
115.232657
 21
372.619525
 31
0.0
  0
LINE
  8
LC-002-005-----0
 62
     2
  5
99
 10
110.40423
 20
370.619525
 30
0.0
 11
112.40423
 21
372.619525
 31
0.0
  0
LINE
  8
LC-002-005-----0
 62
     2
  5
9A
 10
107.575803
 20
370.619525
 30
0.0
 11
109.575803
 21
372.619525
 31
0.0
  0
LINE
  8
LC-002-005-----0
 62
     2
  5
9B
 10
104.747376
 20
370.619525
 30
0.0
 11
106.747376
 21
372.619525
 31
0.0
  0
LINE
  8
LC-002-005-----0
 62
     2
  5
9C
 10
101.918949
 20
370.619525
 30
0.0
 11
103.918949
 21
372.619525
 31
0.0
  0
LINE
  8
LC-002-005-----0
 62
     2
  5
9D
 10
96.790521
 20
368.319525
 30
0.0
 11
98.117744
 21
369.646748
 31
0.0
  0
LINE
  8
LC-002-005-----0
 62
     2
  5
9E
 10
99.090521
 20
370.619525
 30
0.0
 11
101.090521
 21
372.619525
 31
0.0
  0
LINE
  8
LC-002-005-----0
 62
     2
  5
9F
 10
96.617744
 20
370.975175
 30
0.0
 11
98.262094
 21
372.619525
 31
0.0
  0
ENDBLK
  8
0
  5
A0
  0
BLOCK
  8
0
  5
AC
  2
*X4
 70
    65
 10
-18.782256
 20
394.166056
 30
0.0
  3
*X4
  0
LINE
  8
LC-002-005-----0
 62
     2
  5
AD
 10
-10.244919
 20
394.22016
 30
0.0
 11
-9.818698
 21
394.64638
 31
0.0
  0
LINE
  8
LC-002-005-----0
 62
     2
  5
AE
 10
-11.123093
 20
396.170413
 30
0.0
 11
-10.573453
 21
396.720053
 31
0.0
  0
LINE
  8
LC-002-005-----0
 62
     2
  5
AF
 10
-10.782256
 20
399.339677
 30
0.0
 11
-10.082256
 21
400.039677
 31
0.0
  0
LINE
  8
LC-002-005-----0
 62
     2
  5
B0
 10
-10.782256
 20
402.168104
 30
0.0
 11
-10.112575
 21
402.837785
 31
0.0
  0
LINE
  8
LC-002-005-----0
 62
     2
  5
B1
 10
-12.709045
 20
403.069742
 30
0.0
 11
-12.009045
 21
403.769742
 31
0.0
  0
LINE
  8
LC-002-005-----0
 62
     2
  5
B2
 10
-14.38145
 20
404.225765
 30
0.0
 11
-13.682256
 21
404.924958
 31
0.0
  0
LINE
  8
LC-002-005-----0
 62
     2
  5
B3
 10
-15.379581
 20
406.05606
 30
0.0
 11
-14.84186
 21
406.593781
 31
0.0
  0
LINE
  8
LC-002-005-----0
 62
     2
  5
B4
 10
-17.662043
 20
406.602025
 30
0.0
 11
-17.163407
 21
407.100662
 31
0.0
  0
LINE
  8
LC-002-005-----0
 62
     2
  5
B5
 10
-18.082256
 20
409.01024
 30
0.0
 11
-17.382256
 21
409.71024
 31
0.0
  0
LINE
  8
LC-002-005-----0
 62
     2
  5
B6
 10
-18.782256
 20
411.138667
 30
0.0
 11
-17.599703
 21
412.32122
 31
0.0
  0
ENDBLK
  8
0
  5
B7
  0
BLOCK
  8
0
  5
FE
  2
*X5
 70
    65
 10
90.477077
 20
394.166056
 30
0.0
  3
*X5
  0
LINE
  8
LC-002-005-----0
 62
     2
  5
FF
 10
91.552293
 20
394.193995
 30
0.0
 11
91.688971
 21
394.330673
 31
0.0
  0
LINE
  8
LC-002-005-----0
 62
     2
  5
100
 10
91.935848
 20
397.405978
 30
0.0
 11
92.445046
 21
397.915176
 31
0.0
  0
LINE
  8
LC-002-005-----0
 62
     2
  5
101
 10
91.317744
 20
399.616301
 30
0.0
 11
92.017744
 21
400.316301
 31
0.0
  0
LINE
  8
LC-002-005-----0
 62
     2
  5
102
 10
94.852844
 20
403.151401
 30
0.0
 11
95.536085
 21
403.834642
 31
0.0
  0
LINE
  8
LC-002-005-----0
 62
     2
  5
103
 10
98.015572
 20
406.314128
 30
0.0
 11
99.317744
 21
407.616301
 31
0.0
  0
LINE
  8
LC-002-005-----0
 62
     2
  5
104
 10
91.317744
 20
402.444728
 30
0.0
 11
92.642759
 21
403.769742
 31
0.0
  0
LINE
  8
LC-002-005-----0
 62
     2
  5
105
 10
98.617744
 20
409.744728
 30
0.0
 11
100.017744
 21
411.144728
 31
0.0
  0
ENDBLK
  8
0
  5
106
  0
BLOCK
  8
0
  5
10D
  2
*D6
 70
    65
 10
0.0
 20
0.0
 30
0.0
  3
*D6
  0
LINE
  8
LC-004-003-MTH-0
  6
BYBLOCK
 62
     2
  5
10F
 10
93.117744
 20
356.069742
 30
0.0
 11
170.440778
 21
356.069742
 31
0.0
  0
LINE
  8
LC-004-003-MTH-0
 62
     2
  5
110
 10
99.317744
 20
412.514128
 30
0.0
 11
170.440778
 21
412.514128
 31
0.0
  0
LINE
  8
LC-005-003-----0
  6
BYBLOCK
 62
     2
  5
112
 10
157.295511
 20
328.309286
 30
0.0
 11
153.640778
 21
356.069742
 31
0.0
  0
LINE
  8
LC-005-003-----0
 62
     2
  5
113
 10
153.640778
 20
356.069742
 30
0.0
 11
149.986045
 21
328.309286
 31
0.0
  0
LINE
  8
LC-005-003-----0
 62
     2
  5
114
 10
149.986045
 20
328.309286
 30
0.0
 11
157.295511
 21
328.309286
 31
0.0
  0
LINE
  8
LC-005-003-----0
 62
     2
  5
115
 10
156.345281
 20
328.247005
 30
0.0
 11
153.640778
 21
348.789742
 31
0.0
  0
LINE
  8
LC-005-003-----0
 62
     2
  5
116
 10
153.640778
 20
348.789742
 30
0.0
 11
150.936275
 21
328.247005
 31
0.0
  0
LINE
  8
LC-005-003-----0
 62
     2
  5
117
 10
155.39505
 20
328.184723
 30
0.0
 11
153.640778
 21
341.509742
 31
0.0
  0
LINE
  8
LC-005-003-----0
 62
     2
  5
118
 10
153.640778
 20
341.509742
 30
0.0
 11
151.886506
 21
328.184723
 31
0.0
  0
LINE
  8
LC-005-003-----0
 62
     2
  5
119
 10
154.444819
 20
328.122442
 30
0.0
 11
153.640778
 21
334.229742
 31
0.0
  0
LINE
  8
LC-005-003-----0
 62
     2
  5
11A
 10
153.640778
 20
334.229742
 30
0.0
 11
152.836737
 21
328.122442
 31
0.0
  0
LINE
  8
LC-005-003-----0
 62
     2
  5
11B
 10
149.986045
 20
440.274585
 30
0.0
 11
153.640778
 21
412.514128
 31
0.0
  0
LINE
  8
LC-005-003-----0
 62
     2
  5
11C
 10
153.640778
 20
412.514128
 30
0.0
 11
157.295511
 21
440.274585
 31
0.0
  0
LINE
  8
LC-005-003-----0
 62
     2
  5
11D
 10
157.295511
 20
440.274585
 30
0.0
 11
149.986045
 21
440.274585
 31
0.0
  0
LINE
  8
LC-005-003-----0
 62
     2
  5
11E
 10
150.936275
 20
440.336866
 30
0.0
 11
153.640778
 21
419.794128
 31
0.0
  0
LINE
  8
LC-005-003-----0
 62
     2
  5
11F
 10
153.640778
 20
419.794128
 30
0.0
 11
156.345281
 21
440.336866
 31
0.0
  0
LINE
  8
LC-005-003-----0
 62
     2
  5
120
 10
151.886506
 20
440.399147
 30
0.0
 11
153.640778
 21
427.074128
 31
0.0
  0
LINE
  8
LC-005-003-----0
 62
     2
  5
121
 10
153.640778
 20
427.074128
 30
0.0
 11
155.39505
 21
440.399147
 31
0.0
  0
LINE
  8
LC-005-003-----0
 62
     2
  5
122
 10
152.836737
 20
440.461429
 30
0.0
 11
153.640778
 21
434.354128
 31
0.0
  0
LINE
  8
LC-005-003-----0
 62
     2
  5
123
 10
153.640778
 20
434.354128
 30
0.0
 11
154.444819
 21
440.461429
 31
0.0
  0
LINE
  8
LC-006-003-MTG-0
  6
BYBLOCK
 62
     2
  5
125
 10
153.640778
 20
316.869742
 30
0.0
 11
153.640778
 21
498.418128
 31
0.0
  0
TEXT
  8
LC-005-003-----0
 62
     7
  5
126
 10
145.813224
 20
456.062288
 30
0.0
 40
28.0
  1
56
 50
90.0
 41
0.9
 51
15.0
  7
LCTX15-400-0-0-ARIAL
  0
ENDBLK
  8
0
  5
127
  0
BLOCK
  8
0
  5
12C
  2
*D7
 70
    65
 10
0.0
 20
0.0
 30
0.0
  3
*D7
  0
LINE
  8
LC-004-003-MTH-0
 62
     2
  5
12D
 10
-16.882256
 20
406.314128
 30
0.0
 11
-95.2
 21
406.314128
 31
0.0
  0
LINE
  8
LC-004-003-MTH-0
 62
     2
  5
12E
 10
-18.082256
 20
412.514128
 30
0.0
 11
-95.2
 21
412.514128
 31
0.0
  0
LINE
  8
LC-005-003-----0
 62
     2
  5
12F
 10
-74.745267
 20
378.553672
 30
0.0
 11
-78.4
 21
406.314128
 31
0.0
  0
LINE
  8
LC-005-003-----0
 62
     2
  5
130
 10
-78.4
 20
406.314128
 30
0.0
 11
-82.054733
 21
378.553672
 31
0.0
  0
LINE
  8
LC-005-003-----0
 62
     2
  5
131
 10
-82.054733
 20
378.553672
 30
0.0
 11
-74.745267
 21
378.553672
 31
0.0
  0
LINE
  8
LC-005-003-----0
 62
     2
  5
132
 10
-75.695497
 20
378.491391
 30
0.0
 11
-78.4
 21
399.034128
 31
0.0
  0
LINE
  8
LC-005-003-----0
 62
     2
  5
133
 10
-78.4
 20
399.034128
 30
0.0
 11
-81.104503
 21
378.491391
 31
0.0
  0
LINE
  8
LC-005-003-----0
 62
     2
  5
134
 10
-76.645728
 20
378.429109
 30
0.0
 11
-78.4
 21
391.754128
 31
0.0
  0
LINE
  8
LC-005-003-----0
 62
     2
  5
135
 10
-78.4
 20
391.754128
 30
0.0
 11
-80.154272
 21
378.429109
 31
0.0
  0
LINE
  8
LC-005-003-----0
 62
     2
  5
136
 10
-77.595959
 20
378.366828
 30
0.0
 11
-78.4
 21
384.474128
 31
0.0
  0
LINE
  8
LC-005-003-----0
 62
     2
  5
137
 10
-78.4
 20
384.474128
 30
0.0
 11
-79.204041
 21
378.366828
 31
0.0
  0
LINE
  8
LC-005-003-----0
 62
     2
  5
138
 10
-82.054733
 20
440.274585
 30
0.0
 11
-78.4
 21
412.514128
 31
0.0
  0
LINE
  8
LC-005-003-----0
 62
     2
  5
139
 10
-78.4
 20
412.514128
 30
0.0
 11
-74.745267
 21
440.274585
 31
0.0
  0
LINE
  8
LC-005-003-----0
 62
     2
  5
13A
 10
-74.745267
 20
440.274585
 30
0.0
 11
-82.054733
 21
440.274585
 31
0.0
  0
LINE
  8
LC-005-003-----0
 62
     2
  5
13B
 10
-81.104503
 20
440.336866
 30
0.0
 11
-78.4
 21
419.794128
 31
0.0
  0
LINE
  8
LC-005-003-----0
 62
     2
  5
13C
 10
-78.4
 20
419.794128
 30
0.0
 11
-75.695497
 21
440.336866
 31
0.0
  0
LINE
  8
LC-005-003-----0
 62
     2
  5
13D
 10
-80.154272
 20
440.399147
 30
0.0
 11
-78.4
 21
427.074128
 31
0.0
  0
LINE
  8
LC-005-003-----0
 62
     2
  5
13E
 10
-78.4
 20
427.074128
 30
0.0
 11
-76.645728
 21
440.399147
 31
0.0
  0
LINE
  8
LC-005-003-----0
 62
     2
  5
13F
 10
-79.204041
 20
440.461429
 30
0.0
 11
-78.4
 21
434.354128
 31
0.0
  0
LINE
  8
LC-005-003-----0
 62
     2
  5
140
 10
-78.4
 20
434.354128
 30
0.0
 11
-77.595959
 21
440.461429
 31
0.0
  0
LINE
  8
LC-006-003-MTG-0
 62
     2
  5
141
 10
-78.4
 20
311.562128
 30
0.0
 11
-78.4
 21
451.714128
 31
0.0
  0
TEXT
  8
LC-005-003-----0
 62
     7
  5
142
 10
-86.227554
 20
327.110288
 30
0.0
 40
28.0
  1
6,2
 50
90.0
 41
0.9
 51
15.0
  7
LCTX15-400-0-0-ARIAL
 72
     2
 11
-86.227554
 21
371.462288
 31
0.0
  0
ENDBLK
  8
0
  5
143
  0
BLOCK
  8
0
  5
146
  2
*D8
 70
    65
 10
0.0
 20
0.0
 30
0.0
  3
*D8
  0
LINE
  8
LC-004-003-MTH-0
 62
     2
  5
147
 10
-18.782256
 20
410.914128
 30
0.0
 11
-18.782256
 21
448.0
 31
0.0
  0
LINE
  8
LC-004-003-MTH-0
 62
     2
  5
148
 10
100.017744
 20
410.914128
 30
0.0
 11
100.017744
 21
448.0
 31
0.0
  0
LINE
  8
LC-006-003-MTG-0
 62
     2
  5
149
 10
-18.782256
 20
431.2
 30
0.0
 11
100.017744
 21
431.2
 31
0.0
  0
LINE
  8
LC-005-003-----0
 62
     2
  5
14A
 10
8.9782
 20
434.854733
 30
0.0
 11
-18.782256
 21
431.2
 31
0.0
  0
LINE
  8
LC-005-003-----0
 62
     2
  5
14B
 10
-18.782256
 20
431.2
 30
0.0
 11
8.9782
 21
427.545267
 31
0.0
  0
LINE
  8
LC-005-003-----0
 62
     2
  5
14C
 10
8.9782
 20
427.545267
 30
0.0
 11
8.9782
 21
434.854733
 31
0.0
  0
LINE
  8
LC-005-003-----0
 62
     2
  5
14D
 10
9.040482
 20
433.904503
 30
0.0
 11
-11.502256
 21
431.2
 31
0.0
  0
LINE
  8
LC-005-003-----0
 62
     2
  5
14E
 10
-11.502256
 20
431.2
 30
0.0
 11
9.040482
 21
428.495497
 31
0.0
  0
LINE
  8
LC-005-003-----0
 62
     2
  5
14F
 10
9.102763
 20
432.954272
 30
0.0
 11
-4.222256
 21
431.2
 31
0.0
  0
LINE
  8
LC-005-003-----0
 62
     2
  5
150
 10
-4.222256
 20
431.2
 30
0.0
 11
9.102763
 21
429.445728
 31
0.0
  0
LINE
  8
LC-005-003-----0
 62
     2
  5
151
 10
9.165044
 20
432.004041
 30
0.0
 11
3.057744
 21
431.2
 31
0.0
  0
LINE
  8
LC-005-003-----0
 62
     2
  5
152
 10
3.057744
 20
431.2
 30
0.0
 11
9.165044
 21
430.395959
 31
0.0
  0
LINE
  8
LC-005-003-----0
 62
     2
  5
153
 10
72.257288
 20
427.545267
 30
0.0
 11
100.017744
 21
431.2
 31
0.0
  0
LINE
  8
LC-005-003-----0
 62
     2
  5
154
 10
100.017744
 20
431.2
 30
0.0
 11
72.257288
 21
434.854733
 31
0.0
  0
LINE
  8
LC-005-003-----0
 62
     2
  5
155
 10
72.257288
 20
434.854733
 30
0.0
 11
72.257288
 21
427.545267
 31
0.0
  0
LINE
  8
LC-005-003-----0
 62
     2
  5
156
 10
72.195006
 20
428.495497
 30
0.0
 11
92.737744
 21
431.2
 31
0.0
  0
LINE
  8
LC-005-003-----0
 62
     2
  5
157
 10
92.737744
 20
431.2
 30
0.0
 11
72.195006
 21
433.904503
 31
0.0
  0
LINE
  8
LC-005-003-----0
 62
     2
  5
158
 10
72.132725
 20
429.445728
 30
0.0
 11
85.457744
 21
431.2
 31
0.0
  0
LINE
  8
LC-005-003-----0
 62
     2
  5
159
 10
85.457744
 20
431.2
 30
0.0
 11
72.132725
 21
432.954272
 31
0.0
  0
LINE
  8
LC-005-003-----0
 62
     2
  5
15A
 10
72.070444
 20
430.395959
 30
0.0
 11
78.177744
 21
431.2
 31
0.0
  0
LINE
  8
LC-005-003-----0
 62
     2
  5
15B
 10
78.177744
 20
431.2
 30
0.0
 11
72.070444
 21
432.004041
 31
0.0
  0
TEXT
  8
LC-005-003-----0
 62
     7
  5
15C
 10
-18.034096
 20
439.027554
 30
0.0
 40
28.0
  1
%%c120
 41
0.9
 51
15.0
  7
LCTX15-400-0-0-ARIAL
 72
     1
 11
44.965904
 21
439.027554
 31
0.0
  0
ENDBLK
  8
0
  5
15D
  0
BLOCK
  8
0
  5
160
  2
*D9
 70
    65
 10
0.0
 20
0.0
 30
0.0
  3
*D9
  0
LINE
  8
LC-004-003-MTH-0
 62
     2
  5
161
 10
-58.382256
 20
368.319525
 30
0.0
 11
-58.382256
 21
257.6
 31
0.0
  0
LINE
  8
LC-004-003-MTH-0
 62
     2
  5
162
 10
139.617744
 20
368.319525
 30
0.0
 11
139.617744
 21
257.6
 31
0.0
  0
LINE
  8
LC-006-003-MTG-0
 62
     2
  5
163
 10
-58.382256
 20
274.4
 30
0.0
 11
139.617744
 21
274.4
 31
0.0
  0
LINE
  8
LC-005-003-----0
 62
     2
  5
164
 10
-30.6218
 20
278.054733
 30
0.0
 11
-58.382256
 21
274.4
 31
0.0
  0
LINE
  8
LC-005-003-----0
 62
     2
  5
165
 10
-58.382256
 20
274.4
 30
0.0
 11
-30.6218
 21
270.745267
 31
0.0
  0
LINE
  8
LC-005-003-----0
 62
     2
  5
166
 10
-30.6218
 20
270.745267
 30
0.0
 11
-30.6218
 21
278.054733
 31
0.0
  0
LINE
  8
LC-005-003-----0
 62
     2
  5
167
 10
-30.559518
 20
277.104503
 30
0.0
 11
-51.102256
 21
274.4
 31
0.0
  0
LINE
  8
LC-005-003-----0
 62
     2
  5
168
 10
-51.102256
 20
274.4
 30
0.0
 11
-30.559518
 21
271.695497
 31
0.0
  0
LINE
  8
LC-005-003-----0
 62
     2
  5
169
 10
-30.497237
 20
276.154272
 30
0.0
 11
-43.822256
 21
274.4
 31
0.0
  0
LINE
  8
LC-005-003-----0
 62
     2
  5
16A
 10
-43.822256
 20
274.4
 30
0.0
 11
-30.497237
 21
272.645728
 31
0.0
  0
LINE
  8
LC-005-003-----0
 62
     2
  5
16B
 10
-30.434956
 20
275.204041
 30
0.0
 11
-36.542256
 21
274.4
 31
0.0
  0
LINE
  8
LC-005-003-----0
 62
     2
  5
16C
 10
-36.542256
 20
274.4
 30
0.0
 11
-30.434956
 21
273.595959
 31
0.0
  0
LINE
  8
LC-005-003-----0
 62
     2
  5
16D
 10
111.857288
 20
270.745267
 30
0.0
 11
139.617744
 21
274.4
 31
0.0
  0
LINE
  8
LC-005-003-----0
 62
     2
  5
16E
 10
139.617744
 20
274.4
 30
0.0
 11
111.857288
 21
278.054733
 31
0.0
  0
LINE
  8
LC-005-003-----0
 62
     2
  5
16F
 10
111.857288
 20
278.054733
 30
0.0
 11
111.857288
 21
270.745267
 31
0.0
  0
LINE
  8
LC-005-003-----0
 62
     2
  5
170
 10
111.795006
 20
271.695497
 30
0.0
 11
132.337744
 21
274.4
 31
0.0
  0
LINE
  8
LC-005-003-----0
 62
     2
  5
171
 10
132.337744
 20
274.4
 30
0.0
 11
111.795006
 21
277.104503
 31
0.0
  0
LINE
  8
LC-005-003-----0
 62
     2
  5
172
 10
111.732725
 20
272.645728
 30
0.0
 11
125.057744
 21
274.4
 31
0.0
  0
LINE
  8
LC-005-003-----0
 62
     2
  5
173
 10
125.057744
 20
274.4
 30
0.0
 11
111.732725
 21
276.154272
 31
0.0
  0
LINE
  8
LC-005-003-----0
 62
     2
  5
174
 10
111.670444
 20
273.595959
 30
0.0
 11
117.777744
 21
274.4
 31
0.0
  0
LINE
  8
LC-005-003-----0
 62
     2
  5
175
 10
117.777744
 20
274.4
 30
0.0
 11
111.670444
 21
275.204041
 31
0.0
  0
TEXT
  8
LC-005-003-----0
 62
     7
  5
176
 10
-18.034096
 20
282.227554
 30
0.0
 40
28.0
  1
%%c198
 41
0.9
 51
15.0
  7
LCTX15-400-0-0-ARIAL
 72
     1
 11
44.965904
 21
282.227554
 31
0.0
  0
ENDBLK
  8
0
  5
177
  0
BLOCK
  8
0
  5
17A
  2
*D10
 70
    65
 10
0.0
 20
0.0
 30
0.0
  3
*D10
  0
LINE
  8
LC-004-003-MTH-0
 62
     2
  5
17B
 10
-14.282256
 20
358.069742
 30
0.0
 11
-14.282256
 21
296.8
 31
0.0
  0
LINE
  8
LC-004-003-MTH-0
 62
     2
  5
17C
 10
95.517744
 20
358.069742
 30
0.0
 11
95.517744
 21
296.8
 31
0.0
  0
LINE
  8
LC-006-003-MTG-0
 62
     2
  5
17D
 10
-14.282256
 20
313.6
 30
0.0
 11
95.517744
 21
313.6
 31
0.0
  0
LINE
  8
LC-005-003-----0
 62
     2
  5
17E
 10
13.4782
 20
317.254733
 30
0.0
 11
-14.282256
 21
313.6
 31
0.0
  0
LINE
  8
LC-005-003-----0
 62
     2
  5
17F
 10
-14.282256
 20
313.6
 30
0.0
 11
13.4782
 21
309.945267
 31
0.0
  0
LINE
  8
LC-005-003-----0
 62
     2
  5
180
 10
13.4782
 20
309.945267
 30
0.0
 11
13.4782
 21
317.254733
 31
0.0
  0
LINE
  8
LC-005-003-----0
 62
     2
  5
181
 10
13.540482
 20
316.304503
 30
0.0
 11
-7.002256
 21
313.6
 31
0.0
  0
LINE
  8
LC-005-003-----0
 62
     2
  5
182
 10
-7.002256
 20
313.6
 30
0.0
 11
13.540482
 21
310.895497
 31
0.0
  0
LINE
  8
LC-005-003-----0
 62
     2
  5
183
 10
13.602763
 20
315.354272
 30
0.0
 11
0.277744
 21
313.6
 31
0.0
  0
LINE
  8
LC-005-003-----0
 62
     2
  5
184
 10
0.277744
 20
313.6
 30
0.0
 11
13.602763
 21
311.845728
 31
0.0
  0
LINE
  8
LC-005-003-----0
 62
     2
  5
185
 10
13.665044
 20
314.404041
 30
0.0
 11
7.557744
 21
313.6
 31
0.0
  0
LINE
  8
LC-005-003-----0
 62
     2
  5
186
 10
7.557744
 20
313.6
 30
0.0
 11
13.665044
 21
312.795959
 31
0.0
  0
LINE
  8
LC-005-003-----0
 62
     2
  5
187
 10
67.757288
 20
309.945267
 30
0.0
 11
95.517744
 21
313.6
 31
0.0
  0
LINE
  8
LC-005-003-----0
 62
     2
  5
188
 10
95.517744
 20
313.6
 30
0.0
 11
67.757288
 21
317.254733
 31
0.0
  0
LINE
  8
LC-005-003-----0
 62
     2
  5
189
 10
67.757288
 20
317.254733
 30
0.0
 11
67.757288
 21
309.945267
 31
0.0
  0
LINE
  8
LC-005-003-----0
 62
     2
  5
18A
 10
67.695006
 20
310.895497
 30
0.0
 11
88.237744
 21
313.6
 31
0.0
  0
LINE
  8
LC-005-003-----0
 62
     2
  5
18B
 10
88.237744
 20
313.6
 30
0.0
 11
67.695006
 21
316.304503
 31
0.0
  0
LINE
  8
LC-005-003-----0
 62
     2
  5
18C
 10
67.632725
 20
311.845728
 30
0.0
 11
80.957744
 21
313.6
 31
0.0
  0
LINE
  8
LC-005-003-----0
 62
     2
  5
18D
 10
80.957744
 20
313.6
 30
0.0
 11
67.632725
 21
315.354272
 31
0.0
  0
LINE
  8
LC-005-003-----0
 62
     2
  5
18E
 10
67.570444
 20
312.795959
 30
0.0
 11
73.677744
 21
313.6
 31
0.0
  0
LINE
  8
LC-005-003-----0
 62
     2
  5
18F
 10
73.677744
 20
313.6
 30
0.0
 11
67.570444
 21
314.404041
 31
0.0
  0
TEXT
  8
LC-005-003-----0
 62
     7
  5
190
 10
-18.034096
 20
321.427554
 30
0.0
 40
28.0
  1
%%c110
 41
0.9
 51
15.0
  7
LCTX15-400-0-0-ARIAL
 72
     1
 11
44.965904
 21
321.427554
 31
0.0
  0
ENDBLK
  8
0
  5
191
  0
ENDSEC
  0
SECTION
  2
ENTITIES
  0
VIEWPORT
  8
LC-VIEWPORT
  5
195
 67
     1
 68
     1
 10
420.0
 20
297.0
 30
0.0
 40
840.0
 41
594.0
 69
     1
1001
ACAD
1000
MVIEW
1002
{
1070
    16
1010
0.0
1020
0.0
1030
0.0
1010
0.0
1020
0.0
1030
1.0
1040
0.0
1040
594.0
1040
420.0
1040
297.0
1040
50.0
1040
0.0
1040
0.0
1070
     0
1070
   100
1070
     1
1070
     1
1070
     0
1070
     0
1070
     0
1070
     0
1040
0.0
1040
0.0
1040
0.0
1040
1.0
1040
1.0
1040
0.0
1040
0.0
1070
     0
1002
{
1002
}
1002
}
  0
CIRCLE
  8
LC-001-002-----0
  6
BYBLOCK
 62
     1
  5
24
 10
294.517744
 20
384.291935
 30
0.0
 40
56.5
  0
LINE
  8
LC-001-002-----0
 62
     1
  5
25
 10
93.117744
 20
398.069742
 30
0.0
 11
93.117744
 21
356.069742
 31
0.0
  0
CIRCLE
  8
LC-001-002-----0
 62
     1
  5
26
 10
294.517744
 20
384.291935
 30
0.0
 40
54.3
  0
LINE
  8
LC-001-002-----0
 62
     1
  5
27
 10
40.617744
 20
356.069742
 30
0.0
 11
-11.882256
 21
356.069742
 31
0.0
  0
LINE
  8
LC-001-002-----0
 62
     1
  5
28
 10
95.517744
 20
358.069742
 30
0.0
 11
94.981846
 21
356.069742
 31
0.0
  0
LINE
  8
LC-001-002-----0
 62
     1
  5
29
 10
40.617744
 20
356.069742
 30
0.0
 11
93.117744
 21
356.069742
 31
0.0
  0
CIRCLE
  8
LC-001-002-----0
 62
     1
  5
2A
 10
294.517744
 20
384.291935
 30
0.0
 40
50.7
  0
CIRCLE
  8
LC-001-002-----0
 62
     1
  5
2B
 10
294.517744
 20
384.291935
 30
0.0
 40
49.65
  0
LINE
  8
LC-001-002-----0
 62
     1
  5
2C
 10
-14.282256
 20
358.069742
 30
0.0
 11
-13.746358
 21
356.069742
 31
0.0
  0
LINE
  8
LC-001-002-----0
 62
     1
  5
2D
 10
-11.882256
 20
398.069742
 30
0.0
 11
-11.882256
 21
356.069742
 31
0.0
  0
LINE
  8
LC-001-002-----0
 62
     1
  5
2E
 10
-13.132256
 20
401.069742
 30
0.0
 11
-13.132256
 21
403.069742
 31
0.0
  0
LINE
  8
LC-001-002-----0
 62
     1
  5
2F
 10
-11.882256
 20
398.069742
 30
0.0
 11
-11.382256
 21
398.069742
 31
0.0
  0
LINE
  8
LC-001-002-----0
 62
     1
  5
30
 10
-13.746358
 20
356.069742
 30
0.0
 11
-11.882256
 21
356.069742
 31
0.0
  0
LINE
  8
LC-001-002-----0
 62
     1
  5
31
 10
-14.282256
 20
403.069742
 30
0.0
 11
-14.282256
 21
358.069742
 31
0.0
  0
LINE
  8
LC-001-002-----0
 62
     1
  5
32
 10
94.981846
 20
356.069742
 30
0.0
 11
93.117744
 21
356.069742
 31
0.0
  0
LINE
  8
LC-001-002-----0
 62
     1
  5
33
 10
95.517744
 20
403.069742
 30
0.0
 11
95.517744
 21
358.069742
 31
0.0
  0
LINE
  8
LC-001-002-----0
 62
     1
  5
34
 10
93.867744
 20
401.069742
 30
0.0
 11
94.067744
 21
401.069742
 31
0.0
  0
LINE
  8
LC-001-002-----0
 62
     1
  5
35
 10
-14.282256
 20
403.069742
 30
0.0
 11
-13.132256
 21
403.069742
 31
0.0
  0
LINE
  8
LC-001-002-----0
 62
     1
  5
36
 10
-11.132256
 20
399.569742
 30
0.0
 11
-11.132256
 21
398.069742
 31
0.0
  0
LINE
  8
LC-001-002-----0
 62
     1
  5
37
 10
-11.382256
 20
398.069742
 30
0.0
 11
-11.132256
 21
398.069742
 31
0.0
  0
LINE
  8
LC-001-002-----0
 62
     1
  5
38
 10
-12.632256
 20
401.069742
 30
0.0
 11
-13.132256
 21
401.069742
 31
0.0
  0
LINE
  8
LC-001-002-----0
 62
     1
  5
39
 10
94.367744
 20
403.069742
 30
0.0
 11
95.517744
 21
403.069742
 31
0.0
  0
LINE
  8
LC-001-002-----0
 62
     1
  5
3A
 10
-11.132256
 20
399.569742
 30
0.0
 11
-12.632256
 21
401.069742
 31
0.0
  0
LINE
  8
LC-001-002-----0
 62
     1
  5
3B
 10
94.367744
 20
401.069742
 30
0.0
 11
94.367744
 21
403.069742
 31
0.0
  0
LINE
  8
LC-001-002-----0
 62
     1
  5
3C
 10
93.117744
 20
398.069742
 30
0.0
 11
92.367744
 21
398.069742
 31
0.0
  0
LINE
  8
LC-001-002-----0
 62
     1
  5
3D
 10
92.367744
 20
399.569742
 30
0.0
 11
92.367744
 21
398.069742
 31
0.0
  0
LINE
  8
LC-001-002-----0
 62
     1
  5
3E
 10
93.867744
 20
401.069742
 30
0.0
 11
94.367744
 21
401.069742
 31
0.0
  0
LINE
  8
LC-001-002-----0
 62
     1
  5
3F
 10
92.367744
 20
399.569742
 30
0.0
 11
93.867744
 21
401.069742
 31
0.0
  0
INSERT
  8
LC-002-005-----0
 62
     2
  5
55
  2
*X0
 10
-14.282256
 20
356.069742
 30
0.0
  0
INSERT
  8
LC-002-005-----0
 62
     2
  5
6A
  2
*X1
 10
92.367744
 20
356.069742
 30
0.0
  0
LINE
  8
LC-001-002-----0
 62
     1
  5
6B
 10
-58.382256
 20
368.319525
 30
0.0
 11
-58.382256
 21
372.619525
 31
0.0
  0
LINE
  8
LC-001-002-----0
 62
     1
  5
6C
 10
139.617744
 20
368.319525
 30
0.0
 11
139.617744
 21
372.619525
 31
0.0
  0
LINE
  8
LC-001-002-----0
 62
     1
  5
6D
 10
-58.382256
 20
372.619525
 30
0.0
 11
-14.282256
 21
372.619525
 31
0.0
  0
LINE
  8
LC-001-002-----0
 62
     1
  5
6E
 10
-58.382256
 20
368.319525
 30
0.0
 11
-14.282256
 21
368.319525
 31
0.0
  0
LINE
  8
LC-001-002-----0
 62
     1
  5
6F
 10
-15.382256
 20
368.319525
 30
0.0
 11
-15.382256
 21
372.619525
 31
0.0
  0
LINE
  8
LC-001-002-----0
 62
     1
  5
70
 10
-30.882256
 20
368.319525
 30
0.0
 11
-30.882256
 21
370.619525
 31
0.0
  0
LINE
  8
LC-001-002-----0
 62
     1
  5
71
 10
-30.882256
 20
370.619525
 30
0.0
 11
-16.882256
 21
370.619525
 31
0.0
  0
LINE
  8
LC-001-002-----0
 62
     1
  5
72
 10
-16.882256
 20
368.319525
 30
0.0
 11
-16.882256
 21
370.619525
 31
0.0
  0
LINE
  8
LC-001-002-----0
 62
     1
  5
73
 10
96.617744
 20
368.319525
 30
0.0
 11
96.617744
 21
372.619525
 31
0.0
  0
LINE
  8
LC-001-002-----0
 62
     1
  5
74
 10
112.117744
 20
368.319525
 30
0.0
 11
112.117744
 21
370.619525
 31
0.0
  0
LINE
  8
LC-001-002-----0
 62
     1
  5
75
 10
112.117744
 20
370.619525
 30
0.0
 11
98.117744
 21
370.619525
 31
0.0
  0
LINE
  8
LC-001-002-----0
 62
     1
  5
76
 10
98.117744
 20
368.319525
 30
0.0
 11
98.117744
 21
370.619525
 31
0.0
  0
INSERT
  8
LC-002-005-----0
 62
     2
  5
8B
  2
*X2
 10
-58.382256
 20
368.319525
 30
0.0
  0
INSERT
  8
LC-002-005-----0
 62
     2
  5
A1
  2
*X3
 10
96.617744
 20
368.319525
 30
0.0
  0
CIRCLE
  8
LC-001-002-----0
 62
     1
  5
A2
 10
294.517744
 20
384.291935
 30
0.0
 40
99.0
  0
CIRCLE
  8
LC-001-002-----0
 62
     1
  5
A3
 10
294.517744
 20
384.291935
 30
0.0
 40
71.5
  0
ARC
  8
LC-003-002-RND-0
  6
BYBLOCK
 62
     1
  5
A5
 10
96.117744
 20
405.31586
 30
0.0
 40
0.5
 50
112.0
 51
180.0
  0
ARC
  8
LC-003-002-RND-0
 62
     1
  5
A6
 10
96.117744
 20
405.31586
 30
0.0
 40
1.2
 50
112.0
 51
180.0
  0
LINE
  8
LC-001-002-----0
 62
     1
  5
A7
 10
-14.694953
 20
405.779452
 30
0.0
 11
-16.018322
 21
406.314128
 31
0.0
  0
LINE
  8
LC-001-002-----0
 62
     1
  5
A8
 10
-14.432728
 20
406.428481
 30
0.0
 11
-15.882256
 21
407.014128
 31
0.0
  0
ARC
  8
LC-003-002-RND-0
 62
     1
  5
A9
 10
-14.882256
 20
405.31586
 30
0.0
 40
1.2
 50
0.0
 51
68.0
  0
ARC
  8
LC-003-002-RND-0
 62
     1
  5
AA
 10
-14.882256
 20
405.31586
 30
0.0
 40
0.5
 50
0.0
 51
68.0
  0
INSERT
  8
LC-002-005-----0
 62
     2
  5
B8
  2
*X4
 10
-18.782256
 20
394.166056
 30
0.0
  0
LINE
  8
LC-001-002-----0
 62
     1
  5
B9
 10
99.317744
 20
412.514128
 30
0.0
 11
40.617744
 21
412.514128
 31
0.0
  0
LINE
  8
LC-001-002-----0
 62
     1
  5
BA
 10
98.117744
 20
406.314128
 30
0.0
 11
97.25381
 21
406.314128
 31
0.0
  0
LINE
  8
LC-001-002-----0
 62
     1
  5
BB
 10
91.681464
 20
397.546953
 30
0.0
 11
91.317744
 21
397.546953
 31
0.0
  0
ARC
  8
LC-003-002-RND-0
 62
     1
  5
BC
 10
98.117744
 20
407.514128
 30
0.0
 40
1.2
 50
270.0
 51
0.0
  0
LINE
  8
LC-001-002-----0
 62
     1
  5
BD
 10
98.117744
 20
407.014128
 30
0.0
 11
97.117744
 21
407.014128
 31
0.0
  0
ARC
  8
LC-003-002-RND-0
 62
     1
  5
BE
 10
98.117744
 20
407.514128
 30
0.0
 40
0.5
 50
270.0
 51
0.0
  0
LINE
  8
LC-001-002-----0
 62
     1
  5
BF
 10
-16.882256
 20
406.314128
 30
0.0
 11
-16.018322
 21
406.314128
 31
0.0
  0
ARC
  8
LC-003-002-RND-0
 62
     1
  5
C0
 10
-16.882256
 20
407.514128
 30
0.0
 40
1.2
 50
180.0
 51
270.0
  0
ARC
  8
LC-003-002-RND-0
 62
     1
  5
C1
 10
-16.882256
 20
407.514128
 30
0.0
 40
0.5
 50
180.0
 51
270.0
  0
ARC
  8
LC-001-002-----0
 62
     1
  5
C2
 10
-18.082256
 20
411.814128
 30
0.0
 40
0.7
 50
0.0
 51
180.0
  0
ARC
  8
LC-003-002-RND-0
 62
     1
  5
C3
 10
-13.182256
 20
404.269742
 30
0.0
 40
0.5
 50
180.0
 51
270.0
  0
LINE
  8
LC-001-002-----0
 62
     1
  5
C4
 10
-18.082256
 20
410.014128
 30
0.0
 11
-18.782256
 21
410.014128
 31
0.0
  0
LINE
  8
LC-001-002-----0
 62
     1
  5
C5
 10
-18.082256
 20
407.514128
 30
0.0
 11
-18.082256
 21
411.319391
 31
0.0
  0
LINE
  8
LC-001-002-----0
 62
     1
  5
C6
 10
-17.382256
 20
407.514128
 30
0.0
 11
-17.382256
 21
411.814128
 31
0.0
  0
LINE
  8
LC-001-002-----0
 62
     1
  5
C7
 10
-18.782256
 20
410.014128
 30
0.0
 11
-18.782256
 21
411.814128
 31
0.0
  0
ARC
  8
LC-003-002-RND-0
 62
     1
  5
C8
 10
-13.182256
 20
404.269742
 30
0.0
 40
1.2
 50
180.0
 51
270.0
  0
ARC
  8
LC-003-002-RND-0
 62
     1
  5
C9
 10
-11.282256
 20
402.569742
 30
0.0
 40
1.2
 50
0.0
 51
90.0
  0
LINE
  8
LC-001-002-----0
 62
     1
  5
CA
 10
-11.282256
 20
403.069742
 30
0.0
 11
-13.182256
 21
403.069742
 31
0.0
  0
LINE
  8
LC-001-002-----0
 62
     1
  5
CB
 10
-13.682256
 20
405.31586
 30
0.0
 11
-13.682256
 21
404.269742
 31
0.0
  0
ARC
  8
LC-001-002-----0
 62
     1
  5
CC
 10
99.317744
 20
411.814128
 30
0.0
 40
0.7
 50
0.0
 51
180.0
  0
LINE
  8
LC-001-002-----0
 62
     1
  5
CD
 10
-14.382256
 20
405.31586
 30
0.0
 11
-14.382256
 21
404.269742
 31
0.0
  0
ARC
  8
LC-003-002-RND-0
 62
     1
  5
CE
 10
94.417744
 20
404.269742
 30
0.0
 40
0.5
 50
270.0
 51
0.0
  0
LINE
  8
LC-001-002-----0
 62
     1
  5
CF
 10
99.317744
 20
410.014128
 30
0.0
 11
100.017744
 21
410.014128
 31
0.0
  0
ARC
  8
LC-003-002-RND-0
 62
     1
  5
D0
 10
-11.282256
 20
402.569742
 30
0.0
 40
0.5
 50
0.0
 51
90.0
  0
LINE
  8
LC-001-002-----0
 62
     1
  5
D1
 10
-10.082256
 20
397.546953
 30
0.0
 11
-10.082256
 21
402.569742
 31
0.0
  0
LINE
  8
LC-001-002-----0
 62
     1
  5
D2
 10
-10.782256
 20
398.247308
 30
0.0
 11
-10.782256
 21
402.569742
 31
0.0
  0
LINE
  8
LC-001-002-----0
 62
     1
  5
D3
 10
-10.445976
 20
397.546953
 30
0.0
 11
-10.082256
 21
397.546953
 31
0.0
  0
LINE
  8
LC-001-002-----0
 62
     1
  5
D4
 10
-10.727884
 20
397.144347
 30
0.0
 11
-9.731572
 21
394.407003
 31
0.0
  0
LINE
  8
LC-001-002-----0
 62
     1
  5
D5
 10
99.317744
 20
407.514128
 30
0.0
 11
99.317744
 21
411.407817
 31
0.0
  0
ARC
  8
LC-003-002-RND-0
 62
     1
  5
D6
 10
-10.445976
 20
397.246953
 30
0.0
 40
0.3
 50
90.0
 51
200.0
  0
LINE
  8
LC-001-002-----0
 62
     1
  5
D7
 10
-9.731572
 20
394.407003
 30
0.0
 11
-10.393567
 21
394.166056
 31
0.0
  0
LINE
  8
LC-001-002-----0
 62
     1
  5
D8
 10
-11.375251
 20
396.86321
 30
0.0
 11
-10.393567
 21
394.166056
 31
0.0
  0
ARC
  8
LC-001-002-----0
 62
     1
  5
D9
 10
-10.341589
 20
397.239432
 30
0.0
 40
1.1
 50
113.616097
 51
200.0
  0
LINE
  8
LC-001-002-----0
 62
     1
  5
DA
 10
97.117744
 20
407.014128
 30
0.0
 11
-15.882256
 21
407.014128
 31
0.0
  0
LINE
  8
LC-001-002-----0
 62
     1
  5
DB
 10
-18.082256
 20
412.514128
 30
0.0
 11
40.617744
 21
412.514128
 31
0.0
  0
LINE
  8
LC-001-002-----0
 62
     1
  5
DC
 10
-16.882256
 20
407.014128
 30
0.0
 11
-15.882256
 21
407.014128
 31
0.0
  0
LINE
  8
LC-001-002-----0
 62
     1
  5
DD
 10
40.617744
 20
403.769742
 30
0.0
 11
-11.282256
 21
403.769742
 31
0.0
  0
LINE
  8
LC-001-002-----0
 62
     1
  5
DE
 10
-10.082256
 20
397.546953
 30
0.0
 11
40.617744
 21
397.546953
 31
0.0
  0
LINE
  8
LC-001-002-----0
 62
     1
  5
DF
 10
98.617744
 20
407.514128
 30
0.0
 11
98.617744
 21
411.814128
 31
0.0
  0
LINE
  8
LC-001-002-----0
 62
     1
  5
E0
 10
-9.733266
 20
394.411658
 30
0.0
 11
40.617744
 21
394.411658
 31
0.0
  0
LINE
  8
LC-001-002-----0
 62
     1
  5
E1
 10
-10.393567
 20
394.166056
 30
0.0
 11
40.617744
 21
394.166056
 31
0.0
  0
LINE
  8
LC-001-002-----0
 62
     1
  5
E2
 10
-15.882256
 20
407.014128
 30
0.0
 11
40.617744
 21
407.014128
 31
0.0
  0
LINE
  8
LC-001-002-----0
 62
     1
  5
E3
 10
-11.282256
 20
403.769742
 30
0.0
 11
-13.182256
 21
403.769742
 31
0.0
  0
LINE
  8
LC-001-002-----0
 62
     1
  5
E4
 10
89.568532
 20
394.411658
 30
0.0
 11
40.617744
 21
394.411658
 31
0.0
  0
LINE
  8
LC-001-002-----0
 62
     1
  5
E5
 10
91.963372
 20
397.144347
 30
0.0
 11
90.96706
 21
394.407003
 31
0.0
  0
LINE
  8
LC-001-002-----0
 62
     1
  5
E6
 10
92.610739
 20
396.86321
 30
0.0
 11
91.629055
 21
394.166056
 31
0.0
  0
ARC
  8
LC-001-002-----0
 62
     1
  5
E7
 10
91.577077
 20
397.239432
 30
0.0
 40
1.1
 50
340.0
 51
66.383903
  0
LINE
  8
LC-001-002-----0
 62
     1
  5
E8
 10
91.963372
 20
397.144347
 30
0.0
 11
90.96706
 21
394.407003
 31
0.0
  0
ARC
  8
LC-003-002-RND-0
 62
     1
  5
E9
 10
91.681464
 20
397.246953
 30
0.0
 40
0.3
 50
340.0
 51
90.0
  0
LINE
  8
LC-001-002-----0
 62
     1
  5
EA
 10
90.954269
 20
394.411658
 30
0.0
 11
40.617744
 21
394.411658
 31
0.0
  0
LINE
  8
LC-001-002-----0
 62
     1
  5
EB
 10
90.96706
 20
394.407003
 30
0.0
 11
91.629055
 21
394.166056
 31
0.0
  0
LINE
  8
LC-001-002-----0
 62
     1
  5
EC
 10
92.517744
 20
403.769742
 30
0.0
 11
94.417744
 21
403.769742
 31
0.0
  0
LINE
  8
LC-001-002-----0
 62
     1
  5
ED
 10
91.317744
 20
397.546953
 30
0.0
 11
40.617744
 21
397.546953
 31
0.0
  0
LINE
  8
LC-001-002-----0
 62
     1
  5
EE
 10
91.629055
 20
394.166056
 30
0.0
 11
40.617744
 21
394.166056
 31
0.0
  0
LINE
  8
LC-001-002-----0
 62
     1
  5
EF
 10
95.668216
 20
406.428481
 30
0.0
 11
97.117744
 21
407.014128
 31
0.0
  0
LINE
  8
LC-001-002-----0
 62
     1
  5
F0
 10
95.930441
 20
405.779452
 30
0.0
 11
97.25381
 21
406.314128
 31
0.0
  0
LINE
  8
LC-001-002-----0
 62
     1
  5
F1
 10
100.017744
 20
410.014128
 30
0.0
 11
100.017744
 21
411.814128
 31
0.0
  0
ARC
  8
LC-003-002-RND-0
 62
     1
  5
F2
 10
94.417744
 20
404.269742
 30
0.0
 40
1.2
 50
270.0
 51
0.0
  0
ARC
  8
LC-003-002-RND-0
 62
     1
  5
F3
 10
92.517744
 20
402.569742
 30
0.0
 40
1.2
 50
90.0
 51
180.0
  0
LINE
  8
LC-001-002-----0
 62
     1
  5
F4
 10
92.517744
 20
403.069742
 30
0.0
 11
94.417744
 21
403.069742
 31
0.0
  0
LINE
  8
LC-001-002-----0
 62
     1
  5
F5
 10
40.617744
 20
403.769742
 30
0.0
 11
92.517744
 21
403.769742
 31
0.0
  0
LINE
  8
LC-001-002-----0
 62
     1
  5
F6
 10
94.917744
 20
405.31586
 30
0.0
 11
94.917744
 21
404.269742
 31
0.0
  0
LINE
  8
LC-001-002-----0
 62
     1
  5
F7
 10
95.617744
 20
405.31586
 30
0.0
 11
95.617744
 21
404.269742
 31
0.0
  0
ARC
  8
LC-003-002-RND-0
 62
     1
  5
F8
 10
92.517744
 20
402.569742
 30
0.0
 40
0.5
 50
90.0
 51
180.0
  0
LINE
  8
LC-001-002-----0
 62
     1
  5
F9
 10
91.317744
 20
397.546953
 30
0.0
 11
91.317744
 21
402.569742
 31
0.0
  0
LINE
  8
LC-001-002-----0
 62
     1
  5
FA
 10
92.017744
 20
398.247308
 30
0.0
 11
92.017744
 21
402.569742
 31
0.0
  0
LINE
  8
LC-001-002-----0
 62
     1
  5
FB
 10
92.610739
 20
396.86321
 30
0.0
 11
91.629055
 21
394.166056
 31
0.0
  0
ARC
  8
LC-001-002-----0
 62
     1
  5
FC
 10
91.577077
 20
397.239432
 30
0.0
 40
1.1
 50
340.0
 51
66.383903
  0
INSERT
  8
LC-002-005-----0
 62
     2
  5
107
  2
*X5
 10
90.477077
 20
394.166056
 30
0.0
  0
CIRCLE
  8
LC-001-002-----0
 62
     1
  5
108
 10
294.517744
 20
384.291935
 30
0.0
 40
59.4
  0
CIRCLE
  8
LC-001-002-----0
 62
     1
  5
109
 10
294.517744
 20
384.291935
 30
0.0
 40
57.5
  0
LINE
  8
LC-001-002-----0
 62
     1
  5
10A
 10
95.517744
 20
372.619525
 30
0.0
 11
139.617744
 21
372.619525
 31
0.0
  0
LINE
  8
LC-001-002-----0
 62
     1
  5
10B
 10
95.517744
 20
368.319525
 30
0.0
 11
139.617744
 21
368.319525
 31
0.0
  0
DIMENSION
  8
LC-005-003-----0
 62
     2
  5
12A
  2
*D6
 10
153.640778
 20
396.686501
 30
0.0
 11
153.640778
 21
396.686501
 31
0.0
  1
56
 13
99.317744
 23
412.514128
 33
0.0
 14
93.117744
 24
356.069742
 34
0.0
 50
90.0
  3
LC-DIM-L-0140-02-02
  0
DIMENSION
  8
LC-005-003-----0
 62
     2
  5
144
  2
*D7
 10
-78.4
 20
398.161525
 30
0.0
 11
-78.4
 21
398.161525
 31
0.0
 13
-18.082256
 23
412.514128
 33
0.0
 14
-16.882256
 24
406.314128
 34
0.0
 50
90.0
  3
LC-DIM-L-0140-02-02
  0
DIMENSION
  8
LC-005-003-----0
 62
     2
  5
15E
  2
*D8
 10
40.617744
 20
431.2
 30
0.0
 11
40.617744
 21
431.2
 31
0.0
  1
%%c120
 13
-18.782256
 23
410.914128
 33
0.0
 14
100.017744
 24
410.914128
 34
0.0
  3
LC-DIM-L-0140-02-02
  0
DIMENSION
  8
LC-005-003-----0
 62
     2
  5
178
  2
*D9
 10
40.617744
 20
274.4
 30
0.0
 11
40.617744
 21
274.4
 31
0.0
  1
%%c<>
 13
-58.382256
 23
368.319525
 33
0.0
 14
139.617744
 24
368.319525
 34
0.0
  3
LC-DIM-L-0140-02-02
  0
DIMENSION
  8
LC-005-003-----0
 62
     2
  5
192
  2
*D10
 10
40.617744
 20
313.6
 30
0.0
 11
40.617744
 21
313.6
 31
0.0
  1
%%c110
 13
-14.282256
 23
358.069742
 33
0.0
 14
95.517744
 24
358.069742
 34
0.0
  3
LC-DIM-L-0140-02-02
  0
LINE
  8
LC-001-002-----0
  6
DASHDOT
 62
     2
  5
194
 10
40.617744
 20
356.069742
 30
0.0
 11
40.617744
 21
412.514128
 31
0.0
  0
ENDSEC
  0
EOF
