  0
SECTION
  2
HEADER
  9
$ACADVER
  1
AC1015
  9
$ACADMAINTVER
 70
     6
  9
$DWGCODEPAGE
  3
DOS850
  9
$INSBASE
 10
81.566026
 20
211.678
 30
0.0
  9
$EXTMIN
 10
81.566026
 20
211.678
 30
0.0
  9
$EXTMAX
 10
921.566026
 20
805.678
 30
0.0
  9
$LIMMIN
 10
81.566026
 20
211.678
  9
$LIMMAX
 10
921.566026
 20
805.678
  9
$ORTHOMODE
 70
     0
  9
$REGENMODE
 70
     1
  9
$FILLMODE
 70
     1
  9
$QTEXTMODE
 70
     0
  9
$MIRRTEXT
 70
     1
  9
$LTSCALE
 40
2.0
  9
$ATTMODE
 70
     1
  9
$TEXTSIZE
 40
2.5
  9
$TRACEWID
 40
1.0
  9
$TEXTSTYLE
  7
Standard
  9
$CLAYER
  8
0
  9
$CELTYPE
  6
ByLayer
  9
$CECOLOR
 62
     7
  9
$CELTSCALE
 40
1.0
  9
$DISPSILH
 70
     0
  9
$DIMSCALE
 40
2.0
  9
$DIMASZ
 40
3.5
  9
$DIMEXO
 40
0.625
  9
$DIMDLI
 40
3.75
  9
$DIMRND
 40
0.0
  9
$DIMDLE
 40
0.0
  9
$DIMEXE
 40
1.25
  9
$DIMTP
 40
0.0
  9
$DIMTM
 40
0.0
  9
$DIMTXT
 40
3.5
  9
$DIMCEN
 40
2.5
  9
$DIMTSZ
 40
0.0
  9
$DIMTOL
 70
     0
  9
$DIMLIM
 70
     0
  9
$DIMTIH
 70
     0
  9
$DIMTOH
 70
     0
  9
$DIMSE1
 70
     0
  9
$DIMSE2
 70
     0
  9
$DIMTAD
 70
     1
  9
$DIMZIN
 70
     8
  9
$DIMBLK
  1

  9
$DIMASO
 70
     1
  9
$DIMSHO
 70
     1
  9
$DIMPOST
  1

  9
$DIMAPOST
  1

  9
$DIMALT
 70
     0
  9
$DIMALTD
 70
     3
  9
$DIMALTF
 40
0.03937
  9
$DIMLFAC
 40
1.0
  9
$DIMTOFL
 70
     1
  9
$DIMTVP
 40
0.0
  9
$DIMTIX
 70
     0
  9
$DIMSOXD
 70
     0
  9
$DIMSAH
 70
     0
  9
$DIMBLK1
  1

  9
$DIMBLK2
  1

  9
$DIMSTYLE
  2
ISO-25
  9
$DIMCLRD
 70
     0
  9
$DIMCLRE
 70
     0
  9
$DIMCLRT
 70
     0
  9
$DIMTFAC
 40
1.0
  9
$DIMGAP
 40
0.625
  9
$DIMJUST
 70
     0
  9
$DIMSD1
 70
     0
  9
$DIMSD2
 70
     0
  9
$DIMTOLJ
 70
     0
  9
$DIMTZIN
 70
     8
  9
$DIMALTZ
 70
     0
  9
$DIMALTTZ
 70
     0
  9
$DIMUPT
 70
     0
  9
$DIMDEC
 70
     2
  9
$DIMTDEC
 70
     2
  9
$DIMALTU
 70
     2
  9
$DIMALTTD
 70
     3
  9
$DIMTXSTY
  7
Standard
  9
$DIMAUNIT
 70
     0
  9
$DIMADEC
 70
     0
  9
$DIMALTRND
 40
0.0
  9
$DIMAZIN
 70
     0
  9
$DIMDSEP
 70
    44
  9
$DIMATFIT
 70
     3
  9
$DIMFRAC
 70
     0
  9
$DIMLDRBLK
  1

  9
$DIMLUNIT
 70
     2
  9
$DIMLWD
 70
    -2
  9
$DIMLWE
 70
    -2
  9
$DIMTMOVE
 70
     0
  9
$LUNITS
 70
     2
  9
$LUPREC
 70
     4
  9
$SKETCHINC
 40
1.0
  9
$FILLETRAD
 40
10.0
  9
$AUNITS
 70
     0
  9
$AUPREC
 70
     0
  9
$MENU
  1
.
  9
$ELEVATION
 40
0.0
  9
$PELEVATION
 40
0.0
  9
$THICKNESS
 40
0.0
  9
$LIMCHECK
 70
     0
  9
$CHAMFERA
 40
10.0
  9
$CHAMFERB
 40
10.0
  9
$CHAMFERC
 40
20.0
  9
$CHAMFERD
 40
0.0
  9
$SKPOLY
 70
     0
  9
$TDCREATE
 40
2453567.323622083
  9
$TDUCREATE
 40
2453567.24028875
  9
$TDUPDATE
 40
2453567.323622095
  9
$TDUUPDATE
 40
2453567.240288761
  9
$TDINDWG
 40
0.0000000116
  9
$TDUSRTIMER
 40
0.0000000116
  9
$USRTIMER
 70
     1
  9
$ANGBASE
 50
0.0
  9
$ANGDIR
 70
     0
  9
$PDMODE
 70
     0
  9
$PDSIZE
 40
0.0
  9
$PLINEWID
 40
0.0
  9
$SPLFRAME
 70
     0
  9
$SPLINETYPE
 70
     6
  9
$SPLINESEGS
 70
     8
  9
$HANDSEED
  5
55D
  9
$SURFTAB1
 70
     6
  9
$SURFTAB2
 70
     6
  9
$SURFTYPE
 70
     6
  9
$SURFU
 70
     6
  9
$SURFV
 70
     6
  9
$UCSBASE
  2

  9
$UCSNAME
  2

  9
$UCSORG
 10
0.0
 20
0.0
 30
0.0
  9
$UCSXDIR
 10
1.0
 20
0.0
 30
0.0
  9
$UCSYDIR
 10
0.0
 20
1.0
 30
0.0
  9
$UCSORTHOREF
  2

  9
$UCSORTHOVIEW
 70
     0
  9
$UCSORGTOP
 10
0.0
 20
0.0
 30
0.0
  9
$UCSORGBOTTOM
 10
0.0
 20
0.0
 30
0.0
  9
$UCSORGLEFT
 10
0.0
 20
0.0
 30
0.0
  9
$UCSORGRIGHT
 10
0.0
 20
0.0
 30
0.0
  9
$UCSORGFRONT
 10
0.0
 20
0.0
 30
0.0
  9
$UCSORGBACK
 10
0.0
 20
0.0
 30
0.0
  9
$PUCSBASE
  2

  9
$PUCSNAME
  2

  9
$PUCSORG
 10
0.0
 20
0.0
 30
0.0
  9
$PUCSXDIR
 10
1.0
 20
0.0
 30
0.0
  9
$PUCSYDIR
 10
0.0
 20
1.0
 30
0.0
  9
$PUCSORTHOREF
  2

  9
$PUCSORTHOVIEW
 70
     0
  9
$PUCSORGTOP
 10
0.0
 20
0.0
 30
0.0
  9
$PUCSORGBOTTOM
 10
0.0
 20
0.0
 30
0.0
  9
$PUCSORGLEFT
 10
0.0
 20
0.0
 30
0.0
  9
$PUCSORGRIGHT
 10
0.0
 20
0.0
 30
0.0
  9
$PUCSORGFRONT
 10
0.0
 20
0.0
 30
0.0
  9
$PUCSORGBACK
 10
0.0
 20
0.0
 30
0.0
  9
$USERI1
 70
     0
  9
$USERI2
 70
     0
  9
$USERI3
 70
     0
  9
$USERI4
 70
     0
  9
$USERI5
 70
     0
  9
$USERR1
 40
0.0
  9
$USERR2
 40
0.0
  9
$USERR3
 40
0.0
  9
$USERR4
 40
0.0
  9
$USERR5
 40
0.0
  9
$WORLDVIEW
 70
     1
  9
$SHADEDGE
 70
     3
  9
$SHADEDIF
 70
    70
  9
$TILEMODE
 70
     1
  9
$MAXACTVP
 70
    64
  9
$PINSBASE
 10
0.0
 20
0.0
 30
0.0
  9
$PLIMCHECK
 70
     0
  9
$PEXTMIN
 10
81.566026
 20
211.678
 30
0.0
  9
$PEXTMAX
 10
921.566026
 20
805.678
 30
0.0
  9
$PLIMMIN
 10
81.566026
 20
211.678
  9
$PLIMMAX
 10
921.566026
 20
805.678
  9
$UNITMODE
 70
     0
  9
$VISRETAIN
 70
     1
  9
$PLINEGEN
 70
     0
  9
$PSLTSCALE
 70
     1
  9
$TREEDEPTH
 70
  3020
  9
$CMLSTYLE
  2
Standard
  9
$CMLJUST
 70
     0
  9
$CMLSCALE
 40
20.0
  9
$PROXYGRAPHICS
 70
     1
  9
$MEASUREMENT
 70
     1
  9
$CELWEIGHT
370
    -1
  9
$ENDCAPS
280
     0
  9
$JOINSTYLE
280
     0
  9
$LWDISPLAY
290
     0
  9
$INSUNITS
 70
     4
  9
$HYPERLINKBASE
  1

  9
$STYLESHEET
  1

  9
$XEDIT
290
     1
  9
$CEPSNTYPE
380
     0
  9
$PSTYLEMODE
290
     1
  9
$FINGERPRINTGUID
  2
{FAEB1C30-E019-11D5-929B-00C0DF256EC4}
  9
$VERSIONGUID
  2
{FAEB1C32-E019-11D5-929B-00C0DF256EC4}
  9
$EXTNAMES
290
     1
  9
$PSVPSCALE
 40
0.0
  9
$OLESTARTUP
290
     0
  0
ENDSEC
  0
SECTION
  2
CLASSES
  0
CLASS
  1
ACDBDICTIONARYWDFLT
  2
AcDbDictionaryWithDefault
  3
ObjectDBX Classes
 90
        0
280
     0
281
     0
  0
CLASS
  1
ACDBPLACEHOLDER
  2
AcDbPlaceHolder
  3
ObjectDBX Classes
 90
        0
280
     0
281
     0
  0
CLASS
  1
LAYOUT
  2
AcDbLayout
  3
ObjectDBX Classes
 90
        0
280
     0
281
     0
  0
ENDSEC
  0
SECTION
  2
TABLES
  0
TABLE
  2
VPORT
  5
8
330
0
100
AcDbSymbolTable
 70
     2
  0
VPORT
  5
29
330
8
100
AcDbSymbolTableRecord
100
AcDbViewportTableRecord
  2
*ACTIVE
 70
     0
 10
0.0
 20
0.0
 11
1.0
 21
1.0
 12
501.566026
 22
508.678
 13
0.0
 23
0.0
 14
1.0
 24
1.0
 15
0.0
 25
0.0
 16
0.0
 26
0.0
 36
1.0
 17
0.0
 27
0.0
 37
0.0
 40
594.0
 41
1.414141
 42
50.0
 43
0.0
 44
0.0
 50
0.0
 51
0.0
 71
    16
 72
   100
 73
     1
 74
     0
 75
     0
 76
     0
 77
     0
 78
     0
281
     0
 65
     0
110
0.0
120
0.0
130
0.0
111
1.0
121
0.0
131
0.0
112
0.0
122
1.0
132
0.0
 79
     0
146
0.0
  0
ENDTAB
  0
TABLE
  2
LTYPE
  5
5
330
0
100
AcDbSymbolTable
 70
     4
  0
LTYPE
  5
14
330
5
100
AcDbSymbolTableRecord
100
AcDbLinetypeTableRecord
  2
ByBlock
 70
     0
  3

 72
    65
 73
     0
 40
0.0
  0
LTYPE
  5
15
330
5
100
AcDbSymbolTableRecord
100
AcDbLinetypeTableRecord
  2
ByLayer
 70
     0
  3

 72
    65
 73
     0
 40
0.0
  0
LTYPE
  5
16
330
5
100
AcDbSymbolTableRecord
100
AcDbLinetypeTableRecord
  2
Continuous
 70
     0
  3
Solid line
 72
    65
 73
     0
 40
0.0
  0
LTYPE
  5
2A
330
5
100
AcDbSymbolTableRecord
100
AcDbLinetypeTableRecord
  2
DASHED
 70
     0
  3
__ __ __ __ __
 72
    65
 73
     2
 40
6.25
 49
5.0
 74
     4
 75
     0
340
0
 46
1.0
 50
0.0
 44
0.0
 45
0.0
 49
-1.25
 74
     4
 75
     0
340
0
 46
1.0
 50
0.0
 44
0.0
 45
0.0
  0
LTYPE
  5
44
330
5
100
AcDbSymbolTableRecord
100
AcDbLinetypeTableRecord
  2
CENTER
 70
     0
  3
__ . __ . __ . __ . __
 72
    65
 73
     4
 40
7.5
 49
5.0
 74
     4
 75
     0
340
0
 46
1.0
 50
0.0
 44
0.0
 45
0.0
 49
-1.25
 74
     4
 75
     0
340
0
 46
1.0
 50
0.0
 44
0.0
 45
0.0
 49
0.0
 74
     4
 75
     0
340
0
 46
1.0
 50
0.0
 44
0.0
 45
0.0
 49
-1.25
 74
     4
 75
     0
340
0
 46
1.0
 50
0.0
 44
0.0
 45
0.0
  0
LTYPE
  5
153
330
5
100
AcDbSymbolTableRecord
100
AcDbLinetypeTableRecord
  2
DASHDOT
 70
     0
  3
__ . __ . __ . __ . __
 72
    65
 73
     4
 40
7.5
 49
5.0
 74
     4
 75
     0
340
0
 46
1.0
 50
0.0
 44
0.0
 45
0.0
 49
-1.25
 74
     4
 75
     0
340
0
 46
1.0
 50
0.0
 44
0.0
 45
0.0
 49
0.0
 74
     4
 75
     0
340
0
 46
1.0
 50
0.0
 44
0.0
 45
0.0
 49
-1.25
 74
     4
 75
     0
340
0
 46
1.0
 50
0.0
 44
0.0
 45
0.0
  0
ENDTAB
  0
TABLE
  2
LAYER
  5
2
330
0
100
AcDbSymbolTable
 70
    12
  0
LAYER
  5
10
330
2
100
AcDbSymbolTableRecord
100
AcDbLayerTableRecord
  2
0
 70
     0
 62
     7
  6
Continuous
370
    -3
390
F
  0
LAYER
  5
2B
330
2
100
AcDbSymbolTableRecord
100
AcDbLayerTableRecord
  2
LC-INFO-1-2-mm-A3-0
 70
     1
 62
     7
  6
ByBlock
370
    -3
390
F
  0
LAYER
  5
2C
330
2
100
AcDbSymbolTableRecord
100
AcDbLayerTableRecord
  2
LC-CUT-HIDDEN
 70
     0
 62
     7
  6
DASHED
370
    -3
390
F
  0
LAYER
  5
2D
330
2
100
AcDbSymbolTableRecord
100
AcDbLayerTableRecord
  2
LC-VIEWPORT
 70
     0
 62
     7
  6
ByBlock
370
    -3
390
F
  0
LAYER
  5
2E
330
2
100
AcDbSymbolTableRecord
100
AcDbLayerTableRecord
  2
LC-3D-HIDDEN
 70
     0
 62
     9
  6
DASHED
370
    -3
390
F
  0
LAYER
  5
30
330
2
100
AcDbSymbolTableRecord
100
AcDbLayerTableRecord
  2
LC-001-002-----0
 70
     0
 62
     1
  6
ByBlock
370
    -3
390
F
  0
LAYER
  5
45
330
2
100
AcDbSymbolTableRecord
100
AcDbLayerTableRecord
  2
LC-002-006-MLN-0
 70
     0
 62
     2
  6
CENTER
370
    -3
390
F
  0
LAYER
  5
6F
330
2
100
AcDbSymbolTableRecord
100
AcDbLayerTableRecord
  2
LC-003-005-----0
 70
     0
 62
     2
  6
ByBlock
370
    -3
390
F
  0
LAYER
  5
189
330
2
100
AcDbSymbolTableRecord
100
AcDbLayerTableRecord
  2
LC-004-002-RND-0
 70
     0
 62
     1
  6
ByBlock
370
    -3
390
F
  0
LAYER
  5
1D4
330
2
100
AcDbSymbolTableRecord
100
AcDbLayerTableRecord
  2
LC-005-003-----0
 70
     0
 62
     2
  6
ByBlock
370
    -3
390
F
  0
LAYER
  5
1D6
330
2
100
AcDbSymbolTableRecord
100
AcDbLayerTableRecord
  2
Defpoints
 70
     0
 62
     7
  6
Continuous
290
     0
370
    -3
390
F
  0
LAYER
  5
483
330
2
100
AcDbSymbolTableRecord
100
AcDbLayerTableRecord
  2
LC-006-004-----0
 70
     0
 62
     1
  6
ByBlock
370
    -3
390
F
  0
ENDTAB
  0
TABLE
  2
STYLE
  5
3
330
0
100
AcDbSymbolTable
 70
     3
  0
STYLE
  5
11
330
3
100
AcDbSymbolTableRecord
100
AcDbTextStyleTableRecord
  2
Standard
 70
     0
 40
0.0
 41
1.0
 50
0.0
 71
     0
 42
2.5
  3
txt
  4

  0
STYLE
  5
2F
330
3
100
AcDbSymbolTableRecord
100
AcDbTextStyleTableRecord
  2
LCTX15-400-0-0-Arial
 70
     0
 40
0.0
 41
0.75
 50
0.0
 71
     0
 42
3.5
  3

  4

1001
ACAD
1000
Arial
1071
 16777218
  0
STYLE
  5
1D2
330
3
100
AcDbSymbolTableRecord
100
AcDbTextStyleTableRecord
  2
LCTX15-400-0-0pDIN-Schrift
 70
     0
 40
2.5
 41
0.8
 50
15.0
 71
     0
 42
3.5
  3
STANDARD
  4

  0
ENDTAB
  0
TABLE
  2
VIEW
  5
6
330
0
100
AcDbSymbolTable
 70
     0
  0
ENDTAB
  0
TABLE
  2
UCS
  5
7
330
0
100
AcDbSymbolTable
 70
     0
  0
ENDTAB
  0
TABLE
  2
APPID
  5
9
330
0
100
AcDbSymbolTable
 70
     1
  0
APPID
  5
12
330
9
100
AcDbSymbolTableRecord
100
AcDbRegAppTableRecord
  2
ACAD
 70
     0
  0
ENDTAB
  0
TABLE
  2
DIMSTYLE
  5
A
330
0
100
AcDbSymbolTable
 70
     2
100
AcDbDimStyleTable
  0
DIMSTYLE
105
27
330
A
100
AcDbSymbolTableRecord
100
AcDbDimStyleTableRecord
  2
ISO-25
 70
     0
 41
2.5
 42
0.625
 43
3.75
 44
1.25
 73
     0
 74
     0
 77
     1
 78
     8
140
2.5
141
2.5
143
0.03937
147
0.625
171
     3
172
     1
271
     2
272
     2
274
     3
278
    44
283
     0
284
     8
340
11
  0
DIMSTYLE
105
1D3
102
{ACAD_REACTORS
330
1D5
330
3AA
330
3B7
330
3C5
330
3D2
330
44E
330
45C
102
}
330
A
100
AcDbSymbolTableRecord
100
AcDbDimStyleTableRecord
  2
LC-DIM-L-0140-02-02
 70
     0
 40
2.0
 41
14.0
 42
0.0
 43
7.5
 44
1.8
 73
     0
 74
     0
 77
     1
 78
     8
 79
     2
140
14.0
141
0.0
146
0.71
147
1.5
176
     2
177
     2
178
     2
179
     2
271
     2
278
    44
289
     1
340
1D2
  0
ENDTAB
  0
TABLE
  2
BLOCK_RECORD
  5
1
330
0
100
AcDbSymbolTable
 70
    27
  0
BLOCK_RECORD
  5
1F
330
1
100
AcDbSymbolTableRecord
100
AcDbBlockTableRecord
  2
*Model_Space
340
22
  0
BLOCK_RECORD
  5
1B
330
1
100
AcDbSymbolTableRecord
100
AcDbBlockTableRecord
  2
*Paper_Space
340
1E
  0
BLOCK_RECORD
  5
23
330
1
100
AcDbSymbolTableRecord
100
AcDbBlockTableRecord
  2
*Paper_Space0
340
26
  0
BLOCK_RECORD
  5
6C
330
1
100
AcDbSymbolTableRecord
100
AcDbBlockTableRecord
  2
*X11
340
0
102
{BLKREFS
331
CC
102
}
  0
BLOCK_RECORD
  5
D4
330
1
100
AcDbSymbolTableRecord
100
AcDbBlockTableRecord
  2
*X22
340
0
102
{BLKREFS
331
E2
102
}
  0
BLOCK_RECORD
  5
E3
330
1
100
AcDbSymbolTableRecord
100
AcDbBlockTableRecord
  2
*X33
340
0
102
{BLKREFS
331
F2
102
}
  0
BLOCK_RECORD
  5
104
330
1
100
AcDbSymbolTableRecord
100
AcDbBlockTableRecord
  2
*X44
340
0
102
{BLKREFS
331
10F
102
}
  0
BLOCK_RECORD
  5
110
330
1
100
AcDbSymbolTableRecord
100
AcDbBlockTableRecord
  2
*X55
340
0
102
{BLKREFS
331
11F
102
}
  0
BLOCK_RECORD
  5
121
330
1
100
AcDbSymbolTableRecord
100
AcDbBlockTableRecord
  2
*X66
340
0
102
{BLKREFS
331
14F
102
}
  0
BLOCK_RECORD
  5
16C
330
1
100
AcDbSymbolTableRecord
100
AcDbBlockTableRecord
  2
*X77
340
0
102
{BLKREFS
331
172
102
}
  0
BLOCK_RECORD
  5
173
330
1
100
AcDbSymbolTableRecord
100
AcDbBlockTableRecord
  2
*X88
340
0
102
{BLKREFS
331
17F
102
}
  0
BLOCK_RECORD
  5
18D
330
1
100
AcDbSymbolTableRecord
100
AcDbBlockTableRecord
  2
*X99
340
0
102
{BLKREFS
331
19A
102
}
  0
BLOCK_RECORD
  5
1A3
330
1
100
AcDbSymbolTableRecord
100
AcDbBlockTableRecord
  2
*X1010
340
0
102
{BLKREFS
331
1A8
102
}
  0
BLOCK_RECORD
  5
1A9
330
1
100
AcDbSymbolTableRecord
100
AcDbBlockTableRecord
  2
*X1111
340
0
102
{BLKREFS
331
1B5
102
}
  0
BLOCK_RECORD
  5
1C2
330
1
100
AcDbSymbolTableRecord
100
AcDbBlockTableRecord
  2
*X1212
340
0
102
{BLKREFS
331
1CF
102
}
  0
BLOCK_RECORD
  5
1D7
330
1
100
AcDbSymbolTableRecord
100
AcDbBlockTableRecord
  2
*D13
340
0
  0
BLOCK_RECORD
  5
2CB
330
1
100
AcDbSymbolTableRecord
100
AcDbBlockTableRecord
  2
*X1314
340
0
102
{BLKREFS
331
2FA
102
}
  0
BLOCK_RECORD
  5
304
330
1
100
AcDbSymbolTableRecord
100
AcDbBlockTableRecord
  2
*X1415
340
0
102
{BLKREFS
331
332
102
}
  0
BLOCK_RECORD
  5
361
330
1
100
AcDbSymbolTableRecord
100
AcDbBlockTableRecord
  2
*X1516
340
0
102
{BLKREFS
331
379
102
}
  0
BLOCK_RECORD
  5
3AB
330
1
100
AcDbSymbolTableRecord
100
AcDbBlockTableRecord
  2
*D17
340
0
  0
BLOCK_RECORD
  5
3B8
330
1
100
AcDbSymbolTableRecord
100
AcDbBlockTableRecord
  2
*D18
340
0
  0
BLOCK_RECORD
  5
3C6
330
1
100
AcDbSymbolTableRecord
100
AcDbBlockTableRecord
  2
*D19
340
0
  0
BLOCK_RECORD
  5
3D3
330
1
100
AcDbSymbolTableRecord
100
AcDbBlockTableRecord
  2
*D20
340
0
  0
BLOCK_RECORD
  5
3F8
330
1
100
AcDbSymbolTableRecord
100
AcDbBlockTableRecord
  2
*X1621
340
0
102
{BLKREFS
331
40E
102
}
  0
BLOCK_RECORD
  5
421
330
1
100
AcDbSymbolTableRecord
100
AcDbBlockTableRecord
  2
*X1722
340
0
102
{BLKREFS
331
44D
102
}
  0
BLOCK_RECORD
  5
44F
330
1
100
AcDbSymbolTableRecord
100
AcDbBlockTableRecord
  2
*D23
340
0
  0
BLOCK_RECORD
  5
45D
330
1
100
AcDbSymbolTableRecord
100
AcDbBlockTableRecord
  2
*D24
340
0
  0
BLOCK_RECORD
  5
519
330
1
100
AcDbSymbolTableRecord
100
AcDbBlockTableRecord
  2
*X1825
340
0
102
{BLKREFS
331
525
102
}
  0
BLOCK_RECORD
  5
526
330
1
100
AcDbSymbolTableRecord
100
AcDbBlockTableRecord
  2
*X1926
340
0
102
{BLKREFS
331
533
102
}
  0
ENDTAB
  0
ENDSEC
  0
SECTION
  2
BLOCKS
  0
BLOCK
  5
20
330
1F
100
AcDbEntity
  8
0
100
AcDbBlockBegin
  2
*Model_Space
 70
     0
 71
     0
 10
0.0
 20
0.0
 30
0.0
  3
*Model_Space
  1

  0
ENDBLK
  5
21
330
1F
100
AcDbEntity
  8
0
100
AcDbBlockEnd
  0
BLOCK
  5
1C
330
1B
100
AcDbEntity
 67
     1
  8
0
100
AcDbBlockBegin
  2
*Paper_Space
 70
     0
 71
     0
 10
0.0
 20
0.0
 30
0.0
  3
*Paper_Space
  1

  0
ENDBLK
  5
1D
330
1B
100
AcDbEntity
 67
     1
  8
0
100
AcDbBlockEnd
  0
BLOCK
  5
24
330
23
100
AcDbEntity
  8
0
100
AcDbBlockBegin
  2
*Paper_Space0
 70
     0
 71
     0
 10
0.0
 20
0.0
 30
0.0
  3
*Paper_Space0
  1

  0
ENDBLK
  5
25
330
23
100
AcDbEntity
  8
0
100
AcDbBlockEnd
  0
BLOCK
  5
6D
330
6C
100
AcDbEntity
  8
0
100
AcDbBlockBegin
  2
*X11
 70
     1
 71
     0
 10
0.0
 20
0.0
 30
0.0
  3
*X11
  1

  4
*X1
  0
LINE
  5
70
330
6C
100
AcDbEntity
  8
LC-003-005-----0
 62
     7
370
    25
100
AcDbLine
 10
531.792611
 20
625.034083
 30
0.0
 11
530.855088
 21
625.971606
 31
0.0
  0
LINE
  5
71
330
6C
100
AcDbEntity
  8
LC-003-005-----0
 62
     7
370
    25
100
AcDbLine
 10
531.02666
 20
622.971607
 30
0.0
 11
528.026679
 21
625.971587
 31
0.0
  0
LINE
  5
72
330
6C
100
AcDbEntity
  8
LC-003-005-----0
 62
     7
370
    25
100
AcDbLine
 10
528.198251
 20
622.971589
 30
0.0
 11
525.198271
 21
625.971569
 31
0.0
  0
LINE
  5
73
330
6C
100
AcDbEntity
  8
LC-003-005-----0
 62
     7
370
    25
100
AcDbLine
 10
525.369843
 20
622.97157
 30
0.0
 11
522.369863
 21
625.97155
 31
0.0
  0
LINE
  5
74
330
6C
100
AcDbEntity
  8
LC-003-005-----0
 62
     7
370
    25
100
AcDbLine
 10
522.684913
 20
622.828072
 30
0.0
 11
519.541454
 21
625.971531
 31
0.0
  0
LINE
  5
75
330
6C
100
AcDbEntity
  8
LC-003-005-----0
 62
     7
370
    25
100
AcDbLine
 10
511.992611
 20
633.520374
 30
0.0
 11
511.041375
 21
634.47161
 31
0.0
  0
LINE
  5
76
330
6C
100
AcDbEntity
  8
LC-003-005-----0
 62
     7
370
    25
100
AcDbLine
 10
520.755968
 20
621.928591
 30
0.0
 11
516.713046
 21
625.971513
 31
0.0
  0
LINE
  5
77
330
6C
100
AcDbEntity
  8
LC-003-005-----0
 62
     7
370
    25
100
AcDbLine
 10
511.992611
 20
630.691947
 30
0.0
 11
508.992611
 21
633.691947
 31
0.0
  0
LINE
  5
78
330
6C
100
AcDbEntity
  8
LC-003-005-----0
 62
     7
370
    25
100
AcDbLine
 10
518.827023
 20
621.029109
 30
0.0
 11
513.884637
 21
625.971494
 31
0.0
  0
LINE
  5
79
330
6C
100
AcDbEntity
  8
LC-003-005-----0
 62
     7
370
    25
100
AcDbLine
 10
511.992611
 20
627.86352
 30
0.0
 11
508.992611
 21
630.86352
 31
0.0
  0
LINE
  5
7A
330
6C
100
AcDbEntity
  8
LC-003-005-----0
 62
     7
370
    25
100
AcDbLine
 10
516.898077
 20
620.129627
 30
0.0
 11
508.992611
 21
628.035093
 31
0.0
  0
LINE
  5
7B
330
6C
100
AcDbEntity
  8
LC-003-005-----0
 62
     7
370
    25
100
AcDbLine
 10
514.969132
 20
619.230145
 30
0.0
 11
508.992611
 21
625.206666
 31
0.0
  0
LINE
  5
7C
330
6C
100
AcDbEntity
  8
LC-003-005-----0
 62
     7
370
    25
100
AcDbLine
 10
513.040187
 20
618.330663
 30
0.0
 11
508.992611
 21
622.378239
 31
0.0
  0
LINE
  5
7D
330
6C
100
AcDbEntity
  8
LC-003-005-----0
 62
     7
370
    25
100
AcDbLine
 10
511.992611
 20
616.549812
 30
0.0
 11
508.992611
 21
619.549812
 31
0.0
  0
LINE
  5
7E
330
6C
100
AcDbEntity
  8
LC-003-005-----0
 62
     7
370
    25
100
AcDbLine
 10
511.992611
 20
613.721385
 30
0.0
 11
508.992611
 21
616.721385
 31
0.0
  0
LINE
  5
7F
330
6C
100
AcDbEntity
  8
LC-003-005-----0
 62
     7
370
    25
100
AcDbLine
 10
510.914087
 20
611.971482
 30
0.0
 11
507.914087
 21
614.971482
 31
0.0
  0
LINE
  5
80
330
6C
100
AcDbEntity
  8
LC-003-005-----0
 62
     7
370
    25
100
AcDbLine
 10
508.742611
 20
611.31453
 30
0.0
 11
505.742611
 21
614.31453
 31
0.0
  0
LINE
  5
81
330
6C
100
AcDbEntity
  8
LC-003-005-----0
 62
     7
370
    25
100
AcDbLine
 10
508.742611
 20
608.486103
 30
0.0
 11
505.742611
 21
611.486103
 31
0.0
  0
LINE
  5
82
330
6C
100
AcDbEntity
  8
LC-003-005-----0
 62
     7
370
    25
100
AcDbLine
 10
508.742611
 20
605.657676
 30
0.0
 11
505.742611
 21
608.657676
 31
0.0
  0
LINE
  5
83
330
6C
100
AcDbEntity
  8
LC-003-005-----0
 62
     7
370
    25
100
AcDbLine
 10
508.742611
 20
602.829249
 30
0.0
 11
505.742611
 21
605.829249
 31
0.0
  0
LINE
  5
84
330
6C
100
AcDbEntity
  8
LC-003-005-----0
 62
     7
370
    25
100
AcDbLine
 10
508.742611
 20
600.000822
 30
0.0
 11
505.742611
 21
603.000822
 31
0.0
  0
LINE
  5
85
330
6C
100
AcDbEntity
  8
LC-003-005-----0
 62
     7
370
    25
100
AcDbLine
 10
506.699006
 20
599.216
 30
0.0
 11
505.742611
 21
600.172395
 31
0.0
  0
LINE
  5
86
330
6C
100
AcDbEntity
  8
LC-003-005-----0
 62
     7
370
    25
100
AcDbLine
 10
508.742611
 20
546.260706
 30
0.0
 11
506.187318
 21
548.816
 31
0.0
  0
LINE
  5
87
330
6C
100
AcDbEntity
  8
LC-003-005-----0
 62
     7
370
    25
100
AcDbLine
 10
508.742611
 20
543.432279
 30
0.0
 11
505.742611
 21
546.432279
 31
0.0
  0
LINE
  5
88
330
6C
100
AcDbEntity
  8
LC-003-005-----0
 62
     7
370
    25
100
AcDbLine
 10
508.742611
 20
540.603852
 30
0.0
 11
505.742611
 21
543.603852
 31
0.0
  0
LINE
  5
89
330
6C
100
AcDbEntity
  8
LC-003-005-----0
 62
     7
370
    25
100
AcDbLine
 10
508.742611
 20
537.775425
 30
0.0
 11
505.742611
 21
540.775425
 31
0.0
  0
LINE
  5
8A
330
6C
100
AcDbEntity
  8
LC-003-005-----0
 62
     7
370
    25
100
AcDbLine
 10
508.742611
 20
534.946998
 30
0.0
 11
505.742611
 21
537.946998
 31
0.0
  0
LINE
  5
8B
330
6C
100
AcDbEntity
  8
LC-003-005-----0
 62
     7
370
    25
100
AcDbLine
 10
508.742611
 20
532.118571
 30
0.0
 11
505.742611
 21
535.118571
 31
0.0
  0
LINE
  5
8C
330
6C
100
AcDbEntity
  8
LC-003-005-----0
 62
     7
370
    25
100
AcDbLine
 10
508.742611
 20
529.290144
 30
0.0
 11
505.742611
 21
532.290144
 31
0.0
  0
LINE
  5
8D
330
6C
100
AcDbEntity
  8
LC-003-005-----0
 62
     7
370
    25
100
AcDbLine
 10
508.742611
 20
526.461717
 30
0.0
 11
505.742611
 21
529.461717
 31
0.0
  0
LINE
  5
8E
330
6C
100
AcDbEntity
  8
LC-003-005-----0
 62
     7
370
    25
100
AcDbLine
 10
508.742611
 20
523.633289
 30
0.0
 11
505.742611
 21
526.633289
 31
0.0
  0
LINE
  5
8F
330
6C
100
AcDbEntity
  8
LC-003-005-----0
 62
     7
370
    25
100
AcDbLine
 10
398.492611
 20
633.883289
 30
0.0
 11
397.90429
 21
634.47161
 31
0.0
  0
LINE
  5
90
330
6C
100
AcDbEntity
  8
LC-003-005-----0
 62
     7
370
    25
100
AcDbLine
 10
508.742611
 20
520.804862
 30
0.0
 11
505.742611
 21
523.804862
 31
0.0
  0
LINE
  5
91
330
6C
100
AcDbEntity
  8
LC-003-005-----0
 62
     7
370
    25
100
AcDbLine
 10
398.492611
 20
631.054862
 30
0.0
 11
395.492611
 21
634.054862
 31
0.0
  0
LINE
  5
92
330
6C
100
AcDbEntity
  8
LC-003-005-----0
 62
     7
370
    25
100
AcDbLine
 10
508.742611
 20
517.976435
 30
0.0
 11
505.742611
 21
520.976435
 31
0.0
  0
LINE
  5
93
330
6C
100
AcDbEntity
  8
LC-003-005-----0
 62
     7
370
    25
100
AcDbLine
 10
398.492611
 20
628.226435
 30
0.0
 11
395.492611
 21
631.226435
 31
0.0
  0
LINE
  5
94
330
6C
100
AcDbEntity
  8
LC-003-005-----0
 62
     7
370
    25
100
AcDbLine
 10
508.742611
 20
515.148008
 30
0.0
 11
505.742611
 21
518.148008
 31
0.0
  0
LINE
  5
95
330
6C
100
AcDbEntity
  8
LC-003-005-----0
 62
     7
370
    25
100
AcDbLine
 10
398.492611
 20
625.398008
 30
0.0
 11
395.492611
 21
628.398008
 31
0.0
  0
LINE
  5
96
330
6C
100
AcDbEntity
  8
LC-003-005-----0
 62
     7
370
    25
100
AcDbLine
 10
508.742611
 20
512.319581
 30
0.0
 11
505.742611
 21
515.319581
 31
0.0
  0
LINE
  5
97
330
6C
100
AcDbEntity
  8
LC-003-005-----0
 62
     7
370
    25
100
AcDbLine
 10
398.492611
 20
622.569581
 30
0.0
 11
395.090708
 21
625.971484
 31
0.0
  0
LINE
  5
98
330
6C
100
AcDbEntity
  8
LC-003-005-----0
 62
     7
370
    25
100
AcDbLine
 10
508.742611
 20
509.491154
 30
0.0
 11
505.742611
 21
512.491154
 31
0.0
  0
LINE
  5
99
330
6C
100
AcDbEntity
  8
LC-003-005-----0
 62
     7
370
    25
100
AcDbLine
 10
398.492611
 20
619.741154
 30
0.0
 11
392.262262
 21
625.971503
 31
0.0
  0
LINE
  5
9A
330
6C
100
AcDbEntity
  8
LC-003-005-----0
 62
     7
370
    25
100
AcDbLine
 10
508.460333
 20
506.945005
 30
0.0
 11
505.742611
 21
509.662727
 31
0.0
  0
LINE
  5
9B
330
6C
100
AcDbEntity
  8
LC-003-005-----0
 62
     7
370
    25
100
AcDbLine
 10
401.742611
 20
613.662727
 30
0.0
 11
400.433856
 21
614.971482
 31
0.0
  0
LINE
  5
9C
330
6C
100
AcDbEntity
  8
LC-003-005-----0
 62
     7
370
    25
100
AcDbLine
 10
398.492611
 20
616.912727
 30
0.0
 11
389.433816
 21
625.971522
 31
0.0
  0
LINE
  5
9D
330
6C
100
AcDbEntity
  8
LC-003-005-----0
 62
     7
370
    25
100
AcDbLine
 10
507.862616
 20
504.714295
 30
0.0
 11
505.742611
 21
506.8343
 31
0.0
  0
LINE
  5
9E
330
6C
100
AcDbEntity
  8
LC-003-005-----0
 62
     7
370
    25
100
AcDbLine
 10
401.742611
 20
610.8343
 30
0.0
 11
395.492611
 21
617.0843
 31
0.0
  0
LINE
  5
9F
330
6C
100
AcDbEntity
  8
LC-003-005-----0
 62
     7
370
    25
100
AcDbLine
 10
394.07256
 20
618.504351
 30
0.0
 11
386.60537
 21
625.97154
 31
0.0
  0
LINE
  5
A0
330
6C
100
AcDbEntity
  8
LC-003-005-----0
 62
     7
370
    25
100
AcDbLine
 10
506.277002
 20
503.471482
 30
0.0
 11
505.742611
 21
504.005872
 31
0.0
  0
LINE
  5
A1
330
6C
100
AcDbEntity
  8
LC-003-005-----0
 62
     7
370
    25
100
AcDbLine
 10
401.742611
 20
608.005872
 30
0.0
 11
398.742611
 21
611.005872
 31
0.0
  0
LINE
  5
A2
330
6C
100
AcDbEntity
  8
LC-003-005-----0
 62
     7
370
    25
100
AcDbLine
 10
397.777002
 20
611.971482
 30
0.0
 11
395.492611
 21
614.255872
 31
0.0
  0
LINE
  5
A3
330
6C
100
AcDbEntity
  8
LC-003-005-----0
 62
     7
370
    25
100
AcDbLine
 10
388.772826
 20
620.975657
 30
0.0
 11
383.776924
 21
625.971559
 31
0.0
  0
LINE
  5
A4
330
6C
100
AcDbEntity
  8
LC-003-005-----0
 62
     7
370
    25
100
AcDbLine
 10
401.742611
 20
605.177445
 30
0.0
 11
398.742611
 21
608.177445
 31
0.0
  0
LINE
  5
A5
330
6C
100
AcDbEntity
  8
LC-003-005-----0
 62
     7
370
    25
100
AcDbLine
 10
383.948498
 20
622.971558
 30
0.0
 11
380.948479
 21
625.971578
 31
0.0
  0
LINE
  5
A6
330
6C
100
AcDbEntity
  8
LC-003-005-----0
 62
     7
370
    25
100
AcDbLine
 10
401.742611
 20
602.349018
 30
0.0
 11
398.742611
 21
605.349018
 31
0.0
  0
LINE
  5
A7
330
6C
100
AcDbEntity
  8
LC-003-005-----0
 62
     7
370
    25
100
AcDbLine
 10
381.120053
 20
622.971577
 30
0.0
 11
378.120033
 21
625.971597
 31
0.0
  0
LINE
  5
A8
330
6C
100
AcDbEntity
  8
LC-003-005-----0
 62
     7
370
    25
100
AcDbLine
 10
401.742611
 20
599.520591
 30
0.0
 11
398.742611
 21
602.520591
 31
0.0
  0
LINE
  5
A9
330
6C
100
AcDbEntity
  8
LC-003-005-----0
 62
     7
370
    25
100
AcDbLine
 10
378.291607
 20
622.971595
 30
0.0
 11
375.742611
 21
625.520591
 31
0.0
  0
LINE
  5
AA
330
6C
100
AcDbEntity
  8
LC-003-005-----0
 62
     7
370
    25
100
AcDbLine
 10
401.72345
 20
596.711325
 30
0.0
 11
398.742611
 21
599.692164
 31
0.0
  0
LINE
  5
AB
330
6C
100
AcDbEntity
  8
LC-003-005-----0
 62
     7
370
    25
100
AcDbLine
 10
401.72345
 20
593.882898
 30
0.0
 11
398.742611
 21
596.863737
 31
0.0
  0
LINE
  5
AC
330
6C
100
AcDbEntity
  8
LC-003-005-----0
 62
     7
370
    25
100
AcDbLine
 10
401.72345
 20
591.054471
 30
0.0
 11
398.742611
 21
594.03531
 31
0.0
  0
LINE
  5
AD
330
6C
100
AcDbEntity
  8
LC-003-005-----0
 62
     7
370
    25
100
AcDbLine
 10
401.72345
 20
588.226044
 30
0.0
 11
398.742611
 21
591.206883
 31
0.0
  0
LINE
  5
AE
330
6C
100
AcDbEntity
  8
LC-003-005-----0
 62
     7
370
    25
100
AcDbLine
 10
401.72345
 20
585.397617
 30
0.0
 11
398.742611
 21
588.378455
 31
0.0
  0
LINE
  5
AF
330
6C
100
AcDbEntity
  8
LC-003-005-----0
 62
     7
370
    25
100
AcDbLine
 10
401.72345
 20
582.56919
 30
0.0
 11
398.742611
 21
585.550028
 31
0.0
  0
LINE
  5
B0
330
6C
100
AcDbEntity
  8
LC-003-005-----0
 62
     7
370
    25
100
AcDbLine
 10
401.72345
 20
579.740763
 30
0.0
 11
398.742611
 21
582.721601
 31
0.0
  0
LINE
  5
B1
330
6C
100
AcDbEntity
  8
LC-003-005-----0
 62
     7
370
    25
100
AcDbLine
 10
401.72345
 20
576.912336
 30
0.0
 11
398.742611
 21
579.893174
 31
0.0
  0
LINE
  5
B2
330
6C
100
AcDbEntity
  8
LC-003-005-----0
 62
     7
370
    25
100
AcDbLine
 10
401.72345
 20
574.083908
 30
0.0
 11
398.742611
 21
577.064747
 31
0.0
  0
LINE
  5
B3
330
6C
100
AcDbEntity
  8
LC-003-005-----0
 62
     7
370
    25
100
AcDbLine
 10
401.72345
 20
571.255481
 30
0.0
 11
398.742611
 21
574.23632
 31
0.0
  0
LINE
  5
B4
330
6C
100
AcDbEntity
  8
LC-003-005-----0
 62
     7
370
    25
100
AcDbLine
 10
401.72345
 20
568.427054
 30
0.0
 11
398.742611
 21
571.407893
 31
0.0
  0
LINE
  5
B5
330
6C
100
AcDbEntity
  8
LC-003-005-----0
 62
     7
370
    25
100
AcDbLine
 10
401.72345
 20
565.598627
 30
0.0
 11
398.742611
 21
568.579466
 31
0.0
  0
LINE
  5
B6
330
6C
100
AcDbEntity
  8
LC-003-005-----0
 62
     7
370
    25
100
AcDbLine
 10
401.72345
 20
562.7702
 30
0.0
 11
398.742611
 21
565.751038
 31
0.0
  0
LINE
  5
B7
330
6C
100
AcDbEntity
  8
LC-003-005-----0
 62
     7
370
    25
100
AcDbLine
 10
401.72345
 20
559.941773
 30
0.0
 11
398.742611
 21
562.922611
 31
0.0
  0
LINE
  5
B8
330
6C
100
AcDbEntity
  8
LC-003-005-----0
 62
     7
370
    25
100
AcDbLine
 10
401.72345
 20
557.113346
 30
0.0
 11
398.742611
 21
560.094184
 31
0.0
  0
LINE
  5
B9
330
6C
100
AcDbEntity
  8
LC-003-005-----0
 62
     7
370
    25
100
AcDbLine
 10
401.72345
 20
554.284919
 30
0.0
 11
398.742611
 21
557.265757
 31
0.0
  0
LINE
  5
BA
330
6C
100
AcDbEntity
  8
LC-003-005-----0
 62
     7
370
    25
100
AcDbLine
 10
401.72345
 20
551.456491
 30
0.0
 11
398.742611
 21
554.43733
 31
0.0
  0
LINE
  5
BB
330
6C
100
AcDbEntity
  8
LC-003-005-----0
 62
     7
370
    25
100
AcDbLine
 10
401.742611
 20
548.608903
 30
0.0
 11
398.742611
 21
551.608903
 31
0.0
  0
LINE
  5
BC
330
6C
100
AcDbEntity
  8
LC-003-005-----0
 62
     7
370
    25
100
AcDbLine
 10
401.742611
 20
545.780476
 30
0.0
 11
398.742611
 21
548.780476
 31
0.0
  0
LINE
  5
BD
330
6C
100
AcDbEntity
  8
LC-003-005-----0
 62
     7
370
    25
100
AcDbLine
 10
401.742611
 20
542.952049
 30
0.0
 11
398.742611
 21
545.952049
 31
0.0
  0
LINE
  5
BE
330
6C
100
AcDbEntity
  8
LC-003-005-----0
 62
     7
370
    25
100
AcDbLine
 10
401.742611
 20
540.123621
 30
0.0
 11
398.742611
 21
543.123621
 31
0.0
  0
LINE
  5
BF
330
6C
100
AcDbEntity
  8
LC-003-005-----0
 62
     7
370
    25
100
AcDbLine
 10
401.742611
 20
537.295194
 30
0.0
 11
398.742611
 21
540.295194
 31
0.0
  0
LINE
  5
C0
330
6C
100
AcDbEntity
  8
LC-003-005-----0
 62
     7
370
    25
100
AcDbLine
 10
401.742611
 20
534.466767
 30
0.0
 11
398.742611
 21
537.466767
 31
0.0
  0
LINE
  5
C1
330
6C
100
AcDbEntity
  8
LC-003-005-----0
 62
     7
370
    25
100
AcDbLine
 10
401.742611
 20
531.63834
 30
0.0
 11
398.742611
 21
534.63834
 31
0.0
  0
LINE
  5
C2
330
6C
100
AcDbEntity
  8
LC-003-005-----0
 62
     7
370
    25
100
AcDbLine
 10
401.742611
 20
528.809913
 30
0.0
 11
398.742611
 21
531.809913
 31
0.0
  0
LINE
  5
C3
330
6C
100
AcDbEntity
  8
LC-003-005-----0
 62
     7
370
    25
100
AcDbLine
 10
401.742611
 20
525.981486
 30
0.0
 11
398.742611
 21
528.981486
 31
0.0
  0
LINE
  5
C4
330
6C
100
AcDbEntity
  8
LC-003-005-----0
 62
     7
370
    25
100
AcDbLine
 10
401.742611
 20
523.153059
 30
0.0
 11
398.742611
 21
526.153059
 31
0.0
  0
LINE
  5
C5
330
6C
100
AcDbEntity
  8
LC-003-005-----0
 62
     7
370
    25
100
AcDbLine
 10
401.742611
 20
520.324632
 30
0.0
 11
398.742611
 21
523.324632
 31
0.0
  0
LINE
  5
C6
330
6C
100
AcDbEntity
  8
LC-003-005-----0
 62
     7
370
    25
100
AcDbLine
 10
401.742611
 20
517.496204
 30
0.0
 11
398.742611
 21
520.496204
 31
0.0
  0
LINE
  5
C7
330
6C
100
AcDbEntity
  8
LC-003-005-----0
 62
     7
370
    25
100
AcDbLine
 10
401.742611
 20
514.667777
 30
0.0
 11
398.742611
 21
517.667777
 31
0.0
  0
LINE
  5
C8
330
6C
100
AcDbEntity
  8
LC-003-005-----0
 62
     7
370
    25
100
AcDbLine
 10
401.742611
 20
511.83935
 30
0.0
 11
398.742611
 21
514.83935
 31
0.0
  0
LINE
  5
C9
330
6C
100
AcDbEntity
  8
LC-003-005-----0
 62
     7
370
    25
100
AcDbLine
 10
401.742611
 20
509.010923
 30
0.0
 11
398.742611
 21
512.010923
 31
0.0
  0
LINE
  5
CA
330
6C
100
AcDbEntity
  8
LC-003-005-----0
 62
     7
370
    25
100
AcDbLine
 10
401.742611
 20
506.182496
 30
0.0
 11
398.742611
 21
509.182496
 31
0.0
  0
LINE
  5
CB
330
6C
100
AcDbEntity
  8
LC-003-005-----0
 62
     7
370
    25
100
AcDbLine
 10
401.625198
 20
503.471482
 30
0.0
 11
399.344508
 21
505.752172
 31
0.0
  0
ENDBLK
  5
6E
330
6C
100
AcDbEntity
  8
0
100
AcDbBlockEnd
  0
BLOCK
  5
D5
330
D4
100
AcDbEntity
  8
0
100
AcDbBlockBegin
  2
*X22
 70
     1
 71
     0
 10
0.0
 20
0.0
 30
0.0
  3
*X22
  1

  4
*X2
  0
LINE
  5
D7
330
D4
100
AcDbEntity
  8
LC-003-005-----0
 62
     7
370
    25
100
AcDbLine
 10
372.400658
 20
614.720408
 30
0.0
 11
376.149055
 21
610.972012
 31
0.0
  0
LINE
  5
D8
330
D4
100
AcDbEntity
  8
LC-003-005-----0
 62
     7
370
    25
100
AcDbLine
 10
372.400658
 20
617.548835
 30
0.0
 11
378.977482
 21
610.972012
 31
0.0
  0
LINE
  5
D9
330
D4
100
AcDbEntity
  8
LC-003-005-----0
 62
     7
370
    25
100
AcDbLine
 10
372.400658
 20
620.377263
 30
0.0
 11
377.488316
 21
615.289604
 31
0.0
  0
LINE
  5
DA
330
D4
100
AcDbEntity
  8
LC-003-005-----0
 62
     7
370
    25
100
AcDbLine
 10
372.400658
 20
623.20569
 30
0.0
 11
377.488316
 21
618.118032
 31
0.0
  0
LINE
  5
DB
330
D4
100
AcDbEntity
  8
LC-003-005-----0
 62
     7
370
    25
100
AcDbLine
 10
372.400658
 20
626.034117
 30
0.0
 11
377.488316
 21
620.946459
 31
0.0
  0
LINE
  5
DC
330
D4
100
AcDbEntity
  8
LC-003-005-----0
 62
     7
370
    25
100
AcDbLine
 10
372.400658
 20
628.862544
 30
0.0
 11
377.488316
 21
623.774886
 31
0.0
  0
LINE
  5
DD
330
D4
100
AcDbEntity
  8
LC-003-005-----0
 62
     7
370
    25
100
AcDbLine
 10
372.400658
 20
631.690971
 30
0.0
 11
377.488316
 21
626.603313
 31
0.0
  0
LINE
  5
DE
330
D4
100
AcDbEntity
  8
LC-003-005-----0
 62
     7
370
    25
100
AcDbLine
 10
372.400658
 20
634.519398
 30
0.0
 11
377.488316
 21
629.43174
 31
0.0
  0
LINE
  5
DF
330
D4
100
AcDbEntity
  8
LC-003-005-----0
 62
     7
370
    25
100
AcDbLine
 10
372.400658
 20
637.347826
 30
0.0
 11
377.488316
 21
632.260167
 31
0.0
  0
LINE
  5
E0
330
D4
100
AcDbEntity
  8
LC-003-005-----0
 62
     7
370
    25
100
AcDbLine
 10
374.104899
 20
638.472012
 30
0.0
 11
377.488316
 21
635.088594
 31
0.0
  0
LINE
  5
E1
330
D4
100
AcDbEntity
  8
LC-003-005-----0
 62
     7
370
    25
100
AcDbLine
 10
376.933326
 20
638.472012
 30
0.0
 11
377.488316
 21
637.917022
 31
0.0
  0
ENDBLK
  5
D6
330
D4
100
AcDbEntity
  8
0
100
AcDbBlockEnd
  0
BLOCK
  5
E4
330
E3
100
AcDbEntity
  8
0
100
AcDbBlockBegin
  2
*X33
 70
     1
 71
     0
 10
0.0
 20
0.0
 30
0.0
  3
*X33
  1

  4
*X3
  0
LINE
  5
E6
330
E3
100
AcDbEntity
  8
LC-003-005-----0
 62
     7
370
    25
100
AcDbLine
 10
348.988316
 20
612.676906
 30
0.0
 11
350.693211
 21
610.972011
 31
0.0
  0
LINE
  5
E7
330
E3
100
AcDbEntity
  8
LC-003-005-----0
 62
     7
370
    25
100
AcDbLine
 10
350.488316
 20
614.005333
 30
0.0
 11
353.521638
 21
610.972011
 31
0.0
  0
LINE
  5
E8
330
E3
100
AcDbEntity
  8
LC-003-005-----0
 62
     7
370
    25
100
AcDbLine
 10
350.488316
 20
616.83376
 30
0.0
 11
355.463362
 21
611.858715
 31
0.0
  0
LINE
  5
E9
330
E3
100
AcDbEntity
  8
LC-003-005-----0
 62
     7
370
    25
100
AcDbLine
 10
350.488316
 20
619.662187
 30
0.0
 11
355.576658
 21
614.573846
 31
0.0
  0
LINE
  5
EA
330
E3
100
AcDbEntity
  8
LC-003-005-----0
 62
     7
370
    25
100
AcDbLine
 10
350.488316
 20
622.490615
 30
0.0
 11
355.576658
 21
617.402273
 31
0.0
  0
LINE
  5
EB
330
E3
100
AcDbEntity
  8
LC-003-005-----0
 62
     7
370
    25
100
AcDbLine
 10
350.488316
 20
625.319042
 30
0.0
 11
355.576658
 21
620.2307
 31
0.0
  0
LINE
  5
EC
330
E3
100
AcDbEntity
  8
LC-003-005-----0
 62
     7
370
    25
100
AcDbLine
 10
350.488316
 20
628.147469
 30
0.0
 11
355.576658
 21
623.059127
 31
0.0
  0
LINE
  5
ED
330
E3
100
AcDbEntity
  8
LC-003-005-----0
 62
     7
370
    25
100
AcDbLine
 10
350.488316
 20
630.975896
 30
0.0
 11
355.576658
 21
625.887554
 31
0.0
  0
LINE
  5
EE
330
E3
100
AcDbEntity
  8
LC-003-005-----0
 62
     7
370
    25
100
AcDbLine
 10
350.488316
 20
633.804323
 30
0.0
 11
355.576658
 21
628.715981
 31
0.0
  0
LINE
  5
EF
330
E3
100
AcDbEntity
  8
LC-003-005-----0
 62
     7
370
    25
100
AcDbLine
 10
350.488316
 20
636.63275
 30
0.0
 11
355.576658
 21
631.544408
 31
0.0
  0
LINE
  5
F0
330
E3
100
AcDbEntity
  8
LC-003-005-----0
 62
     7
370
    25
100
AcDbLine
 10
351.477483
 20
638.472011
 30
0.0
 11
355.576658
 21
634.372836
 31
0.0
  0
LINE
  5
F1
330
E3
100
AcDbEntity
  8
LC-003-005-----0
 62
     7
370
    25
100
AcDbLine
 10
354.30591
 20
638.472011
 30
0.0
 11
355.576658
 21
637.201263
 31
0.0
  0
ENDBLK
  5
E5
330
E3
100
AcDbEntity
  8
0
100
AcDbBlockEnd
  0
BLOCK
  5
105
330
104
100
AcDbEntity
  8
0
100
AcDbBlockBegin
  2
*X44
 70
     1
 71
     0
 10
0.0
 20
0.0
 30
0.0
  3
*X44
  1

  4
*X4
  0
LINE
  5
107
330
104
100
AcDbEntity
  8
LC-003-005-----0
 62
     7
370
    25
100
AcDbLine
 10
394.040467
 20
625.971491
 30
0.0
 11
395.492611
 21
627.423635
 31
0.0
  0
LINE
  5
108
330
104
100
AcDbEntity
  8
LC-003-005-----0
 62
     7
370
    25
100
AcDbLine
 10
391.212059
 20
625.97151
 30
0.0
 11
395.492611
 21
630.252062
 31
0.0
  0
LINE
  5
109
330
104
100
AcDbEntity
  8
LC-003-005-----0
 62
     7
370
    25
100
AcDbLine
 10
388.38365
 20
625.971529
 30
0.0
 11
395.492611
 21
633.08049
 31
0.0
  0
LINE
  5
10A
330
104
100
AcDbEntity
  8
LC-003-005-----0
 62
     7
370
    25
100
AcDbLine
 10
385.555242
 20
625.971547
 30
0.0
 11
394.055163
 21
634.471469
 31
0.0
  0
LINE
  5
10B
330
104
100
AcDbEntity
  8
LC-003-005-----0
 62
     7
370
    25
100
AcDbLine
 10
382.726833
 20
625.971566
 30
0.0
 11
391.226729
 21
634.471462
 31
0.0
  0
LINE
  5
10C
330
104
100
AcDbEntity
  8
LC-003-005-----0
 62
     7
370
    25
100
AcDbLine
 10
380.187636
 20
626.260796
 30
0.0
 11
388.398296
 21
634.471455
 31
0.0
  0
LINE
  5
10D
330
104
100
AcDbEntity
  8
LC-003-005-----0
 62
     7
370
    25
100
AcDbLine
 10
381.06199
 20
629.963577
 30
0.0
 11
385.569862
 21
634.471449
 31
0.0
  0
LINE
  5
10E
330
104
100
AcDbEntity
  8
LC-003-005-----0
 62
     7
370
    25
100
AcDbLine
 10
381.936343
 20
633.666357
 30
0.0
 11
382.741428
 21
634.471442
 31
0.0
  0
ENDBLK
  5
106
330
104
100
AcDbEntity
  8
0
100
AcDbBlockEnd
  0
BLOCK
  5
111
330
110
100
AcDbEntity
  8
0
100
AcDbBlockBegin
  2
*X55
 70
     1
 71
     0
 10
0.0
 20
0.0
 30
0.0
  3
*X55
  1

  4
*X5
  0
LINE
  5
113
330
110
100
AcDbEntity
  8
LC-003-005-----0
 62
     7
370
    25
100
AcDbLine
 10
396.839317
 20
608.971351
 30
0.0
 11
398.742611
 21
610.874645
 31
0.0
  0
LINE
  5
114
330
110
100
AcDbEntity
  8
LC-003-005-----0
 62
     7
370
    25
100
AcDbLine
 10
394.01089
 20
608.971351
 30
0.0
 11
397.01102
 21
611.971482
 31
0.0
  0
LINE
  5
115
330
110
100
AcDbEntity
  8
LC-003-005-----0
 62
     7
370
    25
100
AcDbLine
 10
391.182462
 20
608.971351
 30
0.0
 11
395.492611
 21
613.2815
 31
0.0
  0
LINE
  5
116
330
110
100
AcDbEntity
  8
LC-003-005-----0
 62
     7
370
    25
100
AcDbLine
 10
388.354035
 20
608.971351
 30
0.0
 11
395.492611
 21
616.109927
 31
0.0
  0
LINE
  5
117
330
110
100
AcDbEntity
  8
LC-003-005-----0
 62
     7
370
    25
100
AcDbLine
 10
386.288015
 20
609.733758
 30
0.0
 11
394.74503
 21
618.190773
 31
0.0
  0
LINE
  5
118
330
110
100
AcDbEntity
  8
LC-003-005-----0
 62
     7
370
    25
100
AcDbLine
 10
385.121066
 20
611.395236
 30
0.0
 11
392.816085
 21
619.090255
 31
0.0
  0
LINE
  5
119
330
110
100
AcDbEntity
  8
LC-003-005-----0
 62
     7
370
    25
100
AcDbLine
 10
383.954117
 20
613.056714
 30
0.0
 11
390.88714
 21
619.989737
 31
0.0
  0
LINE
  5
11A
330
110
100
AcDbEntity
  8
LC-003-005-----0
 62
     7
370
    25
100
AcDbLine
 10
382.787167
 20
614.718192
 30
0.0
 11
388.958194
 21
620.889219
 31
0.0
  0
LINE
  5
11B
330
110
100
AcDbEntity
  8
LC-003-005-----0
 62
     7
370
    25
100
AcDbLine
 10
381.620218
 20
616.37967
 30
0.0
 11
387.029249
 21
621.788701
 31
0.0
  0
LINE
  5
11C
330
110
100
AcDbEntity
  8
LC-003-005-----0
 62
     7
370
    25
100
AcDbLine
 10
380.453269
 20
618.041147
 30
0.0
 11
385.100304
 21
622.688183
 31
0.0
  0
LINE
  5
11D
330
110
100
AcDbEntity
  8
LC-003-005-----0
 62
     7
370
    25
100
AcDbLine
 10
379.28632
 20
619.702625
 30
0.0
 11
382.555262
 21
622.971567
 31
0.0
  0
LINE
  5
11E
330
110
100
AcDbEntity
  8
LC-003-005-----0
 62
     7
370
    25
100
AcDbLine
 10
379.313282
 20
622.558015
 30
0.0
 11
379.726853
 21
622.971586
 31
0.0
  0
ENDBLK
  5
112
330
110
100
AcDbEntity
  8
0
100
AcDbBlockEnd
  0
BLOCK
  5
122
330
121
100
AcDbEntity
  8
0
100
AcDbBlockBegin
  2
*X66
 70
     1
 71
     0
 10
0.0
 20
0.0
 30
0.0
  3
*X66
  1

  4
*X6
  0
LINE
  5
124
330
121
100
AcDbEntity
  8
LC-003-005-----0
 62
     7
370
    25
100
AcDbLine
 10
577.030079
 20
610.971205
 30
0.0
 11
579.558059
 21
613.499184
 31
0.0
  0
LINE
  5
125
330
121
100
AcDbEntity
  8
LC-003-005-----0
 62
     7
370
    25
100
AcDbLine
 10
574.201653
 20
610.971206
 30
0.0
 11
580.904856
 21
617.674408
 31
0.0
  0
LINE
  5
126
330
121
100
AcDbEntity
  8
LC-003-005-----0
 62
     7
370
    25
100
AcDbLine
 10
571.373227
 20
610.971207
 30
0.0
 11
582.251653
 21
621.849633
 31
0.0
  0
LINE
  5
127
330
121
100
AcDbEntity
  8
LC-003-005-----0
 62
     7
370
    25
100
AcDbLine
 10
568.544801
 20
610.971208
 30
0.0
 11
581.045351
 21
623.471758
 31
0.0
  0
LINE
  5
128
330
121
100
AcDbEntity
  8
LC-003-005-----0
 62
     7
370
    25
100
AcDbLine
 10
565.716375
 20
610.971209
 30
0.0
 11
578.216924
 21
623.471758
 31
0.0
  0
LINE
  5
129
330
121
100
AcDbEntity
  8
LC-003-005-----0
 62
     7
370
    25
100
AcDbLine
 10
581.216924
 20
626.471758
 30
0.0
 11
583.126577
 21
628.381411
 31
0.0
  0
LINE
  5
12A
330
121
100
AcDbEntity
  8
LC-003-005-----0
 62
     7
370
    25
100
AcDbLine
 10
562.887949
 20
610.97121
 30
0.0
 11
577.318761
 21
625.402022
 31
0.0
  0
LINE
  5
12B
330
121
100
AcDbEntity
  8
LC-003-005-----0
 62
     7
370
    25
100
AcDbLine
 10
578.388497
 20
626.471758
 30
0.0
 11
582.436699
 21
630.51996
 31
0.0
  0
LINE
  5
12C
330
121
100
AcDbEntity
  8
LC-003-005-----0
 62
     7
370
    25
100
AcDbLine
 10
560.059523
 20
610.971211
 30
0.0
 11
581.746821
 21
632.658509
 31
0.0
  0
LINE
  5
12D
330
121
100
AcDbEntity
  8
LC-003-005-----0
 62
     7
370
    25
100
AcDbLine
 10
557.231097
 20
610.971212
 30
0.0
 11
581.056943
 21
634.797058
 31
0.0
  0
LINE
  5
12E
330
121
100
AcDbEntity
  8
LC-003-005-----0
 62
     7
370
    25
100
AcDbLine
 10
552.402809
 20
608.971351
 30
0.0
 11
553.743281
 21
610.311823
 31
0.0
  0
LINE
  5
12F
330
121
100
AcDbEntity
  8
LC-003-005-----0
 62
     7
370
    25
100
AcDbLine
 10
554.402671
 20
610.971213
 30
0.0
 11
580.367064
 21
636.935607
 31
0.0
  0
LINE
  5
130
330
121
100
AcDbEntity
  8
LC-003-005-----0
 62
     7
370
    25
100
AcDbLine
 10
549.574381
 20
608.971351
 30
0.0
 11
579.677186
 21
639.074156
 31
0.0
  0
LINE
  5
131
330
121
100
AcDbEntity
  8
LC-003-005-----0
 62
     7
370
    25
100
AcDbLine
 10
546.745954
 20
608.971351
 30
0.0
 11
578.987308
 21
641.212704
 31
0.0
  0
LINE
  5
132
330
121
100
AcDbEntity
  8
LC-003-005-----0
 62
     7
370
    25
100
AcDbLine
 10
543.917527
 20
608.971351
 30
0.0
 11
576.917391
 21
641.971215
 31
0.0
  0
LINE
  5
133
330
121
100
AcDbEntity
  8
LC-003-005-----0
 62
     7
370
    25
100
AcDbLine
 10
541.0891
 20
608.971351
 30
0.0
 11
574.088973
 21
641.971224
 31
0.0
  0
LINE
  5
134
330
121
100
AcDbEntity
  8
LC-003-005-----0
 62
     7
370
    25
100
AcDbLine
 10
538.260673
 20
608.971351
 30
0.0
 11
571.260555
 21
641.971233
 31
0.0
  0
LINE
  5
135
330
121
100
AcDbEntity
  8
LC-003-005-----0
 62
     7
370
    25
100
AcDbLine
 10
535.432246
 20
608.971351
 30
0.0
 11
568.432137
 21
641.971242
 31
0.0
  0
LINE
  5
136
330
121
100
AcDbEntity
  8
LC-003-005-----0
 62
     7
370
    25
100
AcDbLine
 10
532.603819
 20
608.971351
 30
0.0
 11
565.603719
 21
641.971251
 31
0.0
  0
LINE
  5
137
330
121
100
AcDbEntity
  8
LC-003-005-----0
 62
     7
370
    25
100
AcDbLine
 10
529.775392
 20
608.971351
 30
0.0
 11
562.775301
 21
641.97126
 31
0.0
  0
LINE
  5
138
330
121
100
AcDbEntity
  8
LC-003-005-----0
 62
     7
370
    25
100
AcDbLine
 10
526.946964
 20
608.971351
 30
0.0
 11
559.946882
 21
641.971269
 31
0.0
  0
LINE
  5
139
330
121
100
AcDbEntity
  8
LC-003-005-----0
 62
     7
370
    25
100
AcDbLine
 10
524.118537
 20
608.971351
 30
0.0
 11
557.118464
 21
641.971278
 31
0.0
  0
LINE
  5
13A
330
121
100
AcDbEntity
  8
LC-003-005-----0
 62
     7
370
    25
100
AcDbLine
 10
521.29011
 20
608.971351
 30
0.0
 11
554.290046
 21
641.971287
 31
0.0
  0
LINE
  5
13B
330
121
100
AcDbEntity
  8
LC-003-005-----0
 62
     7
370
    25
100
AcDbLine
 10
518.461683
 20
608.971351
 30
0.0
 11
551.461628
 21
641.971296
 31
0.0
  0
LINE
  5
13C
330
121
100
AcDbEntity
  8
LC-003-005-----0
 62
     7
370
    25
100
AcDbLine
 10
515.633256
 20
608.971351
 30
0.0
 11
529.633503
 21
622.971598
 31
0.0
  0
LINE
  5
13D
330
121
100
AcDbEntity
  8
LC-003-005-----0
 62
     7
370
    25
100
AcDbLine
 10
531.792611
 20
625.130706
 30
0.0
 11
548.63321
 21
641.971305
 31
0.0
  0
LINE
  5
13E
330
121
100
AcDbEntity
  8
LC-003-005-----0
 62
     7
370
    25
100
AcDbLine
 10
512.804829
 20
608.971351
 30
0.0
 11
526.805057
 21
622.971579
 31
0.0
  0
LINE
  5
13F
330
121
100
AcDbEntity
  8
LC-003-005-----0
 62
     7
370
    25
100
AcDbLine
 10
529.805077
 20
625.971599
 30
0.0
 11
545.804792
 21
641.971314
 31
0.0
  0
LINE
  5
140
330
121
100
AcDbEntity
  8
LC-003-005-----0
 62
     7
370
    25
100
AcDbLine
 10
509.976402
 20
608.971351
 30
0.0
 11
523.976611
 21
622.971561
 31
0.0
  0
LINE
  5
141
330
121
100
AcDbEntity
  8
LC-003-005-----0
 62
     7
370
    25
100
AcDbLine
 10
526.976631
 20
625.97158
 30
0.0
 11
535.476854
 21
634.471803
 31
0.0
  0
LINE
  5
142
330
121
100
AcDbEntity
  8
LC-003-005-----0
 62
     7
370
    25
100
AcDbLine
 10
536.626688
 20
635.621638
 30
0.0
 11
542.976374
 21
641.971324
 31
0.0
  0
LINE
  5
143
330
121
100
AcDbEntity
  8
LC-003-005-----0
 62
     7
370
    25
100
AcDbLine
 10
508.742611
 20
610.565988
 30
0.0
 11
510.148105
 21
611.971482
 31
0.0
  0
LINE
  5
144
330
121
100
AcDbEntity
  8
LC-003-005-----0
 62
     7
370
    25
100
AcDbLine
 10
511.992611
 20
613.815988
 30
0.0
 11
519.536625
 21
621.360002
 31
0.0
  0
LINE
  5
145
330
121
100
AcDbEntity
  8
LC-003-005-----0
 62
     7
370
    25
100
AcDbLine
 10
524.148185
 20
625.971562
 30
0.0
 11
532.64842
 21
634.471797
 31
0.0
  0
LINE
  5
146
330
121
100
AcDbEntity
  8
LC-003-005-----0
 62
     7
370
    25
100
AcDbLine
 10
538.040902
 20
639.864279
 30
0.0
 11
540.147956
 21
641.971333
 31
0.0
  0
LINE
  5
147
330
121
100
AcDbEntity
  8
LC-003-005-----0
 62
     7
370
    25
100
AcDbLine
 10
511.992611
 20
616.644415
 30
0.0
 11
514.236892
 21
618.888695
 31
0.0
  0
LINE
  5
148
330
121
100
AcDbEntity
  8
LC-003-005-----0
 62
     7
370
    25
100
AcDbLine
 10
521.31974
 20
625.971543
 30
0.0
 11
529.819986
 21
634.47179
 31
0.0
  0
LINE
  5
149
330
121
100
AcDbEntity
  8
LC-003-005-----0
 62
     7
370
    25
100
AcDbLine
 10
518.491294
 20
625.971525
 30
0.0
 11
526.991553
 21
634.471783
 31
0.0
  0
LINE
  5
14A
330
121
100
AcDbEntity
  8
LC-003-005-----0
 62
     7
370
    25
100
AcDbLine
 10
515.662848
 20
625.971506
 30
0.0
 11
524.163119
 21
634.471777
 31
0.0
  0
LINE
  5
14B
330
121
100
AcDbEntity
  8
LC-003-005-----0
 62
     7
370
    25
100
AcDbLine
 10
512.834402
 20
625.971487
 30
0.0
 11
521.334685
 21
634.47177
 31
0.0
  0
LINE
  5
14C
330
121
100
AcDbEntity
  8
LC-003-005-----0
 62
     7
370
    25
100
AcDbLine
 10
511.992611
 20
627.958123
 30
0.0
 11
518.506251
 21
634.471763
 31
0.0
  0
LINE
  5
14D
330
121
100
AcDbEntity
  8
LC-003-005-----0
 62
     7
370
    25
100
AcDbLine
 10
511.992611
 20
630.78655
 30
0.0
 11
515.677817
 21
634.471757
 31
0.0
  0
LINE
  5
14E
330
121
100
AcDbEntity
  8
LC-003-005-----0
 62
     7
370
    25
100
AcDbLine
 10
511.992611
 20
633.614977
 30
0.0
 11
512.849384
 21
634.47175
 31
0.0
  0
ENDBLK
  5
123
330
121
100
AcDbEntity
  8
0
100
AcDbBlockEnd
  0
BLOCK
  5
16D
330
16C
100
AcDbEntity
  8
0
100
AcDbBlockBegin
  2
*X77
 70
     1
 71
     0
 10
0.0
 20
0.0
 30
0.0
  3
*X77
  1

  4
*X7
  0
LINE
  5
16F
330
16C
100
AcDbEntity
  8
LC-003-005-----0
 62
     7
370
    25
100
AcDbLine
 10
504.240986
 20
665.31363
 30
0.0
 11
504.040986
 21
665.51363
 31
0.0
  0
LINE
  5
170
330
16C
100
AcDbEntity
  8
LC-003-005-----0
 62
     7
370
    25
100
AcDbLine
 10
502.826772
 20
665.31363
 30
0.0
 11
502.626772
 21
665.51363
 31
0.0
  0
LINE
  5
171
330
16C
100
AcDbEntity
  8
LC-003-005-----0
 62
     7
370
    25
100
AcDbLine
 10
501.412559
 20
665.31363
 30
0.0
 11
501.242611
 21
665.483578
 31
0.0
  0
ENDBLK
  5
16E
330
16C
100
AcDbEntity
  8
0
100
AcDbBlockEnd
  0
BLOCK
  5
174
330
173
100
AcDbEntity
  8
0
100
AcDbBlockBegin
  2
*X88
 70
     1
 71
     0
 10
0.0
 20
0.0
 30
0.0
  3
*X88
  1

  4
*X8
  0
LINE
  5
176
330
173
100
AcDbEntity
  8
LC-003-005-----0
 62
     7
370
    25
100
AcDbLine
 10
524.039976
 20
665.31363
 30
0.0
 11
523.839976
 21
665.51363
 31
0.0
  0
LINE
  5
177
330
173
100
AcDbEntity
  8
LC-003-005-----0
 62
     7
370
    25
100
AcDbLine
 10
522.625762
 20
665.31363
 30
0.0
 11
522.425762
 21
665.51363
 31
0.0
  0
LINE
  5
178
330
173
100
AcDbEntity
  8
LC-003-005-----0
 62
     7
370
    25
100
AcDbLine
 10
521.211549
 20
665.31363
 30
0.0
 11
521.011549
 21
665.51363
 31
0.0
  0
LINE
  5
179
330
173
100
AcDbEntity
  8
LC-003-005-----0
 62
     7
370
    25
100
AcDbLine
 10
519.797335
 20
665.31363
 30
0.0
 11
519.597335
 21
665.51363
 31
0.0
  0
LINE
  5
17A
330
173
100
AcDbEntity
  8
LC-003-005-----0
 62
     7
370
    25
100
AcDbLine
 10
518.383122
 20
665.31363
 30
0.0
 11
518.183122
 21
665.51363
 31
0.0
  0
LINE
  5
17B
330
173
100
AcDbEntity
  8
LC-003-005-----0
 62
     7
370
    25
100
AcDbLine
 10
516.968908
 20
665.31363
 30
0.0
 11
516.768908
 21
665.51363
 31
0.0
  0
LINE
  5
17C
330
173
100
AcDbEntity
  8
LC-003-005-----0
 62
     7
370
    25
100
AcDbLine
 10
515.554694
 20
665.31363
 30
0.0
 11
515.354694
 21
665.51363
 31
0.0
  0
LINE
  5
17D
330
173
100
AcDbEntity
  8
LC-003-005-----0
 62
     7
370
    25
100
AcDbLine
 10
514.140481
 20
665.31363
 30
0.0
 11
513.940481
 21
665.51363
 31
0.0
  0
LINE
  5
17E
330
173
100
AcDbEntity
  8
LC-003-005-----0
 62
     7
370
    25
100
AcDbLine
 10
512.726267
 20
665.31363
 30
0.0
 11
512.526267
 21
665.51363
 31
0.0
  0
ENDBLK
  5
175
330
173
100
AcDbEntity
  8
0
100
AcDbBlockEnd
  0
BLOCK
  5
18E
330
18D
100
AcDbEntity
  8
0
100
AcDbBlockBegin
  2
*X99
 70
     1
 71
     0
 10
0.0
 20
0.0
 30
0.0
  3
*X99
  1

  4
*X9
  0
LINE
  5
190
330
18D
100
AcDbEntity
  8
LC-003-005-----0
 62
     7
370
    25
100
AcDbLine
 10
522.092274
 20
663.51363
 30
0.0
 11
523.892274
 21
665.31363
 31
0.0
  0
LINE
  5
191
330
18D
100
AcDbEntity
  8
LC-003-005-----0
 62
     7
370
    25
100
AcDbLine
 10
519.263847
 20
663.51363
 30
0.0
 11
521.063847
 21
665.31363
 31
0.0
  0
LINE
  5
192
330
18D
100
AcDbEntity
  8
LC-003-005-----0
 62
     7
370
    25
100
AcDbLine
 10
516.43542
 20
663.51363
 30
0.0
 11
518.23542
 21
665.31363
 31
0.0
  0
LINE
  5
193
330
18D
100
AcDbEntity
  8
LC-003-005-----0
 62
     7
370
    25
100
AcDbLine
 10
513.606993
 20
663.51363
 30
0.0
 11
515.406993
 21
665.31363
 31
0.0
  0
LINE
  5
194
330
18D
100
AcDbEntity
  8
LC-003-005-----0
 62
     7
370
    25
100
AcDbLine
 10
510.778565
 20
663.51363
 30
0.0
 11
511.278565
 21
664.01363
 31
0.0
  0
LINE
  5
195
330
18D
100
AcDbEntity
  8
LC-003-005-----0
 62
     7
370
    25
100
AcDbLine
 10
511.742611
 20
664.477676
 30
0.0
 11
512.578565
 21
665.31363
 31
0.0
  0
LINE
  5
196
330
18D
100
AcDbEntity
  8
LC-003-005-----0
 62
     7
370
    25
100
AcDbLine
 10
507.950138
 20
663.51363
 30
0.0
 11
508.450138
 21
664.01363
 31
0.0
  0
LINE
  5
197
330
18D
100
AcDbEntity
  8
LC-003-005-----0
 62
     7
370
    25
100
AcDbLine
 10
505.121711
 20
663.51363
 30
0.0
 11
505.621711
 21
664.01363
 31
0.0
  0
LINE
  5
198
330
18D
100
AcDbEntity
  8
LC-003-005-----0
 62
     7
370
    25
100
AcDbLine
 10
500.242611
 20
661.462957
 30
0.0
 11
504.093284
 21
665.31363
 31
0.0
  0
LINE
  5
199
330
18D
100
AcDbEntity
  8
LC-003-005-----0
 62
     7
370
    25
100
AcDbLine
 10
501.242611
 20
665.291384
 30
0.0
 11
501.264857
 21
665.31363
 31
0.0
  0
ENDBLK
  5
18F
330
18D
100
AcDbEntity
  8
0
100
AcDbBlockEnd
  0
BLOCK
  5
1A4
330
1A3
100
AcDbEntity
  8
0
100
AcDbBlockBegin
  2
*X1010
 70
     1
 71
     0
 10
0.0
 20
0.0
 30
0.0
  3
*X1010
  1

  4
*X10
  0
LINE
  5
1A6
330
1A3
100
AcDbEntity
  8
LC-003-005-----0
 62
     7
370
    25
100
AcDbLine
 10
405.246037
 20
665.31363
 30
0.0
 11
405.046037
 21
665.51363
 31
0.0
  0
LINE
  5
1A7
330
1A3
100
AcDbEntity
  8
LC-003-005-----0
 62
     7
370
    25
100
AcDbLine
 10
403.831823
 20
665.31363
 30
0.0
 11
403.631823
 21
665.51363
 31
0.0
  0
ENDBLK
  5
1A5
330
1A3
100
AcDbEntity
  8
0
100
AcDbBlockEnd
  0
BLOCK
  5
1AA
330
1A9
100
AcDbEntity
  8
0
100
AcDbBlockBegin
  2
*X1111
 70
     1
 71
     0
 10
0.0
 20
0.0
 30
0.0
  3
*X1111
  1

  4
*X11
  0
LINE
  5
1AC
330
1A9
100
AcDbEntity
  8
LC-003-005-----0
 62
     7
370
    25
100
AcDbLine
 10
395.346542
 20
665.31363
 30
0.0
 11
395.146542
 21
665.51363
 31
0.0
  0
LINE
  5
1AD
330
1A9
100
AcDbEntity
  8
LC-003-005-----0
 62
     7
370
    25
100
AcDbLine
 10
393.932328
 20
665.31363
 30
0.0
 11
393.732328
 21
665.51363
 31
0.0
  0
LINE
  5
1AE
330
1A9
100
AcDbEntity
  8
LC-003-005-----0
 62
     7
370
    25
100
AcDbLine
 10
392.518114
 20
665.31363
 30
0.0
 11
392.318114
 21
665.51363
 31
0.0
  0
LINE
  5
1AF
330
1A9
100
AcDbEntity
  8
LC-003-005-----0
 62
     7
370
    25
100
AcDbLine
 10
391.103901
 20
665.31363
 30
0.0
 11
390.903901
 21
665.51363
 31
0.0
  0
LINE
  5
1B0
330
1A9
100
AcDbEntity
  8
LC-003-005-----0
 62
     7
370
    25
100
AcDbLine
 10
389.689687
 20
665.31363
 30
0.0
 11
389.489687
 21
665.51363
 31
0.0
  0
LINE
  5
1B1
330
1A9
100
AcDbEntity
  8
LC-003-005-----0
 62
     7
370
    25
100
AcDbLine
 10
388.275474
 20
665.31363
 30
0.0
 11
388.075474
 21
665.51363
 31
0.0
  0
LINE
  5
1B2
330
1A9
100
AcDbEntity
  8
LC-003-005-----0
 62
     7
370
    25
100
AcDbLine
 10
386.86126
 20
665.31363
 30
0.0
 11
386.66126
 21
665.51363
 31
0.0
  0
LINE
  5
1B3
330
1A9
100
AcDbEntity
  8
LC-003-005-----0
 62
     7
370
    25
100
AcDbLine
 10
385.447047
 20
665.31363
 30
0.0
 11
385.247047
 21
665.51363
 31
0.0
  0
LINE
  5
1B4
330
1A9
100
AcDbEntity
  8
LC-003-005-----0
 62
     7
370
    25
100
AcDbLine
 10
384.032833
 20
665.31363
 30
0.0
 11
383.832833
 21
665.51363
 31
0.0
  0
ENDBLK
  5
1AB
330
1A9
100
AcDbEntity
  8
0
100
AcDbBlockEnd
  0
BLOCK
  5
1C3
330
1C2
100
AcDbEntity
  8
0
100
AcDbBlockBegin
  2
*X1212
 70
     1
 71
     0
 10
0.0
 20
0.0
 30
0.0
  3
*X1212
  1

  4
*X12
  0
LINE
  5
1C5
330
1C2
100
AcDbEntity
  8
LC-003-005-----0
 62
     7
370
    25
100
AcDbLine
 10
405.955864
 20
660.514306
 30
0.0
 11
407.242611
 21
661.801052
 31
0.0
  0
LINE
  5
1C6
330
1C2
100
AcDbEntity
  8
LC-003-005-----0
 62
     7
370
    25
100
AcDbLine
 10
404.992611
 20
662.379479
 30
0.0
 11
406.434686
 21
663.821555
 31
0.0
  0
LINE
  5
1C7
330
1C2
100
AcDbEntity
  8
LC-003-005-----0
 62
     7
370
    25
100
AcDbLine
 10
403.298335
 20
663.51363
 30
0.0
 11
405.098335
 21
665.31363
 31
0.0
  0
LINE
  5
1C8
330
1C2
100
AcDbEntity
  8
LC-003-005-----0
 62
     7
370
    25
100
AcDbLine
 10
400.469908
 20
663.51363
 30
0.0
 11
400.969908
 21
664.01363
 31
0.0
  0
LINE
  5
1C9
330
1C2
100
AcDbEntity
  8
LC-003-005-----0
 62
     7
370
    25
100
AcDbLine
 10
397.64148
 20
663.51363
 30
0.0
 11
398.14148
 21
664.01363
 31
0.0
  0
LINE
  5
1CA
330
1C2
100
AcDbEntity
  8
LC-003-005-----0
 62
     7
370
    25
100
AcDbLine
 10
394.813053
 20
663.51363
 30
0.0
 11
395.742611
 21
664.443188
 31
0.0
  0
LINE
  5
1CB
330
1C2
100
AcDbEntity
  8
LC-003-005-----0
 62
     7
370
    25
100
AcDbLine
 10
391.984626
 20
663.51363
 30
0.0
 11
393.784626
 21
665.31363
 31
0.0
  0
LINE
  5
1CC
330
1C2
100
AcDbEntity
  8
LC-003-005-----0
 62
     7
370
    25
100
AcDbLine
 10
389.156199
 20
663.51363
 30
0.0
 11
390.956199
 21
665.31363
 31
0.0
  0
LINE
  5
1CD
330
1C2
100
AcDbEntity
  8
LC-003-005-----0
 62
     7
370
    25
100
AcDbLine
 10
386.327772
 20
663.51363
 30
0.0
 11
388.127772
 21
665.31363
 31
0.0
  0
LINE
  5
1CE
330
1C2
100
AcDbEntity
  8
LC-003-005-----0
 62
     7
370
    25
100
AcDbLine
 10
383.499345
 20
663.51363
 30
0.0
 11
385.299345
 21
665.31363
 31
0.0
  0
ENDBLK
  5
1C4
330
1C2
100
AcDbEntity
  8
0
100
AcDbBlockEnd
  0
BLOCK
  5
1E1
330
1D7
100
AcDbEntity
  8
0
100
AcDbBlockBegin
  2
*D13
 70
     1
 71
     0
 10
0.0
 20
0.0
 30
0.0
  3
*D13
  1

  0
LINE
  5
1D8
330
1D7
100
AcDbEntity
  8
LC-005-003-----0
 62
     2
370
    -2
100
AcDbLine
 10
407.242611
 20
663.01363
 30
0.0
 11
407.242611
 21
675.6
 31
0.0
  0
LINE
  5
1D9
330
1D7
100
AcDbEntity
  8
LC-005-003-----0
 62
     2
370
    -2
100
AcDbLine
 10
500.242611
 20
663.01363
 30
0.0
 11
500.242611
 21
675.6
 31
0.0
  0
LINE
  5
1DA
330
1D7
100
AcDbEntity
  8
LC-005-003-----0
 62
     2
370
    -2
100
AcDbLine
 10
435.242611
 20
672.0
 30
0.0
 11
472.242611
 21
672.0
 31
0.0
  0
SOLID
  5
1DB
330
1D7
100
AcDbEntity
  8
LC-005-003-----0
 62
     2
100
AcDbTrace
 10
435.242611
 20
676.666667
 30
0.0
 11
435.242611
 21
667.333333
 31
0.0
 12
407.242611
 22
672.0
 32
0.0
 13
407.242611
 23
672.0
 33
0.0
  0
SOLID
  5
1DC
330
1D7
100
AcDbEntity
  8
LC-005-003-----0
 62
     2
100
AcDbTrace
 10
472.242611
 20
667.333333
 30
0.0
 11
472.242611
 21
676.666667
 31
0.0
 12
500.242611
 22
672.0
 32
0.0
 13
500.242611
 23
672.0
 33
0.0
  0
MTEXT
  5
1DD
330
1D7
100
AcDbEntity
  8
LC-005-003-----0
 62
     2
100
AcDbMText
 10
453.742611
 20
702.8
 30
0.0
 40
28.0
 41
0.0
 71
     5
 72
     1
  1
\A1;%%c91,5
  7
LCTX15-400-0-0pDIN-Schrift
 73
     1
 44
1.0
  0
POINT
  5
1DE
330
1D7
100
AcDbEntity
  8
Defpoints
 62
     0
100
AcDbPoint
 10
407.242611
 20
663.01363
 30
0.0
  0
POINT
  5
1DF
330
1D7
100
AcDbEntity
  8
Defpoints
 62
     0
100
AcDbPoint
 10
500.242611
 20
663.01363
 30
0.0
  0
POINT
  5
1E0
330
1D7
100
AcDbEntity
  8
Defpoints
 62
     0
100
AcDbPoint
 10
500.242611
 20
672.0
 30
0.0
  0
ENDBLK
  5
1E2
330
1D7
100
AcDbEntity
  8
0
100
AcDbBlockEnd
  0
BLOCK
  5
2CC
330
2CB
100
AcDbEntity
  8
0
100
AcDbBlockBegin
  2
*X1314
 70
     1
 71
     0
 10
0.0
 20
0.0
 30
0.0
  3
*X1314
  1

  4
*X13
  0
LINE
  5
2CE
330
2CB
100
AcDbEntity
  8
LC-003-005-----0
 62
     7
370
    25
100
AcDbLine
 10
358.048794
 20
634.729127
 30
0.0
 11
357.247645
 21
635.530275
 31
0.0
  0
LINE
  5
2CF
330
2CB
100
AcDbEntity
  8
LC-003-005-----0
 62
     7
370
    25
100
AcDbLine
 10
358.048794
 20
631.9007
 30
0.0
 11
354.759006
 21
635.190488
 31
0.0
  0
LINE
  5
2D0
330
2CB
100
AcDbEntity
  8
LC-003-005-----0
 62
     7
370
    25
100
AcDbLine
 10
358.048794
 20
629.072273
 30
0.0
 11
354.098794
 21
633.022273
 31
0.0
  0
LINE
  5
2D1
330
2CB
100
AcDbEntity
  8
LC-003-005-----0
 62
     7
370
    25
100
AcDbLine
 10
358.048794
 20
626.243846
 30
0.0
 11
354.098794
 21
630.193846
 31
0.0
  0
LINE
  5
2D2
330
2CB
100
AcDbEntity
  8
LC-003-005-----0
 62
     7
370
    25
100
AcDbLine
 10
358.048794
 20
623.415419
 30
0.0
 11
354.098794
 21
627.365419
 31
0.0
  0
LINE
  5
2D3
330
2CB
100
AcDbEntity
  8
LC-003-005-----0
 62
     7
370
    25
100
AcDbLine
 10
358.048794
 20
620.586992
 30
0.0
 11
354.098794
 21
624.536992
 31
0.0
  0
LINE
  5
2D4
330
2CB
100
AcDbEntity
  8
LC-003-005-----0
 62
     7
370
    25
100
AcDbLine
 10
358.048794
 20
617.758565
 30
0.0
 11
354.098794
 21
621.708565
 31
0.0
  0
LINE
  5
2D5
330
2CB
100
AcDbEntity
  8
LC-003-005-----0
 62
     7
370
    25
100
AcDbLine
 10
358.048794
 20
614.930137
 30
0.0
 11
354.098794
 21
618.880137
 31
0.0
  0
LINE
  5
2D6
330
2CB
100
AcDbEntity
  8
LC-003-005-----0
 62
     7
370
    25
100
AcDbLine
 10
358.048794
 20
612.10171
 30
0.0
 11
354.098794
 21
616.05171
 31
0.0
  0
LINE
  5
2D7
330
2CB
100
AcDbEntity
  8
LC-003-005-----0
 62
     7
370
    25
100
AcDbLine
 10
358.048794
 20
609.273283
 30
0.0
 11
354.098794
 21
613.223283
 31
0.0
  0
LINE
  5
2D8
330
2CB
100
AcDbEntity
  8
LC-003-005-----0
 62
     7
370
    25
100
AcDbLine
 10
358.048794
 20
606.444856
 30
0.0
 11
354.098794
 21
610.394856
 31
0.0
  0
LINE
  5
2D9
330
2CB
100
AcDbEntity
  8
LC-003-005-----0
 62
     7
370
    25
100
AcDbLine
 10
358.048794
 20
603.616429
 30
0.0
 11
354.098794
 21
607.566429
 31
0.0
  0
LINE
  5
2DA
330
2CB
100
AcDbEntity
  8
LC-003-005-----0
 62
     7
370
    25
100
AcDbLine
 10
358.048794
 20
600.788002
 30
0.0
 11
354.098794
 21
604.738002
 31
0.0
  0
LINE
  5
2DB
330
2CB
100
AcDbEntity
  8
LC-003-005-----0
 62
     7
370
    25
100
AcDbLine
 10
358.048794
 20
597.959575
 30
0.0
 11
354.098794
 21
601.909575
 31
0.0
  0
LINE
  5
2DC
330
2CB
100
AcDbEntity
  8
LC-003-005-----0
 62
     7
370
    25
100
AcDbLine
 10
358.048794
 20
595.131148
 30
0.0
 11
354.098794
 21
599.081148
 31
0.0
  0
LINE
  5
2DD
330
2CB
100
AcDbEntity
  8
LC-003-005-----0
 62
     7
370
    25
100
AcDbLine
 10
358.048794
 20
592.30272
 30
0.0
 11
354.098794
 21
596.25272
 31
0.0
  0
LINE
  5
2DE
330
2CB
100
AcDbEntity
  8
LC-003-005-----0
 62
     7
370
    25
100
AcDbLine
 10
358.048794
 20
589.474293
 30
0.0
 11
354.098794
 21
593.424293
 31
0.0
  0
LINE
  5
2DF
330
2CB
100
AcDbEntity
  8
LC-003-005-----0
 62
     7
370
    25
100
AcDbLine
 10
358.048794
 20
586.645866
 30
0.0
 11
354.098794
 21
590.595866
 31
0.0
  0
LINE
  5
2E0
330
2CB
100
AcDbEntity
  8
LC-003-005-----0
 62
     7
370
    25
100
AcDbLine
 10
358.048794
 20
583.817439
 30
0.0
 11
354.098794
 21
587.767439
 31
0.0
  0
LINE
  5
2E1
330
2CB
100
AcDbEntity
  8
LC-003-005-----0
 62
     7
370
    25
100
AcDbLine
 10
358.048794
 20
580.989012
 30
0.0
 11
354.098794
 21
584.939012
 31
0.0
  0
LINE
  5
2E2
330
2CB
100
AcDbEntity
  8
LC-003-005-----0
 62
     7
370
    25
100
AcDbLine
 10
358.048794
 20
578.160585
 30
0.0
 11
354.098794
 21
582.110585
 31
0.0
  0
LINE
  5
2E3
330
2CB
100
AcDbEntity
  8
LC-003-005-----0
 62
     7
370
    25
100
AcDbLine
 10
358.048794
 20
575.332158
 30
0.0
 11
354.098794
 21
579.282158
 31
0.0
  0
LINE
  5
2E4
330
2CB
100
AcDbEntity
  8
LC-003-005-----0
 62
     7
370
    25
100
AcDbLine
 10
358.048794
 20
572.503731
 30
0.0
 11
354.098794
 21
576.453731
 31
0.0
  0
LINE
  5
2E5
330
2CB
100
AcDbEntity
  8
LC-003-005-----0
 62
     7
370
    25
100
AcDbLine
 10
358.048794
 20
569.675303
 30
0.0
 11
354.098794
 21
573.625303
 31
0.0
  0
LINE
  5
2E6
330
2CB
100
AcDbEntity
  8
LC-003-005-----0
 62
     7
370
    25
100
AcDbLine
 10
358.048794
 20
566.846876
 30
0.0
 11
354.098794
 21
570.796876
 31
0.0
  0
LINE
  5
2E7
330
2CB
100
AcDbEntity
  8
LC-003-005-----0
 62
     7
370
    25
100
AcDbLine
 10
358.048794
 20
564.018449
 30
0.0
 11
354.098794
 21
567.968449
 31
0.0
  0
LINE
  5
2E8
330
2CB
100
AcDbEntity
  8
LC-003-005-----0
 62
     7
370
    25
100
AcDbLine
 10
358.048794
 20
561.190022
 30
0.0
 11
354.098794
 21
565.140022
 31
0.0
  0
LINE
  5
2E9
330
2CB
100
AcDbEntity
  8
LC-003-005-----0
 62
     7
370
    25
100
AcDbLine
 10
358.048794
 20
558.361595
 30
0.0
 11
354.098794
 21
562.311595
 31
0.0
  0
LINE
  5
2EA
330
2CB
100
AcDbEntity
  8
LC-003-005-----0
 62
     7
370
    25
100
AcDbLine
 10
358.048794
 20
555.533168
 30
0.0
 11
354.098794
 21
559.483168
 31
0.0
  0
LINE
  5
2EB
330
2CB
100
AcDbEntity
  8
LC-003-005-----0
 62
     7
370
    25
100
AcDbLine
 10
358.048794
 20
552.704741
 30
0.0
 11
354.098794
 21
556.654741
 31
0.0
  0
LINE
  5
2EC
330
2CB
100
AcDbEntity
  8
LC-003-005-----0
 62
     7
370
    25
100
AcDbLine
 10
358.048794
 20
549.876314
 30
0.0
 11
354.098794
 21
553.826314
 31
0.0
  0
LINE
  5
2ED
330
2CB
100
AcDbEntity
  8
LC-003-005-----0
 62
     7
370
    25
100
AcDbLine
 10
358.048794
 20
547.047886
 30
0.0
 11
354.098794
 21
550.997886
 31
0.0
  0
LINE
  5
2EE
330
2CB
100
AcDbEntity
  8
LC-003-005-----0
 62
     7
370
    25
100
AcDbLine
 10
358.048794
 20
544.219459
 30
0.0
 11
354.098794
 21
548.169459
 31
0.0
  0
LINE
  5
2EF
330
2CB
100
AcDbEntity
  8
LC-003-005-----0
 62
     7
370
    25
100
AcDbLine
 10
358.048794
 20
541.391032
 30
0.0
 11
354.098794
 21
545.341032
 31
0.0
  0
LINE
  5
2F0
330
2CB
100
AcDbEntity
  8
LC-003-005-----0
 62
     7
370
    25
100
AcDbLine
 10
358.048794
 20
538.562605
 30
0.0
 11
354.098794
 21
542.512605
 31
0.0
  0
LINE
  5
2F1
330
2CB
100
AcDbEntity
  8
LC-003-005-----0
 62
     7
370
    25
100
AcDbLine
 10
358.048794
 20
535.734178
 30
0.0
 11
354.098794
 21
539.684178
 31
0.0
  0
LINE
  5
2F2
330
2CB
100
AcDbEntity
  8
LC-003-005-----0
 62
     7
370
    25
100
AcDbLine
 10
358.048794
 20
532.905751
 30
0.0
 11
354.098794
 21
536.855751
 31
0.0
  0
LINE
  5
2F3
330
2CB
100
AcDbEntity
  8
LC-003-005-----0
 62
     7
370
    25
100
AcDbLine
 10
358.048794
 20
530.077324
 30
0.0
 11
354.098794
 21
534.027324
 31
0.0
  0
LINE
  5
2F4
330
2CB
100
AcDbEntity
  8
LC-003-005-----0
 62
     7
370
    25
100
AcDbLine
 10
358.048794
 20
527.248897
 30
0.0
 11
354.098794
 21
531.198897
 31
0.0
  0
LINE
  5
2F5
330
2CB
100
AcDbEntity
  8
LC-003-005-----0
 62
     7
370
    25
100
AcDbLine
 10
358.048794
 20
524.420469
 30
0.0
 11
354.098794
 21
528.370469
 31
0.0
  0
LINE
  5
2F6
330
2CB
100
AcDbEntity
  8
LC-003-005-----0
 62
     7
370
    25
100
AcDbLine
 10
358.048794
 20
521.592042
 30
0.0
 11
354.098794
 21
525.542042
 31
0.0
  0
LINE
  5
2F7
330
2CB
100
AcDbEntity
  8
LC-003-005-----0
 62
     7
370
    25
100
AcDbLine
 10
358.048794
 20
518.763615
 30
0.0
 11
354.098794
 21
522.713615
 31
0.0
  0
LINE
  5
2F8
330
2CB
100
AcDbEntity
  8
LC-003-005-----0
 62
     7
370
    25
100
AcDbLine
 10
358.00125
 20
515.982732
 30
0.0
 11
354.098794
 21
519.885188
 31
0.0
  0
LINE
  5
2F9
330
2CB
100
AcDbEntity
  8
LC-003-005-----0
 62
     7
370
    25
100
AcDbLine
 10
355.625279
 20
515.530275
 30
0.0
 11
354.098794
 21
517.056761
 31
0.0
  0
ENDBLK
  5
2CD
330
2CB
100
AcDbEntity
  8
0
100
AcDbBlockEnd
  0
BLOCK
  5
305
330
304
100
AcDbEntity
  8
0
100
AcDbBlockBegin
  2
*X1415
 70
     1
 71
     0
 10
0.0
 20
0.0
 30
0.0
  3
*X1415
  1

  4
*X14
  0
LINE
  5
307
330
304
100
AcDbEntity
  8
LC-003-005-----0
 62
     7
370
    25
100
AcDbLine
 10
374.098794
 20
632.821263
 30
0.0
 11
371.389781
 21
635.530275
 31
0.0
  0
LINE
  5
308
330
304
100
AcDbEntity
  8
LC-003-005-----0
 62
     7
370
    25
100
AcDbLine
 10
374.098794
 20
629.992836
 30
0.0
 11
370.148794
 21
633.942836
 31
0.0
  0
LINE
  5
309
330
304
100
AcDbEntity
  8
LC-003-005-----0
 62
     7
370
    25
100
AcDbLine
 10
374.098794
 20
627.164409
 30
0.0
 11
370.148794
 21
631.114409
 31
0.0
  0
LINE
  5
30A
330
304
100
AcDbEntity
  8
LC-003-005-----0
 62
     7
370
    25
100
AcDbLine
 10
374.098794
 20
624.335981
 30
0.0
 11
370.148794
 21
628.285981
 31
0.0
  0
LINE
  5
30B
330
304
100
AcDbEntity
  8
LC-003-005-----0
 62
     7
370
    25
100
AcDbLine
 10
374.098794
 20
621.507554
 30
0.0
 11
370.148794
 21
625.457554
 31
0.0
  0
LINE
  5
30C
330
304
100
AcDbEntity
  8
LC-003-005-----0
 62
     7
370
    25
100
AcDbLine
 10
374.098794
 20
618.679127
 30
0.0
 11
370.148794
 21
622.629127
 31
0.0
  0
LINE
  5
30D
330
304
100
AcDbEntity
  8
LC-003-005-----0
 62
     7
370
    25
100
AcDbLine
 10
374.098794
 20
615.8507
 30
0.0
 11
370.148794
 21
619.8007
 31
0.0
  0
LINE
  5
30E
330
304
100
AcDbEntity
  8
LC-003-005-----0
 62
     7
370
    25
100
AcDbLine
 10
374.098794
 20
613.022273
 30
0.0
 11
370.148794
 21
616.972273
 31
0.0
  0
LINE
  5
30F
330
304
100
AcDbEntity
  8
LC-003-005-----0
 62
     7
370
    25
100
AcDbLine
 10
374.098794
 20
610.193846
 30
0.0
 11
370.148794
 21
614.143846
 31
0.0
  0
LINE
  5
310
330
304
100
AcDbEntity
  8
LC-003-005-----0
 62
     7
370
    25
100
AcDbLine
 10
374.098794
 20
607.365419
 30
0.0
 11
370.148794
 21
611.315419
 31
0.0
  0
LINE
  5
311
330
304
100
AcDbEntity
  8
LC-003-005-----0
 62
     7
370
    25
100
AcDbLine
 10
374.098794
 20
604.536992
 30
0.0
 11
370.148794
 21
608.486992
 31
0.0
  0
LINE
  5
312
330
304
100
AcDbEntity
  8
LC-003-005-----0
 62
     7
370
    25
100
AcDbLine
 10
374.098794
 20
601.708565
 30
0.0
 11
370.148794
 21
605.658565
 31
0.0
  0
LINE
  5
313
330
304
100
AcDbEntity
  8
LC-003-005-----0
 62
     7
370
    25
100
AcDbLine
 10
374.098794
 20
598.880137
 30
0.0
 11
370.148794
 21
602.830137
 31
0.0
  0
LINE
  5
314
330
304
100
AcDbEntity
  8
LC-003-005-----0
 62
     7
370
    25
100
AcDbLine
 10
374.098794
 20
596.05171
 30
0.0
 11
370.148794
 21
600.00171
 31
0.0
  0
LINE
  5
315
330
304
100
AcDbEntity
  8
LC-003-005-----0
 62
     7
370
    25
100
AcDbLine
 10
374.098794
 20
593.223283
 30
0.0
 11
370.148794
 21
597.173283
 31
0.0
  0
LINE
  5
316
330
304
100
AcDbEntity
  8
LC-003-005-----0
 62
     7
370
    25
100
AcDbLine
 10
374.098794
 20
590.394856
 30
0.0
 11
370.148794
 21
594.344856
 31
0.0
  0
LINE
  5
317
330
304
100
AcDbEntity
  8
LC-003-005-----0
 62
     7
370
    25
100
AcDbLine
 10
374.098794
 20
587.566429
 30
0.0
 11
370.148794
 21
591.516429
 31
0.0
  0
LINE
  5
318
330
304
100
AcDbEntity
  8
LC-003-005-----0
 62
     7
370
    25
100
AcDbLine
 10
374.098794
 20
584.738002
 30
0.0
 11
370.148794
 21
588.688002
 31
0.0
  0
LINE
  5
319
330
304
100
AcDbEntity
  8
LC-003-005-----0
 62
     7
370
    25
100
AcDbLine
 10
374.098794
 20
581.909575
 30
0.0
 11
370.148794
 21
585.859575
 31
0.0
  0
LINE
  5
31A
330
304
100
AcDbEntity
  8
LC-003-005-----0
 62
     7
370
    25
100
AcDbLine
 10
374.098794
 20
579.081148
 30
0.0
 11
370.148794
 21
583.031148
 31
0.0
  0
LINE
  5
31B
330
304
100
AcDbEntity
  8
LC-003-005-----0
 62
     7
370
    25
100
AcDbLine
 10
374.098794
 20
576.25272
 30
0.0
 11
370.148794
 21
580.20272
 31
0.0
  0
LINE
  5
31C
330
304
100
AcDbEntity
  8
LC-003-005-----0
 62
     7
370
    25
100
AcDbLine
 10
374.098794
 20
573.424293
 30
0.0
 11
370.148794
 21
577.374293
 31
0.0
  0
LINE
  5
31D
330
304
100
AcDbEntity
  8
LC-003-005-----0
 62
     7
370
    25
100
AcDbLine
 10
374.098794
 20
570.595866
 30
0.0
 11
370.148794
 21
574.545866
 31
0.0
  0
LINE
  5
31E
330
304
100
AcDbEntity
  8
LC-003-005-----0
 62
     7
370
    25
100
AcDbLine
 10
374.098794
 20
567.767439
 30
0.0
 11
370.148794
 21
571.717439
 31
0.0
  0
LINE
  5
31F
330
304
100
AcDbEntity
  8
LC-003-005-----0
 62
     7
370
    25
100
AcDbLine
 10
374.098794
 20
564.939012
 30
0.0
 11
370.148794
 21
568.889012
 31
0.0
  0
LINE
  5
320
330
304
100
AcDbEntity
  8
LC-003-005-----0
 62
     7
370
    25
100
AcDbLine
 10
374.098794
 20
562.110585
 30
0.0
 11
370.148794
 21
566.060585
 31
0.0
  0
LINE
  5
321
330
304
100
AcDbEntity
  8
LC-003-005-----0
 62
     7
370
    25
100
AcDbLine
 10
374.098794
 20
559.282158
 30
0.0
 11
370.148794
 21
563.232158
 31
0.0
  0
LINE
  5
322
330
304
100
AcDbEntity
  8
LC-003-005-----0
 62
     7
370
    25
100
AcDbLine
 10
374.098794
 20
556.453731
 30
0.0
 11
370.148794
 21
560.403731
 31
0.0
  0
LINE
  5
323
330
304
100
AcDbEntity
  8
LC-003-005-----0
 62
     7
370
    25
100
AcDbLine
 10
374.098794
 20
553.625303
 30
0.0
 11
370.148794
 21
557.575303
 31
0.0
  0
LINE
  5
324
330
304
100
AcDbEntity
  8
LC-003-005-----0
 62
     7
370
    25
100
AcDbLine
 10
374.098794
 20
550.796876
 30
0.0
 11
370.148794
 21
554.746876
 31
0.0
  0
LINE
  5
325
330
304
100
AcDbEntity
  8
LC-003-005-----0
 62
     7
370
    25
100
AcDbLine
 10
374.098794
 20
547.968449
 30
0.0
 11
370.148794
 21
551.918449
 31
0.0
  0
LINE
  5
326
330
304
100
AcDbEntity
  8
LC-003-005-----0
 62
     7
370
    25
100
AcDbLine
 10
374.098794
 20
545.140022
 30
0.0
 11
370.148794
 21
549.090022
 31
0.0
  0
LINE
  5
327
330
304
100
AcDbEntity
  8
LC-003-005-----0
 62
     7
370
    25
100
AcDbLine
 10
374.098794
 20
542.311595
 30
0.0
 11
370.148794
 21
546.261595
 31
0.0
  0
LINE
  5
328
330
304
100
AcDbEntity
  8
LC-003-005-----0
 62
     7
370
    25
100
AcDbLine
 10
374.098794
 20
539.483168
 30
0.0
 11
370.148794
 21
543.433168
 31
0.0
  0
LINE
  5
329
330
304
100
AcDbEntity
  8
LC-003-005-----0
 62
     7
370
    25
100
AcDbLine
 10
374.098794
 20
536.654741
 30
0.0
 11
370.148794
 21
540.604741
 31
0.0
  0
LINE
  5
32A
330
304
100
AcDbEntity
  8
LC-003-005-----0
 62
     7
370
    25
100
AcDbLine
 10
374.098794
 20
533.826314
 30
0.0
 11
370.148794
 21
537.776314
 31
0.0
  0
LINE
  5
32B
330
304
100
AcDbEntity
  8
LC-003-005-----0
 62
     7
370
    25
100
AcDbLine
 10
374.098794
 20
530.997886
 30
0.0
 11
370.148794
 21
534.947886
 31
0.0
  0
LINE
  5
32C
330
304
100
AcDbEntity
  8
LC-003-005-----0
 62
     7
370
    25
100
AcDbLine
 10
374.098794
 20
528.169459
 30
0.0
 11
370.148794
 21
532.119459
 31
0.0
  0
LINE
  5
32D
330
304
100
AcDbEntity
  8
LC-003-005-----0
 62
     7
370
    25
100
AcDbLine
 10
374.098794
 20
525.341032
 30
0.0
 11
370.148794
 21
529.291032
 31
0.0
  0
LINE
  5
32E
330
304
100
AcDbEntity
  8
LC-003-005-----0
 62
     7
370
    25
100
AcDbLine
 10
374.098794
 20
522.512605
 30
0.0
 11
370.148794
 21
526.462605
 31
0.0
  0
LINE
  5
32F
330
304
100
AcDbEntity
  8
LC-003-005-----0
 62
     7
370
    25
100
AcDbLine
 10
374.098794
 20
519.684178
 30
0.0
 11
370.148794
 21
523.634178
 31
0.0
  0
LINE
  5
330
330
304
100
AcDbEntity
  8
LC-003-005-----0
 62
     7
370
    25
100
AcDbLine
 10
374.098794
 20
516.855751
 30
0.0
 11
370.148794
 21
520.805751
 31
0.0
  0
LINE
  5
331
330
304
100
AcDbEntity
  8
LC-003-005-----0
 62
     7
370
    25
100
AcDbLine
 10
372.595842
 20
515.530275
 30
0.0
 11
370.148794
 21
517.977324
 31
0.0
  0
ENDBLK
  5
306
330
304
100
AcDbEntity
  8
0
100
AcDbBlockEnd
  0
BLOCK
  5
362
330
361
100
AcDbEntity
  8
0
100
AcDbBlockBegin
  2
*X1516
 70
     1
 71
     0
 10
0.0
 20
0.0
 30
0.0
  3
*X1516
  1

  4
*X15
  0
LINE
  5
364
330
361
100
AcDbEntity
  8
LC-003-005-----0
 62
     7
370
    25
100
AcDbLine
 10
369.141492
 20
610.972011
 30
0.0
 11
370.640245
 21
612.470765
 31
0.0
  0
LINE
  5
365
330
361
100
AcDbEntity
  8
LC-003-005-----0
 62
     7
370
    25
100
AcDbLine
 10
367.098794
 20
613.171953
 30
0.0
 11
370.640245
 21
616.713405
 31
0.0
  0
LINE
  5
366
330
361
100
AcDbEntity
  8
LC-003-005-----0
 62
     7
370
    25
100
AcDbLine
 10
360.656211
 20
610.972011
 30
0.0
 11
361.098794
 21
611.414594
 31
0.0
  0
LINE
  5
367
330
361
100
AcDbEntity
  8
LC-003-005-----0
 62
     7
370
    25
100
AcDbLine
 10
367.098794
 20
617.414594
 30
0.0
 11
370.640245
 21
620.956046
 31
0.0
  0
LINE
  5
368
330
361
100
AcDbEntity
  8
LC-003-005-----0
 62
     7
370
    25
100
AcDbLine
 10
357.557342
 20
612.115783
 30
0.0
 11
361.098794
 21
615.657235
 31
0.0
  0
LINE
  5
369
330
361
100
AcDbEntity
  8
LC-003-005-----0
 62
     7
370
    25
100
AcDbLine
 10
367.098794
 20
621.657235
 30
0.0
 11
370.640245
 21
625.198687
 31
0.0
  0
LINE
  5
36A
330
361
100
AcDbEntity
  8
LC-003-005-----0
 62
     7
370
    25
100
AcDbLine
 10
357.557342
 20
616.358424
 30
0.0
 11
361.098794
 21
619.899875
 31
0.0
  0
LINE
  5
36B
330
361
100
AcDbEntity
  8
LC-003-005-----0
 62
     7
370
    25
100
AcDbLine
 10
367.098794
 20
625.899875
 30
0.0
 11
370.640245
 21
629.441327
 31
0.0
  0
LINE
  5
36C
330
361
100
AcDbEntity
  8
LC-003-005-----0
 62
     7
370
    25
100
AcDbLine
 10
357.557342
 20
620.601064
 30
0.0
 11
361.098794
 21
624.142516
 31
0.0
  0
LINE
  5
36D
330
361
100
AcDbEntity
  8
LC-003-005-----0
 62
     7
370
    25
100
AcDbLine
 10
367.098794
 20
630.142516
 30
0.0
 11
370.640245
 21
633.683968
 31
0.0
  0
LINE
  5
36E
330
361
100
AcDbEntity
  8
LC-003-005-----0
 62
     7
370
    25
100
AcDbLine
 10
375.428289
 20
638.472011
 30
0.0
 11
377.428289
 21
640.472011
 31
0.0
  0
LINE
  5
36F
330
361
100
AcDbEntity
  8
LC-003-005-----0
 62
     7
370
    25
100
AcDbLine
 10
357.557342
 20
624.843705
 30
0.0
 11
361.098794
 21
628.385157
 31
0.0
  0
LINE
  5
370
330
361
100
AcDbEntity
  8
LC-003-005-----0
 62
     7
370
    25
100
AcDbLine
 10
367.098794
 20
634.385157
 30
0.0
 11
370.640245
 21
637.926609
 31
0.0
  0
LINE
  5
371
330
361
100
AcDbEntity
  8
LC-003-005-----0
 62
     7
370
    25
100
AcDbLine
 10
371.185648
 20
638.472011
 30
0.0
 11
373.185648
 21
640.472011
 31
0.0
  0
LINE
  5
372
330
361
100
AcDbEntity
  8
LC-003-005-----0
 62
     7
370
    25
100
AcDbLine
 10
357.557342
 20
629.086346
 30
0.0
 11
361.098794
 21
632.627798
 31
0.0
  0
LINE
  5
373
330
361
100
AcDbEntity
  8
LC-003-005-----0
 62
     7
370
    25
100
AcDbLine
 10
365.943007
 20
637.472011
 30
0.0
 11
368.943007
 21
640.472011
 31
0.0
  0
LINE
  5
374
330
361
100
AcDbEntity
  8
LC-003-005-----0
 62
     7
370
    25
100
AcDbLine
 10
357.557342
 20
633.328986
 30
0.0
 11
361.098794
 21
636.870438
 31
0.0
  0
LINE
  5
375
330
361
100
AcDbEntity
  8
LC-003-005-----0
 62
     7
370
    25
100
AcDbLine
 10
361.700367
 20
637.472011
 30
0.0
 11
363.098794
 21
638.870438
 31
0.0
  0
LINE
  5
376
330
361
100
AcDbEntity
  8
LC-003-005-----0
 62
     7
370
    25
100
AcDbLine
 10
357.557342
 20
637.571627
 30
0.0
 11
360.457726
 21
640.472011
 31
0.0
  0
LINE
  5
377
330
361
100
AcDbEntity
  8
LC-003-005-----0
 62
     7
370
    25
100
AcDbLine
 10
354.215085
 20
638.472011
 30
0.0
 11
356.215085
 21
640.472011
 31
0.0
  0
LINE
  5
378
330
361
100
AcDbEntity
  8
LC-003-005-----0
 62
     7
370
    25
100
AcDbLine
 10
350.33134
 20
638.830907
 30
0.0
 11
351.972445
 21
640.472011
 31
0.0
  0
ENDBLK
  5
363
330
361
100
AcDbEntity
  8
0
100
AcDbBlockEnd
  0
BLOCK
  5
3B5
330
3AB
100
AcDbEntity
  8
0
100
AcDbBlockBegin
  2
*D17
 70
     1
 71
     0
 10
0.0
 20
0.0
 30
0.0
  3
*D17
  1

  0
LINE
  5
3AC
330
3AB
100
AcDbEntity
  8
LC-005-003-----0
 62
     2
370
    -2
100
AcDbLine
 10
398.742611
 20
507.998482
 30
0.0
 11
398.742611
 21
558.016
 31
0.0
  0
LINE
  5
3AD
330
3AB
100
AcDbEntity
  8
LC-005-003-----0
 62
     2
370
    -2
100
AcDbLine
 10
508.742611
 20
507.998482
 30
0.0
 11
508.742611
 21
558.016
 31
0.0
  0
LINE
  5
3AE
330
3AB
100
AcDbEntity
  8
LC-005-003-----0
 62
     2
370
    -2
100
AcDbLine
 10
426.742611
 20
554.416
 30
0.0
 11
480.742611
 21
554.416
 31
0.0
  0
SOLID
  5
3AF
330
3AB
100
AcDbEntity
  8
LC-005-003-----0
 62
     2
100
AcDbTrace
 10
426.742611
 20
559.082667
 30
0.0
 11
426.742611
 21
549.749333
 31
0.0
 12
398.742611
 22
554.416
 32
0.0
 13
398.742611
 23
554.416
 33
0.0
  0
SOLID
  5
3B0
330
3AB
100
AcDbEntity
  8
LC-005-003-----0
 62
     2
100
AcDbTrace
 10
480.742611
 20
549.749333
 30
0.0
 11
480.742611
 21
559.082667
 31
0.0
 12
508.742611
 22
554.416
 32
0.0
 13
508.742611
 23
554.416
 33
0.0
  0
MTEXT
  5
3B1
330
3AB
100
AcDbEntity
  8
LC-005-003-----0
 62
     2
100
AcDbMText
 10
448.4054
 20
585.216
 30
0.0
 40
28.0
 41
0.0
 71
     5
 72
     1
  1
%%c\A1;110
  7
LCTX15-400-0-0pDIN-Schrift
 73
     1
 44
1.0
  0
POINT
  5
3B2
330
3AB
100
AcDbEntity
  8
Defpoints
 62
     0
100
AcDbPoint
 10
398.742611
 20
507.998482
 30
0.0
  0
POINT
  5
3B3
330
3AB
100
AcDbEntity
  8
Defpoints
 62
     0
100
AcDbPoint
 10
508.742611
 20
507.998482
 30
0.0
  0
POINT
  5
3B4
330
3AB
100
AcDbEntity
  8
Defpoints
 62
     0
100
AcDbPoint
 10
508.742611
 20
554.416
 30
0.0
  0
ENDBLK
  5
3B6
330
3AB
100
AcDbEntity
  8
0
100
AcDbBlockEnd
  0
BLOCK
  5
3C3
330
3B8
100
AcDbEntity
  8
0
100
AcDbBlockBegin
  2
*D18
 70
     1
 71
     0
 10
0.0
 20
0.0
 30
0.0
  3
*D18
  1

  0
LINE
  5
3B9
330
3B8
100
AcDbEntity
  8
LC-005-003-----0
 62
     2
370
    -2
100
AcDbLine
 10
353.742482
 20
608.97134
 30
0.0
 11
276.4
 21
608.97134
 31
0.0
  0
LINE
  5
3BA
330
3B8
100
AcDbEntity
  8
LC-005-003-----0
 62
     2
370
    -2
100
AcDbLine
 10
328.742611
 20
641.971238
 30
0.0
 11
276.4
 21
641.971238
 31
0.0
  0
LINE
  5
3BB
330
3B8
100
AcDbEntity
  8
LC-005-003-----0
 62
     2
370
    -2
100
AcDbLine
 10
280.0
 20
669.971238
 30
0.0
 11
280.0
 21
697.971238
 31
0.0
  0
LINE
  5
3BC
330
3B8
100
AcDbEntity
  8
LC-005-003-----0
 62
     2
370
    -2
100
AcDbLine
 10
280.0
 20
580.97134
 30
0.0
 11
280.0
 21
582.232503
 31
0.0
  0
SOLID
  5
3BD
330
3B8
100
AcDbEntity
  8
LC-005-003-----0
 62
     2
100
AcDbTrace
 10
284.666667
 20
580.97134
 30
0.0
 11
275.333333
 21
580.97134
 31
0.0
 12
280.0
 22
608.97134
 32
0.0
 13
280.0
 23
608.97134
 33
0.0
  0
SOLID
  5
3BE
330
3B8
100
AcDbEntity
  8
LC-005-003-----0
 62
     2
100
AcDbTrace
 10
275.333333
 20
669.971238
 30
0.0
 11
284.666667
 21
669.971238
 31
0.0
 12
280.0
 22
641.971238
 32
0.0
 13
280.0
 23
641.971238
 33
0.0
  0
MTEXT
  5
3BF
330
3B8
100
AcDbEntity
  8
LC-005-003-----0
 62
     2
100
AcDbMText
 10
249.2
 20
605.86926
 30
0.0
 40
28.0
 41
0.0
 71
     5
 72
     1
  1
\A1;33
  7
LCTX15-400-0-0pDIN-Schrift
 11
6.123031769111886E-17
 21
1.0
 31
0.0
 73
     1
 44
1.0
  0
POINT
  5
3C0
330
3B8
100
AcDbEntity
  8
Defpoints
 62
     0
100
AcDbPoint
 10
353.742482
 20
608.97134
 30
0.0
  0
POINT
  5
3C1
330
3B8
100
AcDbEntity
  8
Defpoints
 62
     0
100
AcDbPoint
 10
328.742611
 20
641.971238
 30
0.0
  0
POINT
  5
3C2
330
3B8
100
AcDbEntity
  8
Defpoints
 62
     0
100
AcDbPoint
 10
280.0
 20
641.971238
 30
0.0
  0
ENDBLK
  5
3C4
330
3B8
100
AcDbEntity
  8
0
100
AcDbBlockEnd
  0
BLOCK
  5
3D0
330
3C6
100
AcDbEntity
  8
0
100
AcDbBlockBegin
  2
*D19
 70
     1
 71
     0
 10
0.0
 20
0.0
 30
0.0
  3
*D19
  1

  0
LINE
  5
3C7
330
3C6
100
AcDbEntity
  8
LC-005-003-----0
 62
     2
370
    -2
100
AcDbLine
 10
323.894091
 20
626.471173
 30
0.0
 11
323.894091
 21
755.224
 31
0.0
  0
LINE
  5
3C8
330
3C6
100
AcDbEntity
  8
LC-005-003-----0
 62
     2
370
    -2
100
AcDbLine
 10
583.742611
 20
626.471773
 30
0.0
 11
583.742611
 21
755.224
 31
0.0
  0
LINE
  5
3C9
330
3C6
100
AcDbEntity
  8
LC-005-003-----0
 62
     2
370
    -2
100
AcDbLine
 10
351.894091
 20
751.624
 30
0.0
 11
555.742611
 21
751.624
 31
0.0
  0
SOLID
  5
3CA
330
3C6
100
AcDbEntity
  8
LC-005-003-----0
 62
     2
100
AcDbTrace
 10
351.894091
 20
756.290667
 30
0.0
 11
351.894091
 21
746.957333
 31
0.0
 12
323.894091
 22
751.624
 32
0.0
 13
323.894091
 23
751.624
 33
0.0
  0
SOLID
  5
3CB
330
3C6
100
AcDbEntity
  8
LC-005-003-----0
 62
     2
100
AcDbTrace
 10
555.742611
 20
746.957333
 30
0.0
 11
555.742611
 21
756.290667
 31
0.0
 12
583.742611
 22
751.624
 32
0.0
 13
583.742611
 23
751.624
 33
0.0
  0
MTEXT
  5
3CC
330
3C6
100
AcDbEntity
  8
LC-005-003-----0
 62
     2
100
AcDbMText
 10
485.20891
 20
782.424
 30
0.0
 40
28.0
 41
0.0
 71
     5
 72
     1
  1
\A1;260
  7
LCTX15-400-0-0pDIN-Schrift
 73
     1
 44
1.0
  0
POINT
  5
3CD
330
3C6
100
AcDbEntity
  8
Defpoints
 62
     0
100
AcDbPoint
 10
323.894091
 20
626.471173
 30
0.0
  0
POINT
  5
3CE
330
3C6
100
AcDbEntity
  8
Defpoints
 62
     0
100
AcDbPoint
 10
583.742611
 20
626.471773
 30
0.0
  0
POINT
  5
3CF
330
3C6
100
AcDbEntity
  8
Defpoints
 62
     0
100
AcDbPoint
 10
583.742611
 20
751.624
 30
0.0
  0
ENDBLK
  5
3D1
330
3C6
100
AcDbEntity
  8
0
100
AcDbBlockEnd
  0
BLOCK
  5
3DD
330
3D3
100
AcDbEntity
  8
0
100
AcDbBlockBegin
  2
*D20
 70
     1
 71
     0
 10
0.0
 20
0.0
 30
0.0
  3
*D20
  1

  0
LINE
  5
3D4
330
3D3
100
AcDbEntity
  8
LC-005-003-----0
 62
     2
370
    -2
100
AcDbLine
 10
328.742861
 20
641.972011
 30
0.0
 11
328.74308
 21
710.674484
 31
0.0
  0
LINE
  5
3D5
330
3D3
100
AcDbEntity
  8
LC-005-003-----0
 62
     2
370
    -2
100
AcDbLine
 10
578.742611
 20
641.971238
 30
0.0
 11
578.742831
 21
710.673685
 31
0.0
  0
LINE
  5
3D6
330
3D3
100
AcDbEntity
  8
LC-005-003-----0
 62
     2
370
    -2
100
AcDbLine
 10
356.743069
 20
707.074394
 30
0.0
 11
550.742819
 21
707.073774
 31
0.0
  0
SOLID
  5
3D7
330
3D3
100
AcDbEntity
  8
LC-005-003-----0
 62
     2
100
AcDbTrace
 10
356.743084
 20
711.741061
 30
0.0
 11
356.743054
 21
702.407728
 31
0.0
 12
328.743069
 22
707.074484
 32
0.0
 13
328.743069
 23
707.074484
 33
0.0
  0
SOLID
  5
3D8
330
3D3
100
AcDbEntity
  8
LC-005-003-----0
 62
     2
100
AcDbTrace
 10
550.742804
 20
702.407108
 30
0.0
 11
550.742834
 21
711.740441
 31
0.0
 12
578.742819
 22
707.073685
 32
0.0
 13
578.742819
 23
707.073685
 33
0.0
  0
MTEXT
  5
3D9
330
3D3
100
AcDbEntity
  8
LC-005-003-----0
 62
     2
100
AcDbMText
 10
480.09741
 20
737.874
 30
0.0
 40
28.0
 41
0.0
 71
     5
 72
     1
  1
\A1;250
  7
LCTX15-400-0-0pDIN-Schrift
 11
0.9999999999948934
 21
-3.195793308447776E-6
 31
0.0
 73
     1
 44
1.0
  0
POINT
  5
3DA
330
3D3
100
AcDbEntity
  8
Defpoints
 62
     0
100
AcDbPoint
 10
328.742861
 20
641.972011
 30
0.0
  0
POINT
  5
3DB
330
3D3
100
AcDbEntity
  8
Defpoints
 62
     0
100
AcDbPoint
 10
578.742611
 20
641.971238
 30
0.0
  0
POINT
  5
3DC
330
3D3
100
AcDbEntity
  8
Defpoints
 62
     0
100
AcDbPoint
 10
578.742819
 20
707.073685
 30
0.0
  0
ENDBLK
  5
3DE
330
3D3
100
AcDbEntity
  8
0
100
AcDbBlockEnd
  0
BLOCK
  5
3F9
330
3F8
100
AcDbEntity
  8
0
100
AcDbBlockBegin
  2
*X1621
 70
     1
 71
     0
 10
0.0
 20
0.0
 30
0.0
  3
*X1621
  1

  4
*X16
  0
LINE
  5
3FB
330
3F8
100
AcDbEntity
  8
LC-003-005-----0
 62
     7
370
    25
100
AcDbLine
 10
510.428303
 20
436.889197
 30
0.0
 11
512.992611
 21
439.453506
 31
0.0
  0
LINE
  5
3FC
330
3F8
100
AcDbEntity
  8
LC-003-005-----0
 62
     7
370
    25
100
AcDbLine
 10
507.599876
 20
436.889197
 30
0.0
 11
512.599876
 21
441.889197
 31
0.0
  0
LINE
  5
3FD
330
3F8
100
AcDbEntity
  8
LC-003-005-----0
 62
     7
370
    25
100
AcDbLine
 10
505.792611
 20
437.91036
 30
0.0
 11
509.771448
 21
441.889197
 31
0.0
  0
LINE
  5
3FE
330
3F8
100
AcDbEntity
  8
LC-003-005-----0
 62
     7
370
    25
100
AcDbLine
 10
505.792611
 20
440.738787
 30
0.0
 11
506.943021
 21
441.889197
 31
0.0
  0
LINE
  5
3FF
330
3F8
100
AcDbEntity
  8
LC-003-005-----0
 62
     7
370
    25
100
AcDbLine
 10
441.403916
 20
449.889197
 30
0.0
 11
443.913449
 21
452.398731
 31
0.0
  0
LINE
  5
400
330
3F8
100
AcDbEntity
  8
LC-003-005-----0
 62
     7
370
    25
100
AcDbLine
 10
438.575489
 20
449.889197
 30
0.0
 11
442.505158
 21
453.818867
 31
0.0
  0
LINE
  5
401
330
3F8
100
AcDbEntity
  8
LC-003-005-----0
 62
     7
370
    25
100
AcDbLine
 10
435.747062
 20
449.889197
 30
0.0
 11
439.747062
 21
453.889197
 31
0.0
  0
LINE
  5
402
330
3F8
100
AcDbEntity
  8
LC-003-005-----0
 62
     7
370
    25
100
AcDbLine
 10
432.918635
 20
449.889197
 30
0.0
 11
436.918635
 21
453.889197
 31
0.0
  0
LINE
  5
403
330
3F8
100
AcDbEntity
  8
LC-003-005-----0
 62
     7
370
    25
100
AcDbLine
 10
430.090208
 20
449.889197
 30
0.0
 11
434.090208
 21
453.889197
 31
0.0
  0
LINE
  5
404
330
3F8
100
AcDbEntity
  8
LC-003-005-----0
 62
     7
370
    25
100
AcDbLine
 10
427.26178
 20
449.889197
 30
0.0
 11
431.26178
 21
453.889197
 31
0.0
  0
LINE
  5
405
330
3F8
100
AcDbEntity
  8
LC-003-005-----0
 62
     7
370
    25
100
AcDbLine
 10
424.433353
 20
449.889197
 30
0.0
 11
428.433353
 21
453.889197
 31
0.0
  0
LINE
  5
406
330
3F8
100
AcDbEntity
  8
LC-003-005-----0
 62
     7
370
    25
100
AcDbLine
 10
421.604926
 20
449.889197
 30
0.0
 11
423.604926
 21
451.889197
 31
0.0
  0
LINE
  5
407
330
3F8
100
AcDbEntity
  8
LC-003-005-----0
 62
     7
370
    25
100
AcDbLine
 10
418.776499
 20
449.889197
 30
0.0
 11
420.776499
 21
451.889197
 31
0.0
  0
LINE
  5
408
330
3F8
100
AcDbEntity
  8
LC-003-005-----0
 62
     7
370
    25
100
AcDbLine
 10
415.948072
 20
449.889197
 30
0.0
 11
417.948072
 21
451.889197
 31
0.0
  0
LINE
  5
409
330
3F8
100
AcDbEntity
  8
LC-003-005-----0
 62
     7
370
    25
100
AcDbLine
 10
413.119645
 20
449.889197
 30
0.0
 11
415.119645
 21
451.889197
 31
0.0
  0
LINE
  5
40A
330
3F8
100
AcDbEntity
  8
LC-003-005-----0
 62
     7
370
    25
100
AcDbLine
 10
400.291218
 20
439.889197
 30
0.0
 11
412.291218
 21
451.889197
 31
0.0
  0
LINE
  5
40B
330
3F8
100
AcDbEntity
  8
LC-003-005-----0
 62
     7
370
    25
100
AcDbLine
 10
394.492611
 20
436.919018
 30
0.0
 11
395.992611
 21
438.419018
 31
0.0
  0
LINE
  5
40C
330
3F8
100
AcDbEntity
  8
LC-003-005-----0
 62
     7
370
    25
100
AcDbLine
 10
397.462791
 20
439.889197
 30
0.0
 11
399.462791
 21
441.889197
 31
0.0
  0
LINE
  5
40D
330
3F8
100
AcDbEntity
  8
LC-003-005-----0
 62
     7
370
    25
100
AcDbLine
 10
394.492611
 20
439.747445
 30
0.0
 11
396.634363
 21
441.889197
 31
0.0
  0
ENDBLK
  5
3FA
330
3F8
100
AcDbEntity
  8
0
100
AcDbBlockEnd
  0
BLOCK
  5
422
330
421
100
AcDbEntity
  8
0
100
AcDbBlockBegin
  2
*X1722
 70
     1
 71
     0
 10
0.0
 20
0.0
 30
0.0
  3
*X1722
  1

  4
*X17
  0
LINE
  5
424
330
421
100
AcDbEntity
  8
LC-003-005-----0
 62
     7
370
    25
100
AcDbLine
 10
503.471482
 20
503.471482
 30
0.0
 11
505.742611
 21
505.742611
 31
0.0
  0
LINE
  5
425
330
421
100
AcDbEntity
  8
LC-003-005-----0
 62
     7
370
    25
100
AcDbLine
 10
497.814627
 20
503.471482
 30
0.0
 11
505.742611
 21
511.399465
 31
0.0
  0
LINE
  5
426
330
421
100
AcDbEntity
  8
LC-003-005-----0
 62
     7
370
    25
100
AcDbLine
 10
492.157773
 20
503.471482
 30
0.0
 11
504.157773
 21
515.471482
 31
0.0
  0
LINE
  5
427
330
421
100
AcDbEntity
  8
LC-003-005-----0
 62
     7
370
    25
100
AcDbLine
 10
486.500919
 20
503.471482
 30
0.0
 11
498.500919
 21
515.471482
 31
0.0
  0
LINE
  5
428
330
421
100
AcDbEntity
  8
LC-003-005-----0
 62
     7
370
    25
100
AcDbLine
 10
480.844065
 20
503.471482
 30
0.0
 11
492.844065
 21
515.471482
 31
0.0
  0
LINE
  5
429
330
421
100
AcDbEntity
  8
LC-003-005-----0
 62
     7
370
    25
100
AcDbLine
 10
475.18721
 20
503.471482
 30
0.0
 11
487.18721
 21
515.471482
 31
0.0
  0
LINE
  5
42A
330
421
100
AcDbEntity
  8
LC-003-005-----0
 62
     7
370
    25
100
AcDbLine
 10
469.530356
 20
503.471482
 30
0.0
 11
481.530356
 21
515.471482
 31
0.0
  0
LINE
  5
42B
330
421
100
AcDbEntity
  8
LC-003-005-----0
 62
     7
370
    25
100
AcDbLine
 10
463.873502
 20
503.471482
 30
0.0
 11
475.873502
 21
515.471482
 31
0.0
  0
LINE
  5
42C
330
421
100
AcDbEntity
  8
LC-003-005-----0
 62
     7
370
    25
100
AcDbLine
 10
458.216648
 20
503.471482
 30
0.0
 11
470.216648
 21
515.471482
 31
0.0
  0
LINE
  5
42D
330
421
100
AcDbEntity
  8
LC-003-005-----0
 62
     7
370
    25
100
AcDbLine
 10
452.559793
 20
503.471482
 30
0.0
 11
464.559793
 21
515.471482
 31
0.0
  0
LINE
  5
42E
330
421
100
AcDbEntity
  8
LC-003-005-----0
 62
     7
370
    25
100
AcDbLine
 10
446.902939
 20
503.471482
 30
0.0
 11
458.902939
 21
515.471482
 31
0.0
  0
LINE
  5
42F
330
421
100
AcDbEntity
  8
LC-003-005-----0
 62
     7
370
    25
100
AcDbLine
 10
441.246085
 20
503.471482
 30
0.0
 11
453.246085
 21
515.471482
 31
0.0
  0
LINE
  5
430
330
421
100
AcDbEntity
  8
LC-003-005-----0
 62
     7
370
    25
100
AcDbLine
 10
435.589231
 20
503.471482
 30
0.0
 11
447.589231
 21
515.471482
 31
0.0
  0
LINE
  5
431
330
421
100
AcDbEntity
  8
LC-003-005-----0
 62
     7
370
    25
100
AcDbLine
 10
429.932376
 20
503.471482
 30
0.0
 11
441.932376
 21
515.471482
 31
0.0
  0
LINE
  5
432
330
421
100
AcDbEntity
  8
LC-003-005-----0
 62
     7
370
    25
100
AcDbLine
 10
424.275522
 20
503.471482
 30
0.0
 11
436.275522
 21
515.471482
 31
0.0
  0
LINE
  5
433
330
421
100
AcDbEntity
  8
LC-003-005-----0
 62
     7
370
    25
100
AcDbLine
 10
418.618668
 20
503.471482
 30
0.0
 11
430.618668
 21
515.471482
 31
0.0
  0
LINE
  5
434
330
421
100
AcDbEntity
  8
LC-003-005-----0
 62
     7
370
    25
100
AcDbLine
 10
412.961814
 20
503.471482
 30
0.0
 11
424.961814
 21
515.471482
 31
0.0
  0
LINE
  5
435
330
421
100
AcDbEntity
  8
LC-003-005-----0
 62
     7
370
    25
100
AcDbLine
 10
407.304959
 20
503.471482
 30
0.0
 11
419.304959
 21
515.471482
 31
0.0
  0
LINE
  5
436
330
421
100
AcDbEntity
  8
LC-003-005-----0
 62
     7
370
    25
100
AcDbLine
 10
401.742611
 20
503.565988
 30
0.0
 11
413.648105
 21
515.471482
 31
0.0
  0
LINE
  5
437
330
421
100
AcDbEntity
  8
LC-003-005-----0
 62
     7
370
    25
100
AcDbLine
 10
401.742611
 20
509.222842
 30
0.0
 11
407.991251
 21
515.471482
 31
0.0
  0
LINE
  5
438
330
421
100
AcDbEntity
  8
LC-003-005-----0
 62
     7
370
    25
100
AcDbLine
 10
401.742611
 20
514.879696
 30
0.0
 11
402.334397
 21
515.471482
 31
0.0
  0
LINE
  5
439
330
421
100
AcDbEntity
  8
LC-003-005-----0
 62
     7
370
    25
100
AcDbLine
 10
505.742611
 20
512.491154
 30
0.0
 11
502.762283
 21
515.471482
 31
0.0
  0
LINE
  5
43A
330
421
100
AcDbEntity
  8
LC-003-005-----0
 62
     7
370
    25
100
AcDbLine
 10
505.742611
 20
506.8343
 30
0.0
 11
497.105429
 21
515.471482
 31
0.0
  0
LINE
  5
43B
330
421
100
AcDbEntity
  8
LC-003-005-----0
 62
     7
370
    25
100
AcDbLine
 10
503.448575
 20
503.471482
 30
0.0
 11
491.448575
 21
515.471482
 31
0.0
  0
LINE
  5
43C
330
421
100
AcDbEntity
  8
LC-003-005-----0
 62
     7
370
    25
100
AcDbLine
 10
497.791721
 20
503.471482
 30
0.0
 11
485.791721
 21
515.471482
 31
0.0
  0
LINE
  5
43D
330
421
100
AcDbEntity
  8
LC-003-005-----0
 62
     7
370
    25
100
AcDbLine
 10
492.134866
 20
503.471482
 30
0.0
 11
480.134866
 21
515.471482
 31
0.0
  0
LINE
  5
43E
330
421
100
AcDbEntity
  8
LC-003-005-----0
 62
     7
370
    25
100
AcDbLine
 10
486.478012
 20
503.471482
 30
0.0
 11
474.478012
 21
515.471482
 31
0.0
  0
LINE
  5
43F
330
421
100
AcDbEntity
  8
LC-003-005-----0
 62
     7
370
    25
100
AcDbLine
 10
480.821158
 20
503.471482
 30
0.0
 11
468.821158
 21
515.471482
 31
0.0
  0
LINE
  5
440
330
421
100
AcDbEntity
  8
LC-003-005-----0
 62
     7
370
    25
100
AcDbLine
 10
475.164304
 20
503.471482
 30
0.0
 11
463.164304
 21
515.471482
 31
0.0
  0
LINE
  5
441
330
421
100
AcDbEntity
  8
LC-003-005-----0
 62
     7
370
    25
100
AcDbLine
 10
469.507449
 20
503.471482
 30
0.0
 11
457.507449
 21
515.471482
 31
0.0
  0
LINE
  5
442
330
421
100
AcDbEntity
  8
LC-003-005-----0
 62
     7
370
    25
100
AcDbLine
 10
463.850595
 20
503.471482
 30
0.0
 11
451.850595
 21
515.471482
 31
0.0
  0
LINE
  5
443
330
421
100
AcDbEntity
  8
LC-003-005-----0
 62
     7
370
    25
100
AcDbLine
 10
458.193741
 20
503.471482
 30
0.0
 11
446.193741
 21
515.471482
 31
0.0
  0
LINE
  5
444
330
421
100
AcDbEntity
  8
LC-003-005-----0
 62
     7
370
    25
100
AcDbLine
 10
452.536887
 20
503.471482
 30
0.0
 11
440.536887
 21
515.471482
 31
0.0
  0
LINE
  5
445
330
421
100
AcDbEntity
  8
LC-003-005-----0
 62
     7
370
    25
100
AcDbLine
 10
446.880032
 20
503.471482
 30
0.0
 11
434.880032
 21
515.471482
 31
0.0
  0
LINE
  5
446
330
421
100
AcDbEntity
  8
LC-003-005-----0
 62
     7
370
    25
100
AcDbLine
 10
441.223178
 20
503.471482
 30
0.0
 11
429.223178
 21
515.471482
 31
0.0
  0
LINE
  5
447
330
421
100
AcDbEntity
  8
LC-003-005-----0
 62
     7
370
    25
100
AcDbLine
 10
435.566324
 20
503.471482
 30
0.0
 11
423.566324
 21
515.471482
 31
0.0
  0
LINE
  5
448
330
421
100
AcDbEntity
  8
LC-003-005-----0
 62
     7
370
    25
100
AcDbLine
 10
429.90947
 20
503.471482
 30
0.0
 11
417.90947
 21
515.471482
 31
0.0
  0
LINE
  5
449
330
421
100
AcDbEntity
  8
LC-003-005-----0
 62
     7
370
    25
100
AcDbLine
 10
424.252615
 20
503.471482
 30
0.0
 11
412.252615
 21
515.471482
 31
0.0
  0
LINE
  5
44A
330
421
100
AcDbEntity
  8
LC-003-005-----0
 62
     7
370
    25
100
AcDbLine
 10
418.595761
 20
503.471482
 30
0.0
 11
406.595761
 21
515.471482
 31
0.0
  0
LINE
  5
44B
330
421
100
AcDbEntity
  8
LC-003-005-----0
 62
     7
370
    25
100
AcDbLine
 10
412.938907
 20
503.471482
 30
0.0
 11
401.742611
 21
514.667777
 31
0.0
  0
LINE
  5
44C
330
421
100
AcDbEntity
  8
LC-003-005-----0
 62
     7
370
    25
100
AcDbLine
 10
407.282053
 20
503.471482
 30
0.0
 11
401.742611
 21
509.010923
 31
0.0
  0
ENDBLK
  5
423
330
421
100
AcDbEntity
  8
0
100
AcDbBlockEnd
  0
BLOCK
  5
45A
330
44F
100
AcDbEntity
  8
0
100
AcDbBlockBegin
  2
*D23
 70
     1
 71
     0
 10
0.0
 20
0.0
 30
0.0
  3
*D23
  1

  0
LINE
  5
450
330
44F
100
AcDbEntity
  8
LC-005-003-----0
 62
     2
370
    -2
100
AcDbLine
 10
505.742611
 20
515.471482
 30
0.0
 11
640.11223
 21
515.471482
 31
0.0
  0
LINE
  5
451
330
44F
100
AcDbEntity
  8
LC-005-003-----0
 62
     2
370
    -2
100
AcDbLine
 10
505.742611
 20
503.471482
 30
0.0
 11
640.11223
 21
503.471482
 31
0.0
  0
LINE
  5
452
330
44F
100
AcDbEntity
  8
LC-005-003-----0
 62
     2
370
    -2
100
AcDbLine
 10
636.51223
 20
475.471482
 30
0.0
 11
636.51223
 21
447.471482
 31
0.0
  0
LINE
  5
453
330
44F
100
AcDbEntity
  8
LC-005-003-----0
 62
     2
370
    -2
100
AcDbLine
 10
636.51223
 20
543.471482
 30
0.0
 11
636.51223
 21
571.410091
 31
0.0
  0
SOLID
  5
454
330
44F
100
AcDbEntity
  8
LC-005-003-----0
 62
     2
100
AcDbTrace
 10
631.845564
 20
543.471482
 30
0.0
 11
641.178897
 21
543.471482
 31
0.0
 12
636.51223
 22
515.471482
 32
0.0
 13
636.51223
 23
515.471482
 33
0.0
  0
SOLID
  5
455
330
44F
100
AcDbEntity
  8
LC-005-003-----0
 62
     2
100
AcDbTrace
 10
641.178897
 20
475.471482
 30
0.0
 11
631.845564
 21
475.471482
 31
0.0
 12
636.51223
 22
503.471482
 32
0.0
 13
636.51223
 23
503.471482
 33
0.0
  0
MTEXT
  5
456
330
44F
100
AcDbEntity
  8
LC-005-003-----0
 62
     2
100
AcDbMText
 10
605.71223
 20
552.04
 30
0.0
 40
28.0
 41
0.0
 71
     5
 72
     1
  1
\A1;12
  7
LCTX15-400-0-0pDIN-Schrift
 11
6.123031769111886E-17
 21
1.0
 31
0.0
 73
     1
 44
1.0
  0
POINT
  5
457
330
44F
100
AcDbEntity
  8
Defpoints
 62
     0
100
AcDbPoint
 10
505.742611
 20
515.471482
 30
0.0
  0
POINT
  5
458
330
44F
100
AcDbEntity
  8
Defpoints
 62
     0
100
AcDbPoint
 10
505.742611
 20
503.471482
 30
0.0
  0
POINT
  5
459
330
44F
100
AcDbEntity
  8
Defpoints
 62
     0
100
AcDbPoint
 10
636.51223
 20
503.471482
 30
0.0
  0
ENDBLK
  5
45B
330
44F
100
AcDbEntity
  8
0
100
AcDbBlockEnd
  0
BLOCK
  5
467
330
45D
100
AcDbEntity
  8
0
100
AcDbBlockBegin
  2
*D24
 70
     1
 71
     0
 10
0.0
 20
0.0
 30
0.0
  3
*D24
  1

  0
LINE
  5
45E
330
45D
100
AcDbEntity
  8
LC-005-003-----0
 62
     2
370
    -2
100
AcDbLine
 10
505.742611
 20
515.471482
 30
0.0
 11
735.187965
 21
515.471482
 31
0.0
  0
LINE
  5
45F
330
45D
100
AcDbEntity
  8
LC-005-003-----0
 62
     2
370
    -2
100
AcDbLine
 10
578.742611
 20
641.971238
 30
0.0
 11
735.187965
 21
641.971238
 31
0.0
  0
LINE
  5
460
330
45D
100
AcDbEntity
  8
LC-005-003-----0
 62
     2
370
    -2
100
AcDbLine
 10
731.587965
 20
543.471482
 30
0.0
 11
731.587965
 21
613.971238
 31
0.0
  0
SOLID
  5
461
330
45D
100
AcDbEntity
  8
LC-005-003-----0
 62
     2
100
AcDbTrace
 10
726.921299
 20
543.471482
 30
0.0
 11
736.254632
 21
543.471482
 31
0.0
 12
731.587965
 22
515.471482
 32
0.0
 13
731.587965
 23
515.471482
 33
0.0
  0
SOLID
  5
462
330
45D
100
AcDbEntity
  8
LC-005-003-----0
 62
     2
100
AcDbTrace
 10
736.254632
 20
613.971238
 30
0.0
 11
726.921299
 21
613.971238
 31
0.0
 12
731.587965
 22
641.971238
 32
0.0
 13
731.587965
 23
641.971238
 33
0.0
  0
MTEXT
  5
463
330
45D
100
AcDbEntity
  8
LC-005-003-----0
 62
     2
100
AcDbMText
 10
700.787965
 20
572.236
 30
0.0
 40
28.0
 41
0.0
 71
     5
 72
     1
  1
\A1;41-126,5
  7
LCTX15-400-0-0pDIN-Schrift
 11
6.123031769111886E-17
 21
1.0
 31
0.0
 73
     1
 44
1.0
  0
POINT
  5
464
330
45D
100
AcDbEntity
  8
Defpoints
 62
     0
100
AcDbPoint
 10
505.742611
 20
515.471482
 30
0.0
  0
POINT
  5
465
330
45D
100
AcDbEntity
  8
Defpoints
 62
     0
100
AcDbPoint
 10
578.742611
 20
641.971238
 30
0.0
  0
POINT
  5
466
330
45D
100
AcDbEntity
  8
Defpoints
 62
     0
100
AcDbPoint
 10
731.587965
 20
641.971238
 30
0.0
  0
ENDBLK
  5
468
330
45D
100
AcDbEntity
  8
0
100
AcDbBlockEnd
  0
BLOCK
  5
51A
330
519
100
AcDbEntity
  8
0
100
AcDbBlockBegin
  2
*X1825
 70
     1
 71
     0
 10
0.0
 20
0.0
 30
0.0
  3
*X1825
  1

  4
*X18
  0
LINE
  5
51C
330
519
100
AcDbEntity
  8
LC-003-005-----0
  6
DASHED
 62
     7
370
    25
100
AcDbLine
 10
400.028887
 20
473.955094
 30
0.0
 11
395.729659
 21
478.254323
 31
0.0
  0
LINE
  5
51D
330
519
100
AcDbEntity
  8
LC-003-005-----0
  6
DASHED
 62
     7
370
    25
100
AcDbLine
 10
397.742611
 20
474.12005
 30
0.0
 11
394.098771
 21
477.76389
 31
0.0
  0
LINE
  5
51E
330
519
100
AcDbEntity
  8
LC-003-005-----0
 62
     7
370
    25
100
AcDbLine
 10
397.742611
 20
469.877409
 30
0.0
 11
392.742611
 21
474.877409
 31
0.0
  0
LINE
  5
51F
330
519
100
AcDbEntity
  8
LC-003-005-----0
 62
     7
370
    25
100
AcDbLine
 10
397.742611
 20
467.756089
 30
0.0
 11
396.742281
 21
468.756419
 31
0.0
  0
LINE
  5
520
330
519
100
AcDbEntity
  8
LC-003-005-----0
 62
     7
370
    25
100
AcDbLine
 10
395.74435
 20
469.754351
 30
0.0
 11
392.742611
 21
472.756089
 31
0.0
  0
LINE
  5
521
330
519
100
AcDbEntity
  8
LC-003-005-----0
  6
DASHED
 62
     7
370
    25
100
AcDbLine
 10
398.734382
 20
462.521677
 30
0.0
 11
395.242499
 21
466.013561
 31
0.0
  0
LINE
  5
522
330
519
100
AcDbEntity
  8
LC-003-005-----0
  6
DASHED
 62
     7
370
    25
100
AcDbLine
 10
398.092275
 20
461.042464
 30
0.0
 11
393.742499
 21
465.39224
 31
0.0
  0
LINE
  5
523
330
519
100
AcDbEntity
  8
LC-003-005-----0
 62
     7
370
    25
100
AcDbLine
 10
396.672376
 20
458.219723
 30
0.0
 11
393.207437
 21
461.684661
 31
0.0
  0
LINE
  5
524
330
519
100
AcDbEntity
  8
LC-003-005-----0
 62
     7
370
    25
100
AcDbLine
 10
394.551055
 20
458.219723
 30
0.0
 11
392.742499
 21
460.028279
 31
0.0
  0
ENDBLK
  5
51B
330
519
100
AcDbEntity
  8
0
100
AcDbBlockEnd
  0
BLOCK
  5
527
330
526
100
AcDbEntity
  8
0
100
AcDbBlockBegin
  2
*X1926
 70
     1
 71
     0
 10
0.0
 20
0.0
 30
0.0
  3
*X1926
  1

  4
*X19
  0
LINE
  5
529
330
526
100
AcDbEntity
  8
LC-003-005-----0
 62
     7
370
    25
100
AcDbLine
 10
514.645632
 20
476.010969
 30
0.0
 11
512.499229
 21
478.157371
 31
0.0
  0
LINE
  5
52A
330
526
100
AcDbEntity
  8
LC-003-005-----0
  6
DASHED
 62
     7
370
    25
100
AcDbLine
 10
514.742611
 20
471.671349
 30
0.0
 11
508.774408
 21
477.639552
 31
0.0
  0
LINE
  5
52B
330
526
100
AcDbEntity
  8
LC-003-005-----0
  6
DASHED
 62
     7
370
    25
100
AcDbLine
 10
514.538289
 20
469.754351
 30
0.0
 11
509.712388
 21
474.580251
 31
0.0
  0
LINE
  5
52C
330
526
100
AcDbEntity
  8
LC-003-005-----0
  6
DASHED
 62
     7
370
    25
100
AcDbLine
 10
509.413811
 20
474.878828
 30
0.0
 11
507.997951
 21
476.294688
 31
0.0
  0
LINE
  5
52D
330
526
100
AcDbEntity
  8
LC-003-005-----0
 62
     7
370
    25
100
AcDbLine
 10
513.742723
 20
466.307275
 30
0.0
 11
513.262746
 21
466.787253
 31
0.0
  0
LINE
  5
52E
330
526
100
AcDbEntity
  8
LC-003-005-----0
 62
     7
370
    25
100
AcDbLine
 10
510.84424
 20
469.205759
 30
0.0
 11
509.742611
 21
470.307388
 31
0.0
  0
LINE
  5
52F
330
526
100
AcDbEntity
  8
LC-003-005-----0
 62
     7
370
    25
100
AcDbLine
 10
506.593223
 20
473.456776
 30
0.0
 11
506.445037
 21
473.604962
 31
0.0
  0
LINE
  5
530
330
526
100
AcDbEntity
  8
LC-003-005-----0
 62
     7
370
    25
100
AcDbLine
 10
513.742723
 20
464.185955
 30
0.0
 11
509.742611
 21
468.186067
 31
0.0
  0
LINE
  5
531
330
526
100
AcDbEntity
  8
LC-003-005-----0
  6
DASHED
 62
     7
370
    25
100
AcDbLine
 10
514.604519
 20
459.081519
 30
0.0
 11
509.339971
 21
464.346066
 31
0.0
  0
LINE
  5
532
330
526
100
AcDbEntity
  8
LC-003-005-----0
  6
DASHED
 62
     7
370
    25
100
AcDbLine
 10
513.344995
 20
458.219723
 30
0.0
 11
508.744452
 21
462.820266
 31
0.0
  0
ENDBLK
  5
528
330
526
100
AcDbEntity
  8
0
100
AcDbBlockEnd
  0
ENDSEC
  0
SECTION
  2
ENTITIES
  0
LINE
  5
31
330
1F
100
AcDbEntity
  8
LC-001-002-----0
 62
     7
370
    50
100
AcDbLine
 10
519.59955
 20
608.971356
 30
0.0
 11
553.743281
 21
608.97134
 31
0.0
  0
LINE
  5
32
330
1F
100
AcDbEntity
  8
LC-001-002-----0
 62
     7
370
    50
100
AcDbLine
 10
395.543281
 20
608.971351
 30
0.0
 11
398.742611
 21
608.971351
 31
0.0
  0
LINE
  5
33
330
1F
100
AcDbEntity
  8
LC-001-002-----0
 62
     7
370
    50
100
AcDbLine
 10
328.742861
 20
641.972011
 30
0.0
 11
578.74262
 21
641.971209
 31
0.0
  0
LINE
  5
34
330
1F
100
AcDbEntity
  8
LC-001-002-----0
 62
     7
370
    50
100
AcDbLine
 10
328.742611
 20
610.971205
 30
0.0
 11
353.743281
 21
610.971214
 31
0.0
  0
LINE
  5
35
330
1F
100
AcDbEntity
  8
LC-001-002-----0
 62
     7
370
    50
100
AcDbLine
 10
511.943281
 20
608.971351
 30
0.0
 11
512.599556
 21
608.971351
 31
0.0
  0
LINE
  5
36
330
1F
100
AcDbEntity
  8
LC-001-002-----0
 62
     7
370
    50
100
AcDbLine
 10
353.743281
 20
608.971351
 30
0.0
 11
354.098794
 21
608.971351
 31
0.0
  0
LINE
  5
37
330
1F
100
AcDbEntity
  8
LC-001-002-----0
 62
     7
370
    50
100
AcDbLine
 10
395.543281
 20
608.971351
 30
0.0
 11
394.888717
 21
608.971351
 31
0.0
  0
LINE
  5
38
330
1F
100
AcDbEntity
  8
LC-001-002-----0
 62
     7
370
    50
100
AcDbLine
 10
227.367745
 20
623.471173
 30
0.0
 11
227.367745
 21
626.471173
 31
0.0
  0
LINE
  5
39
330
1F
100
AcDbEntity
  8
LC-001-002-----0
 62
     7
370
    50
100
AcDbLine
 10
330.1678
 20
623.471173
 30
0.0
 11
227.367745
 21
623.471173
 31
0.0
  0
LINE
  5
3A
330
1F
100
AcDbEntity
  8
LC-001-002-----0
 62
     7
370
    50
100
AcDbLine
 10
330.1678
 20
626.471173
 30
0.0
 11
227.367745
 21
626.471173
 31
0.0
  0
CIRCLE
  5
3B
330
1F
100
AcDbEntity
  8
LC-001-002-----0
 62
     7
370
    50
100
AcDbCircle
 10
228.881182
 20
627.984611
 30
0.0
 40
1.513437842374628
  0
CIRCLE
  5
3C
330
1F
100
AcDbEntity
  8
LC-001-002-----0
 62
     7
370
    50
100
AcDbCircle
 10
278.867744
 20
627.971173
 30
0.0
 40
1.499999999999886
  0
LINE
  5
3D
330
1F
100
AcDbEntity
  8
LC-001-002-----0
 62
     7
370
    50
100
AcDbLine
 10
330.1678
 20
626.471173
 30
0.0
 11
330.1678
 21
623.471173
 31
0.0
  0
LINE
  5
3E
330
1F
100
AcDbEntity
  8
LC-001-002-----0
 62
     7
370
    50
100
AcDbLine
 10
680.118817
 20
623.471758
 30
0.0
 11
680.118817
 21
626.471758
 31
0.0
  0
LINE
  5
3F
330
1F
100
AcDbEntity
  8
LC-001-002-----0
 62
     7
370
    50
100
AcDbLine
 10
577.318761
 20
623.471758
 30
0.0
 11
680.118817
 21
623.471758
 31
0.0
  0
LINE
  5
40
330
1F
100
AcDbEntity
  8
LC-001-002-----0
 62
     7
370
    50
100
AcDbLine
 10
577.318761
 20
626.471758
 30
0.0
 11
680.118817
 21
626.471758
 31
0.0
  0
CIRCLE
  5
41
330
1F
100
AcDbEntity
  8
LC-001-002-----0
 62
     7
370
    50
100
AcDbCircle
 10
678.605379
 20
627.985195
 30
0.0
 40
1.513437842374515
  0
CIRCLE
  5
42
330
1F
100
AcDbEntity
  8
LC-001-002-----0
 62
     7
370
    50
100
AcDbCircle
 10
628.618817
 20
627.971758
 30
0.0
 40
1.499999999999773
  0
LINE
  5
43
330
1F
100
AcDbEntity
  8
LC-001-002-----0
 62
     7
370
    50
100
AcDbLine
 10
577.318761
 20
626.471758
 30
0.0
 11
577.318761
 21
623.471758
 31
0.0
  0
LINE
  5
46
330
1F
100
AcDbEntity
  8
LC-002-006-MLN-0
 62
     7
370
    25
100
AcDbLine
 10
453.742611
 20
651.97161
 30
0.0
 11
453.742611
 21
594.312
 31
0.0
  0
LINE
  5
47
330
1F
100
AcDbEntity
  8
LC-001-002-----0
 62
     7
370
    50
100
AcDbLine
 10
398.742611
 20
611.971482
 30
0.0
 11
395.492611
 21
611.971482
 31
0.0
  0
LINE
  5
48
330
1F
100
AcDbEntity
  8
LC-001-002-----0
 62
     7
370
    50
100
AcDbLine
 10
399.955617
 20
503.471482
 30
0.0
 11
453.742611
 21
503.471482
 31
0.0
  0
LINE
  5
49
330
1F
100
AcDbEntity
  8
LC-001-002-----0
 62
     7
370
    50
100
AcDbLine
 10
508.742611
 20
611.971482
 30
0.0
 11
511.992611
 21
611.971482
 31
0.0
  0
LINE
  5
4A
330
1F
100
AcDbEntity
  8
LC-001-002-----0
 62
     7
370
    50
100
AcDbLine
 10
507.529605
 20
503.471482
 30
0.0
 11
453.742611
 21
503.471482
 31
0.0
  0
LINE
  5
4B
330
1F
100
AcDbEntity
  8
LC-001-002-----0
 62
     7
370
    50
100
AcDbLine
 10
398.492611
 20
614.971482
 30
0.0
 11
401.742611
 21
614.971482
 31
0.0
  0
LINE
  5
4C
330
1F
100
AcDbEntity
  8
LC-001-002-----0
 62
     7
370
    50
100
AcDbLine
 10
508.992611
 20
614.971482
 30
0.0
 11
505.742611
 21
614.971482
 31
0.0
  0
LINE
  5
4D
330
1F
100
AcDbEntity
  8
LC-001-002-----0
 62
     7
370
    50
100
AcDbLine
 10
398.492611
 20
634.47161
 30
0.0
 11
398.492611
 21
614.971482
 31
0.0
  0
LINE
  5
4E
330
1F
100
AcDbEntity
  8
LC-001-002-----0
 62
     7
370
    50
100
AcDbLine
 10
508.992611
 20
634.47161
 30
0.0
 11
508.992611
 21
614.971482
 31
0.0
  0
LINE
  5
4F
330
1F
100
AcDbEntity
  8
LC-001-002-----0
 62
     7
370
    50
100
AcDbLine
 10
401.742611
 20
503.471482
 30
0.0
 11
401.742611
 21
548.816
 31
0.0
  0
LINE
  5
50
330
1F
100
AcDbEntity
  8
LC-001-002-----0
 62
     7
370
    50
100
AcDbLine
 10
401.742611
 20
599.216
 30
0.0
 11
401.742611
 21
614.971482
 31
0.0
  0
LINE
  5
51
330
1F
100
AcDbEntity
  8
LC-001-002-----0
 62
     7
370
    50
100
AcDbLine
 10
384.492611
 20
622.971554
 30
0.0
 11
379.410941
 21
622.971588
 31
0.0
  0
LINE
  5
52
330
1F
100
AcDbEntity
  8
LC-001-002-----0
 62
     7
370
    50
100
AcDbLine
 10
398.742611
 20
611.971482
 30
0.0
 11
398.742611
 21
507.998482
 31
0.0
  0
LINE
  5
53
330
1F
100
AcDbEntity
  8
LC-001-002-----0
 62
     7
370
    50
100
AcDbLine
 10
395.492611
 20
617.84217
 30
0.0
 11
395.492611
 21
611.971482
 31
0.0
  0
LINE
  5
54
330
1F
100
AcDbEntity
  8
LC-001-002-----0
 62
     7
370
    50
100
AcDbLine
 10
453.742611
 20
614.971482
 30
0.0
 11
401.742611
 21
614.971482
 31
0.0
  0
LINE
  5
55
330
1F
100
AcDbEntity
  8
LC-001-002-----0
 62
     7
370
    50
100
AcDbLine
 10
505.742611
 20
503.471482
 30
0.0
 11
505.742611
 21
548.816
 31
0.0
  0
LINE
  5
56
330
1F
100
AcDbEntity
  8
LC-001-002-----0
 62
     7
370
    50
100
AcDbLine
 10
505.742611
 20
599.216
 30
0.0
 11
505.742611
 21
614.971482
 31
0.0
  0
LINE
  5
57
330
1F
100
AcDbEntity
  8
LC-001-002-----0
 62
     7
370
    50
100
AcDbLine
 10
398.742611
 20
507.998482
 30
0.0
 11
399.955617
 21
503.471482
 31
0.0
  0
LINE
  5
58
330
1F
100
AcDbEntity
  8
LC-001-002-----0
 62
     7
370
    50
100
AcDbLine
 10
522.992611
 20
622.971554
 30
0.0
 11
531.792611
 21
622.971612
 31
0.0
  0
LINE
  5
59
330
1F
100
AcDbEntity
  8
LC-001-002-----0
 62
     7
370
    50
100
AcDbLine
 10
508.742611
 20
611.971482
 30
0.0
 11
508.742611
 21
599.216
 31
0.0
  0
LINE
  5
5A
330
1F
100
AcDbEntity
  8
LC-001-002-----0
 62
     7
370
    50
100
AcDbLine
 10
508.742611
 20
548.816
 30
0.0
 11
508.742611
 21
507.998482
 31
0.0
  0
LINE
  5
5B
330
1F
100
AcDbEntity
  8
LC-001-002-----0
 62
     7
370
    50
100
AcDbLine
 10
511.992611
 20
617.84217
 30
0.0
 11
511.992611
 21
611.971482
 31
0.0
  0
LINE
  5
5C
330
1F
100
AcDbEntity
  8
LC-001-002-----0
 62
     7
370
    50
100
AcDbLine
 10
453.742611
 20
614.971482
 30
0.0
 11
505.742611
 21
614.971482
 31
0.0
  0
LINE
  5
5D
330
1F
100
AcDbEntity
  8
LC-001-002-----0
 62
     7
370
    50
100
AcDbLine
 10
508.742611
 20
507.998482
 30
0.0
 11
507.529605
 21
503.471482
 31
0.0
  0
LINE
  5
5E
330
1F
100
AcDbEntity
  8
LC-001-002-----0
 62
     7
370
    50
100
AcDbLine
 10
531.792611
 20
622.971612
 30
0.0
 11
531.792611
 21
625.971612
 31
0.0
  0
LINE
  5
5F
330
1F
100
AcDbEntity
  8
LC-001-002-----0
 62
     7
370
    50
100
AcDbLine
 10
353.743281
 20
608.971351
 30
0.0
 11
353.743281
 21
610.971214
 31
0.0
  0
LINE
  5
60
330
1F
100
AcDbEntity
  8
LC-001-002-----0
 62
     7
370
    50
100
AcDbLine
 10
578.742611
 20
610.971204
 30
0.0
 11
553.743281
 21
610.971213
 31
0.0
  0
LINE
  5
61
330
1F
100
AcDbEntity
  8
LC-001-002-----0
 62
     7
370
    50
100
AcDbLine
 10
553.743281
 20
608.97135
 30
0.0
 11
553.743281
 21
610.971213
 31
0.0
  0
LINE
  5
62
330
1F
100
AcDbEntity
  8
LC-001-002-----0
 62
     7
370
    50
100
AcDbLine
 10
536.243411
 20
634.471805
 30
0.0
 11
377.488316
 21
634.47143
 31
0.0
  0
LINE
  5
63
330
1F
100
AcDbEntity
  8
LC-001-002-----0
 62
     7
370
    50
100
AcDbLine
 10
538.743255
 20
641.971337
 30
0.0
 11
536.243281
 21
634.471414
 31
0.0
  0
LINE
  5
64
330
1F
100
AcDbEntity
  8
LC-001-002-----0
 62
     7
370
    50
100
AcDbLine
 10
395.492611
 20
625.971482
 30
0.0
 11
395.492611
 21
634.47161
 31
0.0
  0
LINE
  5
65
330
1F
100
AcDbEntity
  8
LC-001-002-----0
 62
     7
370
    50
100
AcDbLine
 10
395.492611
 20
634.47161
 30
0.0
 11
453.742611
 21
634.47161
 31
0.0
  0
LINE
  5
66
330
1F
100
AcDbEntity
  8
LC-001-002-----0
 62
     7
370
    50
100
AcDbLine
 10
395.492611
 20
625.971482
 30
0.0
 11
380.119343
 21
625.971583
 31
0.0
  0
LINE
  5
67
330
1F
100
AcDbEntity
  8
LC-001-002-----0
 62
     7
370
    50
100
AcDbLine
 10
511.992611
 20
625.971482
 30
0.0
 11
511.992611
 21
634.47161
 31
0.0
  0
LINE
  5
68
330
1F
100
AcDbEntity
  8
LC-001-002-----0
 62
     7
370
    50
100
AcDbLine
 10
511.992611
 20
634.47161
 30
0.0
 11
453.742611
 21
634.47161
 31
0.0
  0
LINE
  5
69
330
1F
100
AcDbEntity
  8
LC-001-002-----0
 62
     7
370
    50
100
AcDbLine
 10
511.992611
 20
625.971482
 30
0.0
 11
531.792611
 21
625.971612
 31
0.0
  0
LINE
  5
6A
330
1F
100
AcDbEntity
  8
LC-001-002-----0
 62
     7
370
    50
100
AcDbLine
 10
384.492611
 20
622.971554
 30
0.0
 11
395.492611
 21
617.84217
 31
0.0
  0
LINE
  5
6B
330
1F
100
AcDbEntity
  8
LC-001-002-----0
 62
     7
370
    50
100
AcDbLine
 10
522.992611
 20
622.971554
 30
0.0
 11
511.992611
 21
617.84217
 31
0.0
  0
INSERT
  5
CC
330
1F
100
AcDbEntity
  8
LC-003-005-----0
 62
     7
370
    25
100
AcDbBlockReference
  2
*X11
 10
0.0
 20
0.0
 30
0.0
  0
LINE
  5
CD
330
1F
100
AcDbEntity
  8
LC-001-002-----0
 62
     7
370
    50
100
AcDbLine
 10
578.742611
 20
641.971238
 30
0.0
 11
583.742611
 21
626.471773
 31
0.0
  0
LINE
  5
CE
330
1F
100
AcDbEntity
  8
LC-001-002-----0
 62
     7
370
    50
100
AcDbLine
 10
583.742611
 20
626.471773
 30
0.0
 11
578.742611
 21
610.971204
 31
0.0
  0
LINE
  5
CF
330
1F
100
AcDbEntity
  8
LC-001-002-----0
 62
     7
370
    50
100
AcDbLine
 10
328.742611
 20
641.971238
 30
0.0
 11
323.742611
 21
626.471773
 31
0.0
  0
LINE
  5
D0
330
1F
100
AcDbEntity
  8
LC-001-002-----0
 62
     7
370
    50
100
AcDbLine
 10
323.742611
 20
626.471773
 30
0.0
 11
328.742611
 21
610.971204
 31
0.0
  0
LINE
  5
D1
330
1F
100
AcDbEntity
  8
LC-001-002-----0
 62
     7
370
    50
100
AcDbLine
 10
348.098794
 20
641.972011
 30
0.0
 11
349.098794
 21
638.472011
 31
0.0
  0
LINE
  5
D2
330
1F
100
AcDbEntity
  8
LC-001-002-----0
 62
     7
370
    50
100
AcDbLine
 10
349.098794
 20
638.472011
 30
0.0
 11
379.098794
 21
638.472011
 31
0.0
  0
LINE
  5
D3
330
1F
100
AcDbEntity
  8
LC-001-002-----0
 62
     7
370
    50
100
AcDbLine
 10
380.098794
 20
641.972011
 30
0.0
 11
379.098794
 21
638.472011
 31
0.0
  0
INSERT
  5
E2
330
1F
100
AcDbEntity
  8
LC-003-005-----0
 62
     7
370
    25
100
AcDbBlockReference
  2
*X22
 10
0.0
 20
0.0
 30
0.0
  0
INSERT
  5
F2
330
1F
100
AcDbEntity
  8
LC-003-005-----0
 62
     7
370
    25
100
AcDbBlockReference
  2
*X33
 10
0.0
 20
0.0
 30
0.0
  0
LINE
  5
F3
330
1F
100
AcDbEntity
  8
LC-001-002-----0
 62
     7
370
    50
100
AcDbLine
 10
378.988316
 20
610.972012
 30
0.0
 11
378.988316
 21
612.972012
 31
0.0
  0
LINE
  5
F4
330
1F
100
AcDbEntity
  8
LC-001-002-----0
 62
     7
370
    50
100
AcDbLine
 10
378.988316
 20
612.972012
 30
0.0
 11
377.488316
 21
612.972012
 31
0.0
  0
LINE
  5
F5
330
1F
100
AcDbEntity
  8
LC-001-002-----0
 62
     7
370
    50
100
AcDbLine
 10
350.488316
 20
612.972011
 30
0.0
 11
348.988316
 21
612.972011
 31
0.0
  0
LINE
  5
F6
330
1F
100
AcDbEntity
  8
LC-001-002-----0
 62
     7
370
    50
100
AcDbLine
 10
348.988316
 20
612.972011
 30
0.0
 11
348.988316
 21
610.972011
 31
0.0
  0
LINE
  5
F7
330
1F
100
AcDbEntity
  8
LC-001-002-----0
 62
     7
370
    50
100
AcDbLine
 10
350.488316
 20
612.972011
 30
0.0
 11
350.488316
 21
638.472011
 31
0.0
  0
LINE
  5
F8
330
1F
100
AcDbEntity
  8
LC-001-002-----0
 62
     7
370
    50
100
AcDbLine
 10
377.488316
 20
612.972012
 30
0.0
 11
377.488316
 21
638.472012
 31
0.0
  0
LINE
  5
F9
330
1F
100
AcDbEntity
  8
LC-001-002-----0
 62
     7
370
    25
100
AcDbLine
 10
353.988658
 20
610.972011
 30
0.0
 11
353.988658
 21
638.472011
 31
0.0
  0
LINE
  5
FA
330
1F
100
AcDbEntity
  8
LC-001-002-----0
 62
     7
370
    50
100
AcDbLine
 10
355.576658
 20
610.972011
 30
0.0
 11
355.576658
 21
637.472011
 31
0.0
  0
LINE
  5
FB
330
1F
100
AcDbEntity
  8
LC-001-002-----0
 62
     7
370
    50
100
AcDbLine
 10
372.400658
 20
637.472012
 30
0.0
 11
372.400658
 21
610.972012
 31
0.0
  0
LINE
  5
FC
330
1F
100
AcDbEntity
  8
LC-001-002-----0
 62
     7
370
    25
100
AcDbLine
 10
373.988658
 20
610.972012
 30
0.0
 11
373.988658
 21
638.472012
 31
0.0
  0
LINE
  5
FD
330
1F
100
AcDbEntity
  8
LC-001-002-----0
 62
     7
370
    50
100
AcDbLine
 10
377.488316
 20
638.472012
 30
0.0
 11
350.488316
 21
638.472011
 31
0.0
  0
LINE
  5
FE
330
1F
100
AcDbEntity
  8
LC-001-002-----0
 62
     7
370
    50
100
AcDbLine
 10
348.988316
 20
610.972011
 30
0.0
 11
378.988316
 21
610.972012
 31
0.0
  0
LINE
  5
FF
330
1F
100
AcDbEntity
  8
LC-001-002-----0
 62
     7
370
    50
100
AcDbLine
 10
373.400658
 20
638.472012
 30
0.0
 11
372.400658
 21
637.472012
 31
0.0
  0
LINE
  5
100
330
1F
100
AcDbEntity
  8
LC-001-002-----0
 62
     7
370
    50
100
AcDbLine
 10
355.576658
 20
637.472011
 30
0.0
 11
354.576658
 21
638.472011
 31
0.0
  0
LINE
  5
101
330
1F
100
AcDbEntity
  8
LC-001-002-----0
 62
     7
370
    50
100
AcDbLine
 10
372.400658
 20
637.472012
 30
0.0
 11
355.576658
 21
637.472011
 31
0.0
  0
LINE
  5
102
102
{ACAD_REACTORS
330
55B
102
}
330
1F
100
AcDbEntity
  8
LC-001-002-----0
 62
     7
370
    25
100
AcDbLine
 10
382.126451
 20
634.471441
 30
0.0
 11
378.801893
 21
620.392342
 31
0.0
  0
LINE
  5
103
102
{ACAD_REACTORS
330
55B
102
}
330
1F
100
AcDbEntity
  8
LC-001-002-----0
 62
     7
370
    25
100
AcDbLine
 10
378.801893
 20
620.392342
 30
0.0
 11
386.823497
 21
608.971351
 31
0.0
  0
INSERT
  5
10F
330
1F
100
AcDbEntity
  8
LC-003-005-----0
 62
     7
370
    25
100
AcDbBlockReference
  2
*X44
 10
0.0
 20
0.0
 30
0.0
  0
INSERT
  5
11F
330
1F
100
AcDbEntity
  8
LC-003-005-----0
 62
     7
370
    25
100
AcDbBlockReference
  2
*X55
 10
0.0
 20
0.0
 30
0.0
  0
CIRCLE
  5
120
330
1F
100
AcDbEntity
  8
LC-001-002-----0
 62
     7
370
    50
100
AcDbCircle
 10
328.666461
 20
627.971758
 30
0.0
 40
1.5
  0
INSERT
  5
14F
330
1F
100
AcDbEntity
  8
LC-003-005-----0
 62
     7
370
    25
100
AcDbBlockReference
  2
*X66
 10
0.0
 20
0.0
 30
0.0
  0
CIRCLE
  5
150
330
1F
100
AcDbEntity
  8
LC-001-002-----0
 62
     7
370
    50
100
AcDbCircle
 10
578.818761
 20
627.971758
 30
0.0
 40
1.5
  0
LINE
  5
151
330
1F
100
AcDbEntity
  8
LC-001-002-----0
 62
     7
370
    50
100
AcDbLine
 10
508.742611
 20
608.971351
 30
0.0
 11
553.743281
 21
608.971351
 31
0.0
  0
LINE
  5
152
330
1F
100
AcDbEntity
  8
LC-001-002-----0
 62
     7
370
    50
100
AcDbLine
 10
508.742611
 20
608.971351
 30
0.0
 11
511.943281
 21
608.971351
 31
0.0
  0
LINE
  5
154
330
1F
100
AcDbEntity
  8
LC-001-002-----0
  6
DASHDOT
 62
     7
370
    25
100
AcDbLine
 10
453.742611
 20
665.51363
 30
0.0
 11
453.742611
 21
660.66363
 31
0.0
  0
LINE
  5
155
330
1F
100
AcDbEntity
  8
LC-001-002-----0
  6
DASHDOT
 62
     7
370
    25
100
AcDbLine
 10
453.742611
 20
652.15961
 30
0.0
 11
453.742611
 21
649.65961
 31
0.0
  0
LINE
  5
156
330
1F
100
AcDbEntity
  8
LC-001-002-----0
 62
     7
370
    50
100
AcDbLine
 10
380.812149
 20
652.15961
 30
0.0
 11
526.673074
 21
652.15961
 31
0.0
  0
LINE
  5
157
330
1F
100
AcDbEntity
  8
LC-001-002-----0
 62
     7
370
    50
100
AcDbLine
 10
380.812149
 20
649.65961
 30
0.0
 11
526.673074
 21
649.65961
 31
0.0
  0
LINE
  5
158
330
1F
100
AcDbEntity
  8
LC-001-002-----0
 62
     7
370
    50
100
AcDbLine
 10
516.173074
 20
649.65961
 30
0.0
 11
516.173074
 21
652.15961
 31
0.0
  0
LINE
  5
159
330
1F
100
AcDbEntity
  8
LC-001-002-----0
 62
     7
370
    50
100
AcDbLine
 10
526.673074
 20
649.65961
 30
0.0
 11
526.673074
 21
652.15961
 31
0.0
  0
LINE
  5
15A
330
1F
100
AcDbEntity
  8
LC-001-002-----0
 62
     7
370
    50
100
AcDbLine
 10
391.312149
 20
650.65961
 30
0.0
 11
203.742611
 21
650.65961
 31
0.0
  0
LINE
  5
15B
330
1F
100
AcDbEntity
  8
LC-001-002-----0
 62
     7
370
    50
100
AcDbLine
 10
391.312149
 20
651.15961
 30
0.0
 11
203.742611
 21
651.15961
 31
0.0
  0
LINE
  5
15C
330
1F
100
AcDbEntity
  8
LC-001-002-----0
 62
     7
370
    50
100
AcDbLine
 10
203.742611
 20
650.65961
 30
0.0
 11
203.742611
 21
651.15961
 31
0.0
  0
LINE
  5
15D
330
1F
100
AcDbEntity
  8
LC-001-002-----0
 62
     7
370
    50
100
AcDbLine
 10
553.742611
 20
650.65961
 30
0.0
 11
553.742611
 21
651.15961
 31
0.0
  0
LINE
  5
15E
330
1F
100
AcDbEntity
  8
LC-001-002-----0
 62
     7
370
    50
100
AcDbLine
 10
516.173074
 20
650.65961
 30
0.0
 11
703.742611
 21
650.65961
 31
0.0
  0
LINE
  5
15F
330
1F
100
AcDbEntity
  8
LC-001-002-----0
 62
     7
370
    50
100
AcDbLine
 10
516.173074
 20
651.15961
 30
0.0
 11
703.742611
 21
651.15961
 31
0.0
  0
LINE
  5
160
330
1F
100
AcDbEntity
  8
LC-001-002-----0
 62
     7
370
    50
100
AcDbLine
 10
553.742611
 20
650.65961
 30
0.0
 11
553.742611
 21
651.15961
 31
0.0
  0
LINE
  5
161
330
1F
100
AcDbEntity
  8
LC-001-002-----0
 62
     7
370
    50
100
AcDbLine
 10
703.742611
 20
650.65961
 30
0.0
 11
703.742611
 21
651.15961
 31
0.0
  0
LINE
  5
162
330
1F
100
AcDbEntity
  8
LC-001-002-----0
 62
     7
370
    50
100
AcDbLine
 10
391.312149
 20
649.65961
 30
0.0
 11
391.312149
 21
652.15961
 31
0.0
  0
LINE
  5
163
330
1F
100
AcDbEntity
  8
LC-001-002-----0
 62
     7
370
    50
100
AcDbLine
 10
380.812149
 20
649.65961
 30
0.0
 11
380.812149
 21
652.15961
 31
0.0
  0
LINE
  5
164
102
{ACAD_REACTORS
330
55C
102
}
330
1F
100
AcDbEntity
  8
LC-001-002-----0
 62
     7
370
    50
100
AcDbLine
 10
524.742611
 20
665.31363
 30
0.0
 11
524.742611
 21
663.51363
 31
0.0
  0
LINE
  5
165
102
{ACAD_REACTORS
330
55C
102
}
330
1F
100
AcDbEntity
  8
LC-001-002-----0
 62
     7
370
    50
100
AcDbLine
 10
524.742611
 20
665.31363
 30
0.0
 11
453.742611
 21
665.31363
 31
0.0
  0
LINE
  5
166
102
{ACAD_REACTORS
330
55C
102
}
330
1F
100
AcDbEntity
  8
LC-001-002-----0
 62
     7
370
    50
100
AcDbLine
 10
524.742611
 20
663.51363
 30
0.0
 11
502.492611
 21
663.51363
 31
0.0
  0
LINE
  5
167
102
{ACAD_REACTORS
330
55C
102
}
330
1F
100
AcDbEntity
  8
LC-001-002-----0
 62
     7
370
    50
100
AcDbLine
 10
501.242611
 20
665.31363
 30
0.0
 11
501.242611
 21
664.01363
 31
0.0
  0
LINE
  5
168
102
{ACAD_REACTORS
330
55C
102
}
330
1F
100
AcDbEntity
  8
LC-001-002-----0
 62
     7
370
    50
100
AcDbLine
 10
524.742611
 20
665.51363
 30
0.0
 11
453.742611
 21
665.51363
 31
0.0
  0
LINE
  5
169
102
{ACAD_REACTORS
330
55C
102
}
330
1F
100
AcDbEntity
  8
LC-001-002-----0
 62
     7
370
    50
100
AcDbLine
 10
511.742611
 20
665.31363
 30
0.0
 11
511.742611
 21
664.01363
 31
0.0
  0
LINE
  5
16A
102
{ACAD_REACTORS
330
55C
102
}
330
1F
100
AcDbEntity
  8
LC-001-002-----0
 62
     7
370
    50
100
AcDbLine
 10
504.242611
 20
665.31363
 30
0.0
 11
504.242611
 21
664.01363
 31
0.0
  0
LINE
  5
16B
102
{ACAD_REACTORS
330
55C
102
}
330
1F
100
AcDbEntity
  8
LC-001-002-----0
 62
     7
370
    50
100
AcDbLine
 10
511.742611
 20
664.01363
 30
0.0
 11
504.242611
 21
664.01363
 31
0.0
  0
INSERT
  5
172
102
{ACAD_REACTORS
330
55C
102
}
330
1F
100
AcDbEntity
  8
LC-003-005-----0
 62
     7
370
    25
100
AcDbBlockReference
  2
*X77
 10
0.0
 20
0.0
 30
0.0
  0
INSERT
  5
17F
102
{ACAD_REACTORS
330
55C
102
}
330
1F
100
AcDbEntity
  8
LC-003-005-----0
 62
     7
370
    25
100
AcDbBlockReference
  2
*X88
 10
0.0
 20
0.0
 30
0.0
  0
LINE
  5
180
102
{ACAD_REACTORS
330
55C
102
}
330
1F
100
AcDbEntity
  8
LC-001-002-----0
 62
     7
370
    50
100
AcDbLine
 10
524.742611
 20
665.51363
 30
0.0
 11
524.742611
 21
665.31363
 31
0.0
  0
LINE
  5
181
102
{ACAD_REACTORS
330
55C
102
}
330
1F
100
AcDbEntity
  8
LC-001-002-----0
 62
     7
370
    50
100
AcDbLine
 10
511.742611
 20
665.51363
 30
0.0
 11
511.742611
 21
665.31363
 31
0.0
  0
LINE
  5
182
102
{ACAD_REACTORS
330
55C
102
}
330
1F
100
AcDbEntity
  8
LC-001-002-----0
 62
     7
370
    50
100
AcDbLine
 10
504.242611
 20
665.51363
 30
0.0
 11
504.242611
 21
665.31363
 31
0.0
  0
LINE
  5
183
102
{ACAD_REACTORS
330
55C
102
}
330
1F
100
AcDbEntity
  8
LC-001-002-----0
 62
     7
370
    50
100
AcDbLine
 10
501.242611
 20
665.51363
 30
0.0
 11
501.242611
 21
665.31363
 31
0.0
  0
LINE
  5
184
102
{ACAD_REACTORS
330
55C
102
}
330
1F
100
AcDbEntity
  8
LC-001-002-----0
 62
     7
370
    50
100
AcDbLine
 10
524.742611
 20
665.31363
 30
0.0
 11
453.742611
 21
665.31363
 31
0.0
  0
LINE
  5
185
102
{ACAD_REACTORS
330
55C
102
}
330
1F
100
AcDbEntity
  8
LC-001-002-----0
 62
     7
370
    50
100
AcDbLine
 10
501.492611
 20
660.51363
 30
0.0
 11
453.742611
 21
660.51363
 31
0.0
  0
LINE
  5
186
102
{ACAD_REACTORS
330
55C
102
}
330
1F
100
AcDbEntity
  8
LC-001-002-----0
 62
     7
370
    50
100
AcDbLine
 10
502.492611
 20
663.51363
 30
0.0
 11
502.492611
 21
661.51363
 31
0.0
  0
LINE
  5
187
102
{ACAD_REACTORS
330
55C
102
}
330
1F
100
AcDbEntity
  8
LC-001-002-----0
 62
     7
370
    50
100
AcDbLine
 10
500.242611
 20
663.01363
 30
0.0
 11
500.242611
 21
660.51363
 31
0.0
  0
LINE
  5
188
102
{ACAD_REACTORS
330
55C
102
}
330
1F
100
AcDbEntity
  8
LC-001-002-----0
 62
     7
370
    50
100
AcDbLine
 10
501.242611
 20
664.01363
 30
0.0
 11
500.242611
 21
663.01363
 31
0.0
  0
ARC
  5
18A
102
{ACAD_REACTORS
330
55C
102
}
330
1F
100
AcDbEntity
  8
LC-004-002-RND-0
 62
     7
370
    50
100
AcDbCircle
 10
501.492611
 20
661.51363
 30
0.0
 40
1.0
100
AcDbArc
 50
270.0
 51
0.0
  0
LINE
  5
18B
102
{ACAD_REACTORS
330
55C
102
}
330
1F
100
AcDbEntity
  8
LC-001-002-----0
 62
     7
370
    50
100
AcDbLine
 10
500.242611
 20
663.01363
 30
0.0
 11
453.742611
 21
663.01363
 31
0.0
  0
LINE
  5
18C
102
{ACAD_REACTORS
330
55C
102
}
330
1F
100
AcDbEntity
  8
LC-001-002-----0
 62
     7
370
    50
100
AcDbLine
 10
453.742611
 20
664.01363
 30
0.0
 11
501.242611
 21
664.01363
 31
0.0
  0
INSERT
  5
19A
102
{ACAD_REACTORS
330
55C
102
}
330
1F
100
AcDbEntity
  8
LC-003-005-----0
 62
     7
370
    25
100
AcDbBlockReference
  2
*X99
 10
0.0
 20
0.0
 30
0.0
  0
LINE
  5
19B
102
{ACAD_REACTORS
330
55C
102
}
330
1F
100
AcDbEntity
  8
LC-001-002-----0
 62
     7
370
    50
100
AcDbLine
 10
382.742611
 20
665.31363
 30
0.0
 11
382.742611
 21
663.51363
 31
0.0
  0
LINE
  5
19C
102
{ACAD_REACTORS
330
55C
102
}
330
1F
100
AcDbEntity
  8
LC-001-002-----0
 62
     7
370
    50
100
AcDbLine
 10
382.742611
 20
665.31363
 30
0.0
 11
453.742611
 21
665.31363
 31
0.0
  0
LINE
  5
19D
102
{ACAD_REACTORS
330
55C
102
}
330
1F
100
AcDbEntity
  8
LC-001-002-----0
 62
     7
370
    50
100
AcDbLine
 10
382.742611
 20
663.51363
 30
0.0
 11
404.992611
 21
663.51363
 31
0.0
  0
LINE
  5
19E
102
{ACAD_REACTORS
330
55C
102
}
330
1F
100
AcDbEntity
  8
LC-001-002-----0
 62
     7
370
    50
100
AcDbLine
 10
406.242611
 20
665.31363
 30
0.0
 11
406.242611
 21
664.01363
 31
0.0
  0
LINE
  5
19F
102
{ACAD_REACTORS
330
55C
102
}
330
1F
100
AcDbEntity
  8
LC-001-002-----0
 62
     7
370
    50
100
AcDbLine
 10
382.742611
 20
665.51363
 30
0.0
 11
453.742611
 21
665.51363
 31
0.0
  0
LINE
  5
1A0
102
{ACAD_REACTORS
330
55C
102
}
330
1F
100
AcDbEntity
  8
LC-001-002-----0
 62
     7
370
    50
100
AcDbLine
 10
395.742611
 20
665.31363
 30
0.0
 11
395.742611
 21
664.01363
 31
0.0
  0
LINE
  5
1A1
102
{ACAD_REACTORS
330
55C
102
}
330
1F
100
AcDbEntity
  8
LC-001-002-----0
 62
     7
370
    50
100
AcDbLine
 10
403.242611
 20
665.31363
 30
0.0
 11
403.242611
 21
664.01363
 31
0.0
  0
LINE
  5
1A2
102
{ACAD_REACTORS
330
55C
102
}
330
1F
100
AcDbEntity
  8
LC-001-002-----0
 62
     7
370
    50
100
AcDbLine
 10
395.742611
 20
664.01363
 30
0.0
 11
403.242611
 21
664.01363
 31
0.0
  0
INSERT
  5
1A8
102
{ACAD_REACTORS
330
55C
102
}
330
1F
100
AcDbEntity
  8
LC-003-005-----0
 62
     7
370
    25
100
AcDbBlockReference
  2
*X1010
 10
0.0
 20
0.0
 30
0.0
  0
INSERT
  5
1B5
102
{ACAD_REACTORS
330
55C
102
}
330
1F
100
AcDbEntity
  8
LC-003-005-----0
 62
     7
370
    25
100
AcDbBlockReference
  2
*X1111
 10
0.0
 20
0.0
 30
0.0
  0
LINE
  5
1B6
102
{ACAD_REACTORS
330
55C
102
}
330
1F
100
AcDbEntity
  8
LC-001-002-----0
 62
     7
370
    50
100
AcDbLine
 10
382.742611
 20
665.51363
 30
0.0
 11
382.742611
 21
665.31363
 31
0.0
  0
LINE
  5
1B7
102
{ACAD_REACTORS
330
55C
102
}
330
1F
100
AcDbEntity
  8
LC-001-002-----0
 62
     7
370
    50
100
AcDbLine
 10
395.742611
 20
665.51363
 30
0.0
 11
395.742611
 21
665.31363
 31
0.0
  0
LINE
  5
1B8
102
{ACAD_REACTORS
330
55C
102
}
330
1F
100
AcDbEntity
  8
LC-001-002-----0
 62
     7
370
    50
100
AcDbLine
 10
403.242611
 20
665.51363
 30
0.0
 11
403.242611
 21
665.31363
 31
0.0
  0
LINE
  5
1B9
102
{ACAD_REACTORS
330
55C
102
}
330
1F
100
AcDbEntity
  8
LC-001-002-----0
 62
     7
370
    50
100
AcDbLine
 10
406.242611
 20
665.51363
 30
0.0
 11
406.242611
 21
665.31363
 31
0.0
  0
LINE
  5
1BA
102
{ACAD_REACTORS
330
55C
102
}
330
1F
100
AcDbEntity
  8
LC-001-002-----0
 62
     7
370
    50
100
AcDbLine
 10
382.742611
 20
665.31363
 30
0.0
 11
453.742611
 21
665.31363
 31
0.0
  0
LINE
  5
1BB
102
{ACAD_REACTORS
330
55C
102
}
330
1F
100
AcDbEntity
  8
LC-001-002-----0
 62
     7
370
    50
100
AcDbLine
 10
405.992611
 20
660.51363
 30
0.0
 11
453.742611
 21
660.51363
 31
0.0
  0
LINE
  5
1BC
102
{ACAD_REACTORS
330
55C
102
}
330
1F
100
AcDbEntity
  8
LC-001-002-----0
 62
     7
370
    50
100
AcDbLine
 10
404.992611
 20
663.51363
 30
0.0
 11
404.992611
 21
661.51363
 31
0.0
  0
LINE
  5
1BD
102
{ACAD_REACTORS
330
55C
102
}
330
1F
100
AcDbEntity
  8
LC-001-002-----0
 62
     7
370
    50
100
AcDbLine
 10
407.242611
 20
663.01363
 30
0.0
 11
407.242611
 21
660.51363
 31
0.0
  0
LINE
  5
1BE
102
{ACAD_REACTORS
330
55C
102
}
330
1F
100
AcDbEntity
  8
LC-001-002-----0
 62
     7
370
    50
100
AcDbLine
 10
406.242611
 20
664.01363
 30
0.0
 11
407.242611
 21
663.01363
 31
0.0
  0
ARC
  5
1BF
102
{ACAD_REACTORS
330
55C
102
}
330
1F
100
AcDbEntity
  8
LC-004-002-RND-0
 62
     7
370
    50
100
AcDbCircle
 10
405.992611
 20
661.51363
 30
0.0
 40
1.0
100
AcDbArc
 50
180.0
 51
270.0
  0
LINE
  5
1C0
102
{ACAD_REACTORS
330
55C
102
}
330
1F
100
AcDbEntity
  8
LC-001-002-----0
 62
     7
370
    50
100
AcDbLine
 10
407.242611
 20
663.01363
 30
0.0
 11
453.742611
 21
663.01363
 31
0.0
  0
LINE
  5
1C1
102
{ACAD_REACTORS
330
55C
102
}
330
1F
100
AcDbEntity
  8
LC-001-002-----0
 62
     7
370
    50
100
AcDbLine
 10
453.742611
 20
664.01363
 30
0.0
 11
406.242611
 21
664.01363
 31
0.0
  0
INSERT
  5
1CF
102
{ACAD_REACTORS
330
55C
102
}
330
1F
100
AcDbEntity
  8
LC-003-005-----0
 62
     7
370
    25
100
AcDbBlockReference
  2
*X1212
 10
0.0
 20
0.0
 30
0.0
  0
ARC
  5
1D0
102
{ACAD_REACTORS
330
55C
102
}
330
1F
100
AcDbEntity
  8
LC-001-002-----0
 62
     7
370
    50
100
AcDbCircle
 10
500.242611
 20
660.51363
 30
0.0
 40
1.5
100
AcDbArc
 50
90.0
 51
180.0
  0
ARC
  5
1D1
102
{ACAD_REACTORS
330
55C
102
}
330
1F
100
AcDbEntity
  8
LC-001-002-----0
 62
     7
370
    50
100
AcDbCircle
 10
407.242611
 20
660.51363
 30
0.0
 40
1.5
100
AcDbArc
 50
0.0
 51
90.0
  0
DIMENSION
  5
1D5
330
1F
100
AcDbEntity
  8
LC-005-003-----0
 62
     7
370
    25
100
AcDbDimension
  2
*D13
 10
500.242611
 20
672.0
 30
0.0
 11
453.742611
 21
702.8
 31
0.0
 70
   160
  1
%%c91,5
 71
     5
 42
93.0
  3
LC-DIM-L-0140-02-02
100
AcDbAlignedDimension
 13
407.242611
 23
663.01363
 33
0.0
 14
500.242611
 24
663.01363
 34
0.0
100
AcDbRotatedDimension
  0
LINE
  5
1E3
330
1F
100
AcDbEntity
  8
LC-001-002-----0
 62
     7
370
    50
100
AcDbLine
 10
703.742611
 20
415.259411
 30
0.0
 11
203.742611
 21
415.259411
 31
0.0
  0
LINE
  5
1E4
330
1F
100
AcDbEntity
  8
LC-001-002-----0
 62
     7
370
    50
100
AcDbLine
 10
203.742611
 20
165.259411
 30
0.0
 11
203.742611
 21
289.471084
 31
0.0
  0
LINE
  5
1E5
330
1F
100
AcDbEntity
  8
LC-001-002-----0
 62
     7
370
    50
100
AcDbLine
 10
703.742611
 20
165.259411
 30
0.0
 11
703.742611
 21
415.259411
 31
0.0
  0
LINE
  5
1E6
330
1F
100
AcDbEntity
  8
LC-001-002-----0
  6
DASHDOT
 62
     7
370
    25
100
AcDbLine
 10
453.742611
 20
415.259411
 30
0.0
 11
453.742611
 21
165.259411
 31
0.0
  0
LINE
  5
1E7
102
{ACAD_REACTORS
330
538
102
}
330
1F
100
AcDbEntity
  8
LC-001-002-----0
 62
     7
370
    50
100
AcDbLine
 10
203.742611
 20
415.259411
 30
0.0
 11
203.742611
 21
414.259411
 31
0.0
  0
LINE
  5
1E8
102
{ACAD_REACTORS
330
538
102
}
330
1F
100
AcDbEntity
  8
LC-001-002-----0
 62
     7
370
    50
100
AcDbLine
 10
203.742611
 20
414.259411
 30
0.0
 11
206.742611
 21
414.259411
 31
0.0
  0
LINE
  5
1E9
102
{ACAD_REACTORS
330
538
102
}
330
1F
100
AcDbEntity
  8
LC-001-002-----0
 62
     7
370
    50
100
AcDbLine
 10
203.742611
 20
409.259411
 30
0.0
 11
206.742611
 21
409.259411
 31
0.0
  0
LINE
  5
1EA
102
{ACAD_REACTORS
330
538
102
}
330
1F
100
AcDbEntity
  8
LC-001-002-----0
 62
     7
370
    25
100
AcDbLine
 10
203.742611
 20
289.471084
 30
0.0
 11
215.857919
 21
291.680465
 31
0.0
  0
LINE
  5
1EB
102
{ACAD_REACTORS
330
538
102
}
330
1F
100
AcDbEntity
  8
LC-001-002-----0
 62
     7
370
    25
100
AcDbLine
 10
215.857919
 20
291.680465
 30
0.0
 11
223.644254
 21
306.479466
 31
0.0
  0
LINE
  5
1EC
102
{ACAD_REACTORS
330
538
102
}
330
1F
100
AcDbEntity
  8
LC-001-002-----0
 62
     7
370
    25
100
AcDbLine
 10
223.644254
 20
306.479466
 30
0.0
 11
236.376291
 21
307.482323
 31
0.0
  0
LINE
  5
1ED
102
{ACAD_REACTORS
330
538
102
}
330
1F
100
AcDbEntity
  8
LC-001-002-----0
 62
     7
370
    25
100
AcDbLine
 10
236.376291
 20
307.482323
 30
0.0
 11
247.21099
 21
321.753709
 31
0.0
  0
LINE
  5
1EE
102
{ACAD_REACTORS
330
538
102
}
330
1F
100
AcDbEntity
  8
LC-001-002-----0
 62
     7
370
    25
100
AcDbLine
 10
247.21099
 20
321.753709
 30
0.0
 11
263.351497
 21
321.718096
 31
0.0
  0
LINE
  5
1EF
102
{ACAD_REACTORS
330
538
102
}
330
1F
100
AcDbEntity
  8
LC-001-002-----0
 62
     7
370
    25
100
AcDbLine
 10
263.351497
 20
321.718096
 30
0.0
 11
274.353704
 21
339.5487
 31
0.0
  0
LINE
  5
1F0
102
{ACAD_REACTORS
330
538
102
}
330
1F
100
AcDbEntity
  8
LC-001-002-----0
 62
     7
370
    25
100
AcDbLine
 10
274.353704
 20
339.5487
 30
0.0
 11
291.021826
 21
342.561451
 31
0.0
  0
LINE
  5
1F1
102
{ACAD_REACTORS
330
538
102
}
330
1F
100
AcDbEntity
  8
LC-001-002-----0
 62
     7
370
    25
100
AcDbLine
 10
291.021826
 20
342.561451
 30
0.0
 11
296.898732
 21
354.102729
 31
0.0
  0
LINE
  5
1F2
102
{ACAD_REACTORS
330
538
102
}
330
1F
100
AcDbEntity
  8
LC-001-002-----0
 62
     7
370
    25
100
AcDbLine
 10
296.898732
 20
354.102729
 30
0.0
 11
314.094469
 21
360.163843
 31
0.0
  0
LINE
  5
1F3
102
{ACAD_REACTORS
330
538
102
}
330
1F
100
AcDbEntity
  8
LC-001-002-----0
 62
     7
370
    25
100
AcDbLine
 10
314.094469
 20
360.163843
 30
0.0
 11
320.138883
 21
375.264338
 31
0.0
  0
LINE
  5
1F4
102
{ACAD_REACTORS
330
538
102
}
330
1F
100
AcDbEntity
  8
LC-001-002-----0
 62
     7
370
    25
100
AcDbLine
 10
320.138883
 20
375.264338
 30
0.0
 11
340.74309
 21
380.286983
 31
0.0
  0
LINE
  5
1F5
102
{ACAD_REACTORS
330
538
102
}
330
1F
100
AcDbEntity
  8
LC-001-002-----0
 62
     7
370
    25
100
AcDbLine
 10
340.74309
 20
380.286983
 30
0.0
 11
349.835867
 21
394.859864
 31
0.0
  0
LINE
  5
1F6
102
{ACAD_REACTORS
330
538
102
}
330
1F
100
AcDbEntity
  8
LC-001-002-----0
 62
     7
370
    25
100
AcDbLine
 10
349.835867
 20
394.859864
 30
0.0
 11
362.794025
 21
397.169162
 31
0.0
  0
LINE
  5
1F7
102
{ACAD_REACTORS
330
538
102
}
330
1F
100
AcDbEntity
  8
LC-001-002-----0
 62
     7
370
    25
100
AcDbLine
 10
362.794025
 20
397.169162
 30
0.0
 11
374.935165
 21
411.214427
 31
0.0
  0
LINE
  5
1F8
102
{ACAD_REACTORS
330
538
102
}
330
1F
100
AcDbEntity
  8
LC-001-002-----0
 62
     7
370
    25
100
AcDbLine
 10
374.935165
 20
411.214427
 30
0.0
 11
391.301793
 21
412.485256
 31
0.0
  0
LINE
  5
1F9
102
{ACAD_REACTORS
330
538
102
}
330
1F
100
AcDbEntity
  8
LC-001-002-----0
 62
     7
370
    25
100
AcDbLine
 10
391.301793
 20
412.485256
 30
0.0
 11
392.270408
 21
415.259411
 31
0.0
  0
LINE
  5
1FA
102
{ACAD_REACTORS
330
538
102
}
330
1F
100
AcDbEntity
  8
LC-001-002-----0
 62
     7
370
    50
100
AcDbLine
 10
203.742611
 20
410.259411
 30
0.0
 11
206.742611
 21
410.259411
 31
0.0
  0
LINE
  5
1FB
102
{ACAD_REACTORS
330
538
102
}
330
1F
100
AcDbEntity
  8
LC-001-002-----0
 62
     7
370
    50
100
AcDbLine
 10
203.742611
 20
404.259411
 30
0.0
 11
206.742611
 21
404.259411
 31
0.0
  0
LINE
  5
1FC
102
{ACAD_REACTORS
330
538
102
}
330
1F
100
AcDbEntity
  8
LC-001-002-----0
 62
     7
370
    50
100
AcDbLine
 10
203.742611
 20
405.259411
 30
0.0
 11
206.742611
 21
405.259411
 31
0.0
  0
LINE
  5
1FD
102
{ACAD_REACTORS
330
538
102
}
330
1F
100
AcDbEntity
  8
LC-001-002-----0
 62
     7
370
    50
100
AcDbLine
 10
203.742611
 20
399.259411
 30
0.0
 11
206.742611
 21
399.259411
 31
0.0
  0
LINE
  5
1FE
102
{ACAD_REACTORS
330
538
102
}
330
1F
100
AcDbEntity
  8
LC-001-002-----0
 62
     7
370
    50
100
AcDbLine
 10
207.242611
 20
290.109354
 30
0.0
 11
207.242611
 21
410.259411
 31
0.0
  0
LINE
  5
1FF
102
{ACAD_REACTORS
330
538
102
}
330
1F
100
AcDbEntity
  8
LC-001-002-----0
 62
     7
370
    50
100
AcDbLine
 10
203.742611
 20
400.259411
 30
0.0
 11
206.742611
 21
400.259411
 31
0.0
  0
LINE
  5
200
102
{ACAD_REACTORS
330
538
102
}
330
1F
100
AcDbEntity
  8
LC-001-002-----0
 62
     7
370
    50
100
AcDbLine
 10
203.742611
 20
394.259411
 30
0.0
 11
349.461214
 21
394.259411
 31
0.0
  0
LINE
  5
201
102
{ACAD_REACTORS
330
538
102
}
330
1F
100
AcDbEntity
  8
LC-001-002-----0
 62
     7
370
    50
100
AcDbLine
 10
203.742611
 20
395.259411
 30
0.0
 11
352.077848
 21
395.259411
 31
0.0
  0
LINE
  5
202
102
{ACAD_REACTORS
330
538
102
}
330
1F
100
AcDbEntity
  8
LC-001-002-----0
 62
     7
370
    50
100
AcDbLine
 10
203.742611
 20
389.259411
 30
0.0
 11
346.341454
 21
389.259411
 31
0.0
  0
LINE
  5
203
102
{ACAD_REACTORS
330
538
102
}
330
1F
100
AcDbEntity
  8
LC-001-002-----0
 62
     7
370
    50
100
AcDbLine
 10
203.742611
 20
390.259411
 30
0.0
 11
346.965406
 21
390.259411
 31
0.0
  0
LINE
  5
204
102
{ACAD_REACTORS
330
538
102
}
330
1F
100
AcDbEntity
  8
LC-001-002-----0
 62
     7
370
    50
100
AcDbLine
 10
203.742611
 20
384.259411
 30
0.0
 11
343.221694
 21
384.259411
 31
0.0
  0
LINE
  5
205
102
{ACAD_REACTORS
330
538
102
}
330
1F
100
AcDbEntity
  8
LC-001-002-----0
 62
     7
370
    50
100
AcDbLine
 10
203.742611
 20
385.259411
 30
0.0
 11
343.845646
 21
385.259411
 31
0.0
  0
LINE
  5
206
102
{ACAD_REACTORS
330
538
102
}
330
1F
100
AcDbEntity
  8
LC-001-002-----0
 62
     7
370
    50
100
AcDbLine
 10
203.742611
 20
379.259411
 30
0.0
 11
336.52772
 21
379.259411
 31
0.0
  0
LINE
  5
207
102
{ACAD_REACTORS
330
538
102
}
330
1F
100
AcDbEntity
  8
LC-001-002-----0
 62
     7
370
    50
100
AcDbLine
 10
203.742611
 20
380.259411
 30
0.0
 11
340.629983
 21
380.259411
 31
0.0
  0
LINE
  5
208
102
{ACAD_REACTORS
330
538
102
}
330
1F
100
AcDbEntity
  8
LC-001-002-----0
 62
     7
370
    50
100
AcDbLine
 10
203.742611
 20
374.259411
 30
0.0
 11
319.736632
 21
374.259411
 31
0.0
  0
LINE
  5
209
102
{ACAD_REACTORS
330
538
102
}
330
1F
100
AcDbEntity
  8
LC-001-002-----0
 62
     7
370
    50
100
AcDbLine
 10
203.742611
 20
375.259411
 30
0.0
 11
320.136911
 21
375.259411
 31
0.0
  0
LINE
  5
20A
102
{ACAD_REACTORS
330
538
102
}
330
1F
100
AcDbEntity
  8
LC-001-002-----0
 62
     7
370
    50
100
AcDbLine
 10
203.742611
 20
369.259411
 30
0.0
 11
317.735236
 21
369.259411
 31
0.0
  0
LINE
  5
20B
102
{ACAD_REACTORS
330
538
102
}
330
1F
100
AcDbEntity
  8
LC-001-002-----0
 62
     7
370
    50
100
AcDbLine
 10
203.742611
 20
370.259411
 30
0.0
 11
318.135515
 21
370.259411
 31
0.0
  0
LINE
  5
20C
102
{ACAD_REACTORS
330
538
102
}
330
1F
100
AcDbEntity
  8
LC-001-002-----0
 62
     7
370
    50
100
AcDbLine
 10
203.742611
 20
364.259411
 30
0.0
 11
315.73384
 21
364.259411
 31
0.0
  0
LINE
  5
20D
102
{ACAD_REACTORS
330
538
102
}
330
1F
100
AcDbEntity
  8
LC-001-002-----0
 62
     7
370
    50
100
AcDbLine
 10
203.742611
 20
365.259411
 30
0.0
 11
316.134119
 21
365.259411
 31
0.0
  0
LINE
  5
20E
102
{ACAD_REACTORS
330
538
102
}
330
1F
100
AcDbEntity
  8
LC-001-002-----0
 62
     7
370
    50
100
AcDbLine
 10
203.742611
 20
359.259411
 30
0.0
 11
311.528544
 21
359.259411
 31
0.0
  0
LINE
  5
20F
102
{ACAD_REACTORS
330
538
102
}
330
1F
100
AcDbEntity
  8
LC-001-002-----0
 62
     7
370
    50
100
AcDbLine
 10
203.742611
 20
360.259411
 30
0.0
 11
314.365603
 21
360.259411
 31
0.0
  0
LINE
  5
210
102
{ACAD_REACTORS
330
538
102
}
330
1F
100
AcDbEntity
  8
LC-001-002-----0
 62
     7
370
    50
100
AcDbLine
 10
203.742611
 20
354.259411
 30
0.0
 11
296.978516
 21
354.259411
 31
0.0
  0
LINE
  5
211
102
{ACAD_REACTORS
330
538
102
}
330
1F
100
AcDbEntity
  8
LC-001-002-----0
 62
     7
370
    50
100
AcDbLine
 10
203.742611
 20
355.259411
 30
0.0
 11
300.180309
 21
355.259411
 31
0.0
  0
LINE
  5
212
102
{ACAD_REACTORS
330
538
102
}
330
1F
100
AcDbEntity
  8
LC-001-002-----0
 62
     7
370
    50
100
AcDbLine
 10
203.742611
 20
349.259411
 30
0.0
 11
294.432478
 21
349.259411
 31
0.0
  0
LINE
  5
213
102
{ACAD_REACTORS
330
538
102
}
330
1F
100
AcDbEntity
  8
LC-001-002-----0
 62
     7
370
    50
100
AcDbLine
 10
203.742611
 20
350.259411
 30
0.0
 11
294.941686
 21
350.259411
 31
0.0
  0
LINE
  5
214
102
{ACAD_REACTORS
330
538
102
}
330
1F
100
AcDbEntity
  8
LC-001-002-----0
 62
     7
370
    50
100
AcDbLine
 10
203.742611
 20
344.259411
 30
0.0
 11
291.886441
 21
344.259411
 31
0.0
  0
LINE
  5
215
102
{ACAD_REACTORS
330
538
102
}
330
1F
100
AcDbEntity
  8
LC-001-002-----0
 62
     7
370
    50
100
AcDbLine
 10
203.742611
 20
345.259411
 30
0.0
 11
292.395648
 21
345.259411
 31
0.0
  0
LINE
  5
216
102
{ACAD_REACTORS
330
538
102
}
330
1F
100
AcDbEntity
  8
LC-001-002-----0
 62
     7
370
    50
100
AcDbLine
 10
203.742611
 20
339.259411
 30
0.0
 11
274.175202
 21
339.259411
 31
0.0
  0
LINE
  5
217
102
{ACAD_REACTORS
330
538
102
}
330
1F
100
AcDbEntity
  8
LC-001-002-----0
 62
     7
370
    50
100
AcDbLine
 10
203.742611
 20
340.259411
 30
0.0
 11
278.285735
 21
340.259411
 31
0.0
  0
LINE
  5
218
102
{ACAD_REACTORS
330
538
102
}
330
1F
100
AcDbEntity
  8
LC-001-002-----0
 62
     7
370
    50
100
AcDbLine
 10
203.742611
 20
334.259411
 30
0.0
 11
271.089998
 21
334.259411
 31
0.0
  0
LINE
  5
219
102
{ACAD_REACTORS
330
538
102
}
330
1F
100
AcDbEntity
  8
LC-001-002-----0
 62
     7
370
    50
100
AcDbLine
 10
203.742611
 20
335.259411
 30
0.0
 11
271.707039
 21
335.259411
 31
0.0
  0
LINE
  5
21A
102
{ACAD_REACTORS
330
538
102
}
330
1F
100
AcDbEntity
  8
LC-001-002-----0
 62
     7
370
    50
100
AcDbLine
 10
203.742611
 20
329.259411
 30
0.0
 11
268.004795
 21
329.259411
 31
0.0
  0
LINE
  5
21B
102
{ACAD_REACTORS
330
538
102
}
330
1F
100
AcDbEntity
  8
LC-001-002-----0
 62
     7
370
    50
100
AcDbLine
 10
203.742611
 20
330.259411
 30
0.0
 11
268.621836
 21
330.259411
 31
0.0
  0
LINE
  5
21C
102
{ACAD_REACTORS
330
538
102
}
330
1F
100
AcDbEntity
  8
LC-001-002-----0
 62
     7
370
    50
100
AcDbLine
 10
203.742611
 20
324.259411
 30
0.0
 11
264.919592
 21
324.259411
 31
0.0
  0
LINE
  5
21D
102
{ACAD_REACTORS
330
538
102
}
330
1F
100
AcDbEntity
  8
LC-001-002-----0
 62
     7
370
    50
100
AcDbLine
 10
203.742611
 20
325.259411
 30
0.0
 11
265.536633
 21
325.259411
 31
0.0
  0
LINE
  5
21E
102
{ACAD_REACTORS
330
538
102
}
330
1F
100
AcDbEntity
  8
LC-001-002-----0
 62
     7
370
    50
100
AcDbLine
 10
203.742611
 20
319.259411
 30
0.0
 11
245.317344
 21
319.259411
 31
0.0
  0
LINE
  5
21F
102
{ACAD_REACTORS
330
538
102
}
330
1F
100
AcDbEntity
  8
LC-001-002-----0
 62
     7
370
    50
100
AcDbLine
 10
203.742611
 20
320.259411
 30
0.0
 11
246.076534
 21
320.259411
 31
0.0
  0
LINE
  5
220
102
{ACAD_REACTORS
330
538
102
}
330
1F
100
AcDbEntity
  8
LC-001-002-----0
 62
     7
370
    50
100
AcDbLine
 10
203.742611
 20
314.259411
 30
0.0
 11
241.521392
 21
314.259411
 31
0.0
  0
LINE
  5
221
102
{ACAD_REACTORS
330
538
102
}
330
1F
100
AcDbEntity
  8
LC-001-002-----0
 62
     7
370
    50
100
AcDbLine
 10
203.742611
 20
315.259411
 30
0.0
 11
242.280582
 21
315.259411
 31
0.0
  0
LINE
  5
222
102
{ACAD_REACTORS
330
538
102
}
330
1F
100
AcDbEntity
  8
LC-001-002-----0
 62
     7
370
    50
100
AcDbLine
 10
203.742611
 20
309.259411
 30
0.0
 11
237.72544
 21
309.259411
 31
0.0
  0
LINE
  5
223
102
{ACAD_REACTORS
330
538
102
}
330
1F
100
AcDbEntity
  8
LC-001-002-----0
 62
     7
370
    50
100
AcDbLine
 10
203.742611
 20
310.259411
 30
0.0
 11
238.48463
 21
310.259411
 31
0.0
  0
LINE
  5
224
102
{ACAD_REACTORS
330
538
102
}
330
1F
100
AcDbEntity
  8
LC-001-002-----0
 62
     7
370
    50
100
AcDbLine
 10
203.742611
 20
304.259411
 30
0.0
 11
222.476197
 21
304.259411
 31
0.0
  0
LINE
  5
225
102
{ACAD_REACTORS
330
538
102
}
330
1F
100
AcDbEntity
  8
LC-001-002-----0
 62
     7
370
    50
100
AcDbLine
 10
203.742611
 20
305.259411
 30
0.0
 11
223.002336
 21
305.259411
 31
0.0
  0
LINE
  5
226
102
{ACAD_REACTORS
330
538
102
}
330
1F
100
AcDbEntity
  8
LC-001-002-----0
 62
     7
370
    50
100
AcDbLine
 10
203.742611
 20
299.259411
 30
0.0
 11
219.8455
 21
299.259411
 31
0.0
  0
LINE
  5
227
102
{ACAD_REACTORS
330
538
102
}
330
1F
100
AcDbEntity
  8
LC-001-002-----0
 62
     7
370
    50
100
AcDbLine
 10
203.742611
 20
300.259411
 30
0.0
 11
220.371639
 21
300.259411
 31
0.0
  0
LINE
  5
228
102
{ACAD_REACTORS
330
538
102
}
330
1F
100
AcDbEntity
  8
LC-001-002-----0
 62
     7
370
    50
100
AcDbLine
 10
203.742611
 20
294.259411
 30
0.0
 11
217.214804
 21
294.259411
 31
0.0
  0
LINE
  5
229
102
{ACAD_REACTORS
330
538
102
}
330
1F
100
AcDbEntity
  8
LC-001-002-----0
 62
     7
370
    50
100
AcDbLine
 10
203.742611
 20
295.259411
 30
0.0
 11
217.740943
 21
295.259411
 31
0.0
  0
LINE
  5
22A
102
{ACAD_REACTORS
330
538
102
}
330
1F
100
AcDbEntity
  8
LC-001-002-----0
 62
     7
370
    50
100
AcDbLine
 10
206.742611
 20
290.018172
 30
0.0
 11
206.742611
 21
410.259411
 31
0.0
  0
LINE
  5
22B
102
{ACAD_REACTORS
330
538
102
}
330
1F
100
AcDbEntity
  8
LC-001-002-----0
 62
     7
370
    50
100
AcDbLine
 10
210.684919
 20
290.737103
 30
0.0
 11
210.684919
 21
415.259411
 31
0.0
  0
LINE
  5
22C
102
{ACAD_REACTORS
330
538
102
}
330
1F
100
AcDbEntity
  8
LC-001-002-----0
 62
     7
370
    50
100
AcDbLine
 10
210.184919
 20
290.645921
 30
0.0
 11
210.184919
 21
415.259411
 31
0.0
  0
LINE
  5
22D
102
{ACAD_REACTORS
330
538
102
}
330
1F
100
AcDbEntity
  8
LC-001-002-----0
 62
     7
370
    50
100
AcDbLine
 10
214.127226
 20
291.364851
 30
0.0
 11
214.127226
 21
415.259411
 31
0.0
  0
LINE
  5
22E
102
{ACAD_REACTORS
330
538
102
}
330
1F
100
AcDbEntity
  8
LC-001-002-----0
 62
     7
370
    50
100
AcDbLine
 10
213.627226
 20
291.27367
 30
0.0
 11
213.627226
 21
415.259411
 31
0.0
  0
LINE
  5
22F
102
{ACAD_REACTORS
330
538
102
}
330
1F
100
AcDbEntity
  8
LC-001-002-----0
 62
     7
370
    50
100
AcDbLine
 10
217.569534
 20
294.933625
 30
0.0
 11
217.569534
 21
415.259411
 31
0.0
  0
LINE
  5
230
102
{ACAD_REACTORS
330
538
102
}
330
1F
100
AcDbEntity
  8
LC-001-002-----0
 62
     7
370
    50
100
AcDbLine
 10
217.069534
 20
293.983306
 30
0.0
 11
217.069534
 21
415.259411
 31
0.0
  0
LINE
  5
231
102
{ACAD_REACTORS
330
538
102
}
330
1F
100
AcDbEntity
  8
LC-001-002-----0
 62
     7
370
    50
100
AcDbLine
 10
221.011842
 20
301.476204
 30
0.0
 11
221.011842
 21
415.259411
 31
0.0
  0
LINE
  5
232
102
{ACAD_REACTORS
330
538
102
}
330
1F
100
AcDbEntity
  8
LC-001-002-----0
 62
     7
370
    50
100
AcDbLine
 10
220.511842
 20
300.525885
 30
0.0
 11
220.511842
 21
415.259411
 31
0.0
  0
LINE
  5
233
102
{ACAD_REACTORS
330
538
102
}
330
1F
100
AcDbEntity
  8
LC-001-002-----0
 62
     7
370
    50
100
AcDbLine
 10
224.45415
 20
306.543259
 30
0.0
 11
224.45415
 21
415.259411
 31
0.0
  0
LINE
  5
234
102
{ACAD_REACTORS
330
538
102
}
330
1F
100
AcDbEntity
  8
LC-001-002-----0
 62
     7
370
    50
100
AcDbLine
 10
223.95415
 20
306.503875
 30
0.0
 11
223.95415
 21
415.259411
 31
0.0
  0
LINE
  5
235
102
{ACAD_REACTORS
330
538
102
}
330
1F
100
AcDbEntity
  8
LC-001-002-----0
 62
     7
370
    50
100
AcDbLine
 10
227.896457
 20
306.814397
 30
0.0
 11
227.896457
 21
415.259411
 31
0.0
  0
LINE
  5
236
102
{ACAD_REACTORS
330
538
102
}
330
1F
100
AcDbEntity
  8
LC-001-002-----0
 62
     7
370
    50
100
AcDbLine
 10
227.396457
 20
306.775013
 30
0.0
 11
227.396457
 21
415.259411
 31
0.0
  0
LINE
  5
237
102
{ACAD_REACTORS
330
538
102
}
330
1F
100
AcDbEntity
  8
LC-001-002-----0
 62
     7
370
    50
100
AcDbLine
 10
231.338765
 20
307.085535
 30
0.0
 11
231.338765
 21
415.259411
 31
0.0
  0
LINE
  5
238
102
{ACAD_REACTORS
330
538
102
}
330
1F
100
AcDbEntity
  8
LC-001-002-----0
 62
     7
370
    50
100
AcDbLine
 10
230.838765
 20
307.046152
 30
0.0
 11
230.838765
 21
415.259411
 31
0.0
  0
LINE
  5
239
102
{ACAD_REACTORS
330
538
102
}
330
1F
100
AcDbEntity
  8
LC-001-002-----0
 62
     7
370
    50
100
AcDbLine
 10
234.781073
 20
307.356673
 30
0.0
 11
234.781073
 21
415.259411
 31
0.0
  0
LINE
  5
23A
102
{ACAD_REACTORS
330
538
102
}
330
1F
100
AcDbEntity
  8
LC-001-002-----0
 62
     7
370
    50
100
AcDbLine
 10
234.281073
 20
307.31729
 30
0.0
 11
234.281073
 21
415.259411
 31
0.0
  0
LINE
  5
23B
102
{ACAD_REACTORS
330
538
102
}
330
1F
100
AcDbEntity
  8
LC-001-002-----0
 62
     7
370
    50
100
AcDbLine
 10
238.22338
 20
309.915295
 30
0.0
 11
238.22338
 21
415.259411
 31
0.0
  0
LINE
  5
23C
102
{ACAD_REACTORS
330
538
102
}
330
1F
100
AcDbEntity
  8
LC-001-002-----0
 62
     7
370
    50
100
AcDbLine
 10
237.72338
 20
309.256698
 30
0.0
 11
237.72338
 21
415.259411
 31
0.0
  0
LINE
  5
23D
102
{ACAD_REACTORS
330
538
102
}
330
1F
100
AcDbEntity
  8
LC-001-002-----0
 62
     7
370
    50
100
AcDbLine
 10
241.665688
 20
314.449477
 30
0.0
 11
241.665688
 21
415.259411
 31
0.0
  0
LINE
  5
23E
102
{ACAD_REACTORS
330
538
102
}
330
1F
100
AcDbEntity
  8
LC-001-002-----0
 62
     7
370
    50
100
AcDbLine
 10
241.165688
 20
313.790881
 30
0.0
 11
241.165688
 21
415.259411
 31
0.0
  0
LINE
  5
23F
102
{ACAD_REACTORS
330
538
102
}
330
1F
100
AcDbEntity
  8
LC-001-002-----0
 62
     7
370
    50
100
AcDbLine
 10
245.107996
 20
318.98366
 30
0.0
 11
245.107996
 21
415.259411
 31
0.0
  0
LINE
  5
240
102
{ACAD_REACTORS
330
538
102
}
330
1F
100
AcDbEntity
  8
LC-001-002-----0
 62
     7
370
    50
100
AcDbLine
 10
244.607996
 20
318.325063
 30
0.0
 11
244.607996
 21
415.259411
 31
0.0
  0
LINE
  5
241
102
{ACAD_REACTORS
330
538
102
}
330
1F
100
AcDbEntity
  8
LC-001-002-----0
 62
     7
370
    50
100
AcDbLine
 10
248.550303
 20
321.750754
 30
0.0
 11
248.550303
 21
415.259411
 31
0.0
  0
LINE
  5
242
102
{ACAD_REACTORS
330
538
102
}
330
1F
100
AcDbEntity
  8
LC-001-002-----0
 62
     7
370
    50
100
AcDbLine
 10
248.050303
 20
321.751857
 30
0.0
 11
248.050303
 21
415.259411
 31
0.0
  0
LINE
  5
243
102
{ACAD_REACTORS
330
538
102
}
330
1F
100
AcDbEntity
  8
LC-001-002-----0
 62
     7
370
    50
100
AcDbLine
 10
251.992611
 20
321.743159
 30
0.0
 11
251.992611
 21
415.259411
 31
0.0
  0
LINE
  5
244
102
{ACAD_REACTORS
330
538
102
}
330
1F
100
AcDbEntity
  8
LC-001-002-----0
 62
     7
370
    50
100
AcDbLine
 10
251.492611
 20
321.744262
 30
0.0
 11
251.492611
 21
415.259411
 31
0.0
  0
LINE
  5
245
102
{ACAD_REACTORS
330
538
102
}
330
1F
100
AcDbEntity
  8
LC-001-002-----0
 62
     7
370
    50
100
AcDbLine
 10
255.434919
 20
321.735563
 30
0.0
 11
255.434919
 21
415.259411
 31
0.0
  0
LINE
  5
246
102
{ACAD_REACTORS
330
538
102
}
330
1F
100
AcDbEntity
  8
LC-001-002-----0
 62
     7
370
    50
100
AcDbLine
 10
254.934919
 20
321.736667
 30
0.0
 11
254.934919
 21
415.259411
 31
0.0
  0
LINE
  5
247
102
{ACAD_REACTORS
330
538
102
}
330
1F
100
AcDbEntity
  8
LC-001-002-----0
 62
     7
370
    50
100
AcDbLine
 10
258.877226
 20
321.727968
 30
0.0
 11
258.877226
 21
415.259411
 31
0.0
  0
LINE
  5
248
102
{ACAD_REACTORS
330
538
102
}
330
1F
100
AcDbEntity
  8
LC-001-002-----0
 62
     7
370
    50
100
AcDbLine
 10
258.377226
 20
321.729072
 30
0.0
 11
258.377226
 21
415.259411
 31
0.0
  0
LINE
  5
249
102
{ACAD_REACTORS
330
538
102
}
330
1F
100
AcDbEntity
  8
LC-001-002-----0
 62
     7
370
    50
100
AcDbLine
 10
262.319534
 20
321.720373
 30
0.0
 11
262.319534
 21
415.259411
 31
0.0
  0
LINE
  5
24A
102
{ACAD_REACTORS
330
538
102
}
330
1F
100
AcDbEntity
  8
LC-001-002-----0
 62
     7
370
    50
100
AcDbLine
 10
261.819534
 20
321.721476
 30
0.0
 11
261.819534
 21
415.259411
 31
0.0
  0
LINE
  5
24B
102
{ACAD_REACTORS
330
538
102
}
330
1F
100
AcDbEntity
  8
LC-001-002-----0
 62
     7
370
    50
100
AcDbLine
 10
265.761842
 20
325.624394
 30
0.0
 11
265.761842
 21
415.259411
 31
0.0
  0
LINE
  5
24C
102
{ACAD_REACTORS
330
538
102
}
330
1F
100
AcDbEntity
  8
LC-001-002-----0
 62
     7
370
    50
100
AcDbLine
 10
265.261842
 20
324.814075
 30
0.0
 11
265.261842
 21
415.259411
 31
0.0
  0
LINE
  5
24D
102
{ACAD_REACTORS
330
538
102
}
330
1F
100
AcDbEntity
  8
LC-001-002-----0
 62
     7
370
    50
100
AcDbLine
 10
269.20415
 20
331.203131
 30
0.0
 11
269.20415
 21
415.259411
 31
0.0
  0
LINE
  5
24E
102
{ACAD_REACTORS
330
538
102
}
330
1F
100
AcDbEntity
  8
LC-001-002-----0
 62
     7
370
    50
100
AcDbLine
 10
268.70415
 20
330.392812
 30
0.0
 11
268.70415
 21
415.259411
 31
0.0
  0
LINE
  5
24F
102
{ACAD_REACTORS
330
538
102
}
330
1F
100
AcDbEntity
  8
LC-001-002-----0
 62
     7
370
    50
100
AcDbLine
 10
272.646457
 20
336.781869
 30
0.0
 11
272.646457
 21
415.259411
 31
0.0
  0
LINE
  5
250
102
{ACAD_REACTORS
330
538
102
}
330
1F
100
AcDbEntity
  8
LC-001-002-----0
 62
     7
370
    50
100
AcDbLine
 10
272.146457
 20
335.971549
 30
0.0
 11
272.146457
 21
415.259411
 31
0.0
  0
LINE
  5
251
102
{ACAD_REACTORS
330
538
102
}
330
1F
100
AcDbEntity
  8
LC-001-002-----0
 62
     7
370
    50
100
AcDbLine
 10
276.088765
 20
339.862311
 30
0.0
 11
276.088765
 21
415.259411
 31
0.0
  0
LINE
  5
252
102
{ACAD_REACTORS
330
538
102
}
330
1F
100
AcDbEntity
  8
LC-001-002-----0
 62
     7
370
    50
100
AcDbLine
 10
275.588765
 20
339.771936
 30
0.0
 11
275.588765
 21
415.259411
 31
0.0
  0
LINE
  5
253
102
{ACAD_REACTORS
330
538
102
}
330
1F
100
AcDbEntity
  8
LC-001-002-----0
 62
     7
370
    50
100
AcDbLine
 10
279.531073
 20
340.484505
 30
0.0
 11
279.531073
 21
415.259411
 31
0.0
  0
LINE
  5
254
102
{ACAD_REACTORS
330
538
102
}
330
1F
100
AcDbEntity
  8
LC-001-002-----0
 62
     7
370
    50
100
AcDbLine
 10
279.031073
 20
340.394131
 30
0.0
 11
279.031073
 21
415.259411
 31
0.0
  0
LINE
  5
255
102
{ACAD_REACTORS
330
538
102
}
330
1F
100
AcDbEntity
  8
LC-001-002-----0
 62
     7
370
    50
100
AcDbLine
 10
282.97338
 20
341.1067
 30
0.0
 11
282.97338
 21
415.259411
 31
0.0
  0
LINE
  5
256
102
{ACAD_REACTORS
330
538
102
}
330
1F
100
AcDbEntity
  8
LC-001-002-----0
 62
     7
370
    50
100
AcDbLine
 10
282.47338
 20
341.016325
 30
0.0
 11
282.47338
 21
415.259411
 31
0.0
  0
LINE
  5
257
102
{ACAD_REACTORS
330
538
102
}
330
1F
100
AcDbEntity
  8
LC-001-002-----0
 62
     7
370
    50
100
AcDbLine
 10
286.415688
 20
341.728894
 30
0.0
 11
286.415688
 21
415.259411
 31
0.0
  0
LINE
  5
258
102
{ACAD_REACTORS
330
538
102
}
330
1F
100
AcDbEntity
  8
LC-001-002-----0
 62
     7
370
    50
100
AcDbLine
 10
285.915688
 20
341.63852
 30
0.0
 11
285.915688
 21
415.259411
 31
0.0
  0
LINE
  5
259
102
{ACAD_REACTORS
330
538
102
}
330
1F
100
AcDbEntity
  8
LC-001-002-----0
 62
     7
370
    50
100
AcDbLine
 10
289.857996
 20
342.351089
 30
0.0
 11
289.857996
 21
415.259411
 31
0.0
  0
LINE
  5
25A
102
{ACAD_REACTORS
330
538
102
}
330
1F
100
AcDbEntity
  8
LC-001-002-----0
 62
     7
370
    50
100
AcDbLine
 10
289.357996
 20
342.260714
 30
0.0
 11
289.357996
 21
415.259411
 31
0.0
  0
LINE
  5
25B
102
{ACAD_REACTORS
330
538
102
}
330
1F
100
AcDbEntity
  8
LC-001-002-----0
 62
     7
370
    50
100
AcDbLine
 10
293.300303
 20
347.036005
 30
0.0
 11
293.300303
 21
415.259411
 31
0.0
  0
LINE
  5
25C
102
{ACAD_REACTORS
330
538
102
}
330
1F
100
AcDbEntity
  8
LC-001-002-----0
 62
     7
370
    50
100
AcDbLine
 10
292.800303
 20
346.054087
 30
0.0
 11
292.800303
 21
415.259411
 31
0.0
  0
LINE
  5
25D
102
{ACAD_REACTORS
330
538
102
}
330
1F
100
AcDbEntity
  8
LC-001-002-----0
 62
     7
370
    50
100
AcDbLine
 10
296.742611
 20
354.047699
 30
0.0
 11
296.742611
 21
415.259411
 31
0.0
  0
LINE
  5
25E
102
{ACAD_REACTORS
330
538
102
}
330
1F
100
AcDbEntity
  8
LC-001-002-----0
 62
     7
370
    50
100
AcDbLine
 10
296.242611
 20
352.814215
 30
0.0
 11
296.242611
 21
415.259411
 31
0.0
  0
LINE
  5
25F
102
{ACAD_REACTORS
330
538
102
}
330
1F
100
AcDbEntity
  8
LC-001-002-----0
 62
     7
370
    50
100
AcDbLine
 10
300.184919
 20
355.261036
 30
0.0
 11
300.184919
 21
415.259411
 31
0.0
  0
LINE
  5
260
102
{ACAD_REACTORS
330
538
102
}
330
1F
100
AcDbEntity
  8
LC-001-002-----0
 62
     7
370
    50
100
AcDbLine
 10
299.684919
 20
355.084797
 30
0.0
 11
299.684919
 21
415.259411
 31
0.0
  0
LINE
  5
261
102
{ACAD_REACTORS
330
538
102
}
330
1F
100
AcDbEntity
  8
LC-001-002-----0
 62
     7
370
    50
100
AcDbLine
 10
303.627226
 20
356.474373
 30
0.0
 11
303.627226
 21
415.259411
 31
0.0
  0
LINE
  5
262
102
{ACAD_REACTORS
330
538
102
}
330
1F
100
AcDbEntity
  8
LC-001-002-----0
 62
     7
370
    50
100
AcDbLine
 10
303.127226
 20
356.298134
 30
0.0
 11
303.127226
 21
415.259411
 31
0.0
  0
LINE
  5
263
102
{ACAD_REACTORS
330
538
102
}
330
1F
100
AcDbEntity
  8
LC-001-002-----0
 62
     7
370
    50
100
AcDbLine
 10
307.069534
 20
357.68771
 30
0.0
 11
307.069534
 21
415.259411
 31
0.0
  0
LINE
  5
264
102
{ACAD_REACTORS
330
538
102
}
330
1F
100
AcDbEntity
  8
LC-001-002-----0
 62
     7
370
    50
100
AcDbLine
 10
306.569534
 20
357.511471
 30
0.0
 11
306.569534
 21
415.259411
 31
0.0
  0
LINE
  5
265
102
{ACAD_REACTORS
330
538
102
}
330
1F
100
AcDbEntity
  8
LC-001-002-----0
 62
     7
370
    50
100
AcDbLine
 10
310.511842
 20
358.901047
 30
0.0
 11
310.511842
 21
415.259411
 31
0.0
  0
LINE
  5
266
102
{ACAD_REACTORS
330
538
102
}
330
1F
100
AcDbEntity
  8
LC-001-002-----0
 62
     7
370
    50
100
AcDbLine
 10
310.011842
 20
358.724808
 30
0.0
 11
310.011842
 21
415.259411
 31
0.0
  0
LINE
  5
267
102
{ACAD_REACTORS
330
538
102
}
330
1F
100
AcDbEntity
  8
LC-001-002-----0
 62
     7
370
    50
100
AcDbLine
 10
313.95415
 20
360.114383
 30
0.0
 11
313.95415
 21
415.259411
 31
0.0
  0
LINE
  5
268
102
{ACAD_REACTORS
330
538
102
}
330
1F
100
AcDbEntity
  8
LC-001-002-----0
 62
     7
370
    50
100
AcDbLine
 10
313.45415
 20
359.938144
 30
0.0
 11
313.45415
 21
415.259411
 31
0.0
  0
LINE
  5
269
102
{ACAD_REACTORS
330
538
102
}
330
1F
100
AcDbEntity
  8
LC-001-002-----0
 62
     7
370
    50
100
AcDbLine
 10
317.396457
 20
368.413056
 30
0.0
 11
317.396457
 21
415.259411
 31
0.0
  0
LINE
  5
26A
102
{ACAD_REACTORS
330
538
102
}
330
1F
100
AcDbEntity
  8
LC-001-002-----0
 62
     7
370
    50
100
AcDbLine
 10
316.896457
 20
367.163928
 30
0.0
 11
316.896457
 21
415.259411
 31
0.0
  0
LINE
  5
26B
102
{ACAD_REACTORS
330
538
102
}
330
1F
100
AcDbEntity
  8
LC-001-002-----0
 62
     7
370
    50
100
AcDbLine
 10
320.838765
 20
375.434947
 30
0.0
 11
320.838765
 21
415.259411
 31
0.0
  0
LINE
  5
26C
102
{ACAD_REACTORS
330
538
102
}
330
1F
100
AcDbEntity
  8
LC-001-002-----0
 62
     7
370
    50
100
AcDbLine
 10
320.338765
 20
375.313063
 30
0.0
 11
320.338765
 21
415.259411
 31
0.0
  0
LINE
  5
26D
102
{ACAD_REACTORS
330
538
102
}
330
1F
100
AcDbEntity
  8
LC-001-002-----0
 62
     7
370
    50
100
AcDbLine
 10
324.281073
 20
376.274071
 30
0.0
 11
324.281073
 21
415.259411
 31
0.0
  0
LINE
  5
26E
102
{ACAD_REACTORS
330
538
102
}
330
1F
100
AcDbEntity
  8
LC-001-002-----0
 62
     7
370
    50
100
AcDbLine
 10
323.781073
 20
376.152187
 30
0.0
 11
323.781073
 21
415.259411
 31
0.0
  0
LINE
  5
26F
102
{ACAD_REACTORS
330
538
102
}
330
1F
100
AcDbEntity
  8
LC-001-002-----0
 62
     7
370
    50
100
AcDbLine
 10
327.72338
 20
377.113195
 30
0.0
 11
327.72338
 21
415.259411
 31
0.0
  0
LINE
  5
270
102
{ACAD_REACTORS
330
538
102
}
330
1F
100
AcDbEntity
  8
LC-001-002-----0
 62
     7
370
    50
100
AcDbLine
 10
327.22338
 20
376.991312
 30
0.0
 11
327.22338
 21
415.259411
 31
0.0
  0
LINE
  5
271
102
{ACAD_REACTORS
330
538
102
}
330
1F
100
AcDbEntity
  8
LC-001-002-----0
 62
     7
370
    50
100
AcDbLine
 10
331.165688
 20
377.95232
 30
0.0
 11
331.165688
 21
415.259411
 31
0.0
  0
LINE
  5
272
102
{ACAD_REACTORS
330
538
102
}
330
1F
100
AcDbEntity
  8
LC-001-002-----0
 62
     7
370
    50
100
AcDbLine
 10
330.665688
 20
377.830436
 30
0.0
 11
330.665688
 21
415.259411
 31
0.0
  0
LINE
  5
273
102
{ACAD_REACTORS
330
538
102
}
330
1F
100
AcDbEntity
  8
LC-001-002-----0
 62
     7
370
    50
100
AcDbLine
 10
334.607996
 20
378.791444
 30
0.0
 11
334.607996
 21
415.259411
 31
0.0
  0
LINE
  5
274
102
{ACAD_REACTORS
330
538
102
}
330
1F
100
AcDbEntity
  8
LC-001-002-----0
 62
     7
370
    50
100
AcDbLine
 10
334.107996
 20
378.66956
 30
0.0
 11
334.107996
 21
415.259411
 31
0.0
  0
LINE
  5
275
102
{ACAD_REACTORS
330
538
102
}
330
1F
100
AcDbEntity
  8
LC-001-002-----0
 62
     7
370
    50
100
AcDbLine
 10
338.050303
 20
379.630568
 30
0.0
 11
338.050303
 21
415.259411
 31
0.0
  0
LINE
  5
276
102
{ACAD_REACTORS
330
538
102
}
330
1F
100
AcDbEntity
  8
LC-001-002-----0
 62
     7
370
    50
100
AcDbLine
 10
337.550303
 20
379.508684
 30
0.0
 11
337.550303
 21
415.259411
 31
0.0
  0
LINE
  5
277
102
{ACAD_REACTORS
330
538
102
}
330
1F
100
AcDbEntity
  8
LC-001-002-----0
 62
     7
370
    50
100
AcDbLine
 10
341.492611
 20
381.488231
 30
0.0
 11
341.492611
 21
415.259411
 31
0.0
  0
LINE
  5
278
102
{ACAD_REACTORS
330
538
102
}
330
1F
100
AcDbEntity
  8
LC-001-002-----0
 62
     7
370
    50
100
AcDbLine
 10
340.992611
 20
380.686887
 30
0.0
 11
340.992611
 21
415.259411
 31
0.0
  0
LINE
  5
279
102
{ACAD_REACTORS
330
538
102
}
330
1F
100
AcDbEntity
  8
LC-001-002-----0
 62
     7
370
    50
100
AcDbLine
 10
344.934919
 20
387.005175
 30
0.0
 11
344.934919
 21
415.259411
 31
0.0
  0
LINE
  5
27A
102
{ACAD_REACTORS
330
538
102
}
330
1F
100
AcDbEntity
  8
LC-001-002-----0
 62
     7
370
    50
100
AcDbLine
 10
344.434919
 20
386.203831
 30
0.0
 11
344.434919
 21
415.259411
 31
0.0
  0
LINE
  5
27B
102
{ACAD_REACTORS
330
538
102
}
330
1F
100
AcDbEntity
  8
LC-001-002-----0
 62
     7
370
    50
100
AcDbLine
 10
348.377226
 20
392.522118
 30
0.0
 11
348.377226
 21
415.259411
 31
0.0
  0
LINE
  5
27C
102
{ACAD_REACTORS
330
538
102
}
330
1F
100
AcDbEntity
  8
LC-001-002-----0
 62
     7
370
    50
100
AcDbLine
 10
347.877226
 20
391.720775
 30
0.0
 11
347.877226
 21
415.259411
 31
0.0
  0
LINE
  5
27D
102
{ACAD_REACTORS
330
538
102
}
330
1F
100
AcDbEntity
  8
LC-001-002-----0
 62
     7
370
    50
100
AcDbLine
 10
351.819534
 20
395.213377
 30
0.0
 11
351.819534
 21
415.259411
 31
0.0
  0
LINE
  5
27E
102
{ACAD_REACTORS
330
538
102
}
330
1F
100
AcDbEntity
  8
LC-001-002-----0
 62
     7
370
    50
100
AcDbLine
 10
351.319534
 20
395.124271
 30
0.0
 11
351.319534
 21
415.259411
 31
0.0
  0
LINE
  5
27F
102
{ACAD_REACTORS
330
538
102
}
330
1F
100
AcDbEntity
  8
LC-001-002-----0
 62
     7
370
    50
100
AcDbLine
 10
355.261842
 20
395.826837
 30
0.0
 11
355.261842
 21
415.259411
 31
0.0
  0
LINE
  5
280
102
{ACAD_REACTORS
330
538
102
}
330
1F
100
AcDbEntity
  8
LC-001-002-----0
 62
     7
370
    50
100
AcDbLine
 10
354.761842
 20
395.737731
 30
0.0
 11
354.761842
 21
415.259411
 31
0.0
  0
LINE
  5
281
102
{ACAD_REACTORS
330
538
102
}
330
1F
100
AcDbEntity
  8
LC-001-002-----0
 62
     7
370
    50
100
AcDbLine
 10
358.70415
 20
396.440297
 30
0.0
 11
358.70415
 21
415.259411
 31
0.0
  0
LINE
  5
282
102
{ACAD_REACTORS
330
538
102
}
330
1F
100
AcDbEntity
  8
LC-001-002-----0
 62
     7
370
    50
100
AcDbLine
 10
358.20415
 20
396.351191
 30
0.0
 11
358.20415
 21
415.259411
 31
0.0
  0
LINE
  5
283
102
{ACAD_REACTORS
330
538
102
}
330
1F
100
AcDbEntity
  8
LC-001-002-----0
 62
     7
370
    50
100
AcDbLine
 10
362.146457
 20
397.053758
 30
0.0
 11
362.146457
 21
415.259411
 31
0.0
  0
LINE
  5
284
102
{ACAD_REACTORS
330
538
102
}
330
1F
100
AcDbEntity
  8
LC-001-002-----0
 62
     7
370
    50
100
AcDbLine
 10
361.646457
 20
396.964652
 30
0.0
 11
361.646457
 21
415.259411
 31
0.0
  0
LINE
  5
285
102
{ACAD_REACTORS
330
538
102
}
330
1F
100
AcDbEntity
  8
LC-001-002-----0
 62
     7
370
    50
100
AcDbLine
 10
365.588765
 20
400.402208
 30
0.0
 11
365.588765
 21
415.259411
 31
0.0
  0
LINE
  5
286
102
{ACAD_REACTORS
330
538
102
}
330
1F
100
AcDbEntity
  8
LC-001-002-----0
 62
     7
370
    50
100
AcDbLine
 10
365.088765
 20
399.823792
 30
0.0
 11
365.088765
 21
415.259411
 31
0.0
  0
LINE
  5
287
102
{ACAD_REACTORS
330
538
102
}
330
1F
100
AcDbEntity
  8
LC-001-002-----0
 62
     7
370
    50
100
AcDbLine
 10
369.031073
 20
404.384381
 30
0.0
 11
369.031073
 21
415.259411
 31
0.0
  0
LINE
  5
288
102
{ACAD_REACTORS
330
538
102
}
330
1F
100
AcDbEntity
  8
LC-001-002-----0
 62
     7
370
    50
100
AcDbLine
 10
368.531073
 20
403.805965
 30
0.0
 11
368.531073
 21
415.259411
 31
0.0
  0
LINE
  5
289
102
{ACAD_REACTORS
330
538
102
}
330
1F
100
AcDbEntity
  8
LC-001-002-----0
 62
     7
370
    50
100
AcDbLine
 10
372.47338
 20
408.366555
 30
0.0
 11
372.47338
 21
415.259411
 31
0.0
  0
LINE
  5
28A
102
{ACAD_REACTORS
330
538
102
}
330
1F
100
AcDbEntity
  8
LC-001-002-----0
 62
     7
370
    50
100
AcDbLine
 10
371.97338
 20
407.788138
 30
0.0
 11
371.97338
 21
415.259411
 31
0.0
  0
LINE
  5
28B
102
{ACAD_REACTORS
330
538
102
}
330
1F
100
AcDbEntity
  8
LC-001-002-----0
 62
     7
370
    50
100
AcDbLine
 10
375.915688
 20
411.290562
 30
0.0
 11
375.915688
 21
415.259411
 31
0.0
  0
LINE
  5
28C
102
{ACAD_REACTORS
330
538
102
}
330
1F
100
AcDbEntity
  8
LC-001-002-----0
 62
     7
370
    50
100
AcDbLine
 10
375.415688
 20
411.251738
 30
0.0
 11
375.415688
 21
415.259411
 31
0.0
  0
LINE
  5
28D
102
{ACAD_REACTORS
330
538
102
}
330
1F
100
AcDbEntity
  8
LC-001-002-----0
 62
     7
370
    50
100
AcDbLine
 10
379.357996
 20
411.557849
 30
0.0
 11
379.357996
 21
415.259411
 31
0.0
  0
LINE
  5
28E
102
{ACAD_REACTORS
330
538
102
}
330
1F
100
AcDbEntity
  8
LC-001-002-----0
 62
     7
370
    50
100
AcDbLine
 10
378.857996
 20
411.519025
 30
0.0
 11
378.857996
 21
415.259411
 31
0.0
  0
LINE
  5
28F
102
{ACAD_REACTORS
330
538
102
}
330
1F
100
AcDbEntity
  8
LC-001-002-----0
 62
     7
370
    50
100
AcDbLine
 10
382.800303
 20
411.825136
 30
0.0
 11
382.800303
 21
415.259411
 31
0.0
  0
LINE
  5
290
102
{ACAD_REACTORS
330
538
102
}
330
1F
100
AcDbEntity
  8
LC-001-002-----0
 62
     7
370
    50
100
AcDbLine
 10
382.300303
 20
411.786312
 30
0.0
 11
382.300303
 21
415.259411
 31
0.0
  0
LINE
  5
291
102
{ACAD_REACTORS
330
538
102
}
330
1F
100
AcDbEntity
  8
LC-001-002-----0
 62
     7
370
    50
100
AcDbLine
 10
386.242611
 20
412.092423
 30
0.0
 11
386.242611
 21
415.259411
 31
0.0
  0
LINE
  5
292
102
{ACAD_REACTORS
330
538
102
}
330
1F
100
AcDbEntity
  8
LC-001-002-----0
 62
     7
370
    50
100
AcDbLine
 10
385.742611
 20
412.053599
 30
0.0
 11
385.742611
 21
415.259411
 31
0.0
  0
LINE
  5
293
102
{ACAD_REACTORS
330
538
102
}
330
1F
100
AcDbEntity
  8
LC-001-002-----0
 62
     7
370
    50
100
AcDbLine
 10
203.742611
 20
295.259411
 30
0.0
 11
203.742611
 21
294.259411
 31
0.0
  0
LINE
  5
294
102
{ACAD_REACTORS
330
538
102
}
330
1F
100
AcDbEntity
  8
LC-001-002-----0
 62
     7
370
    50
100
AcDbLine
 10
203.742611
 20
300.259411
 30
0.0
 11
203.742611
 21
299.259411
 31
0.0
  0
LINE
  5
295
102
{ACAD_REACTORS
330
538
102
}
330
1F
100
AcDbEntity
  8
LC-001-002-----0
 62
     7
370
    50
100
AcDbLine
 10
203.742611
 20
305.259411
 30
0.0
 11
203.742611
 21
304.259411
 31
0.0
  0
LINE
  5
296
102
{ACAD_REACTORS
330
538
102
}
330
1F
100
AcDbEntity
  8
LC-001-002-----0
 62
     7
370
    50
100
AcDbLine
 10
203.742611
 20
310.259411
 30
0.0
 11
203.742611
 21
309.259411
 31
0.0
  0
LINE
  5
297
102
{ACAD_REACTORS
330
538
102
}
330
1F
100
AcDbEntity
  8
LC-001-002-----0
 62
     7
370
    50
100
AcDbLine
 10
203.742611
 20
315.259411
 30
0.0
 11
203.742611
 21
314.259411
 31
0.0
  0
LINE
  5
298
102
{ACAD_REACTORS
330
538
102
}
330
1F
100
AcDbEntity
  8
LC-001-002-----0
 62
     7
370
    50
100
AcDbLine
 10
203.742611
 20
320.259411
 30
0.0
 11
203.742611
 21
319.259411
 31
0.0
  0
LINE
  5
299
102
{ACAD_REACTORS
330
538
102
}
330
1F
100
AcDbEntity
  8
LC-001-002-----0
 62
     7
370
    50
100
AcDbLine
 10
203.742611
 20
325.259411
 30
0.0
 11
203.742611
 21
324.259411
 31
0.0
  0
LINE
  5
29A
102
{ACAD_REACTORS
330
538
102
}
330
1F
100
AcDbEntity
  8
LC-001-002-----0
 62
     7
370
    50
100
AcDbLine
 10
203.742611
 20
330.259411
 30
0.0
 11
203.742611
 21
329.259411
 31
0.0
  0
LINE
  5
29B
102
{ACAD_REACTORS
330
538
102
}
330
1F
100
AcDbEntity
  8
LC-001-002-----0
 62
     7
370
    50
100
AcDbLine
 10
203.742611
 20
335.259411
 30
0.0
 11
203.742611
 21
334.259411
 31
0.0
  0
LINE
  5
29C
102
{ACAD_REACTORS
330
538
102
}
330
1F
100
AcDbEntity
  8
LC-001-002-----0
 62
     7
370
    50
100
AcDbLine
 10
203.742611
 20
340.259411
 30
0.0
 11
203.742611
 21
339.259411
 31
0.0
  0
LINE
  5
29D
102
{ACAD_REACTORS
330
538
102
}
330
1F
100
AcDbEntity
  8
LC-001-002-----0
 62
     7
370
    50
100
AcDbLine
 10
203.742611
 20
345.259411
 30
0.0
 11
203.742611
 21
344.259411
 31
0.0
  0
LINE
  5
29E
102
{ACAD_REACTORS
330
538
102
}
330
1F
100
AcDbEntity
  8
LC-001-002-----0
 62
     7
370
    50
100
AcDbLine
 10
203.742611
 20
350.259411
 30
0.0
 11
203.742611
 21
349.259411
 31
0.0
  0
LINE
  5
29F
102
{ACAD_REACTORS
330
538
102
}
330
1F
100
AcDbEntity
  8
LC-001-002-----0
 62
     7
370
    50
100
AcDbLine
 10
203.742611
 20
355.259411
 30
0.0
 11
203.742611
 21
354.259411
 31
0.0
  0
LINE
  5
2A0
102
{ACAD_REACTORS
330
538
102
}
330
1F
100
AcDbEntity
  8
LC-001-002-----0
 62
     7
370
    50
100
AcDbLine
 10
203.742611
 20
360.259411
 30
0.0
 11
203.742611
 21
359.259411
 31
0.0
  0
LINE
  5
2A1
102
{ACAD_REACTORS
330
538
102
}
330
1F
100
AcDbEntity
  8
LC-001-002-----0
 62
     7
370
    50
100
AcDbLine
 10
203.742611
 20
365.259411
 30
0.0
 11
203.742611
 21
364.259411
 31
0.0
  0
LINE
  5
2A2
102
{ACAD_REACTORS
330
538
102
}
330
1F
100
AcDbEntity
  8
LC-001-002-----0
 62
     7
370
    50
100
AcDbLine
 10
203.742611
 20
370.259411
 30
0.0
 11
203.742611
 21
369.259411
 31
0.0
  0
LINE
  5
2A3
102
{ACAD_REACTORS
330
538
102
}
330
1F
100
AcDbEntity
  8
LC-001-002-----0
 62
     7
370
    50
100
AcDbLine
 10
203.742611
 20
375.259411
 30
0.0
 11
203.742611
 21
374.259411
 31
0.0
  0
LINE
  5
2A4
102
{ACAD_REACTORS
330
538
102
}
330
1F
100
AcDbEntity
  8
LC-001-002-----0
 62
     7
370
    50
100
AcDbLine
 10
203.742611
 20
380.259411
 30
0.0
 11
203.742611
 21
379.259411
 31
0.0
  0
LINE
  5
2A5
102
{ACAD_REACTORS
330
538
102
}
330
1F
100
AcDbEntity
  8
LC-001-002-----0
 62
     7
370
    50
100
AcDbLine
 10
203.742611
 20
385.259411
 30
0.0
 11
203.742611
 21
384.259411
 31
0.0
  0
LINE
  5
2A6
102
{ACAD_REACTORS
330
538
102
}
330
1F
100
AcDbEntity
  8
LC-001-002-----0
 62
     7
370
    50
100
AcDbLine
 10
203.742611
 20
390.259411
 30
0.0
 11
203.742611
 21
389.259411
 31
0.0
  0
LINE
  5
2A7
102
{ACAD_REACTORS
330
538
102
}
330
1F
100
AcDbEntity
  8
LC-001-002-----0
 62
     7
370
    50
100
AcDbLine
 10
203.742611
 20
395.259411
 30
0.0
 11
203.742611
 21
394.259411
 31
0.0
  0
LINE
  5
2A8
102
{ACAD_REACTORS
330
538
102
}
330
1F
100
AcDbEntity
  8
LC-001-002-----0
 62
     7
370
    50
100
AcDbLine
 10
203.742611
 20
400.259411
 30
0.0
 11
203.742611
 21
399.259411
 31
0.0
  0
LINE
  5
2A9
102
{ACAD_REACTORS
330
538
102
}
330
1F
100
AcDbEntity
  8
LC-001-002-----0
 62
     7
370
    50
100
AcDbLine
 10
203.742611
 20
405.259411
 30
0.0
 11
203.742611
 21
404.259411
 31
0.0
  0
LINE
  5
2AA
102
{ACAD_REACTORS
330
538
102
}
330
1F
100
AcDbEntity
  8
LC-001-002-----0
 62
     7
370
    50
100
AcDbLine
 10
203.742611
 20
410.259411
 30
0.0
 11
203.742611
 21
409.259411
 31
0.0
  0
LINE
  5
2AB
102
{ACAD_REACTORS
330
538
102
}
330
1F
100
AcDbEntity
  8
LC-001-002-----0
 62
     7
370
    50
100
AcDbLine
 10
207.242611
 20
414.259411
 30
0.0
 11
210.184919
 21
414.259411
 31
0.0
  0
LINE
  5
2AC
102
{ACAD_REACTORS
330
538
102
}
330
1F
100
AcDbEntity
  8
LC-001-002-----0
 62
     7
370
    50
100
AcDbLine
 10
207.242611
 20
410.259411
 30
0.0
 11
210.184919
 21
410.259411
 31
0.0
  0
LINE
  5
2AD
102
{ACAD_REACTORS
330
538
102
}
330
1F
100
AcDbEntity
  8
LC-001-002-----0
 62
     7
370
    50
100
AcDbLine
 10
206.742611
 20
410.259411
 30
0.0
 11
206.742611
 21
415.259411
 31
0.0
  0
LINE
  5
2AE
102
{ACAD_REACTORS
330
538
102
}
330
1F
100
AcDbEntity
  8
LC-001-002-----0
 62
     7
370
    50
100
AcDbLine
 10
207.242611
 20
410.259411
 30
0.0
 11
207.242611
 21
415.259411
 31
0.0
  0
LINE
  5
2AF
102
{ACAD_REACTORS
330
538
102
}
330
1F
100
AcDbEntity
  8
LC-001-002-----0
 62
     7
370
    50
100
AcDbLine
 10
207.242611
 20
409.259411
 30
0.0
 11
210.184919
 21
409.259411
 31
0.0
  0
LINE
  5
2B0
102
{ACAD_REACTORS
330
538
102
}
330
1F
100
AcDbEntity
  8
LC-001-002-----0
 62
     7
370
    50
100
AcDbLine
 10
210.684919
 20
414.259411
 30
0.0
 11
213.627226
 21
414.259411
 31
0.0
  0
LINE
  5
2B1
102
{ACAD_REACTORS
330
538
102
}
330
1F
100
AcDbEntity
  8
LC-001-002-----0
 62
     7
370
    50
100
AcDbLine
 10
214.127226
 20
414.259411
 30
0.0
 11
217.069534
 21
414.259411
 31
0.0
  0
LINE
  5
2B2
102
{ACAD_REACTORS
330
538
102
}
330
1F
100
AcDbEntity
  8
LC-001-002-----0
 62
     7
370
    50
100
AcDbLine
 10
217.569534
 20
414.259411
 30
0.0
 11
391.921251
 21
414.259411
 31
0.0
  0
LINE
  5
2B3
102
{ACAD_REACTORS
330
538
102
}
330
1F
100
AcDbEntity
  8
LC-001-002-----0
 62
     7
370
    50
100
AcDbLine
 10
217.569534
 20
410.259411
 30
0.0
 11
374.109621
 21
410.259411
 31
0.0
  0
LINE
  5
2B4
102
{ACAD_REACTORS
330
538
102
}
330
1F
100
AcDbEntity
  8
LC-001-002-----0
 62
     7
370
    50
100
AcDbLine
 10
217.569534
 20
409.259411
 30
0.0
 11
373.245192
 21
409.259411
 31
0.0
  0
LINE
  5
2B5
102
{ACAD_REACTORS
330
538
102
}
330
1F
100
AcDbEntity
  8
LC-001-002-----0
 62
     7
370
    50
100
AcDbLine
 10
214.127226
 20
410.259411
 30
0.0
 11
217.069534
 21
410.259411
 31
0.0
  0
LINE
  5
2B6
102
{ACAD_REACTORS
330
538
102
}
330
1F
100
AcDbEntity
  8
LC-001-002-----0
 62
     7
370
    50
100
AcDbLine
 10
214.127226
 20
409.259411
 30
0.0
 11
217.069534
 21
409.259411
 31
0.0
  0
LINE
  5
2B7
102
{ACAD_REACTORS
330
538
102
}
330
1F
100
AcDbEntity
  8
LC-001-002-----0
 62
     7
370
    50
100
AcDbLine
 10
210.684919
 20
410.259411
 30
0.0
 11
213.627226
 21
410.259411
 31
0.0
  0
LINE
  5
2B8
102
{ACAD_REACTORS
330
538
102
}
330
1F
100
AcDbEntity
  8
LC-001-002-----0
 62
     7
370
    50
100
AcDbLine
 10
210.684919
 20
409.259411
 30
0.0
 11
213.627226
 21
409.259411
 31
0.0
  0
LINE
  5
2B9
102
{ACAD_REACTORS
330
538
102
}
330
1F
100
AcDbEntity
  8
LC-001-002-----0
 62
     7
370
    50
100
AcDbLine
 10
207.242611
 20
405.259411
 30
0.0
 11
210.184919
 21
405.259411
 31
0.0
  0
LINE
  5
2BA
102
{ACAD_REACTORS
330
538
102
}
330
1F
100
AcDbEntity
  8
LC-001-002-----0
 62
     7
370
    50
100
AcDbLine
 10
207.242611
 20
404.259411
 30
0.0
 11
210.184919
 21
404.259411
 31
0.0
  0
LINE
  5
2BB
102
{ACAD_REACTORS
330
538
102
}
330
1F
100
AcDbEntity
  8
LC-001-002-----0
 62
     7
370
    50
100
AcDbLine
 10
210.684919
 20
405.259411
 30
0.0
 11
213.627226
 21
405.259411
 31
0.0
  0
LINE
  5
2BC
102
{ACAD_REACTORS
330
538
102
}
330
1F
100
AcDbEntity
  8
LC-001-002-----0
 62
     7
370
    50
100
AcDbLine
 10
210.684919
 20
404.259411
 30
0.0
 11
213.627226
 21
404.259411
 31
0.0
  0
LINE
  5
2BD
102
{ACAD_REACTORS
330
538
102
}
330
1F
100
AcDbEntity
  8
LC-001-002-----0
 62
     7
370
    50
100
AcDbLine
 10
214.127226
 20
405.259411
 30
0.0
 11
217.069534
 21
405.259411
 31
0.0
  0
LINE
  5
2BE
102
{ACAD_REACTORS
330
538
102
}
330
1F
100
AcDbEntity
  8
LC-001-002-----0
 62
     7
370
    50
100
AcDbLine
 10
214.127226
 20
404.259411
 30
0.0
 11
217.069534
 21
404.259411
 31
0.0
  0
LINE
  5
2BF
102
{ACAD_REACTORS
330
538
102
}
330
1F
100
AcDbEntity
  8
LC-001-002-----0
 62
     7
370
    50
100
AcDbLine
 10
217.569534
 20
405.259411
 30
0.0
 11
369.787474
 21
405.259411
 31
0.0
  0
LINE
  5
2C0
102
{ACAD_REACTORS
330
538
102
}
330
1F
100
AcDbEntity
  8
LC-001-002-----0
 62
     7
370
    50
100
AcDbLine
 10
217.569534
 20
404.259411
 30
0.0
 11
368.923045
 21
404.259411
 31
0.0
  0
LINE
  5
2C1
102
{ACAD_REACTORS
330
538
102
}
330
1F
100
AcDbEntity
  8
LC-001-002-----0
 62
     7
370
    50
100
AcDbLine
 10
214.127226
 20
400.259411
 30
0.0
 11
365.465327
 21
400.259411
 31
0.0
  0
LINE
  5
2C2
102
{ACAD_REACTORS
330
538
102
}
330
1F
100
AcDbEntity
  8
LC-001-002-----0
 62
     7
370
    50
100
AcDbLine
 10
214.127226
 20
399.259411
 30
0.0
 11
364.600898
 21
399.259411
 31
0.0
  0
LINE
  5
2C3
102
{ACAD_REACTORS
330
538
102
}
330
1F
100
AcDbEntity
  8
LC-001-002-----0
 62
     7
370
    50
100
AcDbLine
 10
210.684919
 20
400.259411
 30
0.0
 11
213.627226
 21
400.259411
 31
0.0
  0
LINE
  5
2C4
102
{ACAD_REACTORS
330
538
102
}
330
1F
100
AcDbEntity
  8
LC-001-002-----0
 62
     7
370
    50
100
AcDbLine
 10
210.684919
 20
399.259411
 30
0.0
 11
213.627226
 21
399.259411
 31
0.0
  0
LINE
  5
2C5
102
{ACAD_REACTORS
330
538
102
}
330
1F
100
AcDbEntity
  8
LC-001-002-----0
 62
     7
370
    50
100
AcDbLine
 10
207.242611
 20
400.259411
 30
0.0
 11
210.184919
 21
400.259411
 31
0.0
  0
LINE
  5
2C6
102
{ACAD_REACTORS
330
538
102
}
330
1F
100
AcDbEntity
  8
LC-001-002-----0
 62
     7
370
    50
100
AcDbLine
 10
207.242611
 20
399.259411
 30
0.0
 11
210.184919
 21
399.259411
 31
0.0
  0
LINE
  5
2C7
330
1F
100
AcDbEntity
  8
LC-001-002-----0
  6
DASHDOT
 62
     7
370
    25
100
AcDbLine
 10
203.742611
 20
165.259411
 30
0.0
 11
703.742611
 21
165.259411
 31
0.0
  0
LINE
  5
2C8
330
1F
100
AcDbEntity
  8
LC-001-002-----0
 62
     7
370
    50
100
AcDbLine
 10
374.098794
 20
634.530275
 30
0.0
 11
374.098794
 21
516.530275
 31
0.0
  0
LINE
  5
2C9
330
1F
100
AcDbEntity
  8
LC-001-002-----0
 62
     7
370
    25
100
AcDbLine
 10
355.686794
 20
515.530275
 30
0.0
 11
355.686794
 21
635.530275
 31
0.0
  0
LINE
  5
2CA
330
1F
100
AcDbEntity
  8
LC-001-002-----0
 62
     7
370
    25
100
AcDbLine
 10
372.510794
 20
515.530275
 30
0.0
 11
372.510794
 21
635.530275
 31
0.0
  0
INSERT
  5
2FA
330
1F
100
AcDbEntity
  8
LC-003-005-----0
 62
     7
370
    25
100
AcDbBlockReference
  2
*X1314
 10
0.0
 20
0.0
 30
0.0
  0
LINE
  5
2FB
330
1F
100
AcDbEntity
  8
LC-001-002-----0
 62
     7
370
    50
100
AcDbLine
 10
373.098794
 20
635.530275
 30
0.0
 11
374.098794
 21
634.530275
 31
0.0
  0
LINE
  5
2FC
330
1F
100
AcDbEntity
  8
LC-001-002-----0
 62
     7
370
    50
100
AcDbLine
 10
355.098794
 20
515.530275
 30
0.0
 11
357.548794
 21
515.530275
 31
0.0
  0
LINE
  5
2FD
330
1F
100
AcDbEntity
  8
LC-001-002-----0
 62
     7
370
    50
100
AcDbLine
 10
374.098794
 20
516.530275
 30
0.0
 11
373.098794
 21
515.530275
 31
0.0
  0
LINE
  5
2FE
330
1F
100
AcDbEntity
  8
LC-001-002-----0
 62
     7
370
    50
100
AcDbLine
 10
354.098794
 20
516.530275
 30
0.0
 11
355.098794
 21
515.530275
 31
0.0
  0
LINE
  5
2FF
330
1F
100
AcDbEntity
  8
LC-001-002-----0
 62
     7
370
    50
100
AcDbLine
 10
354.098794
 20
634.530275
 30
0.0
 11
355.098794
 21
635.530275
 31
0.0
  0
LINE
  5
300
330
1F
100
AcDbEntity
  8
LC-001-002-----0
 62
     7
370
    50
100
AcDbLine
 10
357.948794
 20
524.471586
 30
0.0
 11
357.948794
 21
635.030275
 31
0.0
  0
LINE
  5
301
330
1F
100
AcDbEntity
  8
LC-001-002-----0
 62
     7
370
    50
100
AcDbLine
 10
357.548794
 20
635.530275
 30
0.0
 11
355.098794
 21
635.530275
 31
0.0
  0
LINE
  5
302
330
1F
100
AcDbEntity
  8
LC-001-002-----0
 62
     7
370
    50
100
AcDbLine
 10
373.098794
 20
635.530275
 30
0.0
 11
370.648794
 21
635.530275
 31
0.0
  0
LINE
  5
303
330
1F
100
AcDbEntity
  8
LC-001-002-----0
 62
     7
370
    50
100
AcDbLine
 10
370.248794
 20
635.030275
 30
0.0
 11
370.248794
 21
524.471586
 31
0.0
  0
INSERT
  5
332
330
1F
100
AcDbEntity
  8
LC-003-005-----0
 62
     7
370
    25
100
AcDbBlockReference
  2
*X1415
 10
0.0
 20
0.0
 30
0.0
  0
LINE
  5
333
330
1F
100
AcDbEntity
  8
LC-001-002-----0
 62
     7
370
    50
100
AcDbLine
 10
373.098794
 20
515.530275
 30
0.0
 11
370.648794
 21
515.530275
 31
0.0
  0
LINE
  5
334
330
1F
100
AcDbEntity
  8
LC-001-002-----0
 62
     7
370
    50
100
AcDbLine
 10
370.648794
 20
515.530275
 30
0.0
 11
357.548794
 21
515.530275
 31
0.0
  0
LINE
  5
335
330
1F
100
AcDbEntity
  8
LC-001-002-----0
 62
     7
370
    50
100
AcDbLine
 10
354.098794
 20
516.530275
 30
0.0
 11
354.098794
 21
634.530275
 31
0.0
  0
LINE
  5
336
330
1F
100
AcDbEntity
  8
LC-001-002-----0
 62
     7
370
    50
100
AcDbLine
 10
357.948794
 20
635.030275
 30
0.0
 11
357.448794
 21
635.530275
 31
0.0
  0
LINE
  5
337
330
1F
100
AcDbEntity
  8
LC-001-002-----0
 62
     7
370
    50
100
AcDbLine
 10
370.748794
 20
635.530275
 30
0.0
 11
370.248794
 21
635.030275
 31
0.0
  0
ARC
  5
338
330
1F
100
AcDbEntity
  8
LC-004-002-RND-0
 62
     7
370
    50
100
AcDbCircle
 10
355.098794
 20
514.971586
 30
0.0
 40
0.5
100
AcDbArc
 50
90.0
 51
180.0
  0
LINE
  5
339
330
1F
100
AcDbEntity
  8
LC-001-002-----0
 62
     7
370
    50
100
AcDbLine
 10
368.098794
 20
525.471586
 30
0.0
 11
364.098794
 21
525.471586
 31
0.0
  0
LINE
  5
33A
330
1F
100
AcDbEntity
  8
LC-001-002-----0
 62
     7
370
    50
100
AcDbLine
 10
370.098794
 20
524.471586
 30
0.0
 11
357.703524
 21
524.471586
 31
0.0
  0
LINE
  5
33B
330
1F
100
AcDbEntity
  8
LC-001-002-----0
  6
DASHDOT
 62
     7
370
    25
100
AcDbLine
 10
364.098794
 20
638.472011
 30
0.0
 11
364.098794
 21
507.471586
 31
0.0
  0
LINE
  5
33C
330
1F
100
AcDbEntity
  8
LC-001-002-----0
 62
     7
370
    50
100
AcDbLine
 10
364.098794
 20
507.471586
 30
0.0
 11
354.598794
 21
507.471586
 31
0.0
  0
LINE
  5
33D
330
1F
100
AcDbEntity
  8
LC-001-002-----0
 62
     7
370
    50
100
AcDbLine
 10
357.598794
 20
518.471586
 30
0.0
 11
357.703524
 21
524.471586
 31
0.0
  0
LINE
  5
33E
330
1F
100
AcDbEntity
  8
LC-001-002-----0
 62
     7
370
    50
100
AcDbLine
 10
368.098794
 20
525.471586
 30
0.0
 11
370.098794
 21
525.471586
 31
0.0
  0
LINE
  5
33F
330
1F
100
AcDbEntity
  8
LC-001-002-----0
 62
     7
370
    50
100
AcDbLine
 10
358.098794
 20
525.471586
 30
0.0
 11
364.098794
 21
525.471586
 31
0.0
  0
LINE
  5
340
330
1F
100
AcDbEntity
  8
LC-001-002-----0
 62
     7
370
    50
100
AcDbLine
 10
370.598794
 20
518.471586
 30
0.0
 11
370.494063
 21
524.471586
 31
0.0
  0
LINE
  5
341
330
1F
100
AcDbEntity
  8
LC-001-002-----0
 62
     7
370
    50
100
AcDbLine
 10
370.598794
 20
515.471586
 30
0.0
 11
373.098794
 21
515.471586
 31
0.0
  0
LINE
  5
342
330
1F
100
AcDbEntity
  8
LC-001-002-----0
 62
     7
370
    50
100
AcDbLine
 10
373.598794
 20
514.971586
 30
0.0
 11
373.598794
 21
507.471586
 31
0.0
  0
LINE
  5
343
330
1F
100
AcDbEntity
  8
LC-001-002-----0
 62
     7
370
    50
100
AcDbLine
 10
373.598794
 20
507.471586
 30
0.0
 11
364.098794
 21
507.471586
 31
0.0
  0
LINE
  5
344
330
1F
100
AcDbEntity
  8
LC-001-002-----0
 62
     7
370
    50
100
AcDbLine
 10
354.598794
 20
507.471586
 30
0.0
 11
354.598794
 21
514.971586
 31
0.0
  0
LINE
  5
345
330
1F
100
AcDbEntity
  8
LC-001-002-----0
 62
     7
370
    50
100
AcDbLine
 10
355.098794
 20
515.471586
 30
0.0
 11
370.598794
 21
515.471586
 31
0.0
  0
LINE
  5
346
330
1F
100
AcDbEntity
  8
LC-001-002-----0
 62
     7
370
    50
100
AcDbLine
 10
358.098794
 20
525.471586
 30
0.0
 11
358.098794
 21
524.471586
 31
0.0
  0
LINE
  5
347
330
1F
100
AcDbEntity
  8
LC-001-002-----0
 62
     7
370
    50
100
AcDbLine
 10
370.598794
 20
515.471586
 30
0.0
 11
370.598794
 21
518.471586
 31
0.0
  0
ARC
  5
348
330
1F
100
AcDbEntity
  8
LC-004-002-RND-0
 62
     7
370
    50
100
AcDbCircle
 10
373.098794
 20
514.971586
 30
0.0
 40
0.5
100
AcDbArc
 50
0.0
 51
90.0
  0
LINE
  5
349
330
1F
100
AcDbEntity
  8
LC-001-002-----0
 62
     7
370
    50
100
AcDbLine
 10
357.598794
 20
515.471586
 30
0.0
 11
357.598794
 21
518.471586
 31
0.0
  0
LINE
  5
34A
330
1F
100
AcDbEntity
  8
LC-001-002-----0
 62
     7
370
    50
100
AcDbLine
 10
370.098794
 20
524.471586
 30
0.0
 11
370.494063
 21
524.471586
 31
0.0
  0
LINE
  5
34B
330
1F
100
AcDbEntity
  8
LC-001-002-----0
 62
     7
370
    50
100
AcDbLine
 10
370.098794
 20
525.471586
 30
0.0
 11
370.098794
 21
524.471586
 31
0.0
  0
LINE
  5
34C
330
1F
100
AcDbEntity
  8
LC-001-002-----0
 62
     7
370
    50
100
AcDbLine
 10
365.098794
 20
640.472011
 30
0.0
 11
378.098794
 21
640.472011
 31
0.0
  0
LINE
  5
34D
330
1F
100
AcDbEntity
  8
LC-001-002-----0
 62
     7
370
    50
100
AcDbLine
 10
370.640245
 20
638.472011
 30
0.0
 11
377.098794
 21
638.472011
 31
0.0
  0
ARC
  5
34E
330
1F
100
AcDbEntity
  8
LC-004-002-RND-0
 62
     7
370
    50
100
AcDbCircle
 10
351.098794
 20
639.472011
 30
0.0
 40
1.0
100
AcDbArc
 50
180.0
 51
270.0
  0
ARC
  5
34F
330
1F
100
AcDbEntity
  8
LC-004-002-RND-0
 62
     7
370
    50
100
AcDbCircle
 10
377.098794
 20
639.472011
 30
0.0
 40
1.0
100
AcDbArc
 50
270.0
 51
0.0
  0
LINE
  5
350
330
1F
100
AcDbEntity
  8
LC-001-002-----0
 62
     7
370
    50
100
AcDbLine
 10
350.098794
 20
640.472011
 30
0.0
 11
363.098794
 21
640.472011
 31
0.0
  0
LINE
  5
351
330
1F
100
AcDbEntity
  8
LC-001-002-----0
 62
     7
370
    50
100
AcDbLine
 10
351.098794
 20
638.472011
 30
0.0
 11
357.557342
 21
638.472011
 31
0.0
  0
LINE
  5
352
330
1F
100
AcDbEntity
  8
LC-001-002-----0
 62
     7
370
    50
100
AcDbLine
 10
350.098794
 20
640.472011
 30
0.0
 11
350.098794
 21
639.472011
 31
0.0
  0
LINE
  5
353
330
1F
100
AcDbEntity
  8
LC-001-002-----0
 62
     7
370
    50
100
AcDbLine
 10
378.098794
 20
640.472011
 30
0.0
 11
378.098794
 21
639.472011
 31
0.0
  0
LINE
  5
354
330
1F
100
AcDbEntity
  8
LC-001-002-----0
 62
     7
370
    50
100
AcDbLine
 10
357.557342
 20
638.472011
 30
0.0
 11
357.557342
 21
611.972011
 31
0.0
  0
LINE
  5
355
330
1F
100
AcDbEntity
  8
LC-001-002-----0
 62
     7
370
    50
100
AcDbLine
 10
370.640245
 20
638.472011
 30
0.0
 11
370.640245
 21
611.972011
 31
0.0
  0
LINE
  5
356
330
1F
100
AcDbEntity
  8
LC-001-002-----0
 62
     7
370
    50
100
AcDbLine
 10
361.098794
 20
610.972011
 30
0.0
 11
358.557342
 21
610.972011
 31
0.0
  0
LINE
  5
357
330
1F
100
AcDbEntity
  8
LC-001-002-----0
 62
     7
370
    50
100
AcDbLine
 10
357.557342
 20
611.972011
 30
0.0
 11
358.557342
 21
610.972011
 31
0.0
  0
LINE
  5
358
330
1F
100
AcDbEntity
  8
LC-001-002-----0
 62
     7
370
    50
100
AcDbLine
 10
370.640245
 20
611.972011
 30
0.0
 11
369.640245
 21
610.972011
 31
0.0
  0
LINE
  5
359
330
1F
100
AcDbEntity
  8
LC-001-002-----0
 62
     7
370
    50
100
AcDbLine
 10
363.098794
 20
640.472011
 30
0.0
 11
365.098794
 21
640.472011
 31
0.0
  0
LINE
  5
35A
330
1F
100
AcDbEntity
  8
LC-001-002-----0
 62
     7
370
    50
100
AcDbLine
 10
363.098794
 20
640.472011
 30
0.0
 11
363.098794
 21
638.472011
 31
0.0
  0
LINE
  5
35B
330
1F
100
AcDbEntity
  8
LC-001-002-----0
 62
     7
370
    50
100
AcDbLine
 10
363.098794
 20
638.472011
 30
0.0
 11
365.098794
 21
638.472011
 31
0.0
  0
LINE
  5
35C
330
1F
100
AcDbEntity
  8
LC-001-002-----0
 62
     7
370
    50
100
AcDbLine
 10
365.098794
 20
638.472011
 30
0.0
 11
365.098794
 21
640.472011
 31
0.0
  0
LINE
  5
35D
330
1F
100
AcDbEntity
  8
LC-001-002-----0
 62
     7
370
    50
100
AcDbLine
 10
361.098794
 20
637.472011
 30
0.0
 11
367.098794
 21
637.472011
 31
0.0
  0
LINE
  5
35E
330
1F
100
AcDbEntity
  8
LC-001-002-----0
 62
     7
370
    50
100
AcDbLine
 10
361.098794
 20
610.972011
 30
0.0
 11
361.098794
 21
637.472011
 31
0.0
  0
LINE
  5
35F
330
1F
100
AcDbEntity
  8
LC-001-002-----0
 62
     7
370
    50
100
AcDbLine
 10
367.098794
 20
637.472011
 30
0.0
 11
367.098794
 21
610.972011
 31
0.0
  0
LINE
  5
360
330
1F
100
AcDbEntity
  8
LC-001-002-----0
 62
     7
370
    50
100
AcDbLine
 10
374.098794
 20
608.971351
 30
0.0
 11
398.742611
 21
608.971351
 31
0.0
  0
INSERT
  5
379
330
1F
100
AcDbEntity
  8
LC-003-005-----0
 62
     7
370
    25
100
AcDbBlockReference
  2
*X1516
 10
0.0
 20
0.0
 30
0.0
  0
LINE
  5
37A
330
1F
100
AcDbEntity
  8
LC-001-002-----0
 62
     7
370
    50
100
AcDbLine
 10
544.742741
 20
515.530275
 30
0.0
 11
562.742741
 21
515.530275
 31
0.0
  0
LINE
  5
37B
330
1F
100
AcDbEntity
  8
LC-001-002-----0
 62
     7
370
    50
100
AcDbLine
 10
563.742741
 20
516.530275
 30
0.0
 11
562.742741
 21
515.530275
 31
0.0
  0
LINE
  5
37C
330
1F
100
AcDbEntity
  8
LC-001-002-----0
 62
     7
370
    50
100
AcDbLine
 10
543.742741
 20
516.530275
 30
0.0
 11
544.742741
 21
515.530275
 31
0.0
  0
ARC
  5
37D
330
1F
100
AcDbEntity
  8
LC-004-002-RND-0
 62
     7
370
    50
100
AcDbCircle
 10
544.742741
 20
514.971586
 30
0.0
 40
0.5
100
AcDbArc
 50
90.0
 51
180.0
  0
LINE
  5
37E
330
1F
100
AcDbEntity
  8
LC-001-002-----0
 62
     7
370
    50
100
AcDbLine
 10
562.742741
 20
515.471586
 30
0.0
 11
544.742741
 21
515.471586
 31
0.0
  0
LINE
  5
37F
330
1F
100
AcDbEntity
  8
LC-001-002-----0
 62
     7
370
    50
100
AcDbLine
 10
544.242741
 20
514.971586
 30
0.0
 11
544.242741
 21
507.471586
 31
0.0
  0
LINE
  5
380
330
1F
100
AcDbEntity
  8
LC-001-002-----0
 62
     7
370
    50
100
AcDbLine
 10
544.242741
 20
507.471586
 30
0.0
 11
563.242741
 21
507.471586
 31
0.0
  0
LINE
  5
381
330
1F
100
AcDbEntity
  8
LC-001-002-----0
 62
     7
370
    50
100
AcDbLine
 10
563.242741
 20
507.471586
 30
0.0
 11
563.242741
 21
514.971586
 31
0.0
  0
ARC
  5
382
330
1F
100
AcDbEntity
  8
LC-004-002-RND-0
 62
     7
370
    50
100
AcDbCircle
 10
562.742741
 20
514.971586
 30
0.0
 40
0.5
100
AcDbArc
 50
0.0
 51
90.0
  0
LINE
  5
383
330
1F
100
AcDbEntity
  8
LC-001-002-----0
 62
     7
370
    50
100
AcDbLine
 10
563.742741
 20
516.530275
 30
0.0
 11
563.742741
 21
610.97121
 31
0.0
  0
LINE
  5
384
330
1F
100
AcDbEntity
  8
LC-001-002-----0
  6
DASHDOT
 62
     7
370
    25
100
AcDbLine
 10
553.742741
 20
611.971616
 30
0.0
 11
553.742741
 21
507.971191
 31
0.0
  0
LINE
  5
385
330
1F
100
AcDbEntity
  8
LC-001-002-----0
 62
     7
370
    50
100
AcDbLine
 10
543.742741
 20
608.971345
 30
0.0
 11
543.742741
 21
516.530275
 31
0.0
  0
LINE
  5
386
102
{ACAD_REACTORS
330
54F
102
}
330
1F
100
AcDbEntity
  8
LC-003-005-----0
 62
     7
370
    25
100
AcDbLine
 10
385.590229
 20
608.971351
 30
0.0
 11
386.314676
 21
609.695799
 31
0.0
  0
LINE
  5
387
102
{ACAD_REACTORS
330
54F
102
}
330
1F
100
AcDbEntity
  8
LC-003-005-----0
 62
     7
370
    25
100
AcDbLine
 10
382.761802
 20
608.971351
 30
0.0
 11
385.147727
 21
611.357277
 31
0.0
  0
LINE
  5
388
102
{ACAD_REACTORS
330
54F
102
}
330
1F
100
AcDbEntity
  8
LC-003-005-----0
 62
     7
370
    25
100
AcDbLine
 10
379.933374
 20
608.971351
 30
0.0
 11
383.980778
 21
613.018754
 31
0.0
  0
LINE
  5
389
102
{ACAD_REACTORS
330
54F
102
}
330
1F
100
AcDbEntity
  8
LC-003-005-----0
 62
     7
370
    25
100
AcDbLine
 10
377.104947
 20
608.971351
 30
0.0
 11
382.813829
 21
614.680232
 31
0.0
  0
LINE
  5
38A
102
{ACAD_REACTORS
330
54F
102
}
330
1F
100
AcDbEntity
  8
LC-003-005-----0
 62
     7
370
    25
100
AcDbLine
 10
374.27652
 20
608.971351
 30
0.0
 11
376.277181
 21
610.972012
 31
0.0
  0
LINE
  5
38B
102
{ACAD_REACTORS
330
54F
102
}
330
1F
100
AcDbEntity
  8
LC-003-005-----0
 62
     7
370
    25
100
AcDbLine
 10
378.277181
 20
612.972012
 30
0.0
 11
381.646879
 21
616.34171
 31
0.0
  0
LINE
  5
38C
102
{ACAD_REACTORS
330
54F
102
}
330
1F
100
AcDbEntity
  8
LC-003-005-----0
 62
     7
370
    25
100
AcDbLine
 10
377.488316
 20
615.011574
 30
0.0
 11
380.47993
 21
618.003188
 31
0.0
  0
LINE
  5
38D
102
{ACAD_REACTORS
330
54F
102
}
330
1F
100
AcDbEntity
  8
LC-003-005-----0
 62
     7
370
    25
100
AcDbLine
 10
377.488316
 20
617.840001
 30
0.0
 11
379.312981
 21
619.664666
 31
0.0
  0
LINE
  5
38E
102
{ACAD_REACTORS
330
54F
102
}
330
1F
100
AcDbEntity
  8
LC-003-005-----0
 62
     7
370
    25
100
AcDbLine
 10
377.488316
 20
620.668429
 30
0.0
 11
379.293306
 21
622.473418
 31
0.0
  0
LINE
  5
38F
102
{ACAD_REACTORS
330
54F
102
}
330
1F
100
AcDbEntity
  8
LC-003-005-----0
 62
     7
370
    25
100
AcDbLine
 10
377.488316
 20
623.496856
 30
0.0
 11
380.16766
 21
626.176199
 31
0.0
  0
LINE
  5
390
102
{ACAD_REACTORS
330
54F
102
}
330
1F
100
AcDbEntity
  8
LC-003-005-----0
 62
     7
370
    25
100
AcDbLine
 10
377.488316
 20
626.325283
 30
0.0
 11
381.042014
 21
629.87898
 31
0.0
  0
LINE
  5
391
102
{ACAD_REACTORS
330
54F
102
}
330
1F
100
AcDbEntity
  8
LC-003-005-----0
 62
     7
370
    25
100
AcDbLine
 10
377.488316
 20
629.15371
 30
0.0
 11
381.916367
 21
633.581761
 31
0.0
  0
LINE
  5
392
102
{ACAD_REACTORS
330
54F
102
}
330
1F
100
AcDbEntity
  8
LC-003-005-----0
 62
     7
370
    25
100
AcDbLine
 10
377.488316
 20
631.982137
 30
0.0
 11
379.977615
 21
634.471436
 31
0.0
  0
LINE
  5
393
102
{ACAD_REACTORS
330
54F
102
}
330
1F
100
AcDbEntity
  8
LC-003-005-----0
 62
     7
370
    25
100
AcDbLine
 10
353.648966
 20
610.971214
 30
0.0
 11
353.649763
 21
610.972011
 31
0.0
  0
LINE
  5
394
102
{ACAD_REACTORS
330
54F
102
}
330
1F
100
AcDbEntity
  8
LC-003-005-----0
 62
     7
370
    25
100
AcDbLine
 10
350.820538
 20
610.971213
 30
0.0
 11
350.821336
 21
610.972011
 31
0.0
  0
LINE
  5
395
102
{ACAD_REACTORS
330
54F
102
}
330
1F
100
AcDbEntity
  8
LC-003-005-----0
 62
     7
370
    25
100
AcDbLine
 10
347.99211
 20
610.971212
 30
0.0
 11
348.988316
 21
611.967419
 31
0.0
  0
LINE
  5
396
102
{ACAD_REACTORS
330
54F
102
}
330
1F
100
AcDbEntity
  8
LC-003-005-----0
 62
     7
370
    25
100
AcDbLine
 10
349.992909
 20
612.972011
 30
0.0
 11
350.488316
 21
613.467419
 31
0.0
  0
LINE
  5
397
102
{ACAD_REACTORS
330
54F
102
}
330
1F
100
AcDbEntity
  8
LC-003-005-----0
 62
     7
370
    25
100
AcDbLine
 10
345.163682
 20
610.971211
 30
0.0
 11
350.488316
 21
616.295846
 31
0.0
  0
LINE
  5
398
102
{ACAD_REACTORS
330
54F
102
}
330
1F
100
AcDbEntity
  8
LC-003-005-----0
 62
     7
370
    25
100
AcDbLine
 10
342.335254
 20
610.97121
 30
0.0
 11
350.488316
 21
619.124273
 31
0.0
  0
LINE
  5
399
102
{ACAD_REACTORS
330
54F
102
}
330
1F
100
AcDbEntity
  8
LC-003-005-----0
 62
     7
370
    25
100
AcDbLine
 10
339.506826
 20
610.971209
 30
0.0
 11
350.488316
 21
621.9527
 31
0.0
  0
LINE
  5
39A
102
{ACAD_REACTORS
330
54F
102
}
330
1F
100
AcDbEntity
  8
LC-003-005-----0
 62
     7
370
    25
100
AcDbLine
 10
336.678397
 20
610.971208
 30
0.0
 11
350.488316
 21
624.781127
 31
0.0
  0
LINE
  5
39B
102
{ACAD_REACTORS
330
54F
102
}
330
1F
100
AcDbEntity
  8
LC-003-005-----0
 62
     7
370
    25
100
AcDbLine
 10
333.849969
 20
610.971207
 30
0.0
 11
350.488316
 21
627.609554
 31
0.0
  0
LINE
  5
39C
102
{ACAD_REACTORS
330
54F
102
}
330
1F
100
AcDbEntity
  8
LC-003-005-----0
 62
     7
370
    25
100
AcDbLine
 10
331.021541
 20
610.971206
 30
0.0
 11
350.488316
 21
630.437981
 31
0.0
  0
LINE
  5
39D
102
{ACAD_REACTORS
330
54F
102
}
330
1F
100
AcDbEntity
  8
LC-003-005-----0
 62
     7
370
    25
100
AcDbLine
 10
328.608591
 20
611.386683
 30
0.0
 11
350.488316
 21
633.266408
 31
0.0
  0
LINE
  5
39E
102
{ACAD_REACTORS
330
54F
102
}
330
1F
100
AcDbEntity
  8
LC-003-005-----0
 62
     7
370
    25
100
AcDbLine
 10
327.91875
 20
613.525269
 30
0.0
 11
350.488316
 21
636.094835
 31
0.0
  0
LINE
  5
39F
102
{ACAD_REACTORS
330
54F
102
}
330
1F
100
AcDbEntity
  8
LC-003-005-----0
 62
     7
370
    25
100
AcDbLine
 10
327.228908
 20
615.663855
 30
0.0
 11
350.037065
 21
638.472011
 31
0.0
  0
LINE
  5
3A0
102
{ACAD_REACTORS
330
54F
102
}
330
1F
100
AcDbEntity
  8
LC-003-005-----0
 62
     7
370
    25
100
AcDbLine
 10
326.539067
 20
617.802441
 30
0.0
 11
348.678759
 21
639.942132
 31
0.0
  0
LINE
  5
3A1
102
{ACAD_REACTORS
330
54F
102
}
330
1F
100
AcDbEntity
  8
LC-003-005-----0
 62
     7
370
    25
100
AcDbLine
 10
325.849226
 20
619.941027
 30
0.0
 11
329.379372
 21
623.471173
 31
0.0
  0
LINE
  5
3A2
102
{ACAD_REACTORS
330
54F
102
}
330
1F
100
AcDbEntity
  8
LC-003-005-----0
 62
     7
370
    25
100
AcDbLine
 10
330.1678
 20
624.259601
 30
0.0
 11
347.880149
 21
641.97195
 31
0.0
  0
LINE
  5
3A3
102
{ACAD_REACTORS
330
54F
102
}
330
1F
100
AcDbEntity
  8
LC-003-005-----0
 62
     7
370
    25
100
AcDbLine
 10
325.159385
 20
622.079613
 30
0.0
 11
326.550945
 21
623.471173
 31
0.0
  0
LINE
  5
3A4
102
{ACAD_REACTORS
330
54F
102
}
330
1F
100
AcDbEntity
  8
LC-003-005-----0
 62
     7
370
    25
100
AcDbLine
 10
329.550945
 20
626.471173
 30
0.0
 11
345.051731
 21
641.971959
 31
0.0
  0
LINE
  5
3A5
102
{ACAD_REACTORS
330
54F
102
}
330
1F
100
AcDbEntity
  8
LC-003-005-----0
 62
     7
370
    25
100
AcDbLine
 10
326.722518
 20
626.471173
 30
0.0
 11
342.223313
 21
641.971968
 31
0.0
  0
LINE
  5
3A6
102
{ACAD_REACTORS
330
54F
102
}
330
1F
100
AcDbEntity
  8
LC-003-005-----0
 62
     7
370
    25
100
AcDbLine
 10
323.894091
 20
626.471173
 30
0.0
 11
339.394895
 21
641.971977
 31
0.0
  0
LINE
  5
3A7
102
{ACAD_REACTORS
330
54F
102
}
330
1F
100
AcDbEntity
  8
LC-003-005-----0
 62
     7
370
    25
100
AcDbLine
 10
325.017127
 20
630.422636
 30
0.0
 11
336.566477
 21
641.971986
 31
0.0
  0
LINE
  5
3A8
102
{ACAD_REACTORS
330
54F
102
}
330
1F
100
AcDbEntity
  8
LC-003-005-----0
 62
     7
370
    25
100
AcDbLine
 10
326.364066
 20
634.598002
 30
0.0
 11
333.738059
 21
641.971995
 31
0.0
  0
LINE
  5
3A9
102
{ACAD_REACTORS
330
54F
102
}
330
1F
100
AcDbEntity
  8
LC-003-005-----0
 62
     7
370
    25
100
AcDbLine
 10
327.711005
 20
638.773368
 30
0.0
 11
330.909641
 21
641.972004
 31
0.0
  0
DIMENSION
  5
3AA
330
1F
100
AcDbEntity
  8
LC-005-003-----0
 62
     7
370
    25
100
AcDbDimension
  2
*D17
 10
508.742611
 20
554.416
 30
0.0
 11
448.4054
 21
585.216
 31
0.0
 70
   160
  1
%%c<>
 71
     5
 42
110.0
  3
LC-DIM-L-0140-02-02
100
AcDbAlignedDimension
 13
398.742611
 23
507.998482
 33
0.0
 14
508.742611
 24
507.998482
 34
0.0
100
AcDbRotatedDimension
  0
DIMENSION
  5
3B7
330
1F
100
AcDbEntity
  8
LC-005-003-----0
 62
     7
370
    25
100
AcDbDimension
  2
*D18
 10
280.0
 20
641.971238
 30
0.0
 11
249.2
 21
605.86926
 31
0.0
 70
   160
 71
     5
 42
32.999898
 53
90.0
  3
LC-DIM-L-0140-02-02
100
AcDbAlignedDimension
 13
353.742482
 23
608.97134
 33
0.0
 14
328.742611
 24
641.971238
 34
0.0
 50
90.0
100
AcDbRotatedDimension
  0
DIMENSION
  5
3C5
330
1F
100
AcDbEntity
  8
LC-005-003-----0
 62
     7
370
    25
100
AcDbDimension
  2
*D19
 10
583.742611
 20
751.624
 30
0.0
 11
485.20891
 21
782.424
 31
0.0
 70
   160
  1
260
 71
     5
 42
259.84852
  3
LC-DIM-L-0140-02-02
100
AcDbAlignedDimension
 13
323.894091
 23
626.471173
 33
0.0
 14
583.742611
 24
626.471773
 34
0.0
100
AcDbRotatedDimension
  0
DIMENSION
  5
3D2
330
1F
100
AcDbEntity
  8
LC-005-003-----0
 62
     7
370
    25
100
AcDbDimension
  2
*D20
 10
578.742819
 20
707.073685
 30
0.0
 11
480.09741
 21
737.874
 31
0.0
 70
   160
 71
     5
 42
249.99975
 53
359.999817
  3
LC-DIM-L-0140-02-02
100
AcDbAlignedDimension
 13
328.742861
 23
641.972011
 33
0.0
 14
578.742611
 24
641.971238
 34
0.0
 50
359.999817
100
AcDbRotatedDimension
  0
LINE
  5
3DF
330
1F
100
AcDbEntity
  8
LC-001-002-----0
 62
     7
370
    25
100
AcDbLine
 10
408.568185
 20
733.251219
 30
0.0
 11
408.568185
 21
718.251219
 31
0.0
  0
LINE
  5
3E0
330
1F
100
AcDbEntity
  8
LC-001-002-----0
 62
     7
370
    25
100
AcDbLine
 10
408.568185
 20
718.251219
 30
0.0
 11
423.568185
 21
718.251219
 31
0.0
  0
LINE
  5
3E1
330
1F
100
AcDbEntity
  8
LC-001-002-----0
 62
     7
370
    25
100
AcDbLine
 10
423.568185
 20
718.251219
 30
0.0
 11
423.568185
 21
733.251219
 31
0.0
  0
LINE
  5
3E2
330
1F
100
AcDbEntity
  8
LC-001-002-----0
 62
     7
370
    25
100
AcDbLine
 10
423.568185
 20
733.251219
 30
0.0
 11
408.568185
 21
733.251219
 31
0.0
  0
LINE
  5
3E3
330
1F
100
AcDbEntity
  8
LC-001-002-----0
 62
     7
370
    25
100
AcDbLine
 10
408.643575
 20
769.952624
 30
0.0
 11
408.643575
 21
754.952624
 31
0.0
  0
LINE
  5
3E4
330
1F
100
AcDbEntity
  8
LC-001-002-----0
 62
     7
370
    25
100
AcDbLine
 10
408.643575
 20
754.952624
 30
0.0
 11
423.643575
 21
754.952624
 31
0.0
  0
LINE
  5
3E5
330
1F
100
AcDbEntity
  8
LC-001-002-----0
 62
     7
370
    25
100
AcDbLine
 10
423.643575
 20
754.952624
 30
0.0
 11
423.643575
 21
769.952624
 31
0.0
  0
LINE
  5
3E6
330
1F
100
AcDbEntity
  8
LC-001-002-----0
 62
     7
370
    25
100
AcDbLine
 10
423.643575
 20
769.952624
 30
0.0
 11
408.643575
 21
769.952624
 31
0.0
  0
LINE
  5
3E7
330
1F
100
AcDbEntity
  8
LC-002-006-MLN-0
 62
     7
370
    25
100
AcDbLine
 10
453.742611
 20
539.468
 30
0.0
 11
453.742611
 21
468.254351
 31
0.0
  0
LINE
  5
3E8
330
1F
100
AcDbEntity
  8
LC-001-002-----0
 62
     7
370
    50
100
AcDbLine
 10
536.243281
 20
634.471414
 30
0.0
 11
538.743255
 21
634.471414
 31
0.0
  0
LINE
  5
3E9
330
1F
100
AcDbEntity
  8
LC-001-002-----0
  6
DASHDOT
 62
     7
370
    25
100
AcDbLine
 10
453.742611
 20
441.889197
 30
0.0
 11
453.742611
 21
436.889197
 31
0.0
  0
LINE
  5
3EA
102
{ACAD_REACTORS
330
547
102
}
330
1F
100
AcDbEntity
  8
LC-001-002-----0
 62
     7
370
    50
100
AcDbLine
 10
395.992611
 20
439.889197
 30
0.0
 11
395.992611
 21
436.889197
 31
0.0
  0
LINE
  5
3EB
102
{ACAD_REACTORS
330
547
102
}
330
1F
100
AcDbEntity
  8
LC-001-002-----0
 62
     7
370
    50
100
AcDbLine
 10
505.792611
 20
441.889197
 30
0.0
 11
505.792611
 21
436.889197
 31
0.0
  0
LINE
  5
3EC
102
{ACAD_REACTORS
330
547
102
}
330
1F
100
AcDbEntity
  8
LC-001-002-----0
 62
     7
370
    50
100
AcDbLine
 10
394.492611
 20
436.889197
 30
0.0
 11
512.992611
 21
436.889197
 31
0.0
  0
LINE
  5
3ED
102
{ACAD_REACTORS
330
547
102
}
330
1F
100
AcDbEntity
  8
LC-001-002-----0
 62
     7
370
    50
100
AcDbLine
 10
394.492611
 20
441.889197
 30
0.0
 11
401.992611
 21
441.889197
 31
0.0
  0
LINE
  5
3EE
102
{ACAD_REACTORS
330
547
102
}
330
1F
100
AcDbEntity
  8
LC-001-002-----0
 62
     7
370
    50
100
AcDbLine
 10
512.992611
 20
441.889197
 30
0.0
 11
512.992611
 21
436.889197
 31
0.0
  0
LINE
  5
3EF
102
{ACAD_REACTORS
330
547
102
}
330
1F
100
AcDbEntity
  8
LC-001-002-----0
 62
     7
370
    50
100
AcDbLine
 10
394.492611
 20
441.889197
 30
0.0
 11
394.492611
 21
436.889197
 31
0.0
  0
LINE
  5
3F0
102
{ACAD_REACTORS
330
547
102
}
330
1F
100
AcDbEntity
  8
LC-001-002-----0
 62
     7
370
    50
100
AcDbLine
 10
395.992611
 20
439.889197
 30
0.0
 11
402.821038
 21
439.889197
 31
0.0
  0
LINE
  5
3F1
102
{ACAD_REACTORS
330
547
102
}
330
1F
100
AcDbEntity
  8
LC-001-002-----0
 62
     7
370
    50
100
AcDbLine
 10
411.992611
 20
451.889197
 30
0.0
 11
425.005778
 21
451.889197
 31
0.0
  0
LINE
  5
3F2
102
{ACAD_REACTORS
330
547
102
}
330
1F
100
AcDbEntity
  8
LC-001-002-----0
 62
     7
370
    50
100
AcDbLine
 10
404.821038
 20
441.889197
 30
0.0
 11
512.992611
 21
441.889197
 31
0.0
  0
LINE
  5
3F3
102
{ACAD_REACTORS
330
547
102
}
330
1F
100
AcDbEntity
  8
LC-001-002-----0
 62
     7
370
    50
100
AcDbLine
 10
401.992611
 20
441.889197
 30
0.0
 11
411.992611
 21
451.889197
 31
0.0
  0
LINE
  5
3F4
102
{ACAD_REACTORS
330
547
102
}
330
1F
100
AcDbEntity
  8
LC-001-002-----0
 62
     7
370
    50
100
AcDbLine
 10
412.821038
 20
449.889197
 30
0.0
 11
448.992611
 21
449.889197
 31
0.0
  0
LINE
  5
3F5
102
{ACAD_REACTORS
330
547
102
}
330
1F
100
AcDbEntity
  8
LC-001-002-----0
 62
     7
370
    50
100
AcDbLine
 10
402.821038
 20
439.889197
 30
0.0
 11
412.821038
 21
449.889197
 31
0.0
  0
ARC
  5
3F6
102
{ACAD_REACTORS
330
547
102
}
330
1F
100
AcDbEntity
  8
LC-001-002-----0
 62
     7
370
    50
100
AcDbCircle
 10
441.979444
 20
451.889197
 30
0.0
 40
1.999999999999886
100
AcDbArc
 50
270.0
 51
90.0
  0
ARC
  5
3F7
102
{ACAD_REACTORS
330
547
102
}
330
1F
100
AcDbEntity
  8
LC-001-002-----0
 62
     7
370
    50
100
AcDbCircle
 10
427.005778
 20
451.889197
 30
0.0
 40
1.999999999999886
100
AcDbArc
 50
90.0
 51
180.0
  0
INSERT
  5
40E
102
{ACAD_REACTORS
330
547
102
}
330
1F
100
AcDbEntity
  8
LC-003-005-----0
 62
     7
370
    25
100
AcDbBlockReference
  2
*X1621
 10
0.0
 20
0.0
 30
0.0
  0
ARC
  5
40F
102
{ACAD_REACTORS
330
547
102
}
330
1F
100
AcDbEntity
  8
LC-001-002-----0
 62
     7
370
    50
100
AcDbCircle
 10
419.992611
 20
451.889197
 30
0.0
 40
1.999999999999886
100
AcDbArc
 50
90.0
 51
180.0
  0
ARC
  5
410
102
{ACAD_REACTORS
330
547
102
}
330
1F
100
AcDbEntity
  8
LC-001-002-----0
 62
     7
370
    50
100
AcDbCircle
 10
448.992611
 20
451.889197
 30
0.0
 40
2.0
100
AcDbArc
 50
270.0
 51
90.0
  0
LINE
  5
411
102
{ACAD_REACTORS
330
547
102
}
330
1F
100
AcDbEntity
  8
LC-001-002-----0
 62
     7
370
    50
100
AcDbLine
 10
419.992611
 20
453.889197
 30
0.0
 11
448.992611
 21
453.889197
 31
0.0
  0
LINE
  5
412
102
{ACAD_REACTORS
330
547
102
}
330
1F
100
AcDbEntity
  8
LC-001-002-----0
 62
     7
370
    50
100
AcDbLine
 10
452.492611
 20
441.889197
 30
0.0
 11
452.492611
 21
436.889197
 31
0.0
  0
LINE
  5
413
102
{ACAD_REACTORS
330
547
102
}
330
1F
100
AcDbEntity
  8
LC-001-002-----0
 62
     7
370
    50
100
AcDbLine
 10
428.800143
 20
441.889197
 30
0.0
 11
428.800143
 21
436.889197
 31
0.0
  0
LINE
  5
414
102
{ACAD_REACTORS
330
547
102
}
330
1F
100
AcDbEntity
  8
LC-001-002-----0
 62
     7
370
    50
100
AcDbLine
 10
426.635079
 20
441.889197
 30
0.0
 11
426.635079
 21
436.889197
 31
0.0
  0
LINE
  5
415
102
{ACAD_REACTORS
330
547
102
}
330
1F
100
AcDbEntity
  8
LC-001-002-----0
 62
     7
370
    50
100
AcDbLine
 10
423.791844
 20
441.889197
 30
0.0
 11
423.791844
 21
436.889197
 31
0.0
  0
LINE
  5
416
102
{ACAD_REACTORS
330
547
102
}
330
1F
100
AcDbEntity
  8
LC-001-002-----0
 62
     7
370
    50
100
AcDbLine
 10
408.040989
 20
441.889197
 30
0.0
 11
408.040989
 21
436.889197
 31
0.0
  0
LINE
  5
417
102
{ACAD_REACTORS
330
547
102
}
330
1F
100
AcDbEntity
  8
LC-001-002-----0
 62
     7
370
    50
100
AcDbLine
 10
409.290989
 20
441.889197
 30
0.0
 11
409.290989
 21
436.889197
 31
0.0
  0
LINE
  5
418
102
{ACAD_REACTORS
330
547
102
}
330
1F
100
AcDbEntity
  8
LC-001-002-----0
 62
     7
370
    50
100
AcDbLine
 10
403.116361
 20
440.18452
 30
0.0
 11
403.116361
 21
436.889197
 31
0.0
  0
LINE
  5
419
102
{ACAD_REACTORS
330
547
102
}
330
1F
100
AcDbEntity
  8
LC-001-002-----0
 62
     7
370
    50
100
AcDbLine
 10
454.992611
 20
441.889197
 30
0.0
 11
454.992611
 21
436.889197
 31
0.0
  0
LINE
  5
41A
102
{ACAD_REACTORS
330
547
102
}
330
1F
100
AcDbEntity
  8
LC-001-002-----0
 62
     7
370
    50
100
AcDbLine
 10
478.685079
 20
441.889197
 30
0.0
 11
478.685079
 21
436.889197
 31
0.0
  0
LINE
  5
41B
102
{ACAD_REACTORS
330
547
102
}
330
1F
100
AcDbEntity
  8
LC-001-002-----0
 62
     7
370
    50
100
AcDbLine
 10
483.693378
 20
441.889197
 30
0.0
 11
483.693378
 21
436.889197
 31
0.0
  0
LINE
  5
41C
102
{ACAD_REACTORS
330
547
102
}
330
1F
100
AcDbEntity
  8
LC-001-002-----0
 62
     7
370
    50
100
AcDbLine
 10
480.850143
 20
441.889197
 30
0.0
 11
480.850143
 21
436.889197
 31
0.0
  0
LINE
  5
41D
102
{ACAD_REACTORS
330
547
102
}
330
1F
100
AcDbEntity
  8
LC-001-002-----0
 62
     7
370
    50
100
AcDbLine
 10
498.194233
 20
441.889197
 30
0.0
 11
498.194233
 21
436.889197
 31
0.0
  0
LINE
  5
41E
102
{ACAD_REACTORS
330
547
102
}
330
1F
100
AcDbEntity
  8
LC-001-002-----0
 62
     7
370
    50
100
AcDbLine
 10
499.444233
 20
441.889197
 30
0.0
 11
499.444233
 21
436.889197
 31
0.0
  0
LINE
  5
41F
102
{ACAD_REACTORS
330
547
102
}
330
1F
100
AcDbEntity
  8
LC-001-002-----0
 62
     7
370
    50
100
AcDbLine
 10
504.368861
 20
441.889197
 30
0.0
 11
504.368861
 21
436.889197
 31
0.0
  0
LINE
  5
420
330
1F
100
AcDbEntity
  8
LC-001-002-----0
 62
     7
370
    25
100
AcDbLine
 10
401.742611
 20
515.471482
 30
0.0
 11
505.742611
 21
515.471482
 31
0.0
  0
INSERT
  5
44D
330
1F
100
AcDbEntity
  8
LC-003-005-----0
 62
     7
370
    25
100
AcDbBlockReference
  2
*X1722
 10
0.0
 20
0.0
 30
0.0
  0
DIMENSION
  5
44E
330
1F
100
AcDbEntity
  8
LC-005-003-----0
 62
     7
370
    25
100
AcDbDimension
  2
*D23
 10
636.51223
 20
503.471482
 30
0.0
 11
605.71223
 21
552.04
 31
0.0
 70
   160
  1
12
 71
     5
 42
12.0
 53
90.0
  3
LC-DIM-L-0140-02-02
100
AcDbAlignedDimension
 13
505.742611
 23
515.471482
 33
0.0
 14
505.742611
 24
503.471482
 34
0.0
 50
90.0
100
AcDbRotatedDimension
  0
DIMENSION
  5
45C
330
1F
100
AcDbEntity
  8
LC-005-003-----0
 62
     7
370
    25
100
AcDbDimension
  2
*D24
 10
731.587965
 20
641.971238
 30
0.0
 11
700.787965
 21
572.236
 31
0.0
 70
   160
  1
41-126,5
 71
     5
 42
126.499756
 53
90.0
  3
LC-DIM-L-0140-02-02
100
AcDbAlignedDimension
 13
505.742611
 23
515.471482
 33
0.0
 14
578.742611
 24
641.971238
 34
0.0
 50
90.0
100
AcDbRotatedDimension
  0
CIRCLE
  5
469
102
{ACAD_REACTORS
330
558
102
}
330
1F
100
AcDbEntity
  8
LC-001-002-----0
 62
     7
370
    50
100
AcDbCircle
 10
353.742611
 20
265.259411
 30
0.0
 40
15.99999999868827
  0
ARC
  5
46A
330
1F
100
AcDbEntity
  8
LC-001-002-----0
 62
     7
370
    50
100
AcDbCircle
 10
453.742611
 20
165.259411
 30
0.0
 40
52.00066946744755
100
AcDbArc
 50
0.0
 51
180.0
  0
ARC
  5
46B
330
1F
100
AcDbEntity
  8
LC-001-002-----0
 62
     7
370
    50
100
AcDbCircle
 10
453.742611
 20
165.259411
 30
0.0
 40
55.25066946744971
100
AcDbArc
 50
0.0
 51
180.0
  0
ARC
  5
46C
330
1F
100
AcDbEntity
  8
LC-001-002-----0
 62
     7
370
    50
100
AcDbCircle
 10
453.742611
 20
165.259411
 30
0.0
 40
58.2506694674463
100
AcDbArc
 50
0.0
 51
180.0
  0
ARC
  5
46D
330
1F
100
AcDbEntity
  8
LC-001-002-----0
 62
     7
370
    50
100
AcDbCircle
 10
453.742611
 20
165.259411
 30
0.0
 40
84.99996531287843
100
AcDbArc
 50
0.0
 51
180.0
  0
ARC
  5
46E
330
1F
100
AcDbEntity
  8
LC-001-002-----0
 62
     7
370
    50
100
AcDbCircle
 10
453.742611
 20
165.259411
 30
0.0
 40
82.49999997429859
100
AcDbArc
 50
0.0
 51
180.0
  0
LINE
  5
46F
102
{ACAD_REACTORS
330
558
102
}
330
1F
100
AcDbEntity
  8
LC-001-002-----0
 62
     7
370
    50
100
AcDbLine
 10
323.741942
 20
165.259411
 30
0.0
 11
323.741942
 21
295.260081
 31
0.0
  0
LINE
  5
470
102
{ACAD_REACTORS
330
558
102
}
330
1F
100
AcDbEntity
  8
LC-001-002-----0
 62
     7
370
    50
100
AcDbLine
 10
328.742191
 20
165.259411
 30
0.0
 11
328.742191
 21
290.259831
 31
0.0
  0
LINE
  5
471
102
{ACAD_REACTORS
330
558
102
}
330
1F
100
AcDbEntity
  8
LC-001-002-----0
 62
     7
370
    50
100
AcDbLine
 10
583.743281
 20
295.260081
 30
0.0
 11
583.743281
 21
165.259411
 31
0.0
  0
LINE
  5
472
102
{ACAD_REACTORS
330
558
102
}
330
1F
100
AcDbEntity
  8
LC-001-002-----0
 62
     7
370
    50
100
AcDbLine
 10
323.741942
 20
295.260081
 30
0.0
 11
583.743281
 21
295.260081
 31
0.0
  0
LINE
  5
473
102
{ACAD_REACTORS
330
558
102
}
330
1F
100
AcDbEntity
  8
LC-001-002-----0
 62
     7
370
    50
100
AcDbLine
 10
578.743031
 20
290.259831
 30
0.0
 11
578.743031
 21
165.259411
 31
0.0
  0
LINE
  5
474
102
{ACAD_REACTORS
330
558
102
}
330
1F
100
AcDbEntity
  8
LC-001-002-----0
 62
     7
370
    50
100
AcDbLine
 10
328.742191
 20
290.259831
 30
0.0
 11
578.743031
 21
290.259831
 31
0.0
  0
LINE
  5
475
102
{ACAD_REACTORS
330
558
102
}
330
1F
100
AcDbEntity
  8
LC-001-002-----0
 62
     7
370
    50
100
AcDbLine
 10
578.743031
 20
290.259831
 30
0.0
 11
583.743281
 21
295.260081
 31
0.0
  0
LINE
  5
476
102
{ACAD_REACTORS
330
558
102
}
330
1F
100
AcDbEntity
  8
LC-001-002-----0
 62
     7
370
    50
100
AcDbLine
 10
323.741942
 20
295.260081
 30
0.0
 11
328.742191
 21
290.259831
 31
0.0
  0
CIRCLE
  5
477
330
1F
100
AcDbEntity
  8
LC-001-002-----0
 62
     7
370
    50
100
AcDbCircle
 10
353.742611
 20
265.259411
 30
0.0
 40
15.0
  0
CIRCLE
  5
478
102
{ACAD_REACTORS
330
535
102
}
330
1F
100
AcDbEntity
  8
LC-001-002-----0
 62
     7
370
    50
100
AcDbCircle
 10
553.742611
 20
265.259411
 30
0.0
 40
15.99999999868827
  0
CIRCLE
  5
479
330
1F
100
AcDbEntity
  8
LC-001-002-----0
 62
     7
370
    50
100
AcDbCircle
 10
553.742611
 20
265.259411
 30
0.0
 40
15.0
  0
ARC
  5
47A
330
1F
100
AcDbEntity
  8
LC-003-005-----0
 62
     7
370
    25
100
AcDbCircle
 10
353.742611
 20
265.259411
 30
0.0
 40
10.0
100
AcDbArc
 50
180.0
 51
90.0
  0
CIRCLE
  5
47B
330
1F
100
AcDbEntity
  8
LC-001-002-----0
 62
     7
370
    50
100
AcDbCircle
 10
353.742611
 20
265.259411
 30
0.0
 40
8.5
  0
CIRCLE
  5
47C
330
1F
100
AcDbEntity
  8
LC-001-002-----0
 62
     7
370
    50
100
AcDbCircle
 10
553.742611
 20
265.259411
 30
0.0
 40
8.5
  0
ARC
  5
47D
330
1F
100
AcDbEntity
  8
LC-003-005-----0
 62
     7
370
    25
100
AcDbCircle
 10
553.742611
 20
265.259411
 30
0.0
 40
10.0
100
AcDbArc
 50
180.0
 51
90.0
  0
LINE
  5
47E
330
1F
100
AcDbEntity
  8
LC-001-002-----0
  6
DASHDOT
 62
     7
370
    25
100
AcDbLine
 10
337.742611
 20
265.259411
 30
0.0
 11
369.742611
 21
265.259411
 31
0.0
  0
LINE
  5
47F
330
1F
100
AcDbEntity
  8
LC-001-002-----0
  6
DASHDOT
 62
     7
370
    25
100
AcDbLine
 10
353.742611
 20
281.259411
 30
0.0
 11
353.742611
 21
249.259411
 31
0.0
  0
LINE
  5
480
330
1F
100
AcDbEntity
  8
LC-001-002-----0
  6
DASHDOT
 62
     7
370
    25
100
AcDbLine
 10
537.742611
 20
265.259411
 30
0.0
 11
569.742611
 21
265.259411
 31
0.0
  0
LINE
  5
481
330
1F
100
AcDbEntity
  8
LC-001-002-----0
  6
DASHDOT
 62
     7
370
    25
100
AcDbLine
 10
553.742611
 20
281.259411
 30
0.0
 11
553.742611
 21
249.259411
 31
0.0
  0
LINE
  5
482
330
1F
100
AcDbEntity
  8
LC-001-002-----0
 62
     7
370
    50
100
AcDbLine
 10
377.654621
 20
494.370922
 30
0.0
 11
389.653362
 21
494.37089
 31
0.0
  0
LINE
  5
484
102
{ACAD_REACTORS
330
537
102
}
330
1F
100
AcDbEntity
  8
LC-006-004-----0
 62
     7
370
    50
100
AcDbLine
 10
377.654621
 20
492.870922
 30
0.0
 11
383.654621
 21
492.870906
 31
0.0
  0
LINE
  5
485
102
{ACAD_REACTORS
330
536
102
}
330
1F
100
AcDbEntity
  8
LC-006-004-----0
 62
     7
370
    50
100
AcDbLine
 10
380.654621
 20
492.870914
 30
0.0
 11
380.654589
 21
480.870914
 31
0.0
  0
LINE
  5
486
102
{ACAD_REACTORS
330
540
102
}
330
1F
100
AcDbEntity
  8
LC-006-004-----0
 62
     7
370
    50
100
AcDbLine
 10
380.654589
 20
480.870914
 30
0.0
 11
383.654576
 21
475.870906
 31
0.0
  0
LINE
  5
487
102
{ACAD_REACTORS
330
53F
102
}
330
1F
100
AcDbEntity
  8
LC-006-004-----0
 62
     7
370
    25
100
AcDbLine
 10
380.654617
 20
491.370914
 30
0.0
 11
381.654617
 21
491.370911
 31
0.0
  0
LINE
  5
488
102
{ACAD_REACTORS
330
53E
102
}
330
1F
100
AcDbEntity
  8
LC-006-004-----0
 62
     7
370
    25
100
AcDbLine
 10
381.654617
 20
491.370911
 30
0.0
 11
381.654585
 21
479.370911
 31
0.0
  0
LINE
  5
489
102
{ACAD_REACTORS
330
53D
102
}
330
1F
100
AcDbEntity
  8
LC-006-004-----0
 62
     7
370
    50
100
AcDbLine
 10
382.854631
 20
496.3389
 30
0.0
 11
382.854628
 21
495.369997
 31
0.0
  0
LINE
  5
48A
102
{ACAD_REACTORS
330
53C
102
}
330
1F
100
AcDbEntity
  8
LC-006-004-----0
 62
     7
370
    50
100
AcDbLine
 10
380.654589
 20
480.870914
 30
0.0
 11
383.654589
 21
480.870906
 31
0.0
  0
LINE
  5
48B
102
{ACAD_REACTORS
330
53B
102
}
330
1F
100
AcDbEntity
  8
LC-006-004-----0
 62
     7
370
    50
100
AcDbLine
 10
389.653361
 20
492.869993
 30
0.0
 11
383.653361
 21
492.869997
 31
0.0
  0
LINE
  5
48C
102
{ACAD_REACTORS
330
53A
102
}
330
1F
100
AcDbEntity
  8
LC-006-004-----0
 62
     7
370
    50
100
AcDbLine
 10
386.653361
 20
492.869995
 30
0.0
 11
386.653353
 21
480.869995
 31
0.0
  0
LINE
  5
48D
102
{ACAD_REACTORS
330
539
102
}
330
1F
100
AcDbEntity
  8
LC-006-004-----0
 62
     7
370
    50
100
AcDbLine
 10
386.653353
 20
480.869995
 30
0.0
 11
383.65335
 21
475.869997
 31
0.0
  0
LINE
  5
48E
102
{ACAD_REACTORS
330
546
102
}
330
1F
100
AcDbEntity
  8
LC-006-004-----0
 62
     7
370
    25
100
AcDbLine
 10
386.65336
 20
491.369995
 30
0.0
 11
381.654617
 21
491.369998
 31
0.0
  0
LINE
  5
48F
102
{ACAD_REACTORS
330
545
102
}
330
1F
100
AcDbEntity
  8
LC-006-004-----0
 62
     7
370
    25
100
AcDbLine
 10
385.65336
 20
491.369996
 30
0.0
 11
385.653352
 21
479.369996
 31
0.0
  0
LINE
  5
490
102
{ACAD_REACTORS
330
544
102
}
330
1F
100
AcDbEntity
  8
LC-006-004-----0
 62
     7
370
    50
100
AcDbLine
 10
384.453363
 20
496.338896
 30
0.0
 11
384.453362
 21
495.369996
 31
0.0
  0
LINE
  5
491
102
{ACAD_REACTORS
330
543
102
}
330
1F
100
AcDbEntity
  8
LC-006-004-----0
 62
     7
370
    50
100
AcDbLine
 10
386.653353
 20
480.869995
 30
0.0
 11
383.653353
 21
480.869997
 31
0.0
  0
LINE
  5
492
102
{ACAD_REACTORS
330
542
102
}
330
1F
100
AcDbEntity
  8
LC-006-004-----0
 62
     7
370
    50
100
AcDbLine
 10
377.654625
 20
494.370922
 30
0.0
 11
377.654621
 21
492.870922
 31
0.0
  0
ARC
  5
493
330
1F
100
AcDbEntity
  8
LC-001-002-----0
 62
     7
370
    50
100
AcDbCircle
 10
383.653972
 20
486.372795
 30
0.0
 40
9.998109803883326
100
AcDbArc
 50
94.585648
 51
126.873341
  0
LINE
  5
494
330
1F
100
AcDbEntity
  8
LC-001-002-----0
 62
     7
370
    50
100
AcDbLine
 10
384.453362
 20
495.369996
 30
0.0
 11
382.854628
 21
495.369997
 31
0.0
  0
LINE
  5
495
102
{ACAD_REACTORS
330
541
102
}
330
1F
100
AcDbEntity
  8
LC-006-004-----0
 62
     7
370
    50
100
AcDbLine
 10
389.653362
 20
494.37089
 30
0.0
 11
389.653361
 21
492.869993
 31
0.0
  0
ARC
  5
496
330
1F
100
AcDbEntity
  8
LC-001-002-----0
 62
     7
370
    50
100
AcDbCircle
 10
383.653972
 20
486.372795
 30
0.0
 40
9.998109803883329
100
AcDbArc
 50
53.12635
 51
85.414066
  0
LINE
  5
497
330
1F
100
AcDbEntity
  8
LC-001-002-----0
  6
DASHDOT
 62
     7
370
    25
100
AcDbLine
 10
383.208192
 20
496.346586
 30
0.0
 11
383.83782
 21
467.384621
 31
0.0
  0
LINE
  5
498
330
1F
100
AcDbEntity
  8
LC-001-002-----0
 62
     7
370
    50
100
AcDbLine
 10
529.830601
 20
494.370922
 30
0.0
 11
517.831861
 21
494.37089
 31
0.0
  0
LINE
  5
499
102
{ACAD_REACTORS
330
54E
102
}
330
1F
100
AcDbEntity
  8
LC-006-004-----0
 62
     7
370
    50
100
AcDbLine
 10
529.830601
 20
492.870922
 30
0.0
 11
523.830601
 21
492.870906
 31
0.0
  0
LINE
  5
49A
102
{ACAD_REACTORS
330
54D
102
}
330
1F
100
AcDbEntity
  8
LC-006-004-----0
 62
     7
370
    50
100
AcDbLine
 10
526.830601
 20
492.870914
 30
0.0
 11
526.830633
 21
480.870914
 31
0.0
  0
LINE
  5
49B
102
{ACAD_REACTORS
330
54C
102
}
330
1F
100
AcDbEntity
  8
LC-006-004-----0
 62
     7
370
    50
100
AcDbLine
 10
526.830633
 20
480.870914
 30
0.0
 11
523.830647
 21
475.870906
 31
0.0
  0
LINE
  5
49C
102
{ACAD_REACTORS
330
54B
102
}
330
1F
100
AcDbEntity
  8
LC-006-004-----0
 62
     7
370
    25
100
AcDbLine
 10
526.830605
 20
491.370914
 30
0.0
 11
525.830605
 21
491.370911
 31
0.0
  0
LINE
  5
49D
102
{ACAD_REACTORS
330
54A
102
}
330
1F
100
AcDbEntity
  8
LC-006-004-----0
 62
     7
370
    25
100
AcDbLine
 10
525.830605
 20
491.370911
 30
0.0
 11
525.830637
 21
479.370911
 31
0.0
  0
LINE
  5
49E
102
{ACAD_REACTORS
330
549
102
}
330
1F
100
AcDbEntity
  8
LC-006-004-----0
 62
     7
370
    50
100
AcDbLine
 10
524.630592
 20
496.3389
 30
0.0
 11
524.630594
 21
495.369997
 31
0.0
  0
LINE
  5
49F
102
{ACAD_REACTORS
330
548
102
}
330
1F
100
AcDbEntity
  8
LC-006-004-----0
 62
     7
370
    50
100
AcDbLine
 10
526.830633
 20
480.870914
 30
0.0
 11
523.830633
 21
480.870906
 31
0.0
  0
LINE
  5
4A0
102
{ACAD_REACTORS
330
557
102
}
330
1F
100
AcDbEntity
  8
LC-006-004-----0
 62
     7
370
    50
100
AcDbLine
 10
517.831862
 20
492.869993
 30
0.0
 11
523.831861
 21
492.869997
 31
0.0
  0
LINE
  5
4A1
102
{ACAD_REACTORS
330
556
102
}
330
1F
100
AcDbEntity
  8
LC-006-004-----0
 62
     7
370
    50
100
AcDbLine
 10
520.831861
 20
492.869995
 30
0.0
 11
520.831869
 21
480.869995
 31
0.0
  0
LINE
  5
4A2
102
{ACAD_REACTORS
330
555
102
}
330
1F
100
AcDbEntity
  8
LC-006-004-----0
 62
     7
370
    50
100
AcDbLine
 10
520.831869
 20
480.869995
 30
0.0
 11
523.831873
 21
475.869997
 31
0.0
  0
LINE
  5
4A3
102
{ACAD_REACTORS
330
554
102
}
330
1F
100
AcDbEntity
  8
LC-006-004-----0
 62
     7
370
    25
100
AcDbLine
 10
520.831862
 20
491.369995
 30
0.0
 11
525.830605
 21
491.369998
 31
0.0
  0
LINE
  5
4A4
102
{ACAD_REACTORS
330
553
102
}
330
1F
100
AcDbEntity
  8
LC-006-004-----0
 62
     7
370
    25
100
AcDbLine
 10
521.831862
 20
491.369996
 30
0.0
 11
521.83187
 21
479.369996
 31
0.0
  0
LINE
  5
4A5
102
{ACAD_REACTORS
330
552
102
}
330
1F
100
AcDbEntity
  8
LC-006-004-----0
 62
     7
370
    50
100
AcDbLine
 10
523.031859
 20
496.338896
 30
0.0
 11
523.03186
 21
495.369996
 31
0.0
  0
LINE
  5
4A6
102
{ACAD_REACTORS
330
551
102
}
330
1F
100
AcDbEntity
  8
LC-006-004-----0
 62
     7
370
    50
100
AcDbLine
 10
520.831869
 20
480.869995
 30
0.0
 11
523.831869
 21
480.869997
 31
0.0
  0
LINE
  5
4A7
102
{ACAD_REACTORS
330
550
102
}
330
1F
100
AcDbEntity
  8
LC-006-004-----0
 62
     7
370
    50
100
AcDbLine
 10
529.830597
 20
494.370922
 30
0.0
 11
529.830601
 21
492.870922
 31
0.0
  0
ARC
  5
4A8
330
1F
100
AcDbEntity
  8
LC-001-002-----0
 62
     7
370
    50
100
AcDbCircle
 10
523.83125
 20
486.372795
 30
0.0
 40
9.998109803883342
100
AcDbArc
 50
53.126659
 51
85.414352
  0
LINE
  5
4A9
330
1F
100
AcDbEntity
  8
LC-001-002-----0
 62
     7
370
    50
100
AcDbLine
 10
523.03186
 20
495.369996
 30
0.0
 11
524.630594
 21
495.369997
 31
0.0
  0
LINE
  5
4AA
102
{ACAD_REACTORS
330
55A
102
}
330
1F
100
AcDbEntity
  8
LC-006-004-----0
 62
     7
370
    50
100
AcDbLine
 10
517.831861
 20
494.37089
 30
0.0
 11
517.831862
 21
492.869993
 31
0.0
  0
ARC
  5
4AB
330
1F
100
AcDbEntity
  8
LC-001-002-----0
 62
     7
370
    50
100
AcDbCircle
 10
523.83125
 20
486.372795
 30
0.0
 40
9.99810980388334
100
AcDbArc
 50
94.585934
 51
126.87365
  0
LINE
  5
4AC
330
1F
100
AcDbEntity
  8
LC-001-002-----0
  6
DASHDOT
 62
     7
370
    25
100
AcDbLine
 10
524.27703
 20
496.346586
 30
0.0
 11
523.647402
 21
467.384621
 31
0.0
  0
LINE
  5
4AD
102
{ACAD_REACTORS
330
559
102
}
330
1F
100
AcDbEntity
  8
LC-001-002-----0
 62
     7
370
    50
100
AcDbLine
 10
387.242589
 20
466.751935
 30
0.0
 11
387.242589
 21
464.251935
 31
0.0
  0
LINE
  5
4AE
102
{ACAD_REACTORS
330
559
102
}
330
1F
100
AcDbEntity
  8
LC-001-002-----0
 62
     7
370
    50
100
AcDbLine
 10
380.242589
 20
466.751935
 30
0.0
 11
380.242589
 21
464.251935
 31
0.0
  0
LINE
  5
4AF
102
{ACAD_REACTORS
330
559
102
}
330
1F
100
AcDbEntity
  8
LC-001-002-----0
 62
     7
370
    50
100
AcDbLine
 10
389.992589
 20
469.754351
 30
0.0
 11
389.992589
 21
466.751935
 31
0.0
  0
LINE
  5
4B0
102
{ACAD_REACTORS
330
559
102
}
330
1F
100
AcDbEntity
  8
LC-001-002-----0
 62
     7
370
    50
100
AcDbLine
 10
377.492589
 20
469.754351
 30
0.0
 11
377.492589
 21
466.751935
 31
0.0
  0
ARC
  5
4B1
330
1F
100
AcDbEntity
  8
LC-001-002-----0
 62
     7
370
    50
100
AcDbCircle
 10
396.242611
 20
462.724351
 30
0.0
 40
2.500000000001103
100
AcDbArc
 50
306.869898
 51
53.130102
  0
LINE
  5
4B2
102
{ACAD_REACTORS
330
559
102
}
330
1F
100
AcDbEntity
  8
LC-001-002-----0
 62
    70
370
    50
100
AcDbLine
 10
395.758837
 20
469.754351
 30
0.0
 11
389.992589
 21
469.754351
 31
0.0
  0
LINE
  5
4B3
102
{ACAD_REACTORS
330
559
102
}
330
1F
100
AcDbEntity
  8
LC-001-002-----0
 62
     7
370
    50
100
AcDbLine
 10
387.242589
 20
466.751935
 30
0.0
 11
380.242589
 21
466.751935
 31
0.0
  0
LINE
  5
4B4
102
{ACAD_REACTORS
330
559
102
}
330
1F
100
AcDbEntity
  8
LC-001-002-----0
 62
     7
370
    50
100
AcDbLine
 10
380.242589
 20
466.751935
 30
0.0
 11
377.492589
 21
466.751935
 31
0.0
  0
LINE
  5
4B5
102
{ACAD_REACTORS
330
559
102
}
330
1F
100
AcDbEntity
  8
LC-001-002-----0
 62
     7
370
    50
100
AcDbLine
 10
380.242589
 20
464.251935
 30
0.0
 11
372.992611
 21
464.251935
 31
0.0
  0
LINE
  5
4B6
102
{ACAD_REACTORS
330
559
102
}
330
1F
100
AcDbEntity
  8
LC-001-002-----0
 62
     7
370
    50
100
AcDbLine
 10
387.242589
 20
464.251935
 30
0.0
 11
380.242589
 21
464.251935
 31
0.0
  0
LINE
  5
4B7
102
{ACAD_REACTORS
330
559
102
}
330
1F
100
AcDbEntity
  8
LC-001-002-----0
 62
     7
370
    50
100
AcDbLine
 10
389.992589
 20
469.754351
 30
0.0
 11
377.492589
 21
469.754351
 31
0.0
  0
LINE
  5
4B8
102
{ACAD_REACTORS
330
559
102
}
330
1F
100
AcDbEntity
  8
LC-001-002-----0
 62
     7
370
    50
100
AcDbLine
 10
377.492589
 20
469.754351
 30
0.0
 11
349.768824
 21
469.754351
 31
0.0
  0
LINE
  5
4B9
102
{ACAD_REACTORS
330
559
102
}
330
1F
100
AcDbEntity
  8
LC-001-002-----0
 62
    70
370
    50
100
AcDbLine
 10
390.242117
 20
469.754351
 30
0.0
 11
390.242117
 21
464.251935
 31
0.0
  0
ARC
  5
4BA
330
1F
100
AcDbEntity
  8
LC-004-002-RND-0
 62
     7
370
    50
100
AcDbCircle
 10
398.242611
 20
474.409051
 30
0.0
 40
0.4999999999999994
100
AcDbArc
 50
60.0
 51
180.0
  0
LINE
  5
4BB
102
{ACAD_REACTORS
330
559
102
}
330
1F
100
AcDbEntity
  8
LC-003-005-----0
 62
     7
370
    25
100
AcDbLine
 10
351.76593
 20
469.754351
 30
0.0
 11
353.22276
 21
468.29752
 31
0.0
  0
LINE
  5
4BC
102
{ACAD_REACTORS
330
559
102
}
330
1F
100
AcDbEntity
  8
LC-003-005-----0
 62
     7
370
    25
100
AcDbLine
 10
356.00857
 20
469.754351
 30
0.0
 11
359.194377
 21
466.568544
 31
0.0
  0
LINE
  5
4BD
102
{ACAD_REACTORS
330
559
102
}
330
1F
100
AcDbEntity
  8
LC-003-005-----0
 62
     7
370
    25
100
AcDbLine
 10
360.251211
 20
469.754351
 30
0.0
 11
364.293041
 21
465.71252
 31
0.0
  0
LINE
  5
4BE
102
{ACAD_REACTORS
330
559
102
}
330
1F
100
AcDbEntity
  8
LC-003-005-----0
 62
     7
370
    25
100
AcDbLine
 10
364.493852
 20
469.754351
 30
0.0
 11
369.391705
 21
464.856497
 31
0.0
  0
LINE
  5
4BF
102
{ACAD_REACTORS
330
559
102
}
330
1F
100
AcDbEntity
  8
LC-003-005-----0
 62
     7
370
    25
100
AcDbLine
 10
368.736492
 20
469.754351
 30
0.0
 11
374.238908
 21
464.251935
 31
0.0
  0
LINE
  5
4C0
102
{ACAD_REACTORS
330
559
102
}
330
1F
100
AcDbEntity
  8
LC-003-005-----0
 62
     7
370
    25
100
AcDbLine
 10
372.979133
 20
469.754351
 30
0.0
 11
378.481549
 21
464.251935
 31
0.0
  0
LINE
  5
4C1
102
{ACAD_REACTORS
330
559
102
}
330
1F
100
AcDbEntity
  8
LC-003-005-----0
 62
     7
370
    25
100
AcDbLine
 10
377.221774
 20
469.754351
 30
0.0
 11
377.492589
 21
469.483535
 31
0.0
  0
LINE
  5
4C2
102
{ACAD_REACTORS
330
559
102
}
330
1F
100
AcDbEntity
  8
LC-003-005-----0
 62
     7
370
    25
100
AcDbLine
 10
389.709471
 20
466.751935
 30
0.0
 11
390.242117
 21
465.219288
 31
0.0
  0
LINE
  5
4C3
102
{ACAD_REACTORS
330
559
102
}
330
1F
100
AcDbEntity
  8
LC-003-005-----0
 62
     7
370
    25
100
AcDbLine
 10
389.992589
 20
469.711457
 30
0.0
 11
390.242117
 21
469.461929
 31
0.0
  0
LINE
  5
4C4
102
{ACAD_REACTORS
330
559
102
}
330
1F
100
AcDbEntity
  8
LC-003-005-----0
 62
     7
370
    25
100
AcDbLine
 10
517.228916
 20
469.754351
 30
0.0
 11
522.731332
 21
464.251935
 31
0.0
  0
LINE
  5
4C5
102
{ACAD_REACTORS
330
559
102
}
330
1F
100
AcDbEntity
  8
LC-003-005-----0
 62
     7
370
    25
100
AcDbLine
 10
521.471557
 20
469.754351
 30
0.0
 11
526.973973
 21
464.251935
 31
0.0
  0
LINE
  5
4C6
102
{ACAD_REACTORS
330
559
102
}
330
1F
100
AcDbEntity
  8
LC-003-005-----0
 62
     7
370
    25
100
AcDbLine
 10
525.714198
 20
469.754351
 30
0.0
 11
531.216614
 21
464.251935
 31
0.0
  0
LINE
  5
4C7
102
{ACAD_REACTORS
330
559
102
}
330
1F
100
AcDbEntity
  8
LC-003-005-----0
 62
     7
370
    25
100
AcDbLine
 10
529.956838
 20
469.754351
 30
0.0
 11
535.320293
 21
464.390896
 31
0.0
  0
LINE
  5
4C8
102
{ACAD_REACTORS
330
559
102
}
330
1F
100
AcDbEntity
  8
LC-003-005-----0
 62
     7
370
    25
100
AcDbLine
 10
534.199479
 20
469.754351
 30
0.0
 11
538.953028
 21
465.000802
 31
0.0
  0
LINE
  5
4C9
102
{ACAD_REACTORS
330
559
102
}
330
1F
100
AcDbEntity
  8
LC-003-005-----0
 62
     7
370
    25
100
AcDbLine
 10
538.44212
 20
469.754351
 30
0.0
 11
542.585763
 21
465.610708
 31
0.0
  0
LINE
  5
4CA
102
{ACAD_REACTORS
330
559
102
}
330
1F
100
AcDbEntity
  8
LC-003-005-----0
 62
     7
370
    25
100
AcDbLine
 10
542.68476
 20
469.754351
 30
0.0
 11
546.218497
 21
466.220614
 31
0.0
  0
LINE
  5
4CB
102
{ACAD_REACTORS
330
559
102
}
330
1F
100
AcDbEntity
  8
LC-003-005-----0
 62
     7
370
    25
100
AcDbLine
 10
546.927401
 20
469.754351
 30
0.0
 11
549.760592
 21
466.92116
 31
0.0
  0
LINE
  5
4CC
102
{ACAD_REACTORS
330
559
102
}
330
1F
100
AcDbEntity
  8
LC-003-005-----0
 62
     7
370
    25
100
AcDbLine
 10
551.170042
 20
469.754351
 30
0.0
 11
553.009838
 21
467.914554
 31
0.0
  0
LINE
  5
4CD
102
{ACAD_REACTORS
330
559
102
}
330
1F
100
AcDbEntity
  8
LC-003-005-----0
 62
     7
370
    25
100
AcDbLine
 10
555.412683
 20
469.754351
 30
0.0
 11
556.259085
 21
468.907948
 31
0.0
  0
LINE
  5
4CE
330
1F
100
AcDbEntity
  8
LC-001-002-----0
 62
     7
370
    50
100
AcDbLine
 10
509.742611
 20
464.724351
 30
0.0
 11
397.742611
 21
464.724351
 31
0.0
  0
LINE
  5
4CF
330
1F
100
AcDbEntity
  8
LC-001-002-----0
 62
     7
370
    50
100
AcDbLine
 10
397.742611
 20
460.724351
 30
0.0
 11
509.742611
 21
460.724351
 31
0.0
  0
LINE
  5
4D0
102
{ACAD_REACTORS
330
559
102
}
330
1F
100
AcDbEntity
  8
LC-001-002-----0
 62
     7
370
    50
100
AcDbLine
 10
534.492611
 20
464.251935
 30
0.0
 11
513.742723
 21
464.251935
 31
0.0
  0
LINE
  5
4D1
102
{ACAD_REACTORS
330
559
102
}
330
1F
100
AcDbEntity
  8
LC-001-002-----0
 62
     7
370
    50
100
AcDbLine
 10
372.992611
 20
464.251935
 30
0.0
 11
358.492611
 21
466.686365
 31
0.0
  0
LINE
  5
4D2
330
1F
100
AcDbEntity
  8
LC-001-002-----0
 62
     7
370
    50
100
AcDbLine
 10
514.742723
 20
461.219723
 30
0.0
 11
514.742723
 21
459.219723
 31
0.0
  0
ARC
  5
4D3
102
{ACAD_REACTORS
330
559
102
}
330
1F
100
AcDbEntity
  8
LC-001-002-----0
 62
     7
370
    50
100
AcDbCircle
 10
395.758837
 20
468.770802
 30
0.0
 40
0.9835487938923961
100
AcDbArc
 50
270.0
 51
90.0
  0
LINE
  5
4D4
102
{ACAD_REACTORS
330
559
102
}
330
1F
100
AcDbEntity
  8
LC-001-002-----0
 62
     7
370
    50
100
AcDbLine
 10
511.726385
 20
469.754351
 30
0.0
 11
557.716398
 21
469.754351
 31
0.0
  0
LINE
  5
4D5
102
{ACAD_REACTORS
330
559
102
}
330
1F
100
AcDbEntity
  8
LC-001-002-----0
 62
     7
370
    50
100
AcDbLine
 10
548.992611
 20
466.686365
 30
0.0
 11
534.492611
 21
464.251935
 31
0.0
  0
LINE
  5
4D6
330
1F
100
AcDbEntity
  8
LC-001-002-----0
 62
     7
370
    50
100
AcDbLine
 10
513.742723
 20
458.219723
 30
0.0
 11
514.742723
 21
459.219723
 31
0.0
  0
LINE
  5
4D7
330
1F
100
AcDbEntity
  8
LC-001-002-----0
 62
     7
370
    50
100
AcDbLine
 10
401.242611
 20
473.254351
 30
0.0
 11
506.242611
 21
473.254351
 31
0.0
  0
LINE
  5
4D8
330
1F
100
AcDbEntity
  8
LC-001-002-----0
 62
     7
370
    50
100
AcDbLine
 10
517.243105
 20
469.754351
 30
0.0
 11
517.243105
 21
464.251935
 31
0.0
  0
LINE
  5
4D9
102
{ACAD_REACTORS
330
559
102
}
330
1F
100
AcDbEntity
  8
LC-001-002-----0
 62
     7
370
    50
100
AcDbLine
 10
511.726385
 20
467.787253
 30
0.0
 11
512.242723
 21
467.787253
 31
0.0
  0
LINE
  5
4DA
102
{ACAD_REACTORS
330
559
102
}
330
1F
100
AcDbEntity
  8
LC-001-002-----0
 62
     7
370
    50
100
AcDbLine
 10
548.992611
 20
466.686365
 30
0.0
 11
557.574872
 21
469.310225
 31
0.0
  0
LINE
  5
4DB
102
{ACAD_REACTORS
330
559
102
}
330
1F
100
AcDbEntity
  8
LC-001-002-----0
 62
     7
370
    50
100
AcDbLine
 10
395.758837
 20
467.787253
 30
0.0
 11
395.242499
 21
467.787253
 31
0.0
  0
LINE
  5
4DC
102
{ACAD_REACTORS
330
559
102
}
330
1F
100
AcDbEntity
  8
LC-001-002-----0
 62
     7
370
    50
100
AcDbLine
 10
358.492611
 20
466.686365
 30
0.0
 11
349.91035
 21
469.310225
 31
0.0
  0
LINE
  5
4DD
102
{ACAD_REACTORS
330
559
102
}
330
1F
100
AcDbEntity
  8
LC-001-002-----0
 62
     7
370
    50
100
AcDbLine
 10
512.742723
 20
465.787253
 30
0.0
 11
512.242723
 21
465.787253
 31
0.0
  0
LINE
  5
4DE
102
{ACAD_REACTORS
330
559
102
}
330
1F
100
AcDbEntity
  8
LC-001-002-----0
 62
     7
370
    50
100
AcDbLine
 10
512.242723
 20
465.787253
 30
0.0
 11
512.242723
 21
467.787253
 31
0.0
  0
LINE
  5
4DF
102
{ACAD_REACTORS
330
559
102
}
330
1F
100
AcDbEntity
  8
LC-001-002-----0
 62
     7
370
    50
100
AcDbLine
 10
394.742499
 20
465.787253
 30
0.0
 11
395.242499
 21
465.787253
 31
0.0
  0
LINE
  5
4E0
102
{ACAD_REACTORS
330
559
102
}
330
1F
100
AcDbEntity
  8
LC-001-002-----0
 62
     7
370
    50
100
AcDbLine
 10
389.992589
 20
466.751935
 30
0.0
 11
387.242589
 21
466.751935
 31
0.0
  0
LINE
  5
4E1
102
{ACAD_REACTORS
330
559
102
}
330
1F
100
AcDbEntity
  8
LC-001-002-----0
 62
     7
370
    50
100
AcDbLine
 10
395.242499
 20
465.787253
 30
0.0
 11
395.242499
 21
467.787253
 31
0.0
  0
LINE
  5
4E2
102
{ACAD_REACTORS
330
559
102
}
330
1F
100
AcDbEntity
  8
LC-001-002-----0
 62
     7
370
    50
100
AcDbLine
 10
393.742499
 20
464.251935
 30
0.0
 11
387.242589
 21
464.251935
 31
0.0
  0
LINE
  5
4E3
102
{ACAD_REACTORS
330
559
102
}
330
1F
100
AcDbEntity
  8
LC-001-002-----0
 62
     7
370
    50
100
AcDbLine
 10
394.742499
 20
465.787253
 30
0.0
 11
394.242499
 21
466.787253
 31
0.0
  0
LINE
  5
4E4
102
{ACAD_REACTORS
330
559
102
}
330
1F
100
AcDbEntity
  8
LC-001-002-----0
 62
     7
370
    50
100
AcDbLine
 10
394.242499
 20
466.787253
 30
0.0
 11
392.249083
 21
466.787253
 31
0.0
  0
LINE
  5
4E5
102
{ACAD_REACTORS
330
559
102
}
330
1F
100
AcDbEntity
  8
LC-001-002-----0
 62
     7
370
    50
100
AcDbLine
 10
512.742723
 20
465.787253
 30
0.0
 11
513.242723
 21
466.787253
 31
0.0
  0
LINE
  5
4E6
102
{ACAD_REACTORS
330
559
102
}
330
1F
100
AcDbEntity
  8
LC-001-002-----0
 62
     7
370
    50
100
AcDbLine
 10
513.242723
 20
466.787253
 30
0.0
 11
515.23614
 21
466.787253
 31
0.0
  0
LINE
  5
4E7
102
{ACAD_REACTORS
330
559
102
}
330
1F
100
AcDbEntity
  8
LC-001-002-----0
 62
     7
370
    50
100
AcDbLine
 10
515.23614
 20
466.787253
 30
0.0
 11
515.23614
 21
464.251935
 31
0.0
  0
LINE
  5
4E8
102
{ACAD_REACTORS
330
559
102
}
330
1F
100
AcDbEntity
  8
LC-001-002-----0
 62
     7
370
    50
100
AcDbLine
 10
392.249083
 20
466.787253
 30
0.0
 11
392.249083
 21
464.251935
 31
0.0
  0
ARC
  5
4E9
102
{ACAD_REACTORS
330
559
102
}
330
1F
100
AcDbEntity
  8
LC-004-002-RND-0
 62
     7
370
    50
100
AcDbCircle
 10
349.968824
 20
469.501486
 30
0.0
 40
0.1999999999999318
100
AcDbArc
 50
180.0
 51
253.0
  0
LINE
  5
4EA
102
{ACAD_REACTORS
330
559
102
}
330
1F
100
AcDbEntity
  8
LC-001-002-----0
 62
     7
370
    50
100
AcDbLine
 10
349.768824
 20
469.501486
 30
0.0
 11
349.768824
 21
469.754351
 31
0.0
  0
LINE
  5
4EB
330
1F
100
AcDbEntity
  8
LC-001-002-----0
 62
     7
370
    50
100
AcDbLine
 10
514.742723
 20
461.219723
 30
0.0
 11
513.742723
 21
462.219723
 31
0.0
  0
ARC
  5
4EC
102
{ACAD_REACTORS
330
559
102
}
330
1F
100
AcDbEntity
  8
LC-004-002-RND-0
 62
     7
370
    50
100
AcDbCircle
 10
557.516398
 20
469.501486
 30
0.0
 40
0.1999999999999649
100
AcDbArc
 50
287.0
 51
0.0
  0
LINE
  5
4ED
102
{ACAD_REACTORS
330
559
102
}
330
1F
100
AcDbEntity
  8
LC-001-002-----0
 62
     7
370
    50
100
AcDbLine
 10
557.716398
 20
469.501486
 30
0.0
 11
557.716398
 21
469.754351
 31
0.0
  0
LINE
  5
4EE
330
1F
100
AcDbEntity
  8
LC-001-002-----0
 62
     7
370
    50
100
AcDbLine
 10
514.742611
 20
469.754351
 30
0.0
 11
514.742611
 21
475.254351
 31
0.0
  0
LINE
  5
4EF
330
1F
100
AcDbEntity
  8
LC-001-002-----0
 62
     7
370
    50
100
AcDbLine
 10
398.742611
 20
458.219723
 30
0.0
 11
453.742611
 21
458.219723
 31
0.0
  0
LINE
  5
4F0
330
1F
100
AcDbEntity
  8
LC-001-002-----0
 62
     7
370
    50
100
AcDbLine
 10
397.299235
 20
478.254351
 30
0.0
 11
509.418038
 21
478.254351
 31
0.0
  0
ARC
  5
4F1
330
1F
100
AcDbEntity
  8
LC-001-002-----0
 62
     7
370
    50
100
AcDbCircle
 10
511.726385
 20
468.770802
 30
0.0
 40
0.9835487938923961
100
AcDbArc
 50
90.0
 51
270.0
  0
LINE
  5
4F2
330
1F
100
AcDbEntity
  8
LC-001-002-----0
 62
     7
370
    50
100
AcDbLine
 10
511.726385
 20
467.787253
 30
0.0
 11
512.242723
 21
467.787253
 31
0.0
  0
LINE
  5
4F3
330
1F
100
AcDbEntity
  8
LC-001-002-----0
 62
     7
370
    50
100
AcDbLine
 10
512.742723
 20
465.787253
 30
0.0
 11
512.242723
 21
465.787253
 31
0.0
  0
LINE
  5
4F4
330
1F
100
AcDbEntity
  8
LC-001-002-----0
 62
     7
370
    50
100
AcDbLine
 10
512.242723
 20
465.787253
 30
0.0
 11
512.242723
 21
467.787253
 31
0.0
  0
LINE
  5
4F5
330
1F
100
AcDbEntity
  8
LC-001-002-----0
 62
     7
370
    50
100
AcDbLine
 10
512.742723
 20
465.787253
 30
0.0
 11
513.242723
 21
466.787253
 31
0.0
  0
LINE
  5
4F6
330
1F
100
AcDbEntity
  8
LC-001-002-----0
 62
     7
370
    50
100
AcDbLine
 10
513.242723
 20
466.787253
 30
0.0
 11
513.742723
 21
466.787253
 31
0.0
  0
LINE
  5
4F7
330
1F
100
AcDbEntity
  8
LC-001-002-----0
 62
     7
370
    50
100
AcDbLine
 10
513.742723
 20
458.219723
 30
0.0
 11
508.742611
 21
458.219723
 31
0.0
  0
LINE
  5
4F8
330
1F
100
AcDbEntity
  8
LC-001-002-----0
 62
     7
370
    50
100
AcDbLine
 10
508.742611
 20
458.219723
 30
0.0
 11
453.742611
 21
458.219723
 31
0.0
  0
LINE
  5
4F9
330
1F
100
AcDbEntity
  8
LC-001-002-----0
 62
     7
370
    50
100
AcDbLine
 10
513.742723
 20
466.787253
 30
0.0
 11
513.742723
 21
462.219723
 31
0.0
  0
LINE
  5
4FA
330
1F
100
AcDbEntity
  8
LC-001-002-----0
 62
     7
370
    50
100
AcDbLine
 10
511.726385
 20
469.754351
 30
0.0
 11
514.742611
 21
469.754351
 31
0.0
  0
ARC
  5
4FB
330
1F
100
AcDbEntity
  8
LC-001-002-----0
 62
     7
370
    50
100
AcDbCircle
 10
511.742611
 20
475.254351
 30
0.0
 40
3.000000000000057
100
AcDbArc
 50
0.0
 51
90.0
  0
ARC
  5
4FC
330
1F
100
AcDbEntity
  8
LC-001-002-----0
 62
     7
370
    50
100
AcDbCircle
 10
511.726385
 20
468.770802
 30
0.0
 40
0.9835487938923961
100
AcDbArc
 50
90.0
 51
270.0
  0
LINE
  5
4FD
330
1F
100
AcDbEntity
  8
LC-001-002-----0
 62
     7
370
    50
100
AcDbLine
 10
392.742611
 20
469.754351
 30
0.0
 11
392.742611
 21
475.254351
 31
0.0
  0
ARC
  5
4FE
330
1F
100
AcDbEntity
  8
LC-001-002-----0
 62
     7
370
    50
100
AcDbCircle
 10
395.758837
 20
468.770802
 30
0.0
 40
0.9835487938923961
100
AcDbArc
 50
270.0
 51
90.0
  0
LINE
  5
4FF
330
1F
100
AcDbEntity
  8
LC-001-002-----0
 62
     7
370
    50
100
AcDbLine
 10
395.758837
 20
467.787253
 30
0.0
 11
395.242499
 21
467.787253
 31
0.0
  0
LINE
  5
500
330
1F
100
AcDbEntity
  8
LC-001-002-----0
 62
     7
370
    50
100
AcDbLine
 10
394.742499
 20
465.787253
 30
0.0
 11
395.242499
 21
465.787253
 31
0.0
  0
LINE
  5
501
330
1F
100
AcDbEntity
  8
LC-001-002-----0
 62
     7
370
    50
100
AcDbLine
 10
395.242499
 20
465.787253
 30
0.0
 11
395.242499
 21
467.787253
 31
0.0
  0
LINE
  5
502
330
1F
100
AcDbEntity
  8
LC-001-002-----0
 62
     7
370
    50
100
AcDbLine
 10
394.742499
 20
465.787253
 30
0.0
 11
394.242499
 21
466.787253
 31
0.0
  0
LINE
  5
503
330
1F
100
AcDbEntity
  8
LC-001-002-----0
 62
     7
370
    50
100
AcDbLine
 10
394.242499
 20
466.787253
 30
0.0
 11
393.742499
 21
466.787253
 31
0.0
  0
LINE
  5
504
330
1F
100
AcDbEntity
  8
LC-001-002-----0
 62
     7
370
    50
100
AcDbLine
 10
395.758837
 20
469.754351
 30
0.0
 11
392.742611
 21
469.754351
 31
0.0
  0
ARC
  5
505
330
1F
100
AcDbEntity
  8
LC-004-002-RND-0
 62
     7
370
    50
100
AcDbCircle
 10
398.067185
 20
477.754351
 30
0.0
 40
0.4999999999998857
100
AcDbArc
 50
30.0
 51
90.0
  0
LINE
  5
506
330
1F
100
AcDbEntity
  8
LC-001-002-----0
 62
     7
370
    50
100
AcDbLine
 10
395.742611
 20
478.254351
 30
0.0
 11
397.299235
 21
478.254351
 31
0.0
  0
LINE
  5
507
330
1F
100
AcDbEntity
  8
LC-001-002-----0
 62
     7
370
    50
100
AcDbLine
 10
398.500197
 20
478.004351
 30
0.0
 11
401.242611
 21
473.254351
 31
0.0
  0
ARC
  5
508
330
1F
100
AcDbEntity
  8
LC-001-002-----0
 62
     7
370
    50
100
AcDbCircle
 10
395.742611
 20
475.254351
 30
0.0
 40
3.0
100
AcDbArc
 50
90.0
 51
180.0
  0
LINE
  5
509
330
1F
100
AcDbEntity
  8
LC-001-002-----0
 62
     7
370
    50
100
AcDbLine
 10
393.742499
 20
458.219723
 30
0.0
 11
398.742611
 21
458.219723
 31
0.0
  0
LINE
  5
50A
330
1F
100
AcDbEntity
  8
LC-001-002-----0
 62
     7
370
    50
100
AcDbLine
 10
393.742499
 20
466.787253
 30
0.0
 11
393.742499
 21
462.219723
 31
0.0
  0
LINE
  5
50B
330
1F
100
AcDbEntity
  8
LC-001-002-----0
 62
     7
370
    50
100
AcDbLine
 10
392.742499
 20
461.219723
 30
0.0
 11
392.742499
 21
459.219723
 31
0.0
  0
LINE
  5
50C
330
1F
100
AcDbEntity
  8
LC-001-002-----0
 62
     7
370
    50
100
AcDbLine
 10
393.742499
 20
458.219723
 30
0.0
 11
392.742499
 21
459.219723
 31
0.0
  0
LINE
  5
50D
330
1F
100
AcDbEntity
  8
LC-001-002-----0
 62
     7
370
    50
100
AcDbLine
 10
392.742499
 20
461.219723
 30
0.0
 11
393.742499
 21
462.219723
 31
0.0
  0
LINE
  5
50E
330
1F
100
AcDbEntity
  8
LC-001-002-----0
 62
     7
370
    50
100
AcDbLine
 10
398.492611
 20
474.842064
 30
0.0
 11
401.242611
 21
473.254351
 31
0.0
  0
LINE
  5
50F
330
1F
100
AcDbEntity
  8
LC-001-002-----0
 62
     7
370
    50
100
AcDbLine
 10
397.742611
 20
474.409051
 30
0.0
 11
397.742611
 21
464.724351
 31
0.0
  0
LINE
  5
510
330
1F
100
AcDbEntity
  8
LC-001-002-----0
 62
     7
370
    50
100
AcDbLine
 10
397.742611
 20
460.724351
 30
0.0
 11
397.742611
 21
458.219723
 31
0.0
  0
LINE
  5
511
330
1F
100
AcDbEntity
  8
LC-001-002-----0
 62
     7
370
    50
100
AcDbLine
 10
509.742611
 20
474.409051
 30
0.0
 11
509.742611
 21
464.724351
 31
0.0
  0
ARC
  5
512
330
1F
100
AcDbEntity
  8
LC-001-002-----0
 62
     7
370
    50
100
AcDbCircle
 10
511.242611
 20
462.724351
 30
0.0
 40
2.500000000001046
100
AcDbArc
 50
126.869898
 51
233.130102
  0
LINE
  5
513
330
1F
100
AcDbEntity
  8
LC-001-002-----0
 62
     7
370
    50
100
AcDbLine
 10
509.742611
 20
460.724351
 30
0.0
 11
509.742611
 21
458.219723
 31
0.0
  0
LINE
  5
514
330
1F
100
AcDbEntity
  8
LC-001-002-----0
 62
     7
370
    50
100
AcDbLine
 10
508.985025
 20
478.004351
 30
0.0
 11
506.242611
 21
473.254351
 31
0.0
  0
LINE
  5
515
330
1F
100
AcDbEntity
  8
LC-001-002-----0
 62
     7
370
    50
100
AcDbLine
 10
508.992611
 20
474.842064
 30
0.0
 11
506.242611
 21
473.254351
 31
0.0
  0
ARC
  5
516
330
1F
100
AcDbEntity
  8
LC-004-002-RND-0
 62
     7
370
    50
100
AcDbCircle
 10
509.242611
 20
474.409051
 30
0.0
 40
0.5
100
AcDbArc
 50
0.0
 51
120.0
  0
ARC
  5
517
330
1F
100
AcDbEntity
  8
LC-004-002-RND-0
 62
     7
370
    50
100
AcDbCircle
 10
509.418038
 20
477.754351
 30
0.0
 40
0.4999999999998863
100
AcDbArc
 50
90.0
 51
150.0
  0
LINE
  5
518
330
1F
100
AcDbEntity
  8
LC-001-002-----0
 62
     7
370
    50
100
AcDbLine
 10
511.742611
 20
478.254351
 30
0.0
 11
509.418038
 21
478.254351
 31
0.0
  0
INSERT
  5
525
330
1F
100
AcDbEntity
  8
LC-003-005-----0
 62
     7
370
    25
100
AcDbBlockReference
  2
*X1825
 10
0.0
 20
0.0
 30
0.0
  0
INSERT
  5
533
330
1F
100
AcDbEntity
  8
LC-003-005-----0
 62
     7
370
    25
100
AcDbBlockReference
  2
*X1926
 10
0.0
 20
0.0
 30
0.0
  0
LINE
  5
534
330
1F
100
AcDbEntity
  8
LC-001-002-----0
  6
DASHDOT
 62
     7
370
    25
100
AcDbLine
 10
453.742611
 20
478.254351
 30
0.0
 11
453.742611
 21
458.219723
 31
0.0
  0
ENDSEC
  0
SECTION
  2
OBJECTS
  0
DICTIONARY
  5
C
330
0
100
AcDbDictionary
281
     1
  3
ACAD_GROUP
350
D
  3
ACAD_LAYOUT
350
1A
  3
ACAD_MLINESTYLE
350
17
  3
ACAD_PLOTSETTINGS
350
19
  3
ACAD_PLOTSTYLENAME
350
E
  0
DICTIONARY
  5
D
102
{ACAD_REACTORS
330
C
102
}
330
C
100
AcDbDictionary
281
     1
  3
LCGROUP1846
350
55B
  3
LCGROUP1874
350
55C
  3
LCGROUP1933
350
538
  3
LCGROUP2247
350
54F
  3
LCGROUP2505
350
547
  3
LCGROUP2542
350
558
  3
LCGROUP2726
350
535
  3
LCGROUP2749
350
537
  3
LCGROUP2751
350
536
  3
LCGROUP2753
350
540
  3
LCGROUP2755
350
53F
  3
LCGROUP2757
350
53E
  3
LCGROUP2759
350
53D
  3
LCGROUP2761
350
53C
  3
LCGROUP2763
350
53B
  3
LCGROUP2765
350
53A
  3
LCGROUP2767
350
539
  3
LCGROUP2769
350
546
  3
LCGROUP2771
350
545
  3
LCGROUP2773
350
544
  3
LCGROUP2775
350
543
  3
LCGROUP2777
350
542
  3
LCGROUP2781
350
541
  3
LCGROUP2786
350
54E
  3
LCGROUP2788
350
54D
  3
LCGROUP2790
350
54C
  3
LCGROUP2792
350
54B
  3
LCGROUP2794
350
54A
  3
LCGROUP2796
350
549
  3
LCGROUP2798
350
548
  3
LCGROUP2800
350
557
  3
LCGROUP2802
350
556
  3
LCGROUP2804
350
555
  3
LCGROUP2806
350
554
  3
LCGROUP2808
350
553
  3
LCGROUP2810
350
552
  3
LCGROUP2812
350
551
  3
LCGROUP2814
350
550
  3
LCGROUP2818
350
55A
  3
LCGROUP2822
350
559
  0
DICTIONARY
  5
1A
102
{ACAD_REACTORS
330
C
102
}
330
C
100
AcDbDictionary
281
     1
  3
Layout1
350
1E
  3
Layout2
350
26
  3
Model
350
22
  0
DICTIONARY
  5
17
102
{ACAD_REACTORS
330
C
102
}
330
C
100
AcDbDictionary
281
     1
  3
Standard
350
18
  0
DICTIONARY
  5
19
102
{ACAD_REACTORS
330
C
102
}
330
C
100
AcDbDictionary
281
     1
  0
ACDBDICTIONARYWDFLT
  5
E
102
{ACAD_REACTORS
330
C
102
}
330
C
100
AcDbDictionary
281
     1
  3
Normal
350
F
100
AcDbDictionaryWithDefault
340
F
  0
GROUP
  5
55B
102
{ACAD_REACTORS
330
D
102
}
330
D
100
AcDbGroup
300
Bruchlinie
 70
     1
 71
     1
340
102
340
103
  0
GROUP
  5
55C
102
{ACAD_REACTORS
330
D
102
}
330
D
100
AcDbGroup
300
GRP1874
 70
     1
 71
     1
340
164
340
165
340
166
340
167
340
168
340
169
340
16A
340
16B
340
172
340
17F
340
180
340
181
340
182
340
183
340
184
340
185
340
186
340
187
340
188
340
18A
340
18B
340
18C
340
19A
340
19B
340
19C
340
19D
340
19E
340
19F
340
1A0
340
1A1
340
1A2
340
1A8
340
1B5
340
1B6
340
1B7
340
1B8
340
1B9
340
1BA
340
1BB
340
1BC
340
1BD
340
1BE
340
1BF
340
1C0
340
1C1
340
1CF
340
1D0
340
1D1
  0
GROUP
  5
538
102
{ACAD_REACTORS
330
D
102
}
330
D
100
AcDbGroup
300
Glasmatte
 70
     1
 71
     1
340
1E7
340
1E8
340
1E9
340
1EA
340
1EB
340
1EC
340
1ED
340
1EE
340
1EF
340
1F0
340
1F1
340
1F2
340
1F3
340
1F4
340
1F5
340
1F6
340
1F7
340
1F8
340
1F9
340
1FA
340
1FB
340
1FC
340
1FD
340
1FE
340
1FF
340
200
340
201
340
202
340
203
340
204
340
205
340
206
340
207
340
208
340
209
340
20A
340
20B
340
20C
340
20D
340
20E
340
20F
340
210
340
211
340
212
340
213
340
214
340
215
340
216
340
217
340
218
340
219
340
21A
340
21B
340
21C
340
21D
340
21E
340
21F
340
220
340
221
340
222
340
223
340
224
340
225
340
226
340
227
340
228
340
229
340
22A
340
22B
340
22C
340
22D
340
22E
340
22F
340
230
340
231
340
232
340
233
340
234
340
235
340
236
340
237
340
238
340
239
340
23A
340
23B
340
23C
340
23D
340
23E
340
23F
340
240
340
241
340
242
340
243
340
244
340
245
340
246
340
247
340
248
340
249
340
24A
340
24B
340
24C
340
24D
340
24E
340
24F
340
250
340
251
340
252
340
253
340
254
340
255
340
256
340
257
340
258
340
259
340
25A
340
25B
340
25C
340
25D
340
25E
340
25F
340
260
340
261
340
262
340
263
340
264
340
265
340
266
340
267
340
268
340
269
340
26A
340
26B
340
26C
340
26D
340
26E
340
26F
340
270
340
271
340
272
340
273
340
274
340
275
340
276
340
277
340
278
340
279
340
27A
340
27B
340
27C
340
27D
340
27E
340
27F
340
280
340
281
340
282
340
283
340
284
340
285
340
286
340
287
340
288
340
289
340
28A
340
28B
340
28C
340
28D
340
28E
340
28F
340
290
340
291
340
292
340
293
340
294
340
295
340
296
340
297
340
298
340
299
340
29A
340
29B
340
29C
340
29D
340
29E
340
29F
340
2A0
340
2A1
340
2A2
340
2A3
340
2A4
340
2A5
340
2A6
340
2A7
340
2A8
340
2A9
340
2AA
340
2AB
340
2AC
340
2AD
340
2AE
340
2AF
340
2B0
340
2B1
340
2B2
340
2B3
340
2B4
340
2B5
340
2B6
340
2B7
340
2B8
340
2B9
340
2BA
340
2BB
340
2BC
340
2BD
340
2BE
340
2BF
340
2C0
340
2C1
340
2C2
340
2C3
340
2C4
340
2C5
340
2C6
  0
GROUP
  5
54F
102
{ACAD_REACTORS
330
D
102
}
330
D
100
AcDbGroup
300
GRP2247
 70
     1
 71
     1
340
386
340
387
340
388
340
389
340
38A
340
38B
340
38C
340
38D
340
38E
340
38F
340
390
340
391
340
392
340
393
340
394
340
395
340
396
340
397
340
398
340
399
340
39A
340
39B
340
39C
340
39D
340
39E
340
39F
340
3A0
340
3A1
340
3A2
340
3A3
340
3A4
340
3A5
340
3A6
340
3A7
340
3A8
340
3A9
  0
GROUP
  5
547
102
{ACAD_REACTORS
330
D
102
}
330
D
100
AcDbGroup
300
E
 70
     1
 71
     1
340
3EA
340
3EB
340
3EC
340
3ED
340
3EE
340
3EF
340
3F0
340
3F1
340
3F2
340
3F3
340
3F4
340
3F5
340
3F6
340
3F7
340
40E
340
40F
340
410
340
411
340
412
340
413
340
414
340
415
340
416
340
417
340
418
340
419
340
41A
340
41B
340
41C
340
41D
340
41E
340
41F
  0
GROUP
  5
558
102
{ACAD_REACTORS
330
D
102
}
330
D
100
AcDbGroup
300
GRP2542
 70
     1
 71
     1
340
469
340
46F
340
470
340
471
340
472
340
473
340
474
340
475
340
476
  0
GROUP
  5
535
102
{ACAD_REACTORS
330
D
102
}
330
D
100
AcDbGroup
300
GRP2726
 70
     1
 71
     1
340
478
  0
GROUP
  5
537
102
{ACAD_REACTORS
330
D
102
}
330
D
100
AcDbGroup
300
GRP2749
 70
     1
 71
     1
340
484
  0
GROUP
  5
536
102
{ACAD_REACTORS
330
D
102
}
330
D
100
AcDbGroup
300
GRP2751
 70
     1
 71
     1
340
485
  0
GROUP
  5
540
102
{ACAD_REACTORS
330
D
102
}
330
D
100
AcDbGroup
300
GRP2753
 70
     1
 71
     1
340
486
  0
GROUP
  5
53F
102
{ACAD_REACTORS
330
D
102
}
330
D
100
AcDbGroup
300
GRP2755
 70
     1
 71
     1
340
487
  0
GROUP
  5
53E
102
{ACAD_REACTORS
330
D
102
}
330
D
100
AcDbGroup
300
GRP2757
 70
     1
 71
     1
340
488
  0
GROUP
  5
53D
102
{ACAD_REACTORS
330
D
102
}
330
D
100
AcDbGroup
300
GRP2759
 70
     1
 71
     1
340
489
  0
GROUP
  5
53C
102
{ACAD_REACTORS
330
D
102
}
330
D
100
AcDbGroup
300
GRP2761
 70
     1
 71
     1
340
48A
  0
GROUP
  5
53B
102
{ACAD_REACTORS
330
D
102
}
330
D
100
AcDbGroup
300
GRP2763
 70
     1
 71
     1
340
48B
  0
GROUP
  5
53A
102
{ACAD_REACTORS
330
D
102
}
330
D
100
AcDbGroup
300
GRP2765
 70
     1
 71
     1
340
48C
  0
GROUP
  5
539
102
{ACAD_REACTORS
330
D
102
}
330
D
100
AcDbGroup
300
GRP2767
 70
     1
 71
     1
340
48D
  0
GROUP
  5
546
102
{ACAD_REACTORS
330
D
102
}
330
D
100
AcDbGroup
300
GRP2769
 70
     1
 71
     1
340
48E
  0
GROUP
  5
545
102
{ACAD_REACTORS
330
D
102
}
330
D
100
AcDbGroup
300
GRP2771
 70
     1
 71
     1
340
48F
  0
GROUP
  5
544
102
{ACAD_REACTORS
330
D
102
}
330
D
100
AcDbGroup
300
GRP2773
 70
     1
 71
     1
340
490
  0
GROUP
  5
543
102
{ACAD_REACTORS
330
D
102
}
330
D
100
AcDbGroup
300
GRP2775
 70
     1
 71
     1
340
491
  0
GROUP
  5
542
102
{ACAD_REACTORS
330
D
102
}
330
D
100
AcDbGroup
300
GRP2777
 70
     1
 71
     1
340
492
  0
GROUP
  5
541
102
{ACAD_REACTORS
330
D
102
}
330
D
100
AcDbGroup
300
GRP2781
 70
     1
 71
     1
340
495
  0
GROUP
  5
54E
102
{ACAD_REACTORS
330
D
102
}
330
D
100
AcDbGroup
300
GRP2786
 70
     1
 71
     1
340
499
  0
GROUP
  5
54D
102
{ACAD_REACTORS
330
D
102
}
330
D
100
AcDbGroup
300
GRP2788
 70
     1
 71
     1
340
49A
  0
GROUP
  5
54C
102
{ACAD_REACTORS
330
D
102
}
330
D
100
AcDbGroup
300
GRP2790
 70
     1
 71
     1
340
49B
  0
GROUP
  5
54B
102
{ACAD_REACTORS
330
D
102
}
330
D
100
AcDbGroup
300
GRP2792
 70
     1
 71
     1
340
49C
  0
GROUP
  5
54A
102
{ACAD_REACTORS
330
D
102
}
330
D
100
AcDbGroup
300
GRP2794
 70
     1
 71
     1
340
49D
  0
GROUP
  5
549
102
{ACAD_REACTORS
330
D
102
}
330
D
100
AcDbGroup
300
GRP2796
 70
     1
 71
     1
340
49E
  0
GROUP
  5
548
102
{ACAD_REACTORS
330
D
102
}
330
D
100
AcDbGroup
300
GRP2798
 70
     1
 71
     1
340
49F
  0
GROUP
  5
557
102
{ACAD_REACTORS
330
D
102
}
330
D
100
AcDbGroup
300
GRP2800
 70
     1
 71
     1
340
4A0
  0
GROUP
  5
556
102
{ACAD_REACTORS
330
D
102
}
330
D
100
AcDbGroup
300
GRP2802
 70
     1
 71
     1
340
4A1
  0
GROUP
  5
555
102
{ACAD_REACTORS
330
D
102
}
330
D
100
AcDbGroup
300
GRP2804
 70
     1
 71
     1
340
4A2
  0
GROUP
  5
554
102
{ACAD_REACTORS
330
D
102
}
330
D
100
AcDbGroup
300
GRP2806
 70
     1
 71
     1
340
4A3
  0
GROUP
  5
553
102
{ACAD_REACTORS
330
D
102
}
330
D
100
AcDbGroup
300
GRP2808
 70
     1
 71
     1
340
4A4
  0
GROUP
  5
552
102
{ACAD_REACTORS
330
D
102
}
330
D
100
AcDbGroup
300
GRP2810
 70
     1
 71
     1
340
4A5
  0
GROUP
  5
551
102
{ACAD_REACTORS
330
D
102
}
330
D
100
AcDbGroup
300
GRP2812
 70
     1
 71
     1
340
4A6
  0
GROUP
  5
550
102
{ACAD_REACTORS
330
D
102
}
330
D
100
AcDbGroup
300
GRP2814
 70
     1
 71
     1
340
4A7
  0
GROUP
  5
55A
102
{ACAD_REACTORS
330
D
102
}
330
D
100
AcDbGroup
300
GRP2818
 70
     1
 71
     1
340
4AA
  0
GROUP
  5
559
102
{ACAD_REACTORS
330
D
102
}
330
D
100
AcDbGroup
300
Gruppe 1391
 70
     1
 71
     1
340
4AD
340
4AE
340
4AF
340
4B0
340
4B2
340
4B3
340
4B4
340
4B5
340
4B6
340
4B7
340
4B8
340
4B9
340
4BB
340
4BC
340
4BD
340
4BE
340
4BF
340
4C0
340
4C1
340
4C2
340
4C3
340
4C4
340
4C5
340
4C6
340
4C7
340
4C8
340
4C9
340
4CA
340
4CB
340
4CC
340
4CD
340
4D0
340
4D1
340
4D3
340
4D4
340
4D5
340
4D9
340
4DA
340
4DB
340
4DC
340
4DD
340
4DE
340
4DF
340
4E0
340
4E1
340
4E2
340
4E3
340
4E4
340
4E5
340
4E6
340
4E7
340
4E8
340
4E9
340
4EA
340
4EC
340
4ED
  0
LAYOUT
  5
1E
102
{ACAD_REACTORS
330
1A
102
}
330
1A
100
AcDbPlotSettings
  1

  2

  4

  6

 40
0.0
 41
0.0
 42
0.0
 43
0.0
 44
0.0
 45
0.0
 46
0.0
 47
0.0
 48
0.0
 49
0.0
140
0.0
141
0.0
142
1.0
143
1.0
 70
   688
 72
     0
 73
     0
 74
     5
  7

 75
    16
147
1.0
148
0.0
149
0.0
100
AcDbLayout
  1
Layout1
 70
     1
 71
     1
 10
81.566026
 20
211.678
 11
921.566026
 21
805.678
 12
0.0
 22
0.0
 32
0.0
 14
81.566026
 24
211.678
 34
0.0
 15
921.566026
 25
805.678
 35
0.0
146
0.0
 13
0.0
 23
0.0
 33
0.0
 16
1.0
 26
0.0
 36
0.0
 17
0.0
 27
1.0
 37
0.0
 76
     0
330
1B
  0
LAYOUT
  5
26
102
{ACAD_REACTORS
330
1A
102
}
330
1A
100
AcDbPlotSettings
  1

  2

  4

  6

 40
0.0
 41
0.0
 42
0.0
 43
0.0
 44
0.0
 45
0.0
 46
0.0
 47
0.0
 48
0.0
 49
0.0
140
0.0
141
0.0
142
1.0
143
1.0
 70
   688
 72
     0
 73
     0
 74
     5
  7

 75
    16
147
1.0
148
0.0
149
0.0
100
AcDbLayout
  1
Layout2
 70
     1
 71
     2
 10
0.0
 20
0.0
 11
0.0
 21
0.0
 12
0.0
 22
0.0
 32
0.0
 14
0.0
 24
0.0
 34
0.0
 15
0.0
 25
0.0
 35
0.0
146
0.0
 13
0.0
 23
0.0
 33
0.0
 16
1.0
 26
0.0
 36
0.0
 17
0.0
 27
1.0
 37
0.0
 76
     0
330
23
  0
LAYOUT
  5
22
102
{ACAD_REACTORS
330
1A
102
}
330
1A
100
AcDbPlotSettings
  1

  2

  4

  6

 40
0.0
 41
0.0
 42
0.0
 43
0.0
 44
0.0
 45
0.0
 46
0.0
 47
0.0
 48
0.0
 49
0.0
140
0.0
141
0.0
142
1.0
143
1.0
 70
  1776
 72
     0
 73
     0
 74
     0
  7

 75
     0
147
1.0
148
0.0
149
0.0
100
AcDbLayout
  1
Model
 70
     1
 71
     0
 10
81.566026
 20
211.678
 11
921.566026
 21
805.678
 12
81.566026
 22
211.678
 32
0.0
 14
81.566026
 24
211.678
 34
0.0
 15
921.566026
 25
805.678
 35
0.0
146
0.0
 13
0.0
 23
0.0
 33
0.0
 16
1.0
 26
0.0
 36
0.0
 17
0.0
 27
1.0
 37
0.0
 76
     0
330
1F
  0
MLINESTYLE
  5
18
102
{ACAD_REACTORS
330
17
102
}
330
17
100
AcDbMlineStyle
  2
Standard
 70
     0
  3

 62
   256
 51
90.0
 52
90.0
 71
     2
 49
0.5
 62
   256
  6
BYLAYER
 49
-0.5
 62
   256
  6
BYLAYER
  0
ACDBPLACEHOLDER
  5
F
102
{ACAD_REACTORS
330
E
102
}
330
E
  0
ENDSEC
  0
EOF
