  0
SECTION
  2
HEADER
  9
$ACADVER
  1
AC1015
  9
$ACADMAINTVER
 70
     6
  9
$DWGCODEPAGE
  3
ANSI_1252
  9
$INSBASE
 10
0.0
 20
0.0
 30
0.0
  9
$EXTMIN
 10
-838.869441
 20
-601.300707
 30
0.0
  9
$EXTMAX
 10
1261.130559
 20
883.699293
 30
0.0
  9
$LIMMIN
 10
-838.869441
 20
-601.300707
  9
$LIMMAX
 10
1261.130559
 20
883.699293
  9
$ORTHOMODE
 70
     0
  9
$REGENMODE
 70
     1
  9
$FILLMODE
 70
     1
  9
$QTEXTMODE
 70
     0
  9
$MIRRTEXT
 70
     1
  9
$LTSCALE
 40
5.0
  9
$ATTMODE
 70
     1
  9
$TEXTSIZE
 40
2.5
  9
$TRACEWID
 40
1.0
  9
$TEXTSTYLE
  7
Standard
  9
$CLAYER
  8
0
  9
$CELTYPE
  6
ByLayer
  9
$CECOLOR
 62
     7
  9
$CELTSCALE
 40
1.0
  9
$DISPSILH
 70
     0
  9
$DIMSCALE
 40
5.0
  9
$DIMASZ
 40
3.5
  9
$DIMEXO
 40
0.625
  9
$DIMDLI
 40
3.75
  9
$DIMRND
 40
0.0
  9
$DIMDLE
 40
0.0
  9
$DIMEXE
 40
1.25
  9
$DIMTP
 40
0.0
  9
$DIMTM
 40
0.0
  9
$DIMTXT
 40
3.5
  9
$DIMCEN
 40
2.5
  9
$DIMTSZ
 40
0.0
  9
$DIMTOL
 70
     0
  9
$DIMLIM
 70
     0
  9
$DIMTIH
 70
     0
  9
$DIMTOH
 70
     0
  9
$DIMSE1
 70
     0
  9
$DIMSE2
 70
     0
  9
$DIMTAD
 70
     1
  9
$DIMZIN
 70
     8
  9
$DIMBLK
  1

  9
$DIMASO
 70
     1
  9
$DIMSHO
 70
     1
  9
$DIMPOST
  1

  9
$DIMAPOST
  1

  9
$DIMALT
 70
     0
  9
$DIMALTD
 70
     3
  9
$DIMALTF
 40
0.03937
  9
$DIMLFAC
 40
1.0
  9
$DIMTOFL
 70
     1
  9
$DIMTVP
 40
0.0
  9
$DIMTIX
 70
     0
  9
$DIMSOXD
 70
     0
  9
$DIMSAH
 70
     0
  9
$DIMBLK1
  1

  9
$DIMBLK2
  1

  9
$DIMSTYLE
  2
ISO-25
  9
$DIMCLRD
 70
     0
  9
$DIMCLRE
 70
     0
  9
$DIMCLRT
 70
     0
  9
$DIMTFAC
 40
1.0
  9
$DIMGAP
 40
0.625
  9
$DIMJUST
 70
     0
  9
$DIMSD1
 70
     0
  9
$DIMSD2
 70
     0
  9
$DIMTOLJ
 70
     0
  9
$DIMTZIN
 70
     8
  9
$DIMALTZ
 70
     0
  9
$DIMALTTZ
 70
     0
  9
$DIMUPT
 70
     0
  9
$DIMDEC
 70
     2
  9
$DIMTDEC
 70
     2
  9
$DIMALTU
 70
     2
  9
$DIMALTTD
 70
     3
  9
$DIMTXSTY
  7
Standard
  9
$DIMAUNIT
 70
     0
  9
$DIMADEC
 70
     0
  9
$DIMALTRND
 40
0.0
  9
$DIMAZIN
 70
     0
  9
$DIMDSEP
 70
    44
  9
$DIMATFIT
 70
     3
  9
$DIMFRAC
 70
     0
  9
$DIMLDRBLK
  1

  9
$DIMLUNIT
 70
     2
  9
$DIMLWD
 70
    -2
  9
$DIMLWE
 70
    -2
  9
$DIMTMOVE
 70
     0
  9
$LUNITS
 70
     2
  9
$LUPREC
 70
     4
  9
$SKETCHINC
 40
1.0
  9
$FILLETRAD
 40
10.0
  9
$AUNITS
 70
     0
  9
$AUPREC
 70
     0
  9
$MENU
  1
.
  9
$ELEVATION
 40
0.0
  9
$PELEVATION
 40
0.0
  9
$THICKNESS
 40
0.0
  9
$LIMCHECK
 70
     0
  9
$CHAMFERA
 40
10.0
  9
$CHAMFERB
 40
10.0
  9
$CHAMFERC
 40
20.0
  9
$CHAMFERD
 40
0.0
  9
$SKPOLY
 70
     0
  9
$TDCREATE
 40
2456031.488566285
  9
$TDUCREATE
 40
2456031.405232952
  9
$TDUPDATE
 40
2456031.488566296
  9
$TDUUPDATE
 40
2456031.405232963
  9
$TDINDWG
 40
0.0000000116
  9
$TDUSRTIMER
 40
0.0000000116
  9
$USRTIMER
 70
     1
  9
$ANGBASE
 50
0.0
  9
$ANGDIR
 70
     0
  9
$PDMODE
 70
     0
  9
$PDSIZE
 40
0.0
  9
$PLINEWID
 40
0.0
  9
$SPLFRAME
 70
     0
  9
$SPLINETYPE
 70
     6
  9
$SPLINESEGS
 70
     8
  9
$HANDSEED
  5
6A1
  9
$SURFTAB1
 70
     6
  9
$SURFTAB2
 70
     6
  9
$SURFTYPE
 70
     6
  9
$SURFU
 70
     6
  9
$SURFV
 70
     6
  9
$UCSBASE
  2

  9
$UCSNAME
  2

  9
$UCSORG
 10
0.0
 20
0.0
 30
0.0
  9
$UCSXDIR
 10
1.0
 20
0.0
 30
0.0
  9
$UCSYDIR
 10
0.0
 20
1.0
 30
0.0
  9
$UCSORTHOREF
  2

  9
$UCSORTHOVIEW
 70
     0
  9
$UCSORGTOP
 10
0.0
 20
0.0
 30
0.0
  9
$UCSORGBOTTOM
 10
0.0
 20
0.0
 30
0.0
  9
$UCSORGLEFT
 10
0.0
 20
0.0
 30
0.0
  9
$UCSORGRIGHT
 10
0.0
 20
0.0
 30
0.0
  9
$UCSORGFRONT
 10
0.0
 20
0.0
 30
0.0
  9
$UCSORGBACK
 10
0.0
 20
0.0
 30
0.0
  9
$PUCSBASE
  2

  9
$PUCSNAME
  2

  9
$PUCSORG
 10
0.0
 20
0.0
 30
0.0
  9
$PUCSXDIR
 10
1.0
 20
0.0
 30
0.0
  9
$PUCSYDIR
 10
0.0
 20
1.0
 30
0.0
  9
$PUCSORTHOREF
  2

  9
$PUCSORTHOVIEW
 70
     0
  9
$PUCSORGTOP
 10
0.0
 20
0.0
 30
0.0
  9
$PUCSORGBOTTOM
 10
0.0
 20
0.0
 30
0.0
  9
$PUCSORGLEFT
 10
0.0
 20
0.0
 30
0.0
  9
$PUCSORGRIGHT
 10
0.0
 20
0.0
 30
0.0
  9
$PUCSORGFRONT
 10
0.0
 20
0.0
 30
0.0
  9
$PUCSORGBACK
 10
0.0
 20
0.0
 30
0.0
  9
$USERI1
 70
     0
  9
$USERI2
 70
     0
  9
$USERI3
 70
     0
  9
$USERI4
 70
     0
  9
$USERI5
 70
     0
  9
$USERR1
 40
0.0
  9
$USERR2
 40
0.0
  9
$USERR3
 40
0.0
  9
$USERR4
 40
0.0
  9
$USERR5
 40
0.0
  9
$WORLDVIEW
 70
     1
  9
$SHADEDGE
 70
     3
  9
$SHADEDIF
 70
    70
  9
$TILEMODE
 70
     1
  9
$MAXACTVP
 70
    64
  9
$PINSBASE
 10
0.0
 20
0.0
 30
0.0
  9
$PLIMCHECK
 70
     0
  9
$PEXTMIN
 10
-838.869441
 20
-601.300707
 30
0.0
  9
$PEXTMAX
 10
1261.130559
 20
883.699293
 30
0.0
  9
$PLIMMIN
 10
-838.869441
 20
-601.300707
  9
$PLIMMAX
 10
1261.130559
 20
883.699293
  9
$UNITMODE
 70
     0
  9
$VISRETAIN
 70
     1
  9
$PLINEGEN
 70
     0
  9
$PSLTSCALE
 70
     1
  9
$TREEDEPTH
 70
  3020
  9
$CMLSTYLE
  2
Standard
  9
$CMLJUST
 70
     0
  9
$CMLSCALE
 40
20.0
  9
$PROXYGRAPHICS
 70
     1
  9
$MEASUREMENT
 70
     1
  9
$CELWEIGHT
370
    -1
  9
$ENDCAPS
280
     0
  9
$JOINSTYLE
280
     0
  9
$LWDISPLAY
290
     0
  9
$INSUNITS
 70
     4
  9
$HYPERLINKBASE
  1

  9
$STYLESHEET
  1

  9
$XEDIT
290
     1
  9
$CEPSNTYPE
380
     0
  9
$PSTYLEMODE
290
     1
  9
$FINGERPRINTGUID
  2
{FAEB1C30-E019-11D5-929B-00C0DF256EC4}
  9
$VERSIONGUID
  2
{FAEB1C32-E019-11D5-929B-00C0DF256EC4}
  9
$EXTNAMES
290
     1
  9
$PSVPSCALE
 40
0.0
  9
$OLESTARTUP
290
     0
  0
ENDSEC
  0
SECTION
  2
CLASSES
  0
CLASS
  1
ACDBDICTIONARYWDFLT
  2
AcDbDictionaryWithDefault
  3
ObjectDBX Classes
 90
        0
280
     0
281
     0
  0
CLASS
  1
ACDBPLACEHOLDER
  2
AcDbPlaceHolder
  3
ObjectDBX Classes
 90
        0
280
     0
281
     0
  0
CLASS
  1
LAYOUT
  2
AcDbLayout
  3
ObjectDBX Classes
 90
        0
280
     0
281
     0
  0
ENDSEC
  0
SECTION
  2
TABLES
  0
TABLE
  2
VPORT
  5
8
330
0
100
AcDbSymbolTable
 70
     2
  0
VPORT
  5
29
330
8
100
AcDbSymbolTableRecord
100
AcDbViewportTableRecord
  2
*ACTIVE
 70
     0
 10
0.0
 20
0.0
 11
1.0
 21
1.0
 12
211.130559
 22
141.199293
 13
0.0
 23
0.0
 14
1.0
 24
1.0
 15
0.0
 25
0.0
 16
0.0
 26
0.0
 36
1.0
 17
0.0
 27
0.0
 37
0.0
 40
1485.0
 41
1.414141
 42
50.0
 43
0.0
 44
0.0
 50
0.0
 51
0.0
 71
    16
 72
   100
 73
     1
 74
     0
 75
     0
 76
     0
 77
     0
 78
     0
281
     0
 65
     0
110
0.0
120
0.0
130
0.0
111
1.0
121
0.0
131
0.0
112
0.0
122
1.0
132
0.0
 79
     0
146
0.0
  0
ENDTAB
  0
TABLE
  2
LTYPE
  5
5
330
0
100
AcDbSymbolTable
 70
     3
  0
LTYPE
  5
14
330
5
100
AcDbSymbolTableRecord
100
AcDbLinetypeTableRecord
  2
ByBlock
 70
     0
  3

 72
    65
 73
     0
 40
0.0
  0
LTYPE
  5
15
330
5
100
AcDbSymbolTableRecord
100
AcDbLinetypeTableRecord
  2
ByLayer
 70
     0
  3

 72
    65
 73
     0
 40
0.0
  0
LTYPE
  5
16
330
5
100
AcDbSymbolTableRecord
100
AcDbLinetypeTableRecord
  2
Continuous
 70
     0
  3
Solid line
 72
    65
 73
     0
 40
0.0
  0
LTYPE
  5
2A
330
5
100
AcDbSymbolTableRecord
100
AcDbLinetypeTableRecord
  2
DASHED
 70
     0
  3
__ __ __ __ __
 72
    65
 73
     2
 40
6.25
 49
5.0
 74
     4
 75
     0
340
0
 46
1.0
 50
0.0
 44
0.0
 45
0.0
 49
-1.25
 74
     4
 75
     0
340
0
 46
1.0
 50
0.0
 44
0.0
 45
0.0
  0
LTYPE
  5
11A
330
5
100
AcDbSymbolTableRecord
100
AcDbLinetypeTableRecord
  2
DASHDOT
 70
     0
  3
__ . __ . __ . __ . __
 72
    65
 73
     4
 40
7.5
 49
5.0
 74
     4
 75
     0
340
0
 46
1.0
 50
0.0
 44
0.0
 45
0.0
 49
-1.25
 74
     4
 75
     0
340
0
 46
1.0
 50
0.0
 44
0.0
 45
0.0
 49
0.0
 74
     4
 75
     0
340
0
 46
1.0
 50
0.0
 44
0.0
 45
0.0
 49
-1.25
 74
     4
 75
     0
340
0
 46
1.0
 50
0.0
 44
0.0
 45
0.0
  0
ENDTAB
  0
TABLE
  2
LAYER
  5
2
330
0
100
AcDbSymbolTable
 70
     8
  0
LAYER
  5
10
330
2
100
AcDbSymbolTableRecord
100
AcDbLayerTableRecord
  2
0
 70
     0
 62
     7
  6
Continuous
370
    -3
390
F
  0
LAYER
  5
2B
330
2
100
AcDbSymbolTableRecord
100
AcDbLayerTableRecord
  2
LC-INFO-1-5-mm-A3-0
 70
     1
 62
     7
  6
ByBlock
370
    -3
390
F
  0
LAYER
  5
2C
330
2
100
AcDbSymbolTableRecord
100
AcDbLayerTableRecord
  2
LC-CUT-HIDDEN
 70
     0
 62
     7
  6
DASHED
370
    -3
390
F
  0
LAYER
  5
2D
330
2
100
AcDbSymbolTableRecord
100
AcDbLayerTableRecord
  2
LC-VIEWPORT
 70
     0
 62
     7
  6
ByBlock
370
    -3
390
F
  0
LAYER
  5
2E
330
2
100
AcDbSymbolTableRecord
100
AcDbLayerTableRecord
  2
LC-3D-HIDDEN
 70
     0
 62
     9
  6
DASHED
370
    -3
390
F
  0
LAYER
  5
30
330
2
100
AcDbSymbolTableRecord
100
AcDbLayerTableRecord
  2
LC-001-100-D00-0
 70
     0
 62
     1
  6
ByBlock
370
    -3
390
F
  0
LAYER
  5
F1
330
2
100
AcDbSymbolTableRecord
100
AcDbLayerTableRecord
  2
Defpoints
 70
     0
 62
     7
  6
Continuous
290
     0
370
    -3
390
F
  0
LAYER
  5
66F
330
2
100
AcDbSymbolTableRecord
100
AcDbLayerTableRecord
  2
LC-002-003-----0
 70
     0
 62
     2
  6
ByBlock
370
    -3
390
F
  0
ENDTAB
  0
TABLE
  2
STYLE
  5
3
330
0
100
AcDbSymbolTable
 70
     3
  0
STYLE
  5
11
330
3
100
AcDbSymbolTableRecord
100
AcDbTextStyleTableRecord
  2
Standard
 70
     0
 40
0.0
 41
1.0
 50
0.0
 71
     0
 42
2.5
  3
txt
  4

  0
STYLE
  5
2F
330
3
100
AcDbSymbolTableRecord
100
AcDbTextStyleTableRecord
  2
LCTX15-400-0-0-Arial
 70
     0
 40
0.0
 41
0.8
 50
0.0
 71
     0
 42
3.5
  3

  4

1001
ACAD
1000
Arial
1071
 16777218
  0
STYLE
  5
EE
330
3
100
AcDbSymbolTableRecord
100
AcDbTextStyleTableRecord
  2
LCTX15-400-0-0pDIN-Schrift
 70
     0
 40
2.5
 41
0.8
 50
15.0
 71
     0
 42
3.5
  3
STANDARD
  4

  0
ENDTAB
  0
TABLE
  2
VIEW
  5
6
330
0
100
AcDbSymbolTable
 70
     0
  0
ENDTAB
  0
TABLE
  2
UCS
  5
7
330
0
100
AcDbSymbolTable
 70
     0
  0
ENDTAB
  0
TABLE
  2
APPID
  5
9
330
0
100
AcDbSymbolTable
 70
     1
  0
APPID
  5
12
330
9
100
AcDbSymbolTableRecord
100
AcDbRegAppTableRecord
  2
ACAD
 70
     0
  0
ENDTAB
  0
TABLE
  2
DIMSTYLE
  5
A
330
0
100
AcDbSymbolTable
 70
     3
100
AcDbDimStyleTable
  0
DIMSTYLE
105
27
330
A
100
AcDbSymbolTableRecord
100
AcDbDimStyleTableRecord
  2
ISO-25
 70
     0
 41
2.5
 42
0.625
 43
3.75
 44
1.25
 73
     0
 74
     0
 77
     1
 78
     8
140
2.5
141
2.5
143
0.03937
147
0.625
171
     3
172
     1
271
     2
272
     2
274
     3
278
    44
283
     0
284
     8
340
11
  0
DIMSTYLE
105
EF
102
{ACAD_REACTORS
330
F0
330
FF
330
10D
330
2D5
330
2E4
330
2F1
330
3C9
330
641
330
64F
330
670
330
67E
330
68B
102
}
330
A
100
AcDbSymbolTableRecord
100
AcDbDimStyleTableRecord
  2
LC-DIM-L-0100-02-02
 70
     0
 40
5.0
 41
10.0
 42
0.0
 43
7.5
 44
1.8
 73
     0
 74
     0
 77
     1
 78
     8
 79
     2
140
10.0
141
0.0
146
0.71
147
1.5
176
     2
177
     2
178
     2
179
     2
271
     2
278
    44
289
     1
340
EE
  0
DIMSTYLE
105
65D
102
{ACAD_REACTORS
330
65E
102
}
330
A
100
AcDbSymbolTableRecord
100
AcDbDimStyleTableRecord
  2
LC-DIM-L-0100-01-02
 70
     0
 40
5.0
 41
10.0
 42
0.0
 43
7.5
 44
1.8
 73
     0
 74
     0
 77
     1
 78
     8
 79
     2
140
10.0
141
0.0
146
0.71
147
1.5
176
     2
177
     2
178
     2
179
     1
271
     1
278
    44
289
     1
340
EE
  0
ENDTAB
  0
TABLE
  2
BLOCK_RECORD
  5
1
330
0
100
AcDbSymbolTable
 70
    66
  0
BLOCK_RECORD
  5
1F
330
1
100
AcDbSymbolTableRecord
100
AcDbBlockTableRecord
  2
*Model_Space
340
22
  0
BLOCK_RECORD
  5
1B
330
1
100
AcDbSymbolTableRecord
100
AcDbBlockTableRecord
  2
*Paper_Space
340
1E
  0
BLOCK_RECORD
  5
23
330
1
100
AcDbSymbolTableRecord
100
AcDbBlockTableRecord
  2
*Paper_Space0
340
26
  0
BLOCK_RECORD
  5
4C
330
1
100
AcDbSymbolTableRecord
100
AcDbBlockTableRecord
  2
KLON1
340
0
102
{BLKREFS
331
51
102
}
  0
BLOCK_RECORD
  5
54
330
1
100
AcDbSymbolTableRecord
100
AcDbBlockTableRecord
  2
KLON2
340
0
102
{BLKREFS
331
5B
102
}
  0
BLOCK_RECORD
  5
5D
330
1
100
AcDbSymbolTableRecord
100
AcDbBlockTableRecord
  2
KLON3
340
0
102
{BLKREFS
331
62
102
}
  0
BLOCK_RECORD
  5
63
330
1
100
AcDbSymbolTableRecord
100
AcDbBlockTableRecord
  2
KLON4
340
0
102
{BLKREFS
331
68
102
}
  0
BLOCK_RECORD
  5
69
330
1
100
AcDbSymbolTableRecord
100
AcDbBlockTableRecord
  2
KLON5
340
0
102
{BLKREFS
331
6E
102
}
  0
BLOCK_RECORD
  5
70
330
1
100
AcDbSymbolTableRecord
100
AcDbBlockTableRecord
  2
KLON6
340
0
102
{BLKREFS
331
77
102
}
  0
BLOCK_RECORD
  5
87
330
1
100
AcDbSymbolTableRecord
100
AcDbBlockTableRecord
  2
KLON7
340
0
102
{BLKREFS
331
8C
102
}
  0
BLOCK_RECORD
  5
8D
330
1
100
AcDbSymbolTableRecord
100
AcDbBlockTableRecord
  2
KLON8
340
0
102
{BLKREFS
331
92
102
}
  0
BLOCK_RECORD
  5
94
330
1
100
AcDbSymbolTableRecord
100
AcDbBlockTableRecord
  2
KLON9
340
0
102
{BLKREFS
331
9A
102
}
  0
BLOCK_RECORD
  5
9B
330
1
100
AcDbSymbolTableRecord
100
AcDbBlockTableRecord
  2
KLON10
340
0
102
{BLKREFS
331
A0
102
}
  0
BLOCK_RECORD
  5
A1
330
1
100
AcDbSymbolTableRecord
100
AcDbBlockTableRecord
  2
KLON11
340
0
102
{BLKREFS
331
A7
102
}
  0
BLOCK_RECORD
  5
A8
330
1
100
AcDbSymbolTableRecord
100
AcDbBlockTableRecord
  2
KLON12
340
0
102
{BLKREFS
331
AE
102
}
  0
BLOCK_RECORD
  5
AF
330
1
100
AcDbSymbolTableRecord
100
AcDbBlockTableRecord
  2
KLON13
340
0
102
{BLKREFS
331
B5
102
}
  0
BLOCK_RECORD
  5
B6
330
1
100
AcDbSymbolTableRecord
100
AcDbBlockTableRecord
  2
KLON14
340
0
102
{BLKREFS
331
BB
102
}
  0
BLOCK_RECORD
  5
F2
330
1
100
AcDbSymbolTableRecord
100
AcDbBlockTableRecord
  2
*D15
340
0
  0
BLOCK_RECORD
  5
100
330
1
100
AcDbSymbolTableRecord
100
AcDbBlockTableRecord
  2
*D16
340
0
  0
BLOCK_RECORD
  5
10E
330
1
100
AcDbSymbolTableRecord
100
AcDbBlockTableRecord
  2
*D17
340
0
  0
BLOCK_RECORD
  5
28F
330
1
100
AcDbSymbolTableRecord
100
AcDbBlockTableRecord
  2
KLON15
340
0
102
{BLKREFS
331
298
102
}
  0
BLOCK_RECORD
  5
299
330
1
100
AcDbSymbolTableRecord
100
AcDbBlockTableRecord
  2
KLON16
340
0
102
{BLKREFS
331
2A2
102
}
  0
BLOCK_RECORD
  5
2AD
330
1
100
AcDbSymbolTableRecord
100
AcDbBlockTableRecord
  2
KLON17
340
0
102
{BLKREFS
331
2B9
102
}
  0
BLOCK_RECORD
  5
2BA
330
1
100
AcDbSymbolTableRecord
100
AcDbBlockTableRecord
  2
KLON18
340
0
102
{BLKREFS
331
2C6
102
}
  0
BLOCK_RECORD
  5
2D6
330
1
100
AcDbSymbolTableRecord
100
AcDbBlockTableRecord
  2
*D22
340
0
  0
BLOCK_RECORD
  5
2E5
330
1
100
AcDbSymbolTableRecord
100
AcDbBlockTableRecord
  2
*D23
340
0
  0
BLOCK_RECORD
  5
2F2
330
1
100
AcDbSymbolTableRecord
100
AcDbBlockTableRecord
  2
*D24
340
0
  0
BLOCK_RECORD
  5
2FE
330
1
100
AcDbSymbolTableRecord
100
AcDbBlockTableRecord
  2
KLON19
340
0
102
{BLKREFS
331
311
102
}
  0
BLOCK_RECORD
  5
312
330
1
100
AcDbSymbolTableRecord
100
AcDbBlockTableRecord
  2
KLON20
340
0
102
{BLKREFS
331
325
102
}
  0
BLOCK_RECORD
  5
32A
330
1
100
AcDbSymbolTableRecord
100
AcDbBlockTableRecord
  2
KLON21
340
0
102
{BLKREFS
331
32F
102
}
  0
BLOCK_RECORD
  5
331
330
1
100
AcDbSymbolTableRecord
100
AcDbBlockTableRecord
  2
KLON22
340
0
102
{BLKREFS
331
336
102
}
  0
BLOCK_RECORD
  5
338
330
1
100
AcDbSymbolTableRecord
100
AcDbBlockTableRecord
  2
KLON23
340
0
102
{BLKREFS
331
33D
102
}
  0
BLOCK_RECORD
  5
3AF
330
1
100
AcDbSymbolTableRecord
100
AcDbBlockTableRecord
  2
KLON24
340
0
102
{BLKREFS
331
3BB
102
}
  0
BLOCK_RECORD
  5
3BD
330
1
100
AcDbSymbolTableRecord
100
AcDbBlockTableRecord
  2
KLON25
340
0
102
{BLKREFS
331
3C8
102
}
  0
BLOCK_RECORD
  5
3CA
330
1
100
AcDbSymbolTableRecord
100
AcDbBlockTableRecord
  2
*D32
340
0
  0
BLOCK_RECORD
  5
3D8
330
1
100
AcDbSymbolTableRecord
100
AcDbBlockTableRecord
  2
KLON26
340
0
102
{BLKREFS
331
3DD
102
}
  0
BLOCK_RECORD
  5
3E0
330
1
100
AcDbSymbolTableRecord
100
AcDbBlockTableRecord
  2
KLON27
340
0
102
{BLKREFS
331
3E5
102
}
  0
BLOCK_RECORD
  5
3E9
330
1
100
AcDbSymbolTableRecord
100
AcDbBlockTableRecord
  2
POLY1
340
0
102
{BLKREFS
331
3F8
102
}
  0
BLOCK_RECORD
  5
3F9
330
1
100
AcDbSymbolTableRecord
100
AcDbBlockTableRecord
  2
POLY2
340
0
102
{BLKREFS
331
408
102
}
  0
BLOCK_RECORD
  5
409
330
1
100
AcDbSymbolTableRecord
100
AcDbBlockTableRecord
  2
POLY3
340
0
102
{BLKREFS
331
418
102
}
  0
BLOCK_RECORD
  5
419
330
1
100
AcDbSymbolTableRecord
100
AcDbBlockTableRecord
  2
POLY4
340
0
102
{BLKREFS
331
428
102
}
  0
BLOCK_RECORD
  5
433
330
1
100
AcDbSymbolTableRecord
100
AcDbBlockTableRecord
  2
POLY5
340
0
102
{BLKREFS
331
442
102
}
  0
BLOCK_RECORD
  5
445
330
1
100
AcDbSymbolTableRecord
100
AcDbBlockTableRecord
  2
POLY6
340
0
102
{BLKREFS
331
454
102
}
  0
BLOCK_RECORD
  5
4A8
330
1
100
AcDbSymbolTableRecord
100
AcDbBlockTableRecord
  2
POLY7
340
0
102
{BLKREFS
331
4B7
102
}
  0
BLOCK_RECORD
  5
4B8
330
1
100
AcDbSymbolTableRecord
100
AcDbBlockTableRecord
  2
POLY8
340
0
102
{BLKREFS
331
4C7
102
}
  0
BLOCK_RECORD
  5
4CC
330
1
100
AcDbSymbolTableRecord
100
AcDbBlockTableRecord
  2
POLY9
340
0
102
{BLKREFS
331
4DD
102
}
  0
BLOCK_RECORD
  5
4DE
330
1
100
AcDbSymbolTableRecord
100
AcDbBlockTableRecord
  2
POLY10
340
0
102
{BLKREFS
331
4EF
102
}
  0
BLOCK_RECORD
  5
4F9
330
1
100
AcDbSymbolTableRecord
100
AcDbBlockTableRecord
  2
POLY11
340
0
102
{BLKREFS
331
504
102
}
  0
BLOCK_RECORD
  5
56A
330
1
100
AcDbSymbolTableRecord
100
AcDbBlockTableRecord
  2
POLY12
340
0
102
{BLKREFS
331
577
102
}
  0
BLOCK_RECORD
  5
58B
330
1
100
AcDbSymbolTableRecord
100
AcDbBlockTableRecord
  2
KLON28
340
0
102
{BLKREFS
331
590
102
}
  0
BLOCK_RECORD
  5
596
330
1
100
AcDbSymbolTableRecord
100
AcDbBlockTableRecord
  2
POLY13
340
0
102
{BLKREFS
331
5A9
102
}
  0
BLOCK_RECORD
  5
5AC
330
1
100
AcDbSymbolTableRecord
100
AcDbBlockTableRecord
  2
KLON29
340
0
102
{BLKREFS
331
5B1
102
}
  0
BLOCK_RECORD
  5
5BA
330
1
100
AcDbSymbolTableRecord
100
AcDbBlockTableRecord
  2
POLY14
340
0
102
{BLKREFS
331
5C7
102
}
  0
BLOCK_RECORD
  5
5D8
330
1
100
AcDbSymbolTableRecord
100
AcDbBlockTableRecord
  2
POLY15
340
0
102
{BLKREFS
331
5F9
102
}
  0
BLOCK_RECORD
  5
602
330
1
100
AcDbSymbolTableRecord
100
AcDbBlockTableRecord
  2
KLON30
340
0
102
{BLKREFS
331
609
102
}
  0
BLOCK_RECORD
  5
60A
330
1
100
AcDbSymbolTableRecord
100
AcDbBlockTableRecord
  2
KLON31
340
0
102
{BLKREFS
331
616
102
}
  0
BLOCK_RECORD
  5
617
330
1
100
AcDbSymbolTableRecord
100
AcDbBlockTableRecord
  2
KLON32
340
0
102
{BLKREFS
331
61C
102
}
  0
BLOCK_RECORD
  5
61D
330
1
100
AcDbSymbolTableRecord
100
AcDbBlockTableRecord
  2
KLON33
340
0
102
{BLKREFS
331
622
102
}
  0
BLOCK_RECORD
  5
624
330
1
100
AcDbSymbolTableRecord
100
AcDbBlockTableRecord
  2
KLON34
340
0
102
{BLKREFS
331
62B
102
}
  0
BLOCK_RECORD
  5
62C
330
1
100
AcDbSymbolTableRecord
100
AcDbBlockTableRecord
  2
KLON35
340
0
102
{BLKREFS
331
631
102
}
  0
BLOCK_RECORD
  5
632
330
1
100
AcDbSymbolTableRecord
100
AcDbBlockTableRecord
  2
KLON36
340
0
102
{BLKREFS
331
638
102
}
  0
BLOCK_RECORD
  5
639
330
1
100
AcDbSymbolTableRecord
100
AcDbBlockTableRecord
  2
KLON37
340
0
102
{BLKREFS
331
640
102
}
  0
BLOCK_RECORD
  5
642
330
1
100
AcDbSymbolTableRecord
100
AcDbBlockTableRecord
  2
*D60
340
0
  0
BLOCK_RECORD
  5
650
330
1
100
AcDbSymbolTableRecord
100
AcDbBlockTableRecord
  2
*D61
340
0
  0
BLOCK_RECORD
  5
65F
330
1
100
AcDbSymbolTableRecord
100
AcDbBlockTableRecord
  2
*D62
340
0
  0
BLOCK_RECORD
  5
671
330
1
100
AcDbSymbolTableRecord
100
AcDbBlockTableRecord
  2
*D63
340
0
  0
BLOCK_RECORD
  5
67F
330
1
100
AcDbSymbolTableRecord
100
AcDbBlockTableRecord
  2
*D64
340
0
  0
BLOCK_RECORD
  5
68C
330
1
100
AcDbSymbolTableRecord
100
AcDbBlockTableRecord
  2
*D65
340
0
  0
ENDTAB
  0
ENDSEC
  0
SECTION
  2
BLOCKS
  0
BLOCK
  5
20
330
1F
100
AcDbEntity
  8
0
100
AcDbBlockBegin
  2
*Model_Space
 70
     0
 71
     0
 10
0.0
 20
0.0
 30
0.0
  3
*Model_Space
  1

  0
ENDBLK
  5
21
330
1F
100
AcDbEntity
  8
0
100
AcDbBlockEnd
  0
BLOCK
  5
1C
330
1B
100
AcDbEntity
 67
     1
  8
0
100
AcDbBlockBegin
  2
*Paper_Space
 70
     0
 71
     0
 10
0.0
 20
0.0
 30
0.0
  3
*Paper_Space
  1

  0
ENDBLK
  5
1D
330
1B
100
AcDbEntity
 67
     1
  8
0
100
AcDbBlockEnd
  0
BLOCK
  5
24
330
23
100
AcDbEntity
  8
0
100
AcDbBlockBegin
  2
*Paper_Space0
 70
     0
 71
     0
 10
0.0
 20
0.0
 30
0.0
  3
*Paper_Space0
  1

  0
ENDBLK
  5
25
330
23
100
AcDbEntity
  8
0
100
AcDbBlockEnd
  0
BLOCK
  5
4D
330
4C
100
AcDbEntity
  8
0
100
AcDbBlockBegin
  2
KLON1
 70
     0
 71
     0
 10
0.0
 20
0.0
 30
0.0
  3
KLON1
  1

  4
KLON1
  0
LINE
  5
4F
330
4C
100
AcDbEntity
  8
LC-001-100-D00-0
 62
     7
370
    15
100
AcDbLine
 10
534.567234
 20
35.151217
 30
0.0
 11
534.574655
 21
35.113044
 31
0.0
  0
LINE
  5
50
330
4C
100
AcDbEntity
  8
LC-001-100-D00-0
 62
     7
370
    15
100
AcDbLine
 10
534.574655
 20
35.113044
 30
0.0
 11
534.59343
 21
35.08056
 31
0.0
  0
ENDBLK
  5
4E
330
4C
100
AcDbEntity
  8
0
100
AcDbBlockEnd
  0
BLOCK
  5
55
330
54
100
AcDbEntity
  8
0
100
AcDbBlockBegin
  2
KLON2
 70
     0
 71
     0
 10
0.0
 20
0.0
 30
0.0
  3
KLON2
  1

  4
KLON2
  0
LINE
  5
57
330
54
100
AcDbEntity
  8
LC-001-100-D00-0
 62
     7
370
    15
100
AcDbLine
 10
534.567234
 20
70.973885
 30
0.0
 11
534.5799
 21
70.893005
 31
0.0
  0
LINE
  5
58
330
54
100
AcDbEntity
  8
LC-001-100-D00-0
 62
     7
370
    15
100
AcDbLine
 10
534.5799
 20
70.893005
 30
0.0
 11
534.588691
 21
70.836796
 31
0.0
  0
LINE
  5
59
330
54
100
AcDbEntity
  8
LC-001-100-D00-0
 62
     7
370
    15
100
AcDbLine
 10
534.588691
 20
70.836796
 30
0.0
 11
534.591195
 21
70.820697
 31
0.0
  0
LINE
  5
5A
330
54
100
AcDbEntity
  8
LC-001-100-D00-0
 62
     7
370
    15
100
AcDbLine
 10
534.591195
 20
70.820697
 30
0.0
 11
534.59343
 21
70.806411
 31
0.0
  0
ENDBLK
  5
56
330
54
100
AcDbEntity
  8
0
100
AcDbBlockEnd
  0
BLOCK
  5
5E
330
5D
100
AcDbEntity
  8
0
100
AcDbBlockBegin
  2
KLON3
 70
     0
 71
     0
 10
0.0
 20
0.0
 30
0.0
  3
KLON3
  1

  4
KLON3
  0
LINE
  5
60
330
5D
100
AcDbEntity
  8
LC-001-100-D00-0
 62
     7
370
    15
100
AcDbLine
 10
534.567234
 20
82.136577
 30
0.0
 11
534.577814
 21
82.142487
 31
0.0
  0
LINE
  5
61
330
5D
100
AcDbEntity
  8
LC-001-100-D00-0
 62
     7
370
    15
100
AcDbLine
 10
534.577814
 20
82.142487
 30
0.0
 11
534.59343
 21
82.151216
 31
0.0
  0
ENDBLK
  5
5F
330
5D
100
AcDbEntity
  8
0
100
AcDbBlockEnd
  0
BLOCK
  5
64
330
63
100
AcDbEntity
  8
0
100
AcDbBlockBegin
  2
KLON4
 70
     0
 71
     0
 10
0.0
 20
0.0
 30
0.0
  3
KLON4
  1

  4
KLON4
  0
LINE
  5
66
330
63
100
AcDbEntity
  8
LC-001-100-D00-0
 62
     7
370
    15
100
AcDbLine
 10
-49.380365
 20
35.151217
 30
0.0
 11
-49.387786
 21
35.113044
 31
0.0
  0
LINE
  5
67
330
63
100
AcDbEntity
  8
LC-001-100-D00-0
 62
     7
370
    15
100
AcDbLine
 10
-49.387786
 20
35.113044
 30
0.0
 11
-49.406561
 21
35.08056
 31
0.0
  0
ENDBLK
  5
65
330
63
100
AcDbEntity
  8
0
100
AcDbBlockEnd
  0
BLOCK
  5
6A
330
69
100
AcDbEntity
  8
0
100
AcDbBlockBegin
  2
KLON5
 70
     0
 71
     0
 10
0.0
 20
0.0
 30
0.0
  3
KLON5
  1

  4
KLON5
  0
LINE
  5
6C
330
69
100
AcDbEntity
  8
LC-001-100-D00-0
 62
     7
370
    15
100
AcDbLine
 10
-49.380365
 20
82.136577
 30
0.0
 11
-49.390945
 21
82.142487
 31
0.0
  0
LINE
  5
6D
330
69
100
AcDbEntity
  8
LC-001-100-D00-0
 62
     7
370
    15
100
AcDbLine
 10
-49.390945
 20
82.142487
 30
0.0
 11
-49.406561
 21
82.151216
 31
0.0
  0
ENDBLK
  5
6B
330
69
100
AcDbEntity
  8
0
100
AcDbBlockEnd
  0
BLOCK
  5
71
330
70
100
AcDbEntity
  8
0
100
AcDbBlockBegin
  2
KLON6
 70
     0
 71
     0
 10
0.0
 20
0.0
 30
0.0
  3
KLON6
  1

  4
KLON6
  0
LINE
  5
73
330
70
100
AcDbEntity
  8
LC-001-100-D00-0
 62
     7
370
    15
100
AcDbLine
 10
-49.380365
 20
70.973885
 30
0.0
 11
-49.393031
 21
70.893005
 31
0.0
  0
LINE
  5
74
330
70
100
AcDbEntity
  8
LC-001-100-D00-0
 62
     7
370
    15
100
AcDbLine
 10
-49.393031
 20
70.893005
 30
0.0
 11
-49.401823
 21
70.836796
 31
0.0
  0
LINE
  5
75
330
70
100
AcDbEntity
  8
LC-001-100-D00-0
 62
     7
370
    15
100
AcDbLine
 10
-49.401823
 20
70.836796
 30
0.0
 11
-49.404326
 21
70.820697
 31
0.0
  0
LINE
  5
76
330
70
100
AcDbEntity
  8
LC-001-100-D00-0
 62
     7
370
    15
100
AcDbLine
 10
-49.404326
 20
70.820697
 30
0.0
 11
-49.406561
 21
70.806411
 31
0.0
  0
ENDBLK
  5
72
330
70
100
AcDbEntity
  8
0
100
AcDbBlockEnd
  0
BLOCK
  5
88
330
87
100
AcDbEntity
  8
0
100
AcDbBlockBegin
  2
KLON7
 70
     0
 71
     0
 10
0.0
 20
0.0
 30
0.0
  3
KLON7
  1

  4
KLON7
  0
LINE
  5
8A
330
87
100
AcDbEntity
  8
LC-001-100-D00-0
 62
     7
370
    15
100
AcDbLine
 10
534.538713
 20
46.317808
 30
0.0
 11
534.554896
 21
46.323892
 31
0.0
  0
LINE
  5
8B
330
87
100
AcDbEntity
  8
LC-001-100-D00-0
 62
     7
370
    15
100
AcDbLine
 10
534.554896
 20
46.323892
 30
0.0
 11
534.567234
 21
46.328548
 31
0.0
  0
ENDBLK
  5
89
330
87
100
AcDbEntity
  8
0
100
AcDbBlockEnd
  0
BLOCK
  5
8E
330
8D
100
AcDbEntity
  8
0
100
AcDbBlockBegin
  2
KLON8
 70
     0
 71
     0
 10
0.0
 20
0.0
 30
0.0
  3
KLON8
  1

  4
KLON8
  0
LINE
  5
90
330
8D
100
AcDbEntity
  8
LC-001-100-D00-0
 62
     7
370
    15
100
AcDbLine
 10
-49.351844
 20
46.317808
 30
0.0
 11
-49.368027
 21
46.323892
 31
0.0
  0
LINE
  5
91
330
8D
100
AcDbEntity
  8
LC-001-100-D00-0
 62
     7
370
    15
100
AcDbLine
 10
-49.368027
 20
46.323892
 30
0.0
 11
-49.380365
 21
46.328548
 31
0.0
  0
ENDBLK
  5
8F
330
8D
100
AcDbEntity
  8
0
100
AcDbBlockEnd
  0
BLOCK
  5
95
330
94
100
AcDbEntity
  8
0
100
AcDbBlockBegin
  2
KLON9
 70
     0
 71
     0
 10
0.0
 20
0.0
 30
0.0
  3
KLON9
  1

  4
KLON9
  0
LINE
  5
97
330
94
100
AcDbEntity
  8
LC-001-100-D00-0
 62
     7
370
    15
100
AcDbLine
 10
397.580367
 20
52.791999
 30
0.0
 11
397.591767
 21
53.205474
 31
0.0
  0
LINE
  5
98
330
94
100
AcDbEntity
  8
LC-001-100-D00-0
 62
     7
370
    15
100
AcDbLine
 10
397.591767
 20
53.205474
 30
0.0
 11
397.603449
 21
53.628732
 31
0.0
  0
LINE
  5
99
330
94
100
AcDbEntity
  8
LC-001-100-D00-0
 62
     7
370
    15
100
AcDbLine
 10
397.603449
 20
53.628732
 30
0.0
 11
397.615251
 21
54.05691
 31
0.0
  0
ENDBLK
  5
96
330
94
100
AcDbEntity
  8
0
100
AcDbBlockEnd
  0
BLOCK
  5
9C
330
9B
100
AcDbEntity
  8
0
100
AcDbBlockBegin
  2
KLON10
 70
     0
 71
     0
 10
0.0
 20
0.0
 30
0.0
  3
KLON10
  1

  4
KLON10
  0
LINE
  5
9E
330
9B
100
AcDbEntity
  8
LC-001-100-D00-0
 62
     7
370
    15
100
AcDbLine
 10
534.538713
 20
70.984625
 30
0.0
 11
534.554896
 21
70.978541
 31
0.0
  0
LINE
  5
9F
330
9B
100
AcDbEntity
  8
LC-001-100-D00-0
 62
     7
370
    15
100
AcDbLine
 10
534.554896
 20
70.978541
 30
0.0
 11
534.567234
 21
70.973885
 31
0.0
  0
ENDBLK
  5
9D
330
9B
100
AcDbEntity
  8
0
100
AcDbBlockEnd
  0
BLOCK
  5
A2
330
A1
100
AcDbEntity
  8
0
100
AcDbBlockBegin
  2
KLON11
 70
     0
 71
     0
 10
0.0
 20
0.0
 30
0.0
  3
KLON11
  1

  4
KLON11
  0
LINE
  5
A4
330
A1
100
AcDbEntity
  8
LC-001-100-D00-0
 62
     7
370
    15
100
AcDbLine
 10
397.615251
 20
63.245522
 30
0.0
 11
397.603449
 21
63.673701
 31
0.0
  0
LINE
  5
A5
330
A1
100
AcDbEntity
  8
LC-001-100-D00-0
 62
     7
370
    15
100
AcDbLine
 10
397.603449
 20
63.673701
 30
0.0
 11
397.591767
 21
64.096959
 31
0.0
  0
LINE
  5
A6
330
A1
100
AcDbEntity
  8
LC-001-100-D00-0
 62
     7
370
    15
100
AcDbLine
 10
397.591767
 20
64.096959
 30
0.0
 11
397.580367
 21
64.510434
 31
0.0
  0
ENDBLK
  5
A3
330
A1
100
AcDbEntity
  8
0
100
AcDbBlockEnd
  0
BLOCK
  5
A9
330
A8
100
AcDbEntity
  8
0
100
AcDbBlockBegin
  2
KLON12
 70
     0
 71
     0
 10
0.0
 20
0.0
 30
0.0
  3
KLON12
  1

  4
KLON12
  0
LINE
  5
AB
330
A8
100
AcDbEntity
  8
LC-001-100-D00-0
 62
     7
370
    15
100
AcDbLine
 10
87.606501
 20
52.791999
 30
0.0
 11
87.595102
 21
53.205474
 31
0.0
  0
LINE
  5
AC
330
A8
100
AcDbEntity
  8
LC-001-100-D00-0
 62
     7
370
    15
100
AcDbLine
 10
87.595102
 20
53.205474
 30
0.0
 11
87.58342
 21
53.628732
 31
0.0
  0
LINE
  5
AD
330
A8
100
AcDbEntity
  8
LC-001-100-D00-0
 62
     7
370
    15
100
AcDbLine
 10
87.58342
 20
53.628732
 30
0.0
 11
87.571618
 21
54.05691
 31
0.0
  0
ENDBLK
  5
AA
330
A8
100
AcDbEntity
  8
0
100
AcDbBlockEnd
  0
BLOCK
  5
B0
330
AF
100
AcDbEntity
  8
0
100
AcDbBlockBegin
  2
KLON13
 70
     0
 71
     0
 10
0.0
 20
0.0
 30
0.0
  3
KLON13
  1

  4
KLON13
  0
LINE
  5
B2
330
AF
100
AcDbEntity
  8
LC-001-100-D00-0
 62
     7
370
    15
100
AcDbLine
 10
87.571618
 20
63.245522
 30
0.0
 11
87.58342
 21
63.673701
 31
0.0
  0
LINE
  5
B3
330
AF
100
AcDbEntity
  8
LC-001-100-D00-0
 62
     7
370
    15
100
AcDbLine
 10
87.58342
 20
63.673701
 30
0.0
 11
87.595102
 21
64.096959
 31
0.0
  0
LINE
  5
B4
330
AF
100
AcDbEntity
  8
LC-001-100-D00-0
 62
     7
370
    15
100
AcDbLine
 10
87.595102
 20
64.096959
 30
0.0
 11
87.606501
 21
64.510434
 31
0.0
  0
ENDBLK
  5
B1
330
AF
100
AcDbEntity
  8
0
100
AcDbBlockEnd
  0
BLOCK
  5
B7
330
B6
100
AcDbEntity
  8
0
100
AcDbBlockBegin
  2
KLON14
 70
     0
 71
     0
 10
0.0
 20
0.0
 30
0.0
  3
KLON14
  1

  4
KLON14
  0
LINE
  5
B9
330
B6
100
AcDbEntity
  8
LC-001-100-D00-0
 62
     7
370
    15
100
AcDbLine
 10
-49.351844
 20
70.984625
 30
0.0
 11
-49.368027
 21
70.978541
 31
0.0
  0
LINE
  5
BA
330
B6
100
AcDbEntity
  8
LC-001-100-D00-0
 62
     7
370
    15
100
AcDbLine
 10
-49.368027
 20
70.978541
 30
0.0
 11
-49.380365
 21
70.973885
 31
0.0
  0
ENDBLK
  5
B8
330
B6
100
AcDbEntity
  8
0
100
AcDbBlockEnd
  0
BLOCK
  5
FD
330
F2
100
AcDbEntity
  8
0
100
AcDbBlockBegin
  2
*D15
 70
     1
 71
     0
 10
0.0
 20
0.0
 30
0.0
  3
*D15
  1

  0
LINE
  5
F3
330
F2
100
AcDbEntity
  8
LC-001-100-D00-0
 62
     2
370
    -2
100
AcDbLine
 10
587.593434
 20
104.651216
 30
0.0
 11
672.869514
 21
104.651216
 31
0.0
  0
LINE
  5
F4
330
F2
100
AcDbEntity
  8
LC-001-100-D00-0
 62
     2
370
    -2
100
AcDbLine
 10
587.593434
 20
103.151216
 30
0.0
 11
672.869514
 21
103.151216
 31
0.0
  0
LINE
  5
F5
330
F2
100
AcDbEntity
  8
LC-001-100-D00-0
 62
     2
370
    -2
100
AcDbLine
 10
663.869514
 20
154.651216
 30
0.0
 11
663.869514
 21
204.651216
 31
0.0
  0
LINE
  5
F6
330
F2
100
AcDbEntity
  8
LC-001-100-D00-0
 62
     2
370
    -2
100
AcDbLine
 10
663.869514
 20
53.151216
 30
0.0
 11
663.869514
 21
53.039611
 31
0.0
  0
SOLID
  5
F7
330
F2
100
AcDbEntity
  8
LC-001-100-D00-0
 62
     2
100
AcDbTrace
 10
655.536181
 20
154.651216
 30
0.0
 11
672.202848
 21
154.651216
 31
0.0
 12
663.869514
 22
104.651216
 32
0.0
 13
663.869514
 23
104.651216
 33
0.0
  0
SOLID
  5
F8
330
F2
100
AcDbEntity
  8
LC-001-100-D00-0
 62
     2
100
AcDbTrace
 10
672.202848
 20
53.151216
 30
0.0
 11
655.536181
 21
53.151216
 31
0.0
 12
663.869514
 22
103.151216
 32
0.0
 13
663.869514
 23
103.151216
 33
0.0
  0
MTEXT
  5
F9
330
F2
100
AcDbEntity
  8
LC-001-100-D00-0
 62
     2
100
AcDbMText
 10
608.869514
 20
99.619293
 30
0.0
 40
50.0
 41
0.0
 71
     5
 72
     1
  1
\A1;1,5
  7
LCTX15-400-0-0pDIN-Schrift
 11
6.123031769111886E-17
 21
1.0
 31
0.0
 73
     1
 44
1.0
  0
POINT
  5
FA
330
F2
100
AcDbEntity
  8
Defpoints
 62
     0
100
AcDbPoint
 10
587.593434
 20
104.651216
 30
0.0
  0
POINT
  5
FB
330
F2
100
AcDbEntity
  8
Defpoints
 62
     0
100
AcDbPoint
 10
587.593434
 20
103.151216
 30
0.0
  0
POINT
  5
FC
330
F2
100
AcDbEntity
  8
Defpoints
 62
     0
100
AcDbPoint
 10
663.869514
 20
103.151216
 30
0.0
  0
ENDBLK
  5
FE
330
F2
100
AcDbEntity
  8
0
100
AcDbBlockEnd
  0
BLOCK
  5
10B
330
100
100
AcDbEntity
  8
0
100
AcDbBlockBegin
  2
*D16
 70
     1
 71
     0
 10
0.0
 20
0.0
 30
0.0
  3
*D16
  1

  0
LINE
  5
101
330
100
100
AcDbEntity
  8
LC-001-100-D00-0
 62
     2
370
    -2
100
AcDbLine
 10
587.593434
 20
103.151216
 30
0.0
 11
770.891224
 21
103.151216
 31
0.0
  0
LINE
  5
102
330
100
100
AcDbEntity
  8
LC-001-100-D00-0
 62
     2
370
    -2
100
AcDbLine
 10
540.093434
 20
84.651216
 30
0.0
 11
770.891224
 21
84.651216
 31
0.0
  0
LINE
  5
103
330
100
100
AcDbEntity
  8
LC-001-100-D00-0
 62
     2
370
    -2
100
AcDbLine
 10
761.891224
 20
153.151216
 30
0.0
 11
761.891224
 21
203.151216
 31
0.0
  0
LINE
  5
104
330
100
100
AcDbEntity
  8
LC-001-100-D00-0
 62
     2
370
    -2
100
AcDbLine
 10
761.891224
 20
34.651216
 30
0.0
 11
761.891224
 21
-22.438008
 31
0.0
  0
SOLID
  5
105
330
100
100
AcDbEntity
  8
LC-001-100-D00-0
 62
     2
100
AcDbTrace
 10
753.557891
 20
153.151216
 30
0.0
 11
770.224558
 21
153.151216
 31
0.0
 12
761.891224
 22
103.151216
 32
0.0
 13
761.891224
 23
103.151216
 33
0.0
  0
SOLID
  5
106
330
100
100
AcDbEntity
  8
LC-001-100-D00-0
 62
     2
100
AcDbTrace
 10
770.224558
 20
34.651216
 30
0.0
 11
753.557891
 21
34.651216
 31
0.0
 12
761.891224
 22
84.651216
 32
0.0
 13
761.891224
 23
84.651216
 33
0.0
  0
MTEXT
  5
107
330
100
100
AcDbEntity
  8
LC-001-100-D00-0
 62
     2
100
AcDbMText
 10
706.891224
 20
43.189293
 30
0.0
 40
50.0
 41
0.0
 71
     5
 72
     1
  1
\A1;18,5
  7
LCTX15-400-0-0pDIN-Schrift
 11
6.123031769111886E-17
 21
1.0
 31
0.0
 73
     1
 44
1.0
  0
POINT
  5
108
330
100
100
AcDbEntity
  8
Defpoints
 62
     0
100
AcDbPoint
 10
587.593434
 20
103.151216
 30
0.0
  0
POINT
  5
109
330
100
100
AcDbEntity
  8
Defpoints
 62
     0
100
AcDbPoint
 10
540.093434
 20
84.651216
 30
0.0
  0
POINT
  5
10A
330
100
100
AcDbEntity
  8
Defpoints
 62
     0
100
AcDbPoint
 10
761.891224
 20
84.651216
 30
0.0
  0
ENDBLK
  5
10C
330
100
100
AcDbEntity
  8
0
100
AcDbBlockEnd
  0
BLOCK
  5
118
330
10E
100
AcDbEntity
  8
0
100
AcDbBlockBegin
  2
*D17
 70
     1
 71
     0
 10
0.0
 20
0.0
 30
0.0
  3
*D17
  1

  0
LINE
  5
10F
330
10E
100
AcDbEntity
  8
LC-001-100-D00-0
 62
     2
370
    -2
100
AcDbLine
 10
587.593434
 20
104.651216
 30
0.0
 11
825.061117
 21
104.651216
 31
0.0
  0
LINE
  5
110
330
10E
100
AcDbEntity
  8
LC-001-100-D00-0
 62
     2
370
    -2
100
AcDbLine
 10
587.593434
 20
-18.848784
 30
0.0
 11
825.061117
 21
-18.848784
 31
0.0
  0
LINE
  5
111
330
10E
100
AcDbEntity
  8
LC-001-100-D00-0
 62
     2
370
    -2
100
AcDbLine
 10
816.061117
 20
54.651216
 30
0.0
 11
816.061117
 21
31.151216
 31
0.0
  0
SOLID
  5
112
330
10E
100
AcDbEntity
  8
LC-001-100-D00-0
 62
     2
100
AcDbTrace
 10
824.39445
 20
54.651216
 30
0.0
 11
807.727783
 21
54.651216
 31
0.0
 12
816.061117
 22
104.651216
 32
0.0
 13
816.061117
 23
104.651216
 33
0.0
  0
SOLID
  5
113
330
10E
100
AcDbEntity
  8
LC-001-100-D00-0
 62
     2
100
AcDbTrace
 10
807.727783
 20
31.151216
 30
0.0
 11
824.39445
 21
31.151216
 31
0.0
 12
816.061117
 22
-18.848784
 32
0.0
 13
816.061117
 23
-18.848784
 33
0.0
  0
MTEXT
  5
114
330
10E
100
AcDbEntity
  8
LC-001-100-D00-0
 62
     2
100
AcDbMText
 10
761.061117
 20
37.249293
 30
0.0
 40
50.0
 41
0.0
 71
     5
 72
     1
  1
\A1;123,5
  7
LCTX15-400-0-0pDIN-Schrift
 11
6.123031769111886E-17
 21
1.0
 31
0.0
 73
     1
 44
1.0
  0
POINT
  5
115
330
10E
100
AcDbEntity
  8
Defpoints
 62
     0
100
AcDbPoint
 10
587.593434
 20
104.651216
 30
0.0
  0
POINT
  5
116
330
10E
100
AcDbEntity
  8
Defpoints
 62
     0
100
AcDbPoint
 10
587.593434
 20
-18.848784
 30
0.0
  0
POINT
  5
117
330
10E
100
AcDbEntity
  8
Defpoints
 62
     0
100
AcDbPoint
 10
816.061117
 20
-18.848784
 30
0.0
  0
ENDBLK
  5
119
330
10E
100
AcDbEntity
  8
0
100
AcDbBlockEnd
  0
BLOCK
  5
290
330
28F
100
AcDbEntity
  8
0
100
AcDbBlockBegin
  2
KLON15
 70
     0
 71
     0
 10
0.0
 20
0.0
 30
0.0
  3
KLON15
  1

  4
KLON15
  0
LINE
  5
292
330
28F
100
AcDbEntity
  8
LC-001-100-D00-0
 62
     7
370
    15
100
AcDbLine
 10
525.501123
 20
414.599773
 30
0.0
 11
528.057417
 21
414.693069
 31
0.0
  0
LINE
  5
293
330
28F
100
AcDbEntity
  8
LC-001-100-D00-0
 62
     7
370
    15
100
AcDbLine
 10
528.057417
 20
414.693069
 30
0.0
 11
530.203214
 21
414.771382
 31
0.0
  0
LINE
  5
294
330
28F
100
AcDbEntity
  8
LC-001-100-D00-0
 62
     7
370
    15
100
AcDbLine
 10
530.203214
 20
414.771382
 30
0.0
 11
531.933358
 21
414.834526
 31
0.0
  0
LINE
  5
295
330
28F
100
AcDbEntity
  8
LC-001-100-D00-0
 62
     7
370
    15
100
AcDbLine
 10
531.933358
 20
414.834526
 30
0.0
 11
533.243677
 21
414.882348
 31
0.0
  0
LINE
  5
296
330
28F
100
AcDbEntity
  8
LC-001-100-D00-0
 62
     7
370
    15
100
AcDbLine
 10
533.243677
 20
414.882348
 30
0.0
 11
534.131101
 21
414.914735
 31
0.0
  0
LINE
  5
297
330
28F
100
AcDbEntity
  8
LC-001-100-D00-0
 62
     7
370
    15
100
AcDbLine
 10
534.131101
 20
414.914735
 30
0.0
 11
534.593424
 21
414.931609
 31
0.0
  0
ENDBLK
  5
291
330
28F
100
AcDbEntity
  8
0
100
AcDbBlockEnd
  0
BLOCK
  5
29A
330
299
100
AcDbEntity
  8
0
100
AcDbBlockBegin
  2
KLON16
 70
     0
 71
     0
 10
0.0
 20
0.0
 30
0.0
  3
KLON16
  1

  4
KLON16
  0
LINE
  5
29C
330
299
100
AcDbEntity
  8
LC-001-100-D00-0
 62
     7
370
    15
100
AcDbLine
 10
-40.314266
 20
414.599773
 30
0.0
 11
-42.87056
 21
414.693069
 31
0.0
  0
LINE
  5
29D
330
299
100
AcDbEntity
  8
LC-001-100-D00-0
 62
     7
370
    15
100
AcDbLine
 10
-42.87056
 20
414.693069
 30
0.0
 11
-45.016357
 21
414.771382
 31
0.0
  0
LINE
  5
29E
330
299
100
AcDbEntity
  8
LC-001-100-D00-0
 62
     7
370
    15
100
AcDbLine
 10
-45.016357
 20
414.771382
 30
0.0
 11
-46.746501
 21
414.834526
 31
0.0
  0
LINE
  5
29F
330
299
100
AcDbEntity
  8
LC-001-100-D00-0
 62
     7
370
    15
100
AcDbLine
 10
-46.746501
 20
414.834526
 30
0.0
 11
-48.05682
 21
414.882348
 31
0.0
  0
LINE
  5
2A0
330
299
100
AcDbEntity
  8
LC-001-100-D00-0
 62
     7
370
    15
100
AcDbLine
 10
-48.05682
 20
414.882348
 30
0.0
 11
-48.944244
 21
414.914735
 31
0.0
  0
LINE
  5
2A1
330
299
100
AcDbEntity
  8
LC-001-100-D00-0
 62
     7
370
    15
100
AcDbLine
 10
-48.944244
 20
414.914735
 30
0.0
 11
-49.406567
 21
414.931609
 31
0.0
  0
ENDBLK
  5
29B
330
299
100
AcDbEntity
  8
0
100
AcDbBlockEnd
  0
BLOCK
  5
2AE
330
2AD
100
AcDbEntity
  8
0
100
AcDbBlockBegin
  2
KLON17
 70
     0
 71
     0
 10
0.0
 20
0.0
 30
0.0
  3
KLON17
  1

  4
KLON17
  0
LINE
  5
2B0
330
2AD
100
AcDbEntity
  8
LC-001-100-D00-0
 62
     7
370
    15
100
AcDbLine
 10
534.566065
 20
416.431608
 30
0.0
 11
534.56538
 21
416.46959
 31
0.0
  0
LINE
  5
2B1
330
2AD
100
AcDbEntity
  8
LC-001-100-D00-0
 62
     7
370
    15
100
AcDbLine
 10
534.56538
 20
416.46959
 30
0.0
 11
534.563324
 21
416.582376
 31
0.0
  0
LINE
  5
2B2
330
2AD
100
AcDbEntity
  8
LC-001-100-D00-0
 62
     7
370
    15
100
AcDbLine
 10
534.563324
 20
416.582376
 30
0.0
 11
534.559956
 21
416.766546
 31
0.0
  0
LINE
  5
2B3
330
2AD
100
AcDbEntity
  8
LC-001-100-D00-0
 62
     7
370
    15
100
AcDbLine
 10
534.559956
 20
416.766546
 30
0.0
 11
534.555396
 21
417.016498
 31
0.0
  0
LINE
  5
2B4
330
2AD
100
AcDbEntity
  8
LC-001-100-D00-0
 62
     7
370
    15
100
AcDbLine
 10
534.555396
 20
417.016498
 30
0.0
 11
534.549764
 21
417.324641
 31
0.0
  0
LINE
  5
2B5
330
2AD
100
AcDbEntity
  8
LC-001-100-D00-0
 62
     7
370
    15
100
AcDbLine
 10
534.549764
 20
417.324641
 30
0.0
 11
534.543267
 21
417.681609
 31
0.0
  0
LINE
  5
2B6
330
2AD
100
AcDbEntity
  8
LC-001-100-D00-0
 62
     7
370
    15
100
AcDbLine
 10
534.543267
 20
417.681609
 30
0.0
 11
534.536055
 21
418.076559
 31
0.0
  0
LINE
  5
2B7
330
2AD
100
AcDbEntity
  8
LC-001-100-D00-0
 62
     7
370
    15
100
AcDbLine
 10
534.536055
 20
418.076559
 30
0.0
 11
534.528366
 21
418.497489
 31
0.0
  0
LINE
  5
2B8
330
2AD
100
AcDbEntity
  8
LC-001-100-D00-0
 62
     7
370
    15
100
AcDbLine
 10
534.528366
 20
418.497489
 30
0.0
 11
534.520468
 21
418.93161
 31
0.0
  0
ENDBLK
  5
2AF
330
2AD
100
AcDbEntity
  8
0
100
AcDbBlockEnd
  0
BLOCK
  5
2BB
330
2BA
100
AcDbEntity
  8
0
100
AcDbBlockBegin
  2
KLON18
 70
     0
 71
     0
 10
0.0
 20
0.0
 30
0.0
  3
KLON18
  1

  4
KLON18
  0
LINE
  5
2BD
330
2BA
100
AcDbEntity
  8
LC-001-100-D00-0
 62
     7
370
    15
100
AcDbLine
 10
-49.379209
 20
416.431608
 30
0.0
 11
-49.378523
 21
416.46959
 31
0.0
  0
LINE
  5
2BE
330
2BA
100
AcDbEntity
  8
LC-001-100-D00-0
 62
     7
370
    15
100
AcDbLine
 10
-49.378523
 20
416.46959
 30
0.0
 11
-49.376467
 21
416.582376
 31
0.0
  0
LINE
  5
2BF
330
2BA
100
AcDbEntity
  8
LC-001-100-D00-0
 62
     7
370
    15
100
AcDbLine
 10
-49.376467
 20
416.582376
 30
0.0
 11
-49.373099
 21
416.766546
 31
0.0
  0
LINE
  5
2C0
330
2BA
100
AcDbEntity
  8
LC-001-100-D00-0
 62
     7
370
    15
100
AcDbLine
 10
-49.373099
 20
416.766546
 30
0.0
 11
-49.36854
 21
417.016498
 31
0.0
  0
LINE
  5
2C1
330
2BA
100
AcDbEntity
  8
LC-001-100-D00-0
 62
     7
370
    15
100
AcDbLine
 10
-49.36854
 20
417.016498
 30
0.0
 11
-49.362907
 21
417.324641
 31
0.0
  0
LINE
  5
2C2
330
2BA
100
AcDbEntity
  8
LC-001-100-D00-0
 62
     7
370
    15
100
AcDbLine
 10
-49.362907
 20
417.324641
 30
0.0
 11
-49.35641
 21
417.681609
 31
0.0
  0
LINE
  5
2C3
330
2BA
100
AcDbEntity
  8
LC-001-100-D00-0
 62
     7
370
    15
100
AcDbLine
 10
-49.35641
 20
417.681609
 30
0.0
 11
-49.349198
 21
418.076559
 31
0.0
  0
LINE
  5
2C4
330
2BA
100
AcDbEntity
  8
LC-001-100-D00-0
 62
     7
370
    15
100
AcDbLine
 10
-49.349198
 20
418.076559
 30
0.0
 11
-49.341509
 21
418.497489
 31
0.0
  0
LINE
  5
2C5
330
2BA
100
AcDbEntity
  8
LC-001-100-D00-0
 62
     7
370
    15
100
AcDbLine
 10
-49.341509
 20
418.497489
 30
0.0
 11
-49.333611
 21
418.93161
 31
0.0
  0
ENDBLK
  5
2BC
330
2BA
100
AcDbEntity
  8
0
100
AcDbBlockEnd
  0
BLOCK
  5
2E2
330
2D6
100
AcDbEntity
  8
0
100
AcDbBlockBegin
  2
*D22
 70
     1
 71
     0
 10
0.0
 20
0.0
 30
0.0
  3
*D22
  1

  0
LINE
  5
2D7
330
2D6
100
AcDbEntity
  8
LC-001-100-D00-0
 62
     2
370
    -2
100
AcDbLine
 10
-107.406572
 20
436.931609
 30
0.0
 11
-148.571855
 21
436.931609
 31
0.0
  0
LINE
  5
2D8
330
2D6
100
AcDbEntity
  8
LC-001-100-D00-0
 62
     2
370
    -2
100
AcDbLine
 10
-102.406572
 20
482.931609
 30
0.0
 11
-148.571855
 21
482.931609
 31
0.0
  0
LINE
  5
2D9
330
2D6
100
AcDbEntity
  8
LC-001-100-D00-0
 62
     2
370
    -2
100
AcDbLine
 10
-139.571855
 20
386.931609
 30
0.0
 11
-139.571855
 21
336.931609
 31
0.0
  0
LINE
  5
2DA
330
2D6
100
AcDbEntity
  8
LC-001-100-D00-0
 62
     2
370
    -2
100
AcDbLine
 10
-139.571855
 20
532.931609
 30
0.0
 11
-139.571855
 21
582.931609
 31
0.0
  0
LINE
  5
2DB
330
2D6
100
AcDbEntity
  8
LC-001-100-D00-0
 62
     2
370
    -2
100
AcDbLine
 10
-139.571855
 20
436.931609
 30
0.0
 11
-139.571855
 21
482.931609
 31
0.0
  0
SOLID
  5
2DC
330
2D6
100
AcDbEntity
  8
LC-001-100-D00-0
 62
     2
100
AcDbTrace
 10
-131.238522
 20
386.931609
 30
0.0
 11
-147.905189
 21
386.931609
 31
0.0
 12
-139.571855
 22
436.931609
 32
0.0
 13
-139.571855
 23
436.931609
 33
0.0
  0
SOLID
  5
2DD
330
2D6
100
AcDbEntity
  8
LC-001-100-D00-0
 62
     2
100
AcDbTrace
 10
-147.905189
 20
532.931609
 30
0.0
 11
-131.238522
 21
532.931609
 31
0.0
 12
-139.571855
 22
482.931609
 32
0.0
 13
-139.571855
 23
482.931609
 33
0.0
  0
MTEXT
  5
2DE
330
2D6
100
AcDbEntity
  8
LC-001-100-D00-0
 62
     2
100
AcDbMText
 10
-194.571855
 20
465.298238
 30
0.0
 40
50.0
 41
0.0
 71
     5
 72
     1
  1
\A1;46
  7
LCTX15-400-0-0pDIN-Schrift
 11
6.123031769111886E-17
 21
1.0
 31
0.0
 73
     1
 44
1.0
  0
POINT
  5
2DF
330
2D6
100
AcDbEntity
  8
Defpoints
 62
     0
100
AcDbPoint
 10
-107.406572
 20
436.931609
 30
0.0
  0
POINT
  5
2E0
330
2D6
100
AcDbEntity
  8
Defpoints
 62
     0
100
AcDbPoint
 10
-102.406572
 20
482.931609
 30
0.0
  0
POINT
  5
2E1
330
2D6
100
AcDbEntity
  8
Defpoints
 62
     0
100
AcDbPoint
 10
-139.571855
 20
482.931609
 30
0.0
  0
ENDBLK
  5
2E3
330
2D6
100
AcDbEntity
  8
0
100
AcDbBlockEnd
  0
BLOCK
  5
2EF
330
2E5
100
AcDbEntity
  8
0
100
AcDbBlockBegin
  2
*D23
 70
     1
 71
     0
 10
0.0
 20
0.0
 30
0.0
  3
*D23
  1

  0
LINE
  5
2E6
330
2E5
100
AcDbEntity
  8
LC-001-100-D00-0
 62
     2
370
    -2
100
AcDbLine
 10
-107.406572
 20
477.931609
 30
0.0
 11
-107.406572
 21
590.214293
 31
0.0
  0
LINE
  5
2E7
330
2E5
100
AcDbEntity
  8
LC-001-100-D00-0
 62
     2
370
    -2
100
AcDbLine
 10
592.593428
 20
477.931609
 30
0.0
 11
592.593428
 21
590.214293
 31
0.0
  0
LINE
  5
2E8
330
2E5
100
AcDbEntity
  8
LC-001-100-D00-0
 62
     2
370
    -2
100
AcDbLine
 10
-57.406572
 20
581.214293
 30
0.0
 11
542.593428
 21
581.214293
 31
0.0
  0
SOLID
  5
2E9
330
2E5
100
AcDbEntity
  8
LC-001-100-D00-0
 62
     2
100
AcDbTrace
 10
-57.406572
 20
589.547626
 30
0.0
 11
-57.406572
 21
572.88096
 31
0.0
 12
-107.406572
 22
581.214293
 32
0.0
 13
-107.406572
 23
581.214293
 33
0.0
  0
SOLID
  5
2EA
330
2E5
100
AcDbEntity
  8
LC-001-100-D00-0
 62
     2
100
AcDbTrace
 10
542.593428
 20
572.88096
 30
0.0
 11
542.593428
 21
589.547626
 31
0.0
 12
592.593428
 22
581.214293
 32
0.0
 13
592.593428
 23
581.214293
 33
0.0
  0
MTEXT
  5
2EB
330
2E5
100
AcDbEntity
  8
LC-001-100-D00-0
 62
     2
100
AcDbMText
 10
238.248932
 20
636.214293
 30
0.0
 40
50.0
 41
0.0
 71
     5
 72
     1
  1
\A1;700
  7
LCTX15-400-0-0pDIN-Schrift
 73
     1
 44
1.0
  0
POINT
  5
2EC
330
2E5
100
AcDbEntity
  8
Defpoints
 62
     0
100
AcDbPoint
 10
-107.406572
 20
477.931609
 30
0.0
  0
POINT
  5
2ED
330
2E5
100
AcDbEntity
  8
Defpoints
 62
     0
100
AcDbPoint
 10
592.593428
 20
477.931609
 30
0.0
  0
POINT
  5
2EE
330
2E5
100
AcDbEntity
  8
Defpoints
 62
     0
100
AcDbPoint
 10
592.593428
 20
581.214293
 30
0.0
  0
ENDBLK
  5
2F0
330
2E5
100
AcDbEntity
  8
0
100
AcDbBlockEnd
  0
BLOCK
  5
2FC
330
2F2
100
AcDbEntity
  8
0
100
AcDbBlockBegin
  2
*D24
 70
     1
 71
     0
 10
0.0
 20
0.0
 30
0.0
  3
*D24
  1

  0
LINE
  5
2F3
330
2F2
100
AcDbEntity
  8
LC-001-100-D00-0
 62
     2
370
    -2
100
AcDbLine
 10
-57.406572
 20
433.931609
 30
0.0
 11
-57.406572
 21
513.123386
 31
0.0
  0
LINE
  5
2F4
330
2F2
100
AcDbEntity
  8
LC-001-100-D00-0
 62
     2
370
    -2
100
AcDbLine
 10
542.593428
 20
433.931609
 30
0.0
 11
542.593428
 21
513.123386
 31
0.0
  0
LINE
  5
2F5
330
2F2
100
AcDbEntity
  8
LC-001-100-D00-0
 62
     2
370
    -2
100
AcDbLine
 10
-7.406572
 20
504.123386
 30
0.0
 11
492.593428
 21
504.123386
 31
0.0
  0
SOLID
  5
2F6
330
2F2
100
AcDbEntity
  8
LC-001-100-D00-0
 62
     2
100
AcDbTrace
 10
-7.406572
 20
512.45672
 30
0.0
 11
-7.406572
 21
495.790053
 31
0.0
 12
-57.406572
 22
504.123386
 32
0.0
 13
-57.406572
 23
504.123386
 33
0.0
  0
SOLID
  5
2F7
330
2F2
100
AcDbEntity
  8
LC-001-100-D00-0
 62
     2
100
AcDbTrace
 10
492.593428
 20
495.790053
 30
0.0
 11
492.593428
 21
512.45672
 31
0.0
 12
542.593428
 22
504.123386
 32
0.0
 13
542.593428
 23
504.123386
 33
0.0
  0
MTEXT
  5
2F8
330
2F2
100
AcDbEntity
  8
LC-001-100-D00-0
 62
     2
100
AcDbMText
 10
236.212228
 20
559.123386
 30
0.0
 40
50.0
 41
0.0
 71
     5
 72
     1
  1
\A1;600
  7
LCTX15-400-0-0pDIN-Schrift
 73
     1
 44
1.0
  0
POINT
  5
2F9
330
2F2
100
AcDbEntity
  8
Defpoints
 62
     0
100
AcDbPoint
 10
-57.406572
 20
433.931609
 30
0.0
  0
POINT
  5
2FA
330
2F2
100
AcDbEntity
  8
Defpoints
 62
     0
100
AcDbPoint
 10
542.593428
 20
433.931609
 30
0.0
  0
POINT
  5
2FB
330
2F2
100
AcDbEntity
  8
Defpoints
 62
     0
100
AcDbPoint
 10
542.593428
 20
504.123386
 30
0.0
  0
ENDBLK
  5
2FD
330
2F2
100
AcDbEntity
  8
0
100
AcDbBlockEnd
  0
BLOCK
  5
2FF
330
2FE
100
AcDbEntity
  8
0
100
AcDbBlockBegin
  2
KLON19
 70
     0
 71
     0
 10
0.0
 20
0.0
 30
0.0
  3
KLON19
  1

  4
KLON19
  0
LINE
  5
301
330
2FE
100
AcDbEntity
  8
LC-001-100-D00-0
 62
     7
370
    25
100
AcDbLine
 10
580.569369
 20
435.431609
 30
0.0
 11
582.069369
 21
436.931609
 31
0.0
  0
LINE
  5
302
330
2FE
100
AcDbEntity
  8
LC-001-100-D00-0
 62
     7
370
    25
100
AcDbLine
 10
538.426224
 20
415.739102
 30
0.0
 11
543.285936
 21
420.598814
 31
0.0
  0
LINE
  5
303
330
2FE
100
AcDbEntity
  8
LC-001-100-D00-0
 62
     7
370
    25
100
AcDbLine
 10
558.11873
 20
435.431609
 30
0.0
 11
559.618729
 21
436.931609
 31
0.0
  0
LINE
  5
304
330
2FE
100
AcDbEntity
  8
LC-001-100-D00-0
 62
     7
370
    25
100
AcDbLine
 10
515.168092
 20
414.931609
 30
0.0
 11
517.093428
 21
416.856946
 31
0.0
  0
LINE
  5
305
330
2FE
100
AcDbEntity
  8
LC-001-100-D00-0
 62
     7
370
    25
100
AcDbLine
 10
492.717452
 20
414.931609
 30
0.0
 11
494.217452
 21
416.431609
 31
0.0
  0
LINE
  5
306
330
2FE
100
AcDbEntity
  8
LC-001-100-D00-0
 62
     7
370
    25
100
AcDbLine
 10
508.593428
 20
430.807586
 30
0.0
 11
514.21745
 21
436.431609
 31
0.0
  0
LINE
  5
307
330
2FE
100
AcDbEntity
  8
LC-001-100-D00-0
 62
     7
370
    25
100
AcDbLine
 10
470.266813
 20
414.931609
 30
0.0
 11
471.766812
 21
416.431609
 31
0.0
  0
LINE
  5
308
330
2FE
100
AcDbEntity
  8
LC-001-100-D00-0
 62
     7
370
    25
100
AcDbLine
 10
447.816173
 20
414.931609
 30
0.0
 11
449.316173
 21
416.431609
 31
0.0
  0
LINE
  5
309
330
2FE
100
AcDbEntity
  8
LC-001-100-D00-0
 62
     7
370
    25
100
AcDbLine
 10
425.365534
 20
414.931609
 30
0.0
 11
426.865533
 21
416.431609
 31
0.0
  0
LINE
  5
30A
330
2FE
100
AcDbEntity
  8
LC-001-100-D00-0
 62
     7
370
    25
100
AcDbLine
 10
402.914894
 20
414.931609
 30
0.0
 11
404.414894
 21
416.431609
 31
0.0
  0
LINE
  5
30B
330
2FE
100
AcDbEntity
  8
LC-001-100-D00-0
 62
     7
370
    25
100
AcDbLine
 10
380.464255
 20
414.931609
 30
0.0
 11
381.964255
 21
416.431609
 31
0.0
  0
LINE
  5
30C
330
2FE
100
AcDbEntity
  8
LC-001-100-D00-0
 62
     7
370
    25
100
AcDbLine
 10
358.013615
 20
414.931609
 30
0.0
 11
359.513615
 21
416.431609
 31
0.0
  0
LINE
  5
30D
330
2FE
100
AcDbEntity
  8
LC-001-100-D00-0
 62
     7
370
    25
100
AcDbLine
 10
335.31016
 20
414.678793
 30
0.0
 11
337.062976
 21
416.431609
 31
0.0
  0
LINE
  5
30E
330
2FE
100
AcDbEntity
  8
LC-001-100-D00-0
 62
     7
370
    25
100
AcDbLine
 10
338.093428
 20
417.462062
 30
0.0
 11
338.462975
 21
417.831609
 31
0.0
  0
LINE
  5
30F
330
2FE
100
AcDbEntity
  8
LC-001-100-D00-0
 62
     7
370
    25
100
AcDbLine
 10
339.24864
 20
418.617273
 30
0.0
 11
346.593428
 21
425.962062
 31
0.0
  0
LINE
  5
310
330
2FE
100
AcDbEntity
  8
LC-001-100-D00-0
 62
     7
370
    25
100
AcDbLine
 10
308.112337
 20
409.931609
 30
0.0
 11
309.612336
 21
411.431609
 31
0.0
  0
ENDBLK
  5
300
330
2FE
100
AcDbEntity
  8
0
100
AcDbBlockEnd
  0
BLOCK
  5
313
330
312
100
AcDbEntity
  8
0
100
AcDbBlockBegin
  2
KLON20
 70
     0
 71
     0
 10
0.0
 20
0.0
 30
0.0
  3
KLON20
  1

  4
KLON20
  0
LINE
  5
315
330
312
100
AcDbEntity
  8
LC-001-100-D00-0
 62
     7
370
    25
100
AcDbLine
 10
173.4085
 20
409.931609
 30
0.0
 11
174.8085
 21
411.331609
 31
0.0
  0
LINE
  5
316
330
312
100
AcDbEntity
  8
LC-001-100-D00-0
 62
     7
370
    25
100
AcDbLine
 10
154.473369
 20
413.447118
 30
0.0
 11
155.698114
 21
414.671863
 31
0.0
  0
LINE
  5
317
330
312
100
AcDbEntity
  8
LC-001-100-D00-0
 62
     7
370
    25
100
AcDbLine
 10
133.50722
 20
414.931609
 30
0.0
 11
135.00722
 21
416.431609
 31
0.0
  0
LINE
  5
318
330
312
100
AcDbEntity
  8
LC-001-100-D00-0
 62
     7
370
    25
100
AcDbLine
 10
139.015387
 20
420.439776
 30
0.0
 11
146.593428
 21
428.017818
 31
0.0
  0
LINE
  5
319
330
312
100
AcDbEntity
  8
LC-001-100-D00-0
 62
     7
370
    25
100
AcDbLine
 10
111.056581
 20
414.931609
 30
0.0
 11
112.556581
 21
416.431609
 31
0.0
  0
LINE
  5
31A
330
312
100
AcDbEntity
  8
LC-001-100-D00-0
 62
     7
370
    25
100
AcDbLine
 10
88.605941
 20
414.931609
 30
0.0
 11
90.105941
 21
416.431609
 31
0.0
  0
LINE
  5
31B
330
312
100
AcDbEntity
  8
LC-001-100-D00-0
 62
     7
370
    25
100
AcDbLine
 10
66.155302
 20
414.931609
 30
0.0
 11
67.655302
 21
416.431609
 31
0.0
  0
LINE
  5
31C
330
312
100
AcDbEntity
  8
LC-001-100-D00-0
 62
     7
370
    25
100
AcDbLine
 10
43.704662
 20
414.931609
 30
0.0
 11
45.204662
 21
416.431609
 31
0.0
  0
LINE
  5
31D
330
312
100
AcDbEntity
  8
LC-001-100-D00-0
 62
     7
370
    25
100
AcDbLine
 10
21.254023
 20
414.931609
 30
0.0
 11
22.754023
 21
416.431609
 31
0.0
  0
LINE
  5
31E
330
312
100
AcDbEntity
  8
LC-001-100-D00-0
 62
     7
370
    25
100
AcDbLine
 10
-1.196617
 20
414.931609
 30
0.0
 11
0.303383
 21
416.431609
 31
0.0
  0
LINE
  5
31F
330
312
100
AcDbEntity
  8
LC-001-100-D00-0
 62
     7
370
    25
100
AcDbLine
 10
-23.647256
 20
414.931609
 30
0.0
 11
-22.147256
 21
416.431609
 31
0.0
  0
LINE
  5
320
330
312
100
AcDbEntity
  8
LC-001-100-D00-0
 62
     7
370
    25
100
AcDbLine
 10
-46.097895
 20
414.931609
 30
0.0
 11
-44.597896
 21
416.431609
 31
0.0
  0
LINE
  5
321
330
312
100
AcDbEntity
  8
LC-001-100-D00-0
 62
     7
370
    25
100
AcDbLine
 10
-31.406572
 20
429.622934
 30
0.0
 11
-24.597897
 21
436.431609
 31
0.0
  0
LINE
  5
322
330
312
100
AcDbEntity
  8
LC-001-100-D00-0
 62
     7
370
    25
100
AcDbLine
 10
-58.906572
 20
424.573573
 30
0.0
 11
-57.406572
 21
426.073573
 31
0.0
  0
LINE
  5
323
330
312
100
AcDbEntity
  8
LC-001-100-D00-0
 62
     7
370
    25
100
AcDbLine
 10
-70.499176
 20
435.431609
 30
0.0
 11
-68.999176
 21
436.931609
 31
0.0
  0
LINE
  5
324
330
312
100
AcDbEntity
  8
LC-001-100-D00-0
 62
     7
370
    25
100
AcDbLine
 10
-92.949815
 20
435.431609
 30
0.0
 11
-91.449816
 21
436.931609
 31
0.0
  0
ENDBLK
  5
314
330
312
100
AcDbEntity
  8
0
100
AcDbBlockEnd
  0
BLOCK
  5
32B
330
32A
100
AcDbEntity
  8
0
100
AcDbBlockBegin
  2
KLON21
 70
     0
 71
     0
 10
0.0
 20
0.0
 30
0.0
  3
KLON21
  1

  4
KLON21
  0
LINE
  5
32D
330
32A
100
AcDbEntity
  8
LC-001-100-D00-0
 62
     7
370
    25
100
AcDbLine
 10
518.944281
 20
418.707799
 30
0.0
 11
522.343428
 21
422.106946
 31
0.0
  0
LINE
  5
32E
330
32A
100
AcDbEntity
  8
LC-001-100-D00-0
 62
     7
370
    25
100
AcDbLine
 10
530.16809
 20
429.931609
 30
0.0
 11
530.843428
 21
430.606947
 31
0.0
  0
ENDBLK
  5
32C
330
32A
100
AcDbEntity
  8
0
100
AcDbBlockEnd
  0
BLOCK
  5
332
330
331
100
AcDbEntity
  8
0
100
AcDbBlockBegin
  2
KLON22
 70
     0
 71
     0
 10
0.0
 20
0.0
 30
0.0
  3
KLON22
  1

  4
KLON22
  0
LINE
  5
334
330
331
100
AcDbEntity
  8
LC-001-100-D00-0
 62
     7
370
    25
100
AcDbLine
 10
346.562975
 20
425.931609
 30
0.0
 11
352.343428
 21
431.712063
 31
0.0
  0
LINE
  5
335
330
331
100
AcDbEntity
  8
LC-001-100-D00-0
 62
     7
370
    25
100
AcDbLine
 10
354.562974
 20
433.931609
 30
0.0
 11
357.562974
 21
436.931609
 31
0.0
  0
ENDBLK
  5
333
330
331
100
AcDbEntity
  8
0
100
AcDbBlockEnd
  0
BLOCK
  5
339
330
338
100
AcDbEntity
  8
0
100
AcDbBlockBegin
  2
KLON23
 70
     0
 71
     0
 10
0.0
 20
0.0
 30
0.0
  3
KLON23
  1

  4
KLON23
  0
LINE
  5
33B
330
338
100
AcDbEntity
  8
LC-001-100-D00-0
 62
     7
370
    25
100
AcDbLine
 10
126.05658
 20
429.931609
 30
0.0
 11
127.343428
 21
431.218458
 31
0.0
  0
LINE
  5
33C
330
338
100
AcDbEntity
  8
LC-001-100-D00-0
 62
     7
370
    25
100
AcDbLine
 10
130.056579
 20
433.931609
 30
0.0
 11
133.056579
 21
436.931609
 31
0.0
  0
ENDBLK
  5
33A
330
338
100
AcDbEntity
  8
0
100
AcDbBlockEnd
  0
BLOCK
  5
3B0
330
3AF
100
AcDbEntity
  8
0
100
AcDbBlockBegin
  2
KLON24
 70
     0
 71
     0
 10
0.0
 20
0.0
 30
0.0
  3
KLON24
  1

  4
KLON24
  0
LINE
  5
3B2
330
3AF
100
AcDbEntity
  8
LC-001-100-D00-0
 62
     7
370
    25
100
AcDbLine
 10
307.557412
 20
369.039352
 30
0.0
 11
315.985686
 21
377.467625
 31
0.0
  0
LINE
  5
3B3
330
3AF
100
AcDbEntity
  8
LC-001-100-D00-0
 62
     7
370
    25
100
AcDbLine
 10
284.999029
 20
368.931609
 30
0.0
 11
287.999029
 21
371.931609
 31
0.0
  0
LINE
  5
3B4
330
3AF
100
AcDbEntity
  8
LC-001-100-D00-0
 62
     7
370
    25
100
AcDbLine
 10
313.093428
 20
397.026009
 30
0.0
 11
316.093428
 21
400.026009
 31
0.0
  0
LINE
  5
3B5
330
3AF
100
AcDbEntity
  8
LC-001-100-D00-0
 62
     7
370
    25
100
AcDbLine
 10
262.548388
 20
368.931609
 30
0.0
 11
265.548388
 21
371.931609
 31
0.0
  0
LINE
  5
3B6
330
3AF
100
AcDbEntity
  8
LC-001-100-D00-0
 62
     7
370
    25
100
AcDbLine
 10
240.097748
 20
368.931609
 30
0.0
 11
243.097748
 21
371.931609
 31
0.0
  0
LINE
  5
3B7
330
3AF
100
AcDbEntity
  8
LC-001-100-D00-0
 62
     7
370
    25
100
AcDbLine
 10
217.647108
 20
368.931609
 30
0.0
 11
220.647108
 21
371.931609
 31
0.0
  0
LINE
  5
3B8
330
3AF
100
AcDbEntity
  8
LC-001-100-D00-0
 62
     7
370
    25
100
AcDbLine
 10
195.196468
 20
368.931609
 30
0.0
 11
198.196468
 21
371.931609
 31
0.0
  0
LINE
  5
3B9
330
3AF
100
AcDbEntity
  8
LC-001-100-D00-0
 62
     7
370
    25
100
AcDbLine
 10
174.08845
 20
370.274231
 30
0.0
 11
176.319085
 21
372.504867
 31
0.0
  0
LINE
  5
3BA
330
3AF
100
AcDbEntity
  8
LC-001-100-D00-0
 62
     7
370
    25
100
AcDbLine
 10
169.093428
 20
387.72985
 30
0.0
 11
172.093428
 21
390.72985
 31
0.0
  0
ENDBLK
  5
3B1
330
3AF
100
AcDbEntity
  8
0
100
AcDbBlockEnd
  0
BLOCK
  5
3BE
330
3BD
100
AcDbEntity
  8
0
100
AcDbBlockBegin
  2
KLON25
 70
     0
 71
     0
 10
0.0
 20
0.0
 30
0.0
  3
KLON25
  1

  4
KLON25
  0
LINE
  5
3C0
330
3BD
100
AcDbEntity
  8
LC-001-100-D00-0
 62
     7
370
    25
100
AcDbLine
 10
296.548388
 20
402.931609
 30
0.0
 11
297.093428
 21
403.476649
 31
0.0
  0
LINE
  5
3C1
330
3BD
100
AcDbEntity
  8
LC-001-100-D00-0
 62
     7
370
    25
100
AcDbLine
 10
288.883874
 20
417.717735
 30
0.0
 11
290.029051
 21
418.862911
 31
0.0
  0
LINE
  5
3C2
330
3BD
100
AcDbEntity
  8
LC-001-100-D00-0
 62
     7
370
    25
100
AcDbLine
 10
266.647108
 20
417.931609
 30
0.0
 11
268.147108
 21
419.431609
 31
0.0
  0
LINE
  5
3C3
330
3BD
100
AcDbEntity
  8
LC-001-100-D00-0
 62
     7
370
    25
100
AcDbLine
 10
244.196468
 20
417.931609
 30
0.0
 11
245.696468
 21
419.431609
 31
0.0
  0
LINE
  5
3C4
330
3BD
100
AcDbEntity
  8
LC-001-100-D00-0
 62
     7
370
    25
100
AcDbLine
 10
221.745827
 20
417.931609
 30
0.0
 11
223.245827
 21
419.431609
 31
0.0
  0
LINE
  5
3C5
330
3BD
100
AcDbEntity
  8
LC-001-100-D00-0
 62
     7
370
    25
100
AcDbLine
 10
189.295187
 20
407.931609
 30
0.0
 11
190.795187
 21
409.431609
 31
0.0
  0
LINE
  5
3C6
330
3BD
100
AcDbEntity
  8
LC-001-100-D00-0
 62
     7
370
    25
100
AcDbLine
 10
192.093428
 20
410.72985
 30
0.0
 11
193.593428
 21
412.22985
 31
0.0
  0
LINE
  5
3C7
330
3BD
100
AcDbEntity
  8
LC-001-100-D00-0
 62
     7
370
    25
100
AcDbLine
 10
199.295187
 20
417.931609
 30
0.0
 11
200.795187
 21
419.431609
 31
0.0
  0
ENDBLK
  5
3BF
330
3BD
100
AcDbEntity
  8
0
100
AcDbBlockEnd
  0
BLOCK
  5
3D4
330
3CA
100
AcDbEntity
  8
0
100
AcDbBlockBegin
  2
*D32
 70
     1
 71
     0
 10
0.0
 20
0.0
 30
0.0
  3
*D32
  1

  0
LINE
  5
3CB
330
3CA
100
AcDbEntity
  8
LC-001-100-D00-0
 62
     2
370
    -2
100
AcDbLine
 10
169.093428
 20
378.931609
 30
0.0
 11
169.093428
 21
274.759293
 31
0.0
  0
LINE
  5
3CC
330
3CA
100
AcDbEntity
  8
LC-001-100-D00-0
 62
     2
370
    -2
100
AcDbLine
 10
316.093428
 20
378.931609
 30
0.0
 11
316.093428
 21
274.759293
 31
0.0
  0
LINE
  5
3CD
330
3CA
100
AcDbEntity
  8
LC-001-100-D00-0
 62
     2
370
    -2
100
AcDbLine
 10
219.093428
 20
283.759293
 30
0.0
 11
266.093428
 21
283.759293
 31
0.0
  0
SOLID
  5
3CE
330
3CA
100
AcDbEntity
  8
LC-001-100-D00-0
 62
     2
100
AcDbTrace
 10
219.093428
 20
292.092626
 30
0.0
 11
219.093428
 21
275.42596
 31
0.0
 12
169.093428
 22
283.759293
 32
0.0
 13
169.093428
 23
283.759293
 33
0.0
  0
SOLID
  5
3CF
330
3CA
100
AcDbEntity
  8
LC-001-100-D00-0
 62
     2
100
AcDbTrace
 10
266.093428
 20
275.42596
 30
0.0
 11
266.093428
 21
292.092626
 31
0.0
 12
316.093428
 22
283.759293
 32
0.0
 13
316.093428
 23
283.759293
 33
0.0
  0
MTEXT
  5
3D0
330
3CA
100
AcDbEntity
  8
LC-001-100-D00-0
 62
     2
100
AcDbMText
 10
235.090337
 20
338.759293
 30
0.0
 40
50.0
 41
0.0
 71
     5
 72
     1
  1
\A1;147
  7
LCTX15-400-0-0pDIN-Schrift
 73
     1
 44
1.0
  0
POINT
  5
3D1
330
3CA
100
AcDbEntity
  8
Defpoints
 62
     0
100
AcDbPoint
 10
169.093428
 20
378.931609
 30
0.0
  0
POINT
  5
3D2
330
3CA
100
AcDbEntity
  8
Defpoints
 62
     0
100
AcDbPoint
 10
316.093428
 20
378.931609
 30
0.0
  0
POINT
  5
3D3
330
3CA
100
AcDbEntity
  8
Defpoints
 62
     0
100
AcDbPoint
 10
316.093428
 20
283.759293
 30
0.0
  0
ENDBLK
  5
3D5
330
3CA
100
AcDbEntity
  8
0
100
AcDbBlockEnd
  0
BLOCK
  5
3D9
330
3D8
100
AcDbEntity
  8
0
100
AcDbBlockBegin
  2
KLON26
 70
     0
 71
     0
 10
0.0
 20
0.0
 30
0.0
  3
KLON26
  1

  4
KLON26
  0
LINE
  5
3DB
330
3D8
100
AcDbEntity
  8
LC-001-100-D00-0
 62
     7
370
    15
100
AcDbLine
 10
273.093436
 20
82.664274
 30
0.0
 11
276.078292
 21
82.483724
 31
0.0
  0
LINE
  5
3DC
330
3D8
100
AcDbEntity
  8
LC-001-100-D00-0
 62
     7
370
    15
100
AcDbLine
 10
276.078292
 20
82.483724
 30
0.0
 11
278.781161
 21
82.002228
 31
0.0
  0
ENDBLK
  5
3DA
330
3D8
100
AcDbEntity
  8
0
100
AcDbBlockEnd
  0
BLOCK
  5
3E1
330
3E0
100
AcDbEntity
  8
0
100
AcDbBlockBegin
  2
KLON27
 70
     0
 71
     0
 10
0.0
 20
0.0
 30
0.0
  3
KLON27
  1

  4
KLON27
  0
LINE
  5
3E3
330
3E0
100
AcDbEntity
  8
LC-001-100-D00-0
 62
     7
370
    15
100
AcDbLine
 10
212.093436
 20
33.138159
 30
0.0
 11
209.10858
 21
33.318709
 31
0.0
  0
LINE
  5
3E4
330
3E0
100
AcDbEntity
  8
LC-001-100-D00-0
 62
     7
370
    15
100
AcDbLine
 10
209.10858
 20
33.318709
 30
0.0
 11
207.544588
 21
33.559546
 31
0.0
  0
ENDBLK
  5
3E2
330
3E0
100
AcDbEntity
  8
0
100
AcDbBlockEnd
  0
BLOCK
  5
3EA
330
3E9
100
AcDbEntity
  8
0
100
AcDbBlockBegin
  2
POLY1
 70
     0
 71
     0
 10
0.0
 20
0.0
 30
0.0
  3
POLY1
  1

  4
POLY1
  0
LINE
  5
3EC
330
3E9
100
AcDbEntity
  8
LC-001-100-D00-0
 62
     7
370
    50
100
AcDbLine
 10
273.093436
 20
33.101216
 30
0.0
 11
273.093436
 21
33.101216
 31
0.0
  0
LINE
  5
3ED
330
3E9
100
AcDbEntity
  8
LC-001-100-D00-0
 62
     7
370
    50
100
AcDbLine
 10
273.093436
 20
33.101216
 30
0.0
 11
274.12916
 21
33.138781
 31
0.0
  0
LINE
  5
3EE
330
3E9
100
AcDbEntity
  8
LC-001-100-D00-0
 62
     7
370
    50
100
AcDbLine
 10
274.12916
 20
33.138781
 30
0.0
 11
274.12916
 21
33.138781
 31
0.0
  0
LINE
  5
3EF
330
3E9
100
AcDbEntity
  8
LC-001-100-D00-0
 62
     7
370
    50
100
AcDbLine
 10
274.12916
 20
33.138781
 30
0.0
 11
276.230841
 21
33.215008
 31
0.0
  0
LINE
  5
3F0
330
3E9
100
AcDbEntity
  8
LC-001-100-D00-0
 62
     7
370
    50
100
AcDbLine
 10
276.230841
 20
33.215008
 30
0.0
 11
276.230841
 21
33.215008
 31
0.0
  0
LINE
  5
3F1
330
3E9
100
AcDbEntity
  8
LC-001-100-D00-0
 62
     7
370
    50
100
AcDbLine
 10
276.230841
 20
33.215008
 30
0.0
 11
279.380711
 21
33.848127
 31
0.0
  0
LINE
  5
3F2
330
3E9
100
AcDbEntity
  8
LC-001-100-D00-0
 62
     7
370
    50
100
AcDbLine
 10
279.380711
 20
33.848127
 30
0.0
 11
279.380711
 21
33.848127
 31
0.0
  0
LINE
  5
3F3
330
3E9
100
AcDbEntity
  8
LC-001-100-D00-0
 62
     7
370
    50
100
AcDbLine
 10
279.380711
 20
33.848127
 30
0.0
 11
282.584331
 21
34.874298
 31
0.0
  0
LINE
  5
3F4
330
3E9
100
AcDbEntity
  8
LC-001-100-D00-0
 62
     7
370
    50
100
AcDbLine
 10
282.584331
 20
34.874298
 30
0.0
 11
282.584331
 21
34.874298
 31
0.0
  0
LINE
  5
3F5
330
3E9
100
AcDbEntity
  8
LC-001-100-D00-0
 62
     7
370
    50
100
AcDbLine
 10
282.584331
 20
34.874298
 30
0.0
 11
284.662645
 21
35.988874
 31
0.0
  0
LINE
  5
3F6
330
3E9
100
AcDbEntity
  8
LC-001-100-D00-0
 62
     7
370
    50
100
AcDbLine
 10
284.662645
 20
35.988874
 30
0.0
 11
284.662645
 21
35.988874
 31
0.0
  0
LINE
  5
3F7
330
3E9
100
AcDbEntity
  8
LC-001-100-D00-0
 62
     7
370
    50
100
AcDbLine
 10
284.662645
 20
35.988874
 30
0.0
 11
285.714985
 21
36.553232
 31
0.0
  0
ENDBLK
  5
3EB
330
3E9
100
AcDbEntity
  8
0
100
AcDbBlockEnd
  0
BLOCK
  5
3FA
330
3F9
100
AcDbEntity
  8
0
100
AcDbBlockBegin
  2
POLY2
 70
     0
 71
     0
 10
0.0
 20
0.0
 30
0.0
  3
POLY2
  1

  4
POLY2
  0
LINE
  5
3FC
330
3F9
100
AcDbEntity
  8
LC-001-100-D00-0
 62
     7
370
    50
100
AcDbLine
 10
212.093436
 20
33.101216
 30
0.0
 11
212.093436
 21
33.101216
 31
0.0
  0
LINE
  5
3FD
330
3F9
100
AcDbEntity
  8
LC-001-100-D00-0
 62
     7
370
    50
100
AcDbLine
 10
212.093436
 20
33.101216
 30
0.0
 11
211.057712
 21
33.138781
 31
0.0
  0
LINE
  5
3FE
330
3F9
100
AcDbEntity
  8
LC-001-100-D00-0
 62
     7
370
    50
100
AcDbLine
 10
211.057712
 20
33.138781
 30
0.0
 11
211.057712
 21
33.138781
 31
0.0
  0
LINE
  5
3FF
330
3F9
100
AcDbEntity
  8
LC-001-100-D00-0
 62
     7
370
    50
100
AcDbLine
 10
211.057712
 20
33.138781
 30
0.0
 11
208.956032
 21
33.215008
 31
0.0
  0
LINE
  5
400
330
3F9
100
AcDbEntity
  8
LC-001-100-D00-0
 62
     7
370
    50
100
AcDbLine
 10
208.956032
 20
33.215008
 30
0.0
 11
208.956032
 21
33.215008
 31
0.0
  0
LINE
  5
401
330
3F9
100
AcDbEntity
  8
LC-001-100-D00-0
 62
     7
370
    50
100
AcDbLine
 10
208.956032
 20
33.215008
 30
0.0
 11
205.806161
 21
33.848127
 31
0.0
  0
LINE
  5
402
330
3F9
100
AcDbEntity
  8
LC-001-100-D00-0
 62
     7
370
    50
100
AcDbLine
 10
205.806161
 20
33.848127
 30
0.0
 11
205.806161
 21
33.848127
 31
0.0
  0
LINE
  5
403
330
3F9
100
AcDbEntity
  8
LC-001-100-D00-0
 62
     7
370
    50
100
AcDbLine
 10
205.806161
 20
33.848127
 30
0.0
 11
202.602541
 21
34.874298
 31
0.0
  0
LINE
  5
404
330
3F9
100
AcDbEntity
  8
LC-001-100-D00-0
 62
     7
370
    50
100
AcDbLine
 10
202.602541
 20
34.874298
 30
0.0
 11
202.602541
 21
34.874298
 31
0.0
  0
LINE
  5
405
330
3F9
100
AcDbEntity
  8
LC-001-100-D00-0
 62
     7
370
    50
100
AcDbLine
 10
202.602541
 20
34.874298
 30
0.0
 11
200.524228
 21
35.988874
 31
0.0
  0
LINE
  5
406
330
3F9
100
AcDbEntity
  8
LC-001-100-D00-0
 62
     7
370
    50
100
AcDbLine
 10
200.524228
 20
35.988874
 30
0.0
 11
200.524228
 21
35.988874
 31
0.0
  0
LINE
  5
407
330
3F9
100
AcDbEntity
  8
LC-001-100-D00-0
 62
     7
370
    50
100
AcDbLine
 10
200.524228
 20
35.988874
 30
0.0
 11
199.471888
 21
36.553232
 31
0.0
  0
ENDBLK
  5
3FB
330
3F9
100
AcDbEntity
  8
0
100
AcDbBlockEnd
  0
BLOCK
  5
40A
330
409
100
AcDbEntity
  8
0
100
AcDbBlockBegin
  2
POLY3
 70
     0
 71
     0
 10
0.0
 20
0.0
 30
0.0
  3
POLY3
  1

  4
POLY3
  0
LINE
  5
40C
330
409
100
AcDbEntity
  8
LC-001-100-D00-0
 62
     7
370
    50
100
AcDbLine
 10
285.714985
 20
79.249201
 30
0.0
 11
285.714985
 21
79.249201
 31
0.0
  0
LINE
  5
40D
330
409
100
AcDbEntity
  8
LC-001-100-D00-0
 62
     7
370
    50
100
AcDbLine
 10
285.714985
 20
79.249201
 30
0.0
 11
284.802697
 21
79.744809
 31
0.0
  0
LINE
  5
40E
330
409
100
AcDbEntity
  8
LC-001-100-D00-0
 62
     7
370
    50
100
AcDbLine
 10
284.802697
 20
79.744809
 30
0.0
 11
284.802697
 21
79.744809
 31
0.0
  0
LINE
  5
40F
330
409
100
AcDbEntity
  8
LC-001-100-D00-0
 62
     7
370
    50
100
AcDbLine
 10
284.802697
 20
79.744809
 30
0.0
 11
282.951843
 21
80.7503
 31
0.0
  0
LINE
  5
410
330
409
100
AcDbEntity
  8
LC-001-100-D00-0
 62
     7
370
    50
100
AcDbLine
 10
282.951843
 20
80.7503
 30
0.0
 11
282.951843
 21
80.7503
 31
0.0
  0
LINE
  5
411
330
409
100
AcDbEntity
  8
LC-001-100-D00-0
 62
     7
370
    50
100
AcDbLine
 10
282.951843
 20
80.7503
 30
0.0
 11
279.914746
 21
81.808316
 31
0.0
  0
LINE
  5
412
330
409
100
AcDbEntity
  8
LC-001-100-D00-0
 62
     7
370
    50
100
AcDbLine
 10
279.914746
 20
81.808316
 30
0.0
 11
279.914746
 21
81.808316
 31
0.0
  0
LINE
  5
413
330
409
100
AcDbEntity
  8
LC-001-100-D00-0
 62
     7
370
    50
100
AcDbLine
 10
279.914746
 20
81.808316
 30
0.0
 11
276.638207
 21
82.553436
 31
0.0
  0
LINE
  5
414
330
409
100
AcDbEntity
  8
LC-001-100-D00-0
 62
     7
370
    50
100
AcDbLine
 10
276.638207
 20
82.553436
 30
0.0
 11
276.638207
 21
82.553436
 31
0.0
  0
LINE
  5
415
330
409
100
AcDbEntity
  8
LC-001-100-D00-0
 62
     7
370
    50
100
AcDbLine
 10
276.638207
 20
82.553436
 30
0.0
 11
274.285097
 21
82.651537
 31
0.0
  0
LINE
  5
416
330
409
100
AcDbEntity
  8
LC-001-100-D00-0
 62
     7
370
    50
100
AcDbLine
 10
274.285097
 20
82.651537
 30
0.0
 11
274.285097
 21
82.651537
 31
0.0
  0
LINE
  5
417
330
409
100
AcDbEntity
  8
LC-001-100-D00-0
 62
     7
370
    50
100
AcDbLine
 10
274.285097
 20
82.651537
 30
0.0
 11
273.093436
 21
82.701217
 31
0.0
  0
ENDBLK
  5
40B
330
409
100
AcDbEntity
  8
0
100
AcDbBlockEnd
  0
BLOCK
  5
41A
330
419
100
AcDbEntity
  8
0
100
AcDbBlockBegin
  2
POLY4
 70
     0
 71
     0
 10
0.0
 20
0.0
 30
0.0
  3
POLY4
  1

  4
POLY4
  0
LINE
  5
41C
330
419
100
AcDbEntity
  8
LC-001-100-D00-0
 62
     7
370
    50
100
AcDbLine
 10
199.471888
 20
79.249201
 30
0.0
 11
199.471888
 21
79.249201
 31
0.0
  0
LINE
  5
41D
330
419
100
AcDbEntity
  8
LC-001-100-D00-0
 62
     7
370
    50
100
AcDbLine
 10
199.471888
 20
79.249201
 30
0.0
 11
200.384175
 21
79.744809
 31
0.0
  0
LINE
  5
41E
330
419
100
AcDbEntity
  8
LC-001-100-D00-0
 62
     7
370
    50
100
AcDbLine
 10
200.384175
 20
79.744809
 30
0.0
 11
200.384175
 21
79.744809
 31
0.0
  0
LINE
  5
41F
330
419
100
AcDbEntity
  8
LC-001-100-D00-0
 62
     7
370
    50
100
AcDbLine
 10
200.384175
 20
79.744809
 30
0.0
 11
202.235029
 21
80.7503
 31
0.0
  0
LINE
  5
420
330
419
100
AcDbEntity
  8
LC-001-100-D00-0
 62
     7
370
    50
100
AcDbLine
 10
202.235029
 20
80.7503
 30
0.0
 11
202.235029
 21
80.7503
 31
0.0
  0
LINE
  5
421
330
419
100
AcDbEntity
  8
LC-001-100-D00-0
 62
     7
370
    50
100
AcDbLine
 10
202.235029
 20
80.7503
 30
0.0
 11
205.272126
 21
81.808316
 31
0.0
  0
LINE
  5
422
330
419
100
AcDbEntity
  8
LC-001-100-D00-0
 62
     7
370
    50
100
AcDbLine
 10
205.272126
 20
81.808316
 30
0.0
 11
205.272126
 21
81.808316
 31
0.0
  0
LINE
  5
423
330
419
100
AcDbEntity
  8
LC-001-100-D00-0
 62
     7
370
    50
100
AcDbLine
 10
205.272126
 20
81.808316
 30
0.0
 11
208.548665
 21
82.553436
 31
0.0
  0
LINE
  5
424
330
419
100
AcDbEntity
  8
LC-001-100-D00-0
 62
     7
370
    50
100
AcDbLine
 10
208.548665
 20
82.553436
 30
0.0
 11
208.548665
 21
82.553436
 31
0.0
  0
LINE
  5
425
330
419
100
AcDbEntity
  8
LC-001-100-D00-0
 62
     7
370
    50
100
AcDbLine
 10
208.548665
 20
82.553436
 30
0.0
 11
210.901775
 21
82.651537
 31
0.0
  0
LINE
  5
426
330
419
100
AcDbEntity
  8
LC-001-100-D00-0
 62
     7
370
    50
100
AcDbLine
 10
210.901775
 20
82.651537
 30
0.0
 11
210.901775
 21
82.651537
 31
0.0
  0
LINE
  5
427
330
419
100
AcDbEntity
  8
LC-001-100-D00-0
 62
     7
370
    50
100
AcDbLine
 10
210.901775
 20
82.651537
 30
0.0
 11
212.093436
 21
82.701217
 31
0.0
  0
ENDBLK
  5
41B
330
419
100
AcDbEntity
  8
0
100
AcDbBlockEnd
  0
BLOCK
  5
434
330
433
100
AcDbEntity
  8
0
100
AcDbBlockBegin
  2
POLY5
 70
     0
 71
     0
 10
0.0
 20
0.0
 30
0.0
  3
POLY5
  1

  4
POLY5
  0
LINE
  5
436
330
433
100
AcDbEntity
  8
LC-001-100-D00-0
 62
     7
370
    50
100
AcDbLine
 10
202.544086
 20
35.361254
 30
0.0
 11
202.544086
 21
35.361254
 31
0.0
  0
LINE
  5
437
330
433
100
AcDbEntity
  8
LC-001-100-D00-0
 62
     7
370
    50
100
AcDbLine
 10
202.544086
 20
35.361254
 30
0.0
 11
202.518597
 21
35.31711
 31
0.0
  0
LINE
  5
438
330
433
100
AcDbEntity
  8
LC-001-100-D00-0
 62
     7
370
    50
100
AcDbLine
 10
202.518597
 20
35.31711
 30
0.0
 11
202.518597
 21
35.31711
 31
0.0
  0
LINE
  5
439
330
433
100
AcDbEntity
  8
LC-001-100-D00-0
 62
     7
370
    50
100
AcDbLine
 10
202.518597
 20
35.31711
 30
0.0
 11
202.467614
 21
35.228811
 31
0.0
  0
LINE
  5
43A
330
433
100
AcDbEntity
  8
LC-001-100-D00-0
 62
     7
370
    50
100
AcDbLine
 10
202.467614
 20
35.228811
 30
0.0
 11
202.467614
 21
35.228811
 31
0.0
  0
LINE
  5
43B
330
433
100
AcDbEntity
  8
LC-001-100-D00-0
 62
     7
370
    50
100
AcDbLine
 10
202.467614
 20
35.228811
 30
0.0
 11
202.413042
 21
35.134278
 31
0.0
  0
LINE
  5
43C
330
433
100
AcDbEntity
  8
LC-001-100-D00-0
 62
     7
370
    50
100
AcDbLine
 10
202.413042
 20
35.134278
 30
0.0
 11
202.413042
 21
35.134278
 31
0.0
  0
LINE
  5
43D
330
433
100
AcDbEntity
  8
LC-001-100-D00-0
 62
     7
370
    50
100
AcDbLine
 10
202.413042
 20
35.134278
 30
0.0
 11
202.385969
 21
35.087387
 31
0.0
  0
LINE
  5
43E
330
433
100
AcDbEntity
  8
LC-001-100-D00-0
 62
     7
370
    50
100
AcDbLine
 10
202.385969
 20
35.087387
 30
0.0
 11
202.385969
 21
35.087387
 31
0.0
  0
LINE
  5
43F
330
433
100
AcDbEntity
  8
LC-001-100-D00-0
 62
     7
370
    50
100
AcDbLine
 10
202.385969
 20
35.087387
 30
0.0
 11
202.383472
 21
35.083064
 31
0.0
  0
LINE
  5
440
330
433
100
AcDbEntity
  8
LC-001-100-D00-0
 62
     7
370
    50
100
AcDbLine
 10
202.383472
 20
35.083064
 30
0.0
 11
202.383472
 21
35.083064
 31
0.0
  0
LINE
  5
441
330
433
100
AcDbEntity
  8
LC-001-100-D00-0
 62
     7
370
    50
100
AcDbLine
 10
202.383472
 20
35.083064
 30
0.0
 11
202.382573
 21
35.081507
 31
0.0
  0
ENDBLK
  5
435
330
433
100
AcDbEntity
  8
0
100
AcDbBlockEnd
  0
BLOCK
  5
446
330
445
100
AcDbEntity
  8
0
100
AcDbBlockBegin
  2
POLY6
 70
     0
 71
     0
 10
0.0
 20
0.0
 30
0.0
  3
POLY6
  1

  4
POLY6
  0
LINE
  5
448
330
445
100
AcDbEntity
  8
LC-001-100-D00-0
 62
     7
370
    50
100
AcDbLine
 10
282.8043
 20
35.081507
 30
0.0
 11
282.8043
 21
35.081507
 31
0.0
  0
LINE
  5
449
330
445
100
AcDbEntity
  8
LC-001-100-D00-0
 62
     7
370
    50
100
AcDbLine
 10
282.8043
 20
35.081507
 30
0.0
 11
282.80155
 21
35.08627
 31
0.0
  0
LINE
  5
44A
330
445
100
AcDbEntity
  8
LC-001-100-D00-0
 62
     7
370
    50
100
AcDbLine
 10
282.80155
 20
35.08627
 30
0.0
 11
282.80155
 21
35.08627
 31
0.0
  0
LINE
  5
44B
330
445
100
AcDbEntity
  8
LC-001-100-D00-0
 62
     7
370
    50
100
AcDbLine
 10
282.80155
 20
35.08627
 30
0.0
 11
282.79605
 21
35.095794
 31
0.0
  0
LINE
  5
44C
330
445
100
AcDbEntity
  8
LC-001-100-D00-0
 62
     7
370
    50
100
AcDbLine
 10
282.79605
 20
35.095794
 30
0.0
 11
282.79605
 21
35.095794
 31
0.0
  0
LINE
  5
44D
330
445
100
AcDbEntity
  8
LC-001-100-D00-0
 62
     7
370
    50
100
AcDbLine
 10
282.79605
 20
35.095794
 30
0.0
 11
282.753039
 21
35.170296
 31
0.0
  0
LINE
  5
44E
330
445
100
AcDbEntity
  8
LC-001-100-D00-0
 62
     7
370
    50
100
AcDbLine
 10
282.753039
 20
35.170296
 30
0.0
 11
282.753039
 21
35.170296
 31
0.0
  0
LINE
  5
44F
330
445
100
AcDbEntity
  8
LC-001-100-D00-0
 62
     7
370
    50
100
AcDbLine
 10
282.753039
 20
35.170296
 30
0.0
 11
282.698722
 21
35.264369
 31
0.0
  0
LINE
  5
450
330
445
100
AcDbEntity
  8
LC-001-100-D00-0
 62
     7
370
    50
100
AcDbLine
 10
282.698722
 20
35.264369
 30
0.0
 11
282.698722
 21
35.264369
 31
0.0
  0
LINE
  5
451
330
445
100
AcDbEntity
  8
LC-001-100-D00-0
 62
     7
370
    50
100
AcDbLine
 10
282.698722
 20
35.264369
 30
0.0
 11
282.657982
 21
35.334934
 31
0.0
  0
LINE
  5
452
330
445
100
AcDbEntity
  8
LC-001-100-D00-0
 62
     7
370
    50
100
AcDbLine
 10
282.657982
 20
35.334934
 30
0.0
 11
282.657982
 21
35.334934
 31
0.0
  0
LINE
  5
453
330
445
100
AcDbEntity
  8
LC-001-100-D00-0
 62
     7
370
    50
100
AcDbLine
 10
282.657982
 20
35.334934
 30
0.0
 11
282.642786
 21
35.361254
 31
0.0
  0
ENDBLK
  5
447
330
445
100
AcDbEntity
  8
0
100
AcDbBlockEnd
  0
BLOCK
  5
4A9
330
4A8
100
AcDbEntity
  8
0
100
AcDbBlockBegin
  2
POLY7
 70
     0
 71
     0
 10
0.0
 20
0.0
 30
0.0
  3
POLY7
  1

  4
POLY7
  0
LINE
  5
4AB
330
4A8
100
AcDbEntity
  8
LC-001-100-D00-0
 62
     7
370
    50
100
AcDbLine
 10
-236.130666
 20
412.306802
 30
0.0
 11
-236.130666
 21
412.306802
 31
0.0
  0
LINE
  5
4AC
330
4A8
100
AcDbEntity
  8
LC-001-100-D00-0
 62
     7
370
    50
100
AcDbLine
 10
-236.130666
 20
412.306802
 30
0.0
 11
-236.155771
 21
412.274406
 31
0.0
  0
LINE
  5
4AD
330
4A8
100
AcDbEntity
  8
LC-001-100-D00-0
 62
     7
370
    50
100
AcDbLine
 10
-236.155771
 20
412.274406
 30
0.0
 11
-236.155771
 21
412.274406
 31
0.0
  0
LINE
  5
4AE
330
4A8
100
AcDbEntity
  8
LC-001-100-D00-0
 62
     7
370
    50
100
AcDbLine
 10
-236.155771
 20
412.274406
 30
0.0
 11
-236.206186
 21
412.209351
 31
0.0
  0
LINE
  5
4AF
330
4A8
100
AcDbEntity
  8
LC-001-100-D00-0
 62
     7
370
    50
100
AcDbLine
 10
-236.206186
 20
412.209351
 30
0.0
 11
-236.206186
 21
412.209351
 31
0.0
  0
LINE
  5
4B0
330
4A8
100
AcDbEntity
  8
LC-001-100-D00-0
 62
     7
370
    50
100
AcDbLine
 10
-236.206186
 20
412.209351
 30
0.0
 11
-236.605874
 21
411.852768
 31
0.0
  0
LINE
  5
4B1
330
4A8
100
AcDbEntity
  8
LC-001-100-D00-0
 62
     7
370
    50
100
AcDbLine
 10
-236.605874
 20
411.852768
 30
0.0
 11
-236.605874
 21
411.852768
 31
0.0
  0
LINE
  5
4B2
330
4A8
100
AcDbEntity
  8
LC-001-100-D00-0
 62
     7
370
    50
100
AcDbLine
 10
-236.605874
 20
411.852768
 30
0.0
 11
-237.18556
 21
411.525996
 31
0.0
  0
LINE
  5
4B3
330
4A8
100
AcDbEntity
  8
LC-001-100-D00-0
 62
     7
370
    50
100
AcDbLine
 10
-237.18556
 20
411.525996
 30
0.0
 11
-237.18556
 21
411.525996
 31
0.0
  0
LINE
  5
4B4
330
4A8
100
AcDbEntity
  8
LC-001-100-D00-0
 62
     7
370
    50
100
AcDbLine
 10
-237.18556
 20
411.525996
 30
0.0
 11
-237.748376
 21
411.463138
 31
0.0
  0
LINE
  5
4B5
330
4A8
100
AcDbEntity
  8
LC-001-100-D00-0
 62
     7
370
    50
100
AcDbLine
 10
-237.748376
 20
411.463138
 30
0.0
 11
-237.748376
 21
411.463138
 31
0.0
  0
LINE
  5
4B6
330
4A8
100
AcDbEntity
  8
LC-001-100-D00-0
 62
     7
370
    50
100
AcDbLine
 10
-237.748376
 20
411.463138
 30
0.0
 11
-238.030666
 21
411.43161
 31
0.0
  0
ENDBLK
  5
4AA
330
4A8
100
AcDbEntity
  8
0
100
AcDbBlockEnd
  0
BLOCK
  5
4B9
330
4B8
100
AcDbEntity
  8
0
100
AcDbBlockBegin
  2
POLY8
 70
     0
 71
     0
 10
0.0
 20
0.0
 30
0.0
  3
POLY8
  1

  4
POLY8
  0
LINE
  5
4BB
330
4B8
100
AcDbEntity
  8
LC-001-100-D00-0
 62
     7
370
    50
100
AcDbLine
 10
-285.030664
 20
411.43161
 30
0.0
 11
-285.030664
 21
411.43161
 31
0.0
  0
LINE
  5
4BC
330
4B8
100
AcDbEntity
  8
LC-001-100-D00-0
 62
     7
370
    50
100
AcDbLine
 10
-285.030664
 20
411.43161
 30
0.0
 11
-285.342163
 21
411.47041
 31
0.0
  0
LINE
  5
4BD
330
4B8
100
AcDbEntity
  8
LC-001-100-D00-0
 62
     7
370
    50
100
AcDbLine
 10
-285.342163
 20
411.47041
 30
0.0
 11
-285.342163
 21
411.47041
 31
0.0
  0
LINE
  5
4BE
330
4B8
100
AcDbEntity
  8
LC-001-100-D00-0
 62
     7
370
    50
100
AcDbLine
 10
-285.342163
 20
411.47041
 30
0.0
 11
-285.968137
 21
411.548381
 31
0.0
  0
LINE
  5
4BF
330
4B8
100
AcDbEntity
  8
LC-001-100-D00-0
 62
     7
370
    50
100
AcDbLine
 10
-285.968137
 20
411.548381
 30
0.0
 11
-285.968137
 21
411.548381
 31
0.0
  0
LINE
  5
4C0
330
4B8
100
AcDbEntity
  8
LC-001-100-D00-0
 62
     7
370
    50
100
AcDbLine
 10
-285.968137
 20
411.548381
 30
0.0
 11
-286.52349
 21
411.906225
 31
0.0
  0
LINE
  5
4C1
330
4B8
100
AcDbEntity
  8
LC-001-100-D00-0
 62
     7
370
    50
100
AcDbLine
 10
-286.52349
 20
411.906225
 30
0.0
 11
-286.52349
 21
411.906225
 31
0.0
  0
LINE
  5
4C2
330
4B8
100
AcDbEntity
  8
LC-001-100-D00-0
 62
     7
370
    50
100
AcDbLine
 10
-286.52349
 20
411.906225
 30
0.0
 11
-286.869631
 21
412.228676
 31
0.0
  0
LINE
  5
4C3
330
4B8
100
AcDbEntity
  8
LC-001-100-D00-0
 62
     7
370
    50
100
AcDbLine
 10
-286.869631
 20
412.228676
 30
0.0
 11
-286.869631
 21
412.228676
 31
0.0
  0
LINE
  5
4C4
330
4B8
100
AcDbEntity
  8
LC-001-100-D00-0
 62
     7
370
    50
100
AcDbLine
 10
-286.869631
 20
412.228676
 30
0.0
 11
-286.910281
 21
412.28071
 31
0.0
  0
LINE
  5
4C5
330
4B8
100
AcDbEntity
  8
LC-001-100-D00-0
 62
     7
370
    50
100
AcDbLine
 10
-286.910281
 20
412.28071
 30
0.0
 11
-286.910281
 21
412.28071
 31
0.0
  0
LINE
  5
4C6
330
4B8
100
AcDbEntity
  8
LC-001-100-D00-0
 62
     7
370
    50
100
AcDbLine
 10
-286.910281
 20
412.28071
 30
0.0
 11
-286.930665
 21
412.306802
 31
0.0
  0
ENDBLK
  5
4BA
330
4B8
100
AcDbEntity
  8
0
100
AcDbBlockEnd
  0
BLOCK
  5
4CD
330
4CC
100
AcDbEntity
  8
0
100
AcDbBlockBegin
  2
POLY9
 70
     0
 71
     0
 10
0.0
 20
0.0
 30
0.0
  3
POLY9
  1

  4
POLY9
  0
LINE
  5
4CF
330
4CC
100
AcDbEntity
  8
LC-001-100-D00-0
 62
     7
370
    50
100
AcDbLine
 10
-238.990703
 20
401.439671
 30
0.0
 11
-238.990703
 21
401.439671
 31
0.0
  0
LINE
  5
4D0
330
4CC
100
AcDbEntity
  8
LC-001-100-D00-0
 62
     7
370
    50
100
AcDbLine
 10
-238.990703
 20
401.439671
 30
0.0
 11
-238.796236
 21
401.482102
 31
0.0
  0
LINE
  5
4D1
330
4CC
100
AcDbEntity
  8
LC-001-100-D00-0
 62
     7
370
    50
100
AcDbLine
 10
-238.796236
 20
401.482102
 30
0.0
 11
-238.796236
 21
401.482102
 31
0.0
  0
LINE
  5
4D2
330
4CC
100
AcDbEntity
  8
LC-001-100-D00-0
 62
     7
370
    50
100
AcDbLine
 10
-238.796236
 20
401.482102
 30
0.0
 11
-238.407269
 21
401.56697
 31
0.0
  0
LINE
  5
4D3
330
4CC
100
AcDbEntity
  8
LC-001-100-D00-0
 62
     7
370
    50
100
AcDbLine
 10
-238.407269
 20
401.56697
 30
0.0
 11
-238.407269
 21
401.56697
 31
0.0
  0
LINE
  5
4D4
330
4CC
100
AcDbEntity
  8
LC-001-100-D00-0
 62
     7
370
    50
100
AcDbLine
 10
-238.407269
 20
401.56697
 30
0.0
 11
-237.911904
 21
401.967598
 31
0.0
  0
LINE
  5
4D5
330
4CC
100
AcDbEntity
  8
LC-001-100-D00-0
 62
     7
370
    50
100
AcDbLine
 10
-237.911904
 20
401.967598
 30
0.0
 11
-237.911904
 21
401.967598
 31
0.0
  0
LINE
  5
4D6
330
4CC
100
AcDbEntity
  8
LC-001-100-D00-0
 62
     7
370
    50
100
AcDbLine
 10
-237.911904
 20
401.967598
 30
0.0
 11
-237.558677
 21
402.517753
 31
0.0
  0
LINE
  5
4D7
330
4CC
100
AcDbEntity
  8
LC-001-100-D00-0
 62
     7
370
    50
100
AcDbLine
 10
-237.558677
 20
402.517753
 30
0.0
 11
-237.558677
 21
402.517753
 31
0.0
  0
LINE
  5
4D8
330
4CC
100
AcDbEntity
  8
LC-001-100-D00-0
 62
     7
370
    50
100
AcDbLine
 10
-237.558677
 20
402.517753
 30
0.0
 11
-237.416064
 21
403.039637
 31
0.0
  0
LINE
  5
4D9
330
4CC
100
AcDbEntity
  8
LC-001-100-D00-0
 62
     7
370
    50
100
AcDbLine
 10
-237.416064
 20
403.039637
 30
0.0
 11
-237.416064
 21
403.039637
 31
0.0
  0
LINE
  5
4DA
330
4CC
100
AcDbEntity
  8
LC-001-100-D00-0
 62
     7
370
    50
100
AcDbLine
 10
-237.416064
 20
403.039637
 30
0.0
 11
-237.405692
 21
403.347576
 31
0.0
  0
LINE
  5
4DB
330
4CC
100
AcDbEntity
  8
LC-001-100-D00-0
 62
     7
370
    50
100
AcDbLine
 10
-237.405692
 20
403.347576
 30
0.0
 11
-237.405692
 21
403.347576
 31
0.0
  0
LINE
  5
4DC
330
4CC
100
AcDbEntity
  8
LC-001-100-D00-0
 62
     7
370
    50
100
AcDbLine
 10
-237.405692
 20
403.347576
 30
0.0
 11
-237.402862
 21
403.43161
 31
0.0
  0
ENDBLK
  5
4CE
330
4CC
100
AcDbEntity
  8
0
100
AcDbBlockEnd
  0
BLOCK
  5
4DF
330
4DE
100
AcDbEntity
  8
0
100
AcDbBlockBegin
  2
POLY10
 70
     0
 71
     0
 10
0.0
 20
0.0
 30
0.0
  3
POLY10
  1

  4
POLY10
  0
LINE
  5
4E1
330
4DE
100
AcDbEntity
  8
LC-001-100-D00-0
 62
     7
370
    50
100
AcDbLine
 10
-285.658469
 20
403.43161
 30
0.0
 11
-285.658469
 21
403.43161
 31
0.0
  0
LINE
  5
4E2
330
4DE
100
AcDbEntity
  8
LC-001-100-D00-0
 62
     7
370
    50
100
AcDbLine
 10
-285.658469
 20
403.43161
 30
0.0
 11
-285.639377
 21
403.207863
 31
0.0
  0
LINE
  5
4E3
330
4DE
100
AcDbEntity
  8
LC-001-100-D00-0
 62
     7
370
    50
100
AcDbLine
 10
-285.639377
 20
403.207863
 30
0.0
 11
-285.639377
 21
403.207863
 31
0.0
  0
LINE
  5
4E4
330
4DE
100
AcDbEntity
  8
LC-001-100-D00-0
 62
     7
370
    50
100
AcDbLine
 10
-285.639377
 20
403.207863
 30
0.0
 11
-285.601196
 21
402.760391
 31
0.0
  0
LINE
  5
4E5
330
4DE
100
AcDbEntity
  8
LC-001-100-D00-0
 62
     7
370
    50
100
AcDbLine
 10
-285.601196
 20
402.760391
 30
0.0
 11
-285.601196
 21
402.760391
 31
0.0
  0
LINE
  5
4E6
330
4DE
100
AcDbEntity
  8
LC-001-100-D00-0
 62
     7
370
    50
100
AcDbLine
 10
-285.601196
 20
402.760391
 30
0.0
 11
-285.303675
 21
402.163837
 31
0.0
  0
LINE
  5
4E7
330
4DE
100
AcDbEntity
  8
LC-001-100-D00-0
 62
     7
370
    50
100
AcDbLine
 10
-285.303675
 20
402.163837
 30
0.0
 11
-285.303675
 21
402.163837
 31
0.0
  0
LINE
  5
4E8
330
4DE
100
AcDbEntity
  8
LC-001-100-D00-0
 62
     7
370
    50
100
AcDbLine
 10
-285.303675
 20
402.163837
 30
0.0
 11
-284.865229
 21
401.710817
 31
0.0
  0
LINE
  5
4E9
330
4DE
100
AcDbEntity
  8
LC-001-100-D00-0
 62
     7
370
    50
100
AcDbLine
 10
-284.865229
 20
401.710817
 30
0.0
 11
-284.865229
 21
401.710817
 31
0.0
  0
LINE
  5
4EA
330
4DE
100
AcDbEntity
  8
LC-001-100-D00-0
 62
     7
370
    50
100
AcDbLine
 10
-284.865229
 20
401.710817
 30
0.0
 11
-284.423294
 21
401.493308
 31
0.0
  0
LINE
  5
4EB
330
4DE
100
AcDbEntity
  8
LC-001-100-D00-0
 62
     7
370
    50
100
AcDbLine
 10
-284.423294
 20
401.493308
 30
0.0
 11
-284.423294
 21
401.493308
 31
0.0
  0
LINE
  5
4EC
330
4DE
100
AcDbEntity
  8
LC-001-100-D00-0
 62
     7
370
    50
100
AcDbLine
 10
-284.423294
 20
401.493308
 30
0.0
 11
-284.150391
 21
401.451802
 31
0.0
  0
LINE
  5
4ED
330
4DE
100
AcDbEntity
  8
LC-001-100-D00-0
 62
     7
370
    50
100
AcDbLine
 10
-284.150391
 20
401.451802
 30
0.0
 11
-284.150391
 21
401.451802
 31
0.0
  0
LINE
  5
4EE
330
4DE
100
AcDbEntity
  8
LC-001-100-D00-0
 62
     7
370
    50
100
AcDbLine
 10
-284.150391
 20
401.451802
 30
0.0
 11
-284.070627
 21
401.439671
 31
0.0
  0
ENDBLK
  5
4E0
330
4DE
100
AcDbEntity
  8
0
100
AcDbBlockEnd
  0
BLOCK
  5
4FA
330
4F9
100
AcDbEntity
  8
0
100
AcDbBlockBegin
  2
POLY11
 70
     0
 71
     0
 10
0.0
 20
0.0
 30
0.0
  3
POLY11
  1

  4
POLY11
  0
LINE
  5
4FC
330
4F9
100
AcDbEntity
  8
LC-001-100-D00-0
 62
     7
370
    50
100
AcDbLine
 10
-285.030664
 20
416.431654
 30
0.0
 11
-285.030664
 21
416.431654
 31
0.0
  0
LINE
  5
4FD
330
4F9
100
AcDbEntity
  8
LC-001-100-D00-0
 62
     7
370
    50
100
AcDbLine
 10
-285.030664
 20
416.431654
 30
0.0
 11
-285.043771
 21
416.431706
 31
0.0
  0
LINE
  5
4FE
330
4F9
100
AcDbEntity
  8
LC-001-100-D00-0
 62
     7
370
    50
100
AcDbLine
 10
-285.043771
 20
416.431706
 30
0.0
 11
-285.043771
 21
416.431706
 31
0.0
  0
LINE
  5
4FF
330
4F9
100
AcDbEntity
  8
LC-001-100-D00-0
 62
     7
370
    50
100
AcDbLine
 10
-285.043771
 20
416.431706
 30
0.0
 11
-285.069526
 21
416.43181
 31
0.0
  0
LINE
  5
500
330
4F9
100
AcDbEntity
  8
LC-001-100-D00-0
 62
     7
370
    50
100
AcDbLine
 10
-285.069526
 20
416.43181
 30
0.0
 11
-285.069526
 21
416.43181
 31
0.0
  0
LINE
  5
501
330
4F9
100
AcDbEntity
  8
LC-001-100-D00-0
 62
     7
370
    50
100
AcDbLine
 10
-285.069526
 20
416.43181
 30
0.0
 11
-285.09085
 21
416.432346
 31
0.0
  0
LINE
  5
502
330
4F9
100
AcDbEntity
  8
LC-001-100-D00-0
 62
     7
370
    50
100
AcDbLine
 10
-285.09085
 20
416.432346
 30
0.0
 11
-285.09085
 21
416.432346
 31
0.0
  0
LINE
  5
503
330
4F9
100
AcDbEntity
  8
LC-001-100-D00-0
 62
     7
370
    50
100
AcDbLine
 10
-285.09085
 20
416.432346
 30
0.0
 11
-285.101322
 21
416.432609
 31
0.0
  0
ENDBLK
  5
4FB
330
4F9
100
AcDbEntity
  8
0
100
AcDbBlockEnd
  0
BLOCK
  5
56B
330
56A
100
AcDbEntity
  8
0
100
AcDbBlockBegin
  2
POLY12
 70
     0
 71
     0
 10
0.0
 20
0.0
 30
0.0
  3
POLY12
  1

  4
POLY12
  0
LINE
  5
56D
330
56A
100
AcDbEntity
  8
LC-001-100-D00-0
 62
     7
370
    50
100
AcDbLine
 10
-286.476055
 20
410.351447
 30
0.0
 11
-286.476055
 21
410.351447
 31
0.0
  0
LINE
  5
56E
330
56A
100
AcDbEntity
  8
LC-001-100-D00-0
 62
     7
370
    50
100
AcDbLine
 10
-286.476055
 20
410.351447
 30
0.0
 11
-286.205694
 21
410.232117
 31
0.0
  0
LINE
  5
56F
330
56A
100
AcDbEntity
  8
LC-001-100-D00-0
 62
     7
370
    50
100
AcDbLine
 10
-286.205694
 20
410.232117
 30
0.0
 11
-286.205694
 21
410.232117
 31
0.0
  0
LINE
  5
570
330
56A
100
AcDbEntity
  8
LC-001-100-D00-0
 62
     7
370
    50
100
AcDbLine
 10
-286.205694
 20
410.232117
 30
0.0
 11
-285.663652
 21
409.992872
 31
0.0
  0
LINE
  5
571
330
56A
100
AcDbEntity
  8
LC-001-100-D00-0
 62
     7
370
    50
100
AcDbLine
 10
-285.663652
 20
409.992872
 30
0.0
 11
-285.663652
 21
409.992872
 31
0.0
  0
LINE
  5
572
330
56A
100
AcDbEntity
  8
LC-001-100-D00-0
 62
     7
370
    50
100
AcDbLine
 10
-285.663652
 20
409.992872
 30
0.0
 11
-285.043947
 21
409.93203
 31
0.0
  0
LINE
  5
573
330
56A
100
AcDbEntity
  8
LC-001-100-D00-0
 62
     7
370
    50
100
AcDbLine
 10
-285.043947
 20
409.93203
 30
0.0
 11
-285.043947
 21
409.93203
 31
0.0
  0
LINE
  5
574
330
56A
100
AcDbEntity
  8
LC-001-100-D00-0
 62
     7
370
    50
100
AcDbLine
 10
-285.043947
 20
409.93203
 30
0.0
 11
-284.735651
 21
409.931617
 31
0.0
  0
LINE
  5
575
330
56A
100
AcDbEntity
  8
LC-001-100-D00-0
 62
     7
370
    50
100
AcDbLine
 10
-284.735651
 20
409.931617
 30
0.0
 11
-284.735651
 21
409.931617
 31
0.0
  0
LINE
  5
576
330
56A
100
AcDbEntity
  8
LC-001-100-D00-0
 62
     7
370
    50
100
AcDbLine
 10
-284.735651
 20
409.931617
 30
0.0
 11
-284.730665
 21
409.931611
 31
0.0
  0
ENDBLK
  5
56C
330
56A
100
AcDbEntity
  8
0
100
AcDbBlockEnd
  0
BLOCK
  5
58C
330
58B
100
AcDbEntity
  8
0
100
AcDbBlockBegin
  2
KLON28
 70
     0
 71
     0
 10
0.0
 20
0.0
 30
0.0
  3
KLON28
  1

  4
KLON28
  0
LINE
  5
58E
330
58B
100
AcDbEntity
  8
LC-001-100-D00-0
 62
     7
370
    15
100
AcDbLine
 10
-364.530665
 20
368.98077
 30
0.0
 11
-367.484634
 21
369.773894
 31
0.0
  0
LINE
  5
58F
330
58B
100
AcDbEntity
  8
LC-001-100-D00-0
 62
     7
370
    15
100
AcDbLine
 10
-367.484634
 20
369.773894
 30
0.0
 11
-367.530664
 21
369.786255
 31
0.0
  0
ENDBLK
  5
58D
330
58B
100
AcDbEntity
  8
0
100
AcDbBlockEnd
  0
BLOCK
  5
597
330
596
100
AcDbEntity
  8
0
100
AcDbBlockBegin
  2
POLY13
 70
     0
 71
     0
 10
0.0
 20
0.0
 30
0.0
  3
POLY13
  1

  4
POLY13
  0
LINE
  5
599
330
596
100
AcDbEntity
  8
LC-001-100-D00-0
 62
     7
370
    50
100
AcDbLine
 10
-292.646681
 20
372.099651
 30
0.0
 11
-292.646681
 21
372.099651
 31
0.0
  0
LINE
  5
59A
330
596
100
AcDbEntity
  8
LC-001-100-D00-0
 62
     7
370
    50
100
AcDbLine
 10
-292.646681
 20
372.099651
 30
0.0
 11
-292.967743
 21
372.134958
 31
0.0
  0
LINE
  5
59B
330
596
100
AcDbEntity
  8
LC-001-100-D00-0
 62
     7
370
    50
100
AcDbLine
 10
-292.967743
 20
372.134958
 30
0.0
 11
-292.967743
 21
372.134958
 31
0.0
  0
LINE
  5
59C
330
596
100
AcDbEntity
  8
LC-001-100-D00-0
 62
     7
370
    50
100
AcDbLine
 10
-292.967743
 20
372.134958
 30
0.0
 11
-293.995773
 21
372.248012
 31
0.0
  0
LINE
  5
59D
330
596
100
AcDbEntity
  8
LC-001-100-D00-0
 62
     7
370
    50
100
AcDbLine
 10
-293.995773
 20
372.248012
 30
0.0
 11
-293.995773
 21
372.248012
 31
0.0
  0
LINE
  5
59E
330
596
100
AcDbEntity
  8
LC-001-100-D00-0
 62
     7
370
    50
100
AcDbLine
 10
-293.995773
 20
372.248012
 30
0.0
 11
-295.457306
 21
373.04051
 31
0.0
  0
LINE
  5
59F
330
596
100
AcDbEntity
  8
LC-001-100-D00-0
 62
     7
370
    50
100
AcDbLine
 10
-295.457306
 20
373.04051
 30
0.0
 11
-295.457306
 21
373.04051
 31
0.0
  0
LINE
  5
5A0
330
596
100
AcDbEntity
  8
LC-001-100-D00-0
 62
     7
370
    50
100
AcDbLine
 10
-295.457306
 20
373.04051
 30
0.0
 11
-296.925836
 21
374.339682
 31
0.0
  0
LINE
  5
5A1
330
596
100
AcDbEntity
  8
LC-001-100-D00-0
 62
     7
370
    50
100
AcDbLine
 10
-296.925836
 20
374.339682
 30
0.0
 11
-296.925836
 21
374.339682
 31
0.0
  0
LINE
  5
5A2
330
596
100
AcDbEntity
  8
LC-001-100-D00-0
 62
     7
370
    50
100
AcDbLine
 10
-296.925836
 20
374.339682
 30
0.0
 11
-297.854118
 21
375.787222
 31
0.0
  0
LINE
  5
5A3
330
596
100
AcDbEntity
  8
LC-001-100-D00-0
 62
     7
370
    50
100
AcDbLine
 10
-297.854118
 20
375.787222
 30
0.0
 11
-297.854118
 21
375.787222
 31
0.0
  0
LINE
  5
5A4
330
596
100
AcDbEntity
  8
LC-001-100-D00-0
 62
     7
370
    50
100
AcDbLine
 10
-297.854118
 20
375.787222
 30
0.0
 11
-298.420284
 21
377.345088
 31
0.0
  0
LINE
  5
5A5
330
596
100
AcDbEntity
  8
LC-001-100-D00-0
 62
     7
370
    50
100
AcDbLine
 10
-298.420284
 20
377.345088
 30
0.0
 11
-298.420284
 21
377.345088
 31
0.0
  0
LINE
  5
5A6
330
596
100
AcDbEntity
  8
LC-001-100-D00-0
 62
     7
370
    50
100
AcDbLine
 10
-298.420284
 20
377.345088
 30
0.0
 11
-298.493571
 21
378.398449
 31
0.0
  0
LINE
  5
5A7
330
596
100
AcDbEntity
  8
LC-001-100-D00-0
 62
     7
370
    50
100
AcDbLine
 10
-298.493571
 20
378.398449
 30
0.0
 11
-298.493571
 21
378.398449
 31
0.0
  0
LINE
  5
5A8
330
596
100
AcDbEntity
  8
LC-001-100-D00-0
 62
     7
370
    50
100
AcDbLine
 10
-298.493571
 20
378.398449
 30
0.0
 11
-298.530666
 21
378.93161
 31
0.0
  0
ENDBLK
  5
598
330
596
100
AcDbEntity
  8
0
100
AcDbBlockEnd
  0
BLOCK
  5
5AD
330
5AC
100
AcDbEntity
  8
0
100
AcDbBlockBegin
  2
KLON29
 70
     0
 71
     0
 10
0.0
 20
0.0
 30
0.0
  3
KLON29
  1

  4
KLON29
  0
LINE
  5
5AF
330
5AC
100
AcDbEntity
  8
LC-001-100-D00-0
 62
     7
370
    15
100
AcDbLine
 10
-367.530664
 20
418.076966
 30
0.0
 11
-367.484634
 21
418.089326
 31
0.0
  0
LINE
  5
5B0
330
5AC
100
AcDbEntity
  8
LC-001-100-D00-0
 62
     7
370
    15
100
AcDbLine
 10
-367.484634
 20
418.089326
 30
0.0
 11
-364.530665
 21
418.88245
 31
0.0
  0
ENDBLK
  5
5AE
330
5AC
100
AcDbEntity
  8
0
100
AcDbBlockEnd
  0
BLOCK
  5
5BB
330
5BA
100
AcDbEntity
  8
0
100
AcDbBlockBegin
  2
POLY14
 70
     0
 71
     0
 10
0.0
 20
0.0
 30
0.0
  3
POLY14
  1

  4
POLY14
  0
LINE
  5
5BD
330
5BA
100
AcDbEntity
  8
LC-001-100-D00-0
 62
     7
370
    50
100
AcDbLine
 10
-317.23774
 20
418.88245
 30
0.0
 11
-317.23774
 21
418.88245
 31
0.0
  0
LINE
  5
5BE
330
5BA
100
AcDbEntity
  8
LC-001-100-D00-0
 62
     7
370
    50
100
AcDbLine
 10
-317.23774
 20
418.88245
 30
0.0
 11
-316.901166
 21
418.84844
 31
0.0
  0
LINE
  5
5BF
330
5BA
100
AcDbEntity
  8
LC-001-100-D00-0
 62
     7
370
    50
100
AcDbLine
 10
-316.901166
 20
418.84844
 30
0.0
 11
-316.901166
 21
418.84844
 31
0.0
  0
LINE
  5
5C0
330
5BA
100
AcDbEntity
  8
LC-001-100-D00-0
 62
     7
370
    50
100
AcDbLine
 10
-316.901166
 20
418.84844
 30
0.0
 11
-316.228046
 21
418.780425
 31
0.0
  0
LINE
  5
5C1
330
5BA
100
AcDbEntity
  8
LC-001-100-D00-0
 62
     7
370
    50
100
AcDbLine
 10
-316.228046
 20
418.780425
 30
0.0
 11
-316.228046
 21
418.780425
 31
0.0
  0
LINE
  5
5C2
330
5BA
100
AcDbEntity
  8
LC-001-100-D00-0
 62
     7
370
    50
100
AcDbLine
 10
-316.228046
 20
418.780425
 30
0.0
 11
-315.278642
 21
418.255105
 31
0.0
  0
LINE
  5
5C3
330
5BA
100
AcDbEntity
  8
LC-001-100-D00-0
 62
     7
370
    50
100
AcDbLine
 10
-315.278642
 20
418.255105
 30
0.0
 11
-315.278642
 21
418.255105
 31
0.0
  0
LINE
  5
5C4
330
5BA
100
AcDbEntity
  8
LC-001-100-D00-0
 62
     7
370
    50
100
AcDbLine
 10
-315.278642
 20
418.255105
 30
0.0
 11
-314.855127
 21
417.678827
 31
0.0
  0
LINE
  5
5C5
330
5BA
100
AcDbEntity
  8
LC-001-100-D00-0
 62
     7
370
    50
100
AcDbLine
 10
-314.855127
 20
417.678827
 30
0.0
 11
-314.855127
 21
417.678827
 31
0.0
  0
LINE
  5
5C6
330
5BA
100
AcDbEntity
  8
LC-001-100-D00-0
 62
     7
370
    50
100
AcDbLine
 10
-314.855127
 20
417.678827
 30
0.0
 11
-314.632376
 21
417.37573
 31
0.0
  0
ENDBLK
  5
5BC
330
5BA
100
AcDbEntity
  8
0
100
AcDbBlockEnd
  0
BLOCK
  5
5D9
330
5D8
100
AcDbEntity
  8
0
100
AcDbBlockBegin
  2
POLY15
 70
     0
 71
     0
 10
0.0
 20
0.0
 30
0.0
  3
POLY15
  1

  4
POLY15
  0
LINE
  5
5DB
330
5D8
100
AcDbEntity
  8
LC-001-100-D00-0
 62
     7
370
    50
100
AcDbLine
 10
-317.188741
 20
315.431609
 30
0.0
 11
-317.188741
 21
315.431609
 31
0.0
  0
LINE
  5
5DC
330
5D8
100
AcDbEntity
  8
LC-001-100-D00-0
 62
     7
370
    50
100
AcDbLine
 10
-317.188741
 20
315.431609
 30
0.0
 11
-317.149077
 21
315.431609
 31
0.0
  0
LINE
  5
5DD
330
5D8
100
AcDbEntity
  8
LC-001-100-D00-0
 62
     7
370
    50
100
AcDbLine
 10
-317.149077
 20
315.431609
 30
0.0
 11
-317.149077
 21
315.431609
 31
0.0
  0
LINE
  5
5DE
330
5D8
100
AcDbEntity
  8
LC-001-100-D00-0
 62
     7
370
    50
100
AcDbLine
 10
-317.149077
 20
315.431609
 30
0.0
 11
-317.062468
 21
315.431609
 31
0.0
  0
LINE
  5
5DF
330
5D8
100
AcDbEntity
  8
LC-001-100-D00-0
 62
     7
370
    50
100
AcDbLine
 10
-317.062468
 20
315.431609
 30
0.0
 11
-317.062468
 21
315.431609
 31
0.0
  0
LINE
  5
5E0
330
5D8
100
AcDbEntity
  8
LC-001-100-D00-0
 62
     7
370
    50
100
AcDbLine
 10
-317.062468
 20
315.431609
 30
0.0
 11
-317.616943
 21
315.431609
 31
0.0
  0
LINE
  5
5E1
330
5D8
100
AcDbEntity
  8
LC-001-100-D00-0
 62
     7
370
    50
100
AcDbLine
 10
-317.616943
 20
315.431609
 30
0.0
 11
-317.616943
 21
315.431609
 31
0.0
  0
LINE
  5
5E2
330
5D8
100
AcDbEntity
  8
LC-001-100-D00-0
 62
     7
370
    50
100
AcDbLine
 10
-317.616943
 20
315.431609
 30
0.0
 11
-318.443519
 21
315.431609
 31
0.0
  0
LINE
  5
5E3
330
5D8
100
AcDbEntity
  8
LC-001-100-D00-0
 62
     7
370
    50
100
AcDbLine
 10
-318.443519
 20
315.431609
 30
0.0
 11
-318.443519
 21
315.431609
 31
0.0
  0
LINE
  5
5E4
330
5D8
100
AcDbEntity
  8
LC-001-100-D00-0
 62
     7
370
    50
100
AcDbLine
 10
-318.443519
 20
315.431609
 30
0.0
 11
-319.621136
 21
315.431609
 31
0.0
  0
LINE
  5
5E5
330
5D8
100
AcDbEntity
  8
LC-001-100-D00-0
 62
     7
370
    50
100
AcDbLine
 10
-319.621136
 20
315.431609
 30
0.0
 11
-319.621136
 21
315.431609
 31
0.0
  0
LINE
  5
5E6
330
5D8
100
AcDbEntity
  8
LC-001-100-D00-0
 62
     7
370
    50
100
AcDbLine
 10
-319.621136
 20
315.431609
 30
0.0
 11
-321.44925
 21
315.431609
 31
0.0
  0
LINE
  5
5E7
330
5D8
100
AcDbEntity
  8
LC-001-100-D00-0
 62
     7
370
    50
100
AcDbLine
 10
-321.44925
 20
315.431609
 30
0.0
 11
-321.44925
 21
315.431609
 31
0.0
  0
LINE
  5
5E8
330
5D8
100
AcDbEntity
  8
LC-001-100-D00-0
 62
     7
370
    50
100
AcDbLine
 10
-321.44925
 20
315.431609
 30
0.0
 11
-324.150877
 21
315.431609
 31
0.0
  0
LINE
  5
5E9
330
5D8
100
AcDbEntity
  8
LC-001-100-D00-0
 62
     7
370
    50
100
AcDbLine
 10
-324.150877
 20
315.431609
 30
0.0
 11
-324.150877
 21
315.431609
 31
0.0
  0
LINE
  5
5EA
330
5D8
100
AcDbEntity
  8
LC-001-100-D00-0
 62
     7
370
    50
100
AcDbLine
 10
-324.150877
 20
315.431609
 30
0.0
 11
-327.076141
 21
315.431609
 31
0.0
  0
LINE
  5
5EB
330
5D8
100
AcDbEntity
  8
LC-001-100-D00-0
 62
     7
370
    50
100
AcDbLine
 10
-327.076141
 20
315.431609
 30
0.0
 11
-327.076141
 21
315.431609
 31
0.0
  0
LINE
  5
5EC
330
5D8
100
AcDbEntity
  8
LC-001-100-D00-0
 62
     7
370
    50
100
AcDbLine
 10
-327.076141
 20
315.431609
 30
0.0
 11
-329.350245
 21
315.431609
 31
0.0
  0
LINE
  5
5ED
330
5D8
100
AcDbEntity
  8
LC-001-100-D00-0
 62
     7
370
    50
100
AcDbLine
 10
-329.350245
 20
315.431609
 30
0.0
 11
-329.350245
 21
315.431609
 31
0.0
  0
LINE
  5
5EE
330
5D8
100
AcDbEntity
  8
LC-001-100-D00-0
 62
     7
370
    50
100
AcDbLine
 10
-329.350245
 20
315.431609
 30
0.0
 11
-330.99692
 21
315.431609
 31
0.0
  0
LINE
  5
5EF
330
5D8
100
AcDbEntity
  8
LC-001-100-D00-0
 62
     7
370
    50
100
AcDbLine
 10
-330.99692
 20
315.431609
 30
0.0
 11
-330.99692
 21
315.431609
 31
0.0
  0
LINE
  5
5F0
330
5D8
100
AcDbEntity
  8
LC-001-100-D00-0
 62
     7
370
    50
100
AcDbLine
 10
-330.99692
 20
315.431609
 30
0.0
 11
-332.440134
 21
315.431609
 31
0.0
  0
LINE
  5
5F1
330
5D8
100
AcDbEntity
  8
LC-001-100-D00-0
 62
     7
370
    50
100
AcDbLine
 10
-332.440134
 20
315.431609
 30
0.0
 11
-332.440134
 21
315.431609
 31
0.0
  0
LINE
  5
5F2
330
5D8
100
AcDbEntity
  8
LC-001-100-D00-0
 62
     7
370
    50
100
AcDbLine
 10
-332.440134
 20
315.431609
 30
0.0
 11
-333.908217
 21
315.431609
 31
0.0
  0
LINE
  5
5F3
330
5D8
100
AcDbEntity
  8
LC-001-100-D00-0
 62
     7
370
    50
100
AcDbLine
 10
-333.908217
 20
315.431609
 30
0.0
 11
-333.908217
 21
315.431609
 31
0.0
  0
LINE
  5
5F4
330
5D8
100
AcDbEntity
  8
LC-001-100-D00-0
 62
     7
370
    50
100
AcDbLine
 10
-333.908217
 20
315.431609
 30
0.0
 11
-334.9694
 21
315.431609
 31
0.0
  0
LINE
  5
5F5
330
5D8
100
AcDbEntity
  8
LC-001-100-D00-0
 62
     7
370
    50
100
AcDbLine
 10
-334.9694
 20
315.431609
 30
0.0
 11
-334.9694
 21
315.431609
 31
0.0
  0
LINE
  5
5F6
330
5D8
100
AcDbEntity
  8
LC-001-100-D00-0
 62
     7
370
    50
100
AcDbLine
 10
-334.9694
 20
315.431609
 30
0.0
 11
-334.897841
 21
315.431609
 31
0.0
  0
LINE
  5
5F7
330
5D8
100
AcDbEntity
  8
LC-001-100-D00-0
 62
     7
370
    50
100
AcDbLine
 10
-334.897841
 20
315.431609
 30
0.0
 11
-334.897841
 21
315.431609
 31
0.0
  0
LINE
  5
5F8
330
5D8
100
AcDbEntity
  8
LC-001-100-D00-0
 62
     7
370
    50
100
AcDbLine
 10
-334.897841
 20
315.431609
 30
0.0
 11
-334.872594
 21
315.431609
 31
0.0
  0
ENDBLK
  5
5DA
330
5D8
100
AcDbEntity
  8
0
100
AcDbBlockEnd
  0
BLOCK
  5
603
330
602
100
AcDbEntity
  8
0
100
AcDbBlockBegin
  2
KLON30
 70
     0
 71
     0
 10
0.0
 20
0.0
 30
0.0
  3
KLON30
  1

  4
KLON30
  0
LINE
  5
605
330
602
100
AcDbEntity
  8
LC-001-100-D00-0
 62
     7
370
    25
100
AcDbLine
 10
-311.572816
 20
406.076414
 30
0.0
 11
-309.376664
 21
408.272567
 31
0.0
  0
LINE
  5
606
330
602
100
AcDbEntity
  8
LC-001-100-D00-0
 62
     7
370
    25
100
AcDbLine
 10
-324.22414
 20
415.87573
 30
0.0
 11
-321.217421
 21
418.88245
 31
0.0
  0
LINE
  5
607
330
602
100
AcDbEntity
  8
LC-001-100-D00-0
 62
     7
370
    25
100
AcDbLine
 10
-346.674781
 20
415.87573
 30
0.0
 11
-343.668061
 21
418.88245
 31
0.0
  0
LINE
  5
608
330
602
100
AcDbEntity
  8
LC-001-100-D00-0
 62
     7
370
    25
100
AcDbLine
 10
-367.530665
 20
417.470486
 30
0.0
 11
-366.701581
 21
418.299571
 31
0.0
  0
ENDBLK
  5
604
330
602
100
AcDbEntity
  8
0
100
AcDbBlockEnd
  0
BLOCK
  5
60B
330
60A
100
AcDbEntity
  8
0
100
AcDbBlockBegin
  2
KLON31
 70
     0
 71
     0
 10
0.0
 20
0.0
 30
0.0
  3
KLON31
  1

  4
KLON31
  0
LINE
  5
60D
330
60A
100
AcDbEntity
  8
LC-001-100-D00-0
 62
     7
370
    25
100
AcDbLine
 10
-236.464419
 20
368.93161
 30
0.0
 11
-233.464419
 21
371.93161
 31
0.0
  0
LINE
  5
60E
330
60A
100
AcDbEntity
  8
LC-001-100-D00-0
 62
     7
370
    25
100
AcDbLine
 10
-224.530665
 20
380.865364
 30
0.0
 11
-221.530665
 21
383.865364
 31
0.0
  0
LINE
  5
60F
330
60A
100
AcDbEntity
  8
LC-001-100-D00-0
 62
     7
370
    25
100
AcDbLine
 10
-258.915059
 20
368.93161
 30
0.0
 11
-255.915059
 21
371.93161
 31
0.0
  0
LINE
  5
610
330
60A
100
AcDbEntity
  8
LC-001-100-D00-0
 62
     7
370
    25
100
AcDbLine
 10
-224.530665
 20
403.316004
 30
0.0
 11
-221.530665
 21
406.316004
 31
0.0
  0
LINE
  5
611
330
60A
100
AcDbEntity
  8
LC-001-100-D00-0
 62
     7
370
    25
100
AcDbLine
 10
-281.365699
 20
368.93161
 30
0.0
 11
-278.365699
 21
371.93161
 31
0.0
  0
LINE
  5
612
330
60A
100
AcDbEntity
  8
LC-001-100-D00-0
 62
     7
370
    25
100
AcDbLine
 10
-269.542767
 20
380.754542
 30
0.0
 11
-266.816156
 21
383.481153
 31
0.0
  0
LINE
  5
613
330
60A
100
AcDbEntity
  8
LC-001-100-D00-0
 62
     7
370
    25
100
AcDbLine
 10
-303.767179
 20
368.98077
 30
0.0
 11
-300.76046
 21
371.98749
 31
0.0
  0
LINE
  5
614
330
60A
100
AcDbEntity
  8
LC-001-100-D00-0
 62
     7
370
    25
100
AcDbLine
 10
-326.21782
 20
368.98077
 30
0.0
 11
-323.2111
 21
371.98749
 31
0.0
  0
LINE
  5
615
330
60A
100
AcDbEntity
  8
LC-001-100-D00-0
 62
     7
370
    25
100
AcDbLine
 10
-348.66846
 20
368.98077
 30
0.0
 11
-345.66174
 21
371.98749
 31
0.0
  0
ENDBLK
  5
60C
330
60A
100
AcDbEntity
  8
0
100
AcDbBlockEnd
  0
BLOCK
  5
618
330
617
100
AcDbEntity
  8
0
100
AcDbBlockBegin
  2
KLON32
 70
     0
 71
     0
 10
0.0
 20
0.0
 30
0.0
  3
KLON32
  1

  4
KLON32
  0
LINE
  5
61A
330
617
100
AcDbEntity
  8
LC-001-100-D00-0
 62
     7
370
    25
100
AcDbLine
 10
-222.415059
 20
405.43161
 30
0.0
 11
-221.530665
 21
406.316004
 31
0.0
  0
LINE
  5
61B
330
617
100
AcDbEntity
  8
LC-001-100-D00-0
 62
     7
370
    25
100
AcDbLine
 10
-224.530665
 20
425.766644
 30
0.0
 11
-221.530665
 21
428.766644
 31
0.0
  0
ENDBLK
  5
619
330
617
100
AcDbEntity
  8
0
100
AcDbBlockEnd
  0
BLOCK
  5
61E
330
61D
100
AcDbEntity
  8
0
100
AcDbBlockBegin
  2
KLON33
 70
     0
 71
     0
 10
0.0
 20
0.0
 30
0.0
  3
KLON33
  1

  4
KLON33
  0
LINE
  5
620
330
61D
100
AcDbEntity
  8
LC-001-100-D00-0
 62
     7
370
    25
100
AcDbLine
 10
-292.26698
 20
402.93161
 30
0.0
 11
-289.530665
 21
405.667925
 31
0.0
  0
LINE
  5
621
330
61D
100
AcDbEntity
  8
LC-001-100-D00-0
 62
     7
370
    25
100
AcDbLine
 10
-301.530665
 20
416.118565
 30
0.0
 11
-298.530665
 21
419.118565
 31
0.0
  0
ENDBLK
  5
61F
330
61D
100
AcDbEntity
  8
0
100
AcDbBlockEnd
  0
BLOCK
  5
625
330
624
100
AcDbEntity
  8
0
100
AcDbBlockBegin
  2
KLON34
 70
     0
 71
     0
 10
0.0
 20
0.0
 30
0.0
  3
KLON34
  1

  4
KLON34
  0
LINE
  5
627
330
624
100
AcDbEntity
  8
LC-001-100-D00-0
 62
     7
370
    25
100
AcDbLine
 10
-256.280665
 20
394.016644
 30
0.0
 11
-254.780665
 21
395.516644
 31
0.0
  0
LINE
  5
628
330
624
100
AcDbEntity
  8
LC-001-100-D00-0
 62
     7
370
    25
100
AcDbLine
 10
-256.816482
 20
415.931468
 30
0.0
 11
-255.728956
 21
417.018994
 31
0.0
  0
LINE
  5
629
330
624
100
AcDbEntity
  8
LC-001-100-D00-0
 62
     7
370
    25
100
AcDbLine
 10
-281.530665
 20
413.667925
 30
0.0
 11
-279.718987
 21
415.479603
 31
0.0
  0
LINE
  5
62A
330
624
100
AcDbEntity
  8
LC-001-100-D00-0
 62
     7
370
    25
100
AcDbLine
 10
-277.578658
 20
417.619932
 30
0.0
 11
-275.76698
 21
419.43161
 31
0.0
  0
ENDBLK
  5
626
330
624
100
AcDbEntity
  8
0
100
AcDbBlockEnd
  0
BLOCK
  5
62D
330
62C
100
AcDbEntity
  8
0
100
AcDbBlockBegin
  2
KLON35
 70
     0
 71
     0
 10
0.0
 20
0.0
 30
0.0
  3
KLON35
  1

  4
KLON35
  0
LINE
  5
62F
330
62C
100
AcDbEntity
  8
LC-001-100-D00-0
 62
     7
370
    25
100
AcDbLine
 10
-243.030665
 20
384.816004
 30
0.0
 11
-241.530665
 21
386.316004
 31
0.0
  0
LINE
  5
630
330
62C
100
AcDbEntity
  8
LC-001-100-D00-0
 62
     7
370
    25
100
AcDbLine
 10
-243.030665
 20
407.266644
 30
0.0
 11
-240.865699
 21
409.43161
 31
0.0
  0
ENDBLK
  5
62E
330
62C
100
AcDbEntity
  8
0
100
AcDbBlockEnd
  0
BLOCK
  5
633
330
632
100
AcDbEntity
  8
0
100
AcDbBlockBegin
  2
KLON36
 70
     0
 71
     0
 10
0.0
 20
0.0
 30
0.0
  3
KLON36
  1

  4
KLON36
  0
LINE
  5
635
330
632
100
AcDbEntity
  8
LC-001-100-D00-0
 62
     7
370
    25
100
AcDbLine
 10
-235.530665
 20
414.766644
 30
0.0
 11
-234.030665
 21
416.266644
 31
0.0
  0
LINE
  5
636
330
632
100
AcDbEntity
  8
LC-001-100-D00-0
 62
     7
370
    25
100
AcDbLine
 10
-217.030665
 20
455.717285
 30
0.0
 11
-215.530665
 21
457.217285
 31
0.0
  0
LINE
  5
637
330
632
100
AcDbEntity
  8
LC-001-100-D00-0
 62
     7
370
    25
100
AcDbLine
 10
-217.030665
 20
478.167925
 30
0.0
 11
-215.530665
 21
479.667925
 31
0.0
  0
ENDBLK
  5
634
330
632
100
AcDbEntity
  8
0
100
AcDbBlockEnd
  0
BLOCK
  5
63A
330
639
100
AcDbEntity
  8
0
100
AcDbBlockBegin
  2
KLON37
 70
     0
 71
     0
 10
0.0
 20
0.0
 30
0.0
  3
KLON37
  1

  4
KLON37
  0
LINE
  5
63C
330
639
100
AcDbEntity
  8
LC-001-100-D00-0
 62
     7
370
    25
100
AcDbLine
 10
-287.830665
 20
407.367925
 30
0.0
 11
-286.330665
 21
408.867925
 31
0.0
  0
LINE
  5
63D
330
639
100
AcDbEntity
  8
LC-001-100-D00-0
 62
     7
370
    25
100
AcDbLine
 10
-289.030665
 20
428.618565
 30
0.0
 11
-287.530665
 21
430.118565
 31
0.0
  0
LINE
  5
63E
330
639
100
AcDbEntity
  8
LC-001-100-D00-0
 62
     7
370
    25
100
AcDbLine
 10
-304.668261
 20
435.43161
 30
0.0
 11
-303.168261
 21
436.93161
 31
0.0
  0
LINE
  5
63F
330
639
100
AcDbEntity
  8
LC-001-100-D00-0
 62
     7
370
    25
100
AcDbLine
 10
-327.118901
 20
435.43161
 30
0.0
 11
-325.618901
 21
436.93161
 31
0.0
  0
ENDBLK
  5
63B
330
639
100
AcDbEntity
  8
0
100
AcDbBlockEnd
  0
BLOCK
  5
64D
330
642
100
AcDbEntity
  8
0
100
AcDbBlockBegin
  2
*D60
 70
     1
 71
     0
 10
0.0
 20
0.0
 30
0.0
  3
*D60
  1

  0
LINE
  5
643
330
642
100
AcDbEntity
  8
LC-001-100-D00-0
 62
     2
370
    -2
100
AcDbLine
 10
-241.530665
 20
378.93161
 30
0.0
 11
-160.563703
 21
378.93161
 31
0.0
  0
LINE
  5
644
330
642
100
AcDbEntity
  8
LC-001-100-D00-0
 62
     2
370
    -2
100
AcDbLine
 10
-257.037808
 20
402.93161
 30
0.0
 11
-160.563703
 21
402.93161
 31
0.0
  0
LINE
  5
645
330
642
100
AcDbEntity
  8
LC-001-100-D00-0
 62
     2
370
    -2
100
AcDbLine
 10
-169.563703
 20
452.93161
 30
0.0
 11
-169.563703
 21
502.93161
 31
0.0
  0
LINE
  5
646
330
642
100
AcDbEntity
  8
LC-001-100-D00-0
 62
     2
370
    -2
100
AcDbLine
 10
-169.563703
 20
328.93161
 30
0.0
 11
-169.563703
 21
268.90805
 31
0.0
  0
SOLID
  5
647
330
642
100
AcDbEntity
  8
LC-001-100-D00-0
 62
     2
100
AcDbTrace
 10
-161.23037
 20
328.93161
 30
0.0
 11
-177.897036
 21
328.93161
 31
0.0
 12
-169.563703
 22
378.93161
 32
0.0
 13
-169.563703
 23
378.93161
 33
0.0
  0
SOLID
  5
648
330
642
100
AcDbEntity
  8
LC-001-100-D00-0
 62
     2
100
AcDbTrace
 10
-177.897036
 20
452.93161
 30
0.0
 11
-161.23037
 21
452.93161
 31
0.0
 12
-169.563703
 22
402.93161
 32
0.0
 13
-169.563703
 23
402.93161
 33
0.0
  0
MTEXT
  5
649
330
642
100
AcDbEntity
  8
LC-001-100-D00-0
 62
     2
100
AcDbMText
 10
-224.563703
 20
311.974293
 30
0.0
 40
50.0
 41
0.0
 71
     5
 72
     1
  1
\A1;24
  7
LCTX15-400-0-0pDIN-Schrift
 11
6.123031769111886E-17
 21
1.0
 31
0.0
 73
     1
 44
1.0
  0
POINT
  5
64A
330
642
100
AcDbEntity
  8
Defpoints
 62
     0
100
AcDbPoint
 10
-241.530665
 20
378.93161
 30
0.0
  0
POINT
  5
64B
330
642
100
AcDbEntity
  8
Defpoints
 62
     0
100
AcDbPoint
 10
-257.037808
 20
402.93161
 30
0.0
  0
POINT
  5
64C
330
642
100
AcDbEntity
  8
Defpoints
 62
     0
100
AcDbPoint
 10
-169.563703
 20
402.93161
 30
0.0
  0
ENDBLK
  5
64E
330
642
100
AcDbEntity
  8
0
100
AcDbBlockEnd
  0
BLOCK
  5
65B
330
650
100
AcDbEntity
  8
0
100
AcDbBlockBegin
  2
*D61
 70
     1
 71
     0
 10
0.0
 20
0.0
 30
0.0
  3
*D61
  1

  0
LINE
  5
651
330
650
100
AcDbEntity
  8
LC-001-100-D00-0
 62
     2
370
    -2
100
AcDbLine
 10
-364.530665
 20
418.88245
 30
0.0
 11
-407.512699
 21
418.88245
 31
0.0
  0
LINE
  5
652
330
650
100
AcDbEntity
  8
LC-001-100-D00-0
 62
     2
370
    -2
100
AcDbLine
 10
-364.530665
 20
368.98077
 30
0.0
 11
-407.512699
 21
368.98077
 31
0.0
  0
LINE
  5
653
330
650
100
AcDbEntity
  8
LC-001-100-D00-0
 62
     2
370
    -2
100
AcDbLine
 10
-398.512699
 20
318.98077
 30
0.0
 11
-398.512699
 21
268.98077
 31
0.0
  0
LINE
  5
654
330
650
100
AcDbEntity
  8
LC-001-100-D00-0
 62
     2
370
    -2
100
AcDbLine
 10
-398.512699
 20
468.88245
 30
0.0
 11
-398.512699
 21
559.675646
 31
0.0
  0
SOLID
  5
655
330
650
100
AcDbEntity
  8
LC-001-100-D00-0
 62
     2
100
AcDbTrace
 10
-406.846033
 20
468.88245
 30
0.0
 11
-390.179366
 21
468.88245
 31
0.0
 12
-398.512699
 22
418.88245
 32
0.0
 13
-398.512699
 23
418.88245
 33
0.0
  0
SOLID
  5
656
330
650
100
AcDbEntity
  8
LC-001-100-D00-0
 62
     2
100
AcDbTrace
 10
-390.179366
 20
318.98077
 30
0.0
 11
-406.846033
 21
318.98077
 31
0.0
 12
-398.512699
 22
368.98077
 32
0.0
 13
-398.512699
 23
368.98077
 33
0.0
  0
MTEXT
  5
657
330
650
100
AcDbEntity
  8
LC-001-100-D00-0
 62
     2
100
AcDbMText
 10
-453.512699
 20
475.324293
 30
0.0
 40
50.0
 41
0.0
 71
     5
 72
     1
  1
\A1;DN50
  7
LCTX15-400-0-0pDIN-Schrift
 11
6.123031769111886E-17
 21
1.0
 31
0.0
 73
     1
 44
1.0
  0
POINT
  5
658
330
650
100
AcDbEntity
  8
Defpoints
 62
     0
100
AcDbPoint
 10
-364.530665
 20
418.88245
 30
0.0
  0
POINT
  5
659
330
650
100
AcDbEntity
  8
Defpoints
 62
     0
100
AcDbPoint
 10
-364.530665
 20
368.98077
 30
0.0
  0
POINT
  5
65A
330
650
100
AcDbEntity
  8
Defpoints
 62
     0
100
AcDbPoint
 10
-398.512699
 20
368.98077
 30
0.0
  0
ENDBLK
  5
65C
330
650
100
AcDbEntity
  8
0
100
AcDbBlockEnd
  0
BLOCK
  5
66A
330
65F
100
AcDbEntity
  8
0
100
AcDbBlockBegin
  2
*D62
 70
     1
 71
     0
 10
0.0
 20
0.0
 30
0.0
  3
*D62
  1

  0
LINE
  5
660
330
65F
100
AcDbEntity
  8
LC-001-100-D00-0
 62
     2
370
    -2
100
AcDbLine
 10
-339.030665
 20
436.93161
 30
0.0
 11
-527.311593
 21
436.93161
 31
0.0
  0
LINE
  5
661
330
65F
100
AcDbEntity
  8
LC-001-100-D00-0
 62
     2
370
    -2
100
AcDbLine
 10
-335.530665
 20
307.43161
 30
0.0
 11
-527.311593
 21
307.43161
 31
0.0
  0
LINE
  5
662
330
65F
100
AcDbEntity
  8
LC-001-100-D00-0
 62
     2
370
    -2
100
AcDbLine
 10
-518.311593
 20
386.93161
 30
0.0
 11
-518.311593
 21
357.43161
 31
0.0
  0
LINE
  5
663
330
65F
100
AcDbEntity
  8
LC-001-100-D00-0
 62
     2
370
    -2
100
AcDbLine
 10
-518.311593
 20
436.93161
 30
0.0
 11
-518.311593
 21
626.12868
 31
0.0
  0
SOLID
  5
664
330
65F
100
AcDbEntity
  8
LC-001-100-D00-0
 62
     2
100
AcDbTrace
 10
-509.97826
 20
386.93161
 30
0.0
 11
-526.644926
 21
386.93161
 31
0.0
 12
-518.311593
 22
436.93161
 32
0.0
 13
-518.311593
 23
436.93161
 33
0.0
  0
SOLID
  5
665
330
65F
100
AcDbEntity
  8
LC-001-100-D00-0
 62
     2
100
AcDbTrace
 10
-526.644926
 20
357.43161
 30
0.0
 11
-509.97826
 21
357.43161
 31
0.0
 12
-518.311593
 22
307.43161
 32
0.0
 13
-518.311593
 23
307.43161
 33
0.0
  0
MTEXT
  5
666
330
65F
100
AcDbEntity
  8
LC-001-100-D00-0
 62
     2
100
AcDbMText
 10
-573.311593
 20
473.839293
 30
0.0
 40
50.0
 41
0.0
 71
     5
 72
     1
  1
\A1;68-129,5
  7
LCTX15-400-0-0pDIN-Schrift
 11
6.123031769111886E-17
 21
1.0
 31
0.0
 73
     1
 44
1.0
  0
POINT
  5
667
330
65F
100
AcDbEntity
  8
Defpoints
 62
     0
100
AcDbPoint
 10
-339.030665
 20
436.93161
 30
0.0
  0
POINT
  5
668
330
65F
100
AcDbEntity
  8
Defpoints
 62
     0
100
AcDbPoint
 10
-335.530665
 20
307.43161
 30
0.0
  0
POINT
  5
669
330
65F
100
AcDbEntity
  8
Defpoints
 62
     0
100
AcDbPoint
 10
-518.311593
 20
307.43161
 30
0.0
  0
ENDBLK
  5
66B
330
65F
100
AcDbEntity
  8
0
100
AcDbBlockEnd
  0
BLOCK
  5
67C
330
671
100
AcDbEntity
  8
0
100
AcDbBlockBegin
  2
*D63
 70
     1
 71
     0
 10
0.0
 20
0.0
 30
0.0
  3
*D63
  1

  0
LINE
  5
672
330
671
100
AcDbEntity
  8
LC-002-003-----0
 62
     2
370
    -2
100
AcDbLine
 10
-367.530664
 20
371.98749
 30
0.0
 11
-367.530664
 21
160.414293
 31
0.0
  0
LINE
  5
673
330
671
100
AcDbEntity
  8
LC-002-003-----0
 62
     2
370
    -2
100
AcDbLine
 10
-261.530665
 20
371.93161
 30
0.0
 11
-261.530665
 21
160.414293
 31
0.0
  0
LINE
  5
674
330
671
100
AcDbEntity
  8
LC-002-003-----0
 62
     2
370
    -2
100
AcDbLine
 10
-211.530665
 20
169.414293
 30
0.0
 11
-161.530665
 21
169.414293
 31
0.0
  0
LINE
  5
675
330
671
100
AcDbEntity
  8
LC-002-003-----0
 62
     2
370
    -2
100
AcDbLine
 10
-417.530664
 20
169.414293
 30
0.0
 11
-438.638425
 21
169.414293
 31
0.0
  0
SOLID
  5
676
330
671
100
AcDbEntity
  8
LC-002-003-----0
 62
     2
100
AcDbTrace
 10
-417.530664
 20
161.08096
 30
0.0
 11
-417.530664
 21
177.747626
 31
0.0
 12
-367.530664
 22
169.414293
 32
0.0
 13
-367.530664
 23
169.414293
 33
0.0
  0
SOLID
  5
677
330
671
100
AcDbEntity
  8
LC-002-003-----0
 62
     2
100
AcDbTrace
 10
-211.530665
 20
177.747626
 30
0.0
 11
-211.530665
 21
161.08096
 31
0.0
 12
-261.530665
 22
169.414293
 32
0.0
 13
-261.530665
 23
169.414293
 33
0.0
  0
MTEXT
  5
678
330
671
100
AcDbEntity
  8
LC-002-003-----0
 62
     2
100
AcDbMText
 10
-382.539514
 20
224.414293
 30
0.0
 40
50.0
 41
0.0
 71
     5
 72
     1
  1
\A1;106
  7
LCTX15-400-0-0pDIN-Schrift
 73
     1
 44
1.0
  0
POINT
  5
679
330
671
100
AcDbEntity
  8
Defpoints
 62
     0
100
AcDbPoint
 10
-367.530664
 20
371.98749
 30
0.0
  0
POINT
  5
67A
330
671
100
AcDbEntity
  8
Defpoints
 62
     0
100
AcDbPoint
 10
-261.530665
 20
371.93161
 30
0.0
  0
POINT
  5
67B
330
671
100
AcDbEntity
  8
Defpoints
 62
     0
100
AcDbPoint
 10
-261.530665
 20
169.414293
 30
0.0
  0
ENDBLK
  5
67D
330
671
100
AcDbEntity
  8
0
100
AcDbBlockEnd
  0
BLOCK
  5
689
330
67F
100
AcDbEntity
  8
0
100
AcDbBlockBegin
  2
*D64
 70
     1
 71
     0
 10
0.0
 20
0.0
 30
0.0
  3
*D64
  1

  0
LINE
  5
680
330
67F
100
AcDbEntity
  8
LC-002-003-----0
 62
     2
370
    -2
100
AcDbLine
 10
-367.530664
 20
371.98749
 30
0.0
 11
-367.530664
 21
52.009293
 31
0.0
  0
LINE
  5
681
330
67F
100
AcDbEntity
  8
LC-002-003-----0
 62
     2
370
    -2
100
AcDbLine
 10
-221.530666
 20
383.865363
 30
0.0
 11
-221.530666
 21
52.009293
 31
0.0
  0
LINE
  5
682
330
67F
100
AcDbEntity
  8
LC-002-003-----0
 62
     2
370
    -2
100
AcDbLine
 10
-317.530664
 20
61.009293
 30
0.0
 11
-271.530666
 21
61.009293
 31
0.0
  0
SOLID
  5
683
330
67F
100
AcDbEntity
  8
LC-002-003-----0
 62
     2
100
AcDbTrace
 10
-317.530664
 20
69.342626
 30
0.0
 11
-317.530664
 21
52.67596
 31
0.0
 12
-367.530664
 22
61.009293
 32
0.0
 13
-367.530664
 23
61.009293
 33
0.0
  0
SOLID
  5
684
330
67F
100
AcDbEntity
  8
LC-002-003-----0
 62
     2
100
AcDbTrace
 10
-271.530666
 20
52.67596
 30
0.0
 11
-271.530666
 21
69.342626
 31
0.0
 12
-221.530666
 22
61.009293
 32
0.0
 13
-221.530666
 23
61.009293
 33
0.0
  0
MTEXT
  5
685
330
67F
100
AcDbEntity
  8
LC-002-003-----0
 62
     2
100
AcDbMText
 10
-297.349189
 20
116.009293
 30
0.0
 40
50.0
 41
0.0
 71
     5
 72
     1
  1
\A1;146
  7
LCTX15-400-0-0pDIN-Schrift
 73
     1
 44
1.0
  0
POINT
  5
686
330
67F
100
AcDbEntity
  8
Defpoints
 62
     0
100
AcDbPoint
 10
-367.530664
 20
371.98749
 30
0.0
  0
POINT
  5
687
330
67F
100
AcDbEntity
  8
Defpoints
 62
     0
100
AcDbPoint
 10
-221.530666
 20
383.865363
 30
0.0
  0
POINT
  5
688
330
67F
100
AcDbEntity
  8
Defpoints
 62
     0
100
AcDbPoint
 10
-221.530666
 20
61.009293
 30
0.0
  0
ENDBLK
  5
68A
330
67F
100
AcDbEntity
  8
0
100
AcDbBlockEnd
  0
BLOCK
  5
698
330
68C
100
AcDbEntity
  8
0
100
AcDbBlockBegin
  2
*D65
 70
     1
 71
     0
 10
0.0
 20
0.0
 30
0.0
  3
*D65
  1

  0
LINE
  5
68D
330
68C
100
AcDbEntity
  8
LC-002-003-----0
 62
     2
370
    -2
100
AcDbLine
 10
592.593428
 20
436.931609
 30
0.0
 11
699.326133
 21
436.931609
 31
0.0
  0
LINE
  5
68E
330
68C
100
AcDbEntity
  8
LC-002-003-----0
 62
     2
370
    -2
100
AcDbLine
 10
306.093429
 20
368.931608
 30
0.0
 11
699.326133
 21
368.931608
 31
0.0
  0
LINE
  5
68F
330
68C
100
AcDbEntity
  8
LC-002-003-----0
 62
     2
370
    -2
100
AcDbLine
 10
690.326133
 20
486.931609
 30
0.0
 11
690.326133
 21
536.931609
 31
0.0
  0
LINE
  5
690
330
68C
100
AcDbEntity
  8
LC-002-003-----0
 62
     2
370
    -2
100
AcDbLine
 10
690.326133
 20
318.931608
 30
0.0
 11
690.326133
 21
268.931608
 31
0.0
  0
LINE
  5
691
330
68C
100
AcDbEntity
  8
LC-002-003-----0
 62
     2
370
    -2
100
AcDbLine
 10
690.326133
 20
436.931609
 30
0.0
 11
690.326133
 21
368.931608
 31
0.0
  0
SOLID
  5
692
330
68C
100
AcDbEntity
  8
LC-002-003-----0
 62
     2
100
AcDbTrace
 10
681.992799
 20
486.931609
 30
0.0
 11
698.659466
 21
486.931609
 31
0.0
 12
690.326133
 22
436.931609
 32
0.0
 13
690.326133
 23
436.931609
 33
0.0
  0
SOLID
  5
693
330
68C
100
AcDbEntity
  8
LC-002-003-----0
 62
     2
100
AcDbTrace
 10
698.659466
 20
318.931608
 30
0.0
 11
681.992799
 21
318.931608
 31
0.0
 12
690.326133
 22
368.931608
 32
0.0
 13
690.326133
 23
368.931608
 33
0.0
  0
MTEXT
  5
694
330
68C
100
AcDbEntity
  8
LC-002-003-----0
 62
     2
100
AcDbMText
 10
635.326133
 20
433.744293
 30
0.0
 40
50.0
 41
0.0
 71
     5
 72
     1
  1
\A1;68
  7
LCTX15-400-0-0pDIN-Schrift
 11
6.123031769111886E-17
 21
1.0
 31
0.0
 73
     1
 44
1.0
  0
POINT
  5
695
330
68C
100
AcDbEntity
  8
Defpoints
 62
     0
100
AcDbPoint
 10
592.593428
 20
436.931609
 30
0.0
  0
POINT
  5
696
330
68C
100
AcDbEntity
  8
Defpoints
 62
     0
100
AcDbPoint
 10
306.093429
 20
368.931608
 30
0.0
  0
POINT
  5
697
330
68C
100
AcDbEntity
  8
Defpoints
 62
     0
100
AcDbPoint
 10
690.326133
 20
368.931608
 30
0.0
  0
ENDBLK
  5
699
330
68C
100
AcDbEntity
  8
0
100
AcDbBlockEnd
  0
ENDSEC
  0
SECTION
  2
ENTITIES
  0
LINE
  5
31
330
1F
100
AcDbEntity
  8
LC-001-100-D00-0
 62
     7
370
    50
100
AcDbLine
 10
592.593434
 20
104.651216
 30
0.0
 11
592.593434
 21
103.151216
 31
0.0
  0
LINE
  5
32
330
1F
100
AcDbEntity
  8
LC-001-100-D00-0
 62
     7
370
    50
100
AcDbLine
 10
587.593434
 20
104.651216
 30
0.0
 11
592.593434
 21
104.651216
 31
0.0
  0
LINE
  5
33
330
1F
100
AcDbEntity
  8
LC-001-100-D00-0
 62
     7
370
    50
100
AcDbLine
 10
592.593434
 20
103.151216
 30
0.0
 11
587.593434
 21
103.151216
 31
0.0
  0
LINE
  5
34
330
1F
100
AcDbEntity
  8
LC-001-100-D00-0
 62
     7
370
    50
100
AcDbLine
 10
-102.406566
 20
104.651216
 30
0.0
 11
587.593434
 21
104.651216
 31
0.0
  0
LINE
  5
35
330
1F
100
AcDbEntity
  8
LC-001-100-D00-0
 62
     7
370
    50
100
AcDbLine
 10
-102.406566
 20
103.151216
 30
0.0
 11
587.593434
 21
103.151216
 31
0.0
  0
LINE
  5
36
330
1F
100
AcDbEntity
  8
LC-001-100-D00-0
 62
     7
370
    50
100
AcDbLine
 10
-107.406566
 20
103.151216
 30
0.0
 11
-107.406566
 21
104.651216
 31
0.0
  0
LINE
  5
37
330
1F
100
AcDbEntity
  8
LC-001-100-D00-0
 62
     7
370
    50
100
AcDbLine
 10
-107.406566
 20
104.651216
 30
0.0
 11
-102.406566
 21
104.651216
 31
0.0
  0
LINE
  5
38
330
1F
100
AcDbEntity
  8
LC-001-100-D00-0
 62
     7
370
    50
100
AcDbLine
 10
-102.406566
 20
103.151216
 30
0.0
 11
-107.406566
 21
103.151216
 31
0.0
  0
LINE
  5
39
330
1F
100
AcDbEntity
  8
LC-001-100-D00-0
 62
     7
370
    50
100
AcDbLine
 10
-107.406566
 20
101.651216
 30
0.0
 11
-107.406566
 21
103.151216
 31
0.0
  0
LINE
  5
3A
330
1F
100
AcDbEntity
  8
LC-001-100-D00-0
 62
     7
370
    50
100
AcDbLine
 10
592.593434
 20
103.151216
 30
0.0
 11
592.593434
 21
101.651216
 31
0.0
  0
ARC
  5
3B
330
1F
100
AcDbEntity
  8
LC-001-100-D00-0
 62
     7
370
    50
100
AcDbCircle
 10
540.093434
 20
82.151216
 30
0.0
 40
2.5
100
AcDbArc
 50
0.0
 51
90.0
  0
ARC
  5
3C
330
1F
100
AcDbEntity
  8
LC-001-100-D00-0
 62
     7
370
    50
100
AcDbCircle
 10
540.093434
 20
35.151216
 30
0.0
 40
2.5
100
AcDbArc
 50
270.0
 51
0.0
  0
LINE
  5
3D
330
1F
100
AcDbEntity
  8
LC-001-100-D00-0
 62
     7
370
    50
100
AcDbLine
 10
542.593434
 20
35.151216
 30
0.0
 11
542.593434
 21
82.151216
 31
0.0
  0
LINE
  5
3E
330
1F
100
AcDbEntity
  8
LC-001-100-D00-0
 62
     7
370
    50
100
AcDbLine
 10
-54.906566
 20
84.651216
 30
0.0
 11
540.093434
 21
84.651216
 31
0.0
  0
LINE
  5
3F
330
1F
100
AcDbEntity
  8
LC-001-100-D00-0
 62
     7
370
    50
100
AcDbLine
 10
540.093434
 20
32.651216
 30
0.0
 11
-54.906566
 21
32.651216
 31
0.0
  0
ARC
  5
40
330
1F
100
AcDbEntity
  8
LC-001-100-D00-0
 62
     7
370
    50
100
AcDbCircle
 10
-54.906566
 20
35.151216
 30
0.0
 40
2.5
100
AcDbArc
 50
180.0
 51
270.0
  0
ARC
  5
41
330
1F
100
AcDbEntity
  8
LC-001-100-D00-0
 62
     7
370
    50
100
AcDbCircle
 10
-54.906566
 20
82.151216
 30
0.0
 40
2.5
100
AcDbArc
 50
90.0
 51
180.0
  0
LINE
  5
42
330
1F
100
AcDbEntity
  8
LC-001-100-D00-0
 62
     7
370
    50
100
AcDbLine
 10
-57.406566
 20
35.151216
 30
0.0
 11
-57.406566
 21
82.151216
 31
0.0
  0
ARC
  5
43
330
1F
100
AcDbEntity
  8
LC-001-100-D00-0
 62
     7
370
    50
100
AcDbCircle
 10
587.593434
 20
-13.848784
 30
0.0
 40
5.0
100
AcDbArc
 50
270.0
 51
0.0
  0
LINE
  5
44
330
1F
100
AcDbEntity
  8
LC-001-100-D00-0
 62
     7
370
    50
100
AcDbLine
 10
-102.406566
 20
-18.848784
 30
0.0
 11
587.593434
 21
-18.848784
 31
0.0
  0
ARC
  5
45
330
1F
100
AcDbEntity
  8
LC-001-100-D00-0
 62
     7
370
    50
100
AcDbCircle
 10
-102.406566
 20
-13.848784
 30
0.0
 40
5.0
100
AcDbArc
 50
180.0
 51
270.0
  0
LINE
  5
46
330
1F
100
AcDbEntity
  8
LC-001-100-D00-0
 62
     7
370
    50
100
AcDbLine
 10
-107.406566
 20
101.651216
 30
0.0
 11
-107.406566
 21
-13.848784
 31
0.0
  0
LINE
  5
47
330
1F
100
AcDbEntity
  8
LC-001-100-D00-0
 62
     7
370
    50
100
AcDbLine
 10
592.593434
 20
101.651216
 30
0.0
 11
592.593434
 21
-13.848784
 31
0.0
  0
CIRCLE
  5
48
330
1F
100
AcDbEntity
  8
LC-001-100-D00-0
 62
     7
370
    50
100
AcDbCircle
 10
512.593434
 20
58.651216
 30
0.0
 40
3.0
  0
CIRCLE
  5
49
330
1F
100
AcDbEntity
  8
LC-001-100-D00-0
 62
     7
370
    50
100
AcDbCircle
 10
342.593434
 20
58.651216
 30
0.0
 40
3.0
  0
CIRCLE
  5
4A
330
1F
100
AcDbEntity
  8
LC-001-100-D00-0
 62
     7
370
    50
100
AcDbCircle
 10
142.593434
 20
58.651216
 30
0.0
 40
2.999999999999773
  0
CIRCLE
  5
4B
330
1F
100
AcDbEntity
  8
LC-001-100-D00-0
 62
     7
370
    50
100
AcDbCircle
 10
-27.406566
 20
58.651216
 30
0.0
 40
2.999999999999773
  0
INSERT
  5
51
330
1F
100
AcDbEntity
  8
LC-001-100-D00-0
 62
     7
370
    50
100
AcDbBlockReference
  2
KLON1
 10
0.0
 20
0.0
 30
0.0
  0
LINE
  5
52
330
1F
100
AcDbEntity
  8
LC-001-100-D00-0
 62
     7
370
    50
100
AcDbLine
 10
534.567234
 20
46.328548
 30
0.0
 11
534.567234
 21
35.151217
 31
0.0
  0
ARC
  5
53
330
1F
100
AcDbEntity
  8
LC-001-100-D00-0
 62
     7
370
    50
100
AcDbCircle
 10
1297.753428
 20
-72.962954
 30
0.0
 40
772.4529946600674
100
AcDbArc
 50
171.103568
 51
171.116141
  0
INSERT
  5
5B
330
1F
100
AcDbEntity
  8
LC-001-100-D00-0
 62
     7
370
    50
100
AcDbBlockReference
  2
KLON2
 10
0.0
 20
0.0
 30
0.0
  0
LINE
  5
5C
330
1F
100
AcDbEntity
  8
LC-001-100-D00-0
 62
     7
370
    50
100
AcDbLine
 10
534.567234
 20
82.136577
 30
0.0
 11
534.567234
 21
70.973885
 31
0.0
  0
INSERT
  5
62
330
1F
100
AcDbEntity
  8
LC-001-100-D00-0
 62
     7
370
    50
100
AcDbBlockReference
  2
KLON3
 10
0.0
 20
0.0
 30
0.0
  0
INSERT
  5
68
330
1F
100
AcDbEntity
  8
LC-001-100-D00-0
 62
     7
370
    50
100
AcDbBlockReference
  2
KLON4
 10
0.0
 20
0.0
 30
0.0
  0
INSERT
  5
6E
330
1F
100
AcDbEntity
  8
LC-001-100-D00-0
 62
     7
370
    50
100
AcDbBlockReference
  2
KLON5
 10
0.0
 20
0.0
 30
0.0
  0
LINE
  5
6F
330
1F
100
AcDbEntity
  8
LC-001-100-D00-0
 62
     7
370
    50
100
AcDbLine
 10
-49.380365
 20
82.136577
 30
0.0
 11
-49.380365
 21
70.973885
 31
0.0
  0
INSERT
  5
77
330
1F
100
AcDbEntity
  8
LC-001-100-D00-0
 62
     7
370
    50
100
AcDbBlockReference
  2
KLON6
 10
0.0
 20
0.0
 30
0.0
  0
ARC
  5
78
330
1F
100
AcDbEntity
  8
LC-001-100-D00-0
 62
     7
370
    50
100
AcDbCircle
 10
-812.566526
 20
-72.962948
 30
0.0
 40
772.452961486949
100
AcDbArc
 50
8.883859
 51
8.896432
  0
LINE
  5
79
330
1F
100
AcDbEntity
  8
LC-001-100-D00-0
 62
     7
370
    50
100
AcDbLine
 10
-49.380365
 20
46.328548
 30
0.0
 11
-49.380365
 21
35.151217
 31
0.0
  0
ELLIPSE
  5
7A
330
1F
100
AcDbEntity
  8
LC-001-100-D00-0
 62
     7
370
    50
100
AcDbEllipse
 10
534.520466
 20
35.151216
 30
0.0
 11
0.0
 21
-2.499999755859363
 31
0.0
210
0.0
220
0.0
230
0.9999999999999999
 40
0.018242
 41
3.141592653594779
 42
4.712388980377416
  0
ELLIPSE
  5
7B
330
1F
100
AcDbEntity
  8
LC-001-100-D00-0
 62
     7
370
    50
100
AcDbEllipse
 10
397.520466
 20
35.151216
 30
0.0
 11
0.0
 21
-2.5
 31
0.0
210
0.0
220
0.0
230
1.0
 40
0.018242
 41
3.141592653591039
 42
4.712388980381006
  0
ELLIPSE
  5
7C
330
1F
100
AcDbEntity
  8
LC-001-100-D00-0
 62
     7
370
    50
100
AcDbEllipse
 10
603.066071
 20
35.151216
 30
0.0
 11
68.50000000000139
 21
0.0
 31
0.0
210
0.0
220
0.0
230
0.9999999999999999
 40
0.036496
 41
3.14159265359739
 42
3.169858841660666
  0
ELLIPSE
  5
7D
330
1F
100
AcDbEntity
  8
LC-001-100-D00-0
 62
     7
370
    50
100
AcDbEllipse
 10
-49.333597
 20
35.151216
 30
0.0
 11
0.0
 21
-2.5
 31
0.0
210
0.0
220
0.0
230
1.0
 40
0.018242
 41
1.570796326802167
 42
3.141592653588547
  0
ELLIPSE
  5
7E
330
1F
100
AcDbEntity
  8
LC-001-100-D00-0
 62
     7
370
    50
100
AcDbEllipse
 10
87.666403
 20
35.151216
 30
0.0
 11
0.0
 21
-2.500000001907349
 31
0.0
210
0.0
220
0.0
230
0.9999999999999999
 40
0.018242
 41
1.570796326798716
 42
3.141592653588235
  0
ELLIPSE
  5
7F
330
1F
100
AcDbEntity
  8
LC-001-100-D00-0
 62
     7
370
    50
100
AcDbEllipse
 10
-117.879203
 20
35.151216
 30
0.0
 11
68.49999999428376
 21
0.0
 31
0.0
210
0.0
220
0.0
230
1.0
 40
0.036496
 41
6.254919119109545
 42
6.283185307179634
  0
ELLIPSE
  5
80
330
1F
100
AcDbEntity
  8
LC-001-100-D00-0
 62
     7
370
    50
100
AcDbEllipse
 10
603.066071
 20
82.151216
 30
0.0
 11
68.4999999999998
 21
0.0
 31
0.0
210
0.0
220
0.0
230
1.0
 40
0.036496
 41
3.141592653589787
 42
3.147448628039583
  0
ELLIPSE
  5
81
330
1F
100
AcDbEntity
  8
LC-001-100-D00-0
 62
     7
370
    50
100
AcDbEllipse
 10
534.520466
 20
82.151216
 30
0.0
 11
0.0
 21
-2.499999633789036
 31
0.0
210
0.0
220
0.0
230
1.0
 40
0.018242
 41
4.71238898038469
 42
6.283185357505149
  0
ELLIPSE
  5
82
330
1F
100
AcDbEntity
  8
LC-001-100-D00-0
 62
     7
370
    50
100
AcDbEllipse
 10
-117.879203
 20
82.151216
 30
0.0
 11
68.4999999999998
 21
0.0
 31
0.0
210
0.0
220
0.0
230
1.0
 40
0.036496
 41
6.277329332730615
 42
6.283185307179592
  0
ELLIPSE
  5
83
330
1F
100
AcDbEntity
  8
LC-001-100-D00-0
 62
     7
370
    50
100
AcDbEllipse
 10
-49.333597
 20
82.151216
 30
0.0
 11
0.0
 21
-2.499999755859363
 31
0.0
210
0.0
220
0.0
230
0.9999999999999999
 40
0.018242
 41
6.283185256850286
 42
7.853981633974483
  0
ELLIPSE
  5
84
330
1F
100
AcDbEntity
  8
LC-001-100-D00-0
 62
     7
370
    50
100
AcDbEllipse
 10
397.520466
 20
82.151216
 30
0.0
 11
0.0
 21
-2.499999023437309
 31
0.0
210
0.0
220
0.0
230
1.0
 40
0.018242
 41
4.712388980388226
 42
6.283185315661495
  0
ELLIPSE
  5
85
330
1F
100
AcDbEntity
  8
LC-001-100-D00-0
 62
     7
370
    50
100
AcDbEllipse
 10
87.666403
 20
82.151216
 30
0.0
 11
0.0
 21
-2.500000016212463
 31
0.0
210
0.0
220
0.0
230
1.0
 40
0.018242
 41
6.283185298678362
 42
7.853981633970982
  0
LINE
  5
86
330
1F
100
AcDbEntity
  8
LC-001-100-D00-0
 62
     7
370
    50
100
AcDbLine
 10
397.566077
 20
35.151217
 30
0.0
 11
397.566077
 21
38.001733
 31
0.0
  0
INSERT
  5
8C
330
1F
100
AcDbEntity
  8
LC-001-100-D00-0
 62
     7
370
    50
100
AcDbBlockReference
  2
KLON7
 10
0.0
 20
0.0
 30
0.0
  0
INSERT
  5
92
330
1F
100
AcDbEntity
  8
LC-001-100-D00-0
 62
     7
370
    50
100
AcDbBlockReference
  2
KLON8
 10
0.0
 20
0.0
 30
0.0
  0
LINE
  5
93
330
1F
100
AcDbEntity
  8
LC-001-100-D00-0
 62
     7
370
    50
100
AcDbLine
 10
87.620792
 20
35.151217
 30
0.0
 11
87.620792
 21
38.001733
 31
0.0
  0
INSERT
  5
9A
330
1F
100
AcDbEntity
  8
LC-001-100-D00-0
 62
     7
370
    50
100
AcDbBlockReference
  2
KLON9
 10
0.0
 20
0.0
 30
0.0
  0
INSERT
  5
A0
330
1F
100
AcDbEntity
  8
LC-001-100-D00-0
 62
     7
370
    50
100
AcDbBlockReference
  2
KLON10
 10
0.0
 20
0.0
 30
0.0
  0
INSERT
  5
A7
330
1F
100
AcDbEntity
  8
LC-001-100-D00-0
 62
     7
370
    50
100
AcDbBlockReference
  2
KLON11
 10
0.0
 20
0.0
 30
0.0
  0
INSERT
  5
AE
330
1F
100
AcDbEntity
  8
LC-001-100-D00-0
 62
     7
370
    50
100
AcDbBlockReference
  2
KLON12
 10
0.0
 20
0.0
 30
0.0
  0
INSERT
  5
B5
330
1F
100
AcDbEntity
  8
LC-001-100-D00-0
 62
     7
370
    50
100
AcDbBlockReference
  2
KLON13
 10
0.0
 20
0.0
 30
0.0
  0
INSERT
  5
BB
330
1F
100
AcDbEntity
  8
LC-001-100-D00-0
 62
     7
370
    50
100
AcDbBlockReference
  2
KLON14
 10
0.0
 20
0.0
 30
0.0
  0
LINE
  5
BC
330
1F
100
AcDbEntity
  8
LC-001-100-D00-0
 62
     7
370
    50
100
AcDbLine
 10
397.566077
 20
79.3007
 30
0.0
 11
397.566077
 21
82.151216
 31
0.0
  0
LINE
  5
BD
330
1F
100
AcDbEntity
  8
LC-001-100-D00-0
 62
     7
370
    50
100
AcDbLine
 10
87.620792
 20
79.3007
 30
0.0
 11
87.620792
 21
82.151216
 31
0.0
  0
LINE
  5
BE
330
1F
100
AcDbEntity
  8
LC-001-100-D00-0
 62
     7
370
    50
100
AcDbLine
 10
397.580337
 20
38.795538
 30
0.0
 11
397.580337
 21
52.790266
 31
0.0
  0
ELLIPSE
  5
BF
330
1F
100
AcDbEntity
  8
LC-001-100-D00-0
 62
     7
370
    15
100
AcDbEllipse
 10
153.149395
 20
168.787218
 30
0.0
 11
28.64933029900055
 21
1.713494947728893
 31
0.0
210
0.0
220
0.0
230
1.0
 40
0.016531
 41
6.280994665938694
 42
6.282196627516365
  0
ELLIPSE
  5
C0
330
1F
100
AcDbEntity
  8
LC-001-100-D00-0
 62
     7
370
    15
100
AcDbEllipse
 10
153.149395
 20
180.155541
 30
0.0
 11
28.64933024674711
 21
-1.713494944603647
 31
0.0
210
0.0
220
0.0
230
0.9999999999999999
 40
0.016531
 41
0.0009886796633094
 42
0.0021906412408536
  0
LINE
  5
C1
330
1F
100
AcDbEntity
  8
LC-001-100-D00-0
 62
     7
370
    50
100
AcDbLine
 10
397.580337
 20
64.512167
 30
0.0
 11
397.580337
 21
78.506895
 31
0.0
  0
ELLIPSE
  5
C2
330
1F
100
AcDbEntity
  8
LC-001-100-D00-0
 62
     7
370
    15
100
AcDbEllipse
 10
148.453319
 20
168.787218
 30
0.0
 11
28.64933020644693
 21
-1.713494942193331
 31
0.0
210
0.0
220
0.0
230
1.0
 40
0.016531
 41
3.142581333259777
 42
3.143783294837278
  0
LINE
  5
C3
330
1F
100
AcDbEntity
  8
LC-001-100-D00-0
 62
     7
370
    50
100
AcDbLine
 10
87.606531
 20
38.795538
 30
0.0
 11
87.606531
 21
52.790266
 31
0.0
  0
ELLIPSE
  5
C4
330
1F
100
AcDbEntity
  8
LC-001-100-D00-0
 62
     7
370
    15
100
AcDbEllipse
 10
148.453319
 20
180.155541
 30
0.0
 11
28.64933022318173
 21
1.713494943194277
 31
0.0
210
0.0
220
0.0
230
1.0
 40
0.016531
 41
3.139402012353169
 42
3.14060397393076
  0
LINE
  5
C5
330
1F
100
AcDbEntity
  8
LC-001-100-D00-0
 62
     7
370
    50
100
AcDbLine
 10
87.606531
 20
64.512167
 30
0.0
 11
87.606531
 21
78.506895
 31
0.0
  0
LINE
  5
C6
330
1F
100
AcDbEntity
  8
LC-001-100-D00-0
 62
     7
370
    50
100
AcDbLine
 10
397.566077
 20
38.002106
 30
0.0
 11
397.580248
 21
38.792676
 31
0.0
  0
LINE
  5
C7
330
1F
100
AcDbEntity
  8
LC-001-100-D00-0
 62
     7
370
    50
100
AcDbLine
 10
397.566077
 20
79.300327
 30
0.0
 11
397.580248
 21
78.509757
 31
0.0
  0
LINE
  5
C8
330
1F
100
AcDbEntity
  8
LC-001-100-D00-0
 62
     7
370
    50
100
AcDbLine
 10
87.620792
 20
38.002106
 30
0.0
 11
87.606621
 21
38.792676
 31
0.0
  0
LINE
  5
C9
330
1F
100
AcDbEntity
  8
LC-001-100-D00-0
 62
     7
370
    50
100
AcDbLine
 10
87.620792
 20
79.300327
 30
0.0
 11
87.606621
 21
78.509757
 31
0.0
  0
LINE
  5
CA
330
1F
100
AcDbEntity
  8
LC-001-100-D00-0
 62
     7
370
    50
100
AcDbLine
 10
160.843434
 20
71.901216
 30
0.0
 11
160.843434
 21
45.401216
 31
0.0
  0
ARC
  5
CB
330
1F
100
AcDbEntity
  8
LC-001-100-D00-0
 62
     7
370
    50
100
AcDbCircle
 10
155.843434
 20
71.901216
 30
0.0
 40
5.0
100
AcDbArc
 50
0.0
 51
90.0
  0
ARC
  5
CC
330
1F
100
AcDbEntity
  8
LC-001-100-D00-0
 62
     7
370
    50
100
AcDbCircle
 10
155.843434
 20
45.401216
 30
0.0
 40
5.0
100
AcDbArc
 50
270.0
 51
0.0
  0
CIRCLE
  5
CD
330
1F
100
AcDbEntity
  8
LC-001-100-D00-0
 62
     7
370
    50
100
AcDbCircle
 10
142.593434
 20
58.651216
 30
0.0
 40
3.900000000000091
  0
LINE
  5
CE
330
1F
100
AcDbEntity
  8
LC-001-100-D00-0
 62
     7
370
    50
100
AcDbLine
 10
129.343434
 20
76.901216
 30
0.0
 11
155.843434
 21
76.901216
 31
0.0
  0
LINE
  5
CF
330
1F
100
AcDbEntity
  8
LC-001-100-D00-0
 62
     7
370
    50
100
AcDbLine
 10
155.843434
 20
40.401216
 30
0.0
 11
129.343434
 21
40.401216
 31
0.0
  0
ARC
  5
D0
330
1F
100
AcDbEntity
  8
LC-001-100-D00-0
 62
     7
370
    50
100
AcDbCircle
 10
129.343434
 20
45.401216
 30
0.0
 40
5.000000000000341
100
AcDbArc
 50
180.0
 51
270.0
  0
ARC
  5
D1
330
1F
100
AcDbEntity
  8
LC-001-100-D00-0
 62
     7
370
    50
100
AcDbCircle
 10
129.343434
 20
71.901216
 30
0.0
 40
5.0
100
AcDbArc
 50
90.0
 51
180.0
  0
LINE
  5
D2
330
1F
100
AcDbEntity
  8
LC-001-100-D00-0
 62
     7
370
    50
100
AcDbLine
 10
124.343434
 20
45.401216
 30
0.0
 11
124.343434
 21
71.901216
 31
0.0
  0
ARC
  5
D3
330
1F
100
AcDbEntity
  8
LC-001-100-D00-0
 62
     7
370
    50
100
AcDbCircle
 10
355.843434
 20
71.901216
 30
0.0
 40
5.0
100
AcDbArc
 50
0.0
 51
90.0
  0
ARC
  5
D4
330
1F
100
AcDbEntity
  8
LC-001-100-D00-0
 62
     7
370
    50
100
AcDbCircle
 10
355.843434
 20
45.401216
 30
0.0
 40
5.0
100
AcDbArc
 50
270.0
 51
0.0
  0
LINE
  5
D5
330
1F
100
AcDbEntity
  8
LC-001-100-D00-0
 62
     7
370
    50
100
AcDbLine
 10
360.843434
 20
71.901216
 30
0.0
 11
360.843434
 21
45.401216
 31
0.0
  0
CIRCLE
  5
D6
330
1F
100
AcDbEntity
  8
LC-001-100-D00-0
 62
     7
370
    50
100
AcDbCircle
 10
342.593434
 20
58.651216
 30
0.0
 40
3.900000000000091
  0
LINE
  5
D7
330
1F
100
AcDbEntity
  8
LC-001-100-D00-0
 62
     7
370
    50
100
AcDbLine
 10
355.843434
 20
40.401216
 30
0.0
 11
329.343434
 21
40.401216
 31
0.0
  0
LINE
  5
D8
330
1F
100
AcDbEntity
  8
LC-001-100-D00-0
 62
     7
370
    50
100
AcDbLine
 10
329.343434
 20
76.901216
 30
0.0
 11
355.843434
 21
76.901216
 31
0.0
  0
ARC
  5
D9
330
1F
100
AcDbEntity
  8
LC-001-100-D00-0
 62
     7
370
    50
100
AcDbCircle
 10
329.343434
 20
45.401216
 30
0.0
 40
5.0
100
AcDbArc
 50
180.0
 51
270.0
  0
ARC
  5
DA
330
1F
100
AcDbEntity
  8
LC-001-100-D00-0
 62
     7
370
    50
100
AcDbCircle
 10
329.343434
 20
71.901216
 30
0.0
 40
5.0
100
AcDbArc
 50
90.0
 51
180.0
  0
LINE
  5
DB
330
1F
100
AcDbEntity
  8
LC-001-100-D00-0
 62
     7
370
    50
100
AcDbLine
 10
324.343434
 20
45.401216
 30
0.0
 11
324.343434
 21
71.901216
 31
0.0
  0
LINE
  5
DC
330
1F
100
AcDbEntity
  8
LC-001-100-D00-0
 62
     7
370
    50
100
AcDbLine
 10
530.843434
 20
71.901216
 30
0.0
 11
530.843434
 21
45.401216
 31
0.0
  0
ARC
  5
DD
330
1F
100
AcDbEntity
  8
LC-001-100-D00-0
 62
     7
370
    50
100
AcDbCircle
 10
525.843434
 20
71.901216
 30
0.0
 40
5.0
100
AcDbArc
 50
0.0
 51
90.0
  0
ARC
  5
DE
330
1F
100
AcDbEntity
  8
LC-001-100-D00-0
 62
     7
370
    50
100
AcDbCircle
 10
525.843434
 20
45.401216
 30
0.0
 40
5.0
100
AcDbArc
 50
270.0
 51
0.0
  0
CIRCLE
  5
DF
330
1F
100
AcDbEntity
  8
LC-001-100-D00-0
 62
     7
370
    50
100
AcDbCircle
 10
512.593434
 20
58.651216
 30
0.0
 40
3.900000000000091
  0
LINE
  5
E0
330
1F
100
AcDbEntity
  8
LC-001-100-D00-0
 62
     7
370
    50
100
AcDbLine
 10
525.843434
 20
40.401216
 30
0.0
 11
499.343434
 21
40.401216
 31
0.0
  0
LINE
  5
E1
330
1F
100
AcDbEntity
  8
LC-001-100-D00-0
 62
     7
370
    50
100
AcDbLine
 10
499.343434
 20
76.901216
 30
0.0
 11
525.843434
 21
76.901216
 31
0.0
  0
ARC
  5
E2
330
1F
100
AcDbEntity
  8
LC-001-100-D00-0
 62
     7
370
    50
100
AcDbCircle
 10
499.343434
 20
45.401216
 30
0.0
 40
5.0
100
AcDbArc
 50
180.0
 51
270.0
  0
ARC
  5
E3
330
1F
100
AcDbEntity
  8
LC-001-100-D00-0
 62
     7
370
    50
100
AcDbCircle
 10
499.343434
 20
71.901216
 30
0.0
 40
5.0
100
AcDbArc
 50
90.0
 51
180.0
  0
LINE
  5
E4
330
1F
100
AcDbEntity
  8
LC-001-100-D00-0
 62
     7
370
    50
100
AcDbLine
 10
494.343434
 20
45.401216
 30
0.0
 11
494.343434
 21
71.901216
 31
0.0
  0
ARC
  5
E5
330
1F
100
AcDbEntity
  8
LC-001-100-D00-0
 62
     7
370
    50
100
AcDbCircle
 10
-14.156566
 20
71.901216
 30
0.0
 40
5.0
100
AcDbArc
 50
0.0
 51
90.0
  0
LINE
  5
E6
330
1F
100
AcDbEntity
  8
LC-001-100-D00-0
 62
     7
370
    50
100
AcDbLine
 10
-9.156566
 20
71.901216
 30
0.0
 11
-9.156566
 21
45.401216
 31
0.0
  0
ARC
  5
E7
330
1F
100
AcDbEntity
  8
LC-001-100-D00-0
 62
     7
370
    50
100
AcDbCircle
 10
-14.156566
 20
45.401216
 30
0.0
 40
5.0
100
AcDbArc
 50
270.0
 51
0.0
  0
CIRCLE
  5
E8
330
1F
100
AcDbEntity
  8
LC-001-100-D00-0
 62
     7
370
    50
100
AcDbCircle
 10
-27.406566
 20
58.651216
 30
0.0
 40
3.900000000000091
  0
LINE
  5
E9
330
1F
100
AcDbEntity
  8
LC-001-100-D00-0
 62
     7
370
    50
100
AcDbLine
 10
-14.156566
 20
40.401216
 30
0.0
 11
-40.656566
 21
40.401216
 31
0.0
  0
LINE
  5
EA
330
1F
100
AcDbEntity
  8
LC-001-100-D00-0
 62
     7
370
    50
100
AcDbLine
 10
-40.656566
 20
76.901216
 30
0.0
 11
-14.156566
 21
76.901216
 31
0.0
  0
ARC
  5
EB
330
1F
100
AcDbEntity
  8
LC-001-100-D00-0
 62
     7
370
    50
100
AcDbCircle
 10
-40.656566
 20
45.401216
 30
0.0
 40
5.0
100
AcDbArc
 50
180.0
 51
270.0
  0
ARC
  5
EC
330
1F
100
AcDbEntity
  8
LC-001-100-D00-0
 62
     7
370
    50
100
AcDbCircle
 10
-40.656566
 20
71.901216
 30
0.0
 40
5.0
100
AcDbArc
 50
90.0
 51
180.0
  0
LINE
  5
ED
330
1F
100
AcDbEntity
  8
LC-001-100-D00-0
 62
     7
370
    50
100
AcDbLine
 10
-45.656566
 20
45.401216
 30
0.0
 11
-45.656566
 21
71.901216
 31
0.0
  0
DIMENSION
  5
F0
330
1F
100
AcDbEntity
  8
LC-001-100-D00-0
 62
     7
370
    25
100
AcDbDimension
  2
*D15
 10
663.869514
 20
103.151216
 30
0.0
 11
608.869514
 21
99.619293
 31
0.0
 70
   160
  1
1,5
 71
     5
 42
1.5
 53
90.0
  3
LC-DIM-L-0100-02-02
100
AcDbAlignedDimension
 13
587.593434
 23
104.651216
 33
0.0
 14
587.593434
 24
103.151216
 34
0.0
 50
90.0
100
AcDbRotatedDimension
  0
DIMENSION
  5
FF
330
1F
100
AcDbEntity
  8
LC-001-100-D00-0
 62
     7
370
    25
100
AcDbDimension
  2
*D16
 10
761.891224
 20
84.651216
 30
0.0
 11
706.891224
 21
43.189293
 31
0.0
 70
   160
  1
18,5
 71
     5
 42
18.5
 53
90.0
  3
LC-DIM-L-0100-02-02
100
AcDbAlignedDimension
 13
587.593434
 23
103.151216
 33
0.0
 14
540.093434
 24
84.651216
 34
0.0
 50
90.0
100
AcDbRotatedDimension
  0
DIMENSION
  5
10D
330
1F
100
AcDbEntity
  8
LC-001-100-D00-0
 62
     7
370
    25
100
AcDbDimension
  2
*D17
 10
816.061117
 20
-18.848784
 30
0.0
 11
761.061117
 21
37.249293
 31
0.0
 70
   160
  1
123,5
 71
     5
 42
123.5
 53
90.0
  3
LC-DIM-L-0100-02-02
100
AcDbAlignedDimension
 13
587.593434
 23
104.651216
 33
0.0
 14
587.593434
 24
-18.848784
 34
0.0
 50
90.0
100
AcDbRotatedDimension
  0
LINE
  5
11B
330
1F
100
AcDbEntity
  8
LC-001-100-D00-0
  6
DASHDOT
 62
     7
370
    25
100
AcDbLine
 10
550.093434
 20
57.901216
 30
0.0
 11
-64.906566
 21
57.901216
 31
0.0
  0
LINE
  5
11C
330
1F
100
AcDbEntity
  8
LC-001-100-D00-0
  6
DASHDOT
 62
     7
370
    25
100
AcDbLine
 10
242.593434
 20
114.651216
 30
0.0
 11
242.593434
 21
-47.348782
 31
0.0
  0
LINE
  5
11D
330
1F
100
AcDbEntity
  8
LC-001-100-D00-0
 62
     7
370
    50
100
AcDbLine
 10
-30.80658
 20
424.931609
 30
0.0
 11
-31.806567
 21
425.931609
 31
0.0
  0
LINE
  5
11E
330
1F
100
AcDbEntity
  8
LC-001-100-D00-0
 62
     7
370
    50
100
AcDbLine
 10
-30.80658
 20
424.931609
 30
0.0
 11
-30.806572
 21
418.931609
 31
0.0
  0
LINE
  5
11F
330
1F
100
AcDbEntity
  8
LC-001-100-D00-0
 62
     7
370
    50
100
AcDbLine
 10
-31.806572
 20
417.931609
 30
0.0
 11
-30.806572
 21
418.931609
 31
0.0
  0
LINE
  5
120
330
1F
100
AcDbEntity
  8
LC-001-100-D00-0
 62
     7
370
    50
100
AcDbLine
 10
-33.757428
 20
419.931608
 30
0.0
 11
-33.757428
 21
417.93161
 31
0.0
  0
LINE
  5
121
330
1F
100
AcDbEntity
  8
LC-001-100-D00-0
 62
     7
370
    50
100
AcDbLine
 10
-33.05128
 20
420.12082
 30
0.0
 11
-33.757428
 21
419.931608
 31
0.0
  0
ARC
  5
122
330
1F
100
AcDbEntity
  8
LC-001-100-D00-0
 62
     7
370
    50
100
AcDbCircle
 10
-33.206572
 20
420.700375
 30
0.0
 40
0.6000000000001032
100
AcDbArc
 50
285.0
 51
0.0
  0
LINE
  5
123
330
1F
100
AcDbEntity
  8
LC-001-100-D00-0
 62
     7
370
    50
100
AcDbLine
 10
-32.606572
 20
423.162843
 30
0.0
 11
-32.606572
 21
420.700375
 31
0.0
  0
ARC
  5
124
330
1F
100
AcDbEntity
  8
LC-001-100-D00-0
 62
     7
370
    50
100
AcDbCircle
 10
-33.206572
 20
423.162843
 30
0.0
 40
0.6000000000000227
100
AcDbArc
 50
0.0
 51
75.0
  0
LINE
  5
125
330
1F
100
AcDbEntity
  8
LC-001-100-D00-0
 62
     7
370
    50
100
AcDbLine
 10
-33.757428
 20
423.931609
 30
0.0
 11
-33.05128
 21
423.742398
 31
0.0
  0
LINE
  5
126
330
1F
100
AcDbEntity
  8
LC-001-100-D00-0
 62
     7
370
    50
100
AcDbLine
 10
-33.757428
 20
425.931609
 30
0.0
 11
-33.757428
 21
423.931609
 31
0.0
  0
LINE
  5
127
330
1F
100
AcDbEntity
  8
LC-001-100-D00-0
 62
     7
370
    50
100
AcDbLine
 10
-33.757428
 20
417.93161
 30
0.0
 11
-31.806572
 21
417.931609
 31
0.0
  0
LINE
  5
128
330
1F
100
AcDbEntity
  8
LC-001-100-D00-0
 62
     7
370
    50
100
AcDbLine
 10
-33.757428
 20
425.931609
 30
0.0
 11
-31.806567
 21
425.931609
 31
0.0
  0
LINE
  5
129
330
1F
100
AcDbEntity
  8
LC-001-100-D00-0
 62
     7
370
    50
100
AcDbLine
 10
-22.206572
 20
420.700375
 30
0.0
 11
-22.206572
 21
423.162843
 31
0.0
  0
ARC
  5
12A
330
1F
100
AcDbEntity
  8
LC-001-100-D00-0
 62
     7
370
    50
100
AcDbCircle
 10
-21.606572
 20
420.700375
 30
0.0
 40
0.6000000000000796
100
AcDbArc
 50
180.0
 51
255.0
  0
LINE
  5
12B
330
1F
100
AcDbEntity
  8
LC-001-100-D00-0
 62
     7
370
    50
100
AcDbLine
 10
-21.055708
 20
419.931608
 30
0.0
 11
-21.761863
 21
420.12082
 31
0.0
  0
LINE
  5
12C
330
1F
100
AcDbEntity
  8
LC-001-100-D00-0
 62
     7
370
    50
100
AcDbLine
 10
-21.055708
 20
419.931608
 30
0.0
 11
-21.055708
 21
417.93161
 31
0.0
  0
LINE
  5
12D
330
1F
100
AcDbEntity
  8
LC-001-100-D00-0
 62
     7
370
    50
100
AcDbLine
 10
-24.006572
 20
418.931609
 30
0.0
 11
-23.006572
 21
417.931609
 31
0.0
  0
LINE
  5
12E
330
1F
100
AcDbEntity
  8
LC-001-100-D00-0
 62
     7
370
    50
100
AcDbLine
 10
-24.006572
 20
418.931609
 30
0.0
 11
-24.006584
 21
424.931609
 31
0.0
  0
LINE
  5
12F
330
1F
100
AcDbEntity
  8
LC-001-100-D00-0
 62
     7
370
    50
100
AcDbLine
 10
-23.006568
 20
425.931609
 30
0.0
 11
-24.006584
 21
424.931609
 31
0.0
  0
LINE
  5
130
330
1F
100
AcDbEntity
  8
LC-001-100-D00-0
 62
     7
370
    50
100
AcDbLine
 10
-21.055708
 20
425.931609
 30
0.0
 11
-21.055708
 21
423.931609
 31
0.0
  0
LINE
  5
131
330
1F
100
AcDbEntity
  8
LC-001-100-D00-0
 62
     7
370
    50
100
AcDbLine
 10
-21.761863
 20
423.742398
 30
0.0
 11
-21.055708
 21
423.931609
 31
0.0
  0
ARC
  5
132
330
1F
100
AcDbEntity
  8
LC-001-100-D00-0
 62
     7
370
    50
100
AcDbCircle
 10
-21.606572
 20
423.162843
 30
0.0
 40
0.600000000000118
100
AcDbArc
 50
105.0
 51
180.0
  0
LINE
  5
133
330
1F
100
AcDbEntity
  8
LC-001-100-D00-0
 62
     7
370
    50
100
AcDbLine
 10
-23.006572
 20
417.931609
 30
0.0
 11
-21.055708
 21
417.93161
 31
0.0
  0
LINE
  5
134
330
1F
100
AcDbEntity
  8
LC-001-100-D00-0
 62
     7
370
    50
100
AcDbLine
 10
-23.006568
 20
425.931609
 30
0.0
 11
-21.055708
 21
425.931609
 31
0.0
  0
LINE
  5
135
330
1F
100
AcDbEntity
  8
LC-001-100-D00-0
 62
     7
370
    50
100
AcDbLine
 10
-30.806572
 20
418.931609
 30
0.0
 11
-30.648732
 21
418.931609
 31
0.0
  0
LINE
  5
136
330
1F
100
AcDbEntity
  8
LC-001-100-D00-0
 62
     7
370
    50
100
AcDbLine
 10
-24.164411
 20
418.931609
 30
0.0
 11
-24.006572
 21
418.931609
 31
0.0
  0
LINE
  5
137
330
1F
100
AcDbEntity
  8
LC-001-100-D00-0
 62
     7
370
    50
100
AcDbLine
 10
-23.006572
 20
417.931609
 30
0.0
 11
-23.542353
 21
417.931609
 31
0.0
  0
LINE
  5
138
330
1F
100
AcDbEntity
  8
LC-001-100-D00-0
 62
     7
370
    50
100
AcDbLine
 10
-31.27079
 20
417.931609
 30
0.0
 11
-31.806572
 21
417.931609
 31
0.0
  0
LINE
  5
139
330
1F
100
AcDbEntity
  8
LC-001-100-D00-0
 62
     7
370
    50
100
AcDbLine
 10
-21.055708
 20
425.931609
 30
0.0
 11
-23.506561
 21
425.931609
 31
0.0
  0
LINE
  5
13A
330
1F
100
AcDbEntity
  8
LC-001-100-D00-0
 62
     7
370
    50
100
AcDbLine
 10
-23.506561
 20
425.931609
 30
0.0
 11
-23.506572
 21
436.931609
 31
0.0
  0
LINE
  5
13B
330
1F
100
AcDbEntity
  8
LC-001-100-D00-0
 62
     7
370
    50
100
AcDbLine
 10
-23.506572
 20
436.931609
 30
0.0
 11
-10.156572
 21
436.931609
 31
0.0
  0
ARC
  5
13C
330
1F
100
AcDbEntity
  8
LC-001-100-D00-0
 62
     7
370
    50
100
AcDbCircle
 10
-10.156572
 20
435.931609
 30
0.0
 40
0.9999999999999432
100
AcDbArc
 50
0.0
 51
90.0
  0
LINE
  5
13D
330
1F
100
AcDbEntity
  8
LC-001-100-D00-0
 62
     7
370
    50
100
AcDbLine
 10
-9.156572
 20
435.931609
 30
0.0
 11
-9.156564
 21
429.931609
 31
0.0
  0
LINE
  5
13E
330
1F
100
AcDbEntity
  8
LC-001-100-D00-0
 62
     7
370
    50
100
AcDbLine
 10
-12.156572
 20
429.931609
 30
0.0
 11
-9.156564
 21
429.931609
 31
0.0
  0
LINE
  5
13F
330
1F
100
AcDbEntity
  8
LC-001-100-D00-0
 62
     7
370
    50
100
AcDbLine
 10
-12.156572
 20
429.931609
 30
0.0
 11
-12.156585
 21
433.931609
 31
0.0
  0
LINE
  5
140
330
1F
100
AcDbEntity
  8
LC-001-100-D00-0
 62
     7
370
    50
100
AcDbLine
 10
-16.656572
 20
433.931609
 30
0.0
 11
-12.156585
 21
433.931609
 31
0.0
  0
ARC
  5
141
330
1F
100
AcDbEntity
  8
LC-001-100-D00-0
 62
     7
370
    50
100
AcDbCircle
 10
-16.656572
 20
432.931609
 30
0.0
 40
0.9999999999997726
100
AcDbArc
 50
90.0
 51
180.0
  0
LINE
  5
142
330
1F
100
AcDbEntity
  8
LC-001-100-D00-0
 62
     7
370
    50
100
AcDbLine
 10
-17.656572
 20
418.931609
 30
0.0
 11
-17.656572
 21
432.931609
 31
0.0
  0
ARC
  5
143
330
1F
100
AcDbEntity
  8
LC-001-100-D00-0
 62
     7
370
    50
100
AcDbCircle
 10
-18.656572
 20
418.931609
 30
0.0
 40
1.0
100
AcDbArc
 50
270.0
 51
0.0
  0
LINE
  5
144
330
1F
100
AcDbEntity
  8
LC-001-100-D00-0
 62
     7
370
    50
100
AcDbLine
 10
-18.656572
 20
417.931609
 30
0.0
 11
-21.055708
 21
417.93161
 31
0.0
  0
LINE
  5
145
330
1F
100
AcDbEntity
  8
LC-001-100-D00-0
 62
     7
370
    50
100
AcDbLine
 10
-21.055708
 20
419.931608
 30
0.0
 11
-21.055708
 21
417.93161
 31
0.0
  0
LINE
  5
146
330
1F
100
AcDbEntity
  8
LC-001-100-D00-0
 62
     7
370
    50
100
AcDbLine
 10
-21.706572
 20
419.931609
 30
0.0
 11
-21.055708
 21
419.931608
 31
0.0
  0
ARC
  5
147
330
1F
100
AcDbEntity
  8
LC-001-100-D00-0
 62
     7
370
    50
100
AcDbCircle
 10
-21.706572
 20
420.431609
 30
0.0
 40
0.5000000000001137
100
AcDbArc
 50
180.0
 51
270.0
  0
LINE
  5
148
330
1F
100
AcDbEntity
  8
LC-001-100-D00-0
 62
     7
370
    50
100
AcDbLine
 10
-22.206572
 20
423.431609
 30
0.0
 11
-22.206572
 21
420.431609
 31
0.0
  0
ARC
  5
149
330
1F
100
AcDbEntity
  8
LC-001-100-D00-0
 62
     7
370
    50
100
AcDbCircle
 10
-21.706572
 20
423.431609
 30
0.0
 40
0.5
100
AcDbArc
 50
90.0
 51
180.0
  0
LINE
  5
14A
330
1F
100
AcDbEntity
  8
LC-001-100-D00-0
 62
     7
370
    50
100
AcDbLine
 10
-21.055708
 20
423.931609
 30
0.0
 11
-21.706572
 21
423.931609
 31
0.0
  0
LINE
  5
14B
330
1F
100
AcDbEntity
  8
LC-001-100-D00-0
 62
     7
370
    50
100
AcDbLine
 10
-21.055708
 20
425.931609
 30
0.0
 11
-21.055708
 21
423.931609
 31
0.0
  0
ARC
  5
14C
330
1F
100
AcDbEntity
  8
LC-001-100-D00-0
 62
     7
370
    50
100
AcDbCircle
 10
-38.156572
 20
432.931609
 30
0.0
 40
1.0
100
AcDbArc
 50
0.0
 51
90.0
  0
ARC
  5
14D
330
1F
100
AcDbEntity
  8
LC-001-100-D00-0
 62
     7
370
    50
100
AcDbCircle
 10
-36.156572
 20
418.931609
 30
0.0
 40
1.0
100
AcDbArc
 50
180.0
 51
270.0
  0
LINE
  5
14E
330
1F
100
AcDbEntity
  8
LC-001-100-D00-0
 62
     7
370
    50
100
AcDbLine
 10
-37.156572
 20
432.931609
 30
0.0
 11
-37.156572
 21
418.931609
 31
0.0
  0
LINE
  5
14F
330
1F
100
AcDbEntity
  8
LC-001-100-D00-0
 62
     7
370
    50
100
AcDbLine
 10
-32.606572
 20
420.431609
 30
0.0
 11
-32.606572
 21
423.431609
 31
0.0
  0
LINE
  5
150
330
1F
100
AcDbEntity
  8
LC-001-100-D00-0
 62
     7
370
    50
100
AcDbLine
 10
-31.306572
 20
436.931609
 30
0.0
 11
-31.306574
 21
425.931609
 31
0.0
  0
LINE
  5
151
330
1F
100
AcDbEntity
  8
LC-001-100-D00-0
 62
     7
370
    50
100
AcDbLine
 10
-31.306572
 20
436.931609
 30
0.0
 11
-23.506572
 21
436.931609
 31
0.0
  0
LINE
  5
152
330
1F
100
AcDbEntity
  8
LC-001-100-D00-0
 62
     7
370
    50
100
AcDbLine
 10
-33.757428
 20
419.931608
 30
0.0
 11
-33.757428
 21
417.93161
 31
0.0
  0
LINE
  5
153
330
1F
100
AcDbEntity
  8
LC-001-100-D00-0
 62
     7
370
    50
100
AcDbLine
 10
-33.757428
 20
425.931609
 30
0.0
 11
-33.757428
 21
423.931609
 31
0.0
  0
ARC
  5
154
330
1F
100
AcDbEntity
  8
LC-001-100-D00-0
 62
     7
370
    50
100
AcDbCircle
 10
-33.106572
 20
420.431609
 30
0.0
 40
0.5000000000002274
100
AcDbArc
 50
270.0
 51
0.0
  0
LINE
  5
155
330
1F
100
AcDbEntity
  8
LC-001-100-D00-0
 62
     7
370
    50
100
AcDbLine
 10
-33.757428
 20
419.931608
 30
0.0
 11
-33.106572
 21
419.931609
 31
0.0
  0
LINE
  5
156
330
1F
100
AcDbEntity
  8
LC-001-100-D00-0
 62
     7
370
    50
100
AcDbLine
 10
-42.65658
 20
433.931609
 30
0.0
 11
-42.656572
 21
429.931609
 31
0.0
  0
LINE
  5
157
330
1F
100
AcDbEntity
  8
LC-001-100-D00-0
 62
     7
370
    50
100
AcDbLine
 10
-45.656571
 20
429.931609
 30
0.0
 11
-45.656572
 21
435.931609
 31
0.0
  0
ARC
  5
158
330
1F
100
AcDbEntity
  8
LC-001-100-D00-0
 62
     7
370
    50
100
AcDbCircle
 10
-44.656572
 20
435.931609
 30
0.0
 40
1.0
100
AcDbArc
 50
90.0
 51
180.0
  0
LINE
  5
159
330
1F
100
AcDbEntity
  8
LC-001-100-D00-0
 62
     7
370
    50
100
AcDbLine
 10
-33.106572
 20
423.931609
 30
0.0
 11
-33.757428
 21
423.931609
 31
0.0
  0
ARC
  5
15A
330
1F
100
AcDbEntity
  8
LC-001-100-D00-0
 62
     7
370
    50
100
AcDbCircle
 10
-33.106572
 20
423.431609
 30
0.0
 40
0.5000000000000568
100
AcDbArc
 50
0.0
 51
90.0
  0
LINE
  5
15B
330
1F
100
AcDbEntity
  8
LC-001-100-D00-0
 62
     7
370
    50
100
AcDbLine
 10
-31.306574
 20
425.931609
 30
0.0
 11
-33.757428
 21
425.931609
 31
0.0
  0
LINE
  5
15C
330
1F
100
AcDbEntity
  8
LC-001-100-D00-0
 62
     7
370
    50
100
AcDbLine
 10
-33.757428
 20
417.93161
 30
0.0
 11
-36.156572
 21
417.931609
 31
0.0
  0
LINE
  5
15D
330
1F
100
AcDbEntity
  8
LC-001-100-D00-0
 62
     7
370
    50
100
AcDbLine
 10
-45.656571
 20
429.931609
 30
0.0
 11
-42.656572
 21
429.931609
 31
0.0
  0
LINE
  5
15E
330
1F
100
AcDbEntity
  8
LC-001-100-D00-0
 62
     7
370
    50
100
AcDbLine
 10
-42.65658
 20
433.931609
 30
0.0
 11
-38.156572
 21
433.931609
 31
0.0
  0
LINE
  5
15F
330
1F
100
AcDbEntity
  8
LC-001-100-D00-0
 62
     7
370
    50
100
AcDbLine
 10
-44.656572
 20
436.931609
 30
0.0
 11
-31.306572
 21
436.931609
 31
0.0
  0
LINE
  5
160
330
1F
100
AcDbEntity
  8
LC-001-100-D00-0
 62
     7
370
    50
100
AcDbLine
 10
-14.156572
 20
429.931609
 30
0.0
 11
-12.156572
 21
429.931609
 31
0.0
  0
LINE
  5
161
330
1F
100
AcDbEntity
  8
LC-001-100-D00-0
 62
     7
370
    50
100
AcDbLine
 10
-42.656572
 20
429.931609
 30
0.0
 11
-40.656572
 21
429.931609
 31
0.0
  0
LINE
  5
162
330
1F
100
AcDbEntity
  8
LC-001-100-D00-0
 62
     7
370
    50
100
AcDbLine
 10
-40.656572
 20
429.931609
 30
0.0
 11
-37.156561
 21
429.931609
 31
0.0
  0
LINE
  5
163
330
1F
100
AcDbEntity
  8
LC-001-100-D00-0
 62
     7
370
    50
100
AcDbLine
 10
-17.656574
 20
429.931609
 30
0.0
 11
-14.156572
 21
429.931609
 31
0.0
  0
LINE
  5
164
330
1F
100
AcDbEntity
  8
LC-001-100-D00-0
 62
     7
370
    50
100
AcDbLine
 10
509.193441
 20
424.931609
 30
0.0
 11
508.193424
 21
425.931609
 31
0.0
  0
LINE
  5
165
330
1F
100
AcDbEntity
  8
LC-001-100-D00-0
 62
     7
370
    50
100
AcDbLine
 10
509.193441
 20
424.931609
 30
0.0
 11
509.193428
 21
418.931609
 31
0.0
  0
LINE
  5
166
330
1F
100
AcDbEntity
  8
LC-001-100-D00-0
 62
     7
370
    50
100
AcDbLine
 10
508.193428
 20
417.931609
 30
0.0
 11
509.193428
 21
418.931609
 31
0.0
  0
LINE
  5
167
330
1F
100
AcDbEntity
  8
LC-001-100-D00-0
 62
     7
370
    50
100
AcDbLine
 10
506.242564
 20
419.931608
 30
0.0
 11
506.242564
 21
417.93161
 31
0.0
  0
LINE
  5
168
330
1F
100
AcDbEntity
  8
LC-001-100-D00-0
 62
     7
370
    50
100
AcDbLine
 10
506.94872
 20
420.12082
 30
0.0
 11
506.242564
 21
419.931608
 31
0.0
  0
ARC
  5
169
330
1F
100
AcDbEntity
  8
LC-001-100-D00-0
 62
     7
370
    50
100
AcDbCircle
 10
506.793428
 20
420.700375
 30
0.0
 40
0.600000000000118
100
AcDbArc
 50
285.0
 51
0.0
  0
LINE
  5
16A
330
1F
100
AcDbEntity
  8
LC-001-100-D00-0
 62
     7
370
    50
100
AcDbLine
 10
507.393428
 20
423.162843
 30
0.0
 11
507.393428
 21
420.700375
 31
0.0
  0
ARC
  5
16B
330
1F
100
AcDbEntity
  8
LC-001-100-D00-0
 62
     7
370
    50
100
AcDbCircle
 10
506.793428
 20
423.162843
 30
0.0
 40
0.6000000000000227
100
AcDbArc
 50
0.0
 51
75.0
  0
LINE
  5
16C
330
1F
100
AcDbEntity
  8
LC-001-100-D00-0
 62
     7
370
    50
100
AcDbLine
 10
506.242564
 20
423.931609
 30
0.0
 11
506.94872
 21
423.742398
 31
0.0
  0
LINE
  5
16D
330
1F
100
AcDbEntity
  8
LC-001-100-D00-0
 62
     7
370
    50
100
AcDbLine
 10
506.242564
 20
425.931609
 30
0.0
 11
506.242564
 21
423.931609
 31
0.0
  0
LINE
  5
16E
330
1F
100
AcDbEntity
  8
LC-001-100-D00-0
 62
     7
370
    50
100
AcDbLine
 10
506.242564
 20
417.93161
 30
0.0
 11
508.193428
 21
417.931609
 31
0.0
  0
LINE
  5
16F
330
1F
100
AcDbEntity
  8
LC-001-100-D00-0
 62
     7
370
    50
100
AcDbLine
 10
506.242564
 20
425.931609
 30
0.0
 11
508.193424
 21
425.931609
 31
0.0
  0
LINE
  5
170
330
1F
100
AcDbEntity
  8
LC-001-100-D00-0
 62
     7
370
    50
100
AcDbLine
 10
517.793428
 20
420.700375
 30
0.0
 11
517.793428
 21
423.162843
 31
0.0
  0
ARC
  5
171
330
1F
100
AcDbEntity
  8
LC-001-100-D00-0
 62
     7
370
    50
100
AcDbCircle
 10
518.393428
 20
420.700375
 30
0.0
 40
0.6000000000001364
100
AcDbArc
 50
180.0
 51
255.0
  0
LINE
  5
172
330
1F
100
AcDbEntity
  8
LC-001-100-D00-0
 62
     7
370
    50
100
AcDbLine
 10
518.944284
 20
419.931608
 30
0.0
 11
518.238137
 21
420.12082
 31
0.0
  0
LINE
  5
173
330
1F
100
AcDbEntity
  8
LC-001-100-D00-0
 62
     7
370
    50
100
AcDbLine
 10
518.944284
 20
419.931608
 30
0.0
 11
518.944284
 21
417.93161
 31
0.0
  0
LINE
  5
174
330
1F
100
AcDbEntity
  8
LC-001-100-D00-0
 62
     7
370
    50
100
AcDbLine
 10
515.993428
 20
418.931609
 30
0.0
 11
516.993428
 21
417.931609
 31
0.0
  0
LINE
  5
175
330
1F
100
AcDbEntity
  8
LC-001-100-D00-0
 62
     7
370
    50
100
AcDbLine
 10
515.993428
 20
418.931609
 30
0.0
 11
515.993437
 21
424.931609
 31
0.0
  0
LINE
  5
176
330
1F
100
AcDbEntity
  8
LC-001-100-D00-0
 62
     7
370
    50
100
AcDbLine
 10
516.993424
 20
425.931609
 30
0.0
 11
515.993437
 21
424.931609
 31
0.0
  0
LINE
  5
177
330
1F
100
AcDbEntity
  8
LC-001-100-D00-0
 62
     7
370
    50
100
AcDbLine
 10
518.944284
 20
425.931609
 30
0.0
 11
518.944284
 21
423.931609
 31
0.0
  0
LINE
  5
178
330
1F
100
AcDbEntity
  8
LC-001-100-D00-0
 62
     7
370
    50
100
AcDbLine
 10
518.238137
 20
423.742398
 30
0.0
 11
518.944284
 21
423.931609
 31
0.0
  0
ARC
  5
179
330
1F
100
AcDbEntity
  8
LC-001-100-D00-0
 62
     7
370
    50
100
AcDbCircle
 10
518.393428
 20
423.162843
 30
0.0
 40
0.6000000000001474
100
AcDbArc
 50
105.0
 51
180.0
  0
LINE
  5
17A
330
1F
100
AcDbEntity
  8
LC-001-100-D00-0
 62
     7
370
    50
100
AcDbLine
 10
516.993428
 20
417.931609
 30
0.0
 11
518.944284
 21
417.93161
 31
0.0
  0
LINE
  5
17B
330
1F
100
AcDbEntity
  8
LC-001-100-D00-0
 62
     7
370
    50
100
AcDbLine
 10
516.993424
 20
425.931609
 30
0.0
 11
518.944284
 21
425.931609
 31
0.0
  0
LINE
  5
17C
330
1F
100
AcDbEntity
  8
LC-001-100-D00-0
 62
     7
370
    50
100
AcDbLine
 10
509.193428
 20
418.931609
 30
0.0
 11
509.351268
 21
418.931609
 31
0.0
  0
LINE
  5
17D
330
1F
100
AcDbEntity
  8
LC-001-100-D00-0
 62
     7
370
    50
100
AcDbLine
 10
515.835589
 20
418.931609
 30
0.0
 11
515.993428
 21
418.931609
 31
0.0
  0
LINE
  5
17E
330
1F
100
AcDbEntity
  8
LC-001-100-D00-0
 62
     7
370
    50
100
AcDbLine
 10
516.993428
 20
417.931609
 30
0.0
 11
516.457647
 21
417.931609
 31
0.0
  0
LINE
  5
17F
330
1F
100
AcDbEntity
  8
LC-001-100-D00-0
 62
     7
370
    50
100
AcDbLine
 10
508.72921
 20
417.931609
 30
0.0
 11
508.193428
 21
417.931609
 31
0.0
  0
LINE
  5
180
330
1F
100
AcDbEntity
  8
LC-001-100-D00-0
 62
     7
370
    50
100
AcDbLine
 10
518.944284
 20
425.931609
 30
0.0
 11
516.493431
 21
425.931609
 31
0.0
  0
LINE
  5
181
330
1F
100
AcDbEntity
  8
LC-001-100-D00-0
 62
     7
370
    50
100
AcDbLine
 10
516.493431
 20
425.931609
 30
0.0
 11
516.493428
 21
436.931609
 31
0.0
  0
LINE
  5
182
330
1F
100
AcDbEntity
  8
LC-001-100-D00-0
 62
     7
370
    50
100
AcDbLine
 10
516.493428
 20
436.931609
 30
0.0
 11
529.843428
 21
436.931609
 31
0.0
  0
ARC
  5
183
330
1F
100
AcDbEntity
  8
LC-001-100-D00-0
 62
     7
370
    50
100
AcDbCircle
 10
529.843428
 20
435.931609
 30
0.0
 40
1.0
100
AcDbArc
 50
0.0
 51
90.0
  0
LINE
  5
184
330
1F
100
AcDbEntity
  8
LC-001-100-D00-0
 62
     7
370
    50
100
AcDbLine
 10
530.843428
 20
435.931609
 30
0.0
 11
530.843428
 21
429.931609
 31
0.0
  0
LINE
  5
185
330
1F
100
AcDbEntity
  8
LC-001-100-D00-0
 62
     7
370
    50
100
AcDbLine
 10
527.843428
 20
429.931609
 30
0.0
 11
530.843428
 21
429.931609
 31
0.0
  0
LINE
  5
186
330
1F
100
AcDbEntity
  8
LC-001-100-D00-0
 62
     7
370
    50
100
AcDbLine
 10
527.843428
 20
429.931609
 30
0.0
 11
527.843436
 21
433.931609
 31
0.0
  0
LINE
  5
187
330
1F
100
AcDbEntity
  8
LC-001-100-D00-0
 62
     7
370
    50
100
AcDbLine
 10
523.343428
 20
433.931609
 30
0.0
 11
527.843436
 21
433.931609
 31
0.0
  0
ARC
  5
188
330
1F
100
AcDbEntity
  8
LC-001-100-D00-0
 62
     7
370
    50
100
AcDbCircle
 10
523.343428
 20
432.931609
 30
0.0
 40
1.0
100
AcDbArc
 50
90.0
 51
180.0
  0
LINE
  5
189
330
1F
100
AcDbEntity
  8
LC-001-100-D00-0
 62
     7
370
    50
100
AcDbLine
 10
522.343428
 20
418.931609
 30
0.0
 11
522.343428
 21
432.931609
 31
0.0
  0
ARC
  5
18A
330
1F
100
AcDbEntity
  8
LC-001-100-D00-0
 62
     7
370
    50
100
AcDbCircle
 10
521.343428
 20
418.931609
 30
0.0
 40
1.0
100
AcDbArc
 50
270.0
 51
0.0
  0
LINE
  5
18B
330
1F
100
AcDbEntity
  8
LC-001-100-D00-0
 62
     7
370
    50
100
AcDbLine
 10
521.343428
 20
417.931609
 30
0.0
 11
518.944284
 21
417.93161
 31
0.0
  0
LINE
  5
18C
330
1F
100
AcDbEntity
  8
LC-001-100-D00-0
 62
     7
370
    50
100
AcDbLine
 10
518.944284
 20
419.931608
 30
0.0
 11
518.944284
 21
417.93161
 31
0.0
  0
LINE
  5
18D
330
1F
100
AcDbEntity
  8
LC-001-100-D00-0
 62
     7
370
    50
100
AcDbLine
 10
518.293428
 20
419.931609
 30
0.0
 11
518.944284
 21
419.931608
 31
0.0
  0
ARC
  5
18E
330
1F
100
AcDbEntity
  8
LC-001-100-D00-0
 62
     7
370
    50
100
AcDbCircle
 10
518.293428
 20
420.431609
 30
0.0
 40
0.5
100
AcDbArc
 50
180.0
 51
270.0
  0
LINE
  5
18F
330
1F
100
AcDbEntity
  8
LC-001-100-D00-0
 62
     7
370
    50
100
AcDbLine
 10
517.793428
 20
423.431609
 30
0.0
 11
517.793428
 21
420.431609
 31
0.0
  0
ARC
  5
190
330
1F
100
AcDbEntity
  8
LC-001-100-D00-0
 62
     7
370
    50
100
AcDbCircle
 10
518.293428
 20
423.431609
 30
0.0
 40
0.5
100
AcDbArc
 50
90.0
 51
180.0
  0
LINE
  5
191
330
1F
100
AcDbEntity
  8
LC-001-100-D00-0
 62
     7
370
    50
100
AcDbLine
 10
518.944284
 20
423.931609
 30
0.0
 11
518.293428
 21
423.931609
 31
0.0
  0
LINE
  5
192
330
1F
100
AcDbEntity
  8
LC-001-100-D00-0
 62
     7
370
    50
100
AcDbLine
 10
518.944284
 20
425.931609
 30
0.0
 11
518.944284
 21
423.931609
 31
0.0
  0
ARC
  5
193
330
1F
100
AcDbEntity
  8
LC-001-100-D00-0
 62
     7
370
    50
100
AcDbCircle
 10
501.843428
 20
432.931609
 30
0.0
 40
1.000000000000114
100
AcDbArc
 50
0.0
 51
90.0
  0
ARC
  5
194
330
1F
100
AcDbEntity
  8
LC-001-100-D00-0
 62
     7
370
    50
100
AcDbCircle
 10
503.843428
 20
418.931609
 30
0.0
 40
1.000000000000114
100
AcDbArc
 50
180.0
 51
270.0
  0
LINE
  5
195
330
1F
100
AcDbEntity
  8
LC-001-100-D00-0
 62
     7
370
    50
100
AcDbLine
 10
502.843428
 20
432.931609
 30
0.0
 11
502.843428
 21
418.931609
 31
0.0
  0
LINE
  5
196
330
1F
100
AcDbEntity
  8
LC-001-100-D00-0
 62
     7
370
    50
100
AcDbLine
 10
507.393428
 20
420.431609
 30
0.0
 11
507.393428
 21
423.431609
 31
0.0
  0
LINE
  5
197
330
1F
100
AcDbEntity
  8
LC-001-100-D00-0
 62
     7
370
    50
100
AcDbLine
 10
508.693428
 20
436.931609
 30
0.0
 11
508.693418
 21
425.931609
 31
0.0
  0
LINE
  5
198
330
1F
100
AcDbEntity
  8
LC-001-100-D00-0
 62
     7
370
    50
100
AcDbLine
 10
508.693428
 20
436.931609
 30
0.0
 11
516.493428
 21
436.931609
 31
0.0
  0
LINE
  5
199
330
1F
100
AcDbEntity
  8
LC-001-100-D00-0
 62
     7
370
    50
100
AcDbLine
 10
506.242564
 20
419.931608
 30
0.0
 11
506.242564
 21
417.93161
 31
0.0
  0
LINE
  5
19A
330
1F
100
AcDbEntity
  8
LC-001-100-D00-0
 62
     7
370
    50
100
AcDbLine
 10
506.242564
 20
425.931609
 30
0.0
 11
506.242564
 21
423.931609
 31
0.0
  0
ARC
  5
19B
330
1F
100
AcDbEntity
  8
LC-001-100-D00-0
 62
     7
370
    50
100
AcDbCircle
 10
506.893428
 20
420.431609
 30
0.0
 40
0.5000000000002274
100
AcDbArc
 50
270.0
 51
0.0
  0
LINE
  5
19C
330
1F
100
AcDbEntity
  8
LC-001-100-D00-0
 62
     7
370
    50
100
AcDbLine
 10
506.242564
 20
419.931608
 30
0.0
 11
506.893428
 21
419.931609
 31
0.0
  0
LINE
  5
19D
330
1F
100
AcDbEntity
  8
LC-001-100-D00-0
 62
     7
370
    50
100
AcDbLine
 10
497.343442
 20
433.931609
 30
0.0
 11
497.343428
 21
429.931609
 31
0.0
  0
LINE
  5
19E
330
1F
100
AcDbEntity
  8
LC-001-100-D00-0
 62
     7
370
    50
100
AcDbLine
 10
494.343421
 20
429.931609
 30
0.0
 11
494.343428
 21
435.931609
 31
0.0
  0
ARC
  5
19F
330
1F
100
AcDbEntity
  8
LC-001-100-D00-0
 62
     7
370
    50
100
AcDbCircle
 10
495.343428
 20
435.931609
 30
0.0
 40
1.0
100
AcDbArc
 50
90.0
 51
180.0
  0
LINE
  5
1A0
330
1F
100
AcDbEntity
  8
LC-001-100-D00-0
 62
     7
370
    50
100
AcDbLine
 10
506.893428
 20
423.931609
 30
0.0
 11
506.242564
 21
423.931609
 31
0.0
  0
ARC
  5
1A1
330
1F
100
AcDbEntity
  8
LC-001-100-D00-0
 62
     7
370
    50
100
AcDbCircle
 10
506.893428
 20
423.431609
 30
0.0
 40
0.5000000000001137
100
AcDbArc
 50
0.0
 51
90.0
  0
LINE
  5
1A2
330
1F
100
AcDbEntity
  8
LC-001-100-D00-0
 62
     7
370
    50
100
AcDbLine
 10
508.693418
 20
425.931609
 30
0.0
 11
506.242564
 21
425.931609
 31
0.0
  0
LINE
  5
1A3
330
1F
100
AcDbEntity
  8
LC-001-100-D00-0
 62
     7
370
    50
100
AcDbLine
 10
506.242564
 20
417.93161
 30
0.0
 11
503.843428
 21
417.931609
 31
0.0
  0
LINE
  5
1A4
330
1F
100
AcDbEntity
  8
LC-001-100-D00-0
 62
     7
370
    50
100
AcDbLine
 10
494.343421
 20
429.931609
 30
0.0
 11
497.343428
 21
429.931609
 31
0.0
  0
LINE
  5
1A5
330
1F
100
AcDbEntity
  8
LC-001-100-D00-0
 62
     7
370
    50
100
AcDbLine
 10
497.343442
 20
433.931609
 30
0.0
 11
501.843428
 21
433.931609
 31
0.0
  0
LINE
  5
1A6
330
1F
100
AcDbEntity
  8
LC-001-100-D00-0
 62
     7
370
    50
100
AcDbLine
 10
495.343428
 20
436.931609
 30
0.0
 11
508.693428
 21
436.931609
 31
0.0
  0
LINE
  5
1A7
330
1F
100
AcDbEntity
  8
LC-001-100-D00-0
 62
     7
370
    50
100
AcDbLine
 10
525.843428
 20
429.931609
 30
0.0
 11
527.843428
 21
429.931609
 31
0.0
  0
LINE
  5
1A8
330
1F
100
AcDbEntity
  8
LC-001-100-D00-0
 62
     7
370
    50
100
AcDbLine
 10
497.343428
 20
429.931609
 30
0.0
 11
499.343428
 21
429.931609
 31
0.0
  0
LINE
  5
1A9
330
1F
100
AcDbEntity
  8
LC-001-100-D00-0
 62
     7
370
    50
100
AcDbLine
 10
499.343428
 20
429.931609
 30
0.0
 11
502.84343
 21
429.931609
 31
0.0
  0
LINE
  5
1AA
330
1F
100
AcDbEntity
  8
LC-001-100-D00-0
 62
     7
370
    50
100
AcDbLine
 10
522.343418
 20
429.931609
 30
0.0
 11
525.843428
 21
429.931609
 31
0.0
  0
LINE
  5
1AB
330
1F
100
AcDbEntity
  8
LC-001-100-D00-0
 62
     7
370
    50
100
AcDbLine
 10
139.193429
 20
424.931609
 30
0.0
 11
138.193427
 21
425.931609
 31
0.0
  0
LINE
  5
1AC
330
1F
100
AcDbEntity
  8
LC-001-100-D00-0
 62
     7
370
    50
100
AcDbLine
 10
139.193429
 20
424.931609
 30
0.0
 11
139.193428
 21
418.931609
 31
0.0
  0
LINE
  5
1AD
330
1F
100
AcDbEntity
  8
LC-001-100-D00-0
 62
     7
370
    50
100
AcDbLine
 10
138.193428
 20
417.931609
 30
0.0
 11
139.193428
 21
418.931609
 31
0.0
  0
LINE
  5
1AE
330
1F
100
AcDbEntity
  8
LC-001-100-D00-0
 62
     7
370
    50
100
AcDbLine
 10
136.242574
 20
419.931608
 30
0.0
 11
136.242574
 21
417.93161
 31
0.0
  0
LINE
  5
1AF
330
1F
100
AcDbEntity
  8
LC-001-100-D00-0
 62
     7
370
    50
100
AcDbLine
 10
136.94872
 20
420.12082
 30
0.0
 11
136.242574
 21
419.931608
 31
0.0
  0
ARC
  5
1B0
330
1F
100
AcDbEntity
  8
LC-001-100-D00-0
 62
     7
370
    50
100
AcDbCircle
 10
136.793428
 20
420.700375
 30
0.0
 40
0.600000000000118
100
AcDbArc
 50
285.0
 51
0.0
  0
LINE
  5
1B1
330
1F
100
AcDbEntity
  8
LC-001-100-D00-0
 62
     7
370
    50
100
AcDbLine
 10
137.393428
 20
423.162843
 30
0.0
 11
137.393428
 21
420.700375
 31
0.0
  0
ARC
  5
1B2
330
1F
100
AcDbEntity
  8
LC-001-100-D00-0
 62
     7
370
    50
100
AcDbCircle
 10
136.793428
 20
423.162843
 30
0.0
 40
0.6000000000000227
100
AcDbArc
 50
0.0
 51
75.0
  0
LINE
  5
1B3
330
1F
100
AcDbEntity
  8
LC-001-100-D00-0
 62
     7
370
    50
100
AcDbLine
 10
136.242574
 20
423.931609
 30
0.0
 11
136.94872
 21
423.742398
 31
0.0
  0
LINE
  5
1B4
330
1F
100
AcDbEntity
  8
LC-001-100-D00-0
 62
     7
370
    50
100
AcDbLine
 10
136.242574
 20
425.931609
 30
0.0
 11
136.242574
 21
423.931609
 31
0.0
  0
LINE
  5
1B5
330
1F
100
AcDbEntity
  8
LC-001-100-D00-0
 62
     7
370
    50
100
AcDbLine
 10
136.242574
 20
417.93161
 30
0.0
 11
138.193428
 21
417.931609
 31
0.0
  0
LINE
  5
1B6
330
1F
100
AcDbEntity
  8
LC-001-100-D00-0
 62
     7
370
    50
100
AcDbLine
 10
136.242574
 20
425.931609
 30
0.0
 11
138.193427
 21
425.931609
 31
0.0
  0
LINE
  5
1B7
330
1F
100
AcDbEntity
  8
LC-001-100-D00-0
 62
     7
370
    50
100
AcDbLine
 10
147.793428
 20
420.700375
 30
0.0
 11
147.793428
 21
423.162843
 31
0.0
  0
ARC
  5
1B8
330
1F
100
AcDbEntity
  8
LC-001-100-D00-0
 62
     7
370
    50
100
AcDbCircle
 10
148.393428
 20
420.700375
 30
0.0
 40
0.6000000000000227
100
AcDbArc
 50
180.0
 51
255.0
  0
LINE
  5
1B9
330
1F
100
AcDbEntity
  8
LC-001-100-D00-0
 62
     7
370
    50
100
AcDbLine
 10
148.944279
 20
419.931608
 30
0.0
 11
148.238137
 21
420.12082
 31
0.0
  0
LINE
  5
1BA
330
1F
100
AcDbEntity
  8
LC-001-100-D00-0
 62
     7
370
    50
100
AcDbLine
 10
148.944279
 20
419.931608
 30
0.0
 11
148.944279
 21
417.93161
 31
0.0
  0
LINE
  5
1BB
330
1F
100
AcDbEntity
  8
LC-001-100-D00-0
 62
     7
370
    50
100
AcDbLine
 10
145.993428
 20
418.931609
 30
0.0
 11
146.993428
 21
417.931609
 31
0.0
  0
LINE
  5
1BC
330
1F
100
AcDbEntity
  8
LC-001-100-D00-0
 62
     7
370
    50
100
AcDbLine
 10
145.993428
 20
418.931609
 30
0.0
 11
145.993425
 21
424.931609
 31
0.0
  0
LINE
  5
1BD
330
1F
100
AcDbEntity
  8
LC-001-100-D00-0
 62
     7
370
    50
100
AcDbLine
 10
146.993427
 20
425.931609
 30
0.0
 11
145.993425
 21
424.931609
 31
0.0
  0
LINE
  5
1BE
330
1F
100
AcDbEntity
  8
LC-001-100-D00-0
 62
     7
370
    50
100
AcDbLine
 10
148.944279
 20
425.931609
 30
0.0
 11
148.944279
 21
423.931609
 31
0.0
  0
LINE
  5
1BF
330
1F
100
AcDbEntity
  8
LC-001-100-D00-0
 62
     7
370
    50
100
AcDbLine
 10
148.238137
 20
423.742398
 30
0.0
 11
148.944279
 21
423.931609
 31
0.0
  0
ARC
  5
1C0
330
1F
100
AcDbEntity
  8
LC-001-100-D00-0
 62
     7
370
    50
100
AcDbCircle
 10
148.393428
 20
423.162843
 30
0.0
 40
0.5999999999998689
100
AcDbArc
 50
105.0
 51
180.0
  0
LINE
  5
1C1
330
1F
100
AcDbEntity
  8
LC-001-100-D00-0
 62
     7
370
    50
100
AcDbLine
 10
146.993428
 20
417.931609
 30
0.0
 11
148.944279
 21
417.93161
 31
0.0
  0
LINE
  5
1C2
330
1F
100
AcDbEntity
  8
LC-001-100-D00-0
 62
     7
370
    50
100
AcDbLine
 10
146.993427
 20
425.931609
 30
0.0
 11
148.944279
 21
425.931609
 31
0.0
  0
LINE
  5
1C3
330
1F
100
AcDbEntity
  8
LC-001-100-D00-0
 62
     7
370
    50
100
AcDbLine
 10
139.193428
 20
418.931609
 30
0.0
 11
139.351268
 21
418.931609
 31
0.0
  0
LINE
  5
1C4
330
1F
100
AcDbEntity
  8
LC-001-100-D00-0
 62
     7
370
    50
100
AcDbLine
 10
145.835589
 20
418.931609
 30
0.0
 11
145.993428
 21
418.931609
 31
0.0
  0
LINE
  5
1C5
330
1F
100
AcDbEntity
  8
LC-001-100-D00-0
 62
     7
370
    50
100
AcDbLine
 10
146.993428
 20
417.931609
 30
0.0
 11
146.457647
 21
417.931609
 31
0.0
  0
LINE
  5
1C6
330
1F
100
AcDbEntity
  8
LC-001-100-D00-0
 62
     7
370
    50
100
AcDbLine
 10
138.72921
 20
417.931609
 30
0.0
 11
138.193428
 21
417.931609
 31
0.0
  0
LINE
  5
1C7
330
1F
100
AcDbEntity
  8
LC-001-100-D00-0
 62
     7
370
    50
100
AcDbLine
 10
148.944279
 20
425.931609
 30
0.0
 11
146.493426
 21
425.931609
 31
0.0
  0
LINE
  5
1C8
330
1F
100
AcDbEntity
  8
LC-001-100-D00-0
 62
     7
370
    50
100
AcDbLine
 10
146.493426
 20
425.931609
 30
0.0
 11
146.493428
 21
436.931609
 31
0.0
  0
LINE
  5
1C9
330
1F
100
AcDbEntity
  8
LC-001-100-D00-0
 62
     7
370
    50
100
AcDbLine
 10
146.493428
 20
436.931609
 30
0.0
 11
159.843428
 21
436.931609
 31
0.0
  0
ARC
  5
1CA
330
1F
100
AcDbEntity
  8
LC-001-100-D00-0
 62
     7
370
    50
100
AcDbCircle
 10
159.843428
 20
435.931609
 30
0.0
 40
0.9999999999998863
100
AcDbArc
 50
0.0
 51
90.0
  0
LINE
  5
1CB
330
1F
100
AcDbEntity
  8
LC-001-100-D00-0
 62
     7
370
    50
100
AcDbLine
 10
160.843428
 20
435.931609
 30
0.0
 11
160.84343
 21
429.931609
 31
0.0
  0
LINE
  5
1CC
330
1F
100
AcDbEntity
  8
LC-001-100-D00-0
 62
     7
370
    50
100
AcDbLine
 10
157.843428
 20
429.931609
 30
0.0
 11
160.84343
 21
429.931609
 31
0.0
  0
LINE
  5
1CD
330
1F
100
AcDbEntity
  8
LC-001-100-D00-0
 62
     7
370
    50
100
AcDbLine
 10
157.843428
 20
429.931609
 30
0.0
 11
157.843432
 21
433.931609
 31
0.0
  0
LINE
  5
1CE
330
1F
100
AcDbEntity
  8
LC-001-100-D00-0
 62
     7
370
    50
100
AcDbLine
 10
153.343428
 20
433.931609
 30
0.0
 11
157.843432
 21
433.931609
 31
0.0
  0
ARC
  5
1CF
330
1F
100
AcDbEntity
  8
LC-001-100-D00-0
 62
     7
370
    50
100
AcDbCircle
 10
153.343428
 20
432.931609
 30
0.0
 40
1.0
100
AcDbArc
 50
90.0
 51
180.0
  0
LINE
  5
1D0
330
1F
100
AcDbEntity
  8
LC-001-100-D00-0
 62
     7
370
    50
100
AcDbLine
 10
152.343428
 20
418.931609
 30
0.0
 11
152.343428
 21
432.931609
 31
0.0
  0
ARC
  5
1D1
330
1F
100
AcDbEntity
  8
LC-001-100-D00-0
 62
     7
370
    50
100
AcDbCircle
 10
151.343428
 20
418.931609
 30
0.0
 40
1.0
100
AcDbArc
 50
270.0
 51
0.0
  0
LINE
  5
1D2
330
1F
100
AcDbEntity
  8
LC-001-100-D00-0
 62
     7
370
    50
100
AcDbLine
 10
151.343428
 20
417.931609
 30
0.0
 11
148.944279
 21
417.93161
 31
0.0
  0
LINE
  5
1D3
330
1F
100
AcDbEntity
  8
LC-001-100-D00-0
 62
     7
370
    50
100
AcDbLine
 10
148.944279
 20
419.931608
 30
0.0
 11
148.944279
 21
417.93161
 31
0.0
  0
LINE
  5
1D4
330
1F
100
AcDbEntity
  8
LC-001-100-D00-0
 62
     7
370
    50
100
AcDbLine
 10
148.293428
 20
419.931609
 30
0.0
 11
148.944279
 21
419.931608
 31
0.0
  0
ARC
  5
1D5
330
1F
100
AcDbEntity
  8
LC-001-100-D00-0
 62
     7
370
    50
100
AcDbCircle
 10
148.293428
 20
420.431609
 30
0.0
 40
0.5
100
AcDbArc
 50
180.0
 51
270.0
  0
LINE
  5
1D6
330
1F
100
AcDbEntity
  8
LC-001-100-D00-0
 62
     7
370
    50
100
AcDbLine
 10
147.793428
 20
423.431609
 30
0.0
 11
147.793428
 21
420.431609
 31
0.0
  0
ARC
  5
1D7
330
1F
100
AcDbEntity
  8
LC-001-100-D00-0
 62
     7
370
    50
100
AcDbCircle
 10
148.293428
 20
423.431609
 30
0.0
 40
0.5
100
AcDbArc
 50
90.0
 51
180.0
  0
LINE
  5
1D8
330
1F
100
AcDbEntity
  8
LC-001-100-D00-0
 62
     7
370
    50
100
AcDbLine
 10
148.944279
 20
423.931609
 30
0.0
 11
148.293428
 21
423.931609
 31
0.0
  0
LINE
  5
1D9
330
1F
100
AcDbEntity
  8
LC-001-100-D00-0
 62
     7
370
    50
100
AcDbLine
 10
148.944279
 20
425.931609
 30
0.0
 11
148.944279
 21
423.931609
 31
0.0
  0
ARC
  5
1DA
330
1F
100
AcDbEntity
  8
LC-001-100-D00-0
 62
     7
370
    50
100
AcDbCircle
 10
131.843428
 20
432.931609
 30
0.0
 40
1.000000000000114
100
AcDbArc
 50
0.0
 51
90.0
  0
ARC
  5
1DB
330
1F
100
AcDbEntity
  8
LC-001-100-D00-0
 62
     7
370
    50
100
AcDbCircle
 10
133.843428
 20
418.931609
 30
0.0
 40
1.0
100
AcDbArc
 50
180.0
 51
270.0
  0
LINE
  5
1DC
330
1F
100
AcDbEntity
  8
LC-001-100-D00-0
 62
     7
370
    50
100
AcDbLine
 10
132.843428
 20
432.931609
 30
0.0
 11
132.843428
 21
418.931609
 31
0.0
  0
LINE
  5
1DD
330
1F
100
AcDbEntity
  8
LC-001-100-D00-0
 62
     7
370
    50
100
AcDbLine
 10
138.693428
 20
436.931609
 30
0.0
 11
138.693428
 21
425.931609
 31
0.0
  0
LINE
  5
1DE
330
1F
100
AcDbEntity
  8
LC-001-100-D00-0
 62
     7
370
    50
100
AcDbLine
 10
138.693428
 20
436.931609
 30
0.0
 11
146.493428
 21
436.931609
 31
0.0
  0
LINE
  5
1DF
330
1F
100
AcDbEntity
  8
LC-001-100-D00-0
 62
     7
370
    50
100
AcDbLine
 10
137.393428
 20
420.431609
 30
0.0
 11
137.393428
 21
423.431609
 31
0.0
  0
ARC
  5
1E0
330
1F
100
AcDbEntity
  8
LC-001-100-D00-0
 62
     7
370
    50
100
AcDbCircle
 10
136.893428
 20
420.431609
 30
0.0
 40
0.5000000000002274
100
AcDbArc
 50
270.0
 51
0.0
  0
LINE
  5
1E1
330
1F
100
AcDbEntity
  8
LC-001-100-D00-0
 62
     7
370
    50
100
AcDbLine
 10
136.242574
 20
419.931608
 30
0.0
 11
136.893428
 21
419.931609
 31
0.0
  0
LINE
  5
1E2
330
1F
100
AcDbEntity
  8
LC-001-100-D00-0
 62
     7
370
    50
100
AcDbLine
 10
136.242574
 20
419.931608
 30
0.0
 11
136.242574
 21
417.93161
 31
0.0
  0
LINE
  5
1E3
330
1F
100
AcDbEntity
  8
LC-001-100-D00-0
 62
     7
370
    50
100
AcDbLine
 10
127.343429
 20
433.931609
 30
0.0
 11
127.343428
 21
429.931609
 31
0.0
  0
LINE
  5
1E4
330
1F
100
AcDbEntity
  8
LC-001-100-D00-0
 62
     7
370
    50
100
AcDbLine
 10
124.343431
 20
429.931609
 30
0.0
 11
124.343428
 21
435.931609
 31
0.0
  0
ARC
  5
1E5
330
1F
100
AcDbEntity
  8
LC-001-100-D00-0
 62
     7
370
    50
100
AcDbCircle
 10
125.343428
 20
435.931609
 30
0.0
 40
1.0
100
AcDbArc
 50
90.0
 51
180.0
  0
LINE
  5
1E6
330
1F
100
AcDbEntity
  8
LC-001-100-D00-0
 62
     7
370
    50
100
AcDbLine
 10
136.242574
 20
425.931609
 30
0.0
 11
136.242574
 21
423.931609
 31
0.0
  0
LINE
  5
1E7
330
1F
100
AcDbEntity
  8
LC-001-100-D00-0
 62
     7
370
    50
100
AcDbLine
 10
136.893428
 20
423.931609
 30
0.0
 11
136.242574
 21
423.931609
 31
0.0
  0
ARC
  5
1E8
330
1F
100
AcDbEntity
  8
LC-001-100-D00-0
 62
     7
370
    50
100
AcDbCircle
 10
136.893428
 20
423.431609
 30
0.0
 40
0.5
100
AcDbArc
 50
0.0
 51
90.0
  0
LINE
  5
1E9
330
1F
100
AcDbEntity
  8
LC-001-100-D00-0
 62
     7
370
    50
100
AcDbLine
 10
136.242574
 20
417.93161
 30
0.0
 11
133.843428
 21
417.931609
 31
0.0
  0
LINE
  5
1EA
330
1F
100
AcDbEntity
  8
LC-001-100-D00-0
 62
     7
370
    50
100
AcDbLine
 10
138.693428
 20
425.931609
 30
0.0
 11
136.242574
 21
425.931609
 31
0.0
  0
LINE
  5
1EB
330
1F
100
AcDbEntity
  8
LC-001-100-D00-0
 62
     7
370
    50
100
AcDbLine
 10
127.343429
 20
433.931609
 30
0.0
 11
131.843428
 21
433.931609
 31
0.0
  0
LINE
  5
1EC
330
1F
100
AcDbEntity
  8
LC-001-100-D00-0
 62
     7
370
    50
100
AcDbLine
 10
125.343428
 20
436.931609
 30
0.0
 11
138.693428
 21
436.931609
 31
0.0
  0
LINE
  5
1ED
330
1F
100
AcDbEntity
  8
LC-001-100-D00-0
 62
     7
370
    50
100
AcDbLine
 10
124.343431
 20
429.931609
 30
0.0
 11
127.343428
 21
429.931609
 31
0.0
  0
LINE
  5
1EE
330
1F
100
AcDbEntity
  8
LC-001-100-D00-0
 62
     7
370
    50
100
AcDbLine
 10
155.843428
 20
429.931609
 30
0.0
 11
157.843428
 21
429.931609
 31
0.0
  0
LINE
  5
1EF
330
1F
100
AcDbEntity
  8
LC-001-100-D00-0
 62
     7
370
    50
100
AcDbLine
 10
127.343428
 20
429.931609
 30
0.0
 11
129.343428
 21
429.931609
 31
0.0
  0
LINE
  5
1F0
330
1F
100
AcDbEntity
  8
LC-001-100-D00-0
 62
     7
370
    50
100
AcDbLine
 10
129.343428
 20
429.931609
 30
0.0
 11
132.843426
 21
429.931609
 31
0.0
  0
LINE
  5
1F1
330
1F
100
AcDbEntity
  8
LC-001-100-D00-0
 62
     7
370
    50
100
AcDbLine
 10
152.343428
 20
429.931609
 30
0.0
 11
155.843428
 21
429.931609
 31
0.0
  0
LINE
  5
1F2
330
1F
100
AcDbEntity
  8
LC-001-100-D00-0
 62
     7
370
    50
100
AcDbLine
 10
339.193432
 20
424.931609
 30
0.0
 11
338.19343
 21
425.931609
 31
0.0
  0
LINE
  5
1F3
330
1F
100
AcDbEntity
  8
LC-001-100-D00-0
 62
     7
370
    50
100
AcDbLine
 10
339.193432
 20
424.931609
 30
0.0
 11
339.193428
 21
418.931609
 31
0.0
  0
LINE
  5
1F4
330
1F
100
AcDbEntity
  8
LC-001-100-D00-0
 62
     7
370
    50
100
AcDbLine
 10
338.193428
 20
417.931609
 30
0.0
 11
339.193428
 21
418.931609
 31
0.0
  0
LINE
  5
1F5
330
1F
100
AcDbEntity
  8
LC-001-100-D00-0
 62
     7
370
    50
100
AcDbLine
 10
336.242577
 20
419.931608
 30
0.0
 11
336.242577
 21
417.93161
 31
0.0
  0
LINE
  5
1F6
330
1F
100
AcDbEntity
  8
LC-001-100-D00-0
 62
     7
370
    50
100
AcDbLine
 10
336.94872
 20
420.12082
 30
0.0
 11
336.242577
 21
419.931608
 31
0.0
  0
ARC
  5
1F7
330
1F
100
AcDbEntity
  8
LC-001-100-D00-0
 62
     7
370
    50
100
AcDbCircle
 10
336.793428
 20
420.700375
 30
0.0
 40
0.600000000000118
100
AcDbArc
 50
285.0
 51
0.0
  0
LINE
  5
1F8
330
1F
100
AcDbEntity
  8
LC-001-100-D00-0
 62
     7
370
    50
100
AcDbLine
 10
337.393428
 20
423.162843
 30
0.0
 11
337.393428
 21
420.700375
 31
0.0
  0
ARC
  5
1F9
330
1F
100
AcDbEntity
  8
LC-001-100-D00-0
 62
     7
370
    50
100
AcDbCircle
 10
336.793428
 20
423.162843
 30
0.0
 40
0.6000000000000227
100
AcDbArc
 50
0.0
 51
75.0
  0
LINE
  5
1FA
330
1F
100
AcDbEntity
  8
LC-001-100-D00-0
 62
     7
370
    50
100
AcDbLine
 10
336.242577
 20
423.931609
 30
0.0
 11
336.94872
 21
423.742398
 31
0.0
  0
LINE
  5
1FB
330
1F
100
AcDbEntity
  8
LC-001-100-D00-0
 62
     7
370
    50
100
AcDbLine
 10
336.242577
 20
425.931609
 30
0.0
 11
336.242577
 21
423.931609
 31
0.0
  0
LINE
  5
1FC
330
1F
100
AcDbEntity
  8
LC-001-100-D00-0
 62
     7
370
    50
100
AcDbLine
 10
336.242577
 20
417.93161
 30
0.0
 11
338.193428
 21
417.931609
 31
0.0
  0
LINE
  5
1FD
330
1F
100
AcDbEntity
  8
LC-001-100-D00-0
 62
     7
370
    50
100
AcDbLine
 10
336.242577
 20
425.931609
 30
0.0
 11
338.19343
 21
425.931609
 31
0.0
  0
LINE
  5
1FE
330
1F
100
AcDbEntity
  8
LC-001-100-D00-0
 62
     7
370
    50
100
AcDbLine
 10
347.793428
 20
420.700375
 30
0.0
 11
347.793428
 21
423.162843
 31
0.0
  0
ARC
  5
1FF
330
1F
100
AcDbEntity
  8
LC-001-100-D00-0
 62
     7
370
    50
100
AcDbCircle
 10
348.393428
 20
420.700375
 30
0.0
 40
0.6000000000001364
100
AcDbArc
 50
180.0
 51
255.0
  0
LINE
  5
200
330
1F
100
AcDbEntity
  8
LC-001-100-D00-0
 62
     7
370
    50
100
AcDbLine
 10
348.944282
 20
419.931608
 30
0.0
 11
348.238137
 21
420.12082
 31
0.0
  0
LINE
  5
201
330
1F
100
AcDbEntity
  8
LC-001-100-D00-0
 62
     7
370
    50
100
AcDbLine
 10
348.944282
 20
419.931608
 30
0.0
 11
348.944282
 21
417.93161
 31
0.0
  0
LINE
  5
202
330
1F
100
AcDbEntity
  8
LC-001-100-D00-0
 62
     7
370
    50
100
AcDbLine
 10
345.993428
 20
418.931609
 30
0.0
 11
346.993428
 21
417.931609
 31
0.0
  0
LINE
  5
203
330
1F
100
AcDbEntity
  8
LC-001-100-D00-0
 62
     7
370
    50
100
AcDbLine
 10
345.993428
 20
418.931609
 30
0.0
 11
345.993428
 21
424.931609
 31
0.0
  0
LINE
  5
204
330
1F
100
AcDbEntity
  8
LC-001-100-D00-0
 62
     7
370
    50
100
AcDbLine
 10
346.99343
 20
425.931609
 30
0.0
 11
345.993428
 21
424.931609
 31
0.0
  0
LINE
  5
205
330
1F
100
AcDbEntity
  8
LC-001-100-D00-0
 62
     7
370
    50
100
AcDbLine
 10
348.944282
 20
425.931609
 30
0.0
 11
348.944282
 21
423.931609
 31
0.0
  0
LINE
  5
206
330
1F
100
AcDbEntity
  8
LC-001-100-D00-0
 62
     7
370
    50
100
AcDbLine
 10
348.238137
 20
423.742398
 30
0.0
 11
348.944282
 21
423.931609
 31
0.0
  0
ARC
  5
207
330
1F
100
AcDbEntity
  8
LC-001-100-D00-0
 62
     7
370
    50
100
AcDbCircle
 10
348.393428
 20
423.162843
 30
0.0
 40
0.600000000000118
100
AcDbArc
 50
105.0
 51
180.0
  0
LINE
  5
208
330
1F
100
AcDbEntity
  8
LC-001-100-D00-0
 62
     7
370
    50
100
AcDbLine
 10
346.993428
 20
417.931609
 30
0.0
 11
348.944282
 21
417.93161
 31
0.0
  0
LINE
  5
209
330
1F
100
AcDbEntity
  8
LC-001-100-D00-0
 62
     7
370
    50
100
AcDbLine
 10
346.99343
 20
425.931609
 30
0.0
 11
348.944282
 21
425.931609
 31
0.0
  0
LINE
  5
20A
330
1F
100
AcDbEntity
  8
LC-001-100-D00-0
 62
     7
370
    50
100
AcDbLine
 10
339.193428
 20
418.931609
 30
0.0
 11
339.351268
 21
418.931609
 31
0.0
  0
LINE
  5
20B
330
1F
100
AcDbEntity
  8
LC-001-100-D00-0
 62
     7
370
    50
100
AcDbLine
 10
345.835589
 20
418.931609
 30
0.0
 11
345.993428
 21
418.931609
 31
0.0
  0
LINE
  5
20C
330
1F
100
AcDbEntity
  8
LC-001-100-D00-0
 62
     7
370
    50
100
AcDbLine
 10
346.993428
 20
417.931609
 30
0.0
 11
346.457647
 21
417.931609
 31
0.0
  0
LINE
  5
20D
330
1F
100
AcDbEntity
  8
LC-001-100-D00-0
 62
     7
370
    50
100
AcDbLine
 10
338.72921
 20
417.931609
 30
0.0
 11
338.193428
 21
417.931609
 31
0.0
  0
LINE
  5
20E
330
1F
100
AcDbEntity
  8
LC-001-100-D00-0
 62
     7
370
    50
100
AcDbLine
 10
348.944282
 20
425.931609
 30
0.0
 11
346.493429
 21
425.931609
 31
0.0
  0
LINE
  5
20F
330
1F
100
AcDbEntity
  8
LC-001-100-D00-0
 62
     7
370
    50
100
AcDbLine
 10
346.493429
 20
425.931609
 30
0.0
 11
346.493428
 21
436.931609
 31
0.0
  0
LINE
  5
210
330
1F
100
AcDbEntity
  8
LC-001-100-D00-0
 62
     7
370
    50
100
AcDbLine
 10
346.493428
 20
436.931609
 30
0.0
 11
359.843428
 21
436.931609
 31
0.0
  0
ARC
  5
211
330
1F
100
AcDbEntity
  8
LC-001-100-D00-0
 62
     7
370
    50
100
AcDbCircle
 10
359.843428
 20
435.931609
 30
0.0
 40
1.000000000000114
100
AcDbArc
 50
0.0
 51
90.0
  0
LINE
  5
212
330
1F
100
AcDbEntity
  8
LC-001-100-D00-0
 62
     7
370
    50
100
AcDbLine
 10
360.843428
 20
435.931609
 30
0.0
 11
360.843426
 21
429.931609
 31
0.0
  0
LINE
  5
213
330
1F
100
AcDbEntity
  8
LC-001-100-D00-0
 62
     7
370
    50
100
AcDbLine
 10
357.843428
 20
429.931609
 30
0.0
 11
360.843426
 21
429.931609
 31
0.0
  0
LINE
  5
214
330
1F
100
AcDbEntity
  8
LC-001-100-D00-0
 62
     7
370
    50
100
AcDbLine
 10
357.843428
 20
429.931609
 30
0.0
 11
357.843427
 21
433.931609
 31
0.0
  0
LINE
  5
215
330
1F
100
AcDbEntity
  8
LC-001-100-D00-0
 62
     7
370
    50
100
AcDbLine
 10
353.343428
 20
433.931609
 30
0.0
 11
357.843427
 21
433.931609
 31
0.0
  0
ARC
  5
216
330
1F
100
AcDbEntity
  8
LC-001-100-D00-0
 62
     7
370
    50
100
AcDbCircle
 10
353.343428
 20
432.931609
 30
0.0
 40
1.0
100
AcDbArc
 50
90.0
 51
180.0
  0
LINE
  5
217
330
1F
100
AcDbEntity
  8
LC-001-100-D00-0
 62
     7
370
    50
100
AcDbLine
 10
352.343428
 20
418.931609
 30
0.0
 11
352.343428
 21
432.931609
 31
0.0
  0
ARC
  5
218
330
1F
100
AcDbEntity
  8
LC-001-100-D00-0
 62
     7
370
    50
100
AcDbCircle
 10
351.343428
 20
418.931609
 30
0.0
 40
1.0
100
AcDbArc
 50
270.0
 51
0.0
  0
LINE
  5
219
330
1F
100
AcDbEntity
  8
LC-001-100-D00-0
 62
     7
370
    50
100
AcDbLine
 10
351.343428
 20
417.931609
 30
0.0
 11
348.944282
 21
417.93161
 31
0.0
  0
LINE
  5
21A
330
1F
100
AcDbEntity
  8
LC-001-100-D00-0
 62
     7
370
    50
100
AcDbLine
 10
348.944282
 20
419.931608
 30
0.0
 11
348.944282
 21
417.93161
 31
0.0
  0
LINE
  5
21B
330
1F
100
AcDbEntity
  8
LC-001-100-D00-0
 62
     7
370
    50
100
AcDbLine
 10
348.293428
 20
419.931609
 30
0.0
 11
348.944282
 21
419.931608
 31
0.0
  0
ARC
  5
21C
330
1F
100
AcDbEntity
  8
LC-001-100-D00-0
 62
     7
370
    50
100
AcDbCircle
 10
348.293428
 20
420.431609
 30
0.0
 40
0.5
100
AcDbArc
 50
180.0
 51
270.0
  0
LINE
  5
21D
330
1F
100
AcDbEntity
  8
LC-001-100-D00-0
 62
     7
370
    50
100
AcDbLine
 10
347.793428
 20
423.431609
 30
0.0
 11
347.793428
 21
420.431609
 31
0.0
  0
ARC
  5
21E
330
1F
100
AcDbEntity
  8
LC-001-100-D00-0
 62
     7
370
    50
100
AcDbCircle
 10
348.293428
 20
423.431609
 30
0.0
 40
0.5
100
AcDbArc
 50
90.0
 51
180.0
  0
LINE
  5
21F
330
1F
100
AcDbEntity
  8
LC-001-100-D00-0
 62
     7
370
    50
100
AcDbLine
 10
348.944282
 20
423.931609
 30
0.0
 11
348.293428
 21
423.931609
 31
0.0
  0
LINE
  5
220
330
1F
100
AcDbEntity
  8
LC-001-100-D00-0
 62
     7
370
    50
100
AcDbLine
 10
348.944282
 20
425.931609
 30
0.0
 11
348.944282
 21
423.931609
 31
0.0
  0
ARC
  5
221
330
1F
100
AcDbEntity
  8
LC-001-100-D00-0
 62
     7
370
    50
100
AcDbCircle
 10
331.843428
 20
432.931609
 30
0.0
 40
1.000000000000114
100
AcDbArc
 50
0.0
 51
90.0
  0
ARC
  5
222
330
1F
100
AcDbEntity
  8
LC-001-100-D00-0
 62
     7
370
    50
100
AcDbCircle
 10
333.843428
 20
418.931609
 30
0.0
 40
1.000000000000114
100
AcDbArc
 50
180.0
 51
270.0
  0
LINE
  5
223
330
1F
100
AcDbEntity
  8
LC-001-100-D00-0
 62
     7
370
    50
100
AcDbLine
 10
332.843428
 20
432.931609
 30
0.0
 11
332.843428
 21
418.931609
 31
0.0
  0
LINE
  5
224
330
1F
100
AcDbEntity
  8
LC-001-100-D00-0
 62
     7
370
    50
100
AcDbLine
 10
338.693428
 20
436.931609
 30
0.0
 11
338.693431
 21
425.931609
 31
0.0
  0
LINE
  5
225
330
1F
100
AcDbEntity
  8
LC-001-100-D00-0
 62
     7
370
    50
100
AcDbLine
 10
338.693428
 20
436.931609
 30
0.0
 11
346.493428
 21
436.931609
 31
0.0
  0
LINE
  5
226
330
1F
100
AcDbEntity
  8
LC-001-100-D00-0
 62
     7
370
    50
100
AcDbLine
 10
337.393428
 20
420.431609
 30
0.0
 11
337.393428
 21
423.431609
 31
0.0
  0
ARC
  5
227
330
1F
100
AcDbEntity
  8
LC-001-100-D00-0
 62
     7
370
    50
100
AcDbCircle
 10
336.893428
 20
420.431609
 30
0.0
 40
0.5
100
AcDbArc
 50
270.0
 51
0.0
  0
LINE
  5
228
330
1F
100
AcDbEntity
  8
LC-001-100-D00-0
 62
     7
370
    50
100
AcDbLine
 10
336.242577
 20
419.931608
 30
0.0
 11
336.893428
 21
419.931609
 31
0.0
  0
LINE
  5
229
330
1F
100
AcDbEntity
  8
LC-001-100-D00-0
 62
     7
370
    50
100
AcDbLine
 10
336.242577
 20
419.931608
 30
0.0
 11
336.242577
 21
417.93161
 31
0.0
  0
LINE
  5
22A
330
1F
100
AcDbEntity
  8
LC-001-100-D00-0
 62
     7
370
    50
100
AcDbLine
 10
327.343425
 20
433.931609
 30
0.0
 11
327.343428
 21
429.931609
 31
0.0
  0
LINE
  5
22B
330
1F
100
AcDbEntity
  8
LC-001-100-D00-0
 62
     7
370
    50
100
AcDbLine
 10
324.343426
 20
429.931609
 30
0.0
 11
324.343428
 21
435.931609
 31
0.0
  0
ARC
  5
22C
330
1F
100
AcDbEntity
  8
LC-001-100-D00-0
 62
     7
370
    50
100
AcDbCircle
 10
325.343428
 20
435.931609
 30
0.0
 40
1.0
100
AcDbArc
 50
90.0
 51
180.0
  0
LINE
  5
22D
330
1F
100
AcDbEntity
  8
LC-001-100-D00-0
 62
     7
370
    50
100
AcDbLine
 10
336.242577
 20
425.931609
 30
0.0
 11
336.242577
 21
423.931609
 31
0.0
  0
LINE
  5
22E
330
1F
100
AcDbEntity
  8
LC-001-100-D00-0
 62
     7
370
    50
100
AcDbLine
 10
336.893428
 20
423.931609
 30
0.0
 11
336.242577
 21
423.931609
 31
0.0
  0
ARC
  5
22F
330
1F
100
AcDbEntity
  8
LC-001-100-D00-0
 62
     7
370
    50
100
AcDbCircle
 10
336.893428
 20
423.431609
 30
0.0
 40
0.5
100
AcDbArc
 50
0.0
 51
90.0
  0
LINE
  5
230
330
1F
100
AcDbEntity
  8
LC-001-100-D00-0
 62
     7
370
    50
100
AcDbLine
 10
336.242577
 20
417.93161
 30
0.0
 11
333.843428
 21
417.931609
 31
0.0
  0
LINE
  5
231
330
1F
100
AcDbEntity
  8
LC-001-100-D00-0
 62
     7
370
    50
100
AcDbLine
 10
338.693431
 20
425.931609
 30
0.0
 11
336.242577
 21
425.931609
 31
0.0
  0
LINE
  5
232
330
1F
100
AcDbEntity
  8
LC-001-100-D00-0
 62
     7
370
    50
100
AcDbLine
 10
327.343425
 20
433.931609
 30
0.0
 11
331.843428
 21
433.931609
 31
0.0
  0
LINE
  5
233
330
1F
100
AcDbEntity
  8
LC-001-100-D00-0
 62
     7
370
    50
100
AcDbLine
 10
325.343428
 20
436.931609
 30
0.0
 11
338.693428
 21
436.931609
 31
0.0
  0
LINE
  5
234
330
1F
100
AcDbEntity
  8
LC-001-100-D00-0
 62
     7
370
    50
100
AcDbLine
 10
324.343426
 20
429.931609
 30
0.0
 11
327.343428
 21
429.931609
 31
0.0
  0
LINE
  5
235
330
1F
100
AcDbEntity
  8
LC-001-100-D00-0
 62
     7
370
    50
100
AcDbLine
 10
355.843428
 20
429.931609
 30
0.0
 11
357.843428
 21
429.931609
 31
0.0
  0
LINE
  5
236
330
1F
100
AcDbEntity
  8
LC-001-100-D00-0
 62
     7
370
    50
100
AcDbLine
 10
327.343428
 20
429.931609
 30
0.0
 11
329.343428
 21
429.931609
 31
0.0
  0
LINE
  5
237
330
1F
100
AcDbEntity
  8
LC-001-100-D00-0
 62
     7
370
    50
100
AcDbLine
 10
329.343428
 20
429.931609
 30
0.0
 11
332.843429
 21
429.931609
 31
0.0
  0
LINE
  5
238
330
1F
100
AcDbEntity
  8
LC-001-100-D00-0
 62
     7
370
    50
100
AcDbLine
 10
352.343431
 20
429.931609
 30
0.0
 11
355.843428
 21
429.931609
 31
0.0
  0
LINE
  5
239
330
1F
100
AcDbEntity
  8
LC-001-100-D00-0
 62
     7
370
    50
100
AcDbLine
 10
335.547537
 20
416.295312
 30
0.0
 11
317.713866
 21
411.516794
 31
0.0
  0
ARC
  5
23A
330
1F
100
AcDbEntity
  8
LC-001-100-D00-0
 62
     7
370
    50
100
AcDbCircle
 10
336.582814
 20
412.431609
 30
0.0
 40
4.0
100
AcDbArc
 50
90.0
 51
105.0
  0
LINE
  5
23B
330
1F
100
AcDbEntity
  8
LC-001-100-D00-0
 62
     7
370
    50
100
AcDbLine
 10
336.582814
 20
416.431609
 30
0.0
 11
338.093428
 21
416.431608
 31
0.0
  0
LINE
  5
23C
330
1F
100
AcDbEntity
  8
LC-001-100-D00-0
 62
     7
370
    50
100
AcDbLine
 10
338.093428
 20
416.431608
 30
0.0
 11
338.093428
 21
417.83161
 31
0.0
  0
LINE
  5
23D
330
1F
100
AcDbEntity
  8
LC-001-100-D00-0
 62
     7
370
    50
100
AcDbLine
 10
338.593428
 20
417.831609
 30
0.0
 11
338.093428
 21
417.83161
 31
0.0
  0
ARC
  5
23E
330
1F
100
AcDbEntity
  8
LC-001-100-D00-0
 62
     7
370
    50
100
AcDbCircle
 10
337.593428
 20
419.331609
 30
0.0
 40
1.802775637731868
100
AcDbArc
 50
303.690068
 51
56.309932
  0
LINE
  5
23F
330
1F
100
AcDbEntity
  8
LC-001-100-D00-0
 62
     7
370
    50
100
AcDbLine
 10
338.593429
 20
435.431609
 30
0.0
 11
338.593428
 21
420.831609
 31
0.0
  0
LINE
  5
240
330
1F
100
AcDbEntity
  8
LC-001-100-D00-0
 62
     7
370
    50
100
AcDbLine
 10
339.593431
 20
436.431609
 30
0.0
 11
338.593429
 21
435.431609
 31
0.0
  0
LINE
  5
241
330
1F
100
AcDbEntity
  8
LC-001-100-D00-0
 62
     7
370
    50
100
AcDbLine
 10
345.593428
 20
436.431609
 30
0.0
 11
339.593431
 21
436.431609
 31
0.0
  0
LINE
  5
242
330
1F
100
AcDbEntity
  8
LC-001-100-D00-0
 62
     7
370
    50
100
AcDbLine
 10
346.59343
 20
435.431609
 30
0.0
 11
345.593428
 21
436.431609
 31
0.0
  0
LINE
  5
243
330
1F
100
AcDbEntity
  8
LC-001-100-D00-0
 62
     7
370
    50
100
AcDbLine
 10
346.593428
 20
420.831609
 30
0.0
 11
346.59343
 21
435.431609
 31
0.0
  0
ARC
  5
244
330
1F
100
AcDbEntity
  8
LC-001-100-D00-0
 62
     7
370
    50
100
AcDbCircle
 10
347.593428
 20
419.331609
 30
0.0
 40
1.802775637732121
100
AcDbArc
 50
123.690068
 51
236.309932
  0
LINE
  5
245
330
1F
100
AcDbEntity
  8
LC-001-100-D00-0
 62
     7
370
    50
100
AcDbLine
 10
347.093431
 20
417.83161
 30
0.0
 11
346.593428
 21
417.831609
 31
0.0
  0
LINE
  5
246
330
1F
100
AcDbEntity
  8
LC-001-100-D00-0
 62
     7
370
    50
100
AcDbLine
 10
347.093431
 20
417.83161
 30
0.0
 11
347.093431
 21
416.431608
 31
0.0
  0
LINE
  5
247
330
1F
100
AcDbEntity
  8
LC-001-100-D00-0
 62
     7
370
    50
100
AcDbLine
 10
347.093431
 20
416.431608
 30
0.0
 11
508.093437
 21
416.431608
 31
0.0
  0
LINE
  5
248
330
1F
100
AcDbEntity
  8
LC-001-100-D00-0
 62
     7
370
    50
100
AcDbLine
 10
508.093437
 20
416.431608
 30
0.0
 11
508.093437
 21
417.83161
 31
0.0
  0
LINE
  5
249
330
1F
100
AcDbEntity
  8
LC-001-100-D00-0
 62
     7
370
    50
100
AcDbLine
 10
508.593428
 20
417.831609
 30
0.0
 11
508.093437
 21
417.83161
 31
0.0
  0
ARC
  5
24A
330
1F
100
AcDbEntity
  8
LC-001-100-D00-0
 62
     7
370
    50
100
AcDbCircle
 10
507.593428
 20
419.331609
 30
0.0
 40
1.802775637731805
100
AcDbArc
 50
303.690068
 51
56.309932
  0
LINE
  5
24B
330
1F
100
AcDbEntity
  8
LC-001-100-D00-0
 62
     7
370
    50
100
AcDbLine
 10
508.593431
 20
435.431609
 30
0.0
 11
508.593428
 21
420.831609
 31
0.0
  0
LINE
  5
24C
330
1F
100
AcDbEntity
  8
LC-001-100-D00-0
 62
     7
370
    50
100
AcDbLine
 10
509.593418
 20
436.431609
 30
0.0
 11
508.593431
 21
435.431609
 31
0.0
  0
LINE
  5
24D
330
1F
100
AcDbEntity
  8
LC-001-100-D00-0
 62
     7
370
    50
100
AcDbLine
 10
515.59343
 20
436.431609
 30
0.0
 11
509.593418
 21
436.431609
 31
0.0
  0
LINE
  5
24E
330
1F
100
AcDbEntity
  8
LC-001-100-D00-0
 62
     7
370
    50
100
AcDbLine
 10
516.593417
 20
435.431609
 30
0.0
 11
515.59343
 21
436.431609
 31
0.0
  0
LINE
  5
24F
330
1F
100
AcDbEntity
  8
LC-001-100-D00-0
 62
     7
370
    50
100
AcDbLine
 10
516.593428
 20
420.831609
 30
0.0
 11
516.593417
 21
435.431609
 31
0.0
  0
ARC
  5
250
330
1F
100
AcDbEntity
  8
LC-001-100-D00-0
 62
     7
370
    50
100
AcDbCircle
 10
517.593428
 20
419.331609
 30
0.0
 40
1.802775637731868
100
AcDbArc
 50
123.690068
 51
236.309932
  0
LINE
  5
251
330
1F
100
AcDbEntity
  8
LC-001-100-D00-0
 62
     7
370
    50
100
AcDbLine
 10
517.093441
 20
417.83161
 30
0.0
 11
516.593428
 21
417.831609
 31
0.0
  0
LINE
  5
252
330
1F
100
AcDbEntity
  8
LC-001-100-D00-0
 62
     7
370
    50
100
AcDbLine
 10
517.093441
 20
417.83161
 30
0.0
 11
517.093441
 21
416.431608
 31
0.0
  0
LINE
  5
253
330
1F
100
AcDbEntity
  8
LC-001-100-D00-0
 62
     7
370
    50
100
AcDbLine
 10
517.093441
 20
416.431608
 30
0.0
 11
534.593428
 21
416.431609
 31
0.0
  0
ARC
  5
254
330
1F
100
AcDbEntity
  8
LC-001-100-D00-0
 62
     7
370
    50
100
AcDbCircle
 10
534.593428
 20
424.431609
 30
0.0
 40
8.000000000000227
100
AcDbArc
 50
270.0
 51
0.0
  0
LINE
  5
255
330
1F
100
AcDbEntity
  8
LC-001-100-D00-0
 62
     7
370
    50
100
AcDbLine
 10
542.593428
 20
424.431609
 30
0.0
 11
542.593428
 21
433.931609
 31
0.0
  0
ARC
  5
256
330
1F
100
AcDbEntity
  8
LC-001-100-D00-0
 62
     7
370
    50
100
AcDbCircle
 10
545.593428
 20
433.931609
 30
0.0
 40
3.0
100
AcDbArc
 50
90.0
 51
180.0
  0
LINE
  5
257
330
1F
100
AcDbEntity
  8
LC-001-100-D00-0
 62
     7
370
    50
100
AcDbLine
 10
592.593428
 20
436.931609
 30
0.0
 11
545.593428
 21
436.931609
 31
0.0
  0
LINE
  5
258
330
1F
100
AcDbEntity
  8
LC-001-100-D00-0
 62
     7
370
    50
100
AcDbLine
 10
592.593422
 20
435.431609
 30
0.0
 11
592.593428
 21
436.931609
 31
0.0
  0
LINE
  5
259
330
1F
100
AcDbEntity
  8
LC-001-100-D00-0
 62
     7
370
    50
100
AcDbLine
 10
592.593422
 20
435.431609
 30
0.0
 11
545.593428
 21
435.431609
 31
0.0
  0
ARC
  5
25A
330
1F
100
AcDbEntity
  8
LC-001-100-D00-0
 62
     7
370
    50
100
AcDbCircle
 10
545.593428
 20
433.931609
 30
0.0
 40
1.5
100
AcDbArc
 50
90.0
 51
180.0
  0
LINE
  5
25B
330
1F
100
AcDbEntity
  8
LC-001-100-D00-0
 62
     7
370
    50
100
AcDbLine
 10
544.093428
 20
424.431609
 30
0.0
 11
544.093428
 21
433.931609
 31
0.0
  0
ARC
  5
25C
330
1F
100
AcDbEntity
  8
LC-001-100-D00-0
 62
     7
370
    50
100
AcDbCircle
 10
534.593428
 20
424.431609
 30
0.0
 40
9.5
100
AcDbArc
 50
270.0
 51
0.0
  0
LINE
  5
25D
330
1F
100
AcDbEntity
  8
LC-001-100-D00-0
 62
     7
370
    50
100
AcDbLine
 10
336.582814
 20
414.931609
 30
0.0
 11
534.593428
 21
414.931609
 31
0.0
  0
ARC
  5
25E
330
1F
100
AcDbEntity
  8
LC-001-100-D00-0
 62
     7
370
    50
100
AcDbCircle
 10
336.582814
 20
412.431609
 30
0.0
 40
2.5
100
AcDbArc
 50
90.0
 51
105.0
  0
LINE
  5
25F
330
1F
100
AcDbEntity
  8
LC-001-100-D00-0
 62
     7
370
    50
100
AcDbLine
 10
335.935766
 20
414.846424
 30
0.0
 11
318.102095
 21
410.067906
 31
0.0
  0
ARC
  5
260
330
1F
100
AcDbEntity
  8
LC-001-100-D00-0
 62
     7
370
    50
100
AcDbCircle
 10
317.066818
 20
413.931609
 30
0.0
 40
4.0
100
AcDbArc
 50
270.0
 51
285.0
  0
ARC
  5
261
330
1F
100
AcDbEntity
  8
LC-001-100-D00-0
 62
     7
370
    50
100
AcDbCircle
 10
317.066818
 20
413.931609
 30
0.0
 40
2.500000000000227
100
AcDbArc
 50
270.0
 51
285.0
  0
LINE
  5
262
330
1F
100
AcDbEntity
  8
LC-001-100-D00-0
 62
     7
370
    50
100
AcDbLine
 10
-31.406561
 20
435.431609
 30
0.0
 11
-31.406572
 21
420.831609
 31
0.0
  0
LINE
  5
263
330
1F
100
AcDbEntity
  8
LC-001-100-D00-0
 62
     7
370
    50
100
AcDbLine
 10
-30.406574
 20
436.431609
 30
0.0
 11
-31.406561
 21
435.431609
 31
0.0
  0
LINE
  5
264
330
1F
100
AcDbEntity
  8
LC-001-100-D00-0
 62
     7
370
    50
100
AcDbLine
 10
-24.406561
 20
436.431609
 30
0.0
 11
-30.406574
 21
436.431609
 31
0.0
  0
LINE
  5
265
330
1F
100
AcDbEntity
  8
LC-001-100-D00-0
 62
     7
370
    50
100
AcDbLine
 10
-23.406574
 20
435.431609
 30
0.0
 11
-24.406561
 21
436.431609
 31
0.0
  0
LINE
  5
266
330
1F
100
AcDbEntity
  8
LC-001-100-D00-0
 62
     7
370
    50
100
AcDbLine
 10
-23.406572
 20
420.831609
 30
0.0
 11
-23.406574
 21
435.431609
 31
0.0
  0
ARC
  5
267
330
1F
100
AcDbEntity
  8
LC-001-100-D00-0
 62
     7
370
    50
100
AcDbCircle
 10
-22.406572
 20
419.331609
 30
0.0
 40
1.802775637732089
100
AcDbArc
 50
123.690068
 51
236.309932
  0
LINE
  5
268
330
1F
100
AcDbEntity
  8
LC-001-100-D00-0
 62
     7
370
    50
100
AcDbLine
 10
-22.906581
 20
417.83161
 30
0.0
 11
-23.406572
 21
417.831609
 31
0.0
  0
LINE
  5
269
330
1F
100
AcDbEntity
  8
LC-001-100-D00-0
 62
     7
370
    50
100
AcDbLine
 10
-22.906581
 20
417.83161
 30
0.0
 11
-22.906581
 21
416.431608
 31
0.0
  0
LINE
  5
26A
330
1F
100
AcDbEntity
  8
LC-001-100-D00-0
 62
     7
370
    50
100
AcDbLine
 10
-22.906581
 20
416.431608
 30
0.0
 11
138.093425
 21
416.431608
 31
0.0
  0
LINE
  5
26B
330
1F
100
AcDbEntity
  8
LC-001-100-D00-0
 62
     7
370
    50
100
AcDbLine
 10
138.093425
 20
416.431608
 30
0.0
 11
138.093425
 21
417.83161
 31
0.0
  0
LINE
  5
26C
330
1F
100
AcDbEntity
  8
LC-001-100-D00-0
 62
     7
370
    50
100
AcDbLine
 10
138.593428
 20
417.831609
 30
0.0
 11
138.093425
 21
417.83161
 31
0.0
  0
ARC
  5
26D
330
1F
100
AcDbEntity
  8
LC-001-100-D00-0
 62
     7
370
    50
100
AcDbCircle
 10
137.593428
 20
419.331609
 30
0.0
 40
1.802775637732058
100
AcDbArc
 50
303.690068
 51
56.309932
  0
LINE
  5
26E
330
1F
100
AcDbEntity
  8
LC-001-100-D00-0
 62
     7
370
    50
100
AcDbLine
 10
138.593426
 20
435.431609
 30
0.0
 11
138.593428
 21
420.831609
 31
0.0
  0
LINE
  5
26F
330
1F
100
AcDbEntity
  8
LC-001-100-D00-0
 62
     7
370
    50
100
AcDbLine
 10
139.593428
 20
436.431609
 30
0.0
 11
138.593426
 21
435.431609
 31
0.0
  0
LINE
  5
270
330
1F
100
AcDbEntity
  8
LC-001-100-D00-0
 62
     7
370
    50
100
AcDbLine
 10
145.593425
 20
436.431609
 30
0.0
 11
139.593428
 21
436.431609
 31
0.0
  0
LINE
  5
271
330
1F
100
AcDbEntity
  8
LC-001-100-D00-0
 62
     7
370
    50
100
AcDbLine
 10
146.593427
 20
435.431609
 30
0.0
 11
145.593425
 21
436.431609
 31
0.0
  0
LINE
  5
272
330
1F
100
AcDbEntity
  8
LC-001-100-D00-0
 62
     7
370
    50
100
AcDbLine
 10
146.593428
 20
420.831609
 30
0.0
 11
146.593427
 21
435.431609
 31
0.0
  0
ARC
  5
273
330
1F
100
AcDbEntity
  8
LC-001-100-D00-0
 62
     7
370
    50
100
AcDbCircle
 10
147.593428
 20
419.331609
 30
0.0
 40
1.802775637732121
100
AcDbArc
 50
123.690068
 51
236.309932
  0
LINE
  5
274
330
1F
100
AcDbEntity
  8
LC-001-100-D00-0
 62
     7
370
    50
100
AcDbLine
 10
147.093428
 20
417.83161
 30
0.0
 11
146.593428
 21
417.831609
 31
0.0
  0
LINE
  5
275
330
1F
100
AcDbEntity
  8
LC-001-100-D00-0
 62
     7
370
    50
100
AcDbLine
 10
147.093428
 20
417.83161
 30
0.0
 11
147.093428
 21
416.431608
 31
0.0
  0
LINE
  5
276
330
1F
100
AcDbEntity
  8
LC-001-100-D00-0
 62
     7
370
    50
100
AcDbLine
 10
147.093428
 20
416.431608
 30
0.0
 11
148.604043
 21
416.431609
 31
0.0
  0
ARC
  5
277
330
1F
100
AcDbEntity
  8
LC-001-100-D00-0
 62
     7
370
    50
100
AcDbCircle
 10
148.604043
 20
412.431609
 30
0.0
 40
3.999999999999873
100
AcDbArc
 50
75.0
 51
90.0
  0
LINE
  5
278
330
1F
100
AcDbEntity
  8
LC-001-100-D00-0
 62
     7
370
    50
100
AcDbLine
 10
167.472991
 20
411.516794
 30
0.0
 11
149.639319
 21
416.295312
 31
0.0
  0
ARC
  5
279
330
1F
100
AcDbEntity
  8
LC-001-100-D00-0
 62
     7
370
    50
100
AcDbCircle
 10
168.120038
 20
413.931609
 30
0.0
 40
2.500000000000091
100
AcDbArc
 50
255.0
 51
270.0
  0
ARC
  5
27A
330
1F
100
AcDbEntity
  8
LC-001-100-D00-0
 62
     7
370
    50
100
AcDbCircle
 10
168.120038
 20
413.931609
 30
0.0
 40
4.000000000000122
100
AcDbArc
 50
255.0
 51
270.0
  0
LINE
  5
27B
330
1F
100
AcDbEntity
  8
LC-001-100-D00-0
 62
     7
370
    50
100
AcDbLine
 10
167.084762
 20
410.067906
 30
0.0
 11
149.251091
 21
414.846424
 31
0.0
  0
ARC
  5
27C
330
1F
100
AcDbEntity
  8
LC-001-100-D00-0
 62
     7
370
    50
100
AcDbCircle
 10
148.604043
 20
412.431609
 30
0.0
 40
2.500000000000062
100
AcDbArc
 50
75.0
 51
90.0
  0
LINE
  5
27D
330
1F
100
AcDbEntity
  8
LC-001-100-D00-0
 62
     7
370
    50
100
AcDbLine
 10
-49.406572
 20
414.931609
 30
0.0
 11
148.604043
 21
414.931609
 31
0.0
  0
ARC
  5
27E
330
1F
100
AcDbEntity
  8
LC-001-100-D00-0
 62
     7
370
    50
100
AcDbCircle
 10
-49.406572
 20
424.431609
 30
0.0
 40
9.5
100
AcDbArc
 50
180.0
 51
270.0
  0
LINE
  5
27F
330
1F
100
AcDbEntity
  8
LC-001-100-D00-0
 62
     7
370
    50
100
AcDbLine
 10
-58.906572
 20
433.931609
 30
0.0
 11
-58.906572
 21
424.431609
 31
0.0
  0
ARC
  5
280
330
1F
100
AcDbEntity
  8
LC-001-100-D00-0
 62
     7
370
    50
100
AcDbCircle
 10
-60.406572
 20
433.931609
 30
0.0
 40
1.5
100
AcDbArc
 50
0.0
 51
90.0
  0
LINE
  5
281
330
1F
100
AcDbEntity
  8
LC-001-100-D00-0
 62
     7
370
    50
100
AcDbLine
 10
-107.406572
 20
436.931609
 30
0.0
 11
-107.406566
 21
435.431609
 31
0.0
  0
ARC
  5
282
330
1F
100
AcDbEntity
  8
LC-001-100-D00-0
 62
     7
370
    50
100
AcDbCircle
 10
-60.406572
 20
433.931609
 30
0.0
 40
3.0
100
AcDbArc
 50
0.0
 51
90.0
  0
LINE
  5
283
330
1F
100
AcDbEntity
  8
LC-001-100-D00-0
 62
     7
370
    50
100
AcDbLine
 10
-57.406572
 20
433.931609
 30
0.0
 11
-57.406572
 21
424.431609
 31
0.0
  0
ARC
  5
284
330
1F
100
AcDbEntity
  8
LC-001-100-D00-0
 62
     7
370
    50
100
AcDbCircle
 10
-49.406572
 20
424.431609
 30
0.0
 40
8.0
100
AcDbArc
 50
180.0
 51
270.0
  0
LINE
  5
285
330
1F
100
AcDbEntity
  8
LC-001-100-D00-0
 62
     7
370
    50
100
AcDbLine
 10
-49.406572
 20
416.431609
 30
0.0
 11
-31.906584
 21
416.431608
 31
0.0
  0
LINE
  5
286
330
1F
100
AcDbEntity
  8
LC-001-100-D00-0
 62
     7
370
    50
100
AcDbLine
 10
-31.906584
 20
416.431608
 30
0.0
 11
-31.906584
 21
417.83161
 31
0.0
  0
LINE
  5
287
330
1F
100
AcDbEntity
  8
LC-001-100-D00-0
 62
     7
370
    50
100
AcDbLine
 10
-31.406572
 20
417.831609
 30
0.0
 11
-31.906584
 21
417.83161
 31
0.0
  0
ARC
  5
288
330
1F
100
AcDbEntity
  8
LC-001-100-D00-0
 62
     7
370
    50
100
AcDbCircle
 10
-32.406572
 20
419.331609
 30
0.0
 40
1.8027756377319
100
AcDbArc
 50
303.690068
 51
56.309932
  0
LINE
  5
289
330
1F
100
AcDbEntity
  8
LC-001-100-D00-0
 62
     7
370
    50
100
AcDbLine
 10
-60.406572
 20
436.931609
 30
0.0
 11
-107.406572
 21
436.931609
 31
0.0
  0
LINE
  5
28A
330
1F
100
AcDbEntity
  8
LC-001-100-D00-0
 62
     7
370
    50
100
AcDbLine
 10
-60.406572
 20
435.431609
 30
0.0
 11
-107.406566
 21
435.431609
 31
0.0
  0
ELLIPSE
  5
28B
330
1F
100
AcDbEntity
  8
LC-001-100-D00-0
 62
     7
370
    50
100
AcDbEllipse
 10
397.615245
 20
412.431609
 30
0.0
 11
0.0
 21
-2.500000183105462
 31
0.0
210
0.0
220
0.0
230
1.0
 40
0.027578
 41
0.0000000000074203
 42
0.3217505544014285
  0
ELLIPSE
  5
28C
330
1F
100
AcDbEntity
  8
LC-001-100-D00-0
 62
     7
370
    50
100
AcDbEllipse
 10
87.571611
 20
412.431609
 30
0.0
 11
0.0
 21
-2.5
 31
0.0
210
0.0
220
0.0
230
0.9999999999999999
 40
0.027578
 41
5.961434752783985
 42
6.28318530717938
  0
LINE
  5
28D
330
1F
100
AcDbEntity
  8
LC-001-100-D00-0
 62
     7
370
    50
100
AcDbLine
 10
397.59343
 20
414.802956
 30
0.0
 11
397.59343
 21
410.137568
 31
0.0
  0
LINE
  5
28E
330
1F
100
AcDbEntity
  8
LC-001-100-D00-0
 62
     7
370
    50
100
AcDbLine
 10
87.593427
 20
414.802956
 30
0.0
 11
87.593427
 21
410.137568
 31
0.0
  0
INSERT
  5
298
330
1F
100
AcDbEntity
  8
LC-001-100-D00-0
 62
     7
370
    50
100
AcDbBlockReference
  2
KLON15
 10
0.0
 20
0.0
 30
0.0
  0
INSERT
  5
2A2
330
1F
100
AcDbEntity
  8
LC-001-100-D00-0
 62
     7
370
    50
100
AcDbBlockReference
  2
KLON16
 10
0.0
 20
0.0
 30
0.0
  0
LINE
  5
2A3
330
1F
100
AcDbEntity
  8
LC-001-100-D00-0
 62
     7
370
    50
100
AcDbLine
 10
397.593415
 20
409.931608
 30
0.0
 11
397.5934
 21
410.136875
 31
0.0
  0
LINE
  5
2A4
330
1F
100
AcDbEntity
  8
LC-001-100-D00-0
 62
     7
370
    50
100
AcDbLine
 10
397.59343
 20
409.931608
 30
0.0
 11
525.501123
 21
414.599773
 31
0.0
  0
LINE
  5
2A5
330
1F
100
AcDbEntity
  8
LC-001-100-D00-0
 62
     7
370
    50
100
AcDbLine
 10
397.593415
 20
409.931608
 30
0.0
 11
397.593415
 21
409.931608
 31
0.0
  0
LINE
  5
2A6
330
1F
100
AcDbEntity
  8
LC-001-100-D00-0
 62
     7
370
    50
100
AcDbLine
 10
87.593442
 20
409.931608
 30
0.0
 11
87.593457
 21
410.136875
 31
0.0
  0
LINE
  5
2A7
330
1F
100
AcDbEntity
  8
LC-001-100-D00-0
 62
     7
370
    50
100
AcDbLine
 10
87.593427
 20
409.931608
 30
0.0
 11
-40.314266
 21
414.599773
 31
0.0
  0
LINE
  5
2A8
330
1F
100
AcDbEntity
  8
LC-001-100-D00-0
 62
     7
370
    50
100
AcDbLine
 10
87.593442
 20
409.931608
 30
0.0
 11
87.593442
 21
409.931608
 31
0.0
  0
LINE
  5
2A9
330
1F
100
AcDbEntity
  8
LC-001-100-D00-0
 62
     7
370
    50
100
AcDbLine
 10
317.066818
 20
409.931609
 30
0.0
 11
319.167419
 21
409.931608
 31
0.0
  0
LINE
  5
2AA
330
1F
100
AcDbEntity
  8
LC-001-100-D00-0
 62
     7
370
    50
100
AcDbLine
 10
168.120038
 20
409.931609
 30
0.0
 11
166.019438
 21
409.931608
 31
0.0
  0
LINE
  5
2AB
330
1F
100
AcDbEntity
  8
LC-001-100-D00-0
 62
     7
370
    50
100
AcDbLine
 10
319.167419
 20
409.931608
 30
0.0
 11
397.593415
 21
409.931608
 31
0.0
  0
LINE
  5
2AC
330
1F
100
AcDbEntity
  8
LC-001-100-D00-0
 62
     7
370
    50
100
AcDbLine
 10
166.019438
 20
409.931608
 30
0.0
 11
87.593442
 21
409.931608
 31
0.0
  0
INSERT
  5
2B9
330
1F
100
AcDbEntity
  8
LC-001-100-D00-0
 62
     7
370
    50
100
AcDbBlockReference
  2
KLON17
 10
0.0
 20
0.0
 30
0.0
  0
INSERT
  5
2C6
330
1F
100
AcDbEntity
  8
LC-001-100-D00-0
 62
     7
370
    50
100
AcDbBlockReference
  2
KLON18
 10
0.0
 20
0.0
 30
0.0
  0
LINE
  5
2C7
330
1F
100
AcDbEntity
  8
LC-001-100-D00-0
 62
     7
370
    50
100
AcDbLine
 10
540.093428
 20
436.931609
 30
0.0
 11
545.593428
 21
436.931609
 31
0.0
  0
LINE
  5
2C8
330
1F
100
AcDbEntity
  8
LC-001-100-D00-0
 62
     7
370
    50
100
AcDbLine
 10
-54.906572
 20
436.931609
 30
0.0
 11
-60.406572
 21
436.931609
 31
0.0
  0
LINE
  5
2C9
330
1F
100
AcDbEntity
  8
LC-001-100-D00-0
 62
     7
370
    50
100
AcDbLine
 10
540.093428
 20
436.931609
 30
0.0
 11
529.843428
 21
436.931609
 31
0.0
  0
LINE
  5
2CA
330
1F
100
AcDbEntity
  8
LC-001-100-D00-0
 62
     7
370
    50
100
AcDbLine
 10
495.343428
 20
436.931609
 30
0.0
 11
359.843428
 21
436.931609
 31
0.0
  0
LINE
  5
2CB
330
1F
100
AcDbEntity
  8
LC-001-100-D00-0
 62
     7
370
    50
100
AcDbLine
 10
325.343428
 20
436.931609
 30
0.0
 11
159.843428
 21
436.931609
 31
0.0
  0
LINE
  5
2CC
330
1F
100
AcDbEntity
  8
LC-001-100-D00-0
 62
     7
370
    50
100
AcDbLine
 10
125.343428
 20
436.931609
 30
0.0
 11
-10.156572
 21
436.931609
 31
0.0
  0
LINE
  5
2CD
330
1F
100
AcDbEntity
  8
LC-001-100-D00-0
 62
     7
370
    50
100
AcDbLine
 10
-44.656572
 20
436.931609
 30
0.0
 11
-54.906572
 21
436.931609
 31
0.0
  0
LINE
  5
2CE
330
1F
100
AcDbEntity
  8
LC-001-100-D00-0
 62
     7
370
    50
100
AcDbLine
 10
-107.406572
 20
436.931609
 30
0.0
 11
-107.406572
 21
438.431609
 31
0.0
  0
LINE
  5
2CF
330
1F
100
AcDbEntity
  8
LC-001-100-D00-0
 62
     7
370
    50
100
AcDbLine
 10
592.593428
 20
438.431609
 30
0.0
 11
592.593428
 21
436.931609
 31
0.0
  0
ARC
  5
2D0
330
1F
100
AcDbEntity
  8
LC-001-100-D00-0
 62
     7
370
    50
100
AcDbCircle
 10
-102.406572
 20
477.931609
 30
0.0
 40
5.0
100
AcDbArc
 50
90.0
 51
180.0
  0
LINE
  5
2D1
330
1F
100
AcDbEntity
  8
LC-001-100-D00-0
 62
     7
370
    50
100
AcDbLine
 10
-102.406572
 20
482.931609
 30
0.0
 11
587.593428
 21
482.931609
 31
0.0
  0
ARC
  5
2D2
330
1F
100
AcDbEntity
  8
LC-001-100-D00-0
 62
     7
370
    50
100
AcDbCircle
 10
587.593428
 20
477.931609
 30
0.0
 40
5.0
100
AcDbArc
 50
0.0
 51
90.0
  0
LINE
  5
2D3
330
1F
100
AcDbEntity
  8
LC-001-100-D00-0
 62
     7
370
    50
100
AcDbLine
 10
-107.406572
 20
477.931609
 30
0.0
 11
-107.406572
 21
438.431609
 31
0.0
  0
LINE
  5
2D4
330
1F
100
AcDbEntity
  8
LC-001-100-D00-0
 62
     7
370
    50
100
AcDbLine
 10
592.593428
 20
477.931609
 30
0.0
 11
592.593428
 21
438.431609
 31
0.0
  0
DIMENSION
  5
2D5
330
1F
100
AcDbEntity
  8
LC-001-100-D00-0
 62
     7
370
    25
100
AcDbDimension
  2
*D22
 10
-139.571855
 20
482.931609
 30
0.0
 11
-194.571855
 21
465.298238
 31
0.0
 70
   160
  1
46
 71
     5
 42
46.0
 53
90.0
  3
LC-DIM-L-0100-02-02
100
AcDbAlignedDimension
 13
-107.406572
 23
436.931609
 33
0.0
 14
-102.406572
 24
482.931609
 34
0.0
 50
90.0
100
AcDbRotatedDimension
  0
DIMENSION
  5
2E4
330
1F
100
AcDbEntity
  8
LC-001-100-D00-0
 62
     7
370
    25
100
AcDbDimension
  2
*D23
 10
592.593428
 20
581.214293
 30
0.0
 11
238.248932
 21
636.214293
 31
0.0
 70
   160
  1
700
 71
     5
 42
700.0
  3
LC-DIM-L-0100-02-02
100
AcDbAlignedDimension
 13
-107.406572
 23
477.931609
 33
0.0
 14
592.593428
 24
477.931609
 34
0.0
100
AcDbRotatedDimension
  0
DIMENSION
  5
2F1
330
1F
100
AcDbEntity
  8
LC-001-100-D00-0
 62
     7
370
    25
100
AcDbDimension
  2
*D24
 10
542.593428
 20
504.123386
 30
0.0
 11
236.212228
 21
559.123386
 31
0.0
 70
   160
  1
600
 71
     5
 42
600.0
  3
LC-DIM-L-0100-02-02
100
AcDbAlignedDimension
 13
-57.406572
 23
433.931609
 33
0.0
 14
542.593428
 24
433.931609
 34
0.0
100
AcDbRotatedDimension
  0
INSERT
  5
311
330
1F
100
AcDbEntity
  8
LC-001-100-D00-0
 62
     7
370
    25
100
AcDbBlockReference
  2
KLON19
 10
0.0
 20
0.0
 30
0.0
  0
INSERT
  5
325
330
1F
100
AcDbEntity
  8
LC-001-100-D00-0
 62
     7
370
    25
100
AcDbBlockReference
  2
KLON20
 10
0.0
 20
0.0
 30
0.0
  0
LINE
  5
326
330
1F
100
AcDbEntity
  8
LC-001-100-D00-0
 62
     7
370
    25
100
AcDbLine
 10
-37.156572
 20
423.872933
 30
0.0
 11
-31.306572
 21
429.722934
 31
0.0
  0
LINE
  5
327
330
1F
100
AcDbEntity
  8
LC-001-100-D00-0
 62
     7
370
    25
100
AcDbLine
 10
-20.647256
 20
417.931609
 30
0.0
 11
-17.656572
 21
420.922294
 31
0.0
  0
LINE
  5
328
330
1F
100
AcDbEntity
  8
LC-001-100-D00-0
 62
     7
370
    50
100
AcDbLine
 10
518.168091
 20
417.931609
 30
0.0
 11
518.944281
 21
418.707799
 31
0.0
  0
LINE
  5
329
330
1F
100
AcDbEntity
  8
LC-001-100-D00-0
 62
     7
370
    25
100
AcDbLine
 10
502.843428
 20
425.057586
 30
0.0
 11
508.693428
 21
430.907586
 31
0.0
  0
INSERT
  5
32F
330
1F
100
AcDbEntity
  8
LC-001-100-D00-0
 62
     7
370
    25
100
AcDbBlockReference
  2
KLON21
 10
0.0
 20
0.0
 30
0.0
  0
LINE
  5
330
330
1F
100
AcDbEntity
  8
LC-001-100-D00-0
 62
     7
370
    25
100
AcDbLine
 10
332.083171
 20
433.902445
 30
0.0
 11
335.112335
 21
436.931609
 31
0.0
  0
INSERT
  5
336
330
1F
100
AcDbEntity
  8
LC-001-100-D00-0
 62
     7
370
    25
100
AcDbBlockReference
  2
KLON22
 10
0.0
 20
0.0
 30
0.0
  0
LINE
  5
337
330
1F
100
AcDbEntity
  8
LC-001-100-D00-0
 62
     7
370
    50
100
AcDbLine
 10
136.50722
 20
417.931609
 30
0.0
 11
139.193428
 21
420.617817
 31
0.0
  0
INSERT
  5
33D
330
1F
100
AcDbEntity
  8
LC-001-100-D00-0
 62
     7
370
    25
100
AcDbBlockReference
  2
KLON23
 10
0.0
 20
0.0
 30
0.0
  0
LINE
  5
33E
330
1F
100
AcDbEntity
  8
LC-001-100-D00-0
 62
     7
370
    25
100
AcDbLine
 10
146.493428
 20
427.917818
 30
0.0
 11
155.507219
 21
436.931609
 31
0.0
  0
LINE
  5
33F
330
1F
100
AcDbEntity
  8
LC-001-100-D00-0
  6
DASHDOT
 62
     7
370
    25
100
AcDbLine
 10
512.593428
 20
408.931609
 30
0.0
 11
512.593428
 21
442.931609
 31
0.0
  0
LINE
  5
340
330
1F
100
AcDbEntity
  8
LC-001-100-D00-0
  6
DASHDOT
 62
     7
370
    25
100
AcDbLine
 10
342.593428
 20
408.931609
 30
0.0
 11
342.593428
 21
442.931609
 31
0.0
  0
LINE
  5
341
330
1F
100
AcDbEntity
  8
LC-001-100-D00-0
  6
DASHDOT
 62
     7
370
    25
100
AcDbLine
 10
142.593428
 20
408.931609
 30
0.0
 11
142.593428
 21
442.931609
 31
0.0
  0
LINE
  5
342
330
1F
100
AcDbEntity
  8
LC-001-100-D00-0
  6
DASHDOT
 62
     7
370
    25
100
AcDbLine
 10
-27.406572
 20
408.931609
 30
0.0
 11
-27.406572
 21
442.931609
 31
0.0
  0
LINE
  5
343
102
{ACAD_REACTORS
330
6A0
102
}
330
1F
100
AcDbEntity
  8
LC-001-100-D00-0
 62
     7
370
    50
100
AcDbLine
 10
292.036046
 20
378.931609
 30
0.0
 11
292.036046
 21
402.931609
 31
0.0
  0
LINE
  5
344
102
{ACAD_REACTORS
330
6A0
102
}
330
1F
100
AcDbEntity
  8
LC-001-100-D00-0
 62
     7
370
    50
100
AcDbLine
 10
193.150811
 20
402.931609
 30
0.0
 11
193.150811
 21
378.931609
 31
0.0
  0
ARC
  5
345
102
{ACAD_REACTORS
330
6A0
102
}
330
1F
100
AcDbEntity
  8
LC-001-100-D00-0
 62
     7
370
    50
100
AcDbCircle
 10
317.066818
 20
413.931609
 30
0.0
 40
4.000000000000114
100
AcDbArc
 50
270.0
 51
285.0
  0
LINE
  5
346
102
{ACAD_REACTORS
330
6A0
102
}
330
1F
100
AcDbEntity
  8
LC-001-100-D00-0
 62
     7
370
    50
100
AcDbLine
 10
317.066815
 20
409.93161
 30
0.0
 11
300.393429
 21
409.93161
 31
0.0
  0
ARC
  5
347
102
{ACAD_REACTORS
330
6A0
102
}
330
1F
100
AcDbEntity
  8
LC-001-100-D00-0
 62
     7
370
    50
100
AcDbCircle
 10
300.393428
 20
408.931609
 30
0.0
 40
1.0
100
AcDbArc
 50
90.0
 51
180.0
  0
LINE
  5
348
102
{ACAD_REACTORS
330
6A0
102
}
330
1F
100
AcDbEntity
  8
LC-001-100-D00-0
 62
     7
370
    50
100
AcDbLine
 10
299.393427
 20
408.931609
 30
0.0
 11
299.393427
 21
404.931609
 31
0.0
  0
LINE
  5
349
102
{ACAD_REACTORS
330
6A0
102
}
330
1F
100
AcDbEntity
  8
LC-001-100-D00-0
 62
     7
370
    50
100
AcDbLine
 10
299.393427
 20
404.931609
 30
0.0
 11
297.893428
 21
404.931609
 31
0.0
  0
LINE
  5
34A
102
{ACAD_REACTORS
330
6A0
102
}
330
1F
100
AcDbEntity
  8
LC-001-100-D00-0
 62
     7
370
    50
100
AcDbLine
 10
297.893428
 20
408.931609
 30
0.0
 11
297.893428
 21
404.931609
 31
0.0
  0
ARC
  5
34B
102
{ACAD_REACTORS
330
6A0
102
}
330
1F
100
AcDbEntity
  8
LC-001-100-D00-0
 62
     7
370
    50
100
AcDbCircle
 10
300.393428
 20
408.931609
 30
0.0
 40
2.5
100
AcDbArc
 50
90.0
 51
180.0
  0
LINE
  5
34C
102
{ACAD_REACTORS
330
6A0
102
}
330
1F
100
AcDbEntity
  8
LC-001-100-D00-0
 62
     7
370
    50
100
AcDbLine
 10
317.066815
 20
411.431609
 30
0.0
 11
300.393429
 21
411.431609
 31
0.0
  0
ARC
  5
34D
102
{ACAD_REACTORS
330
6A0
102
}
330
1F
100
AcDbEntity
  8
LC-001-100-D00-0
 62
     7
370
    50
100
AcDbCircle
 10
317.066818
 20
413.931609
 30
0.0
 40
2.500000000000227
100
AcDbArc
 50
270.0
 51
285.0
  0
ARC
  5
34E
102
{ACAD_REACTORS
330
6A0
102
}
330
1F
100
AcDbEntity
  8
LC-001-100-D00-0
 62
     7
370
    50
100
AcDbCircle
 10
168.120038
 20
413.931609
 30
0.0
 40
2.500000000000062
100
AcDbArc
 50
255.0
 51
270.0
  0
LINE
  5
34F
102
{ACAD_REACTORS
330
6A0
102
}
330
1F
100
AcDbEntity
  8
LC-001-100-D00-0
 62
     7
370
    50
100
AcDbLine
 10
173.516218
 20
411.431609
 30
0.0
 11
168.120038
 21
411.431609
 31
0.0
  0
LINE
  5
350
102
{ACAD_REACTORS
330
6A0
102
}
330
1F
100
AcDbEntity
  8
LC-001-100-D00-0
 62
     7
370
    50
100
AcDbLine
 10
184.793428
 20
411.431609
 30
0.0
 11
173.516218
 21
411.431609
 31
0.0
  0
ARC
  5
351
102
{ACAD_REACTORS
330
6A0
102
}
330
1F
100
AcDbEntity
  8
LC-001-100-D00-0
 62
     7
370
    50
100
AcDbCircle
 10
184.793428
 20
408.931609
 30
0.0
 40
2.5
100
AcDbArc
 50
0.0
 51
90.0
  0
LINE
  5
352
102
{ACAD_REACTORS
330
6A0
102
}
330
1F
100
AcDbEntity
  8
LC-001-100-D00-0
 62
     7
370
    50
100
AcDbLine
 10
187.293429
 20
404.931609
 30
0.0
 11
187.293429
 21
408.931609
 31
0.0
  0
LINE
  5
353
102
{ACAD_REACTORS
330
6A0
102
}
330
1F
100
AcDbEntity
  8
LC-001-100-D00-0
 62
     7
370
    50
100
AcDbLine
 10
187.293429
 20
404.931609
 30
0.0
 11
185.79343
 21
404.931609
 31
0.0
  0
LINE
  5
354
102
{ACAD_REACTORS
330
6A0
102
}
330
1F
100
AcDbEntity
  8
LC-001-100-D00-0
 62
     7
370
    50
100
AcDbLine
 10
185.79343
 20
404.931609
 30
0.0
 11
185.79343
 21
408.931609
 31
0.0
  0
ARC
  5
355
102
{ACAD_REACTORS
330
6A0
102
}
330
1F
100
AcDbEntity
  8
LC-001-100-D00-0
 62
     7
370
    50
100
AcDbCircle
 10
184.793428
 20
408.931609
 30
0.0
 40
1.0
100
AcDbArc
 50
0.0
 51
90.0
  0
LINE
  5
356
102
{ACAD_REACTORS
330
6A0
102
}
330
1F
100
AcDbEntity
  8
LC-001-100-D00-0
 62
     7
370
    50
100
AcDbLine
 10
184.793428
 20
409.93161
 30
0.0
 11
168.120038
 21
409.93161
 31
0.0
  0
ARC
  5
357
102
{ACAD_REACTORS
330
6A0
102
}
330
1F
100
AcDbEntity
  8
LC-001-100-D00-0
 62
     7
370
    50
100
AcDbCircle
 10
168.120038
 20
413.931609
 30
0.0
 40
4.000000000000122
100
AcDbArc
 50
255.0
 51
270.0
  0
LINE
  5
358
102
{ACAD_REACTORS
330
6A0
102
}
330
1F
100
AcDbEntity
  8
LC-001-100-D00-0
 62
     7
370
    50
100
AcDbLine
 10
190.093428
 20
404.931609
 30
0.0
 11
187.293429
 21
404.931609
 31
0.0
  0
LINE
  5
359
102
{ACAD_REACTORS
330
6A0
102
}
330
1F
100
AcDbEntity
  8
LC-001-100-D00-0
 62
     7
370
    50
100
AcDbLine
 10
297.893428
 20
404.931609
 30
0.0
 11
295.093429
 21
404.931609
 31
0.0
  0
LINE
  5
35A
102
{ACAD_REACTORS
330
6A0
102
}
330
1F
100
AcDbEntity
  8
LC-001-100-D00-0
 62
     7
370
    50
100
AcDbLine
 10
293.093428
 20
411.431609
 30
0.0
 11
300.393429
 21
411.431609
 31
0.0
  0
LINE
  5
35B
102
{ACAD_REACTORS
330
6A0
102
}
330
1F
100
AcDbEntity
  8
LC-001-100-D00-0
 62
     7
370
    50
100
AcDbLine
 10
192.093428
 20
411.431609
 30
0.0
 11
184.793428
 21
411.431609
 31
0.0
  0
LINE
  5
35C
102
{ACAD_REACTORS
330
6A0
102
}
330
1F
100
AcDbEntity
  8
LC-001-100-D00-0
 62
     7
370
    50
100
AcDbLine
 10
291.593429
 20
413.931608
 30
0.0
 11
291.593429
 21
402.931609
 31
0.0
  0
LINE
  5
35D
102
{ACAD_REACTORS
330
6A0
102
}
330
1F
100
AcDbEntity
  8
LC-001-100-D00-0
 62
     7
370
    50
100
AcDbLine
 10
193.593428
 20
402.931609
 30
0.0
 11
193.593428
 21
413.931608
 31
0.0
  0
LINE
  5
35E
102
{ACAD_REACTORS
330
6A0
102
}
330
1F
100
AcDbEntity
  8
LC-001-100-D00-0
 62
     7
370
    50
100
AcDbLine
 10
297.093429
 20
404.431609
 30
0.0
 11
297.093429
 21
402.931609
 31
0.0
  0
LINE
  5
35F
102
{ACAD_REACTORS
330
6A0
102
}
330
1F
100
AcDbEntity
  8
LC-001-100-D00-0
 62
     7
370
    50
100
AcDbLine
 10
188.093428
 20
402.931609
 30
0.0
 11
188.093428
 21
404.431609
 31
0.0
  0
LINE
  5
360
102
{ACAD_REACTORS
330
6A0
102
}
330
1F
100
AcDbEntity
  8
LC-001-100-D00-0
 62
     7
370
    50
100
AcDbLine
 10
188.093428
 20
402.931609
 30
0.0
 11
193.593428
 21
402.931609
 31
0.0
  0
LINE
  5
361
102
{ACAD_REACTORS
330
6A0
102
}
330
1F
100
AcDbEntity
  8
LC-001-100-D00-0
 62
     7
370
    50
100
AcDbLine
 10
188.093428
 20
404.431609
 30
0.0
 11
190.093428
 21
404.431609
 31
0.0
  0
LINE
  5
362
102
{ACAD_REACTORS
330
6A0
102
}
330
1F
100
AcDbEntity
  8
LC-001-100-D00-0
 62
     7
370
    50
100
AcDbLine
 10
190.093428
 20
404.431609
 30
0.0
 11
190.093428
 21
407.931609
 31
0.0
  0
LINE
  5
363
102
{ACAD_REACTORS
330
6A0
102
}
330
1F
100
AcDbEntity
  8
LC-001-100-D00-0
 62
     7
370
    50
100
AcDbLine
 10
188.093428
 20
407.931609
 30
0.0
 11
190.093428
 21
407.931609
 31
0.0
  0
LINE
  5
364
102
{ACAD_REACTORS
330
6A0
102
}
330
1F
100
AcDbEntity
  8
LC-001-100-D00-0
 62
     7
370
    50
100
AcDbLine
 10
188.093428
 20
409.431609
 30
0.0
 11
188.093428
 21
407.931609
 31
0.0
  0
LINE
  5
365
102
{ACAD_REACTORS
330
6A0
102
}
330
1F
100
AcDbEntity
  8
LC-001-100-D00-0
 62
     7
370
    50
100
AcDbLine
 10
188.093428
 20
409.431609
 30
0.0
 11
192.093428
 21
409.431609
 31
0.0
  0
LINE
  5
366
102
{ACAD_REACTORS
330
6A0
102
}
330
1F
100
AcDbEntity
  8
LC-001-100-D00-0
 62
     7
370
    50
100
AcDbLine
 10
192.093428
 20
409.431609
 30
0.0
 11
192.093428
 21
413.931608
 31
0.0
  0
ARC
  5
367
102
{ACAD_REACTORS
330
6A0
102
}
330
1F
100
AcDbEntity
  8
LC-001-100-D00-0
 62
     7
370
    50
100
AcDbCircle
 10
197.593428
 20
413.931609
 30
0.0
 40
5.499999999999886
100
AcDbArc
 50
90.0
 51
180.0
  0
LINE
  5
368
102
{ACAD_REACTORS
330
6A0
102
}
330
1F
100
AcDbEntity
  8
LC-001-100-D00-0
 62
     7
370
    50
100
AcDbLine
 10
287.593428
 20
419.431608
 30
0.0
 11
197.593428
 21
419.431608
 31
0.0
  0
ARC
  5
369
102
{ACAD_REACTORS
330
6A0
102
}
330
1F
100
AcDbEntity
  8
LC-001-100-D00-0
 62
     7
370
    50
100
AcDbCircle
 10
287.593428
 20
413.931609
 30
0.0
 40
5.5
100
AcDbArc
 50
0.0
 51
90.0
  0
LINE
  5
36A
102
{ACAD_REACTORS
330
6A0
102
}
330
1F
100
AcDbEntity
  8
LC-001-100-D00-0
 62
     7
370
    50
100
AcDbLine
 10
293.093428
 20
413.931608
 30
0.0
 11
293.093428
 21
409.431609
 31
0.0
  0
LINE
  5
36B
102
{ACAD_REACTORS
330
6A0
102
}
330
1F
100
AcDbEntity
  8
LC-001-100-D00-0
 62
     7
370
    50
100
AcDbLine
 10
293.093428
 20
409.431609
 30
0.0
 11
297.093429
 21
409.431609
 31
0.0
  0
LINE
  5
36C
102
{ACAD_REACTORS
330
6A0
102
}
330
1F
100
AcDbEntity
  8
LC-001-100-D00-0
 62
     7
370
    50
100
AcDbLine
 10
297.093429
 20
407.931609
 30
0.0
 11
297.093429
 21
409.431609
 31
0.0
  0
LINE
  5
36D
102
{ACAD_REACTORS
330
6A0
102
}
330
1F
100
AcDbEntity
  8
LC-001-100-D00-0
 62
     7
370
    50
100
AcDbLine
 10
295.093429
 20
407.931609
 30
0.0
 11
297.093429
 21
407.931609
 31
0.0
  0
LINE
  5
36E
102
{ACAD_REACTORS
330
6A0
102
}
330
1F
100
AcDbEntity
  8
LC-001-100-D00-0
 62
     7
370
    50
100
AcDbLine
 10
295.093429
 20
407.931609
 30
0.0
 11
295.093429
 21
404.431609
 31
0.0
  0
LINE
  5
36F
102
{ACAD_REACTORS
330
6A0
102
}
330
1F
100
AcDbEntity
  8
LC-001-100-D00-0
 62
     7
370
    50
100
AcDbLine
 10
295.093429
 20
404.431609
 30
0.0
 11
297.093429
 21
404.431609
 31
0.0
  0
LINE
  5
370
102
{ACAD_REACTORS
330
6A0
102
}
330
1F
100
AcDbEntity
  8
LC-001-100-D00-0
 62
     7
370
    50
100
AcDbLine
 10
291.593429
 20
402.931609
 30
0.0
 11
297.093429
 21
402.931609
 31
0.0
  0
ARC
  5
371
102
{ACAD_REACTORS
330
6A0
102
}
330
1F
100
AcDbEntity
  8
LC-001-100-D00-0
 62
     7
370
    50
100
AcDbCircle
 10
287.593428
 20
413.931609
 30
0.0
 40
4.000000000000114
100
AcDbArc
 50
0.0
 51
90.0
  0
LINE
  5
372
102
{ACAD_REACTORS
330
6A0
102
}
330
1F
100
AcDbEntity
  8
LC-001-100-D00-0
 62
     7
370
    50
100
AcDbLine
 10
287.593428
 20
417.931609
 30
0.0
 11
197.593428
 21
417.931609
 31
0.0
  0
ARC
  5
373
102
{ACAD_REACTORS
330
6A0
102
}
330
1F
100
AcDbEntity
  8
LC-001-100-D00-0
 62
     7
370
    50
100
AcDbCircle
 10
197.593428
 20
413.931609
 30
0.0
 40
4.0
100
AcDbArc
 50
90.0
 51
180.0
  0
LINE
  5
374
102
{ACAD_REACTORS
330
6A0
102
}
330
1F
100
AcDbEntity
  8
LC-001-100-D00-0
 62
     7
370
    50
100
AcDbLine
 10
292.036046
 20
378.931609
 30
0.0
 11
291.036044
 21
378.931609
 31
0.0
  0
LINE
  5
375
102
{ACAD_REACTORS
330
6A0
102
}
330
1F
100
AcDbEntity
  8
LC-001-100-D00-0
 62
     7
370
    50
100
AcDbLine
 10
194.150813
 20
378.931609
 30
0.0
 11
291.036044
 21
378.931609
 31
0.0
  0
LINE
  5
376
102
{ACAD_REACTORS
330
6A0
102
}
330
1F
100
AcDbEntity
  8
LC-001-100-D00-0
 62
     7
370
    50
100
AcDbLine
 10
194.150813
 20
378.931609
 30
0.0
 11
193.150811
 21
378.931609
 31
0.0
  0
LINE
  5
377
102
{ACAD_REACTORS
330
6A0
102
}
330
1F
100
AcDbEntity
  8
LC-001-100-D00-0
 62
     7
370
    50
100
AcDbLine
 10
301.593427
 20
405.931609
 30
0.0
 11
299.393427
 21
405.931609
 31
0.0
  0
LINE
  5
378
102
{ACAD_REACTORS
330
6A0
102
}
330
1F
100
AcDbEntity
  8
LC-001-100-D00-0
 62
     7
370
    50
100
AcDbLine
 10
301.593427
 20
406.557624
 30
0.0
 11
301.593427
 21
405.931609
 31
0.0
  0
LINE
  5
379
102
{ACAD_REACTORS
330
6A0
102
}
330
1F
100
AcDbEntity
  8
LC-001-100-D00-0
 62
     7
370
    50
100
AcDbLine
 10
177.593429
 20
405.931609
 30
0.0
 11
177.593429
 21
409.93161
 31
0.0
  0
LINE
  5
37A
102
{ACAD_REACTORS
330
6A0
102
}
330
1F
100
AcDbEntity
  8
LC-001-100-D00-0
 62
     7
370
    50
100
AcDbLine
 10
183.21323
 20
409.93161
 30
0.0
 11
177.593429
 21
409.93161
 31
0.0
  0
ARC
  5
37B
102
{ACAD_REACTORS
330
6A0
102
}
330
1F
100
AcDbEntity
  8
LC-001-100-D00-0
 62
     7
370
    50
100
AcDbCircle
 10
183.213229
 20
408.931609
 30
0.0
 40
0.9999999999999849
100
AcDbArc
 50
48.366461
 51
90.0
  0
LINE
  5
37C
102
{ACAD_REACTORS
330
6A0
102
}
330
1F
100
AcDbEntity
  8
LC-001-100-D00-0
 62
     7
370
    50
100
AcDbLine
 10
187.229682
 20
406.699386
 30
0.0
 11
183.877591
 21
409.679018
 31
0.0
  0
ARC
  5
37D
102
{ACAD_REACTORS
330
6A0
102
}
330
1F
100
AcDbEntity
  8
LC-001-100-D00-0
 62
     7
370
    50
100
AcDbCircle
 10
187.030371
 20
406.475162
 30
0.0
 40
0.3000000000001588
100
AcDbArc
 50
257.471192
 51
48.366461
  0
LINE
  5
37E
102
{ACAD_REACTORS
330
6A0
102
}
330
1F
100
AcDbEntity
  8
LC-001-100-D00-0
 62
     7
370
    50
100
AcDbLine
 10
183.958508
 20
406.85048
 30
0.0
 11
186.965291
 21
406.182306
 31
0.0
  0
ARC
  5
37F
102
{ACAD_REACTORS
330
6A0
102
}
330
1F
100
AcDbEntity
  8
LC-001-100-D00-0
 62
     7
370
    50
100
AcDbCircle
 10
183.893428
 20
406.557624
 30
0.0
 40
0.2999999999999368
100
AcDbArc
 50
77.471192
 51
180.0
  0
LINE
  5
380
102
{ACAD_REACTORS
330
6A0
102
}
330
1F
100
AcDbEntity
  8
LC-001-100-D00-0
 62
     7
370
    50
100
AcDbLine
 10
183.59343
 20
405.931609
 30
0.0
 11
183.59343
 21
406.557624
 31
0.0
  0
LINE
  5
381
102
{ACAD_REACTORS
330
6A0
102
}
330
1F
100
AcDbEntity
  8
LC-001-100-D00-0
 62
     7
370
    50
100
AcDbLine
 10
183.59343
 20
405.931609
 30
0.0
 11
177.593429
 21
405.931609
 31
0.0
  0
LINE
  5
382
102
{ACAD_REACTORS
330
6A0
102
}
330
1F
100
AcDbEntity
  8
LC-001-100-D00-0
 62
     7
370
    50
100
AcDbLine
 10
307.593432
 20
409.93161
 30
0.0
 11
307.593432
 21
405.931609
 31
0.0
  0
LINE
  5
383
102
{ACAD_REACTORS
330
6A0
102
}
330
1F
100
AcDbEntity
  8
LC-001-100-D00-0
 62
     7
370
    50
100
AcDbLine
 10
185.79343
 20
405.931609
 30
0.0
 11
183.59343
 21
405.931609
 31
0.0
  0
LINE
  5
384
102
{ACAD_REACTORS
330
6A0
102
}
330
1F
100
AcDbEntity
  8
LC-001-100-D00-0
 62
     7
370
    50
100
AcDbLine
 10
298.221566
 20
406.182306
 30
0.0
 11
301.228348
 21
406.85048
 31
0.0
  0
ARC
  5
385
102
{ACAD_REACTORS
330
6A0
102
}
330
1F
100
AcDbEntity
  8
LC-001-100-D00-0
 62
     7
370
    50
100
AcDbCircle
 10
298.156485
 20
406.475162
 30
0.0
 40
0.300000000000087
100
AcDbArc
 50
131.633539
 51
282.528808
  0
LINE
  5
386
102
{ACAD_REACTORS
330
6A0
102
}
330
1F
100
AcDbEntity
  8
LC-001-100-D00-0
 62
     7
370
    50
100
AcDbLine
 10
301.309265
 20
409.679018
 30
0.0
 11
297.957175
 21
406.699386
 31
0.0
  0
ARC
  5
387
102
{ACAD_REACTORS
330
6A0
102
}
330
1F
100
AcDbEntity
  8
LC-001-100-D00-0
 62
     7
370
    50
100
AcDbCircle
 10
301.973628
 20
408.931609
 30
0.0
 40
0.9999999999998863
100
AcDbArc
 50
90.0
 51
131.633539
  0
ARC
  5
388
102
{ACAD_REACTORS
330
6A0
102
}
330
1F
100
AcDbEntity
  8
LC-001-100-D00-0
 62
     7
370
    50
100
AcDbCircle
 10
301.293428
 20
406.557624
 30
0.0
 40
0.3000000000000682
100
AcDbArc
 50
0.0
 51
102.528808
  0
LINE
  5
389
102
{ACAD_REACTORS
330
6A0
102
}
330
1F
100
AcDbEntity
  8
LC-001-100-D00-0
 62
     7
370
    50
100
AcDbLine
 10
307.593432
 20
409.93161
 30
0.0
 11
301.973626
 21
409.93161
 31
0.0
  0
LINE
  5
38A
102
{ACAD_REACTORS
330
6A0
102
}
330
1F
100
AcDbEntity
  8
LC-001-100-D00-0
 62
     7
370
    50
100
AcDbLine
 10
307.593432
 20
405.931609
 30
0.0
 11
301.593427
 21
405.931609
 31
0.0
  0
LINE
  5
38B
102
{ACAD_REACTORS
330
6A0
102
}
330
1F
100
AcDbEntity
  8
LC-001-100-D00-0
 62
     7
370
    50
100
AcDbLine
 10
310.093429
 20
406.931609
 30
0.0
 11
310.093429
 21
402.931609
 31
0.0
  0
LINE
  5
38C
102
{ACAD_REACTORS
330
6A0
102
}
330
1F
100
AcDbEntity
  8
LC-001-100-D00-0
 62
     7
370
    50
100
AcDbLine
 10
304.093428
 20
405.931609
 30
0.0
 11
304.093428
 21
402.931609
 31
0.0
  0
LINE
  5
38D
102
{ACAD_REACTORS
330
6A0
102
}
330
1F
100
AcDbEntity
  8
LC-001-100-D00-0
 62
     7
370
    50
100
AcDbLine
 10
297.093429
 20
402.931609
 30
0.0
 11
304.093428
 21
402.931609
 31
0.0
  0
LINE
  5
38E
102
{ACAD_REACTORS
330
6A0
102
}
330
1F
100
AcDbEntity
  8
LC-001-100-D00-0
 62
     7
370
    50
100
AcDbLine
 10
181.093429
 20
405.931609
 30
0.0
 11
178.09343
 21
405.931609
 31
0.0
  0
LINE
  5
38F
102
{ACAD_REACTORS
330
6A0
102
}
330
1F
100
AcDbEntity
  8
LC-001-100-D00-0
 62
     7
370
    50
100
AcDbLine
 10
181.093429
 20
402.931609
 30
0.0
 11
181.093429
 21
405.931609
 31
0.0
  0
LINE
  5
390
102
{ACAD_REACTORS
330
6A0
102
}
330
1F
100
AcDbEntity
  8
LC-001-100-D00-0
 62
     7
370
    50
100
AcDbLine
 10
175.093431
 20
402.931609
 30
0.0
 11
175.093431
 21
406.931609
 31
0.0
  0
LINE
  5
391
102
{ACAD_REACTORS
330
6A0
102
}
330
1F
100
AcDbEntity
  8
LC-001-100-D00-0
 62
     7
370
    50
100
AcDbLine
 10
172.093425
 20
405.431609
 30
0.0
 11
172.093425
 21
406.931609
 31
0.0
  0
LINE
  5
392
102
{ACAD_REACTORS
330
6A0
102
}
330
1F
100
AcDbEntity
  8
LC-001-100-D00-0
 62
     7
370
    50
100
AcDbLine
 10
169.093427
 20
405.431609
 30
0.0
 11
169.093427
 21
409.93161
 31
0.0
  0
LINE
  5
393
102
{ACAD_REACTORS
330
6A0
102
}
330
1F
100
AcDbEntity
  8
LC-001-100-D00-0
 62
     7
370
    50
100
AcDbLine
 10
178.09343
 20
409.93161
 30
0.0
 11
169.093427
 21
409.93161
 31
0.0
  0
LINE
  5
394
102
{ACAD_REACTORS
330
6A0
102
}
330
1F
100
AcDbEntity
  8
LC-001-100-D00-0
 62
     7
370
    50
100
AcDbLine
 10
178.09343
 20
409.93161
 30
0.0
 11
178.09343
 21
405.931609
 31
0.0
  0
LINE
  5
395
102
{ACAD_REACTORS
330
6A0
102
}
330
1F
100
AcDbEntity
  8
LC-001-100-D00-0
 62
     7
370
    50
100
AcDbLine
 10
169.093427
 20
405.431609
 30
0.0
 11
172.093425
 21
405.431609
 31
0.0
  0
LINE
  5
396
102
{ACAD_REACTORS
330
6A0
102
}
330
1F
100
AcDbEntity
  8
LC-001-100-D00-0
 62
     7
370
    50
100
AcDbLine
 10
175.093431
 20
402.931609
 30
0.0
 11
181.093429
 21
402.931609
 31
0.0
  0
LINE
  5
397
102
{ACAD_REACTORS
330
6A0
102
}
330
1F
100
AcDbEntity
  8
LC-001-100-D00-0
 62
     7
370
    50
100
AcDbLine
 10
172.093425
 20
406.931609
 30
0.0
 11
175.093431
 21
406.931609
 31
0.0
  0
LINE
  5
398
102
{ACAD_REACTORS
330
6A0
102
}
330
1F
100
AcDbEntity
  8
LC-001-100-D00-0
 62
     7
370
    50
100
AcDbLine
 10
316.093426
 20
409.93161
 30
0.0
 11
307.093431
 21
409.93161
 31
0.0
  0
LINE
  5
399
102
{ACAD_REACTORS
330
6A0
102
}
330
1F
100
AcDbEntity
  8
LC-001-100-D00-0
 62
     7
370
    50
100
AcDbLine
 10
316.093426
 20
409.93161
 30
0.0
 11
316.093426
 21
405.431609
 31
0.0
  0
LINE
  5
39A
102
{ACAD_REACTORS
330
6A0
102
}
330
1F
100
AcDbEntity
  8
LC-001-100-D00-0
 62
     7
370
    50
100
AcDbLine
 10
313.093428
 20
406.931609
 30
0.0
 11
313.093428
 21
405.431609
 31
0.0
  0
LINE
  5
39B
102
{ACAD_REACTORS
330
6A0
102
}
330
1F
100
AcDbEntity
  8
LC-001-100-D00-0
 62
     7
370
    50
100
AcDbLine
 10
307.093431
 20
405.931609
 30
0.0
 11
304.093428
 21
405.931609
 31
0.0
  0
LINE
  5
39C
102
{ACAD_REACTORS
330
6A0
102
}
330
1F
100
AcDbEntity
  8
LC-001-100-D00-0
 62
     7
370
    50
100
AcDbLine
 10
307.093431
 20
405.931609
 30
0.0
 11
307.093431
 21
409.93161
 31
0.0
  0
LINE
  5
39D
102
{ACAD_REACTORS
330
6A0
102
}
330
1F
100
AcDbEntity
  8
LC-001-100-D00-0
 62
     7
370
    50
100
AcDbLine
 10
313.093428
 20
405.431609
 30
0.0
 11
316.093426
 21
405.431609
 31
0.0
  0
LINE
  5
39E
102
{ACAD_REACTORS
330
6A0
102
}
330
1F
100
AcDbEntity
  8
LC-001-100-D00-0
 62
     7
370
    50
100
AcDbLine
 10
304.093428
 20
402.931609
 30
0.0
 11
310.093429
 21
402.931609
 31
0.0
  0
LINE
  5
39F
102
{ACAD_REACTORS
330
6A0
102
}
330
1F
100
AcDbEntity
  8
LC-001-100-D00-0
 62
     7
370
    50
100
AcDbLine
 10
310.093429
 20
406.931609
 30
0.0
 11
313.093428
 21
406.931609
 31
0.0
  0
LINE
  5
3A0
102
{ACAD_REACTORS
330
6A0
102
}
330
1F
100
AcDbEntity
  8
LC-001-100-D00-0
 62
     7
370
    50
100
AcDbLine
 10
181.093429
 20
402.931609
 30
0.0
 11
188.093428
 21
402.931609
 31
0.0
  0
LINE
  5
3A1
102
{ACAD_REACTORS
330
6A0
102
}
330
1F
100
AcDbEntity
  8
LC-001-100-D00-0
 62
     7
370
    50
100
AcDbLine
 10
310.093429
 20
405.431609
 30
0.0
 11
313.093428
 21
405.431609
 31
0.0
  0
LINE
  5
3A2
102
{ACAD_REACTORS
330
6A0
102
}
330
1F
100
AcDbEntity
  8
LC-001-100-D00-0
 62
     7
370
    50
100
AcDbLine
 10
172.093425
 20
405.431609
 30
0.0
 11
175.093431
 21
405.431609
 31
0.0
  0
ARC
  5
3A3
102
{ACAD_REACTORS
330
6A0
102
}
330
1F
100
AcDbEntity
  8
LC-001-100-D00-0
 62
     7
370
    50
100
AcDbCircle
 10
306.093428
 20
378.931609
 30
0.0
 40
7.0
100
AcDbArc
 50
270.0
 51
0.0
  0
LINE
  5
3A4
102
{ACAD_REACTORS
330
6A0
102
}
330
1F
100
AcDbEntity
  8
LC-001-100-D00-0
 62
     7
370
    50
100
AcDbLine
 10
313.093428
 20
406.931609
 30
0.0
 11
313.093428
 21
378.931609
 31
0.0
  0
LINE
  5
3A5
102
{ACAD_REACTORS
330
6A0
102
}
330
1F
100
AcDbEntity
  8
LC-001-100-D00-0
 62
     7
370
    50
100
AcDbLine
 10
172.093425
 20
378.931609
 30
0.0
 11
172.093425
 21
406.931609
 31
0.0
  0
ARC
  5
3A6
102
{ACAD_REACTORS
330
6A0
102
}
330
1F
100
AcDbEntity
  8
LC-001-100-D00-0
 62
     7
370
    50
100
AcDbCircle
 10
179.093428
 20
378.931609
 30
0.0
 40
7.0
100
AcDbArc
 50
180.0
 51
270.0
  0
LINE
  5
3A7
102
{ACAD_REACTORS
330
6A0
102
}
330
1F
100
AcDbEntity
  8
LC-001-100-D00-0
 62
     7
370
    50
100
AcDbLine
 10
306.093429
 20
371.931609
 30
0.0
 11
179.093432
 21
371.931609
 31
0.0
  0
LINE
  5
3A8
102
{ACAD_REACTORS
330
6A0
102
}
330
1F
100
AcDbEntity
  8
LC-001-100-D00-0
 62
     7
370
    50
100
AcDbLine
 10
316.093426
 20
406.931609
 30
0.0
 11
316.093426
 21
378.931609
 31
0.0
  0
ARC
  5
3A9
102
{ACAD_REACTORS
330
6A0
102
}
330
1F
100
AcDbEntity
  8
LC-001-100-D00-0
 62
     7
370
    50
100
AcDbCircle
 10
306.093428
 20
378.931609
 30
0.0
 40
10.0
100
AcDbArc
 50
270.0
 51
0.0
  0
LINE
  5
3AA
102
{ACAD_REACTORS
330
6A0
102
}
330
1F
100
AcDbEntity
  8
LC-001-100-D00-0
 62
     7
370
    50
100
AcDbLine
 10
306.093429
 20
368.931608
 30
0.0
 11
179.093432
 21
368.931608
 31
0.0
  0
ARC
  5
3AB
102
{ACAD_REACTORS
330
6A0
102
}
330
1F
100
AcDbEntity
  8
LC-001-100-D00-0
 62
     7
370
    50
100
AcDbCircle
 10
179.093428
 20
378.931609
 30
0.0
 40
10.0
100
AcDbArc
 50
180.0
 51
270.0
  0
LINE
  5
3AC
102
{ACAD_REACTORS
330
6A0
102
}
330
1F
100
AcDbEntity
  8
LC-001-100-D00-0
 62
     7
370
    50
100
AcDbLine
 10
169.093427
 20
378.931609
 30
0.0
 11
169.093427
 21
406.931609
 31
0.0
  0
LINE
  5
3AD
102
{ACAD_REACTORS
330
6A0
102
}
330
1F
100
AcDbEntity
  8
LC-001-100-D00-0
 62
     7
370
    50
100
AcDbLine
 10
172.093425
 20
406.931609
 30
0.0
 11
169.093427
 21
406.931609
 31
0.0
  0
LINE
  5
3AE
102
{ACAD_REACTORS
330
6A0
102
}
330
1F
100
AcDbEntity
  8
LC-001-100-D00-0
 62
     7
370
    50
100
AcDbLine
 10
316.093426
 20
406.931609
 30
0.0
 11
313.093428
 21
406.931609
 31
0.0
  0
INSERT
  5
3BB
102
{ACAD_REACTORS
330
6A0
102
}
330
1F
100
AcDbEntity
  8
LC-001-100-D00-0
 62
     7
370
    25
100
AcDbBlockReference
  2
KLON24
 10
0.0
 20
0.0
 30
0.0
  0
LINE
  5
3BC
102
{ACAD_REACTORS
330
6A0
102
}
330
1F
100
AcDbEntity
  8
LC-001-100-D00-0
 62
     7
370
    25
100
AcDbLine
 10
300.249806
 20
406.633026
 30
0.0
 11
303.548388
 21
409.931609
 31
0.0
  0
INSERT
  5
3C8
102
{ACAD_REACTORS
330
6A0
102
}
330
1F
100
AcDbEntity
  8
LC-001-100-D00-0
 62
     7
370
    25
100
AcDbBlockReference
  2
KLON25
 10
0.0
 20
0.0
 30
0.0
  0
DIMENSION
  5
3C9
102
{ACAD_REACTORS
330
6A0
102
}
330
1F
100
AcDbEntity
  8
LC-001-100-D00-0
 62
     7
370
    25
100
AcDbDimension
  2
*D32
 10
316.093428
 20
283.759293
 30
0.0
 11
235.090337
 21
338.759293
 31
0.0
 70
   160
  1
147
 71
     5
 42
147.0
  3
LC-DIM-L-0100-02-02
100
AcDbAlignedDimension
 13
169.093428
 23
378.931609
 33
0.0
 14
316.093428
 24
378.931609
 34
0.0
100
AcDbRotatedDimension
  0
LINE
  5
3D6
102
{ACAD_REACTORS
330
6A0
102
}
330
1F
100
AcDbEntity
  8
LC-001-100-D00-0
  6
DASHDOT
 62
     7
370
    25
100
AcDbLine
 10
244.160461
 20
436.931608
 30
0.0
 11
244.160461
 21
368.931608
 31
0.0
  0
LINE
  5
3D7
330
1F
100
AcDbEntity
  8
LC-001-100-D00-0
 62
     7
370
    50
100
AcDbLine
 10
212.093436
 20
82.664274
 30
0.0
 11
273.093436
 21
82.664274
 31
0.0
  0
INSERT
  5
3DD
330
1F
100
AcDbEntity
  8
LC-001-100-D00-0
 62
     7
370
    50
100
AcDbBlockReference
  2
KLON26
 10
0.0
 20
0.0
 30
0.0
  0
ARC
  5
3DE
330
1F
100
AcDbEntity
  8
LC-001-100-D00-0
 62
     7
370
    50
100
AcDbCircle
 10
273.093436
 20
57.901216
 30
0.0
 40
24.76305695180431
100
AcDbArc
 50
286.637155
 51
62.523751
  0
LINE
  5
3DF
330
1F
100
AcDbEntity
  8
LC-001-100-D00-0
 62
     7
370
    50
100
AcDbLine
 10
274.230814
 20
33.164294
 30
0.0
 11
273.093436
 21
33.138159
 31
0.0
  0
INSERT
  5
3E5
330
1F
100
AcDbEntity
  8
LC-001-100-D00-0
 62
     7
370
    50
100
AcDbBlockReference
  2
KLON27
 10
0.0
 20
0.0
 30
0.0
  0
ARC
  5
3E6
330
1F
100
AcDbEntity
  8
LC-001-100-D00-0
 62
     7
370
    50
100
AcDbCircle
 10
212.093436
 20
57.901216
 30
0.0
 40
24.76305695180422
100
AcDbArc
 50
109.469149
 51
245.19649
  0
LINE
  5
3E7
330
1F
100
AcDbEntity
  8
LC-001-100-D00-0
 62
     7
370
    50
100
AcDbLine
 10
210.497544
 20
82.612796
 30
0.0
 11
212.093436
 21
82.664274
 31
0.0
  0
LINE
  5
3E8
330
1F
100
AcDbEntity
  8
LC-001-100-D00-0
 62
     7
370
    50
100
AcDbLine
 10
273.093436
 20
33.138159
 30
0.0
 11
212.093436
 21
33.138159
 31
0.0
  0
INSERT
  5
3F8
330
1F
100
AcDbEntity
  8
LC-001-100-D00-0
 62
     7
370
    50
100
AcDbBlockReference
  2
POLY1
 10
0.0
 20
0.0
 30
0.0
  0
INSERT
  5
408
330
1F
100
AcDbEntity
  8
LC-001-100-D00-0
 62
     7
370
    50
100
AcDbBlockReference
  2
POLY2
 10
0.0
 20
0.0
 30
0.0
  0
INSERT
  5
418
330
1F
100
AcDbEntity
  8
LC-001-100-D00-0
 62
     7
370
    50
100
AcDbBlockReference
  2
POLY3
 10
0.0
 20
0.0
 30
0.0
  0
INSERT
  5
428
330
1F
100
AcDbEntity
  8
LC-001-100-D00-0
 62
     7
370
    50
100
AcDbBlockReference
  2
POLY4
 10
0.0
 20
0.0
 30
0.0
  0
LINE
  5
429
330
1F
100
AcDbEntity
  8
LC-001-100-D00-0
 62
     7
370
    50
100
AcDbLine
 10
212.093436
 20
82.701217
 30
0.0
 11
273.093436
 21
82.701217
 31
0.0
  0
LINE
  5
42A
330
1F
100
AcDbEntity
  8
LC-001-100-D00-0
 62
     7
370
    50
100
AcDbLine
 10
273.093436
 20
33.101216
 30
0.0
 11
212.093436
 21
33.101216
 31
0.0
  0
ARC
  5
42B
330
1F
100
AcDbEntity
  8
LC-001-100-D00-0
 62
     7
370
    50
100
AcDbCircle
 10
273.093436
 20
57.901216
 30
0.0
 40
24.7999999999944
100
AcDbArc
 50
300.592814
 51
59.407186
  0
ARC
  5
42C
330
1F
100
AcDbEntity
  8
LC-001-100-D00-0
 62
     7
370
    50
100
AcDbCircle
 10
212.093436
 20
57.901216
 30
0.0
 40
24.79999999999429
100
AcDbArc
 50
120.592814
 51
239.407186
  0
LINE
  5
42D
330
1F
100
AcDbEntity
  8
LC-001-100-D00-0
 62
     7
370
    50
100
AcDbLine
 10
202.544086
 20
80.441179
 30
0.0
 11
202.628442
 21
80.282099
 31
0.0
  0
LINE
  5
42E
330
1F
100
AcDbEntity
  8
LC-001-100-D00-0
 62
     7
370
    50
100
AcDbLine
 10
197.443519
 20
77.288583
 30
0.0
 11
197.347932
 21
77.441178
 31
0.0
  0
LINE
  5
42F
330
1F
100
AcDbEntity
  8
LC-001-100-D00-0
 62
     7
370
    50
100
AcDbLine
 10
287.83894
 20
77.441178
 30
0.0
 11
287.743353
 21
77.288583
 31
0.0
  0
LINE
  5
430
330
1F
100
AcDbEntity
  8
LC-001-100-D00-0
 62
     7
370
    50
100
AcDbLine
 10
282.558431
 20
80.282099
 30
0.0
 11
282.642786
 21
80.441179
 31
0.0
  0
LINE
  5
431
330
1F
100
AcDbEntity
  8
LC-001-100-D00-0
 62
     7
370
    50
100
AcDbLine
 10
197.347932
 20
38.361255
 30
0.0
 11
197.443519
 21
38.51385
 31
0.0
  0
LINE
  5
432
330
1F
100
AcDbEntity
  8
LC-001-100-D00-0
 62
     7
370
    50
100
AcDbLine
 10
202.628442
 20
35.520334
 30
0.0
 11
202.544086
 21
35.361254
 31
0.0
  0
INSERT
  5
442
330
1F
100
AcDbEntity
  8
LC-001-100-D00-0
 62
     7
370
    50
100
AcDbBlockReference
  2
POLY5
 10
0.0
 20
0.0
 30
0.0
  0
LINE
  5
443
330
1F
100
AcDbEntity
  8
LC-001-100-D00-0
 62
     7
370
    50
100
AcDbLine
 10
282.642786
 20
35.361254
 30
0.0
 11
282.558431
 21
35.520334
 31
0.0
  0
LINE
  5
444
330
1F
100
AcDbEntity
  8
LC-001-100-D00-0
 62
     7
370
    50
100
AcDbLine
 10
287.743353
 20
38.51385
 30
0.0
 11
287.83894
 21
38.361255
 31
0.0
  0
INSERT
  5
454
330
1F
100
AcDbEntity
  8
LC-001-100-D00-0
 62
     7
370
    50
100
AcDbBlockReference
  2
POLY6
 10
0.0
 20
0.0
 30
0.0
  0
LINE
  5
455
330
1F
100
AcDbEntity
  8
LC-001-100-D00-0
 62
     7
370
    50
100
AcDbLine
 10
282.558431
 20
80.282099
 30
0.0
 11
282.443949
 21
80.004789
 31
0.0
  0
LINE
  5
456
330
1F
100
AcDbEntity
  8
LC-001-100-D00-0
 62
     7
370
    50
100
AcDbLine
 10
287.560434
 20
77.050784
 30
0.0
 11
287.743353
 21
77.288583
 31
0.0
  0
LINE
  5
457
330
1F
100
AcDbEntity
  8
LC-001-100-D00-0
 62
     7
370
    50
100
AcDbLine
 10
202.742924
 20
80.004789
 30
0.0
 11
202.628442
 21
80.282099
 31
0.0
  0
LINE
  5
458
330
1F
100
AcDbEntity
  8
LC-001-100-D00-0
 62
     7
370
    50
100
AcDbLine
 10
197.443519
 20
77.288583
 30
0.0
 11
197.626435
 21
77.050784
 31
0.0
  0
LINE
  5
459
330
1F
100
AcDbEntity
  8
LC-001-100-D00-0
 62
     7
370
    50
100
AcDbLine
 10
202.628442
 20
35.520334
 30
0.0
 11
202.742924
 21
35.797644
 31
0.0
  0
LINE
  5
45A
330
1F
100
AcDbEntity
  8
LC-001-100-D00-0
 62
     7
370
    50
100
AcDbLine
 10
197.626435
 20
38.751649
 30
0.0
 11
197.443519
 21
38.51385
 31
0.0
  0
LINE
  5
45B
330
1F
100
AcDbEntity
  8
LC-001-100-D00-0
 62
     7
370
    50
100
AcDbLine
 10
282.443949
 20
35.797644
 30
0.0
 11
282.558431
 21
35.520334
 31
0.0
  0
LINE
  5
45C
330
1F
100
AcDbEntity
  8
LC-001-100-D00-0
 62
     7
370
    50
100
AcDbLine
 10
287.743353
 20
38.51385
 30
0.0
 11
287.560434
 21
38.751649
 31
0.0
  0
ARC
  5
45D
330
1F
100
AcDbEntity
  8
LC-001-100-D00-0
 62
     7
370
    50
100
AcDbCircle
 10
273.093436
 20
57.901216
 30
0.0
 40
20.00000000000017
100
AcDbArc
 50
270.0
 51
17.615731
  0
ARC
  5
45E
330
1F
100
AcDbEntity
  8
LC-001-100-D00-0
 62
     7
370
    50
100
AcDbCircle
 10
291.202481
 20
63.651216
 30
0.0
 40
1.000000000000185
100
AcDbArc
 50
17.615731
 51
90.0
  0
ARC
  5
45F
330
1F
100
AcDbEntity
  8
LC-001-100-D00-0
 62
     7
370
    50
100
AcDbCircle
 10
193.984391
 20
63.651216
 30
0.0
 40
1.0
100
AcDbArc
 50
90.0
 51
162.384269
  0
ARC
  5
460
330
1F
100
AcDbEntity
  8
LC-001-100-D00-0
 62
     7
370
    50
100
AcDbCircle
 10
212.093436
 20
57.901216
 30
0.0
 40
20.00000000000007
100
AcDbArc
 50
162.384269
 51
270.0
  0
LINE
  5
461
330
1F
100
AcDbEntity
  8
LC-001-100-D00-0
 62
     7
370
    50
100
AcDbLine
 10
193.98439
 20
64.651217
 30
0.0
 11
291.202482
 21
64.651217
 31
0.0
  0
LINE
  5
462
330
1F
100
AcDbEntity
  8
LC-001-100-D00-0
 62
     7
370
    50
100
AcDbLine
 10
273.093436
 20
37.901217
 30
0.0
 11
212.093436
 21
37.901217
 31
0.0
  0
ARC
  5
463
330
1F
100
AcDbEntity
  8
LC-001-100-D00-0
 62
     7
370
    50
100
AcDbCircle
 10
273.093436
 20
57.901216
 30
0.0
 40
18.50000000000021
100
AcDbArc
 50
21.399266
 51
90.0
  0
ARC
  5
464
330
1F
100
AcDbEntity
  8
LC-001-100-D00-0
 62
     7
370
    50
100
AcDbCircle
 10
212.093436
 20
57.901216
 30
0.0
 40
18.49999999999994
100
AcDbArc
 50
90.0
 51
158.600734
  0
LINE
  5
465
330
1F
100
AcDbEntity
  8
LC-001-100-D00-0
 62
     7
370
    50
100
AcDbLine
 10
212.093436
 20
33.901216
 30
0.0
 11
273.093436
 21
33.901216
 31
0.0
  0
ARC
  5
466
330
1F
100
AcDbEntity
  8
LC-001-100-D00-0
 62
     7
370
    50
100
AcDbCircle
 10
212.093436
 20
57.901216
 30
0.0
 40
24.0
100
AcDbArc
 50
90.0
 51
270.0
  0
ARC
  5
467
330
1F
100
AcDbEntity
  8
LC-001-100-D00-0
 62
     7
370
    50
100
AcDbCircle
 10
273.093436
 20
57.901216
 30
0.0
 40
24.0
100
AcDbArc
 50
270.0
 51
90.0
  0
LINE
  5
468
330
1F
100
AcDbEntity
  8
LC-001-100-D00-0
 62
     7
370
    50
100
AcDbLine
 10
273.093436
 20
81.901217
 30
0.0
 11
212.093436
 21
81.901217
 31
0.0
  0
LINE
  5
469
330
1F
100
AcDbEntity
  8
LC-001-100-D00-0
 62
     7
370
    50
100
AcDbLine
 10
273.093436
 20
76.401217
 30
0.0
 11
212.093436
 21
76.401217
 31
0.0
  0
LINE
  5
46A
330
1F
100
AcDbEntity
  8
LC-001-100-D00-0
 62
     7
370
    50
100
AcDbLine
 10
187.977706
 20
52.276216
 30
0.0
 11
188.761924
 21
52.276216
 31
0.0
  0
LINE
  5
46B
330
1F
100
AcDbEntity
  8
LC-001-100-D00-0
 62
     7
370
    50
100
AcDbLine
 10
296.424948
 20
52.276216
 30
0.0
 11
297.209163
 21
52.276216
 31
0.0
  0
LINE
  5
46C
330
1F
100
AcDbEntity
  8
LC-001-100-D00-0
 62
     7
370
    50
100
AcDbLine
 10
188.533549
 20
50.276216
 30
0.0
 11
189.336911
 21
50.276216
 31
0.0
  0
LINE
  5
46D
330
1F
100
AcDbEntity
  8
LC-001-100-D00-0
 62
     7
370
    50
100
AcDbLine
 10
295.849961
 20
50.276216
 30
0.0
 11
296.653323
 21
50.276216
 31
0.0
  0
LINE
  5
46E
330
1F
100
AcDbEntity
  8
LC-001-100-D00-0
 62
     7
370
    50
100
AcDbLine
 10
-279.820628
 20
401.43161
 30
0.0
 11
-279.820628
 21
402.931611
 31
0.0
  0
LINE
  5
46F
330
1F
100
AcDbEntity
  8
LC-001-100-D00-0
 62
     7
370
    50
100
AcDbLine
 10
-364.530665
 20
368.93161
 30
0.0
 11
-291.530665
 21
368.93161
 31
0.0
  0
LINE
  5
470
330
1F
100
AcDbEntity
  8
LC-001-100-D00-0
 62
     7
370
    50
100
AcDbLine
 10
-317.262714
 20
418.93161
 30
0.0
 11
-364.530665
 21
418.93161
 31
0.0
  0
LINE
  5
471
330
1F
100
AcDbEntity
  8
LC-001-100-D00-0
 62
     7
370
    50
100
AcDbLine
 10
-364.530665
 20
418.93161
 30
0.0
 11
-367.530664
 21
418.127762
 31
0.0
  0
LINE
  5
472
330
1F
100
AcDbEntity
  8
LC-001-100-D00-0
 62
     7
370
    50
100
AcDbLine
 10
-367.530664
 20
369.735458
 30
0.0
 11
-364.530665
 21
368.93161
 31
0.0
  0
LINE
  5
473
330
1F
100
AcDbEntity
  8
LC-001-100-D00-0
 62
     7
370
    50
100
AcDbLine
 10
-271.280665
 20
429.93161
 30
0.0
 11
-271.280665
 21
419.43161
 31
0.0
  0
LINE
  5
474
330
1F
100
AcDbEntity
  8
LC-001-100-D00-0
 62
     7
370
    50
100
AcDbLine
 10
-251.780665
 20
418.93161
 30
0.0
 11
-251.780665
 21
429.93161
 31
0.0
  0
ARC
  5
475
330
1F
100
AcDbEntity
  8
LC-001-100-D00-0
 62
     7
370
    50
100
AcDbCircle
 10
-252.780665
 20
418.93161
 30
0.0
 40
1.000000000000114
100
AcDbArc
 50
270.0
 51
0.0
  0
ARC
  5
476
330
1F
100
AcDbEntity
  8
LC-001-100-D00-0
 62
     7
370
    50
100
AcDbCircle
 10
-335.030665
 20
314.93161
 30
0.0
 40
0.5
100
AcDbArc
 50
90.0
 51
180.0
  0
ARC
  5
477
330
1F
100
AcDbEntity
  8
LC-001-100-D00-0
 62
     7
370
    50
100
AcDbCircle
 10
-317.030665
 20
314.93161
 30
0.0
 40
0.5
100
AcDbArc
 50
0.0
 51
90.0
  0
LINE
  5
478
330
1F
100
AcDbEntity
  8
LC-001-100-D00-0
 62
     7
370
    50
100
AcDbLine
 10
-335.530666
 20
314.931608
 30
0.0
 11
-335.530666
 21
307.431608
 31
0.0
  0
LINE
  5
479
330
1F
100
AcDbEntity
  8
LC-001-100-D00-0
 62
     7
370
    50
100
AcDbLine
 10
-316.530665
 20
307.431608
 30
0.0
 11
-316.530665
 21
314.931608
 31
0.0
  0
LINE
  5
47A
330
1F
100
AcDbEntity
  8
LC-001-100-D00-0
 62
     7
370
    50
100
AcDbLine
 10
-336.030667
 20
368.93161
 30
0.0
 11
-336.030667
 21
330.43161
 31
0.0
  0
LINE
  5
47B
330
1F
100
AcDbEntity
  8
LC-001-100-D00-0
 62
     7
370
    50
100
AcDbLine
 10
-316.030664
 20
330.43161
 30
0.0
 11
-316.030664
 21
368.93161
 31
0.0
  0
LINE
  5
47C
330
1F
100
AcDbEntity
  8
LC-001-100-D00-0
 62
     7
370
    50
100
AcDbLine
 10
-336.030667
 20
326.93161
 30
0.0
 11
-336.030667
 21
316.431611
 31
0.0
  0
LINE
  5
47D
330
1F
100
AcDbEntity
  8
LC-001-100-D00-0
 62
     7
370
    50
100
AcDbLine
 10
-316.030664
 20
316.431611
 30
0.0
 11
-316.030664
 21
326.93161
 31
0.0
  0
LINE
  5
47E
330
1F
100
AcDbEntity
  8
LC-001-100-D00-0
 62
     7
370
    50
100
AcDbLine
 10
-336.030667
 20
316.431611
 30
0.0
 11
-335.030665
 21
315.431609
 31
0.0
  0
LINE
  5
47F
330
1F
100
AcDbEntity
  8
LC-001-100-D00-0
 62
     7
370
    50
100
AcDbLine
 10
-317.030666
 20
315.431609
 30
0.0
 11
-316.030664
 21
316.431611
 31
0.0
  0
LINE
  5
480
330
1F
100
AcDbEntity
  8
LC-001-100-D00-0
 62
     7
370
    50
100
AcDbLine
 10
-333.930669
 20
330.43161
 30
0.0
 11
-333.930669
 21
326.93161
 31
0.0
  0
LINE
  5
481
330
1F
100
AcDbEntity
  8
LC-001-100-D00-0
 62
     7
370
    50
100
AcDbLine
 10
-318.130666
 20
326.93161
 30
0.0
 11
-318.130666
 21
330.43161
 31
0.0
  0
ARC
  5
482
330
1F
100
AcDbEntity
  8
LC-001-100-D00-0
 62
     7
370
    50
100
AcDbCircle
 10
-232.530665
 20
433.93161
 30
0.0
 40
3.0
100
AcDbArc
 50
90.0
 51
180.0
  0
LINE
  5
483
330
1F
100
AcDbEntity
  8
LC-001-100-D00-0
 62
     7
370
    50
100
AcDbLine
 10
-232.530666
 20
436.93161
 30
0.0
 11
-218.530664
 21
436.93161
 31
0.0
  0
ARC
  5
484
330
1F
100
AcDbEntity
  8
LC-001-100-D00-0
 62
     7
370
    50
100
AcDbCircle
 10
-218.530665
 20
438.43161
 30
0.0
 40
1.500000000000114
100
AcDbArc
 50
270.0
 51
0.0
  0
LINE
  5
485
330
1F
100
AcDbEntity
  8
LC-001-100-D00-0
 62
     7
370
    50
100
AcDbLine
 10
-217.030665
 20
438.431609
 30
0.0
 11
-217.030665
 21
482.931613
 31
0.0
  0
LINE
  5
486
330
1F
100
AcDbEntity
  8
LC-001-100-D00-0
 62
     7
370
    50
100
AcDbLine
 10
-217.030665
 20
482.931613
 30
0.0
 11
-215.530665
 21
482.931613
 31
0.0
  0
LINE
  5
487
330
1F
100
AcDbEntity
  8
LC-001-100-D00-0
 62
     7
370
    50
100
AcDbLine
 10
-215.530665
 20
482.931613
 30
0.0
 11
-215.530665
 21
437.931612
 31
0.0
  0
ARC
  5
488
330
1F
100
AcDbEntity
  8
LC-001-100-D00-0
 62
     7
370
    50
100
AcDbCircle
 10
-218.030665
 20
437.93161
 30
0.0
 40
2.5
100
AcDbArc
 50
270.0
 51
0.0
  0
LINE
  5
489
330
1F
100
AcDbEntity
  8
LC-001-100-D00-0
 62
     7
370
    50
100
AcDbLine
 10
-232.530666
 20
435.43161
 30
0.0
 11
-218.030667
 21
435.43161
 31
0.0
  0
ARC
  5
48A
330
1F
100
AcDbEntity
  8
LC-001-100-D00-0
 62
     7
370
    50
100
AcDbCircle
 10
-232.530665
 20
433.93161
 30
0.0
 40
1.5
100
AcDbArc
 50
90.0
 51
180.0
  0
LINE
  5
48B
330
1F
100
AcDbEntity
  8
LC-001-100-D00-0
 62
     7
370
    50
100
AcDbLine
 10
-234.030665
 20
433.931611
 30
0.0
 11
-234.030665
 21
413.93161
 31
0.0
  0
ARC
  5
48C
330
1F
100
AcDbEntity
  8
LC-001-100-D00-0
 62
     7
370
    50
100
AcDbCircle
 10
-238.030665
 20
413.93161
 30
0.0
 40
4.000000000000073
100
AcDbArc
 50
319.464198
 51
360.0
  0
ARC
  5
48D
330
1F
100
AcDbEntity
  8
LC-001-100-D00-0
 62
     7
370
    50
100
AcDbCircle
 10
-234.230665
 20
410.681995
 30
0.0
 40
0.9999999999999845
100
AcDbArc
 50
139.464198
 51
180.0
  0
LINE
  5
48E
330
1F
100
AcDbEntity
  8
LC-001-100-D00-0
 62
     7
370
    50
100
AcDbLine
 10
-235.230665
 20
404.93161
 30
0.0
 11
-235.230665
 21
410.681994
 31
0.0
  0
LINE
  5
48F
330
1F
100
AcDbEntity
  8
LC-001-100-D00-0
 62
     7
370
    50
100
AcDbLine
 10
-236.730665
 20
404.93161
 30
0.0
 11
-235.230665
 21
404.93161
 31
0.0
  0
LINE
  5
490
330
1F
100
AcDbEntity
  8
LC-001-100-D00-0
 62
     7
370
    50
100
AcDbLine
 10
-236.730665
 20
404.93161
 30
0.0
 11
-236.730665
 21
410.681994
 31
0.0
  0
ARC
  5
491
330
1F
100
AcDbEntity
  8
LC-001-100-D00-0
 62
     7
370
    50
100
AcDbCircle
 10
-234.230665
 20
410.681995
 30
0.0
 40
2.499999999999955
100
AcDbArc
 50
139.464198
 51
180.0
  0
ARC
  5
492
330
1F
100
AcDbEntity
  8
LC-001-100-D00-0
 62
     7
370
    50
100
AcDbCircle
 10
-238.030665
 20
413.93161
 30
0.0
 40
2.500000000000029
100
AcDbArc
 50
319.464198
 51
360.0
  0
LINE
  5
493
330
1F
100
AcDbEntity
  8
LC-001-100-D00-0
 62
     7
370
    50
100
AcDbLine
 10
-235.530665
 20
433.931611
 30
0.0
 11
-235.530665
 21
413.93161
 31
0.0
  0
LINE
  5
494
330
1F
100
AcDbEntity
  8
LC-001-100-D00-0
 62
     7
370
    50
100
AcDbLine
 10
-289.030665
 20
413.93161
 30
0.0
 11
-289.030665
 21
433.931611
 31
0.0
  0
ARC
  5
495
330
1F
100
AcDbEntity
  8
LC-001-100-D00-0
 62
     7
370
    50
100
AcDbCircle
 10
-290.530665
 20
433.93161
 30
0.0
 40
1.5
100
AcDbArc
 50
0.0
 51
90.0
  0
LINE
  5
496
330
1F
100
AcDbEntity
  8
LC-001-100-D00-0
 62
     7
370
    50
100
AcDbLine
 10
-339.030666
 20
435.43161
 30
0.0
 11
-290.530664
 21
435.43161
 31
0.0
  0
LINE
  5
497
330
1F
100
AcDbEntity
  8
LC-001-100-D00-0
 62
     7
370
    50
100
AcDbLine
 10
-339.030666
 20
435.43161
 30
0.0
 11
-339.030666
 21
436.93161
 31
0.0
  0
LINE
  5
498
330
1F
100
AcDbEntity
  8
LC-001-100-D00-0
 62
     7
370
    50
100
AcDbLine
 10
-339.030666
 20
436.93161
 30
0.0
 11
-290.530664
 21
436.93161
 31
0.0
  0
ARC
  5
499
330
1F
100
AcDbEntity
  8
LC-001-100-D00-0
 62
     7
370
    50
100
AcDbCircle
 10
-290.530665
 20
433.93161
 30
0.0
 40
3.000000000000057
100
AcDbArc
 50
0.0
 51
90.0
  0
LINE
  5
49A
330
1F
100
AcDbEntity
  8
LC-001-100-D00-0
 62
     7
370
    50
100
AcDbLine
 10
-287.530666
 20
413.93161
 30
0.0
 11
-287.530666
 21
433.931611
 31
0.0
  0
ARC
  5
49B
330
1F
100
AcDbEntity
  8
LC-001-100-D00-0
 62
     7
370
    50
100
AcDbCircle
 10
-285.030665
 20
413.93161
 30
0.0
 40
2.500000000000057
100
AcDbArc
 50
180.0
 51
220.535802
  0
ARC
  5
49C
330
1F
100
AcDbEntity
  8
LC-001-100-D00-0
 62
     7
370
    50
100
AcDbCircle
 10
-288.830665
 20
410.681995
 30
0.0
 40
2.5
100
AcDbArc
 50
0.0
 51
40.535802
  0
LINE
  5
49D
330
1F
100
AcDbEntity
  8
LC-001-100-D00-0
 62
     7
370
    50
100
AcDbLine
 10
-286.330666
 20
410.681994
 30
0.0
 11
-286.330666
 21
404.93161
 31
0.0
  0
LINE
  5
49E
330
1F
100
AcDbEntity
  8
LC-001-100-D00-0
 62
     7
370
    50
100
AcDbLine
 10
-287.830665
 20
404.93161
 30
0.0
 11
-286.330666
 21
404.93161
 31
0.0
  0
LINE
  5
49F
330
1F
100
AcDbEntity
  8
LC-001-100-D00-0
 62
     7
370
    50
100
AcDbLine
 10
-287.830665
 20
410.681994
 30
0.0
 11
-287.830665
 21
404.93161
 31
0.0
  0
ARC
  5
4A0
330
1F
100
AcDbEntity
  8
LC-001-100-D00-0
 62
     7
370
    50
100
AcDbCircle
 10
-288.830665
 20
410.681995
 30
0.0
 40
1.0
100
AcDbArc
 50
0.0
 51
40.535802
  0
ARC
  5
4A1
330
1F
100
AcDbEntity
  8
LC-001-100-D00-0
 62
     7
370
    50
100
AcDbCircle
 10
-285.030665
 20
413.93161
 30
0.0
 40
4.000000000000057
100
AcDbArc
 50
180.0
 51
220.535802
  0
LINE
  5
4A2
330
1F
100
AcDbEntity
  8
LC-001-100-D00-0
 62
     7
370
    50
100
AcDbLine
 10
-285.658469
 20
403.43161
 30
0.0
 11
-285.658469
 21
404.93161
 31
0.0
  0
LINE
  5
4A3
330
1F
100
AcDbEntity
  8
LC-001-100-D00-0
 62
     7
370
    50
100
AcDbLine
 10
-237.402862
 20
403.43161
 30
0.0
 11
-237.402862
 21
404.93161
 31
0.0
  0
LINE
  5
4A4
330
1F
100
AcDbEntity
  8
LC-001-100-D00-0
 62
     7
370
    50
100
AcDbLine
 10
-284.350374
 20
404.43161
 30
0.0
 11
-284.350374
 21
404.93161
 31
0.0
  0
LINE
  5
4A5
330
1F
100
AcDbEntity
  8
LC-001-100-D00-0
 62
     7
370
    50
100
AcDbLine
 10
-238.710956
 20
404.43161
 30
0.0
 11
-238.710956
 21
404.93161
 31
0.0
  0
LINE
  5
4A6
330
1F
100
AcDbEntity
  8
LC-001-100-D00-0
 62
     7
370
    50
100
AcDbLine
 10
-284.350374
 20
404.93161
 30
0.0
 11
-286.330666
 21
404.93161
 31
0.0
  0
LINE
  5
4A7
330
1F
100
AcDbEntity
  8
LC-001-100-D00-0
 62
     7
370
    50
100
AcDbLine
 10
-236.730665
 20
404.93161
 30
0.0
 11
-238.710956
 21
404.93161
 31
0.0
  0
INSERT
  5
4B7
330
1F
100
AcDbEntity
  8
LC-001-100-D00-0
 62
     7
370
    50
100
AcDbBlockReference
  2
POLY7
 10
0.0
 20
0.0
 30
0.0
  0
INSERT
  5
4C7
330
1F
100
AcDbEntity
  8
LC-001-100-D00-0
 62
     7
370
    50
100
AcDbBlockReference
  2
POLY8
 10
0.0
 20
0.0
 30
0.0
  0
LINE
  5
4C8
330
1F
100
AcDbEntity
  8
LC-001-100-D00-0
 62
     7
370
    50
100
AcDbLine
 10
-239.149782
 20
401.43161
 30
0.0
 11
-238.990703
 21
401.439671
 31
0.0
  0
LINE
  5
4C9
330
1F
100
AcDbEntity
  8
LC-001-100-D00-0
 62
     7
370
    50
100
AcDbLine
 10
-239.149782
 20
401.43161
 30
0.0
 11
-241.530666
 21
401.43161
 31
0.0
  0
LINE
  5
4CA
330
1F
100
AcDbEntity
  8
LC-001-100-D00-0
 62
     7
370
    50
100
AcDbLine
 10
-280.630301
 20
401.43161
 30
0.0
 11
-283.911548
 21
401.43161
 31
0.0
  0
LINE
  5
4CB
330
1F
100
AcDbEntity
  8
LC-001-100-D00-0
 62
     7
370
    50
100
AcDbLine
 10
-284.070627
 20
401.439671
 30
0.0
 11
-283.911548
 21
401.43161
 31
0.0
  0
INSERT
  5
4DD
330
1F
100
AcDbEntity
  8
LC-001-100-D00-0
 62
     7
370
    50
100
AcDbBlockReference
  2
POLY9
 10
0.0
 20
0.0
 30
0.0
  0
INSERT
  5
4EF
330
1F
100
AcDbEntity
  8
LC-001-100-D00-0
 62
     7
370
    50
100
AcDbBlockReference
  2
POLY10
 10
0.0
 20
0.0
 30
0.0
  0
LINE
  5
4F0
330
1F
100
AcDbEntity
  8
LC-001-100-D00-0
 62
     7
370
    50
100
AcDbLine
 10
-280.181743
 20
401.43161
 30
0.0
 11
-280.630301
 21
401.43161
 31
0.0
  0
LINE
  5
4F1
330
1F
100
AcDbEntity
  8
LC-001-100-D00-0
 62
     7
370
    50
100
AcDbLine
 10
-279.820628
 20
401.43161
 30
0.0
 11
-280.181743
 21
401.43161
 31
0.0
  0
LINE
  5
4F2
330
1F
100
AcDbEntity
  8
LC-001-100-D00-0
 62
     7
370
    50
100
AcDbLine
 10
-238.030666
 20
411.43161
 30
0.0
 11
-254.780665
 21
411.43161
 31
0.0
  0
LINE
  5
4F3
330
1F
100
AcDbEntity
  8
LC-001-100-D00-0
 62
     7
370
    50
100
AcDbLine
 10
-281.530665
 20
411.43161
 30
0.0
 11
-285.030664
 21
411.43161
 31
0.0
  0
ARC
  5
4F4
330
1F
100
AcDbEntity
  8
LC-001-100-D00-0
 62
     7
370
    50
100
AcDbCircle
 10
-240.881555
 20
413.93161
 30
0.0
 40
2.500000000000079
100
AcDbArc
 50
251.565051
 51
270.0
  0
ARC
  5
4F5
330
1F
100
AcDbEntity
  8
LC-001-100-D00-0
 62
     7
370
    50
100
AcDbCircle
 10
-282.179776
 20
413.93161
 30
0.0
 40
2.5
100
AcDbArc
 50
270.0
 51
285.048955
  0
LINE
  5
4F6
330
1F
100
AcDbEntity
  8
LC-001-100-D00-0
 62
     7
370
    50
100
AcDbLine
 10
-241.672124
 20
411.559902
 30
0.0
 11
-255.215187
 21
416.074257
 31
0.0
  0
ARC
  5
4F7
330
1F
100
AcDbEntity
  8
LC-001-100-D00-0
 62
     7
370
    50
100
AcDbCircle
 10
-285.030665
 20
418.93161
 30
0.0
 40
2.500000000000057
100
AcDbArc
 50
180.0
 51
270.0
  0
ARC
  5
4F8
330
1F
100
AcDbEntity
  8
LC-001-100-D00-0
 62
     7
370
    50
100
AcDbCircle
 10
-238.030665
 20
418.93161
 30
0.0
 40
2.5
100
AcDbArc
 50
270.0
 51
360.0
  0
INSERT
  5
504
330
1F
100
AcDbEntity
  8
LC-001-100-D00-0
 62
     7
370
    50
100
AcDbBlockReference
  2
POLY11
 10
0.0
 20
0.0
 30
0.0
  0
LINE
  5
505
330
1F
100
AcDbEntity
  8
LC-001-100-D00-0
 62
     7
370
    50
100
AcDbLine
 10
-280.929623
 20
416.431654
 30
0.0
 11
-285.030664
 21
416.431654
 31
0.0
  0
LINE
  5
506
330
1F
100
AcDbEntity
  8
LC-001-100-D00-0
 62
     7
370
    50
100
AcDbLine
 10
-238.045305
 20
416.431654
 30
0.0
 11
-249.236959
 21
416.431654
 31
0.0
  0
ARC
  5
507
330
1F
100
AcDbEntity
  8
LC-001-100-D00-0
 62
     7
370
    50
100
AcDbCircle
 10
-238.030665
 20
418.93161
 30
0.0
 40
2.50000000000069
100
AcDbArc
 50
269.664477
 51
270.0
  0
LINE
  5
508
330
1F
100
AcDbEntity
  8
LC-001-100-D00-0
 62
     7
370
    50
100
AcDbLine
 10
-249.379498
 20
416.431611
 30
0.0
 11
-255.381686
 21
416.431611
 31
0.0
  0
LINE
  5
509
330
1F
100
AcDbEntity
  8
LC-001-100-D00-0
 62
     7
370
    50
100
AcDbLine
 10
-313.030665
 20
433.43161
 30
0.0
 11
-339.030666
 21
433.43161
 31
0.0
  0
LINE
  5
50A
330
1F
100
AcDbEntity
  8
LC-001-100-D00-0
 62
     7
370
    50
100
AcDbLine
 10
-313.030665
 20
433.43161
 30
0.0
 11
-313.030665
 21
435.43161
 31
0.0
  0
LINE
  5
50B
330
1F
100
AcDbEntity
  8
LC-001-100-D00-0
 62
     7
370
    50
100
AcDbLine
 10
-339.030666
 20
433.43161
 30
0.0
 11
-339.030666
 21
435.43161
 31
0.0
  0
LINE
  5
50C
330
1F
100
AcDbEntity
  8
LC-001-100-D00-0
 62
     7
370
    50
100
AcDbLine
 10
-313.030665
 20
433.43161
 30
0.0
 11
-313.030665
 21
431.43161
 31
0.0
  0
LINE
  5
50D
330
1F
100
AcDbEntity
  8
LC-001-100-D00-0
 62
     7
370
    50
100
AcDbLine
 10
-339.030666
 20
431.43161
 30
0.0
 11
-339.030666
 21
433.43161
 31
0.0
  0
LINE
  5
50E
330
1F
100
AcDbEntity
  8
LC-001-100-D00-0
 62
     7
370
    50
100
AcDbLine
 10
-313.030665
 20
414.601484
 30
0.0
 11
-313.030665
 21
431.43161
 31
0.0
  0
LINE
  5
50F
330
1F
100
AcDbEntity
  8
LC-001-100-D00-0
 62
     7
370
    50
100
AcDbLine
 10
-339.030666
 20
418.93161
 30
0.0
 11
-339.030666
 21
431.43161
 31
0.0
  0
LINE
  5
510
330
1F
100
AcDbEntity
  8
LC-001-100-D00-0
 62
     7
370
    50
100
AcDbLine
 10
-232.530666
 20
436.93161
 30
0.0
 11
-238.030666
 21
436.93161
 31
0.0
  0
LINE
  5
511
330
1F
100
AcDbEntity
  8
LC-001-100-D00-0
 62
     7
370
    50
100
AcDbLine
 10
-285.030664
 20
436.93161
 30
0.0
 11
-290.530664
 21
436.93161
 31
0.0
  0
LINE
  5
512
330
1F
100
AcDbEntity
  8
LC-001-100-D00-0
 62
     7
370
    50
100
AcDbLine
 10
-238.030666
 20
436.93161
 30
0.0
 11
-244.280666
 21
436.93161
 31
0.0
  0
LINE
  5
513
330
1F
100
AcDbEntity
  8
LC-001-100-D00-0
 62
     7
370
    50
100
AcDbLine
 10
-278.780665
 20
436.93161
 30
0.0
 11
-285.030664
 21
436.93161
 31
0.0
  0
LINE
  5
514
330
1F
100
AcDbEntity
  8
LC-001-100-D00-0
 62
     7
370
    50
100
AcDbLine
 10
-283.230666
 20
407.93161
 30
0.0
 11
-285.530665
 21
407.93161
 31
0.0
  0
LINE
  5
515
330
1F
100
AcDbEntity
  8
LC-001-100-D00-0
 62
     7
370
    50
100
AcDbLine
 10
-285.530665
 20
407.93161
 30
0.0
 11
-285.530665
 21
409.43161
 31
0.0
  0
LINE
  5
516
330
1F
100
AcDbEntity
  8
LC-001-100-D00-0
 62
     7
370
    50
100
AcDbLine
 10
-281.530665
 20
409.43161
 30
0.0
 11
-285.530665
 21
409.43161
 31
0.0
  0
LINE
  5
517
330
1F
100
AcDbEntity
  8
LC-001-100-D00-0
 62
     7
370
    50
100
AcDbLine
 10
-281.530665
 20
413.93161
 30
0.0
 11
-281.530665
 21
409.43161
 31
0.0
  0
ARC
  5
518
330
1F
100
AcDbEntity
  8
LC-001-100-D00-0
 62
     7
370
    50
100
AcDbCircle
 10
-276.030665
 20
413.93161
 30
0.0
 40
5.5
100
AcDbArc
 50
90.0
 51
180.0
  0
LINE
  5
519
330
1F
100
AcDbEntity
  8
LC-001-100-D00-0
 62
     7
370
    50
100
AcDbLine
 10
-276.030665
 20
419.43161
 30
0.0
 11
-260.280665
 21
419.43161
 31
0.0
  0
ARC
  5
51A
330
1F
100
AcDbEntity
  8
LC-001-100-D00-0
 62
     7
370
    50
100
AcDbCircle
 10
-260.280665
 20
413.93161
 30
0.0
 40
5.5
100
AcDbArc
 50
0.0
 51
90.0
  0
LINE
  5
51B
330
1F
100
AcDbEntity
  8
LC-001-100-D00-0
 62
     7
370
    50
100
AcDbLine
 10
-254.780665
 20
413.93161
 30
0.0
 11
-254.780665
 21
378.93161
 31
0.0
  0
LINE
  5
51C
330
1F
100
AcDbEntity
  8
LC-001-100-D00-0
 62
     7
370
    50
100
AcDbLine
 10
-254.780665
 20
378.93161
 30
0.0
 11
-256.280665
 21
378.93161
 31
0.0
  0
LINE
  5
51D
330
1F
100
AcDbEntity
  8
LC-001-100-D00-0
 62
     7
370
    50
100
AcDbLine
 10
-256.280665
 20
413.93161
 30
0.0
 11
-256.280665
 21
378.93161
 31
0.0
  0
ARC
  5
51E
330
1F
100
AcDbEntity
  8
LC-001-100-D00-0
 62
     7
370
    50
100
AcDbCircle
 10
-260.280665
 20
413.93161
 30
0.0
 40
4.0
100
AcDbArc
 50
0.0
 51
90.0
  0
LINE
  5
51F
330
1F
100
AcDbEntity
  8
LC-001-100-D00-0
 62
     7
370
    50
100
AcDbLine
 10
-276.030665
 20
417.93161
 30
0.0
 11
-260.280665
 21
417.93161
 31
0.0
  0
ARC
  5
520
330
1F
100
AcDbEntity
  8
LC-001-100-D00-0
 62
     7
370
    50
100
AcDbCircle
 10
-276.030665
 20
413.93161
 30
0.0
 40
4.0
100
AcDbArc
 50
90.0
 51
180.0
  0
LINE
  5
521
330
1F
100
AcDbEntity
  8
LC-001-100-D00-0
 62
     7
370
    50
100
AcDbLine
 10
-280.030666
 20
413.93161
 30
0.0
 11
-280.030666
 21
402.931611
 31
0.0
  0
LINE
  5
522
330
1F
100
AcDbEntity
  8
LC-001-100-D00-0
 62
     7
370
    50
100
AcDbLine
 10
-280.030666
 20
402.931611
 30
0.0
 11
-285.530665
 21
402.931611
 31
0.0
  0
LINE
  5
523
330
1F
100
AcDbEntity
  8
LC-001-100-D00-0
 62
     7
370
    50
100
AcDbLine
 10
-285.530665
 20
404.43161
 30
0.0
 11
-285.530665
 21
402.931611
 31
0.0
  0
LINE
  5
524
330
1F
100
AcDbEntity
  8
LC-001-100-D00-0
 62
     7
370
    50
100
AcDbLine
 10
-283.230666
 20
404.43161
 30
0.0
 11
-285.530665
 21
404.43161
 31
0.0
  0
LINE
  5
525
330
1F
100
AcDbEntity
  8
LC-001-100-D00-0
 62
     7
370
    50
100
AcDbLine
 10
-283.230666
 20
407.93161
 30
0.0
 11
-283.230666
 21
404.43161
 31
0.0
  0
LINE
  5
526
330
1F
100
AcDbEntity
  8
LC-001-100-D00-0
 62
     7
370
    50
100
AcDbLine
 10
-237.530665
 20
402.931611
 30
0.0
 11
-237.530665
 21
404.43161
 31
0.0
  0
LINE
  5
527
330
1F
100
AcDbEntity
  8
LC-001-100-D00-0
 62
     7
370
    50
100
AcDbLine
 10
-237.530665
 20
402.931611
 30
0.0
 11
-241.530666
 21
402.931611
 31
0.0
  0
LINE
  5
528
330
1F
100
AcDbEntity
  8
LC-001-100-D00-0
 62
     7
370
    50
100
AcDbLine
 10
-241.530666
 20
378.93161
 30
0.0
 11
-241.530666
 21
402.931611
 31
0.0
  0
LINE
  5
529
330
1F
100
AcDbEntity
  8
LC-001-100-D00-0
 62
     7
370
    50
100
AcDbLine
 10
-241.530666
 20
378.93161
 30
0.0
 11
-243.030665
 21
378.93161
 31
0.0
  0
LINE
  5
52A
330
1F
100
AcDbEntity
  8
LC-001-100-D00-0
 62
     7
370
    50
100
AcDbLine
 10
-243.030665
 20
378.93161
 30
0.0
 11
-243.030665
 21
408.43161
 31
0.0
  0
ARC
  5
52B
330
1F
100
AcDbEntity
  8
LC-001-100-D00-0
 62
     7
370
    50
100
AcDbCircle
 10
-242.030665
 20
408.43161
 30
0.0
 40
0.9999999999998863
100
AcDbArc
 50
90.0
 51
180.0
  0
LINE
  5
52C
330
1F
100
AcDbEntity
  8
LC-001-100-D00-0
 62
     7
370
    50
100
AcDbLine
 10
-237.530665
 20
409.43161
 30
0.0
 11
-242.030665
 21
409.43161
 31
0.0
  0
LINE
  5
52D
330
1F
100
AcDbEntity
  8
LC-001-100-D00-0
 62
     7
370
    50
100
AcDbLine
 10
-237.530665
 20
409.43161
 30
0.0
 11
-237.530665
 21
407.93161
 31
0.0
  0
LINE
  5
52E
330
1F
100
AcDbEntity
  8
LC-001-100-D00-0
 62
     7
370
    50
100
AcDbLine
 10
-237.530665
 20
407.93161
 30
0.0
 11
-239.830665
 21
407.93161
 31
0.0
  0
LINE
  5
52F
330
1F
100
AcDbEntity
  8
LC-001-100-D00-0
 62
     7
370
    50
100
AcDbLine
 10
-239.830665
 20
404.43161
 30
0.0
 11
-239.830665
 21
407.93161
 31
0.0
  0
LINE
  5
530
330
1F
100
AcDbEntity
  8
LC-001-100-D00-0
 62
     7
370
    50
100
AcDbLine
 10
-237.530665
 20
404.43161
 30
0.0
 11
-239.830665
 21
404.43161
 31
0.0
  0
LINE
  5
531
330
1F
100
AcDbEntity
  8
LC-001-100-D00-0
 62
     7
370
    50
100
AcDbLine
 10
-254.799328
 20
409.43161
 30
0.0
 11
-242.030665
 21
409.43161
 31
0.0
  0
LINE
  5
532
330
1F
100
AcDbEntity
  8
LC-001-100-D00-0
 62
     7
370
    50
100
AcDbLine
 10
-280.030666
 20
402.931611
 30
0.0
 11
-269.155665
 21
402.931611
 31
0.0
  0
LINE
  5
533
330
1F
100
AcDbEntity
  8
LC-001-100-D00-0
 62
     7
370
    50
100
AcDbLine
 10
-267.155665
 20
402.931611
 30
0.0
 11
-257.037808
 21
402.931611
 31
0.0
  0
LINE
  5
534
330
1F
100
AcDbEntity
  8
LC-001-100-D00-0
 62
     7
370
    50
100
AcDbLine
 10
-254.780665
 20
378.93161
 30
0.0
 11
-243.030665
 21
378.93161
 31
0.0
  0
LINE
  5
535
330
1F
100
AcDbEntity
  8
LC-001-100-D00-0
 62
     7
370
    50
100
AcDbLine
 10
-256.280665
 20
402.931611
 30
0.0
 11
-257.037808
 21
402.931611
 31
0.0
  0
ARC
  5
536
330
1F
100
AcDbEntity
  8
LC-001-100-D00-0
 62
     7
370
    50
100
AcDbCircle
 10
-236.467608
 20
406.475163
 30
0.0
 40
0.3000000000000115
100
AcDbArc
 50
131.633539
 51
282.528808
  0
LINE
  5
537
330
1F
100
AcDbEntity
  8
LC-001-100-D00-0
 62
     7
370
    50
100
AcDbLine
 10
-236.666917
 20
406.699387
 30
0.0
 11
-233.31483
 21
409.679019
 31
0.0
  0
ARC
  5
538
330
1F
100
AcDbEntity
  8
LC-001-100-D00-0
 62
     7
370
    50
100
AcDbCircle
 10
-232.650466
 20
408.93161
 30
0.0
 40
1.0
100
AcDbArc
 50
90.0
 51
131.633539
  0
LINE
  5
539
330
1F
100
AcDbEntity
  8
LC-001-100-D00-0
 62
     7
370
    50
100
AcDbLine
 10
-232.650466
 20
409.931611
 30
0.0
 11
-230.030665
 21
409.931611
 31
0.0
  0
LINE
  5
53A
330
1F
100
AcDbEntity
  8
LC-001-100-D00-0
 62
     7
370
    50
100
AcDbLine
 10
-230.030665
 20
409.931611
 30
0.0
 11
-230.030665
 21
405.93161
 31
0.0
  0
LINE
  5
53B
330
1F
100
AcDbEntity
  8
LC-001-100-D00-0
 62
     7
370
    50
100
AcDbLine
 10
-233.030665
 20
405.93161
 30
0.0
 11
-230.030665
 21
405.93161
 31
0.0
  0
LINE
  5
53C
330
1F
100
AcDbEntity
  8
LC-001-100-D00-0
 62
     7
370
    50
100
AcDbLine
 10
-233.030665
 20
405.93161
 30
0.0
 11
-233.030665
 21
406.557625
 31
0.0
  0
ARC
  5
53D
330
1F
100
AcDbEntity
  8
LC-001-100-D00-0
 62
     7
370
    50
100
AcDbCircle
 10
-233.330665
 20
406.557625
 30
0.0
 40
0.3000000000000114
100
AcDbArc
 50
0.0
 51
102.528808
  0
LINE
  5
53E
330
1F
100
AcDbEntity
  8
LC-001-100-D00-0
 62
     7
370
    50
100
AcDbLine
 10
-233.395744
 20
406.850481
 30
0.0
 11
-236.40253
 21
406.182307
 31
0.0
  0
LINE
  5
53F
330
1F
100
AcDbEntity
  8
LC-001-100-D00-0
 62
     7
370
    50
100
AcDbLine
 10
-290.030665
 20
406.557625
 30
0.0
 11
-290.030665
 21
405.93161
 31
0.0
  0
LINE
  5
540
330
1F
100
AcDbEntity
  8
LC-001-100-D00-0
 62
     7
370
    50
100
AcDbLine
 10
-293.030666
 20
405.93161
 30
0.0
 11
-293.030666
 21
409.931611
 31
0.0
  0
ARC
  5
541
330
1F
100
AcDbEntity
  8
LC-001-100-D00-0
 62
     7
370
    50
100
AcDbCircle
 10
-290.410865
 20
408.93161
 30
0.0
 40
1.000000000000023
100
AcDbArc
 50
48.366461
 51
90.0
  0
LINE
  5
542
330
1F
100
AcDbEntity
  8
LC-001-100-D00-0
 62
     7
370
    50
100
AcDbLine
 10
-286.394413
 20
406.699387
 30
0.0
 11
-289.7465
 21
409.679019
 31
0.0
  0
ARC
  5
543
330
1F
100
AcDbEntity
  8
LC-001-100-D00-0
 62
     7
370
    50
100
AcDbCircle
 10
-286.593722
 20
406.475163
 30
0.0
 40
0.3000000000001464
100
AcDbArc
 50
257.471192
 51
48.366461
  0
LINE
  5
544
330
1F
100
AcDbEntity
  8
LC-001-100-D00-0
 62
     7
370
    50
100
AcDbLine
 10
-289.665587
 20
406.850481
 30
0.0
 11
-286.658801
 21
406.182307
 31
0.0
  0
ARC
  5
545
330
1F
100
AcDbEntity
  8
LC-001-100-D00-0
 62
     7
370
    50
100
AcDbCircle
 10
-289.730665
 20
406.557625
 30
0.0
 40
0.3000000000001464
100
AcDbArc
 50
77.471192
 51
180.0
  0
LINE
  5
546
330
1F
100
AcDbEntity
  8
LC-001-100-D00-0
 62
     7
370
    50
100
AcDbLine
 10
-293.030666
 20
405.93161
 30
0.0
 11
-290.030665
 21
405.93161
 31
0.0
  0
LINE
  5
547
330
1F
100
AcDbEntity
  8
LC-001-100-D00-0
 62
     7
370
    50
100
AcDbLine
 10
-293.030666
 20
409.931611
 30
0.0
 11
-290.410865
 21
409.931611
 31
0.0
  0
LINE
  5
548
330
1F
100
AcDbEntity
  8
LC-001-100-D00-0
 62
     7
370
    50
100
AcDbLine
 10
-233.530664
 20
405.93161
 30
0.0
 11
-235.230665
 21
405.93161
 31
0.0
  0
LINE
  5
549
330
1F
100
AcDbEntity
  8
LC-001-100-D00-0
 62
     7
370
    50
100
AcDbLine
 10
-287.830665
 20
405.93161
 30
0.0
 11
-289.530666
 21
405.93161
 31
0.0
  0
LINE
  5
54A
330
1F
100
AcDbEntity
  8
LC-001-100-D00-0
 62
     7
370
    50
100
AcDbLine
 10
-233.530664
 20
402.931611
 30
0.0
 11
-233.530664
 21
405.93161
 31
0.0
  0
LINE
  5
54B
330
1F
100
AcDbEntity
  8
LC-001-100-D00-0
 62
     7
370
    50
100
AcDbLine
 10
-233.530664
 20
405.93161
 30
0.0
 11
-230.530666
 21
405.93161
 31
0.0
  0
LINE
  5
54C
330
1F
100
AcDbEntity
  8
LC-001-100-D00-0
 62
     7
370
    50
100
AcDbLine
 10
-230.530666
 20
409.931611
 30
0.0
 11
-230.530666
 21
405.93161
 31
0.0
  0
LINE
  5
54D
330
1F
100
AcDbEntity
  8
LC-001-100-D00-0
 62
     7
370
    50
100
AcDbLine
 10
-230.530666
 20
409.931611
 30
0.0
 11
-225.530667
 21
409.931611
 31
0.0
  0
ARC
  5
54E
330
1F
100
AcDbEntity
  8
LC-001-100-D00-0
 62
     7
370
    50
100
AcDbCircle
 10
-225.530665
 20
410.93161
 30
0.0
 40
1.0
100
AcDbArc
 50
270.0
 51
0.0
  0
LINE
  5
54F
330
1F
100
AcDbEntity
  8
LC-001-100-D00-0
 62
     7
370
    50
100
AcDbLine
 10
-224.530665
 20
435.43161
 30
0.0
 11
-224.530665
 21
410.931611
 31
0.0
  0
LINE
  5
550
330
1F
100
AcDbEntity
  8
LC-001-100-D00-0
 62
     7
370
    50
100
AcDbLine
 10
-221.530666
 20
435.43161
 30
0.0
 11
-224.530665
 21
435.43161
 31
0.0
  0
LINE
  5
551
330
1F
100
AcDbEntity
  8
LC-001-100-D00-0
 62
     7
370
    50
100
AcDbLine
 10
-221.530666
 20
435.43161
 30
0.0
 11
-221.530666
 21
405.43161
 31
0.0
  0
LINE
  5
552
330
1F
100
AcDbEntity
  8
LC-001-100-D00-0
 62
     7
370
    50
100
AcDbLine
 10
-221.530666
 20
405.43161
 30
0.0
 11
-224.530665
 21
405.43161
 31
0.0
  0
LINE
  5
553
330
1F
100
AcDbEntity
  8
LC-001-100-D00-0
 62
     7
370
    50
100
AcDbLine
 10
-224.530665
 20
405.43161
 30
0.0
 11
-224.530665
 21
406.93161
 31
0.0
  0
LINE
  5
554
330
1F
100
AcDbEntity
  8
LC-001-100-D00-0
 62
     7
370
    50
100
AcDbLine
 10
-224.530665
 20
406.93161
 30
0.0
 11
-227.530663
 21
406.93161
 31
0.0
  0
LINE
  5
555
330
1F
100
AcDbEntity
  8
LC-001-100-D00-0
 62
     7
370
    50
100
AcDbLine
 10
-227.530663
 20
402.931611
 30
0.0
 11
-227.530663
 21
406.93161
 31
0.0
  0
LINE
  5
556
330
1F
100
AcDbEntity
  8
LC-001-100-D00-0
 62
     7
370
    50
100
AcDbLine
 10
-227.530663
 20
402.931611
 30
0.0
 11
-233.530664
 21
402.931611
 31
0.0
  0
LINE
  5
557
330
1F
100
AcDbEntity
  8
LC-001-100-D00-0
 62
     7
370
    50
100
AcDbLine
 10
-298.530666
 20
406.93161
 30
0.0
 11
-298.530666
 21
405.43161
 31
0.0
  0
LINE
  5
558
330
1F
100
AcDbEntity
  8
LC-001-100-D00-0
 62
     7
370
    50
100
AcDbLine
 10
-298.530666
 20
405.43161
 30
0.0
 11
-301.530664
 21
405.43161
 31
0.0
  0
LINE
  5
559
330
1F
100
AcDbEntity
  8
LC-001-100-D00-0
 62
     7
370
    50
100
AcDbLine
 10
-301.530664
 20
405.43161
 30
0.0
 11
-301.530664
 21
435.43161
 31
0.0
  0
LINE
  5
55A
330
1F
100
AcDbEntity
  8
LC-001-100-D00-0
 62
     7
370
    50
100
AcDbLine
 10
-298.530666
 20
435.43161
 30
0.0
 11
-301.530664
 21
435.43161
 31
0.0
  0
LINE
  5
55B
330
1F
100
AcDbEntity
  8
LC-001-100-D00-0
 62
     7
370
    50
100
AcDbLine
 10
-298.530666
 20
410.931611
 30
0.0
 11
-298.530666
 21
435.43161
 31
0.0
  0
ARC
  5
55C
330
1F
100
AcDbEntity
  8
LC-001-100-D00-0
 62
     7
370
    50
100
AcDbCircle
 10
-297.530665
 20
410.93161
 30
0.0
 40
1.0
100
AcDbArc
 50
180.0
 51
270.0
  0
LINE
  5
55D
330
1F
100
AcDbEntity
  8
LC-001-100-D00-0
 62
     7
370
    50
100
AcDbLine
 10
-297.530664
 20
409.931611
 30
0.0
 11
-292.530665
 21
409.931611
 31
0.0
  0
LINE
  5
55E
330
1F
100
AcDbEntity
  8
LC-001-100-D00-0
 62
     7
370
    50
100
AcDbLine
 10
-292.530665
 20
405.93161
 30
0.0
 11
-292.530665
 21
409.931611
 31
0.0
  0
LINE
  5
55F
330
1F
100
AcDbEntity
  8
LC-001-100-D00-0
 62
     7
370
    50
100
AcDbLine
 10
-292.530665
 20
405.93161
 30
0.0
 11
-289.530666
 21
405.93161
 31
0.0
  0
LINE
  5
560
330
1F
100
AcDbEntity
  8
LC-001-100-D00-0
 62
     7
370
    50
100
AcDbLine
 10
-289.530666
 20
405.93161
 30
0.0
 11
-289.530666
 21
402.931611
 31
0.0
  0
LINE
  5
561
330
1F
100
AcDbEntity
  8
LC-001-100-D00-0
 62
     7
370
    50
100
AcDbLine
 10
-289.530666
 20
402.931611
 30
0.0
 11
-295.530667
 21
402.931611
 31
0.0
  0
LINE
  5
562
330
1F
100
AcDbEntity
  8
LC-001-100-D00-0
 62
     7
370
    50
100
AcDbLine
 10
-295.530667
 20
406.93161
 30
0.0
 11
-295.530667
 21
402.931611
 31
0.0
  0
LINE
  5
563
330
1F
100
AcDbEntity
  8
LC-001-100-D00-0
 62
     7
370
    50
100
AcDbLine
 10
-295.530667
 20
406.93161
 30
0.0
 11
-298.530666
 21
406.93161
 31
0.0
  0
LINE
  5
564
330
1F
100
AcDbEntity
  8
LC-001-100-D00-0
 62
     7
370
    50
100
AcDbLine
 10
-227.062581
 20
405.43161
 30
0.0
 11
-224.530665
 21
405.43161
 31
0.0
  0
LINE
  5
565
330
1F
100
AcDbEntity
  8
LC-001-100-D00-0
 62
     7
370
    50
100
AcDbLine
 10
-234.722154
 20
402.931611
 30
0.0
 11
-233.530664
 21
402.931611
 31
0.0
  0
LINE
  5
566
330
1F
100
AcDbEntity
  8
LC-001-100-D00-0
 62
     7
370
    50
100
AcDbLine
 10
-289.530666
 20
402.931611
 30
0.0
 11
-288.339177
 21
402.931611
 31
0.0
  0
LINE
  5
567
330
1F
100
AcDbEntity
  8
LC-001-100-D00-0
 62
     7
370
    50
100
AcDbLine
 10
-298.530666
 20
405.43161
 30
0.0
 11
-295.99875
 21
405.43161
 31
0.0
  0
LINE
  5
568
330
1F
100
AcDbEntity
  8
LC-001-100-D00-0
 62
     7
370
    50
100
AcDbLine
 10
-288.339177
 20
402.931611
 30
0.0
 11
-285.704135
 21
402.931611
 31
0.0
  0
LINE
  5
569
330
1F
100
AcDbEntity
  8
LC-001-100-D00-0
 62
     7
370
    50
100
AcDbLine
 10
-237.458666
 20
402.931611
 30
0.0
 11
-234.722154
 21
402.931611
 31
0.0
  0
INSERT
  5
577
330
1F
100
AcDbEntity
  8
LC-001-100-D00-0
 62
     7
370
    50
100
AcDbBlockReference
  2
POLY12
 10
0.0
 20
0.0
 30
0.0
  0
LINE
  5
578
330
1F
100
AcDbEntity
  8
LC-001-100-D00-0
 62
     7
370
    50
100
AcDbLine
 10
-295.99875
 20
405.43161
 30
0.0
 11
-295.530667
 21
405.43161
 31
0.0
  0
LINE
  5
579
330
1F
100
AcDbEntity
  8
LC-001-100-D00-0
 62
     7
370
    50
100
AcDbLine
 10
-227.530663
 20
405.43161
 30
0.0
 11
-227.062581
 21
405.43161
 31
0.0
  0
LINE
  5
57A
330
1F
100
AcDbEntity
  8
LC-001-100-D00-0
 62
     7
370
    50
100
AcDbLine
 10
-367.530664
 20
371.98749
 30
0.0
 11
-292.413385
 21
371.98749
 31
0.0
  0
ARC
  5
57B
330
1F
100
AcDbEntity
  8
LC-001-100-D00-0
 62
     7
370
    50
100
AcDbCircle
 10
-291.530665
 20
378.93161
 30
0.0
 40
7.00000000000002
100
AcDbArc
 50
262.755545
 51
270.0
  0
LINE
  5
57C
330
1F
100
AcDbEntity
  8
LC-001-100-D00-0
 62
     7
370
    50
100
AcDbLine
 10
-291.530665
 20
371.93161
 30
0.0
 11
-270.67947
 21
371.93161
 31
0.0
  0
ARC
  5
57D
330
1F
100
AcDbEntity
  8
LC-001-100-D00-0
 62
     7
370
    50
100
AcDbCircle
 10
-270.67947
 20
372.93161
 30
0.0
 40
1.0
100
AcDbArc
 50
270.0
 51
359.0
  0
LINE
  5
57E
330
1F
100
AcDbEntity
  8
LC-001-100-D00-0
 62
     7
370
    50
100
AcDbLine
 10
-269.679622
 20
372.914157
 30
0.0
 11
-269.155665
 21
402.931611
 31
0.0
  0
LINE
  5
57F
330
1F
100
AcDbEntity
  8
LC-001-100-D00-0
 62
     7
370
    50
100
AcDbLine
 10
-269.155665
 20
402.931611
 30
0.0
 11
-267.155665
 21
402.931611
 31
0.0
  0
LINE
  5
580
330
1F
100
AcDbEntity
  8
LC-001-100-D00-0
 62
     7
370
    50
100
AcDbLine
 10
-267.155665
 20
402.931611
 30
0.0
 11
-266.631709
 21
372.914157
 31
0.0
  0
ARC
  5
581
330
1F
100
AcDbEntity
  8
LC-001-100-D00-0
 62
     7
370
    50
100
AcDbCircle
 10
-265.631861
 20
372.93161
 30
0.0
 40
1.000000000000014
100
AcDbArc
 50
181.0
 51
270.0
  0
LINE
  5
582
330
1F
100
AcDbEntity
  8
LC-001-100-D00-0
 62
     7
370
    50
100
AcDbLine
 10
-265.631861
 20
371.93161
 30
0.0
 11
-231.530666
 21
371.93161
 31
0.0
  0
ARC
  5
583
330
1F
100
AcDbEntity
  8
LC-001-100-D00-0
 62
     7
370
    50
100
AcDbCircle
 10
-231.530665
 20
378.93161
 30
0.0
 40
7.0
100
AcDbArc
 50
270.0
 51
0.0
  0
LINE
  5
584
330
1F
100
AcDbEntity
  8
LC-001-100-D00-0
 62
     7
370
    50
100
AcDbLine
 10
-224.530665
 20
378.93161
 30
0.0
 11
-224.530665
 21
406.93161
 31
0.0
  0
LINE
  5
585
330
1F
100
AcDbEntity
  8
LC-001-100-D00-0
 62
     7
370
    50
100
AcDbLine
 10
-224.530665
 20
406.93161
 30
0.0
 11
-221.530666
 21
406.93161
 31
0.0
  0
LINE
  5
586
330
1F
100
AcDbEntity
  8
LC-001-100-D00-0
 62
     7
370
    50
100
AcDbLine
 10
-221.530666
 20
378.93161
 30
0.0
 11
-221.530666
 21
406.93161
 31
0.0
  0
ARC
  5
587
330
1F
100
AcDbEntity
  8
LC-001-100-D00-0
 62
     7
370
    50
100
AcDbCircle
 10
-231.530665
 20
378.93161
 30
0.0
 40
10.0
100
AcDbArc
 50
270.0
 51
0.0
  0
LINE
  5
588
330
1F
100
AcDbEntity
  8
LC-001-100-D00-0
 62
     7
370
    50
100
AcDbLine
 10
-291.530665
 20
368.93161
 30
0.0
 11
-231.530666
 21
368.93161
 31
0.0
  0
ARC
  5
589
330
1F
100
AcDbEntity
  8
LC-001-100-D00-0
 62
     7
370
    50
100
AcDbCircle
 10
-291.530665
 20
378.93161
 30
0.0
 40
10.0000000000001
100
AcDbArc
 50
264.316413
 51
270.0
  0
LINE
  5
58A
330
1F
100
AcDbEntity
  8
LC-001-100-D00-0
 62
     7
370
    50
100
AcDbLine
 10
-364.530665
 20
368.98077
 30
0.0
 11
-292.521013
 21
368.98077
 31
0.0
  0
INSERT
  5
590
330
1F
100
AcDbEntity
  8
LC-001-100-D00-0
 62
     7
370
    50
100
AcDbBlockReference
  2
KLON28
 10
0.0
 20
0.0
 30
0.0
  0
LINE
  5
591
330
1F
100
AcDbEntity
  8
LC-001-100-D00-0
 62
     7
370
    50
100
AcDbLine
 10
-367.530664
 20
369.786255
 30
0.0
 11
-367.530664
 21
371.98749
 31
0.0
  0
LINE
  5
592
330
1F
100
AcDbEntity
  8
LC-001-100-D00-0
 62
     7
370
    50
100
AcDbLine
 10
-364.530665
 20
368.98077
 30
0.0
 11
-364.530665
 21
368.93161
 31
0.0
  0
LINE
  5
593
330
1F
100
AcDbEntity
  8
LC-001-100-D00-0
 62
     7
370
    50
100
AcDbLine
 10
-364.530665
 20
418.93161
 30
0.0
 11
-364.530665
 21
418.88245
 31
0.0
  0
LINE
  5
594
330
1F
100
AcDbEntity
  8
LC-001-100-D00-0
 62
     7
370
    50
100
AcDbLine
 10
-317.23774
 20
418.88245
 30
0.0
 11
-364.530665
 21
418.88245
 31
0.0
  0
LINE
  5
595
330
1F
100
AcDbEntity
  8
LC-001-100-D00-0
 62
     7
370
    50
100
AcDbLine
 10
-298.530666
 20
402.431611
 30
0.0
 11
-298.530666
 21
378.93161
 31
0.0
  0
INSERT
  5
5A9
330
1F
100
AcDbEntity
  8
LC-001-100-D00-0
 62
     7
370
    50
100
AcDbBlockReference
  2
POLY13
 10
0.0
 20
0.0
 30
0.0
  0
LINE
  5
5AA
330
1F
100
AcDbEntity
  8
LC-001-100-D00-0
 62
     7
370
    50
100
AcDbLine
 10
-367.530664
 20
415.875731
 30
0.0
 11
-367.530664
 21
371.98749
 31
0.0
  0
LINE
  5
5AB
330
1F
100
AcDbEntity
  8
LC-001-100-D00-0
 62
     7
370
    50
100
AcDbLine
 10
-317.230453
 20
415.875731
 30
0.0
 11
-367.530664
 21
415.875731
 31
0.0
  0
INSERT
  5
5B1
330
1F
100
AcDbEntity
  8
LC-001-100-D00-0
 62
     7
370
    50
100
AcDbBlockReference
  2
KLON29
 10
0.0
 20
0.0
 30
0.0
  0
LINE
  5
5B2
330
1F
100
AcDbEntity
  8
LC-001-100-D00-0
 62
     7
370
    50
100
AcDbLine
 10
-367.530664
 20
418.076966
 30
0.0
 11
-367.530664
 21
418.127762
 31
0.0
  0
LINE
  5
5B3
330
1F
100
AcDbEntity
  8
LC-001-100-D00-0
 62
     7
370
    50
100
AcDbLine
 10
-367.530664
 20
369.735458
 30
0.0
 11
-367.530664
 21
369.786255
 31
0.0
  0
LINE
  5
5B4
330
1F
100
AcDbEntity
  8
LC-001-100-D00-0
 62
     7
370
    50
100
AcDbLine
 10
-301.530664
 20
405.43161
 30
0.0
 11
-306.004384
 21
405.43161
 31
0.0
  0
LINE
  5
5B5
330
1F
100
AcDbEntity
  8
LC-001-100-D00-0
 62
     7
370
    50
100
AcDbLine
 10
-301.530664
 20
406.93161
 30
0.0
 11
-301.530664
 21
405.43161
 31
0.0
  0
LINE
  5
5B6
330
1F
100
AcDbEntity
  8
LC-001-100-D00-0
 62
     7
370
    50
100
AcDbLine
 10
-298.530666
 20
406.93161
 30
0.0
 11
-298.530666
 21
402.431611
 31
0.0
  0
LINE
  5
5B7
330
1F
100
AcDbEntity
  8
LC-001-100-D00-0
 62
     7
370
    50
100
AcDbLine
 10
-298.530666
 20
402.431611
 30
0.0
 11
-306.004384
 21
402.431611
 31
0.0
  0
ARC
  5
5B8
330
1F
100
AcDbEntity
  8
LC-001-100-D00-0
 62
     7
370
    50
100
AcDbCircle
 10
-306.004386
 20
408.43161
 30
0.0
 40
5.999999999999969
100
AcDbArc
 50
210.0
 51
270.0
  0
LINE
  5
5B9
330
1F
100
AcDbEntity
  8
LC-001-100-D00-0
 62
     7
370
    50
100
AcDbLine
 10
-311.200538
 20
405.43161
 30
0.0
 11
-317.230453
 21
415.875731
 31
0.0
  0
INSERT
  5
5C7
330
1F
100
AcDbEntity
  8
LC-001-100-D00-0
 62
     7
370
    50
100
AcDbBlockReference
  2
POLY14
 10
0.0
 20
0.0
 30
0.0
  0
LINE
  5
5C8
330
1F
100
AcDbEntity
  8
LC-001-100-D00-0
 62
     7
370
    50
100
AcDbLine
 10
-308.602461
 20
406.93161
 30
0.0
 11
-314.632376
 21
417.37573
 31
0.0
  0
ARC
  5
5C9
330
1F
100
AcDbEntity
  8
LC-001-100-D00-0
 62
     7
370
    50
100
AcDbCircle
 10
-306.004386
 20
408.43161
 30
0.0
 40
2.99999999999996
100
AcDbArc
 50
210.0
 51
270.0
  0
LINE
  5
5CA
330
1F
100
AcDbEntity
  8
LC-001-100-D00-0
 62
     7
370
    50
100
AcDbLine
 10
-367.530664
 20
415.875731
 30
0.0
 11
-367.530664
 21
418.076966
 31
0.0
  0
LINE
  5
5CB
330
1F
100
AcDbEntity
  8
LC-001-100-D00-0
 62
     7
370
    50
100
AcDbLine
 10
-301.530664
 20
406.93161
 30
0.0
 11
-298.530666
 21
406.93161
 31
0.0
  0
ARC
  5
5CC
330
1F
100
AcDbEntity
  8
LC-001-100-D00-0
 62
     7
370
    50
100
AcDbCircle
 10
-317.262716
 20
415.93161
 30
0.0
 40
2.999999999999903
100
AcDbArc
 50
30.0
 51
90.0
  0
LINE
  5
5CD
330
1F
100
AcDbEntity
  8
LC-001-100-D00-0
 62
     7
370
    50
100
AcDbLine
 10
-248.280665
 20
436.93161
 30
0.0
 11
-244.280666
 21
436.93161
 31
0.0
  0
ARC
  5
5CE
330
1F
100
AcDbEntity
  8
LC-001-100-D00-0
 62
     7
370
    50
100
AcDbCircle
 10
-244.280665
 20
435.93161
 30
0.0
 40
1.000000000000114
100
AcDbArc
 50
0.0
 51
90.0
  0
LINE
  5
5CF
330
1F
100
AcDbEntity
  8
LC-001-100-D00-0
 62
     7
370
    50
100
AcDbLine
 10
-243.280666
 20
429.93161
 30
0.0
 11
-248.280665
 21
429.93161
 31
0.0
  0
LINE
  5
5D0
330
1F
100
AcDbEntity
  8
LC-001-100-D00-0
 62
     7
370
    50
100
AcDbLine
 10
-243.280666
 20
435.931611
 30
0.0
 11
-243.280666
 21
429.93161
 31
0.0
  0
LINE
  5
5D1
330
1F
100
AcDbEntity
  8
LC-001-100-D00-0
 62
     7
370
    50
100
AcDbLine
 10
-274.780665
 20
436.93161
 30
0.0
 11
-248.280665
 21
436.93161
 31
0.0
  0
LINE
  5
5D2
330
1F
100
AcDbEntity
  8
LC-001-100-D00-0
 62
     7
370
    50
100
AcDbLine
 10
-248.280665
 20
429.93161
 30
0.0
 11
-274.780665
 21
429.93161
 31
0.0
  0
LINE
  5
5D3
330
1F
100
AcDbEntity
  8
LC-001-100-D00-0
 62
     7
370
    50
100
AcDbLine
 10
-278.780665
 20
436.93161
 30
0.0
 11
-274.780665
 21
436.93161
 31
0.0
  0
ARC
  5
5D4
330
1F
100
AcDbEntity
  8
LC-001-100-D00-0
 62
     7
370
    50
100
AcDbCircle
 10
-278.780665
 20
435.93161
 30
0.0
 40
1.0
100
AcDbArc
 50
90.0
 51
180.0
  0
LINE
  5
5D5
330
1F
100
AcDbEntity
  8
LC-001-100-D00-0
 62
     7
370
    50
100
AcDbLine
 10
-279.780665
 20
429.93161
 30
0.0
 11
-279.780665
 21
435.931611
 31
0.0
  0
LINE
  5
5D6
330
1F
100
AcDbEntity
  8
LC-001-100-D00-0
 62
     7
370
    50
100
AcDbLine
 10
-274.780665
 20
429.93161
 30
0.0
 11
-279.780665
 21
429.93161
 31
0.0
  0
LINE
  5
5D7
330
1F
100
AcDbEntity
  8
LC-001-100-D00-0
 62
     7
370
    50
100
AcDbLine
 10
-252.780665
 20
417.93161
 30
0.0
 11
-256.505748
 21
417.93161
 31
0.0
  0
INSERT
  5
5F9
330
1F
100
AcDbEntity
  8
LC-001-100-D00-0
 62
     7
370
    50
100
AcDbBlockReference
  2
POLY15
 10
0.0
 20
0.0
 30
0.0
  0
LINE
  5
5FA
330
1F
100
AcDbEntity
  8
LC-001-100-D00-0
 62
     7
370
    50
100
AcDbLine
 10
-324.092945
 20
307.431608
 30
0.0
 11
-335.530666
 21
307.431608
 31
0.0
  0
LINE
  5
5FB
330
1F
100
AcDbEntity
  8
LC-001-100-D00-0
 62
     7
370
    50
100
AcDbLine
 10
-316.530665
 20
307.431608
 30
0.0
 11
-324.092945
 21
307.431608
 31
0.0
  0
LINE
  5
5FC
330
1F
100
AcDbEntity
  8
LC-001-100-D00-0
 62
     7
370
    50
100
AcDbLine
 10
-336.030667
 20
330.43161
 30
0.0
 11
-316.030664
 21
330.43161
 31
0.0
  0
LINE
  5
5FD
330
1F
100
AcDbEntity
  8
LC-001-100-D00-0
 62
     7
370
    50
100
AcDbLine
 10
-336.030667
 20
326.93161
 30
0.0
 11
-316.030664
 21
326.93161
 31
0.0
  0
LINE
  5
5FE
330
1F
100
AcDbEntity
  8
LC-001-100-D00-0
 62
     7
370
    50
100
AcDbLine
 10
-323.990961
 20
316.431611
 30
0.0
 11
-316.030664
 21
316.431611
 31
0.0
  0
LINE
  5
5FF
330
1F
100
AcDbEntity
  8
LC-001-100-D00-0
 62
     7
370
    50
100
AcDbLine
 10
-336.030667
 20
316.431611
 30
0.0
 11
-323.990961
 21
316.431611
 31
0.0
  0
LINE
  5
600
330
1F
100
AcDbEntity
  8
LC-001-100-D00-0
 62
     7
370
    50
100
AcDbLine
 10
-324.194928
 20
315.431609
 30
0.0
 11
-335.030665
 21
315.431609
 31
0.0
  0
LINE
  5
601
330
1F
100
AcDbEntity
  8
LC-001-100-D00-0
 62
     7
370
    50
100
AcDbLine
 10
-317.030666
 20
315.431609
 30
0.0
 11
-324.194928
 21
315.431609
 31
0.0
  0
INSERT
  5
609
330
1F
100
AcDbEntity
  8
LC-001-100-D00-0
 62
     7
370
    25
100
AcDbBlockReference
  2
KLON30
 10
0.0
 20
0.0
 30
0.0
  0
INSERT
  5
616
330
1F
100
AcDbEntity
  8
LC-001-100-D00-0
 62
     7
370
    25
100
AcDbBlockReference
  2
KLON31
 10
0.0
 20
0.0
 30
0.0
  0
INSERT
  5
61C
330
1F
100
AcDbEntity
  8
LC-001-100-D00-0
 62
     7
370
    25
100
AcDbBlockReference
  2
KLON32
 10
0.0
 20
0.0
 30
0.0
  0
INSERT
  5
622
330
1F
100
AcDbEntity
  8
LC-001-100-D00-0
 62
     7
370
    25
100
AcDbBlockReference
  2
KLON33
 10
0.0
 20
0.0
 30
0.0
  0
LINE
  5
623
330
1F
100
AcDbEntity
  8
LC-001-100-D00-0
 62
     7
370
    25
100
AcDbLine
 10
-288.58765
 20
406.61094
 30
0.0
 11
-287.508714
 21
407.689876
 31
0.0
  0
INSERT
  5
62B
330
1F
100
AcDbEntity
  8
LC-001-100-D00-0
 62
     7
370
    25
100
AcDbBlockReference
  2
KLON34
 10
0.0
 20
0.0
 30
0.0
  0
INSERT
  5
631
330
1F
100
AcDbEntity
  8
LC-001-100-D00-0
 62
     7
370
    25
100
AcDbBlockReference
  2
KLON35
 10
0.0
 20
0.0
 30
0.0
  0
INSERT
  5
638
330
1F
100
AcDbEntity
  8
LC-001-100-D00-0
 62
     7
370
    25
100
AcDbBlockReference
  2
KLON36
 10
0.0
 20
0.0
 30
0.0
  0
INSERT
  5
640
330
1F
100
AcDbEntity
  8
LC-001-100-D00-0
 62
     7
370
    25
100
AcDbBlockReference
  2
KLON37
 10
0.0
 20
0.0
 30
0.0
  0
DIMENSION
  5
641
330
1F
100
AcDbEntity
  8
LC-001-100-D00-0
 62
     7
370
    25
100
AcDbDimension
  2
*D60
 10
-169.563703
 20
402.93161
 30
0.0
 11
-224.563703
 21
311.974293
 31
0.0
 70
   160
  1
24
 71
     5
 42
24.0
 53
90.0
  3
LC-DIM-L-0100-02-02
100
AcDbAlignedDimension
 13
-241.530665
 23
378.93161
 33
0.0
 14
-257.037808
 24
402.93161
 34
0.0
 50
90.0
100
AcDbRotatedDimension
  0
DIMENSION
  5
64F
330
1F
100
AcDbEntity
  8
LC-001-100-D00-0
 62
     7
370
    25
100
AcDbDimension
  2
*D61
 10
-398.512699
 20
368.98077
 30
0.0
 11
-453.512699
 21
475.324293
 31
0.0
 70
   160
  1
DN50
 71
     5
 42
49.90168
 53
90.0
  3
LC-DIM-L-0100-02-02
100
AcDbAlignedDimension
 13
-364.530665
 23
418.88245
 33
0.0
 14
-364.530665
 24
368.98077
 34
0.0
 50
90.0
100
AcDbRotatedDimension
  0
DIMENSION
  5
65E
330
1F
100
AcDbEntity
  8
LC-001-100-D00-0
 62
     7
370
    25
100
AcDbDimension
  2
*D62
 10
-518.311593
 20
307.43161
 30
0.0
 11
-573.311593
 21
473.839293
 31
0.0
 70
   160
  1
68-129,5
 71
     5
 42
129.5
 53
90.0
  3
LC-DIM-L-0100-01-02
100
AcDbAlignedDimension
 13
-339.030665
 23
436.93161
 33
0.0
 14
-335.530665
 24
307.43161
 34
0.0
 50
90.0
100
AcDbRotatedDimension
  0
LINE
  5
66C
330
1F
100
AcDbEntity
  8
LC-001-100-D00-0
  6
DASHDOT
 62
     7
370
    25
100
AcDbLine
 10
-377.530665
 20
393.93161
 30
0.0
 11
-294.82192
 21
393.93161
 31
0.0
  0
LINE
  5
66D
330
1F
100
AcDbEntity
  8
LC-001-100-D00-0
  6
DASHDOT
 62
     7
370
    25
100
AcDbLine
 10
-261.530665
 20
436.93161
 30
0.0
 11
-261.530665
 21
368.93161
 31
0.0
  0
LINE
  5
66E
330
1F
100
AcDbEntity
  8
LC-001-100-D00-0
  6
DASHDOT
 62
     7
370
    25
100
AcDbLine
 10
-326.135781
 20
307.431608
 30
0.0
 11
-326.135781
 21
368.93161
 31
0.0
  0
DIMENSION
  5
670
330
1F
100
AcDbEntity
  8
LC-002-003-----0
 62
     7
370
    25
100
AcDbDimension
  2
*D63
 10
-261.530665
 20
169.414293
 30
0.0
 11
-382.539514
 21
224.414293
 31
0.0
 70
   160
 71
     5
 42
105.999999
  3
LC-DIM-L-0100-02-02
100
AcDbAlignedDimension
 13
-367.530664
 23
371.98749
 33
0.0
 14
-261.530665
 24
371.93161
 34
0.0
100
AcDbRotatedDimension
  0
DIMENSION
  5
67E
330
1F
100
AcDbEntity
  8
LC-002-003-----0
 62
     7
370
    25
100
AcDbDimension
  2
*D64
 10
-221.530666
 20
61.009293
 30
0.0
 11
-297.349189
 21
116.009293
 31
0.0
 70
   160
 71
     5
 42
145.999998
  3
LC-DIM-L-0100-02-02
100
AcDbAlignedDimension
 13
-367.530664
 23
371.98749
 33
0.0
 14
-221.530666
 24
383.865363
 34
0.0
100
AcDbRotatedDimension
  0
DIMENSION
  5
68B
330
1F
100
AcDbEntity
  8
LC-002-003-----0
 62
     7
370
    25
100
AcDbDimension
  2
*D65
 10
690.326133
 20
368.931608
 30
0.0
 11
635.326133
 21
433.744293
 31
0.0
 70
   160
 71
     5
 42
68.0
 53
90.0
  3
LC-DIM-L-0100-02-02
100
AcDbAlignedDimension
 13
592.593428
 23
436.931609
 33
0.0
 14
306.093429
 24
368.931608
 34
0.0
 50
90.0
100
AcDbRotatedDimension
  0
LINE
  5
69A
330
1F
100
AcDbEntity
  8
LC-001-100-D00-0
 62
     7
370
    50
100
AcDbLine
 10
269.160468
 20
-44.348784
 30
0.0
 11
269.160468
 21
-18.848784
 31
0.0
  0
LINE
  5
69B
330
1F
100
AcDbEntity
  8
LC-001-100-D00-0
 62
     7
370
    50
100
AcDbLine
 10
219.160467
 20
-18.848784
 30
0.0
 11
219.160467
 21
-44.348784
 31
0.0
  0
LINE
  5
69C
330
1F
100
AcDbEntity
  8
LC-001-100-D00-0
 62
     7
370
    50
100
AcDbLine
 10
219.160467
 20
-44.348784
 30
0.0
 11
219.964316
 21
-47.348782
 31
0.0
  0
LINE
  5
69D
330
1F
100
AcDbEntity
  8
LC-001-100-D00-0
 62
     7
370
    50
100
AcDbLine
 10
268.356619
 20
-47.348782
 30
0.0
 11
269.160468
 21
-44.348784
 31
0.0
  0
LINE
  5
69E
330
1F
100
AcDbEntity
  8
LC-001-100-D00-0
 62
     7
370
    50
100
AcDbLine
 10
219.160467
 20
-44.348784
 30
0.0
 11
269.160468
 21
-44.348784
 31
0.0
  0
LINE
  5
69F
330
1F
100
AcDbEntity
  8
LC-001-100-D00-0
 62
     7
370
    50
100
AcDbLine
 10
268.356619
 20
-47.348782
 30
0.0
 11
219.964316
 21
-47.348782
 31
0.0
  0
ENDSEC
  0
SECTION
  2
OBJECTS
  0
DICTIONARY
  5
C
330
0
100
AcDbDictionary
281
     1
  3
ACAD_GROUP
350
D
  3
ACAD_LAYOUT
350
1A
  3
ACAD_MLINESTYLE
350
17
  3
ACAD_PLOTSETTINGS
350
19
  3
ACAD_PLOTSTYLENAME
350
E
  0
DICTIONARY
  5
D
102
{ACAD_REACTORS
330
C
102
}
330
C
100
AcDbDictionary
281
     1
  3
LCGROUP1165
350
6A0
  0
DICTIONARY
  5
1A
102
{ACAD_REACTORS
330
C
102
}
330
C
100
AcDbDictionary
281
     1
  3
Layout1
350
1E
  3
Layout2
350
26
  3
Model
350
22
  0
DICTIONARY
  5
17
102
{ACAD_REACTORS
330
C
102
}
330
C
100
AcDbDictionary
281
     1
  3
Standard
350
18
  0
DICTIONARY
  5
19
102
{ACAD_REACTORS
330
C
102
}
330
C
100
AcDbDictionary
281
     1
  0
ACDBDICTIONARYWDFLT
  5
E
102
{ACAD_REACTORS
330
C
102
}
330
C
100
AcDbDictionary
281
     1
  3
Normal
350
F
100
AcDbDictionaryWithDefault
340
F
  0
GROUP
  5
6A0
102
{ACAD_REACTORS
330
D
102
}
330
D
100
AcDbGroup
300
Gehäuse
 70
     1
 71
     1
340
343
340
344
340
345
340
346
340
347
340
348
340
349
340
34A
340
34B
340
34C
340
34D
340
34E
340
34F
340
350
340
351
340
352
340
353
340
354
340
355
340
356
340
357
340
358
340
359
340
35A
340
35B
340
35C
340
35D
340
35E
340
35F
340
360
340
361
340
362
340
363
340
364
340
365
340
366
340
367
340
368
340
369
340
36A
340
36B
340
36C
340
36D
340
36E
340
36F
340
370
340
371
340
372
340
373
340
374
340
375
340
376
340
377
340
378
340
379
340
37A
340
37B
340
37C
340
37D
340
37E
340
37F
340
380
340
381
340
382
340
383
340
384
340
385
340
386
340
387
340
388
340
389
340
38A
340
38B
340
38C
340
38D
340
38E
340
38F
340
390
340
391
340
392
340
393
340
394
340
395
340
396
340
397
340
398
340
399
340
39A
340
39B
340
39C
340
39D
340
39E
340
39F
340
3A0
340
3A1
340
3A2
340
3A3
340
3A4
340
3A5
340
3A6
340
3A7
340
3A8
340
3A9
340
3AA
340
3AB
340
3AC
340
3AD
340
3AE
340
3BB
340
3BC
340
3C8
340
3C9
340
3D6
  0
LAYOUT
  5
1E
102
{ACAD_REACTORS
330
1A
102
}
330
1A
100
AcDbPlotSettings
  1

  2

  4

  6

 40
0.0
 41
0.0
 42
0.0
 43
0.0
 44
0.0
 45
0.0
 46
0.0
 47
0.0
 48
0.0
 49
0.0
140
0.0
141
0.0
142
1.0
143
1.0
 70
   688
 72
     0
 73
     0
 74
     5
  7

 75
    16
147
1.0
148
0.0
149
0.0
100
AcDbLayout
  1
Layout1
 70
     1
 71
     1
 10
-838.869441
 20
-601.300707
 11
1261.130559
 21
883.699293
 12
0.0
 22
0.0
 32
0.0
 14
-838.869441
 24
-601.300707
 34
0.0
 15
1261.130559
 25
883.699293
 35
0.0
146
0.0
 13
0.0
 23
0.0
 33
0.0
 16
1.0
 26
0.0
 36
0.0
 17
0.0
 27
1.0
 37
0.0
 76
     0
330
1B
  0
LAYOUT
  5
26
102
{ACAD_REACTORS
330
1A
102
}
330
1A
100
AcDbPlotSettings
  1

  2

  4

  6

 40
0.0
 41
0.0
 42
0.0
 43
0.0
 44
0.0
 45
0.0
 46
0.0
 47
0.0
 48
0.0
 49
0.0
140
0.0
141
0.0
142
1.0
143
1.0
 70
   688
 72
     0
 73
     0
 74
     5
  7

 75
    16
147
1.0
148
0.0
149
0.0
100
AcDbLayout
  1
Layout2
 70
     1
 71
     2
 10
0.0
 20
0.0
 11
0.0
 21
0.0
 12
0.0
 22
0.0
 32
0.0
 14
0.0
 24
0.0
 34
0.0
 15
0.0
 25
0.0
 35
0.0
146
0.0
 13
0.0
 23
0.0
 33
0.0
 16
1.0
 26
0.0
 36
0.0
 17
0.0
 27
1.0
 37
0.0
 76
     0
330
23
  0
LAYOUT
  5
22
102
{ACAD_REACTORS
330
1A
102
}
330
1A
100
AcDbPlotSettings
  1

  2

  4

  6

 40
0.0
 41
0.0
 42
0.0
 43
0.0
 44
0.0
 45
0.0
 46
0.0
 47
0.0
 48
0.0
 49
0.0
140
0.0
141
0.0
142
1.0
143
1.0
 70
  1776
 72
     0
 73
     0
 74
     0
  7

 75
     0
147
1.0
148
0.0
149
0.0
100
AcDbLayout
  1
Model
 70
     1
 71
     0
 10
-838.869441
 20
-601.300707
 11
1261.130559
 21
883.699293
 12
0.0
 22
0.0
 32
0.0
 14
-838.869441
 24
-601.300707
 34
0.0
 15
1261.130559
 25
883.699293
 35
0.0
146
0.0
 13
0.0
 23
0.0
 33
0.0
 16
1.0
 26
0.0
 36
0.0
 17
0.0
 27
1.0
 37
0.0
 76
     0
330
1F
  0
MLINESTYLE
  5
18
102
{ACAD_REACTORS
330
17
102
}
330
17
100
AcDbMlineStyle
  2
Standard
 70
     0
  3

 62
   256
 51
90.0
 52
90.0
 71
     2
 49
0.5
 62
   256
  6
BYLAYER
 49
-0.5
 62
   256
  6
BYLAYER
  0
ACDBPLACEHOLDER
  5
F
102
{ACAD_REACTORS
330
E
102
}
330
E
  0
ENDSEC
  0
EOF
