  0
SECTION
  2
HEADER
  9
$ACADVER
  1
AC1009
  9
$INSBASE
 10
43.546428
 20
147.864
 30
0.0
  9
$EXTMIN
 10
-79.453572
 20
60.864
 30
0.0
  9
$EXTMAX
 10
760.546428
 20
654.864
 30
0.0
  9
$LIMMIN
 10
-79.453572
 20
60.864
  9
$LIMMAX
 10
760.546428
 20
654.864
  9
$ORTHOMODE
 70
     0
  9
$REGENMODE
 70
     1
  9
$FILLMODE
 70
     1
  9
$QTEXTMODE
 70
     0
  9
$MIRRTEXT
 70
     1
  9
$DRAGMODE
 70
     2
  9
$LTSCALE
 40
2.0
  9
$OSMODE
 70
     0
  9
$ATTMODE
 70
     1
  9
$TEXTSIZE
 40
0.2
  9
$TRACEWID
 40
0.05
  9
$TEXTSTYLE
  7
STANDARD
  9
$CLAYER
  8
0
  9
$CELTYPE
  6
BYLAYER
  9
$CECOLOR
 62
     7
  9
$DIMSCALE
 40
2.0
  9
$DIMASZ
 40
3.5
  9
$DIMEXO
 40
0.0625
  9
$DIMDLI
 40
0.38
  9
$DIMRND
 40
0.0
  9
$DIMDLE
 40
0.0
  9
$DIMEXE
 40
0.18
  9
$DIMTP
 40
0.0
  9
$DIMTM
 40
0.0
  9
$DIMTXT
 40
3.5
  9
$DIMCEN
 40
0.09
  9
$DIMTSZ
 40
0.0
  9
$DIMTOL
 70
     0
  9
$DIMLIM
 70
     0
  9
$DIMTIH
 70
     1
  9
$DIMTOH
 70
     1
  9
$DIMSE1
 70
     0
  9
$DIMSE2
 70
     0
  9
$DIMTAD
 70
     1
  9
$DIMZIN
 70
     0
  9
$DIMBLK
  1

  9
$DIMASO
 70
     1
  9
$DIMSHO
 70
     1
  9
$DIMPOST
  1

  9
$DIMAPOST
  1

  9
$DIMALT
 70
     0
  9
$DIMALTD
 70
     2
  9
$DIMALTF
 40
25.4
  9
$DIMLFAC
 40
1.0
  9
$DIMTOFL
 70
     0
  9
$DIMTVP
 40
0.0
  9
$DIMTIX
 70
     0
  9
$DIMSOXD
 70
     0
  9
$DIMSAH
 70
     0
  9
$DIMBLK1
  1

  9
$DIMBLK2
  1

  9
$DIMSTYLE
  2
STANDARD
  9
$DIMCLRD
 70
     0
  9
$DIMCLRE
 70
     0
  9
$DIMCLRT
 70
     0
  9
$DIMTFAC
 40
1.0
  9
$DIMGAP
 40
0.09
  9
$LUNITS
 70
     2
  9
$LUPREC
 70
     2
  9
$AXISMODE
 70
     0
  9
$AXISUNIT
 10
0.0
 20
0.0
  9
$SKETCHINC
 40
0.1
  9
$FILLETRAD
 40
0.0
  9
$AUNITS
 70
     0
  9
$AUPREC
 70
     0
  9
$MENU
  1
acad
  9
$ELEVATION
 40
0.0
  9
$PELEVATION
 40
0.0
  9
$THICKNESS
 40
0.0
  9
$LIMCHECK
 70
     0
  9
$BLIPMODE
 70
     1
  9
$CHAMFERA
 40
0.0
  9
$CHAMFERB
 40
0.0
  9
$SKPOLY
 70
     0
  9
$TDCREATE
 40
0.000000000
  9
$TDUPDATE
 40
0.000000000
  9
$TDINDWG
 40
0.0000000000
  9
$TDUSRTIMER
 40
0.0000000000
  9
$USRTIMER
 70
     1
  9
$ANGBASE
 50
0.0
  9
$ANGDIR
 70
     0
  9
$PDMODE
 70
     0
  9
$PDSIZE
 40
0.0
  9
$PLINEWID
 40
0.0
  9
$COORDS
 70
     0
  9
$SPLFRAME
 70
     0
  9
$SPLINETYPE
 70
     6
  9
$SPLINESEGS
 70
     8
  9
$ATTDIA
 70
     0
  9
$ATTREQ
 70
     1
  9
$HANDLING
 70
     1
  9
$HANDSEED
  5
1EE
  9
$SURFTAB1
 70
     6
  9
$SURFTAB2
 70
     6
  9
$SURFTYPE
 70
     6
  9
$SURFU
 70
     6
  9
$SURFV
 70
     6
  9
$UCSNAME
  2

  9
$UCSORG
 10
0.0
 20
0.0
 30
0.0
  9
$UCSXDIR
 10
1.0
 20
0.0
 30
0.0
  9
$UCSYDIR
 10
0.0
 20
1.0
 30
0.0
  9
$PUCSNAME
  2

  9
$PUCSORG
 10
0.0
 20
0.0
 30
0.0
  9
$PUCSXDIR
 10
1.0
 20
0.0
 30
0.0
  9
$PUCSYDIR
 10
0.0
 20
1.0
 30
0.0
  9
$USERI1
 70
     0
  9
$USERI2
 70
     0
  9
$USERI3
 70
     0
  9
$USERI4
 70
     0
  9
$USERI5
 70
     0
  9
$USERR1
 40
0.0
  9
$USERR2
 40
0.0
  9
$USERR3
 40
0.0
  9
$USERR4
 40
0.0
  9
$USERR5
 40
0.0
  9
$WORLDVIEW
 70
     1
  9
$SHADEDGE
 70
     3
  9
$SHADEDIF
 70
    70
  9
$TILEMODE
 70
     1
  9
$MAXACTVP
 70
    16
  9
$PINSBASE
 10
0.0
 20
0.0
 30
0.0
  9
$PLIMCHECK
 70
     0
  9
$PEXTMIN
 10
1.000000E+20
 20
1.000000E+20
 30
1.000000E+20
  9
$PEXTMAX
 10
-1.000000E+20
 20
-1.000000E+20
 30
-1.000000E+20
  9
$PLIMMIN
 10
-79.453572
 20
60.864
  9
$PLIMMAX
 10
760.546428
 20
654.864
  9
$UNITMODE
 70
     0
  9
$VISRETAIN
 70
     0
  9
$PLINEGEN
 70
     1
  9
$PSLTSCALE
 70
     0
  9
$TREEDEPTH
 70
  3020
  9
$DWGCODEPAGE
  3
dos850
  0
ENDSEC
  0
SECTION
  2
TABLES
  0
TABLE
  2
VPORT
 70
     1
  0
VPORT
  2
*ACTIVE
 70
     0
 10
0.0
 20
0.0
 11
1.0
 21
1.0
 12
420.0
 22
297.0
 13
0.0
 23
0.0
 14
1.0
 24
1.0
 15
0.0
 25
0.0
 16
0.0
 26
0.0
 36
1.0
 17
-79.453572
 27
60.864
 37
0.0
 40
594.0
 41
1.604229
 42
50.0
 43
0.0
 44
0.0
 50
0.0
 51
0.0
 71
     0
 72
   100
 73
     1
 74
     1
 75
     0
 76
     0
 77
     0
 78
     0
  0
ENDTAB
  0
TABLE
  2
LTYPE
 70
     3
  0
LTYPE
  2
CONTINUOUS
 70
    64
  3
Solid line
 72
    65
 73
     0
 40
0.0
  0
LTYPE
  2
DASHED
 70
    64
  3
__ __ __ __ __
 72
    65
 73
     2
 40
6.25
 49
5.0
 49
-1.25
  0
LTYPE
  2
DASHDOT
 70
    64
  3
__ . __ . __ . __ . __
 72
    65
 73
     4
 40
7.5
 49
5.0
 49
-1.25
 49
0.0
 49
-1.25
  0
ENDTAB
  0
TABLE
  2
LAYER
 70
    10
  0
LAYER
  2
0
 70
     0
 62
     7
  6
CONTINUOUS
  0
LAYER
  2
LC-INFO-1-2-MM-A3-0
 70
     1
 62
    -1
  6
CONTINUOUS
  0
LAYER
  2
LC-004-003-MTH-0
 70
     0
 62
     2
  6
CONTINUOUS
  0
LAYER
  2
LC-005-003-MTG-0
 70
     0
 62
     2
  6
CONTINUOUS
  0
LAYER
  2
LC-003-003-----0
 70
     0
 62
     2
  6
CONTINUOUS
  0
LAYER
  2
LC-006-005-----0
 70
     0
 62
     2
  6
CONTINUOUS
  0
LAYER
  2
LC-007-000-----0
 70
     0
 62
     7
  6
CONTINUOUS
  0
LAYER
  2
LC-001-002-----0
 70
     0
 62
     2
  6
DASHDOT
  0
LAYER
  2
LC-002-002-RND-0
 70
     0
 62
     1
  6
CONTINUOUS
  0
LAYER
  2
LC-000
 70
     0
 62
     7
  6
CONTINUOUS
  0
ENDTAB
  0
TABLE
  2
STYLE
 70
     4
  0
STYLE
  2
STANDARD
 70
     0
 40
0.0
 41
1.0
 50
0.0
 71
     0
 42
0.0
  3
txt
  4

  0
STYLE
  2
LC-STANDARD
 70
    64
 40
0.0
 41
1.0
 50
0.0
 71
     0
 42
3.5
  3
MONOTXT
  4

  0
STYLE
  2
LC-TXTSTYLE-150-400-0-0-D2
 70
    64
 40
0.0
 41
1.0
 50
15.0
 71
     0
 42
3.5
  3
MONOTXT
  4

  0
STYLE
  2
LC-TXTSTYLE-150-400-0-0-D3
 70
    64
 40
0.0
 41
1.0
 50
15.0
 71
     0
 42
3.5
  3
LC-STANDARD
  4

  0
ENDTAB
  0
TABLE
  2
VIEW
 70
     0
  0
ENDTAB
  0
TABLE
  2
UCS
 70
     0
  0
ENDTAB
  0
TABLE
  2
APPID
 70
     1
  0
APPID
  2
ACAD
 70
     0
  0
ENDTAB
  0
TABLE
  2
DIMSTYLE
 70
     3
  0
DIMSTYLE
  2
STANDARD
 70
     0
  3

  4

  5

  6

  7

 40
1.0
 41
0.18
 42
0.0625
 43
0.38
 44
0.18
 45
0.0
 46
0.0
 47
0.0
 48
0.0
 71
     0
 72
     0
 73
     1
 74
     1
 75
     0
 76
     0
 77
     0
 78
     0
140
0.18
141
0.09
142
0.0
143
25.4
144
1.0
145
0.0
146
1.0
147
0.09
170
     0
171
     2
172
     0
173
     0
174
     0
175
     0
176
     0
177
     0
178
     0
  0
DIMSTYLE
  2
LC-STANDARD
 70
     0
  3

  4

  5

  6

  7

 40
1.0
 41
3.5
 42
0.0
 43
7.5
 44
1.8
 45
0.0
 46
0.0
 47
0.0
 48
0.0
 71
     0
 72
     0
 73
     0
 74
     0
 75
     0
 76
     0
 77
     1
 78
     8
140
3.5
141
0.0
142
0.0
143
25.4
144
1.0
145
0.0
146
0.71
147
1.5
170
     0
171
     2
172
     1
173
     0
174
     0
175
     0
176
     0
177
     0
178
     3
  0
DIMSTYLE
  2
LC-DIM-L-0090-02-02
 70
     0
  3

  4

  5

  6

  7

 40
2.0
 41
3.5
 42
0.0
 43
7.5
 44
1.8
 45
0.0
 46
0.0
 47
0.0
 48
0.0
 71
     0
 72
     0
 73
     0
 74
     0
 75
     0
 76
     0
 77
     1
 78
     8
140
9.0
141
0.0
142
0.0
143
25.4
144
1.0
145
0.0
146
0.71
147
1.5
170
     0
171
     2
172
     0
173
     0
174
     0
175
     0
176
     2
177
     2
178
     6
  0
ENDTAB
  0
ENDSEC
  0
SECTION
  2
BLOCKS
  0
BLOCK
  8
0
  5
23
  2
*D0
 70
    65
 10
0.0
 20
0.0
 30
0.0
  3
*D0
  0
LINE
  8
LC-004-003-MTH-0
  6
CONTINUOUS
  5
25
 10
141.277448
 20
352.512145
 30
0.0
 11
87.2
 21
352.512145
 31
0.0
  0
LINE
  8
LC-004-003-MTH-0
  6
CONTINUOUS
  5
26
 10
141.277448
 20
487.512145
 30
0.0
 11
87.2
 21
487.512145
 31
0.0
  0
LINE
  8
LC-005-003-MTG-0
  6
CONTINUOUS
  5
28
 10
98.0
 20
352.512145
 30
0.0
 11
98.0
 21
487.512145
 31
0.0
  0
LINE
  8
LC-003-003-----0
  6
CONTINUOUS
  5
2A
 10
95.650529
 20
370.358153
 30
0.0
 11
98.0
 21
352.512145
 31
0.0
  0
LINE
  8
LC-003-003-----0
  6
CONTINUOUS
  5
2B
 10
98.0
 20
352.512145
 30
0.0
 11
100.349471
 21
370.358153
 31
0.0
  0
LINE
  8
LC-003-003-----0
  6
CONTINUOUS
  5
2C
 10
100.349471
 20
370.358153
 30
0.0
 11
95.650529
 21
370.358153
 31
0.0
  0
LINE
  8
LC-003-003-----0
  6
CONTINUOUS
  5
2D
 10
96.261391
 20
370.398191
 30
0.0
 11
98.0
 21
357.192145
 31
0.0
  0
LINE
  8
LC-003-003-----0
  6
CONTINUOUS
  5
2E
 10
98.0
 20
357.192145
 30
0.0
 11
99.738609
 21
370.398191
 31
0.0
  0
LINE
  8
LC-003-003-----0
  6
CONTINUOUS
  5
2F
 10
96.872254
 20
370.438229
 30
0.0
 11
98.0
 21
361.872145
 31
0.0
  0
LINE
  8
LC-003-003-----0
  6
CONTINUOUS
  5
30
 10
98.0
 20
361.872145
 30
0.0
 11
99.127746
 21
370.438229
 31
0.0
  0
LINE
  8
LC-003-003-----0
  6
CONTINUOUS
  5
31
 10
97.483116
 20
370.478267
 30
0.0
 11
98.0
 21
366.552145
 31
0.0
  0
LINE
  8
LC-003-003-----0
  6
CONTINUOUS
  5
32
 10
98.0
 20
366.552145
 30
0.0
 11
98.516884
 21
370.478267
 31
0.0
  0
LINE
  8
LC-003-003-----0
  6
CONTINUOUS
  5
33
 10
100.349471
 20
469.666138
 30
0.0
 11
98.0
 21
487.512145
 31
0.0
  0
LINE
  8
LC-003-003-----0
  6
CONTINUOUS
  5
34
 10
98.0
 20
487.512145
 30
0.0
 11
95.650529
 21
469.666138
 31
0.0
  0
LINE
  8
LC-003-003-----0
  6
CONTINUOUS
  5
35
 10
95.650529
 20
469.666138
 30
0.0
 11
100.349471
 21
469.666138
 31
0.0
  0
LINE
  8
LC-003-003-----0
  6
CONTINUOUS
  5
36
 10
99.738609
 20
469.6261
 30
0.0
 11
98.0
 21
482.832145
 31
0.0
  0
LINE
  8
LC-003-003-----0
  6
CONTINUOUS
  5
37
 10
98.0
 20
482.832145
 30
0.0
 11
96.261391
 21
469.6261
 31
0.0
  0
LINE
  8
LC-003-003-----0
  6
CONTINUOUS
  5
38
 10
99.127746
 20
469.586061
 30
0.0
 11
98.0
 21
478.152145
 31
0.0
  0
LINE
  8
LC-003-003-----0
  6
CONTINUOUS
  5
39
 10
98.0
 20
478.152145
 30
0.0
 11
96.872254
 21
469.586061
 31
0.0
  0
LINE
  8
LC-003-003-----0
  6
CONTINUOUS
  5
3A
 10
98.516884
 20
469.546023
 30
0.0
 11
98.0
 21
473.472145
 31
0.0
  0
LINE
  8
LC-003-003-----0
  6
CONTINUOUS
  5
3B
 10
98.0
 20
473.472145
 30
0.0
 11
97.483116
 21
469.546023
 31
0.0
  0
TEXT
  8
LC-003-003-----0
  6
CONTINUOUS
 62
     6
  5
3D
 10
87.568001
 20
398.316052
 30
0.0
 40
18.0
  1
Ø135
 50
90.0
 41
0.9
 51
15.0
  7
LC-TXTSTYLE-150-400-0-0-D0
 72
     1
 11
87.568001
 21
422.807391
 31
0.0
  0
ENDBLK
  8
0
  5
3E
  0
BLOCK
  8
0
  5
40
  2
*D1
 70
    65
 10
0.0
 20
0.0
 30
0.0
  3
*D1
  0
LINE
  8
LC-004-003-MTH-0
  6
CONTINUOUS
  5
41
 10
140.777448
 20
353.012145
 30
0.0
 11
140.777448
 21
297.2
 31
0.0
  0
LINE
  8
LC-004-003-MTH-0
  6
CONTINUOUS
  5
42
 10
237.777448
 20
364.512145
 30
0.0
 11
237.777448
 21
297.2
 31
0.0
  0
LINE
  8
LC-005-003-MTG-0
  6
CONTINUOUS
  5
43
 10
140.777448
 20
308.0
 30
0.0
 11
237.777448
 21
308.0
 31
0.0
  0
LINE
  8
LC-003-003-----0
  6
CONTINUOUS
  5
44
 10
158.623456
 20
310.349471
 30
0.0
 11
140.777448
 21
308.0
 31
0.0
  0
LINE
  8
LC-003-003-----0
  6
CONTINUOUS
  5
45
 10
140.777448
 20
308.0
 30
0.0
 11
158.623456
 21
305.650529
 31
0.0
  0
LINE
  8
LC-003-003-----0
  6
CONTINUOUS
  5
46
 10
158.623456
 20
305.650529
 30
0.0
 11
158.623456
 21
310.349471
 31
0.0
  0
LINE
  8
LC-003-003-----0
  6
CONTINUOUS
  5
47
 10
158.663494
 20
309.738609
 30
0.0
 11
145.457448
 21
308.0
 31
0.0
  0
LINE
  8
LC-003-003-----0
  6
CONTINUOUS
  5
48
 10
145.457448
 20
308.0
 30
0.0
 11
158.663494
 21
306.261391
 31
0.0
  0
LINE
  8
LC-003-003-----0
  6
CONTINUOUS
  5
49
 10
158.703532
 20
309.127746
 30
0.0
 11
150.137448
 21
308.0
 31
0.0
  0
LINE
  8
LC-003-003-----0
  6
CONTINUOUS
  5
4A
 10
150.137448
 20
308.0
 30
0.0
 11
158.703532
 21
306.872254
 31
0.0
  0
LINE
  8
LC-003-003-----0
  6
CONTINUOUS
  5
4B
 10
158.74357
 20
308.516884
 30
0.0
 11
154.817448
 21
308.0
 31
0.0
  0
LINE
  8
LC-003-003-----0
  6
CONTINUOUS
  5
4C
 10
154.817448
 20
308.0
 30
0.0
 11
158.74357
 21
307.483116
 31
0.0
  0
LINE
  8
LC-003-003-----0
  6
CONTINUOUS
  5
4D
 10
219.931441
 20
305.650529
 30
0.0
 11
237.777448
 21
308.0
 31
0.0
  0
LINE
  8
LC-003-003-----0
  6
CONTINUOUS
  5
4E
 10
237.777448
 20
308.0
 30
0.0
 11
219.931441
 21
310.349471
 31
0.0
  0
LINE
  8
LC-003-003-----0
  6
CONTINUOUS
  5
4F
 10
219.931441
 20
310.349471
 30
0.0
 11
219.931441
 21
305.650529
 31
0.0
  0
LINE
  8
LC-003-003-----0
  6
CONTINUOUS
  5
50
 10
219.891403
 20
306.261391
 30
0.0
 11
233.097448
 21
308.0
 31
0.0
  0
LINE
  8
LC-003-003-----0
  6
CONTINUOUS
  5
51
 10
233.097448
 20
308.0
 30
0.0
 11
219.891403
 21
309.738609
 31
0.0
  0
LINE
  8
LC-003-003-----0
  6
CONTINUOUS
  5
52
 10
219.851365
 20
306.872254
 30
0.0
 11
228.417448
 21
308.0
 31
0.0
  0
LINE
  8
LC-003-003-----0
  6
CONTINUOUS
  5
53
 10
228.417448
 20
308.0
 30
0.0
 11
219.851365
 21
309.127746
 31
0.0
  0
LINE
  8
LC-003-003-----0
  6
CONTINUOUS
  5
54
 10
219.811326
 20
307.483116
 30
0.0
 11
223.737448
 21
308.0
 31
0.0
  0
LINE
  8
LC-003-003-----0
  6
CONTINUOUS
  5
55
 10
223.737448
 20
308.0
 30
0.0
 11
219.811326
 21
308.516884
 31
0.0
  0
TEXT
  8
LC-003-003-----0
  6
CONTINUOUS
 62
     6
  5
56
 10
180.209702
 20
318.431999
 30
0.0
 40
18.0
  1
97
 51
15.0
  7
LC-TXTSTYLE-150-400-0-0-D0
 72
     1
 11
192.072694
 21
318.431999
 31
0.0
  0
ENDBLK
  8
0
  5
57
  0
BLOCK
  8
0
  5
59
  2
*D2
 70
    65
 10
0.0
 20
0.0
 30
0.0
  3
*D2
  0
LINE
  8
LC-004-003-MTH-0
  6
CONTINUOUS
  5
5A
 10
140.777448
 20
487.012145
 30
0.0
 11
140.777448
 21
542.8
 31
0.0
  0
LINE
  8
LC-004-003-MTH-0
  6
CONTINUOUS
  5
5B
 10
150.777448
 20
487.512145
 30
0.0
 11
150.777448
 21
542.8
 31
0.0
  0
LINE
  8
LC-003-003-----0
  6
CONTINUOUS
  5
5C
 10
122.931441
 20
529.650529
 30
0.0
 11
140.777448
 21
532.0
 31
0.0
  0
LINE
  8
LC-003-003-----0
  6
CONTINUOUS
  5
5D
 10
140.777448
 20
532.0
 30
0.0
 11
122.931441
 21
534.349471
 31
0.0
  0
LINE
  8
LC-003-003-----0
  6
CONTINUOUS
  5
5E
 10
122.931441
 20
534.349471
 30
0.0
 11
122.931441
 21
529.650529
 31
0.0
  0
LINE
  8
LC-003-003-----0
  6
CONTINUOUS
  5
5F
 10
122.891403
 20
530.261391
 30
0.0
 11
136.097448
 21
532.0
 31
0.0
  0
LINE
  8
LC-003-003-----0
  6
CONTINUOUS
  5
60
 10
136.097448
 20
532.0
 30
0.0
 11
122.891403
 21
533.738609
 31
0.0
  0
LINE
  8
LC-003-003-----0
  6
CONTINUOUS
  5
61
 10
122.851365
 20
530.872254
 30
0.0
 11
131.417448
 21
532.0
 31
0.0
  0
LINE
  8
LC-003-003-----0
  6
CONTINUOUS
  5
62
 10
131.417448
 20
532.0
 30
0.0
 11
122.851365
 21
533.127746
 31
0.0
  0
LINE
  8
LC-003-003-----0
  6
CONTINUOUS
  5
63
 10
122.811326
 20
531.483116
 30
0.0
 11
126.737448
 21
532.0
 31
0.0
  0
LINE
  8
LC-003-003-----0
  6
CONTINUOUS
  5
64
 10
126.737448
 20
532.0
 30
0.0
 11
122.811326
 21
532.516884
 31
0.0
  0
LINE
  8
LC-003-003-----0
  6
CONTINUOUS
  5
65
 10
168.623456
 20
534.349471
 30
0.0
 11
150.777448
 21
532.0
 31
0.0
  0
LINE
  8
LC-003-003-----0
  6
CONTINUOUS
  5
66
 10
150.777448
 20
532.0
 30
0.0
 11
168.623456
 21
529.650529
 31
0.0
  0
LINE
  8
LC-003-003-----0
  6
CONTINUOUS
  5
67
 10
168.623456
 20
529.650529
 30
0.0
 11
168.623456
 21
534.349471
 31
0.0
  0
LINE
  8
LC-003-003-----0
  6
CONTINUOUS
  5
68
 10
168.663494
 20
533.738609
 30
0.0
 11
155.457448
 21
532.0
 31
0.0
  0
LINE
  8
LC-003-003-----0
  6
CONTINUOUS
  5
69
 10
155.457448
 20
532.0
 30
0.0
 11
168.663494
 21
530.261391
 31
0.0
  0
LINE
  8
LC-003-003-----0
  6
CONTINUOUS
  5
6A
 10
168.703532
 20
533.127746
 30
0.0
 11
160.137448
 21
532.0
 31
0.0
  0
LINE
  8
LC-003-003-----0
  6
CONTINUOUS
  5
6B
 10
160.137448
 20
532.0
 30
0.0
 11
168.703532
 21
530.872254
 31
0.0
  0
LINE
  8
LC-003-003-----0
  6
CONTINUOUS
  5
6C
 10
168.74357
 20
532.516884
 30
0.0
 11
164.817448
 21
532.0
 31
0.0
  0
LINE
  8
LC-003-003-----0
  6
CONTINUOUS
  5
6D
 10
164.817448
 20
532.0
 30
0.0
 11
168.74357
 21
531.483116
 31
0.0
  0
LINE
  8
LC-005-003-MTG-0
  6
CONTINUOUS
  5
6E
 10
82.774928
 20
532.0
 30
0.0
 11
175.977448
 21
532.0
 31
0.0
  0
TEXT
  8
LC-003-003-----0
  6
CONTINUOUS
 62
     6
  5
6F
 10
95.36671
 20
542.431999
 30
0.0
 40
18.0
  1
10
 51
15.0
  7
LC-TXTSTYLE-150-400-0-0-D0
 72
     2
 11
119.092694
 21
542.431999
 31
0.0
  0
ENDBLK
  8
0
  5
70
  0
BLOCK
  8
0
  5
72
  2
*D3
 70
    65
 10
0.0
 20
0.0
 30
0.0
  3
*D3
  0
LINE
  8
LC-004-003-MTH-0
  6
CONTINUOUS
  5
73
 10
354.175488
 20
374.312145
 30
0.0
 11
283.2
 21
374.312145
 31
0.0
  0
LINE
  8
LC-004-003-MTH-0
  6
CONTINUOUS
  5
74
 10
348.320916
 20
439.842266
 30
0.0
 11
283.2
 21
439.842266
 31
0.0
  0
LINE
  8
LC-003-003-----0
  6
CONTINUOUS
  5
75
 10
296.349471
 20
356.466138
 30
0.0
 11
294.0
 21
374.312145
 31
0.0
  0
LINE
  8
LC-003-003-----0
  6
CONTINUOUS
  5
76
 10
294.0
 20
374.312145
 30
0.0
 11
291.650529
 21
356.466138
 31
0.0
  0
LINE
  8
LC-003-003-----0
  6
CONTINUOUS
  5
77
 10
291.650529
 20
356.466138
 30
0.0
 11
296.349471
 21
356.466138
 31
0.0
  0
LINE
  8
LC-003-003-----0
  6
CONTINUOUS
  5
78
 10
295.738609
 20
356.4261
 30
0.0
 11
294.0
 21
369.632145
 31
0.0
  0
LINE
  8
LC-003-003-----0
  6
CONTINUOUS
  5
79
 10
294.0
 20
369.632145
 30
0.0
 11
292.261391
 21
356.4261
 31
0.0
  0
LINE
  8
LC-003-003-----0
  6
CONTINUOUS
  5
7A
 10
295.127746
 20
356.386061
 30
0.0
 11
294.0
 21
364.952145
 31
0.0
  0
LINE
  8
LC-003-003-----0
  6
CONTINUOUS
  5
7B
 10
294.0
 20
364.952145
 30
0.0
 11
292.872254
 21
356.386061
 31
0.0
  0
LINE
  8
LC-003-003-----0
  6
CONTINUOUS
  5
7C
 10
294.516884
 20
356.346023
 30
0.0
 11
294.0
 21
360.272145
 31
0.0
  0
LINE
  8
LC-003-003-----0
  6
CONTINUOUS
  5
7D
 10
294.0
 20
360.272145
 30
0.0
 11
293.483116
 21
356.346023
 31
0.0
  0
LINE
  8
LC-003-003-----0
  6
CONTINUOUS
  5
7E
 10
291.650529
 20
457.688274
 30
0.0
 11
294.0
 21
439.842266
 31
0.0
  0
LINE
  8
LC-003-003-----0
  6
CONTINUOUS
  5
7F
 10
294.0
 20
439.842266
 30
0.0
 11
296.349471
 21
457.688274
 31
0.0
  0
LINE
  8
LC-003-003-----0
  6
CONTINUOUS
  5
80
 10
296.349471
 20
457.688274
 30
0.0
 11
291.650529
 21
457.688274
 31
0.0
  0
LINE
  8
LC-003-003-----0
  6
CONTINUOUS
  5
81
 10
292.261391
 20
457.728312
 30
0.0
 11
294.0
 21
444.522266
 31
0.0
  0
LINE
  8
LC-003-003-----0
  6
CONTINUOUS
  5
82
 10
294.0
 20
444.522266
 30
0.0
 11
295.738609
 21
457.728312
 31
0.0
  0
LINE
  8
LC-003-003-----0
  6
CONTINUOUS
  5
83
 10
292.872254
 20
457.76835
 30
0.0
 11
294.0
 21
449.202266
 31
0.0
  0
LINE
  8
LC-003-003-----0
  6
CONTINUOUS
  5
84
 10
294.0
 20
449.202266
 30
0.0
 11
295.127746
 21
457.76835
 31
0.0
  0
LINE
  8
LC-003-003-----0
  6
CONTINUOUS
  5
85
 10
293.483116
 20
457.808388
 30
0.0
 11
294.0
 21
453.882266
 31
0.0
  0
LINE
  8
LC-003-003-----0
  6
CONTINUOUS
  5
86
 10
294.0
 20
453.882266
 30
0.0
 11
294.516884
 21
457.808388
 31
0.0
  0
LINE
  8
LC-005-003-MTG-0
  6
CONTINUOUS
  5
87
 10
294.0
 20
349.112145
 30
0.0
 11
294.0
 21
530.244786
 31
0.0
  0
TEXT
  8
LC-003-003-----0
  6
CONTINUOUS
 62
     6
  5
88
 10
283.568001
 20
467.117512
 30
0.0
 40
18.0
  1
65,5
 50
90.0
 51
15.0
  7
LC-TXTSTYLE-150-400-0-0-D0
  0
ENDBLK
  8
0
  5
89
  0
BLOCK
  8
0
  5
8B
  2
*D4
 70
    65
 10
0.0
 20
0.0
 30
0.0
  3
*D4
  0
LINE
  8
LC-004-003-MTH-0
  6
CONTINUOUS
  5
8C
 10
345.320916
 20
436.842266
 30
0.0
 11
345.320916
 21
514.8
 31
0.0
  0
LINE
  8
LC-004-003-MTH-0
  6
CONTINUOUS
  5
8D
 10
442.320916
 20
436.842266
 30
0.0
 11
442.320916
 21
514.8
 31
0.0
  0
LINE
  8
LC-005-003-MTG-0
  6
CONTINUOUS
  5
8E
 10
345.320916
 20
504.0
 30
0.0
 11
442.320916
 21
504.0
 31
0.0
  0
LINE
  8
LC-003-003-----0
  6
CONTINUOUS
  5
8F
 10
363.166924
 20
506.349471
 30
0.0
 11
345.320916
 21
504.0
 31
0.0
  0
LINE
  8
LC-003-003-----0
  6
CONTINUOUS
  5
90
 10
345.320916
 20
504.0
 30
0.0
 11
363.166924
 21
501.650529
 31
0.0
  0
LINE
  8
LC-003-003-----0
  6
CONTINUOUS
  5
91
 10
363.166924
 20
501.650529
 30
0.0
 11
363.166924
 21
506.349471
 31
0.0
  0
LINE
  8
LC-003-003-----0
  6
CONTINUOUS
  5
92
 10
363.206962
 20
505.738609
 30
0.0
 11
350.000916
 21
504.0
 31
0.0
  0
LINE
  8
LC-003-003-----0
  6
CONTINUOUS
  5
93
 10
350.000916
 20
504.0
 30
0.0
 11
363.206962
 21
502.261391
 31
0.0
  0
LINE
  8
LC-003-003-----0
  6
CONTINUOUS
  5
94
 10
363.247
 20
505.127746
 30
0.0
 11
354.680916
 21
504.0
 31
0.0
  0
LINE
  8
LC-003-003-----0
  6
CONTINUOUS
  5
95
 10
354.680916
 20
504.0
 30
0.0
 11
363.247
 21
502.872254
 31
0.0
  0
LINE
  8
LC-003-003-----0
  6
CONTINUOUS
  5
96
 10
363.287038
 20
504.516884
 30
0.0
 11
359.360916
 21
504.0
 31
0.0
  0
LINE
  8
LC-003-003-----0
  6
CONTINUOUS
  5
97
 10
359.360916
 20
504.0
 30
0.0
 11
363.287038
 21
503.483116
 31
0.0
  0
LINE
  8
LC-003-003-----0
  6
CONTINUOUS
  5
98
 10
424.474909
 20
501.650529
 30
0.0
 11
442.320916
 21
504.0
 31
0.0
  0
LINE
  8
LC-003-003-----0
  6
CONTINUOUS
  5
99
 10
442.320916
 20
504.0
 30
0.0
 11
424.474909
 21
506.349471
 31
0.0
  0
LINE
  8
LC-003-003-----0
  6
CONTINUOUS
  5
9A
 10
424.474909
 20
506.349471
 30
0.0
 11
424.474909
 21
501.650529
 31
0.0
  0
LINE
  8
LC-003-003-----0
  6
CONTINUOUS
  5
9B
 10
424.434871
 20
502.261391
 30
0.0
 11
437.640916
 21
504.0
 31
0.0
  0
LINE
  8
LC-003-003-----0
  6
CONTINUOUS
  5
9C
 10
437.640916
 20
504.0
 30
0.0
 11
424.434871
 21
505.738609
 31
0.0
  0
LINE
  8
LC-003-003-----0
  6
CONTINUOUS
  5
9D
 10
424.394833
 20
502.872254
 30
0.0
 11
432.960916
 21
504.0
 31
0.0
  0
LINE
  8
LC-003-003-----0
  6
CONTINUOUS
  5
9E
 10
432.960916
 20
504.0
 30
0.0
 11
424.394833
 21
505.127746
 31
0.0
  0
LINE
  8
LC-003-003-----0
  6
CONTINUOUS
  5
9F
 10
424.354795
 20
503.483116
 30
0.0
 11
428.280916
 21
504.0
 31
0.0
  0
LINE
  8
LC-003-003-----0
  6
CONTINUOUS
  5
A0
 10
428.280916
 20
504.0
 30
0.0
 11
424.354795
 21
504.516884
 31
0.0
  0
TEXT
  8
LC-003-003-----0
  6
CONTINUOUS
 62
     6
  5
A1
 10
384.75317
 20
514.431999
 30
0.0
 40
18.0
  1
97
 51
15.0
  7
LC-TXTSTYLE-150-400-0-0-D0
 72
     1
 11
396.616162
 21
514.431999
 31
0.0
  0
ENDBLK
  8
0
  5
A2
  0
BLOCK
  8
0
  5
A4
  2
*D5
 70
    65
 10
0.0
 20
0.0
 30
0.0
  3
*D5
  0
LINE
  8
LC-004-003-MTH-0
  6
CONTINUOUS
  5
A5
 10
462.820916
 20
420.012145
 30
0.0
 11
500.8
 21
420.012145
 31
0.0
  0
LINE
  8
LC-004-003-MTH-0
  6
CONTINUOUS
  5
A6
 10
415.820916
 20
457.229
 30
0.0
 11
500.8
 21
457.229
 31
0.0
  0
LINE
  8
LC-003-003-----0
  6
CONTINUOUS
  5
A7
 10
492.349471
 20
402.166138
 30
0.0
 11
490.0
 21
420.012145
 31
0.0
  0
LINE
  8
LC-003-003-----0
  6
CONTINUOUS
  5
A8
 10
490.0
 20
420.012145
 30
0.0
 11
487.650529
 21
402.166138
 31
0.0
  0
LINE
  8
LC-003-003-----0
  6
CONTINUOUS
  5
A9
 10
487.650529
 20
402.166138
 30
0.0
 11
492.349471
 21
402.166138
 31
0.0
  0
LINE
  8
LC-003-003-----0
  6
CONTINUOUS
  5
AA
 10
491.738609
 20
402.1261
 30
0.0
 11
490.0
 21
415.332145
 31
0.0
  0
LINE
  8
LC-003-003-----0
  6
CONTINUOUS
  5
AB
 10
490.0
 20
415.332145
 30
0.0
 11
488.261391
 21
402.1261
 31
0.0
  0
LINE
  8
LC-003-003-----0
  6
CONTINUOUS
  5
AC
 10
491.127746
 20
402.086061
 30
0.0
 11
490.0
 21
410.652145
 31
0.0
  0
LINE
  8
LC-003-003-----0
  6
CONTINUOUS
  5
AD
 10
490.0
 20
410.652145
 30
0.0
 11
488.872254
 21
402.086061
 31
0.0
  0
LINE
  8
LC-003-003-----0
  6
CONTINUOUS
  5
AE
 10
490.516884
 20
402.046023
 30
0.0
 11
490.0
 21
405.972145
 31
0.0
  0
LINE
  8
LC-003-003-----0
  6
CONTINUOUS
  5
AF
 10
490.0
 20
405.972145
 30
0.0
 11
489.483116
 21
402.046023
 31
0.0
  0
LINE
  8
LC-003-003-----0
  6
CONTINUOUS
  5
B0
 10
487.650529
 20
475.075008
 30
0.0
 11
490.0
 21
457.229
 31
0.0
  0
LINE
  8
LC-003-003-----0
  6
CONTINUOUS
  5
B1
 10
490.0
 20
457.229
 30
0.0
 11
492.349471
 21
475.075008
 31
0.0
  0
LINE
  8
LC-003-003-----0
  6
CONTINUOUS
  5
B2
 10
492.349471
 20
475.075008
 30
0.0
 11
487.650529
 21
475.075008
 31
0.0
  0
LINE
  8
LC-003-003-----0
  6
CONTINUOUS
  5
B3
 10
488.261391
 20
475.115046
 30
0.0
 11
490.0
 21
461.909
 31
0.0
  0
LINE
  8
LC-003-003-----0
  6
CONTINUOUS
  5
B4
 10
490.0
 20
461.909
 30
0.0
 11
491.738609
 21
475.115046
 31
0.0
  0
LINE
  8
LC-003-003-----0
  6
CONTINUOUS
  5
B5
 10
488.872254
 20
475.155084
 30
0.0
 11
490.0
 21
466.589
 31
0.0
  0
LINE
  8
LC-003-003-----0
  6
CONTINUOUS
  5
B6
 10
490.0
 20
466.589
 30
0.0
 11
491.127746
 21
475.155084
 31
0.0
  0
LINE
  8
LC-003-003-----0
  6
CONTINUOUS
  5
B7
 10
489.483116
 20
475.195122
 30
0.0
 11
490.0
 21
471.269
 31
0.0
  0
LINE
  8
LC-003-003-----0
  6
CONTINUOUS
  5
B8
 10
490.0
 20
471.269
 30
0.0
 11
490.516884
 21
475.195122
 31
0.0
  0
LINE
  8
LC-005-003-MTG-0
  6
CONTINUOUS
  5
B9
 10
490.0
 20
394.812145
 30
0.0
 11
490.0
 21
547.63152
 31
0.0
  0
TEXT
  8
LC-003-003-----0
  6
CONTINUOUS
 62
     6
  5
BA
 10
479.568001
 20
484.504246
 30
0.0
 40
18.0
  1
37,2
 50
90.0
 51
15.0
  7
LC-TXTSTYLE-150-400-0-0-D0
  0
ENDBLK
  8
0
  5
BB
  0
BLOCK
  8
0
  5
BD
  2
*X6
 70
    65
 10
142.127448
 20
351.012145
 30
0.0
  3
*X6
  0
LINE
  8
LC-006-005-----0
  6
CONTINUOUS
  5
BF
 10
148.71642
 20
356.157821
 30
0.0
 11
147.273124
 21
357.601117
 31
0.0
  0
LINE
  8
LC-006-005-----0
  6
DASHED
  5
C1
 10
148.864542
 20
353.181272
 30
0.0
 11
144.296575
 21
357.749239
 31
0.0
  0
LINE
  8
LC-006-005-----0
  6
DASHED
  5
C2
 10
148.336069
 20
352.295532
 30
0.0
 11
143.410835
 21
357.220766
 31
0.0
  0
LINE
  8
LC-006-005-----0
  6
CONTINUOUS
  5
C3
 10
146.641047
 20
351.162127
 30
0.0
 11
142.27743
 21
355.525743
 31
0.0
  0
LINE
  8
LC-006-005-----0
  6
CONTINUOUS
  5
C4
 10
145.36712
 20
351.02184
 30
0.0
 11
142.137143
 21
354.251817
 31
0.0
  0
ENDBLK
  8
0
  5
C5
  0
BLOCK
  8
0
  5
C7
  2
*X7
 70
    65
 10
142.127448
 20
482.012145
 30
0.0
  3
*X7
  0
LINE
  8
LC-006-005-----0
  6
CONTINUOUS
  5
C8
 10
149.108785
 20
485.873104
 30
0.0
 11
145.988407
 21
488.993482
 31
0.0
  0
LINE
  8
LC-006-005-----0
  6
DASHED
  5
C9
 10
148.556782
 20
483.596681
 30
0.0
 11
143.711984
 21
488.441479
 31
0.0
  0
LINE
  8
LC-006-005-----0
  6
DASHED
  5
CA
 10
147.894041
 20
482.845208
 30
0.0
 11
142.960511
 21
487.778738
 31
0.0
  0
LINE
  8
LC-006-005-----0
  6
CONTINUOUS
  5
CB
 10
145.888898
 20
482.021924
 30
0.0
 11
142.137227
 21
485.773595
 31
0.0
  0
LINE
  8
LC-006-005-----0
  6
CONTINUOUS
  5
CC
 10
144.163669
 20
482.332939
 30
0.0
 11
142.448242
 21
484.048366
 31
0.0
  0
ENDBLK
  8
0
  5
CD
  0
BLOCK
  8
0
  5
CF
  2
*X8
 70
    65
 10
52.684048
 20
407.673822
 30
0.0
  3
*X8
  0
LINE
  8
LC-006-005-----0
  6
CONTINUOUS
  5
D0
 10
146.500803
 20
458.782602
 30
0.0
 11
147.908224
 21
457.375181
 31
0.0
  0
LINE
  8
LC-006-005-----0
  6
CONTINUOUS
  5
D1
 10
145.564563
 20
465.375696
 30
0.0
 11
148.052259
 21
462.887999
 31
0.0
  0
LINE
  8
LC-006-005-----0
  6
CONTINUOUS
  5
D2
 10
143.350439
 20
473.246674
 30
0.0
 11
146.311024
 21
470.28609
 31
0.0
  0
LINE
  8
LC-006-005-----0
  6
CONTINUOUS
  5
D3
 10
143.525667
 20
478.728301
 30
0.0
 11
146.250921
 21
476.003046
 31
0.0
  0
LINE
  8
LC-006-005-----0
  6
CONTINUOUS
  5
D4
 10
147.530916
 20
474.723051
 30
0.0
 11
149.461157
 21
472.79281
 31
0.0
  0
LINE
  8
LC-006-005-----0
  6
CONTINUOUS
  5
D5
 10
150.525703
 20
477.385118
 30
0.0
 11
152.787753
 21
475.123069
 31
0.0
  0
ENDBLK
  8
0
  5
D6
  0
BLOCK
  8
0
  5
D8
  2
*X9
 70
    65
 10
147.57734
 20
435.854032
 30
0.0
  3
*X9
  0
LINE
  8
LC-006-005-----0
  6
CONTINUOUS
  5
D9
 10
147.722363
 20
436.064995
 30
0.0
 11
147.926106
 21
435.861252
 31
0.0
  0
LINE
  8
LC-006-005-----0
  6
CONTINUOUS
  5
DA
 10
147.711544
 20
436.358658
 30
0.0
 11
148.198899
 21
435.871303
 31
0.0
  0
LINE
  8
LC-006-005-----0
  6
CONTINUOUS
  5
DB
 10
147.700724
 20
436.65232
 30
0.0
 11
148.471691
 21
435.881353
 31
0.0
  0
LINE
  8
LC-006-005-----0
  6
CONTINUOUS
  5
DC
 10
147.689905
 20
436.945982
 30
0.0
 11
148.744483
 21
435.891404
 31
0.0
  0
LINE
  8
LC-006-005-----0
  6
CONTINUOUS
  5
DD
 10
147.679085
 20
437.239644
 30
0.0
 11
148.915444
 21
436.003285
 31
0.0
  0
LINE
  8
LC-006-005-----0
  6
CONTINUOUS
  5
DE
 10
147.668266
 20
437.533306
 30
0.0
 11
148.904625
 21
436.296947
 31
0.0
  0
LINE
  8
LC-006-005-----0
  6
CONTINUOUS
  5
DF
 10
147.657447
 20
437.826968
 30
0.0
 11
148.893805
 21
436.59061
 31
0.0
  0
LINE
  8
LC-006-005-----0
  6
CONTINUOUS
  5
E0
 10
147.646627
 20
438.12063
 30
0.0
 11
148.882986
 21
436.884272
 31
0.0
  0
LINE
  8
LC-006-005-----0
  6
CONTINUOUS
  5
E1
 10
147.635808
 20
438.414292
 30
0.0
 11
148.872166
 21
437.177934
 31
0.0
  0
LINE
  8
LC-006-005-----0
  6
CONTINUOUS
  5
E2
 10
147.624988
 20
438.707955
 30
0.0
 11
148.861347
 21
437.471596
 31
0.0
  0
LINE
  8
LC-006-005-----0
  6
CONTINUOUS
  5
E3
 10
147.614169
 20
439.001617
 30
0.0
 11
148.850528
 21
437.765258
 31
0.0
  0
LINE
  8
LC-006-005-----0
  6
CONTINUOUS
  5
E4
 10
147.603349
 20
439.295279
 30
0.0
 11
148.839708
 21
438.05892
 31
0.0
  0
LINE
  8
LC-006-005-----0
  6
CONTINUOUS
  5
E5
 10
147.59253
 20
439.588941
 30
0.0
 11
148.828889
 21
438.352582
 31
0.0
  0
LINE
  8
LC-006-005-----0
  6
CONTINUOUS
  5
E6
 10
147.581711
 20
439.882603
 30
0.0
 11
148.818069
 21
438.646244
 31
0.0
  0
LINE
  8
LC-006-005-----0
  6
CONTINUOUS
  5
E7
 10
147.739947
 20
440.007209
 30
0.0
 11
148.80725
 21
438.939907
 31
0.0
  0
LINE
  8
LC-006-005-----0
  6
CONTINUOUS
  5
E8
 10
148.012739
 20
440.01726
 30
0.0
 11
148.79643
 21
439.233569
 31
0.0
  0
LINE
  8
LC-006-005-----0
  6
CONTINUOUS
  5
E9
 10
148.285532
 20
440.02731
 30
0.0
 11
148.785611
 21
439.527231
 31
0.0
  0
LINE
  8
LC-006-005-----0
  6
CONTINUOUS
  5
EA
 10
148.558324
 20
440.037361
 30
0.0
 11
148.774792
 21
439.820893
 31
0.0
  0
ENDBLK
  8
0
  5
EB
  0
BLOCK
  8
0
  5
ED
  2
*X10
 70
    65
 10
146.146956
 20
474.677691
 30
0.0
  3
*X10
  0
LINE
  8
LC-006-005-----0
  6
CONTINUOUS
  5
EE
 10
146.294199
 20
474.828397
 30
0.0
 11
146.439748
 21
474.682849
 31
0.0
  0
LINE
  8
LC-006-005-----0
  6
CONTINUOUS
  5
EF
 10
146.28338
 20
475.12206
 30
0.0
 11
146.71254
 21
474.6929
 31
0.0
  0
LINE
  8
LC-006-005-----0
  6
CONTINUOUS
  5
F0
 10
146.27256
 20
475.415722
 30
0.0
 11
146.985332
 21
474.70295
 31
0.0
  0
LINE
  8
LC-006-005-----0
  6
CONTINUOUS
  5
F1
 10
146.261741
 20
475.709384
 30
0.0
 11
147.258124
 21
474.713001
 31
0.0
  0
LINE
  8
LC-006-005-----0
  6
CONTINUOUS
  5
F2
 10
146.250921
 20
476.003046
 30
0.0
 11
147.48728
 21
474.766687
 31
0.0
  0
LINE
  8
LC-006-005-----0
  6
CONTINUOUS
  5
F3
 10
146.240102
 20
476.296708
 30
0.0
 11
147.476461
 21
475.06035
 31
0.0
  0
LINE
  8
LC-006-005-----0
  6
CONTINUOUS
  5
F4
 10
146.229283
 20
476.59037
 30
0.0
 11
147.465641
 21
475.354012
 31
0.0
  0
LINE
  8
LC-006-005-----0
  6
CONTINUOUS
  5
F5
 10
146.218463
 20
476.884032
 30
0.0
 11
147.454822
 21
475.647674
 31
0.0
  0
LINE
  8
LC-006-005-----0
  6
CONTINUOUS
  5
F6
 10
146.207644
 20
477.177695
 30
0.0
 11
147.444002
 21
475.941336
 31
0.0
  0
LINE
  8
LC-006-005-----0
  6
CONTINUOUS
  5
F7
 10
146.196824
 20
477.471357
 30
0.0
 11
147.433183
 21
476.234998
 31
0.0
  0
LINE
  8
LC-006-005-----0
  6
CONTINUOUS
  5
F8
 10
146.186005
 20
477.765019
 30
0.0
 11
147.422364
 21
476.52866
 31
0.0
  0
LINE
  8
LC-006-005-----0
  6
CONTINUOUS
  5
F9
 10
146.175185
 20
478.058681
 30
0.0
 11
147.411544
 21
476.822322
 31
0.0
  0
LINE
  8
LC-006-005-----0
  6
CONTINUOUS
  5
FA
 10
146.164366
 20
478.352343
 30
0.0
 11
147.400725
 21
477.115984
 31
0.0
  0
LINE
  8
LC-006-005-----0
  6
CONTINUOUS
  5
FB
 10
146.153547
 20
478.646005
 30
0.0
 11
147.389905
 21
477.409647
 31
0.0
  0
LINE
  8
LC-006-005-----0
  6
CONTINUOUS
  5
FC
 10
146.253589
 20
478.828806
 30
0.0
 11
147.379086
 21
477.703309
 31
0.0
  0
LINE
  8
LC-006-005-----0
  6
CONTINUOUS
  5
FD
 10
146.526381
 20
478.838857
 30
0.0
 11
147.368266
 21
477.996971
 31
0.0
  0
LINE
  8
LC-006-005-----0
  6
CONTINUOUS
  5
FE
 10
146.799173
 20
478.848907
 30
0.0
 11
147.357447
 21
478.290633
 31
0.0
  0
LINE
  8
LC-006-005-----0
  6
CONTINUOUS
  5
FF
 10
147.071965
 20
478.858958
 30
0.0
 11
147.346628
 21
478.584295
 31
0.0
  0
ENDBLK
  8
0
  5
100
  0
BLOCK
  8
0
  5
102
  2
*X11
 70
    65
 10
52.684048
 20
407.673822
 30
0.0
  3
*X11
  0
LINE
  8
LC-006-005-----0
  6
CONTINUOUS
  5
103
 10
144.64877
 20
438.007217
 30
0.0
 11
146.834938
 21
435.82105
 31
0.0
  0
LINE
  8
LC-006-005-----0
  6
CONTINUOUS
  5
104
 10
144.942597
 20
443.370245
 30
0.0
 11
148.285532
 21
440.02731
 31
0.0
  0
LINE
  8
LC-006-005-----0
  6
CONTINUOUS
  5
105
 10
145.97033
 20
447.999366
 30
0.0
 11
147.684151
 21
446.285545
 31
0.0
  0
LINE
  8
LC-006-005-----0
  6
CONTINUOUS
  5
106
 10
151.811135
 20
442.158561
 30
0.0
 11
154.086084
 21
439.883613
 31
0.0
  0
LINE
  8
LC-006-005-----0
  6
CONTINUOUS
  5
107
 10
146.538243
 20
453.088307
 30
0.0
 11
148.401022
 21
451.225528
 31
0.0
  0
LINE
  8
LC-006-005-----0
  6
CONTINUOUS
  5
108
 10
147.908224
 20
457.375181
 30
0.0
 11
148.592395
 21
456.69101
 31
0.0
  0
ENDBLK
  8
0
  5
109
  0
BLOCK
  8
0
  5
10B
  2
BLK1
 70
    64
 10
0.0
 20
0.0
 30
0.0
  3
BLK1
  0
ENDBLK
  8
0
  5
10C
  0
BLOCK
  8
0
  5
10E
  2
*X13
 70
    65
 10
140.777448
 20
352.512145
 30
0.0
  3
*X13
  0
LINE
  8
LC-006-005-----0
  6
CONTINUOUS
  5
10F
 10
236.747643
 20
372.512145
 30
0.0
 11
237.777448
 21
373.54195
 31
0.0
  0
LINE
  8
LC-006-005-----0
  6
CONTINUOUS
  5
110
 10
233.919216
 20
372.512145
 30
0.0
 11
235.719216
 21
374.312145
 31
0.0
  0
LINE
  8
LC-006-005-----0
  6
CONTINUOUS
  5
111
 10
231.090789
 20
372.512145
 30
0.0
 11
232.890789
 21
374.312145
 31
0.0
  0
LINE
  8
LC-006-005-----0
  6
CONTINUOUS
  5
112
 10
228.262362
 20
372.512145
 30
0.0
 11
230.062362
 21
374.312145
 31
0.0
  0
LINE
  8
LC-006-005-----0
  6
CONTINUOUS
  5
113
 10
225.433935
 20
372.512145
 30
0.0
 11
227.233935
 21
374.312145
 31
0.0
  0
LINE
  8
LC-006-005-----0
  6
CONTINUOUS
  5
114
 10
222.605507
 20
372.512145
 30
0.0
 11
224.405507
 21
374.312145
 31
0.0
  0
LINE
  8
LC-006-005-----0
  6
CONTINUOUS
  5
115
 10
219.77708
 20
372.512145
 30
0.0
 11
221.57708
 21
374.312145
 31
0.0
  0
LINE
  8
LC-006-005-----0
  6
CONTINUOUS
  5
116
 10
216.948653
 20
372.512145
 30
0.0
 11
218.748653
 21
374.312145
 31
0.0
  0
LINE
  8
LC-006-005-----0
  6
CONTINUOUS
  5
117
 10
214.120226
 20
372.512145
 30
0.0
 11
215.920226
 21
374.312145
 31
0.0
  0
LINE
  8
LC-006-005-----0
  6
CONTINUOUS
  5
118
 10
211.291799
 20
372.512145
 30
0.0
 11
213.091799
 21
374.312145
 31
0.0
  0
LINE
  8
LC-006-005-----0
  6
CONTINUOUS
  5
119
 10
208.463372
 20
372.512145
 30
0.0
 11
210.263372
 21
374.312145
 31
0.0
  0
LINE
  8
LC-006-005-----0
  6
CONTINUOUS
  5
11A
 10
205.634945
 20
372.512145
 30
0.0
 11
207.434945
 21
374.312145
 31
0.0
  0
LINE
  8
LC-006-005-----0
  6
CONTINUOUS
  5
11B
 10
202.806518
 20
372.512145
 30
0.0
 11
204.606518
 21
374.312145
 31
0.0
  0
LINE
  8
LC-006-005-----0
  6
CONTINUOUS
  5
11C
 10
199.97809
 20
372.512145
 30
0.0
 11
201.77809
 21
374.312145
 31
0.0
  0
LINE
  8
LC-006-005-----0
  6
CONTINUOUS
  5
11D
 10
197.149663
 20
372.512145
 30
0.0
 11
198.949663
 21
374.312145
 31
0.0
  0
LINE
  8
LC-006-005-----0
  6
CONTINUOUS
  5
11E
 10
194.321236
 20
372.512145
 30
0.0
 11
196.121236
 21
374.312145
 31
0.0
  0
LINE
  8
LC-006-005-----0
  6
CONTINUOUS
  5
11F
 10
191.492809
 20
372.512145
 30
0.0
 11
193.292809
 21
374.312145
 31
0.0
  0
LINE
  8
LC-006-005-----0
  6
CONTINUOUS
  5
120
 10
188.664382
 20
372.512145
 30
0.0
 11
190.464382
 21
374.312145
 31
0.0
  0
LINE
  8
LC-006-005-----0
  6
CONTINUOUS
  5
121
 10
185.835955
 20
372.512145
 30
0.0
 11
187.635955
 21
374.312145
 31
0.0
  0
LINE
  8
LC-006-005-----0
  6
CONTINUOUS
  5
122
 10
183.007528
 20
372.512145
 30
0.0
 11
184.807528
 21
374.312145
 31
0.0
  0
LINE
  8
LC-006-005-----0
  6
CONTINUOUS
  5
123
 10
180.179101
 20
372.512145
 30
0.0
 11
181.979101
 21
374.312145
 31
0.0
  0
LINE
  8
LC-006-005-----0
  6
CONTINUOUS
  5
124
 10
177.350673
 20
372.512145
 30
0.0
 11
179.150673
 21
374.312145
 31
0.0
  0
LINE
  8
LC-006-005-----0
  6
CONTINUOUS
  5
125
 10
154.522246
 20
352.512145
 30
0.0
 11
155.277448
 21
353.267347
 31
0.0
  0
LINE
  8
LC-006-005-----0
  6
CONTINUOUS
  5
126
 10
174.522246
 20
372.512145
 30
0.0
 11
176.322246
 21
374.312145
 31
0.0
  0
LINE
  8
LC-006-005-----0
  6
CONTINUOUS
  5
127
 10
153.777448
 20
354.595774
 30
0.0
 11
155.277448
 21
356.095774
 31
0.0
  0
LINE
  8
LC-006-005-----0
  6
CONTINUOUS
  5
128
 10
171.693819
 20
372.512145
 30
0.0
 11
173.493819
 21
374.312145
 31
0.0
  0
LINE
  8
LC-006-005-----0
  6
CONTINUOUS
  5
129
 10
149.477448
 20
353.124201
 30
0.0
 11
150.777448
 21
354.424201
 31
0.0
  0
LINE
  8
LC-006-005-----0
  6
CONTINUOUS
  5
12A
 10
153.777448
 20
357.424201
 30
0.0
 11
155.277448
 21
358.924201
 31
0.0
  0
LINE
  8
LC-006-005-----0
  6
CONTINUOUS
  5
12B
 10
168.865392
 20
372.512145
 30
0.0
 11
170.665392
 21
374.312145
 31
0.0
  0
LINE
  8
LC-006-005-----0
  6
CONTINUOUS
  5
12C
 10
149.477448
 20
355.952628
 30
0.0
 11
150.777448
 21
357.252628
 31
0.0
  0
LINE
  8
LC-006-005-----0
  6
CONTINUOUS
  5
12D
 10
153.777448
 20
360.252628
 30
0.0
 11
155.277448
 21
361.752628
 31
0.0
  0
LINE
  8
LC-006-005-----0
  6
CONTINUOUS
  5
12E
 10
166.036965
 20
372.512145
 30
0.0
 11
167.836965
 21
374.312145
 31
0.0
  0
LINE
  8
LC-006-005-----0
  6
CONTINUOUS
  5
12F
 10
148.581524
 20
357.885132
 30
0.0
 11
150.777448
 21
360.081055
 31
0.0
  0
LINE
  8
LC-006-005-----0
  6
CONTINUOUS
  5
130
 10
153.777448
 20
363.081055
 30
0.0
 11
155.277448
 21
364.581055
 31
0.0
  0
LINE
  8
LC-006-005-----0
  6
CONTINUOUS
  5
131
 10
163.208538
 20
372.512145
 30
0.0
 11
165.008538
 21
374.312145
 31
0.0
  0
LINE
  8
LC-006-005-----0
  6
CONTINUOUS
  5
132
 10
140.786323
 20
352.918357
 30
0.0
 11
141.777448
 21
353.909483
 31
0.0
  0
LINE
  8
LC-006-005-----0
  6
CONTINUOUS
  5
133
 10
145.880111
 20
358.012145
 30
0.0
 11
147.380111
 21
359.512145
 31
0.0
  0
LINE
  8
LC-006-005-----0
  6
CONTINUOUS
  5
134
 10
148.777448
 20
360.909483
 30
0.0
 11
150.777448
 21
362.909483
 31
0.0
  0
LINE
  8
LC-006-005-----0
  6
CONTINUOUS
  5
135
 10
153.777448
 20
365.909483
 30
0.0
 11
155.277448
 21
367.409483
 31
0.0
  0
LINE
  8
LC-006-005-----0
  6
CONTINUOUS
  5
136
 10
160.380111
 20
372.512145
 30
0.0
 11
162.180111
 21
374.312145
 31
0.0
  0
LINE
  8
LC-006-005-----0
  6
CONTINUOUS
  5
137
 10
140.777448
 20
355.73791
 30
0.0
 11
141.797772
 21
356.758234
 31
0.0
  0
LINE
  8
LC-006-005-----0
  6
CONTINUOUS
  5
138
 10
143.031359
 20
357.991821
 30
0.0
 11
144.551684
 21
359.512145
 31
0.0
  0
LINE
  8
LC-006-005-----0
  6
CONTINUOUS
  5
139
 10
148.777448
 20
363.73791
 30
0.0
 11
150.777448
 21
365.73791
 31
0.0
  0
LINE
  8
LC-006-005-----0
  6
CONTINUOUS
  5
13A
 10
153.777448
 20
368.73791
 30
0.0
 11
155.277448
 21
370.23791
 31
0.0
  0
LINE
  8
LC-006-005-----0
  6
CONTINUOUS
  5
13B
 10
157.551684
 20
372.512145
 30
0.0
 11
159.351684
 21
374.312145
 31
0.0
  0
LINE
  8
LC-006-005-----0
  6
CONTINUOUS
  5
13C
 10
140.777448
 20
358.566337
 30
0.0
 11
141.723256
 21
359.512145
 31
0.0
  0
LINE
  8
LC-006-005-----0
  6
CONTINUOUS
  5
13D
 10
148.777448
 20
366.566337
 30
0.0
 11
150.777448
 21
368.566337
 31
0.0
  0
LINE
  8
LC-006-005-----0
  6
CONTINUOUS
  5
13E
 10
153.777448
 20
371.566337
 30
0.0
 11
156.523256
 21
374.312145
 31
0.0
  0
LINE
  8
LC-006-005-----0
  6
CONTINUOUS
  5
13F
 10
148.777448
 20
369.394764
 30
0.0
 11
150.777448
 21
371.394764
 31
0.0
  0
LINE
  8
LC-006-005-----0
  6
CONTINUOUS
  5
140
 10
151.894829
 20
372.512145
 30
0.0
 11
153.694829
 21
374.312145
 31
0.0
  0
LINE
  8
LC-006-005-----0
  6
CONTINUOUS
  5
141
 10
148.777448
 20
372.223191
 30
0.0
 11
150.866402
 21
374.312145
 31
0.0
  0
ENDBLK
  8
0
  5
142
  0
BLOCK
  8
0
  5
144
  2
*X14
 70
    65
 10
148.766534
 20
424.148558
 30
0.0
  3
*X14
  0
LINE
  8
LC-006-005-----0
  6
CONTINUOUS
  5
145
 10
237.518098
 20
424.194288
 30
0.0
 11
237.777448
 21
424.453638
 31
0.0
  0
LINE
  8
LC-006-005-----0
  6
CONTINUOUS
  5
146
 10
235.113641
 20
424.618259
 30
0.0
 11
236.408468
 21
425.913086
 31
0.0
  0
LINE
  8
LC-006-005-----0
  6
CONTINUOUS
  5
147
 10
232.709185
 20
425.042229
 30
0.0
 11
234.004012
 21
426.337056
 31
0.0
  0
LINE
  8
LC-006-005-----0
  6
CONTINUOUS
  5
148
 10
230.304728
 20
425.4662
 30
0.0
 11
231.599555
 21
426.761027
 31
0.0
  0
LINE
  8
LC-006-005-----0
  6
CONTINUOUS
  5
149
 10
227.900272
 20
425.890171
 30
0.0
 11
229.195099
 21
427.184998
 31
0.0
  0
LINE
  8
LC-006-005-----0
  6
CONTINUOUS
  5
14A
 10
225.495815
 20
426.314141
 30
0.0
 11
226.790642
 21
427.608968
 31
0.0
  0
LINE
  8
LC-006-005-----0
  6
CONTINUOUS
  5
14B
 10
223.091359
 20
426.738112
 30
0.0
 11
224.386186
 21
428.032939
 31
0.0
  0
LINE
  8
LC-006-005-----0
  6
CONTINUOUS
  5
14C
 10
220.686902
 20
427.162082
 30
0.0
 11
221.981729
 21
428.456909
 31
0.0
  0
LINE
  8
LC-006-005-----0
  6
CONTINUOUS
  5
14D
 10
218.282446
 20
427.586053
 30
0.0
 11
219.577273
 21
428.88088
 31
0.0
  0
LINE
  8
LC-006-005-----0
  6
CONTINUOUS
  5
14E
 10
215.877989
 20
428.010023
 30
0.0
 11
217.172816
 21
429.30485
 31
0.0
  0
LINE
  8
LC-006-005-----0
  6
CONTINUOUS
  5
14F
 10
213.473532
 20
428.433994
 30
0.0
 11
214.768359
 21
429.728821
 31
0.0
  0
LINE
  8
LC-006-005-----0
  6
CONTINUOUS
  5
150
 10
211.069076
 20
428.857964
 30
0.0
 11
212.363903
 21
430.152791
 31
0.0
  0
LINE
  8
LC-006-005-----0
  6
CONTINUOUS
  5
151
 10
208.664619
 20
429.281935
 30
0.0
 11
209.959446
 21
430.576762
 31
0.0
  0
LINE
  8
LC-006-005-----0
  6
CONTINUOUS
  5
152
 10
206.260163
 20
429.705906
 30
0.0
 11
207.55499
 21
431.000733
 31
0.0
  0
LINE
  8
LC-006-005-----0
  6
CONTINUOUS
  5
153
 10
203.855706
 20
430.129876
 30
0.0
 11
205.150533
 21
431.424703
 31
0.0
  0
LINE
  8
LC-006-005-----0
  6
CONTINUOUS
  5
154
 10
201.45125
 20
430.553847
 30
0.0
 11
202.746077
 21
431.848674
 31
0.0
  0
LINE
  8
LC-006-005-----0
  6
CONTINUOUS
  5
155
 10
199.046793
 20
430.977817
 30
0.0
 11
200.34162
 21
432.272644
 31
0.0
  0
LINE
  8
LC-006-005-----0
  6
CONTINUOUS
  5
156
 10
196.642337
 20
431.401788
 30
0.0
 11
197.937164
 21
432.696615
 31
0.0
  0
LINE
  8
LC-006-005-----0
  6
CONTINUOUS
  5
157
 10
194.23788
 20
431.825758
 30
0.0
 11
195.532707
 21
433.120585
 31
0.0
  0
LINE
  8
LC-006-005-----0
  6
CONTINUOUS
  5
158
 10
191.833423
 20
432.249729
 30
0.0
 11
193.12825
 21
433.544556
 31
0.0
  0
LINE
  8
LC-006-005-----0
  6
CONTINUOUS
  5
159
 10
189.428967
 20
432.6737
 30
0.0
 11
190.723794
 21
433.968527
 31
0.0
  0
LINE
  8
LC-006-005-----0
  6
CONTINUOUS
  5
15A
 10
187.02451
 20
433.09767
 30
0.0
 11
188.319337
 21
434.392497
 31
0.0
  0
LINE
  8
LC-006-005-----0
  6
CONTINUOUS
  5
15B
 10
184.610558
 20
433.512145
 30
0.0
 11
185.914881
 21
434.816468
 31
0.0
  0
LINE
  8
LC-006-005-----0
  6
CONTINUOUS
  5
15C
 10
181.782131
 20
433.512145
 30
0.0
 11
183.282131
 21
435.012145
 31
0.0
  0
LINE
  8
LC-006-005-----0
  6
CONTINUOUS
  5
15D
 10
178.953704
 20
433.512145
 30
0.0
 11
180.453704
 21
435.012145
 31
0.0
  0
LINE
  8
LC-006-005-----0
  6
CONTINUOUS
  5
15E
 10
176.125277
 20
433.512145
 30
0.0
 11
177.625277
 21
435.012145
 31
0.0
  0
LINE
  8
LC-006-005-----0
  6
CONTINUOUS
  5
15F
 10
173.29685
 20
433.512145
 30
0.0
 11
174.79685
 21
435.012145
 31
0.0
  0
LINE
  8
LC-006-005-----0
  6
CONTINUOUS
  5
160
 10
170.468422
 20
433.512145
 30
0.0
 11
171.968422
 21
435.012145
 31
0.0
  0
LINE
  8
LC-006-005-----0
  6
CONTINUOUS
  5
161
 10
167.639995
 20
433.512145
 30
0.0
 11
169.139995
 21
435.012145
 31
0.0
  0
LINE
  8
LC-006-005-----0
  6
CONTINUOUS
  5
162
 10
164.811568
 20
433.512145
 30
0.0
 11
166.311568
 21
435.012145
 31
0.0
  0
LINE
  8
LC-006-005-----0
  6
CONTINUOUS
  5
163
 10
161.983141
 20
433.512145
 30
0.0
 11
163.483141
 21
435.012145
 31
0.0
  0
LINE
  8
LC-006-005-----0
  6
CONTINUOUS
  5
164
 10
159.154714
 20
433.512145
 30
0.0
 11
160.654714
 21
435.012145
 31
0.0
  0
LINE
  8
LC-006-005-----0
  6
CONTINUOUS
  5
165
 10
156.326287
 20
433.512145
 30
0.0
 11
157.826287
 21
435.012145
 31
0.0
  0
LINE
  8
LC-006-005-----0
  6
CONTINUOUS
  5
166
 10
153.49786
 20
433.512145
 30
0.0
 11
154.99786
 21
435.012145
 31
0.0
  0
LINE
  8
LC-006-005-----0
  6
CONTINUOUS
  5
167
 10
150.685094
 20
433.527807
 30
0.0
 11
152.169433
 21
435.012145
 31
0.0
  0
LINE
  8
LC-006-005-----0
  6
CONTINUOUS
  5
168
 10
149.083784
 20
434.754924
 30
0.0
 11
150.901903
 21
436.573043
 31
0.0
  0
LINE
  8
LC-006-005-----0
  6
CONTINUOUS
  5
169
 10
148.86528
 20
437.364847
 30
0.0
 11
150.801398
 21
439.300965
 31
0.0
  0
ENDBLK
  8
0
  5
16A
  0
BLOCK
  8
0
  5
16C
  2
*X15
 70
    65
 10
140.777448
 20
474.721505
 30
0.0
  3
*X15
  0
LINE
  8
LC-006-005-----0
  6
CONTINUOUS
  5
16D
 10
147.458208
 20
475.555755
 30
0.0
 11
150.835681
 21
478.933228
 31
0.0
  0
LINE
  8
LC-006-005-----0
  6
CONTINUOUS
  5
16E
 10
147.357703
 20
478.283677
 30
0.0
 11
147.358399
 21
478.284373
 31
0.0
  0
LINE
  8
LC-006-005-----0
  6
CONTINUOUS
  5
16F
 10
147.359569
 20
478.285543
 30
0.0
 11
150.777448
 21
481.703422
 31
0.0
  0
LINE
  8
LC-006-005-----0
  6
CONTINUOUS
  5
170
 10
146.757744
 20
480.512145
 30
0.0
 11
148.29085
 21
482.045251
 31
0.0
  0
LINE
  8
LC-006-005-----0
  6
CONTINUOUS
  5
171
 10
149.444343
 20
483.198743
 30
0.0
 11
150.777448
 21
484.531849
 31
0.0
  0
LINE
  8
LC-006-005-----0
  6
CONTINUOUS
  5
172
 10
143.929317
 20
480.512145
 30
0.0
 11
145.429317
 21
482.012145
 31
0.0
  0
LINE
  8
LC-006-005-----0
  6
CONTINUOUS
  5
173
 10
149.477448
 20
486.060276
 30
0.0
 11
150.777448
 21
487.360276
 31
0.0
  0
LINE
  8
LC-006-005-----0
  6
CONTINUOUS
  5
174
 10
141.10089
 20
480.512145
 30
0.0
 11
142.71168
 21
482.122935
 31
0.0
  0
LINE
  8
LC-006-005-----0
  6
CONTINUOUS
  5
175
 10
140.777448
 20
483.01713
 30
0.0
 11
141.777448
 21
484.01713
 31
0.0
  0
LINE
  8
LC-006-005-----0
  6
CONTINUOUS
  5
176
 10
140.777448
 20
485.845557
 30
0.0
 11
141.777448
 21
486.845557
 31
0.0
  0
ENDBLK
  8
0
  5
177
  0
ENDSEC
  0
SECTION
  2
ENTITIES
  0
VIEWPORT
  8
LC-000
  5
1E9
 67
     1
 68
     1
 10
420.0
 20
297.0
 30
0.0
 40
840.0
 41
594.0
 69
     1
1001
ACAD
1000
MVIEW
1002
{
1070
    16
1010
0.0
1020
0.0
1030
0.0
1010
0.0
1020
0.0
1030
1.0
1040
0.0
1040
594.0
1040
420.0
1040
297.0
1040
50.0
1040
0.0
1040
0.0
1070
     0
1070
   100
1070
     1
1070
     1
1070
     0
1070
     0
1070
     0
1070
     0
1040
0.0
1040
0.0
1040
0.0
1040
1.0
1040
1.0
1040
0.0
1040
0.0
1070
     0
1002
{
1002
}
1002
}
  0
VIEWPORT
  8
0
  5
1EA
 67
     1
 68
     1
 10
0.0
 20
0.0
 30
0.0
 40
0.0
 41
0.0
 69
     1
1001
ACAD
1000
MVIEW
1002
{
1070
    16
1010
0.0
1020
0.0
1030
0.0
1010
0.0
1020
0.0
1030
1.0
1040
0.0
1040
594.0
1040
0.0
1040
0.0
1040
50.0
1040
0.0
1040
0.0
1070
     0
1070
   100
1070
     0
1070
     1
1070
     0
1070
     0
1070
     0
1070
     0
1040
0.0
1040
0.0
1040
0.0
1040
0.5
1040
0.5
1040
0.5
1040
0.5
1070
     0
1002
{
1002
}
1002
}
  0
DIMENSION
  8
0
  5
178
  2
*D0
 10
98.0
 20
420.012145
 30
0.0
 11
98.0
 21
420.012145
 31
0.0
  1
%%c<>
 13
141.277448
 23
487.512145
 33
0.0
 14
141.277448
 24
352.512145
 34
0.0
 50
90.0
  3
LC-DIM-L-0090-02-02
  0
DIMENSION
  8
0
  5
179
  2
*D1
 10
189.277448
 20
308.0
 30
0.0
 11
189.277448
 21
308.0
 31
0.0
 13
140.777448
 23
353.012145
 33
0.0
 14
237.777448
 24
364.512145
 34
0.0
  3
LC-DIM-L-0090-02-02
  0
DIMENSION
  8
0
  5
17A
  2
*D2
 10
144.81694
 20
532.0
 30
0.0
 11
144.81694
 21
532.0
 31
0.0
 13
140.777448
 23
487.012145
 33
0.0
 14
150.777448
 24
487.512145
 34
0.0
  3
LC-DIM-L-0090-02-02
  0
DIMENSION
  8
0
  5
17B
  2
*D3
 10
294.0
 20
407.077206
 30
0.0
 11
294.0
 21
407.077206
 31
0.0
  1
65,5
 13
354.175488
 23
374.312145
 33
0.0
 14
348.320916
 24
439.842266
 34
0.0
 50
90.0
  3
LC-DIM-L-0090-02-02
  0
DIMENSION
  8
0
  5
17C
  2
*D4
 10
393.820916
 20
504.0
 30
0.0
 11
393.820916
 21
504.0
 31
0.0
 13
345.320916
 23
436.842266
 33
0.0
 14
442.320916
 24
436.842266
 34
0.0
  3
LC-DIM-L-0090-02-02
  0
DIMENSION
  8
0
  5
17D
  2
*D5
 10
490.0
 20
438.620573
 30
0.0
 11
490.0
 21
438.620573
 31
0.0
  1
37,2
 13
462.820916
 23
420.012145
 33
0.0
 14
415.820916
 24
457.229
 34
0.0
 50
90.0
  3
LC-DIM-L-0090-02-02
  0
INSERT
  8
0
  5
17E
  2
*X6
 10
142.127448
 20
351.012145
 30
0.0
  0
INSERT
  8
0
  5
17F
  2
*X7
 10
142.127448
 20
482.012145
 30
0.0
  0
INSERT
  8
0
  5
180
  2
*X8
 10
52.684048
 20
407.673822
 30
0.0
  0
INSERT
  8
0
  5
181
  2
*X9
 10
147.57734
 20
435.854032
 30
0.0
  0
INSERT
  8
0
  5
182
  2
*X10
 10
146.146956
 20
474.677691
 30
0.0
  0
INSERT
  8
0
  5
183
  2
*X11
 10
52.684048
 20
407.673822
 30
0.0
  0
INSERT
  8
0
  5
185
  2
BLK1
 10
0.0
 20
0.0
 30
0.0
  0
INSERT
  8
0
  5
186
  2
*X13
 10
140.777448
 20
352.512145
 30
0.0
  0
INSERT
  8
0
  5
187
  2
*X14
 10
148.766534
 20
424.148558
 30
0.0
  0
INSERT
  8
0
  5
188
  2
*X15
 10
140.777448
 20
474.721505
 30
0.0
  0
LINE
  8
LC-001-002-----0
  5
18B
 10
140.777448
 20
420.012145
 30
0.0
 11
237.777448
 21
420.012145
 31
0.0
  0
LINE
  8
LC-001-002-----0
  5
18C
 10
393.820916
 20
489.012145
 30
0.0
 11
393.820916
 21
351.012145
 31
0.0
  0
LINE
  8
LC-001-002-----0
  6
CONTINUOUS
 62
     1
  5
18D
 10
141.277448
 20
487.512145
 30
0.0
 11
141.277448
 21
487.512145
 31
0.0
  0
LINE
  8
LC-001-002-----0
  6
CONTINUOUS
 62
     1
  5
18E
 10
141.277448
 20
352.512145
 30
0.0
 11
141.277448
 21
352.512145
 31
0.0
  0
LINE
  8
LC-001-002-----0
  6
CONTINUOUS
 62
     1
  5
18F
 10
140.777448
 20
353.012145
 30
0.0
 11
140.777448
 21
487.012145
 31
0.0
  0
ARC
  8
LC-002-002-RND-0
  6
CONTINUOUS
  5
191
 10
150.934896
 20
435.512145
 30
0.0
 40
2.0
 50
182.11
 51
270.0
  0
LINE
  8
LC-001-002-----0
  6
CONTINUOUS
 62
     1
  5
192
 10
141.777448
 20
353.012145
 30
0.0
 11
141.777448
 21
356.512145
 31
0.0
  0
LINE
  8
LC-001-002-----0
  6
CONTINUOUS
 62
     1
  5
193
 10
149.477448
 20
353.012145
 30
0.0
 11
149.477448
 21
356.512145
 31
0.0
  0
LINE
  8
LC-001-002-----0
  6
CONTINUOUS
 62
     1
  5
194
 10
143.277448
 20
482.012145
 30
0.0
 11
147.977448
 21
482.012145
 31
0.0
  0
LINE
  8
LC-001-002-----0
  6
CONTINUOUS
 62
     1
  5
195
 10
143.277448
 20
358.012145
 30
0.0
 11
147.977448
 21
358.012145
 31
0.0
  0
LINE
  8
LC-001-002-----0
  6
CONTINUOUS
 62
     1
  5
196
 10
149.977448
 20
352.512145
 30
0.0
 11
150.777448
 21
352.512145
 31
0.0
  0
LINE
  8
LC-001-002-----0
  6
CONTINUOUS
 62
     1
  5
197
 10
184.673906
 20
433.512145
 30
0.0
 11
237.777448
 21
424.148558
 31
0.0
  0
ARC
  8
LC-002-002-RND-0
  6
CONTINUOUS
  5
198
 10
143.277448
 20
356.512145
 30
0.0
 40
1.5
 50
90.0
 51
180.0
  0
ARC
  8
LC-002-002-RND-0
  6
CONTINUOUS
  5
199
 10
147.977448
 20
356.512145
 30
0.0
 40
1.5
 50
0.0
 51
90.0
  0
LINE
  8
LC-001-002-----0
  6
CONTINUOUS
 62
     1
  5
19A
 10
141.777448
 20
483.512145
 30
0.0
 11
141.777448
 21
487.012145
 31
0.0
  0
LINE
  8
LC-001-002-----0
  6
CONTINUOUS
 62
     1
  5
19B
 10
149.477448
 20
483.512145
 30
0.0
 11
149.477448
 21
487.012145
 31
0.0
  0
ARC
  8
LC-002-002-RND-0
  6
CONTINUOUS
  5
19C
 10
143.277448
 20
483.512145
 30
0.0
 40
1.5
 50
180.0
 51
270.0
  0
ARC
  8
LC-002-002-RND-0
  6
CONTINUOUS
  5
19D
 10
147.977448
 20
483.512145
 30
0.0
 40
1.5
 50
270.0
 51
0.0
  0
LINE
  8
LC-001-002-----0
  5
19E
 10
324.820916
 20
420.012145
 30
0.0
 11
462.820916
 21
420.012145
 31
0.0
  0
LINE
  8
LC-001-002-----0
  6
CONTINUOUS
 62
     1
  5
19F
 10
354.175488
 20
374.312145
 30
0.0
 11
433.466345
 21
374.312145
 31
0.0
  0
LINE
  8
LC-001-002-----0
  6
CONTINUOUS
 62
     1
  5
1A0
 10
442.320916
 20
436.842266
 30
0.0
 11
442.320916
 21
383.845862
 31
0.0
  0
LINE
  8
LC-001-002-----0
  6
CONTINUOUS
 62
     1
  5
1A1
 10
345.320916
 20
436.842266
 30
0.0
 11
345.320916
 21
383.845862
 31
0.0
  0
LINE
  8
LC-001-002-----0
  6
CONTINUOUS
 62
     1
  5
1A2
 10
348.320916
 20
439.842266
 30
0.0
 11
377.690488
 21
439.842266
 31
0.0
  0
CIRCLE
  8
LC-001-002-----0
  6
CONTINUOUS
 62
     1
  5
1A3
 10
393.820916
 20
420.012145
 30
0.0
 40
69.0
  0
CIRCLE
  8
LC-001-002-----0
  6
CONTINUOUS
 62
     1
  5
1A4
 10
393.820916
 20
420.012145
 30
0.0
 40
67.5
  0
CIRCLE
  8
LC-001-002-----0
  6
CONTINUOUS
 62
     1
  5
1A5
 10
393.820916
 20
420.012145
 30
0.0
 40
60.5
  0
CIRCLE
  8
LC-001-002-----0
  6
DASHED
 62
     3
  5
1A6
 10
393.820916
 20
420.012145
 30
0.0
 40
62.0
  0
LINE
  8
LC-001-002-----0
  5
1A7
 10
371.820916
 20
457.229
 30
0.0
 11
415.820916
 21
457.229
 31
0.0
  0
CIRCLE
  8
LC-001-002-----0
  6
CONTINUOUS
 62
     1
  5
1A8
 10
393.820916
 20
457.229
 30
0.0
 40
22.0
  0
ARC
  8
LC-001-002-----0
  6
CONTINUOUS
 62
     1
  5
1A9
 10
393.820916
 20
457.229
 30
0.0
 40
23.716855
 50
227.146582
 51
312.853418
  0
ARC
  8
LC-002-002-RND-0
  6
CONTINUOUS
  5
1AA
 10
348.320916
 20
436.842266
 30
0.0
 40
3.0
 50
90.0
 51
180.0
  0
ARC
  8
LC-002-002-RND-0
  6
CONTINUOUS
  5
1AB
 10
439.320916
 20
436.842266
 30
0.0
 40
3.0
 50
0.0
 51
90.0
  0
LINE
  8
LC-001-002-----0
  6
CONTINUOUS
 62
     1
  5
1AC
 10
409.951344
 20
439.842266
 30
0.0
 11
439.320916
 21
439.842266
 31
0.0
  0
LINE
  8
LC-001-002-----0
  6
CONTINUOUS
 62
     1
  5
1AD
 10
395.320916
 20
472.229
 30
0.0
 11
395.320916
 21
442.229
 31
0.0
  0
LINE
  8
LC-001-002-----0
  6
CONTINUOUS
 62
     1
  5
1AE
 10
392.320916
 20
472.229
 30
0.0
 11
392.320916
 21
442.229
 31
0.0
  0
LINE
  8
LC-001-002-----0
  6
CONTINUOUS
 62
     1
  5
1AF
 10
392.320916
 20
472.229
 30
0.0
 11
395.320916
 21
472.229
 31
0.0
  0
LINE
  8
LC-001-002-----0
  6
CONTINUOUS
 62
     1
  5
1B0
 10
392.320916
 20
442.229
 30
0.0
 11
395.320916
 21
442.229
 31
0.0
  0
LINE
  8
LC-001-002-----0
  6
CONTINUOUS
 62
     1
  5
1B1
 10
140.777448
 20
480.512145
 30
0.0
 11
147.277448
 21
480.512145
 31
0.0
  0
LINE
  8
LC-001-002-----0
  6
CONTINUOUS
 62
     1
  5
1B2
 10
140.777448
 20
359.512145
 30
0.0
 11
148.777448
 21
359.512145
 31
0.0
  0
CIRCLE
  8
LC-001-002-----0
  6
CONTINUOUS
 62
     1
  5
1B3
 10
145.627448
 20
485.512145
 30
0.0
 40
3.5
  0
CIRCLE
  8
LC-001-002-----0
  6
CONTINUOUS
 62
     1
  5
1B4
 10
145.627448
 20
354.512145
 30
0.0
 40
3.5
  0
ARC
  8
LC-002-002-RND-0
  6
CONTINUOUS
  5
1B5
 10
141.277448
 20
353.012145
 30
0.0
 40
0.5
 50
180.0
 51
270.0
  0
ARC
  8
LC-002-002-RND-0
  6
CONTINUOUS
  5
1B6
 10
141.277448
 20
353.012145
 30
0.0
 40
0.5
 50
270.0
 51
0.0
  0
ARC
  8
LC-002-002-RND-0
  6
CONTINUOUS
  5
1B7
 10
141.277448
 20
487.012145
 30
0.0
 40
0.5
 50
90.0
 51
180.0
  0
ARC
  8
LC-002-002-RND-0
  6
CONTINUOUS
  5
1B8
 10
141.277448
 20
487.012145
 30
0.0
 40
0.5
 50
0.0
 51
90.0
  0
ARC
  8
LC-002-002-RND-0
  6
CONTINUOUS
  5
1B9
 10
149.977448
 20
353.012145
 30
0.0
 40
0.5
 50
180.0
 51
270.0
  0
ARC
  8
LC-002-002-RND-0
  6
CONTINUOUS
  5
1BA
 10
149.977448
 20
487.012145
 30
0.0
 40
0.5
 50
90.0
 51
180.0
  0
LINE
  8
LC-001-002-----0
  6
CONTINUOUS
 62
     1
  5
1BB
 10
237.777448
 20
364.512145
 30
0.0
 11
237.777448
 21
424.148558
 31
0.0
  0
LINE
  8
LC-001-002-----0
  6
CONTINUOUS
 62
     1
  5
1BC
 10
148.777448
 20
359.512145
 30
0.0
 11
148.777448
 21
435.892618
 31
0.0
  0
LINE
  8
LC-001-002-----0
  6
CONTINUOUS
 62
     1
  5
1BD
 10
154.234896
 20
440.402504
 30
0.0
 11
184.805139
 21
435.012145
 31
0.0
  0
LINE
  8
LC-001-002-----0
  6
CONTINUOUS
 62
     1
  5
1BE
 10
149.977448
 20
487.512145
 30
0.0
 11
150.777448
 21
487.512145
 31
0.0
  0
LINE
  8
LC-001-002-----0
  6
CONTINUOUS
 62
     1
  5
1BF
 10
150.777448
 20
480.512145
 30
0.0
 11
150.777448
 21
487.512145
 31
0.0
  0
LINE
  8
LC-001-002-----0
  6
CONTINUOUS
 62
     1
  5
1C0
 10
149.497582
 20
474.795509
 30
0.0
 11
149.403696
 21
477.34378
 31
0.0
  0
LINE
  8
LC-001-002-----0
  6
CONTINUOUS
 62
     1
  5
1C1
 10
147.397033
 20
477.269771
 30
0.0
 11
147.277448
 21
480.512145
 31
0.0
  0
LINE
  8
LC-001-002-----0
  6
CONTINUOUS
 62
     1
  5
1C2
 10
150.89228
 20
477.398624
 30
0.0
 11
150.772694
 21
480.641056
 31
0.0
  0
LINE
  8
LC-001-002-----0
  6
CONTINUOUS
 62
     1
  5
1C3
 10
150.934896
 20
433.512145
 30
0.0
 11
184.673906
 21
433.512145
 31
0.0
  0
LINE
  8
LC-001-002-----0
  6
CONTINUOUS
 62
     1
  5
1C4
 10
148.936252
 20
435.438509
 30
0.0
 11
148.773897
 21
439.845167
 31
0.0
  0
LINE
  8
LC-001-002-----0
  6
CONTINUOUS
 62
     1
  5
1C5
 10
148.773897
 20
439.845167
 30
0.0
 11
148.766534
 21
440.045032
 31
0.0
  0
LINE
  8
LC-001-002-----0
  6
CONTINUOUS
 62
     1
  5
1C6
 10
150.771266
 20
440.118809
 30
0.0
 11
150.95977
 21
435.002412
 31
0.0
  0
LINE
  8
LC-001-002-----0
  6
CONTINUOUS
 62
     1
  5
1C7
 10
144.73217
 20
435.743578
 30
0.0
 11
143.14899
 21
478.714423
 31
0.0
  0
LINE
  8
LC-001-002-----0
  6
CONTINUOUS
 62
     1
  5
1C8
 10
144.73217
 20
435.743578
 30
0.0
 11
148.919329
 21
435.897846
 31
0.0
  0
LINE
  8
LC-001-002-----0
  6
CONTINUOUS
 62
     1
  5
1C9
 10
143.14899
 20
478.714423
 30
0.0
 11
146.980279
 21
478.85558
 31
0.0
  0
LINE
  8
LC-001-002-----0
  6
CONTINUOUS
 62
     1
  5
1CA
 10
146.299752
 20
474.677691
 30
0.0
 11
149.497582
 21
474.795509
 31
0.0
  0
LINE
  8
LC-001-002-----0
  6
CONTINUOUS
 62
     1
  5
1CB
 10
147.57734
 20
440.001218
 30
0.0
 11
150.775171
 21
440.119036
 31
0.0
  0
LINE
  8
LC-001-002-----0
  6
CONTINUOUS
 62
     1
  5
1CC
 10
149.403696
 20
477.34378
 30
0.0
 11
152.701458
 21
477.46528
 31
0.0
  0
LINE
  8
LC-001-002-----0
  6
CONTINUOUS
 62
     1
  5
1CD
 10
152.701458
 20
477.46528
 30
0.0
 11
154.16682
 21
437.692265
 31
0.0
  0
LINE
  8
LC-001-002-----0
  6
CONTINUOUS
 62
     1
  5
1CE
 10
150.869057
 20
437.570765
 30
0.0
 11
154.16682
 21
437.692265
 31
0.0
  0
LINE
  8
LC-001-002-----0
  6
CONTINUOUS
 62
     1
  5
1CF
 10
147.730136
 20
435.854032
 30
0.0
 11
147.57734
 21
440.001218
 31
0.0
  0
LINE
  8
LC-001-002-----0
  6
CONTINUOUS
 62
     1
  5
1D0
 10
146.299752
 20
474.677691
 30
0.0
 11
146.146956
 21
478.824877
 31
0.0
  0
LINE
  8
LC-001-002-----0
  6
CONTINUOUS
 62
     1
  5
1D1
 10
147.488945
 20
474.721505
 30
0.0
 11
147.33615
 21
478.868691
 31
0.0
  0
LINE
  8
LC-001-002-----0
  6
CONTINUOUS
 62
     1
  5
1D2
 10
145.485282
 20
472.646327
 30
0.0
 11
152.868981
 21
472.918365
 31
0.0
  0
LINE
  8
LC-001-002-----0
  6
CONTINUOUS
 62
     1
  5
1D3
 10
146.615599
 20
441.967142
 30
0.0
 11
153.999297
 21
442.23918
 31
0.0
  0
ARC
  8
LC-001-002-----0
  6
CONTINUOUS
 62
     1
  5
1D4
 10
100.644048
 20
455.633822
 30
0.0
 40
45.964734
 50
342.601197
 51
21.550613
  0
ARC
  8
LC-001-002-----0
  6
CONTINUOUS
 62
     1
  5
1D5
 10
100.644048
 20
455.633822
 30
0.0
 40
47.96
 50
343.443544
 51
20.776456
  0
LINE
  8
LC-001-002-----0
  5
1D6
 10
143.94058
 20
457.229
 30
0.0
 11
153.434139
 21
457.578773
 31
0.0
  0
LINE
  8
LC-001-002-----0
  6
CONTINUOUS
 62
     1
  5
1D7
 10
150.959412
 20
435.012145
 30
0.0
 11
184.673906
 21
435.012145
 31
0.0
  0
LINE
  8
LC-001-002-----0
  6
CONTINUOUS
 62
     1
  5
1D8
 10
150.777448
 20
352.512145
 30
0.0
 11
150.777448
 21
372.512145
 31
0.0
  0
LINE
  8
LC-001-002-----0
  6
CONTINUOUS
 62
     1
  5
1D9
 10
150.777448
 20
372.512145
 30
0.0
 11
153.777448
 21
372.512145
 31
0.0
  0
LINE
  8
LC-001-002-----0
  6
CONTINUOUS
 62
     1
  5
1DA
 10
148.777448
 20
374.312145
 30
0.0
 11
237.777448
 21
374.312145
 31
0.0
  0
LINE
  8
LC-001-002-----0
  6
CONTINUOUS
 62
     1
  5
1DB
 10
153.777448
 20
353.012145
 30
0.0
 11
153.777448
 21
372.512145
 31
0.0
  0
LINE
  8
LC-001-002-----0
  6
CONTINUOUS
 62
     1
  5
1DC
 10
155.277448
 20
352.512145
 30
0.0
 11
155.277448
 21
355.512145
 31
0.0
  0
LINE
  8
LC-001-002-----0
  6
CONTINUOUS
 62
     1
  5
1DD
 10
157.855243
 20
364.512145
 30
0.0
 11
237.777448
 21
364.512145
 31
0.0
  0
LINE
  8
LC-001-002-----0
  6
CONTINUOUS
 62
     1
  5
1DE
 10
154.277448
 20
352.512145
 30
0.0
 11
155.277448
 21
352.512145
 31
0.0
  0
LINE
  8
LC-001-002-----0
  6
CONTINUOUS
 62
     1
  5
1DF
 10
172.277448
 20
372.512145
 30
0.0
 11
237.777448
 21
372.512145
 31
0.0
  0
ARC
  8
LC-002-002-RND-0
  6
CONTINUOUS
  5
1E0
 10
154.277448
 20
353.012145
 30
0.0
 40
0.5
 50
180.0
 51
270.0
  0
LINE
  8
LC-001-002-----0
  6
CONTINUOUS
 62
     1
  5
1E1
 10
148.777448
 20
386.512145
 30
0.0
 11
237.777448
 21
386.512145
 31
0.0
  0
ARC
  8
LC-002-002-RND-0
  6
CONTINUOUS
  5
1E2
 10
172.277448
 20
355.512145
 30
0.0
 40
17.0
 50
90.0
 51
180.0
  0
LINE
  8
LC-001-002-----0
  6
CONTINUOUS
 62
     1
  5
1E3
 10
155.277448
 20
355.512145
 30
0.0
 11
155.277448
 21
372.512145
 31
0.0
  0
LINE
  8
LC-001-002-----0
  6
CONTINUOUS
 62
     1
  5
1E4
 10
155.277448
 20
372.512145
 30
0.0
 11
172.277448
 21
372.512145
 31
0.0
  0
LINE
  8
LC-001-002-----0
  6
DASHED
  5
1E5
 10
157.855243
 20
364.512145
 30
0.0
 11
155.277448
 21
364.512145
 31
0.0
  0
LINE
  8
LC-001-002-----0
  6
CONTINUOUS
 62
     1
  5
1E6
 10
184.677863
 20
435.034587
 30
0.0
 11
237.777448
 21
425.671698
 31
0.0
  0
LINE
  8
LC-001-002-----0
  6
CONTINUOUS
 62
     1
  5
1E7
 10
237.777448
 20
424.148558
 30
0.0
 11
237.777448
 21
425.671698
 31
0.0
  0
ENDSEC
  0
EOF
