  0
SECTION
  2
HEADER
  9
$ACADVER
  1
AC1009
  9
$INSBASE
 10
0.0
 20
0.0
 30
0.0
  9
$EXTMIN
 10
-82.80195
 20
-28.83
 30
0.0
  9
$EXTMAX
 10
757.19805
 20
565.17
 30
0.0
  9
$LIMMIN
 10
-82.80195
 20
-28.83
  9
$LIMMAX
 10
757.19805
 20
565.17
  9
$ORTHOMODE
 70
     0
  9
$REGENMODE
 70
     1
  9
$FILLMODE
 70
     1
  9
$QTEXTMODE
 70
     0
  9
$MIRRTEXT
 70
     1
  9
$DRAGMODE
 70
     2
  9
$LTSCALE
 40
2.0
  9
$OSMODE
 70
     0
  9
$ATTMODE
 70
     1
  9
$TEXTSIZE
 40
0.2
  9
$TRACEWID
 40
0.05
  9
$TEXTSTYLE
  7
STANDARD
  9
$CLAYER
  8
0
  9
$CELTYPE
  6
BYLAYER
  9
$CECOLOR
 62
     7
  9
$DIMSCALE
 40
2.0
  9
$DIMASZ
 40
3.5
  9
$DIMEXO
 40
0.0625
  9
$DIMDLI
 40
0.38
  9
$DIMRND
 40
0.0
  9
$DIMDLE
 40
0.0
  9
$DIMEXE
 40
0.18
  9
$DIMTP
 40
0.0
  9
$DIMTM
 40
0.0
  9
$DIMTXT
 40
3.5
  9
$DIMCEN
 40
0.09
  9
$DIMTSZ
 40
0.0
  9
$DIMTOL
 70
     0
  9
$DIMLIM
 70
     0
  9
$DIMTIH
 70
     1
  9
$DIMTOH
 70
     1
  9
$DIMSE1
 70
     0
  9
$DIMSE2
 70
     0
  9
$DIMTAD
 70
     1
  9
$DIMZIN
 70
     0
  9
$DIMBLK
  1

  9
$DIMASO
 70
     1
  9
$DIMSHO
 70
     1
  9
$DIMPOST
  1

  9
$DIMAPOST
  1

  9
$DIMALT
 70
     0
  9
$DIMALTD
 70
     2
  9
$DIMALTF
 40
25.4
  9
$DIMLFAC
 40
1.0
  9
$DIMTOFL
 70
     0
  9
$DIMTVP
 40
0.0
  9
$DIMTIX
 70
     0
  9
$DIMSOXD
 70
     0
  9
$DIMSAH
 70
     0
  9
$DIMBLK1
  1

  9
$DIMBLK2
  1

  9
$DIMSTYLE
  2
STANDARD
  9
$DIMCLRD
 70
     0
  9
$DIMCLRE
 70
     0
  9
$DIMCLRT
 70
     0
  9
$DIMTFAC
 40
1.0
  9
$DIMGAP
 40
0.09
  9
$LUNITS
 70
     2
  9
$LUPREC
 70
     2
  9
$AXISMODE
 70
     0
  9
$AXISUNIT
 10
0.0
 20
0.0
  9
$SKETCHINC
 40
0.1
  9
$FILLETRAD
 40
0.0
  9
$AUNITS
 70
     0
  9
$AUPREC
 70
     0
  9
$MENU
  1
acad
  9
$ELEVATION
 40
0.0
  9
$PELEVATION
 40
0.0
  9
$THICKNESS
 40
0.0
  9
$LIMCHECK
 70
     0
  9
$BLIPMODE
 70
     1
  9
$CHAMFERA
 40
0.0
  9
$CHAMFERB
 40
0.0
  9
$SKPOLY
 70
     0
  9
$TDCREATE
 40
0.000000000
  9
$TDUPDATE
 40
0.000000000
  9
$TDINDWG
 40
0.0000000000
  9
$TDUSRTIMER
 40
0.0000000000
  9
$USRTIMER
 70
     1
  9
$ANGBASE
 50
0.0
  9
$ANGDIR
 70
     0
  9
$PDMODE
 70
     0
  9
$PDSIZE
 40
0.0
  9
$PLINEWID
 40
0.0
  9
$COORDS
 70
     0
  9
$SPLFRAME
 70
     0
  9
$SPLINETYPE
 70
     6
  9
$SPLINESEGS
 70
     8
  9
$ATTDIA
 70
     0
  9
$ATTREQ
 70
     1
  9
$HANDLING
 70
     1
  9
$HANDSEED
  5
22E
  9
$SURFTAB1
 70
     6
  9
$SURFTAB2
 70
     6
  9
$SURFTYPE
 70
     6
  9
$SURFU
 70
     6
  9
$SURFV
 70
     6
  9
$UCSNAME
  2

  9
$UCSORG
 10
0.0
 20
0.0
 30
0.0
  9
$UCSXDIR
 10
1.0
 20
0.0
 30
0.0
  9
$UCSYDIR
 10
0.0
 20
1.0
 30
0.0
  9
$PUCSNAME
  2

  9
$PUCSORG
 10
0.0
 20
0.0
 30
0.0
  9
$PUCSXDIR
 10
1.0
 20
0.0
 30
0.0
  9
$PUCSYDIR
 10
0.0
 20
1.0
 30
0.0
  9
$USERI1
 70
     0
  9
$USERI2
 70
     0
  9
$USERI3
 70
     0
  9
$USERI4
 70
     0
  9
$USERI5
 70
     0
  9
$USERR1
 40
0.0
  9
$USERR2
 40
0.0
  9
$USERR3
 40
0.0
  9
$USERR4
 40
0.0
  9
$USERR5
 40
0.0
  9
$WORLDVIEW
 70
     1
  9
$SHADEDGE
 70
     3
  9
$SHADEDIF
 70
    70
  9
$TILEMODE
 70
     1
  9
$MAXACTVP
 70
    16
  9
$PINSBASE
 10
0.0
 20
0.0
 30
0.0
  9
$PLIMCHECK
 70
     0
  9
$PEXTMIN
 10
1.000000E+20
 20
1.000000E+20
 30
1.000000E+20
  9
$PEXTMAX
 10
-1.000000E+20
 20
-1.000000E+20
 30
-1.000000E+20
  9
$PLIMMIN
 10
-82.80195
 20
-28.83
  9
$PLIMMAX
 10
757.19805
 20
565.17
  9
$UNITMODE
 70
     0
  9
$VISRETAIN
 70
     0
  9
$PLINEGEN
 70
     1
  9
$PSLTSCALE
 70
     0
  9
$TREEDEPTH
 70
  3020
  9
$DWGCODEPAGE
  3
dos850
  0
ENDSEC
  0
SECTION
  2
TABLES
  0
TABLE
  2
VPORT
 70
     1
  0
VPORT
  2
*ACTIVE
 70
     0
 10
0.0
 20
0.0
 11
1.0
 21
1.0
 12
420.0
 22
297.0
 13
0.0
 23
0.0
 14
1.0
 24
1.0
 15
0.0
 25
0.0
 16
0.0
 26
0.0
 36
1.0
 17
-82.80195
 27
-28.83
 37
0.0
 40
594.0
 41
1.604229
 42
50.0
 43
0.0
 44
0.0
 50
0.0
 51
0.0
 71
     0
 72
   100
 73
     1
 74
     1
 75
     0
 76
     0
 77
     0
 78
     0
  0
ENDTAB
  0
TABLE
  2
LTYPE
 70
     2
  0
LTYPE
  2
CONTINUOUS
 70
    64
  3
Solid line
 72
    65
 73
     0
 40
0.0
  0
LTYPE
  2
DASHDOT
 70
    64
  3
__ . __ . __ . __ . __
 72
    65
 73
     4
 40
7.5
 49
5.0
 49
-1.25
 49
0.0
 49
-1.25
  0
ENDTAB
  0
TABLE
  2
LAYER
 70
    10
  0
LAYER
  2
0
 70
     0
 62
     7
  6
CONTINUOUS
  0
LAYER
  2
LC-INFO-1-2-MM-A3-0
 70
     1
 62
    -1
  6
CONTINUOUS
  0
LAYER
  2
LC-002-005-----0
 70
     0
 62
     2
  6
CONTINUOUS
  0
LAYER
  2
LC-004-003-MTH-0
 70
     0
 62
     2
  6
CONTINUOUS
  0
LAYER
  2
LC-005-003-MTG-0
 70
     0
 62
     2
  6
CONTINUOUS
  0
LAYER
  2
LC-003-003-----0
 70
     0
 62
     2
  6
CONTINUOUS
  0
LAYER
  2
LC-007-000-----0
 70
     0
 62
     7
  6
CONTINUOUS
  0
LAYER
  2
LC-001-002-----0
 70
     0
 62
     2
  6
DASHDOT
  0
LAYER
  2
LC-006-002-RND-0
 70
     0
 62
     1
  6
CONTINUOUS
  0
LAYER
  2
LC-000
 70
     0
 62
     7
  6
CONTINUOUS
  0
ENDTAB
  0
TABLE
  2
STYLE
 70
     4
  0
STYLE
  2
STANDARD
 70
     0
 40
0.0
 41
1.0
 50
0.0
 71
     0
 42
0.0
  3
txt
  4

  0
STYLE
  2
LC-STANDARD
 70
    64
 40
0.0
 41
1.0
 50
0.0
 71
     0
 42
3.5
  3
MONOTXT
  4

  0
STYLE
  2
LC-TXTSTYLE-150-400-0-0-D2
 70
    64
 40
0.0
 41
1.0
 50
15.0
 71
     0
 42
3.5
  3
MONOTXT
  4

  0
STYLE
  2
LC-TXTSTYLE-150-400-0-0-D3
 70
    64
 40
0.0
 41
1.0
 50
15.0
 71
     0
 42
3.5
  3
LC-STANDARD
  4

  0
ENDTAB
  0
TABLE
  2
VIEW
 70
     0
  0
ENDTAB
  0
TABLE
  2
UCS
 70
     0
  0
ENDTAB
  0
TABLE
  2
APPID
 70
     1
  0
APPID
  2
ACAD
 70
     0
  0
ENDTAB
  0
TABLE
  2
DIMSTYLE
 70
     3
  0
DIMSTYLE
  2
STANDARD
 70
     0
  3

  4

  5

  6

  7

 40
1.0
 41
0.18
 42
0.0625
 43
0.38
 44
0.18
 45
0.0
 46
0.0
 47
0.0
 48
0.0
 71
     0
 72
     0
 73
     1
 74
     1
 75
     0
 76
     0
 77
     0
 78
     0
140
0.18
141
0.09
142
0.0
143
25.4
144
1.0
145
0.0
146
1.0
147
0.09
170
     0
171
     2
172
     0
173
     0
174
     0
175
     0
176
     0
177
     0
178
     0
  0
DIMSTYLE
  2
LC-STANDARD
 70
     0
  3

  4

  5

  6

  7

 40
1.0
 41
3.5
 42
0.0
 43
7.5
 44
1.8
 45
0.0
 46
0.0
 47
0.0
 48
0.0
 71
     0
 72
     0
 73
     0
 74
     0
 75
     0
 76
     0
 77
     1
 78
     8
140
3.5
141
0.0
142
0.0
143
25.4
144
1.0
145
0.0
146
0.71
147
1.5
170
     0
171
     2
172
     1
173
     0
174
     0
175
     0
176
     0
177
     0
178
     3
  0
DIMSTYLE
  2
LC-DIM-L-0100-01-02
 70
     0
  3

  4

  5

  6

  7

 40
2.0
 41
3.5
 42
0.0
 43
7.5
 44
1.8
 45
0.0
 46
0.0
 47
0.0
 48
0.0
 71
     0
 72
     0
 73
     0
 74
     0
 75
     0
 76
     0
 77
     1
 78
     8
140
10.0
141
0.0
142
0.0
143
25.4
144
1.0
145
0.0
146
0.71
147
1.5
170
     0
171
     2
172
     0
173
     0
174
     0
175
     0
176
     2
177
     2
178
     6
  0
ENDTAB
  0
ENDSEC
  0
SECTION
  2
BLOCKS
  0
BLOCK
  8
0
  5
23
  2
*X0
 70
    65
 10
165.942874
 20
212.785794
 30
0.0
  3
*X0
  0
LINE
  8
LC-002-005-----0
  6
CONTINUOUS
  5
25
 10
221.766024
 20
213.280743
 30
0.0
 11
223.692874
 21
215.207593
 31
0.0
  0
LINE
  8
LC-002-005-----0
  6
CONTINUOUS
  5
26
 10
221.168307
 20
215.511453
 30
0.0
 11
223.692874
 21
218.03602
 31
0.0
  0
LINE
  8
LC-002-005-----0
  6
CONTINUOUS
  5
27
 10
220.692874
 20
217.864447
 30
0.0
 11
223.692874
 21
220.864447
 31
0.0
  0
LINE
  8
LC-002-005-----0
  6
CONTINUOUS
  5
28
 10
220.692874
 20
220.692874
 30
0.0
 11
223.692874
 21
223.692874
 31
0.0
  0
LINE
  8
LC-002-005-----0
  6
CONTINUOUS
  5
29
 10
220.692874
 20
223.521301
 30
0.0
 11
223.692874
 21
226.521301
 31
0.0
  0
LINE
  8
LC-002-005-----0
  6
CONTINUOUS
  5
2A
 10
220.692874
 20
226.349728
 30
0.0
 11
223.692874
 21
229.349728
 31
0.0
  0
LINE
  8
LC-002-005-----0
  6
CONTINUOUS
  5
2B
 10
220.692874
 20
229.178155
 30
0.0
 11
223.692874
 21
232.178155
 31
0.0
  0
LINE
  8
LC-002-005-----0
  6
CONTINUOUS
  5
2C
 10
220.692874
 20
232.006582
 30
0.0
 11
223.692874
 21
235.006582
 31
0.0
  0
LINE
  8
LC-002-005-----0
  6
CONTINUOUS
  5
2D
 10
220.692874
 20
234.83501
 30
0.0
 11
223.692874
 21
237.83501
 31
0.0
  0
LINE
  8
LC-002-005-----0
  6
CONTINUOUS
  5
2E
 10
220.692874
 20
237.663437
 30
0.0
 11
223.692874
 21
240.663437
 31
0.0
  0
LINE
  8
LC-002-005-----0
  6
CONTINUOUS
  5
2F
 10
220.692874
 20
240.491864
 30
0.0
 11
223.692874
 21
243.491864
 31
0.0
  0
LINE
  8
LC-002-005-----0
  6
CONTINUOUS
  5
30
 10
220.692874
 20
243.320291
 30
0.0
 11
223.692874
 21
246.320291
 31
0.0
  0
LINE
  8
LC-002-005-----0
  6
CONTINUOUS
  5
31
 10
220.692874
 20
246.148718
 30
0.0
 11
223.692874
 21
249.148718
 31
0.0
  0
LINE
  8
LC-002-005-----0
  6
CONTINUOUS
  5
32
 10
220.692874
 20
248.977145
 30
0.0
 11
223.692874
 21
251.977145
 31
0.0
  0
LINE
  8
LC-002-005-----0
  6
CONTINUOUS
  5
33
 10
220.692874
 20
251.805572
 30
0.0
 11
223.692874
 21
254.805572
 31
0.0
  0
LINE
  8
LC-002-005-----0
  6
CONTINUOUS
  5
34
 10
220.692874
 20
254.633999
 30
0.0
 11
223.692874
 21
257.633999
 31
0.0
  0
LINE
  8
LC-002-005-----0
  6
CONTINUOUS
  5
35
 10
220.692874
 20
257.462427
 30
0.0
 11
223.692874
 21
260.462427
 31
0.0
  0
LINE
  8
LC-002-005-----0
  6
CONTINUOUS
  5
36
 10
220.692874
 20
260.290854
 30
0.0
 11
223.692874
 21
263.290854
 31
0.0
  0
LINE
  8
LC-002-005-----0
  6
CONTINUOUS
  5
37
 10
220.692874
 20
263.119281
 30
0.0
 11
223.692874
 21
266.119281
 31
0.0
  0
LINE
  8
LC-002-005-----0
  6
CONTINUOUS
  5
38
 10
220.692874
 20
265.947708
 30
0.0
 11
223.692874
 21
268.947708
 31
0.0
  0
LINE
  8
LC-002-005-----0
  6
CONTINUOUS
  5
39
 10
220.692874
 20
268.776135
 30
0.0
 11
223.692874
 21
271.776135
 31
0.0
  0
LINE
  8
LC-002-005-----0
  6
CONTINUOUS
  5
3A
 10
220.692874
 20
271.604562
 30
0.0
 11
223.692874
 21
274.604562
 31
0.0
  0
LINE
  8
LC-002-005-----0
  6
CONTINUOUS
  5
3B
 10
220.692874
 20
274.432989
 30
0.0
 11
223.692874
 21
277.432989
 31
0.0
  0
LINE
  8
LC-002-005-----0
  6
CONTINUOUS
  5
3C
 10
220.692874
 20
277.261416
 30
0.0
 11
223.692874
 21
280.261416
 31
0.0
  0
LINE
  8
LC-002-005-----0
  6
CONTINUOUS
  5
3D
 10
220.692874
 20
280.089844
 30
0.0
 11
223.692874
 21
283.089844
 31
0.0
  0
LINE
  8
LC-002-005-----0
  6
CONTINUOUS
  5
3E
 10
220.692874
 20
282.918271
 30
0.0
 11
223.692874
 21
285.918271
 31
0.0
  0
LINE
  8
LC-002-005-----0
  6
CONTINUOUS
  5
3F
 10
220.692874
 20
285.746698
 30
0.0
 11
223.692874
 21
288.746698
 31
0.0
  0
LINE
  8
LC-002-005-----0
  6
CONTINUOUS
  5
40
 10
220.692874
 20
288.575125
 30
0.0
 11
223.692874
 21
291.575125
 31
0.0
  0
LINE
  8
LC-002-005-----0
  6
CONTINUOUS
  5
41
 10
220.692874
 20
291.403552
 30
0.0
 11
223.692874
 21
294.403552
 31
0.0
  0
LINE
  8
LC-002-005-----0
  6
CONTINUOUS
  5
42
 10
220.692874
 20
294.231979
 30
0.0
 11
223.692874
 21
297.231979
 31
0.0
  0
LINE
  8
LC-002-005-----0
  6
CONTINUOUS
  5
43
 10
220.692874
 20
297.060406
 30
0.0
 11
223.692874
 21
300.060406
 31
0.0
  0
LINE
  8
LC-002-005-----0
  6
CONTINUOUS
  5
44
 10
220.692874
 20
299.888833
 30
0.0
 11
223.692874
 21
302.888833
 31
0.0
  0
LINE
  8
LC-002-005-----0
  6
CONTINUOUS
  5
45
 10
220.692874
 20
302.717261
 30
0.0
 11
223.692874
 21
305.717261
 31
0.0
  0
LINE
  8
LC-002-005-----0
  6
CONTINUOUS
  5
46
 10
220.692874
 20
305.545688
 30
0.0
 11
223.692874
 21
308.545688
 31
0.0
  0
LINE
  8
LC-002-005-----0
  6
CONTINUOUS
  5
47
 10
220.692874
 20
308.374115
 30
0.0
 11
223.692874
 21
311.374115
 31
0.0
  0
LINE
  8
LC-002-005-----0
  6
CONTINUOUS
  5
48
 10
220.692874
 20
311.202542
 30
0.0
 11
223.692874
 21
314.202542
 31
0.0
  0
LINE
  8
LC-002-005-----0
  6
CONTINUOUS
  5
49
 10
220.692874
 20
314.030969
 30
0.0
 11
223.692874
 21
317.030969
 31
0.0
  0
LINE
  8
LC-002-005-----0
  6
CONTINUOUS
  5
4A
 10
220.692874
 20
316.859396
 30
0.0
 11
223.692874
 21
319.859396
 31
0.0
  0
LINE
  8
LC-002-005-----0
  6
CONTINUOUS
  5
4B
 10
220.692874
 20
319.687823
 30
0.0
 11
223.692874
 21
322.687823
 31
0.0
  0
LINE
  8
LC-002-005-----0
  6
CONTINUOUS
  5
4C
 10
220.692874
 20
322.51625
 30
0.0
 11
223.692874
 21
325.51625
 31
0.0
  0
LINE
  8
LC-002-005-----0
  6
CONTINUOUS
  5
4D
 10
220.692874
 20
325.344678
 30
0.0
 11
223.692874
 21
328.344678
 31
0.0
  0
LINE
  8
LC-002-005-----0
  6
CONTINUOUS
  5
4E
 10
220.692874
 20
328.173105
 30
0.0
 11
223.692874
 21
331.173105
 31
0.0
  0
LINE
  8
LC-002-005-----0
  6
CONTINUOUS
  5
4F
 10
220.692874
 20
331.001532
 30
0.0
 11
223.692874
 21
334.001532
 31
0.0
  0
LINE
  8
LC-002-005-----0
  6
CONTINUOUS
  5
50
 10
220.692874
 20
333.829959
 30
0.0
 11
223.692874
 21
336.829959
 31
0.0
  0
LINE
  8
LC-002-005-----0
  6
CONTINUOUS
  5
51
 10
220.692874
 20
336.658386
 30
0.0
 11
223.692874
 21
339.658386
 31
0.0
  0
LINE
  8
LC-002-005-----0
  6
CONTINUOUS
  5
52
 10
220.692874
 20
339.486813
 30
0.0
 11
223.692874
 21
342.486813
 31
0.0
  0
LINE
  8
LC-002-005-----0
  6
CONTINUOUS
  5
53
 10
220.692874
 20
342.31524
 30
0.0
 11
223.692874
 21
345.31524
 31
0.0
  0
LINE
  8
LC-002-005-----0
  6
CONTINUOUS
  5
54
 10
220.692874
 20
345.143667
 30
0.0
 11
223.692874
 21
348.143667
 31
0.0
  0
LINE
  8
LC-002-005-----0
  6
CONTINUOUS
  5
55
 10
220.692874
 20
347.972095
 30
0.0
 11
223.692874
 21
350.972095
 31
0.0
  0
LINE
  8
LC-002-005-----0
  6
CONTINUOUS
  5
56
 10
220.692874
 20
350.800522
 30
0.0
 11
223.692874
 21
353.800522
 31
0.0
  0
LINE
  8
LC-002-005-----0
  6
CONTINUOUS
  5
57
 10
220.692874
 20
353.628949
 30
0.0
 11
223.692874
 21
356.628949
 31
0.0
  0
LINE
  8
LC-002-005-----0
  6
CONTINUOUS
  5
58
 10
220.692874
 20
356.457376
 30
0.0
 11
223.692874
 21
359.457376
 31
0.0
  0
LINE
  8
LC-002-005-----0
  6
CONTINUOUS
  5
59
 10
220.692874
 20
359.285803
 30
0.0
 11
223.692874
 21
362.285803
 31
0.0
  0
LINE
  8
LC-002-005-----0
  6
CONTINUOUS
  5
5A
 10
220.692874
 20
362.11423
 30
0.0
 11
223.692874
 21
365.11423
 31
0.0
  0
LINE
  8
LC-002-005-----0
  6
CONTINUOUS
  5
5B
 10
220.692874
 20
364.942657
 30
0.0
 11
223.692874
 21
367.942657
 31
0.0
  0
LINE
  8
LC-002-005-----0
  6
CONTINUOUS
  5
5C
 10
220.692874
 20
367.771084
 30
0.0
 11
223.692874
 21
370.771084
 31
0.0
  0
LINE
  8
LC-002-005-----0
  6
CONTINUOUS
  5
5D
 10
220.692874
 20
370.599512
 30
0.0
 11
223.692874
 21
373.599512
 31
0.0
  0
LINE
  8
LC-002-005-----0
  6
CONTINUOUS
  5
5E
 10
220.692874
 20
373.427939
 30
0.0
 11
223.692874
 21
376.427939
 31
0.0
  0
LINE
  8
LC-002-005-----0
  6
CONTINUOUS
  5
5F
 10
220.692874
 20
376.256366
 30
0.0
 11
223.692874
 21
379.256366
 31
0.0
  0
LINE
  8
LC-002-005-----0
  6
CONTINUOUS
  5
60
 10
220.692874
 20
379.084793
 30
0.0
 11
223.692874
 21
382.084793
 31
0.0
  0
LINE
  8
LC-002-005-----0
  6
CONTINUOUS
  5
61
 10
220.692874
 20
381.91322
 30
0.0
 11
223.692874
 21
384.91322
 31
0.0
  0
LINE
  8
LC-002-005-----0
  6
CONTINUOUS
  5
62
 10
220.692874
 20
384.741647
 30
0.0
 11
223.692874
 21
387.741647
 31
0.0
  0
LINE
  8
LC-002-005-----0
  6
CONTINUOUS
  5
63
 10
220.692874
 20
387.570074
 30
0.0
 11
223.692874
 21
390.570074
 31
0.0
  0
LINE
  8
LC-002-005-----0
  6
CONTINUOUS
  5
64
 10
220.692874
 20
390.398501
 30
0.0
 11
223.692874
 21
393.398501
 31
0.0
  0
LINE
  8
LC-002-005-----0
  6
CONTINUOUS
  5
65
 10
220.692874
 20
393.226929
 30
0.0
 11
223.692874
 21
396.226929
 31
0.0
  0
LINE
  8
LC-002-005-----0
  6
CONTINUOUS
  5
66
 10
220.692874
 20
396.055356
 30
0.0
 11
223.692874
 21
399.055356
 31
0.0
  0
LINE
  8
LC-002-005-----0
  6
CONTINUOUS
  5
67
 10
220.692874
 20
398.883783
 30
0.0
 11
223.692874
 21
401.883783
 31
0.0
  0
LINE
  8
LC-002-005-----0
  6
CONTINUOUS
  5
68
 10
220.692874
 20
401.71221
 30
0.0
 11
223.692874
 21
404.71221
 31
0.0
  0
LINE
  8
LC-002-005-----0
  6
CONTINUOUS
  5
69
 10
220.692874
 20
404.540637
 30
0.0
 11
223.692874
 21
407.540637
 31
0.0
  0
LINE
  8
LC-002-005-----0
  6
CONTINUOUS
  5
6A
 10
220.692874
 20
407.369064
 30
0.0
 11
223.692874
 21
410.369064
 31
0.0
  0
LINE
  8
LC-002-005-----0
  6
CONTINUOUS
  5
6B
 10
220.692874
 20
410.197491
 30
0.0
 11
223.692874
 21
413.197491
 31
0.0
  0
LINE
  8
LC-002-005-----0
  6
CONTINUOUS
  5
6C
 10
219.769898
 20
412.102943
 30
0.0
 11
222.694347
 21
415.027392
 31
0.0
  0
LINE
  8
LC-002-005-----0
  6
CONTINUOUS
  5
6D
 10
217.013646
 20
412.175118
 30
0.0
 11
219.938095
 21
415.099567
 31
0.0
  0
LINE
  8
LC-002-005-----0
  6
CONTINUOUS
  5
6E
 10
214.257394
 20
412.247293
 30
0.0
 11
217.181843
 21
415.171742
 31
0.0
  0
LINE
  8
LC-002-005-----0
  6
CONTINUOUS
  5
6F
 10
211.501142
 20
412.319468
 30
0.0
 11
214.425591
 21
415.243917
 31
0.0
  0
LINE
  8
LC-002-005-----0
  6
CONTINUOUS
  5
70
 10
208.74489
 20
412.391643
 30
0.0
 11
211.669339
 21
415.316092
 31
0.0
  0
LINE
  8
LC-002-005-----0
  6
CONTINUOUS
  5
71
 10
205.988638
 20
412.463818
 30
0.0
 11
208.913087
 21
415.388267
 31
0.0
  0
LINE
  8
LC-002-005-----0
  6
CONTINUOUS
  5
72
 10
203.232385
 20
412.535993
 30
0.0
 11
206.156834
 21
415.460442
 31
0.0
  0
LINE
  8
LC-002-005-----0
  6
CONTINUOUS
  5
73
 10
200.476133
 20
412.608168
 30
0.0
 11
203.400582
 21
415.532617
 31
0.0
  0
LINE
  8
LC-002-005-----0
  6
CONTINUOUS
  5
74
 10
197.719881
 20
412.680343
 30
0.0
 11
200.64433
 21
415.604792
 31
0.0
  0
LINE
  8
LC-002-005-----0
  6
CONTINUOUS
  5
75
 10
194.963629
 20
412.752518
 30
0.0
 11
197.888078
 21
415.676967
 31
0.0
  0
LINE
  8
LC-002-005-----0
  6
CONTINUOUS
  5
76
 10
192.168478
 20
412.785794
 30
0.0
 11
195.131826
 21
415.749142
 31
0.0
  0
LINE
  8
LC-002-005-----0
  6
CONTINUOUS
  5
77
 10
189.340051
 20
412.785794
 30
0.0
 11
192.342862
 21
415.788604
 31
0.0
  0
LINE
  8
LC-002-005-----0
  6
CONTINUOUS
  5
78
 10
186.511624
 20
412.785794
 30
0.0
 11
189.513826
 21
415.787996
 31
0.0
  0
LINE
  8
LC-002-005-----0
  6
CONTINUOUS
  5
79
 10
183.683196
 20
412.785794
 30
0.0
 11
186.684791
 21
415.787388
 31
0.0
  0
LINE
  8
LC-002-005-----0
  6
CONTINUOUS
  5
7A
 10
180.854769
 20
412.785794
 30
0.0
 11
185.942847
 21
417.873872
 31
0.0
  0
LINE
  8
LC-002-005-----0
  6
CONTINUOUS
  5
7B
 10
177.092652
 20
411.852103
 30
0.0
 11
185.942847
 21
420.702299
 31
0.0
  0
LINE
  8
LC-002-005-----0
  6
CONTINUOUS
  5
7C
 10
174.328995
 20
411.916873
 30
0.0
 11
175.925399
 21
413.513277
 31
0.0
  0
LINE
  8
LC-002-005-----0
  6
CONTINUOUS
  5
7D
 10
178.492874
 20
416.080752
 30
0.0
 11
185.942847
 21
423.530726
 31
0.0
  0
LINE
  8
LC-002-005-----0
  6
CONTINUOUS
  5
7E
 10
172.126399
 20
412.542705
 30
0.0
 11
173.392874
 21
413.80918
 31
0.0
  0
LINE
  8
LC-002-005-----0
  6
CONTINUOUS
  5
7F
 10
178.492874
 20
418.90918
 30
0.0
 11
185.942847
 21
426.359153
 31
0.0
  0
LINE
  8
LC-002-005-----0
  6
CONTINUOUS
  5
80
 10
169.541061
 20
412.785794
 30
0.0
 11
173.392874
 21
416.637607
 31
0.0
  0
LINE
  8
LC-002-005-----0
  6
CONTINUOUS
  5
81
 10
178.492874
 20
421.737607
 30
0.0
 11
185.910874
 21
429.155607
 31
0.0
  0
LINE
  8
LC-002-005-----0
  6
CONTINUOUS
  5
82
 10
168.324343
 20
414.397503
 30
0.0
 11
173.392874
 21
419.466034
 31
0.0
  0
LINE
  8
LC-002-005-----0
  6
CONTINUOUS
  5
83
 10
178.492874
 20
424.566034
 30
0.0
 11
181.18382
 21
427.25698
 31
0.0
  0
LINE
  8
LC-002-005-----0
  6
CONTINUOUS
  5
84
 10
181.910874
 20
427.984034
 30
0.0
 11
182.710117
 21
428.783277
 31
0.0
  0
LINE
  8
LC-002-005-----0
  6
CONTINUOUS
  5
85
 10
182.910874
 20
428.984034
 30
0.0
 11
185.762528
 21
431.835688
 31
0.0
  0
LINE
  8
LC-002-005-----0
  6
CONTINUOUS
  5
86
 10
168.324343
 20
417.22593
 30
0.0
 11
173.392874
 21
422.294461
 31
0.0
  0
LINE
  8
LC-002-005-----0
  6
CONTINUOUS
  5
87
 10
182.910874
 20
431.812461
 30
0.0
 11
182.934101
 21
431.835688
 31
0.0
  0
LINE
  8
LC-002-005-----0
  6
CONTINUOUS
  5
88
 10
168.324343
 20
420.054357
 30
0.0
 11
173.392874
 21
425.122888
 31
0.0
  0
LINE
  8
LC-002-005-----0
  6
CONTINUOUS
  5
89
 10
168.324343
 20
422.882784
 30
0.0
 11
172.698539
 21
427.25698
 31
0.0
  0
LINE
  8
LC-002-005-----0
  6
CONTINUOUS
  5
8A
 10
168.324343
 20
425.711211
 30
0.0
 11
169.870112
 21
427.25698
 31
0.0
  0
ENDBLK
  8
0
  5
8B
  0
BLOCK
  8
0
  5
8D
  2
*X1
 70
    65
 10
267.692874
 20
212.785794
 30
0.0
  3
*X1
  0
LINE
  8
LC-002-005-----0
  6
CONTINUOUS
  5
8E
 10
269.354336
 20
212.785794
 30
0.0
 11
269.535699
 21
212.967156
 31
0.0
  0
LINE
  8
LC-002-005-----0
  6
CONTINUOUS
  5
8F
 10
267.692874
 20
213.952759
 30
0.0
 11
270.570975
 21
216.830859
 31
0.0
  0
LINE
  8
LC-002-005-----0
  6
CONTINUOUS
  5
90
 10
267.692874
 20
216.781186
 30
0.0
 11
270.692874
 21
219.781186
 31
0.0
  0
LINE
  8
LC-002-005-----0
  6
CONTINUOUS
  5
91
 10
267.692874
 20
219.609613
 30
0.0
 11
270.692874
 21
222.609613
 31
0.0
  0
LINE
  8
LC-002-005-----0
  6
CONTINUOUS
  5
92
 10
267.692874
 20
222.43804
 30
0.0
 11
270.692874
 21
225.43804
 31
0.0
  0
LINE
  8
LC-002-005-----0
  6
CONTINUOUS
  5
93
 10
267.692874
 20
225.266467
 30
0.0
 11
270.692874
 21
228.266467
 31
0.0
  0
LINE
  8
LC-002-005-----0
  6
CONTINUOUS
  5
94
 10
267.692874
 20
228.094894
 30
0.0
 11
270.692874
 21
231.094894
 31
0.0
  0
LINE
  8
LC-002-005-----0
  6
CONTINUOUS
  5
95
 10
267.692874
 20
230.923321
 30
0.0
 11
270.692874
 21
233.923321
 31
0.0
  0
LINE
  8
LC-002-005-----0
  6
CONTINUOUS
  5
96
 10
267.692874
 20
233.751748
 30
0.0
 11
270.692874
 21
236.751748
 31
0.0
  0
LINE
  8
LC-002-005-----0
  6
CONTINUOUS
  5
97
 10
267.692874
 20
236.580176
 30
0.0
 11
270.692874
 21
239.580176
 31
0.0
  0
LINE
  8
LC-002-005-----0
  6
CONTINUOUS
  5
98
 10
267.692874
 20
239.408603
 30
0.0
 11
270.692874
 21
242.408603
 31
0.0
  0
LINE
  8
LC-002-005-----0
  6
CONTINUOUS
  5
99
 10
267.692874
 20
242.23703
 30
0.0
 11
270.692874
 21
245.23703
 31
0.0
  0
LINE
  8
LC-002-005-----0
  6
CONTINUOUS
  5
9A
 10
267.692874
 20
245.065457
 30
0.0
 11
270.692874
 21
248.065457
 31
0.0
  0
LINE
  8
LC-002-005-----0
  6
CONTINUOUS
  5
9B
 10
267.692874
 20
247.893884
 30
0.0
 11
270.692874
 21
250.893884
 31
0.0
  0
LINE
  8
LC-002-005-----0
  6
CONTINUOUS
  5
9C
 10
267.692874
 20
250.722311
 30
0.0
 11
270.692874
 21
253.722311
 31
0.0
  0
LINE
  8
LC-002-005-----0
  6
CONTINUOUS
  5
9D
 10
267.692874
 20
253.550738
 30
0.0
 11
270.692874
 21
256.550738
 31
0.0
  0
LINE
  8
LC-002-005-----0
  6
CONTINUOUS
  5
9E
 10
267.692874
 20
256.379165
 30
0.0
 11
270.692874
 21
259.379165
 31
0.0
  0
LINE
  8
LC-002-005-----0
  6
CONTINUOUS
  5
9F
 10
267.692874
 20
259.207593
 30
0.0
 11
270.692874
 21
262.207593
 31
0.0
  0
LINE
  8
LC-002-005-----0
  6
CONTINUOUS
  5
A0
 10
267.692874
 20
262.03602
 30
0.0
 11
270.692874
 21
265.03602
 31
0.0
  0
LINE
  8
LC-002-005-----0
  6
CONTINUOUS
  5
A1
 10
267.692874
 20
264.864447
 30
0.0
 11
270.692874
 21
267.864447
 31
0.0
  0
LINE
  8
LC-002-005-----0
  6
CONTINUOUS
  5
A2
 10
267.692874
 20
267.692874
 30
0.0
 11
270.692874
 21
270.692874
 31
0.0
  0
LINE
  8
LC-002-005-----0
  6
CONTINUOUS
  5
A3
 10
267.692874
 20
270.521301
 30
0.0
 11
270.692874
 21
273.521301
 31
0.0
  0
LINE
  8
LC-002-005-----0
  6
CONTINUOUS
  5
A4
 10
267.692874
 20
273.349728
 30
0.0
 11
270.692874
 21
276.349728
 31
0.0
  0
LINE
  8
LC-002-005-----0
  6
CONTINUOUS
  5
A5
 10
267.692874
 20
276.178155
 30
0.0
 11
270.692874
 21
279.178155
 31
0.0
  0
LINE
  8
LC-002-005-----0
  6
CONTINUOUS
  5
A6
 10
267.692874
 20
279.006582
 30
0.0
 11
270.692874
 21
282.006582
 31
0.0
  0
LINE
  8
LC-002-005-----0
  6
CONTINUOUS
  5
A7
 10
267.692874
 20
281.83501
 30
0.0
 11
270.692874
 21
284.83501
 31
0.0
  0
LINE
  8
LC-002-005-----0
  6
CONTINUOUS
  5
A8
 10
267.692874
 20
284.663437
 30
0.0
 11
270.692874
 21
287.663437
 31
0.0
  0
LINE
  8
LC-002-005-----0
  6
CONTINUOUS
  5
A9
 10
267.692874
 20
287.491864
 30
0.0
 11
270.692874
 21
290.491864
 31
0.0
  0
LINE
  8
LC-002-005-----0
  6
CONTINUOUS
  5
AA
 10
267.692874
 20
290.320291
 30
0.0
 11
270.692874
 21
293.320291
 31
0.0
  0
LINE
  8
LC-002-005-----0
  6
CONTINUOUS
  5
AB
 10
267.692874
 20
293.148718
 30
0.0
 11
270.692874
 21
296.148718
 31
0.0
  0
LINE
  8
LC-002-005-----0
  6
CONTINUOUS
  5
AC
 10
267.692874
 20
295.977145
 30
0.0
 11
270.692874
 21
298.977145
 31
0.0
  0
LINE
  8
LC-002-005-----0
  6
CONTINUOUS
  5
AD
 10
267.692874
 20
298.805572
 30
0.0
 11
270.692874
 21
301.805572
 31
0.0
  0
LINE
  8
LC-002-005-----0
  6
CONTINUOUS
  5
AE
 10
267.692874
 20
301.633999
 30
0.0
 11
270.692874
 21
304.633999
 31
0.0
  0
LINE
  8
LC-002-005-----0
  6
CONTINUOUS
  5
AF
 10
267.692874
 20
304.462427
 30
0.0
 11
270.692874
 21
307.462427
 31
0.0
  0
LINE
  8
LC-002-005-----0
  6
CONTINUOUS
  5
B0
 10
267.692874
 20
307.290854
 30
0.0
 11
270.692874
 21
310.290854
 31
0.0
  0
LINE
  8
LC-002-005-----0
  6
CONTINUOUS
  5
B1
 10
267.692874
 20
310.119281
 30
0.0
 11
270.692874
 21
313.119281
 31
0.0
  0
LINE
  8
LC-002-005-----0
  6
CONTINUOUS
  5
B2
 10
267.692874
 20
312.947708
 30
0.0
 11
270.692874
 21
315.947708
 31
0.0
  0
LINE
  8
LC-002-005-----0
  6
CONTINUOUS
  5
B3
 10
267.692874
 20
315.776135
 30
0.0
 11
270.692874
 21
318.776135
 31
0.0
  0
LINE
  8
LC-002-005-----0
  6
CONTINUOUS
  5
B4
 10
267.692874
 20
318.604562
 30
0.0
 11
270.692874
 21
321.604562
 31
0.0
  0
LINE
  8
LC-002-005-----0
  6
CONTINUOUS
  5
B5
 10
267.692874
 20
321.432989
 30
0.0
 11
270.692874
 21
324.432989
 31
0.0
  0
LINE
  8
LC-002-005-----0
  6
CONTINUOUS
  5
B6
 10
267.692874
 20
324.261416
 30
0.0
 11
270.692874
 21
327.261416
 31
0.0
  0
LINE
  8
LC-002-005-----0
  6
CONTINUOUS
  5
B7
 10
267.692874
 20
327.089844
 30
0.0
 11
270.692874
 21
330.089844
 31
0.0
  0
LINE
  8
LC-002-005-----0
  6
CONTINUOUS
  5
B8
 10
267.692874
 20
329.918271
 30
0.0
 11
270.692874
 21
332.918271
 31
0.0
  0
LINE
  8
LC-002-005-----0
  6
CONTINUOUS
  5
B9
 10
267.692874
 20
332.746698
 30
0.0
 11
270.692874
 21
335.746698
 31
0.0
  0
LINE
  8
LC-002-005-----0
  6
CONTINUOUS
  5
BA
 10
267.692874
 20
335.575125
 30
0.0
 11
270.692874
 21
338.575125
 31
0.0
  0
LINE
  8
LC-002-005-----0
  6
CONTINUOUS
  5
BB
 10
267.692874
 20
338.403552
 30
0.0
 11
270.692874
 21
341.403552
 31
0.0
  0
LINE
  8
LC-002-005-----0
  6
CONTINUOUS
  5
BC
 10
267.692874
 20
341.231979
 30
0.0
 11
270.692874
 21
344.231979
 31
0.0
  0
LINE
  8
LC-002-005-----0
  6
CONTINUOUS
  5
BD
 10
267.692874
 20
344.060406
 30
0.0
 11
270.692874
 21
347.060406
 31
0.0
  0
LINE
  8
LC-002-005-----0
  6
CONTINUOUS
  5
BE
 10
267.692874
 20
346.888833
 30
0.0
 11
270.692874
 21
349.888833
 31
0.0
  0
LINE
  8
LC-002-005-----0
  6
CONTINUOUS
  5
BF
 10
267.692874
 20
349.717261
 30
0.0
 11
270.692874
 21
352.717261
 31
0.0
  0
LINE
  8
LC-002-005-----0
  6
CONTINUOUS
  5
C0
 10
267.692874
 20
352.545688
 30
0.0
 11
270.692874
 21
355.545688
 31
0.0
  0
LINE
  8
LC-002-005-----0
  6
CONTINUOUS
  5
C1
 10
267.692874
 20
355.374115
 30
0.0
 11
270.692874
 21
358.374115
 31
0.0
  0
LINE
  8
LC-002-005-----0
  6
CONTINUOUS
  5
C2
 10
267.692874
 20
358.202542
 30
0.0
 11
270.692874
 21
361.202542
 31
0.0
  0
LINE
  8
LC-002-005-----0
  6
CONTINUOUS
  5
C3
 10
322.276126
 20
412.785794
 30
0.0
 11
323.061405
 21
413.571073
 31
0.0
  0
LINE
  8
LC-002-005-----0
  6
CONTINUOUS
  5
C4
 10
267.692874
 20
361.030969
 30
0.0
 11
270.692874
 21
364.030969
 31
0.0
  0
LINE
  8
LC-002-005-----0
  6
CONTINUOUS
  5
C5
 10
319.167027
 20
412.505122
 30
0.0
 11
323.061405
 21
416.3995
 31
0.0
  0
LINE
  8
LC-002-005-----0
  6
CONTINUOUS
  5
C6
 10
267.692874
 20
363.859396
 30
0.0
 11
270.692874
 21
366.859396
 31
0.0
  0
LINE
  8
LC-002-005-----0
  6
CONTINUOUS
  5
C7
 10
315.620846
 20
411.787368
 30
0.0
 11
317.346755
 21
413.513277
 31
0.0
  0
LINE
  8
LC-002-005-----0
  6
CONTINUOUS
  5
C8
 10
317.992874
 20
414.159396
 30
0.0
 11
323.061405
 21
419.227927
 31
0.0
  0
LINE
  8
LC-002-005-----0
  6
CONTINUOUS
  5
C9
 10
267.692874
 20
366.687823
 30
0.0
 11
270.692874
 21
369.687823
 31
0.0
  0
LINE
  8
LC-002-005-----0
  6
CONTINUOUS
  5
CA
 10
313.075177
 20
412.070126
 30
0.0
 11
314.518328
 21
413.513277
 31
0.0
  0
LINE
  8
LC-002-005-----0
  6
CONTINUOUS
  5
CB
 10
317.992874
 20
416.987823
 30
0.0
 11
323.061405
 21
422.056355
 31
0.0
  0
LINE
  8
LC-002-005-----0
  6
CONTINUOUS
  5
CC
 10
267.692874
 20
369.51625
 30
0.0
 11
270.692874
 21
372.51625
 31
0.0
  0
LINE
  8
LC-002-005-----0
  6
CONTINUOUS
  5
CD
 10
310.963128
 20
412.786504
 30
0.0
 11
312.892874
 21
414.71625
 31
0.0
  0
LINE
  8
LC-002-005-----0
  6
CONTINUOUS
  5
CE
 10
317.992874
 20
419.81625
 30
0.0
 11
323.061405
 21
424.884782
 31
0.0
  0
LINE
  8
LC-002-005-----0
  6
CONTINUOUS
  5
CF
 10
267.692874
 20
372.344678
 30
0.0
 11
270.692874
 21
375.344678
 31
0.0
  0
LINE
  8
LC-002-005-----0
  6
CONTINUOUS
  5
D0
 10
308.134703
 20
412.786506
 30
0.0
 11
312.892874
 21
417.544678
 31
0.0
  0
LINE
  8
LC-002-005-----0
  6
CONTINUOUS
  5
D1
 10
317.992874
 20
422.644678
 30
0.0
 11
322.605176
 21
427.25698
 31
0.0
  0
LINE
  8
LC-002-005-----0
  6
CONTINUOUS
  5
D2
 10
267.692874
 20
375.173105
 30
0.0
 11
270.692874
 21
378.173105
 31
0.0
  0
LINE
  8
LC-002-005-----0
  6
CONTINUOUS
  5
D3
 10
305.306278
 20
412.786509
 30
0.0
 11
312.892874
 21
420.373105
 31
0.0
  0
LINE
  8
LC-002-005-----0
  6
CONTINUOUS
  5
D4
 10
317.992874
 20
425.473105
 30
0.0
 11
319.776749
 21
427.25698
 31
0.0
  0
LINE
  8
LC-002-005-----0
  6
CONTINUOUS
  5
D5
 10
267.692874
 20
378.001532
 30
0.0
 11
270.692874
 21
381.001532
 31
0.0
  0
LINE
  8
LC-002-005-----0
  6
CONTINUOUS
  5
D6
 10
302.477853
 20
412.786511
 30
0.0
 11
312.892874
 21
423.201532
 31
0.0
  0
LINE
  8
LC-002-005-----0
  6
CONTINUOUS
  5
D7
 10
267.692874
 20
380.829959
 30
0.0
 11
270.692874
 21
383.829959
 31
0.0
  0
LINE
  8
LC-002-005-----0
  6
CONTINUOUS
  5
D8
 10
299.649428
 20
412.786513
 30
0.0
 11
302.650089
 21
415.787174
 31
0.0
  0
LINE
  8
LC-002-005-----0
  6
CONTINUOUS
  5
D9
 10
305.442988
 20
418.580073
 30
0.0
 11
312.892874
 21
426.029959
 31
0.0
  0
LINE
  8
LC-002-005-----0
  6
CONTINUOUS
  5
DA
 10
267.692874
 20
383.658386
 30
0.0
 11
270.692874
 21
386.658386
 31
0.0
  0
LINE
  8
LC-002-005-----0
  6
CONTINUOUS
  5
DB
 10
296.797556
 20
412.763068
 30
0.0
 11
299.821662
 21
415.787174
 31
0.0
  0
LINE
  8
LC-002-005-----0
  6
CONTINUOUS
  5
DC
 10
305.442988
 20
421.4085
 30
0.0
 11
311.291468
 21
427.25698
 31
0.0
  0
LINE
  8
LC-002-005-----0
  6
CONTINUOUS
  5
DD
 10
267.692874
 20
386.486813
 30
0.0
 11
270.692874
 21
389.486813
 31
0.0
  0
LINE
  8
LC-002-005-----0
  6
CONTINUOUS
  5
DE
 10
293.893065
 20
412.687004
 30
0.0
 11
296.974364
 21
415.768304
 31
0.0
  0
LINE
  8
LC-002-005-----0
  6
CONTINUOUS
  5
DF
 10
305.442988
 20
424.236927
 30
0.0
 11
309.474874
 21
428.268813
 31
0.0
  0
LINE
  8
LC-002-005-----0
  6
CONTINUOUS
  5
E0
 10
267.692874
 20
389.31524
 30
0.0
 11
270.692874
 21
392.31524
 31
0.0
  0
LINE
  8
LC-002-005-----0
  6
CONTINUOUS
  5
E1
 10
290.988573
 20
412.61094
 30
0.0
 11
294.069649
 21
415.692015
 31
0.0
  0
LINE
  8
LC-002-005-----0
  6
CONTINUOUS
  5
E2
 10
305.442988
 20
427.065355
 30
0.0
 11
307.161286
 21
428.783652
 31
0.0
  0
LINE
  8
LC-002-005-----0
  6
CONTINUOUS
  5
E3
 10
267.692874
 20
392.143667
 30
0.0
 11
270.692874
 21
395.143667
 31
0.0
  0
LINE
  8
LC-002-005-----0
  6
CONTINUOUS
  5
E4
 10
288.084082
 20
412.534875
 30
0.0
 11
291.164933
 21
415.615727
 31
0.0
  0
LINE
  8
LC-002-005-----0
  6
CONTINUOUS
  5
E5
 10
267.692874
 20
394.972095
 30
0.0
 11
270.692874
 21
397.972095
 31
0.0
  0
LINE
  8
LC-002-005-----0
  6
CONTINUOUS
  5
E6
 10
285.17959
 20
412.458811
 30
0.0
 11
288.260218
 21
415.539438
 31
0.0
  0
LINE
  8
LC-002-005-----0
  6
CONTINUOUS
  5
E7
 10
267.692874
 20
397.800522
 30
0.0
 11
270.692874
 21
400.800522
 31
0.0
  0
LINE
  8
LC-002-005-----0
  6
CONTINUOUS
  5
E8
 10
282.275099
 20
412.382747
 30
0.0
 11
285.355502
 21
415.46315
 31
0.0
  0
LINE
  8
LC-002-005-----0
  6
CONTINUOUS
  5
E9
 10
267.692874
 20
400.628949
 30
0.0
 11
270.692874
 21
403.628949
 31
0.0
  0
LINE
  8
LC-002-005-----0
  6
CONTINUOUS
  5
EA
 10
279.370608
 20
412.306683
 30
0.0
 11
282.450787
 21
415.386862
 31
0.0
  0
LINE
  8
LC-002-005-----0
  6
CONTINUOUS
  5
EB
 10
267.692874
 20
403.457376
 30
0.0
 11
270.692874
 21
406.457376
 31
0.0
  0
LINE
  8
LC-002-005-----0
  6
CONTINUOUS
  5
EC
 10
276.466116
 20
412.230618
 30
0.0
 11
279.546071
 21
415.310573
 31
0.0
  0
LINE
  8
LC-002-005-----0
  6
CONTINUOUS
  5
ED
 10
267.692874
 20
406.285803
 30
0.0
 11
270.692874
 21
409.285803
 31
0.0
  0
LINE
  8
LC-002-005-----0
  6
CONTINUOUS
  5
EE
 10
273.561625
 20
412.154554
 30
0.0
 11
276.641356
 21
415.234285
 31
0.0
  0
LINE
  8
LC-002-005-----0
  6
CONTINUOUS
  5
EF
 10
267.692874
 20
409.11423
 30
0.0
 11
273.73664
 21
415.157997
 31
0.0
  0
LINE
  8
LC-002-005-----0
  6
CONTINUOUS
  5
F0
 10
267.692874
 20
411.942657
 30
0.0
 11
270.831925
 21
415.081708
 31
0.0
  0
LINE
  8
LC-002-005-----0
  6
CONTINUOUS
  5
F1
 10
267.692874
 20
414.771084
 30
0.0
 11
267.927209
 21
415.00542
 31
0.0
  0
ENDBLK
  8
0
  5
F2
  0
BLOCK
  8
0
  5
F4
  2
*D2
 70
    65
 10
0.0
 20
0.0
 30
0.0
  3
*D2
  0
LINE
  8
LC-004-003-MTH-0
  6
CONTINUOUS
  5
F6
 10
168.324343
 20
427.25698
 30
0.0
 11
168.324343
 21
474.0
 31
0.0
  0
LINE
  8
LC-004-003-MTH-0
  6
CONTINUOUS
  5
F7
 10
323.061405
 20
427.25698
 30
0.0
 11
323.061405
 21
474.0
 31
0.0
  0
LINE
  8
LC-005-003-MTG-0
  6
CONTINUOUS
  5
F9
 10
168.324343
 20
462.0
 30
0.0
 11
323.061405
 21
462.0
 31
0.0
  0
LINE
  8
LC-003-003-----0
  6
CONTINUOUS
  5
FB
 10
188.15324
 20
464.610524
 30
0.0
 11
168.324343
 21
462.0
 31
0.0
  0
LINE
  8
LC-003-003-----0
  6
CONTINUOUS
  5
FC
 10
168.324343
 20
462.0
 30
0.0
 11
188.15324
 21
459.389476
 31
0.0
  0
LINE
  8
LC-003-003-----0
  6
CONTINUOUS
  5
FD
 10
188.15324
 20
459.389476
 30
0.0
 11
188.15324
 21
464.610524
 31
0.0
  0
LINE
  8
LC-003-003-----0
  6
CONTINUOUS
  5
FE
 10
188.197727
 20
463.931788
 30
0.0
 11
173.524343
 21
462.0
 31
0.0
  0
LINE
  8
LC-003-003-----0
  6
CONTINUOUS
  5
FF
 10
173.524343
 20
462.0
 30
0.0
 11
188.197727
 21
460.068212
 31
0.0
  0
LINE
  8
LC-003-003-----0
  6
CONTINUOUS
  5
100
 10
188.242214
 20
463.253051
 30
0.0
 11
178.724343
 21
462.0
 31
0.0
  0
LINE
  8
LC-003-003-----0
  6
CONTINUOUS
  5
101
 10
178.724343
 20
462.0
 30
0.0
 11
188.242214
 21
460.746949
 31
0.0
  0
LINE
  8
LC-003-003-----0
  6
CONTINUOUS
  5
102
 10
188.2867
 20
462.574315
 30
0.0
 11
183.924343
 21
462.0
 31
0.0
  0
LINE
  8
LC-003-003-----0
  6
CONTINUOUS
  5
103
 10
183.924343
 20
462.0
 30
0.0
 11
188.2867
 21
461.425685
 31
0.0
  0
LINE
  8
LC-003-003-----0
  6
CONTINUOUS
  5
104
 10
303.232508
 20
459.389476
 30
0.0
 11
323.061405
 21
462.0
 31
0.0
  0
LINE
  8
LC-003-003-----0
  6
CONTINUOUS
  5
105
 10
323.061405
 20
462.0
 30
0.0
 11
303.232508
 21
464.610524
 31
0.0
  0
LINE
  8
LC-003-003-----0
  6
CONTINUOUS
  5
106
 10
303.232508
 20
464.610524
 30
0.0
 11
303.232508
 21
459.389476
 31
0.0
  0
LINE
  8
LC-003-003-----0
  6
CONTINUOUS
  5
107
 10
303.188021
 20
460.068212
 30
0.0
 11
317.861405
 21
462.0
 31
0.0
  0
LINE
  8
LC-003-003-----0
  6
CONTINUOUS
  5
108
 10
317.861405
 20
462.0
 30
0.0
 11
303.188021
 21
463.931788
 31
0.0
  0
LINE
  8
LC-003-003-----0
  6
CONTINUOUS
  5
109
 10
303.143534
 20
460.746949
 30
0.0
 11
312.661405
 21
462.0
 31
0.0
  0
LINE
  8
LC-003-003-----0
  6
CONTINUOUS
  5
10A
 10
312.661405
 20
462.0
 30
0.0
 11
303.143534
 21
463.253051
 31
0.0
  0
LINE
  8
LC-003-003-----0
  6
CONTINUOUS
  5
10B
 10
303.099048
 20
461.425685
 30
0.0
 11
307.461405
 21
462.0
 31
0.0
  0
LINE
  8
LC-003-003-----0
  6
CONTINUOUS
  5
10C
 10
307.461405
 20
462.0
 30
0.0
 11
303.099048
 21
462.574315
 31
0.0
  0
TEXT
  8
LC-003-003-----0
  6
CONTINUOUS
 62
     6
  5
10E
 10
222.173482
 20
473.59111
 30
0.0
 40
20.0
  1
Ø152
 41
0.9
 51
15.0
  7
LC-TXTSTYLE-150-400-0-0-D0
 72
     1
 11
249.386081
 21
473.59111
 31
0.0
  0
ENDBLK
  8
0
  5
10F
  0
BLOCK
  8
0
  5
111
  2
*D3
 70
    65
 10
0.0
 20
0.0
 30
0.0
  3
*D3
  0
LINE
  8
LC-004-003-MTH-0
  6
CONTINUOUS
  5
112
 10
267.692874
 20
212.785794
 30
0.0
 11
376.0
 21
212.785794
 31
0.0
  0
LINE
  8
LC-004-003-MTH-0
  6
CONTINUOUS
  5
113
 10
321.410874
 20
427.25698
 30
0.0
 11
376.0
 21
427.25698
 31
0.0
  0
LINE
  8
LC-005-003-MTG-0
  6
CONTINUOUS
  5
114
 10
364.0
 20
212.785794
 30
0.0
 11
364.0
 21
427.25698
 31
0.0
  0
LINE
  8
LC-003-003-----0
  6
CONTINUOUS
  5
115
 10
361.389476
 20
232.614691
 30
0.0
 11
364.0
 21
212.785794
 31
0.0
  0
LINE
  8
LC-003-003-----0
  6
CONTINUOUS
  5
116
 10
364.0
 20
212.785794
 30
0.0
 11
366.610524
 21
232.614691
 31
0.0
  0
LINE
  8
LC-003-003-----0
  6
CONTINUOUS
  5
117
 10
366.610524
 20
232.614691
 30
0.0
 11
361.389476
 21
232.614691
 31
0.0
  0
LINE
  8
LC-003-003-----0
  6
CONTINUOUS
  5
118
 10
362.068212
 20
232.659177
 30
0.0
 11
364.0
 21
217.985794
 31
0.0
  0
LINE
  8
LC-003-003-----0
  6
CONTINUOUS
  5
119
 10
364.0
 20
217.985794
 30
0.0
 11
365.931788
 21
232.659177
 31
0.0
  0
LINE
  8
LC-003-003-----0
  6
CONTINUOUS
  5
11A
 10
362.746949
 20
232.703664
 30
0.0
 11
364.0
 21
223.185794
 31
0.0
  0
LINE
  8
LC-003-003-----0
  6
CONTINUOUS
  5
11B
 10
364.0
 20
223.185794
 30
0.0
 11
365.253051
 21
232.703664
 31
0.0
  0
LINE
  8
LC-003-003-----0
  6
CONTINUOUS
  5
11C
 10
363.425685
 20
232.748151
 30
0.0
 11
364.0
 21
228.385794
 31
0.0
  0
LINE
  8
LC-003-003-----0
  6
CONTINUOUS
  5
11D
 10
364.0
 20
228.385794
 30
0.0
 11
364.574315
 21
232.748151
 31
0.0
  0
LINE
  8
LC-003-003-----0
  6
CONTINUOUS
  5
11E
 10
366.610524
 20
407.428083
 30
0.0
 11
364.0
 21
427.25698
 31
0.0
  0
LINE
  8
LC-003-003-----0
  6
CONTINUOUS
  5
11F
 10
364.0
 20
427.25698
 30
0.0
 11
361.389476
 21
407.428083
 31
0.0
  0
LINE
  8
LC-003-003-----0
  6
CONTINUOUS
  5
120
 10
361.389476
 20
407.428083
 30
0.0
 11
366.610524
 21
407.428083
 31
0.0
  0
LINE
  8
LC-003-003-----0
  6
CONTINUOUS
  5
121
 10
365.931788
 20
407.383596
 30
0.0
 11
364.0
 21
422.05698
 31
0.0
  0
LINE
  8
LC-003-003-----0
  6
CONTINUOUS
  5
122
 10
364.0
 20
422.05698
 30
0.0
 11
362.068212
 21
407.383596
 31
0.0
  0
LINE
  8
LC-003-003-----0
  6
CONTINUOUS
  5
123
 10
365.253051
 20
407.339109
 30
0.0
 11
364.0
 21
416.85698
 31
0.0
  0
LINE
  8
LC-003-003-----0
  6
CONTINUOUS
  5
124
 10
364.0
 20
416.85698
 30
0.0
 11
362.746949
 21
407.339109
 31
0.0
  0
LINE
  8
LC-003-003-----0
  6
CONTINUOUS
  5
125
 10
364.574315
 20
407.294623
 30
0.0
 11
364.0
 21
411.65698
 31
0.0
  0
LINE
  8
LC-003-003-----0
  6
CONTINUOUS
  5
126
 10
364.0
 20
411.65698
 30
0.0
 11
363.425685
 21
407.294623
 31
0.0
  0
TEXT
  8
LC-003-003-----0
  6
CONTINUOUS
 62
     6
  5
127
 10
352.40889
 20
301.867373
 30
0.0
 40
20.0
  1
215
 50
90.0
 51
15.0
  7
LC-TXTSTYLE-150-400-0-0-D0
 72
     1
 11
352.40889
 21
323.127215
 31
0.0
  0
ENDBLK
  8
0
  5
128
  0
BLOCK
  8
0
  5
12A
  2
*D4
 70
    65
 10
0.0
 20
0.0
 30
0.0
  3
*D4
  0
LINE
  8
LC-004-003-MTH-0
  6
CONTINUOUS
  5
12B
 10
269.487103
 20
212.785794
 30
0.0
 11
332.0
 21
212.785794
 31
0.0
  0
LINE
  8
LC-004-003-MTH-0
  6
CONTINUOUS
  5
12C
 10
323.061405
 20
412.785794
 30
0.0
 11
308.0
 21
412.785794
 31
0.0
  0
LINE
  8
LC-005-003-MTG-0
  6
CONTINUOUS
  5
12D
 10
320.0
 20
212.785794
 30
0.0
 11
320.0
 21
412.785794
 31
0.0
  0
LINE
  8
LC-003-003-----0
  6
CONTINUOUS
  5
12E
 10
317.389476
 20
232.614691
 30
0.0
 11
320.0
 21
212.785794
 31
0.0
  0
LINE
  8
LC-003-003-----0
  6
CONTINUOUS
  5
12F
 10
320.0
 20
212.785794
 30
0.0
 11
322.610524
 21
232.614691
 31
0.0
  0
LINE
  8
LC-003-003-----0
  6
CONTINUOUS
  5
130
 10
322.610524
 20
232.614691
 30
0.0
 11
317.389476
 21
232.614691
 31
0.0
  0
LINE
  8
LC-003-003-----0
  6
CONTINUOUS
  5
131
 10
318.068212
 20
232.659177
 30
0.0
 11
320.0
 21
217.985794
 31
0.0
  0
LINE
  8
LC-003-003-----0
  6
CONTINUOUS
  5
132
 10
320.0
 20
217.985794
 30
0.0
 11
321.931788
 21
232.659177
 31
0.0
  0
LINE
  8
LC-003-003-----0
  6
CONTINUOUS
  5
133
 10
318.746949
 20
232.703664
 30
0.0
 11
320.0
 21
223.185794
 31
0.0
  0
LINE
  8
LC-003-003-----0
  6
CONTINUOUS
  5
134
 10
320.0
 20
223.185794
 30
0.0
 11
321.253051
 21
232.703664
 31
0.0
  0
LINE
  8
LC-003-003-----0
  6
CONTINUOUS
  5
135
 10
319.425685
 20
232.748151
 30
0.0
 11
320.0
 21
228.385794
 31
0.0
  0
LINE
  8
LC-003-003-----0
  6
CONTINUOUS
  5
136
 10
320.0
 20
228.385794
 30
0.0
 11
320.574315
 21
232.748151
 31
0.0
  0
LINE
  8
LC-003-003-----0
  6
CONTINUOUS
  5
137
 10
322.610524
 20
392.956896
 30
0.0
 11
320.0
 21
412.785794
 31
0.0
  0
LINE
  8
LC-003-003-----0
  6
CONTINUOUS
  5
138
 10
320.0
 20
412.785794
 30
0.0
 11
317.389476
 21
392.956896
 31
0.0
  0
LINE
  8
LC-003-003-----0
  6
CONTINUOUS
  5
139
 10
317.389476
 20
392.956896
 30
0.0
 11
322.610524
 21
392.956896
 31
0.0
  0
LINE
  8
LC-003-003-----0
  6
CONTINUOUS
  5
13A
 10
321.931788
 20
392.91241
 30
0.0
 11
320.0
 21
407.585794
 31
0.0
  0
LINE
  8
LC-003-003-----0
  6
CONTINUOUS
  5
13B
 10
320.0
 20
407.585794
 30
0.0
 11
318.068212
 21
392.91241
 31
0.0
  0
LINE
  8
LC-003-003-----0
  6
CONTINUOUS
  5
13C
 10
321.253051
 20
392.867923
 30
0.0
 11
320.0
 21
402.385794
 31
0.0
  0
LINE
  8
LC-003-003-----0
  6
CONTINUOUS
  5
13D
 10
320.0
 20
402.385794
 30
0.0
 11
318.746949
 21
392.867923
 31
0.0
  0
LINE
  8
LC-003-003-----0
  6
CONTINUOUS
  5
13E
 10
320.574315
 20
392.823436
 30
0.0
 11
320.0
 21
397.185794
 31
0.0
  0
LINE
  8
LC-003-003-----0
  6
CONTINUOUS
  5
13F
 10
320.0
 20
397.185794
 30
0.0
 11
319.425685
 21
392.823436
 31
0.0
  0
TEXT
  8
LC-003-003-----0
  6
CONTINUOUS
 62
     6
  5
140
 10
308.40889
 20
307.039986
 30
0.0
 40
20.0
  1
200
 50
90.0
 51
15.0
  7
LC-TXTSTYLE-150-400-0-0-D0
 72
     1
 11
308.40889
 21
328.299829
 31
0.0
  0
ENDBLK
  8
0
  5
141
  0
BLOCK
  8
0
  5
143
  2
*D5
 70
    65
 10
0.0
 20
0.0
 30
0.0
  3
*D5
  0
LINE
  8
LC-004-003-MTH-0
  6
CONTINUOUS
  5
144
 10
220.692874
 20
217.285794
 30
0.0
 11
220.692874
 21
148.0
 31
0.0
  0
LINE
  8
LC-004-003-MTH-0
  6
CONTINUOUS
  5
145
 10
270.692874
 20
217.285794
 30
0.0
 11
270.692874
 21
148.0
 31
0.0
  0
LINE
  8
LC-003-003-----0
  6
CONTINUOUS
  5
146
 10
200.863977
 20
157.389476
 30
0.0
 11
220.692874
 21
160.0
 31
0.0
  0
LINE
  8
LC-003-003-----0
  6
CONTINUOUS
  5
147
 10
220.692874
 20
160.0
 30
0.0
 11
200.863977
 21
162.610524
 31
0.0
  0
LINE
  8
LC-003-003-----0
  6
CONTINUOUS
  5
148
 10
200.863977
 20
162.610524
 30
0.0
 11
200.863977
 21
157.389476
 31
0.0
  0
LINE
  8
LC-003-003-----0
  6
CONTINUOUS
  5
149
 10
200.81949
 20
158.068212
 30
0.0
 11
215.492874
 21
160.0
 31
0.0
  0
LINE
  8
LC-003-003-----0
  6
CONTINUOUS
  5
14A
 10
215.492874
 20
160.0
 30
0.0
 11
200.81949
 21
161.931788
 31
0.0
  0
LINE
  8
LC-003-003-----0
  6
CONTINUOUS
  5
14B
 10
200.775003
 20
158.746949
 30
0.0
 11
210.292874
 21
160.0
 31
0.0
  0
LINE
  8
LC-003-003-----0
  6
CONTINUOUS
  5
14C
 10
210.292874
 20
160.0
 30
0.0
 11
200.775003
 21
161.253051
 31
0.0
  0
LINE
  8
LC-003-003-----0
  6
CONTINUOUS
  5
14D
 10
200.730517
 20
159.425685
 30
0.0
 11
205.092874
 21
160.0
 31
0.0
  0
LINE
  8
LC-003-003-----0
  6
CONTINUOUS
  5
14E
 10
205.092874
 20
160.0
 30
0.0
 11
200.730517
 21
160.574315
 31
0.0
  0
LINE
  8
LC-003-003-----0
  6
CONTINUOUS
  5
14F
 10
290.521771
 20
162.610524
 30
0.0
 11
270.692874
 21
160.0
 31
0.0
  0
LINE
  8
LC-003-003-----0
  6
CONTINUOUS
  5
150
 10
270.692874
 20
160.0
 30
0.0
 11
290.521771
 21
157.389476
 31
0.0
  0
LINE
  8
LC-003-003-----0
  6
CONTINUOUS
  5
151
 10
290.521771
 20
157.389476
 30
0.0
 11
290.521771
 21
162.610524
 31
0.0
  0
LINE
  8
LC-003-003-----0
  6
CONTINUOUS
  5
152
 10
290.566258
 20
161.931788
 30
0.0
 11
275.892874
 21
160.0
 31
0.0
  0
LINE
  8
LC-003-003-----0
  6
CONTINUOUS
  5
153
 10
275.892874
 20
160.0
 30
0.0
 11
290.566258
 21
158.068212
 31
0.0
  0
LINE
  8
LC-003-003-----0
  6
CONTINUOUS
  5
154
 10
290.610745
 20
161.253051
 30
0.0
 11
281.092874
 21
160.0
 31
0.0
  0
LINE
  8
LC-003-003-----0
  6
CONTINUOUS
  5
155
 10
281.092874
 20
160.0
 30
0.0
 11
290.610745
 21
158.746949
 31
0.0
  0
LINE
  8
LC-003-003-----0
  6
CONTINUOUS
  5
156
 10
290.655231
 20
160.574315
 30
0.0
 11
286.292874
 21
160.0
 31
0.0
  0
LINE
  8
LC-003-003-----0
  6
CONTINUOUS
  5
157
 10
286.292874
 20
160.0
 30
0.0
 11
290.655231
 21
159.425685
 31
0.0
  0
LINE
  8
LC-005-003-MTG-0
  6
CONTINUOUS
  5
158
 10
192.692874
 20
160.0
 30
0.0
 11
407.140118
 21
160.0
 31
0.0
  0
TEXT
  8
LC-003-003-----0
  6
CONTINUOUS
 62
     6
  5
159
 10
300.998703
 20
171.59111
 30
0.0
 40
20.0
  1
 DN50 
 51
15.0
  7
LC-TXTSTYLE-150-400-0-0-D0
  0
ENDBLK
  8
0
  5
15A
  0
BLOCK
  8
0
  5
15C
  2
*X6
 70
    65
 10
225.692874
 20
435.723818
 30
0.0
  3
*X6
  0
LINE
  8
LC-002-005-----0
  6
CONTINUOUS
  5
15D
 10
320.75542
 20
445.748331
 30
0.0
 11
318.555295
 21
447.948456
 31
0.0
  0
LINE
  8
LC-002-005-----0
  6
CONTINUOUS
  5
15E
 10
317.655813
 20
446.019511
 30
0.0
 11
315.455687
 21
448.219637
 31
0.0
  0
LINE
  8
LC-002-005-----0
  6
CONTINUOUS
  5
15F
 10
314.556205
 20
446.290692
 30
0.0
 11
312.356079
 21
448.490817
 31
0.0
  0
LINE
  8
LC-002-005-----0
  6
CONTINUOUS
  5
160
 10
311.456597
 20
446.561872
 30
0.0
 11
309.294652
 21
448.723818
 31
0.0
  0
LINE
  8
LC-002-005-----0
  6
CONTINUOUS
  5
161
 10
308.466225
 20
446.723818
 30
0.0
 11
306.466225
 21
448.723818
 31
0.0
  0
LINE
  8
LC-002-005-----0
  6
CONTINUOUS
  5
162
 10
305.637798
 20
446.723818
 30
0.0
 11
303.637798
 21
448.723818
 31
0.0
  0
LINE
  8
LC-002-005-----0
  6
CONTINUOUS
  5
163
 10
302.80937
 20
446.723818
 30
0.0
 11
300.80937
 21
448.723818
 31
0.0
  0
LINE
  8
LC-002-005-----0
  6
CONTINUOUS
  5
164
 10
300.693248
 20
446.011513
 30
0.0
 11
297.980943
 21
448.723818
 31
0.0
  0
LINE
  8
LC-002-005-----0
  6
CONTINUOUS
  5
165
 10
300.69334
 20
443.182994
 30
0.0
 11
298.693285
 21
445.183049
 31
0.0
  0
LINE
  8
LC-002-005-----0
  6
CONTINUOUS
  5
166
 10
297.152516
 20
446.723818
 30
0.0
 11
295.152516
 21
448.723818
 31
0.0
  0
LINE
  8
LC-002-005-----0
  6
CONTINUOUS
  5
167
 10
300.693433
 20
440.354474
 30
0.0
 11
298.69338
 21
442.354527
 31
0.0
  0
LINE
  8
LC-002-005-----0
  6
CONTINUOUS
  5
168
 10
294.324089
 20
446.723818
 30
0.0
 11
292.324089
 21
448.723818
 31
0.0
  0
LINE
  8
LC-002-005-----0
  6
CONTINUOUS
  5
169
 10
300.693526
 20
437.525954
 30
0.0
 11
298.693475
 21
439.526004
 31
0.0
  0
LINE
  8
LC-002-005-----0
  6
CONTINUOUS
  5
16A
 10
291.495662
 20
446.723818
 30
0.0
 11
289.495662
 21
448.723818
 31
0.0
  0
LINE
  8
LC-002-005-----0
  6
CONTINUOUS
  5
16B
 10
299.667235
 20
435.723818
 30
0.0
 11
298.693571
 21
436.697482
 31
0.0
  0
LINE
  8
LC-002-005-----0
  6
CONTINUOUS
  5
16C
 10
288.667235
 20
446.723818
 30
0.0
 11
286.667235
 21
448.723818
 31
0.0
  0
LINE
  8
LC-002-005-----0
  6
CONTINUOUS
  5
16D
 10
285.838808
 20
446.723818
 30
0.0
 11
283.838808
 21
448.723818
 31
0.0
  0
LINE
  8
LC-002-005-----0
  6
CONTINUOUS
  5
16E
 10
283.010381
 20
446.723818
 30
0.0
 11
281.010381
 21
448.723818
 31
0.0
  0
LINE
  8
LC-002-005-----0
  6
CONTINUOUS
  5
16F
 10
280.181953
 20
446.723818
 30
0.0
 11
278.181953
 21
448.723818
 31
0.0
  0
LINE
  8
LC-002-005-----0
  6
CONTINUOUS
  5
170
 10
277.353526
 20
446.723818
 30
0.0
 11
275.353526
 21
448.723818
 31
0.0
  0
LINE
  8
LC-002-005-----0
  6
CONTINUOUS
  5
171
 10
274.525099
 20
446.723818
 30
0.0
 11
272.525099
 21
448.723818
 31
0.0
  0
LINE
  8
LC-002-005-----0
  6
CONTINUOUS
  5
172
 10
271.696672
 20
446.723818
 30
0.0
 11
269.696672
 21
448.723818
 31
0.0
  0
LINE
  8
LC-002-005-----0
  6
CONTINUOUS
  5
173
 10
268.868245
 20
446.723818
 30
0.0
 11
266.868245
 21
448.723818
 31
0.0
  0
LINE
  8
LC-002-005-----0
  6
CONTINUOUS
  5
174
 10
266.039818
 20
446.723818
 30
0.0
 11
264.039818
 21
448.723818
 31
0.0
  0
LINE
  8
LC-002-005-----0
  6
CONTINUOUS
  5
175
 10
263.211391
 20
446.723818
 30
0.0
 11
261.211391
 21
448.723818
 31
0.0
  0
LINE
  8
LC-002-005-----0
  6
CONTINUOUS
  5
176
 10
260.382964
 20
446.723818
 30
0.0
 11
258.382964
 21
448.723818
 31
0.0
  0
LINE
  8
LC-002-005-----0
  6
CONTINUOUS
  5
177
 10
257.554536
 20
446.723818
 30
0.0
 11
255.554536
 21
448.723818
 31
0.0
  0
LINE
  8
LC-002-005-----0
  6
CONTINUOUS
  5
178
 10
254.726109
 20
446.723818
 30
0.0
 11
252.726109
 21
448.723818
 31
0.0
  0
LINE
  8
LC-002-005-----0
  6
CONTINUOUS
  5
179
 10
251.897682
 20
446.723818
 30
0.0
 11
249.897682
 21
448.723818
 31
0.0
  0
LINE
  8
LC-002-005-----0
  6
CONTINUOUS
  5
17A
 10
249.069255
 20
446.723818
 30
0.0
 11
247.069255
 21
448.723818
 31
0.0
  0
LINE
  8
LC-002-005-----0
  6
CONTINUOUS
  5
17B
 10
246.240828
 20
446.723818
 30
0.0
 11
244.240828
 21
448.723818
 31
0.0
  0
LINE
  8
LC-002-005-----0
  6
CONTINUOUS
  5
17C
 10
243.412401
 20
446.723818
 30
0.0
 11
241.412401
 21
448.723818
 31
0.0
  0
LINE
  8
LC-002-005-----0
  6
CONTINUOUS
  5
17D
 10
240.583974
 20
446.723818
 30
0.0
 11
238.583974
 21
448.723818
 31
0.0
  0
LINE
  8
LC-002-005-----0
  6
CONTINUOUS
  5
17E
 10
237.755547
 20
446.723818
 30
0.0
 11
235.755547
 21
448.723818
 31
0.0
  0
LINE
  8
LC-002-005-----0
  6
CONTINUOUS
  5
17F
 10
234.927119
 20
446.723818
 30
0.0
 11
232.927119
 21
448.723818
 31
0.0
  0
LINE
  8
LC-002-005-----0
  6
CONTINUOUS
  5
180
 10
232.098692
 20
446.723818
 30
0.0
 11
230.098692
 21
448.723818
 31
0.0
  0
LINE
  8
LC-002-005-----0
  6
CONTINUOUS
  5
181
 10
229.270265
 20
446.723818
 30
0.0
 11
227.270265
 21
448.723818
 31
0.0
  0
LINE
  8
LC-002-005-----0
  6
CONTINUOUS
  5
182
 10
226.441838
 20
446.723818
 30
0.0
 11
225.692874
 21
447.472782
 31
0.0
  0
ENDBLK
  8
0
  5
183
  0
BLOCK
  8
0
  5
185
  2
*X7
 70
    65
 10
170.442874
 20
435.723818
 30
0.0
  3
*X7
  0
LINE
  8
LC-002-005-----0
  6
CONTINUOUS
  5
186
 10
205.692874
 20
447.673792
 30
0.0
 11
204.642848
 21
448.723818
 31
0.0
  0
LINE
  8
LC-002-005-----0
  6
CONTINUOUS
  5
187
 10
203.814421
 20
446.723818
 30
0.0
 11
201.814421
 21
448.723818
 31
0.0
  0
LINE
  8
LC-002-005-----0
  6
CONTINUOUS
  5
188
 10
200.985994
 20
446.723818
 30
0.0
 11
198.985994
 21
448.723818
 31
0.0
  0
LINE
  8
LC-002-005-----0
  6
CONTINUOUS
  5
189
 10
198.157567
 20
446.723818
 30
0.0
 11
196.157567
 21
448.723818
 31
0.0
  0
LINE
  8
LC-002-005-----0
  6
CONTINUOUS
  5
18A
 10
195.32914
 20
446.723818
 30
0.0
 11
193.32914
 21
448.723818
 31
0.0
  0
LINE
  8
LC-002-005-----0
  6
CONTINUOUS
  5
18B
 10
192.693015
 20
446.531515
 30
0.0
 11
190.500713
 21
448.723818
 31
0.0
  0
LINE
  8
LC-002-005-----0
  6
CONTINUOUS
  5
18C
 10
192.69311
 20
443.702993
 30
0.0
 11
187.672285
 21
448.723818
 31
0.0
  0
LINE
  8
LC-002-005-----0
  6
CONTINUOUS
  5
18D
 10
192.693206
 20
440.87447
 30
0.0
 11
184.843858
 21
448.723818
 31
0.0
  0
LINE
  8
LC-002-005-----0
  6
CONTINUOUS
  5
18E
 10
192.693301
 20
438.045948
 30
0.0
 11
185.692951
 21
445.046298
 31
0.0
  0
LINE
  8
LC-002-005-----0
  6
CONTINUOUS
  5
18F
 10
184.015431
 20
446.723818
 30
0.0
 11
182.015431
 21
448.723818
 31
0.0
  0
LINE
  8
LC-002-005-----0
  6
CONTINUOUS
  5
190
 10
192.186991
 20
435.723831
 30
0.0
 11
190.693315
 21
437.217507
 31
0.0
  0
LINE
  8
LC-002-005-----0
  6
CONTINUOUS
  5
191
 10
190.687004
 20
437.223818
 30
0.0
 11
185.692975
 21
442.217847
 31
0.0
  0
LINE
  8
LC-002-005-----0
  6
CONTINUOUS
  5
192
 10
181.234726
 20
446.676095
 30
0.0
 11
179.388602
 21
448.52222
 31
0.0
  0
LINE
  8
LC-002-005-----0
  6
CONTINUOUS
  5
193
 10
187.858577
 20
437.223818
 30
0.0
 11
185.692999
 21
439.389396
 31
0.0
  0
LINE
  8
LC-002-005-----0
  6
CONTINUOUS
  5
194
 10
178.633847
 20
446.448548
 30
0.0
 11
176.787722
 21
448.294672
 31
0.0
  0
LINE
  8
LC-002-005-----0
  6
CONTINUOUS
  5
195
 10
176.032967
 20
446.221
 30
0.0
 11
174.186843
 21
448.067125
 31
0.0
  0
LINE
  8
LC-002-005-----0
  6
CONTINUOUS
  5
196
 10
173.432088
 20
445.993453
 30
0.0
 11
171.585963
 21
447.839577
 31
0.0
  0
LINE
  8
LC-002-005-----0
  6
CONTINUOUS
  5
197
 10
170.831208
 20
445.765905
 30
0.0
 11
170.442874
 21
446.154239
 31
0.0
  0
ENDBLK
  8
0
  5
198
  0
BLOCK
  8
0
  5
19A
  2
BLK1
 70
    64
 10
0.0
 20
0.0
 30
0.0
  3
BLK1
  0
ENDBLK
  8
0
  5
19B
  0
BLOCK
  8
0
  5
19D
  2
BLK2
 70
    64
 10
0.0
 20
0.0
 30
0.0
  3
BLK2
  0
ENDBLK
  8
0
  5
19E
  0
ENDSEC
  0
SECTION
  2
ENTITIES
  0
VIEWPORT
  8
LC-000
  5
228
 67
     1
 68
     1
 10
420.0
 20
297.0
 30
0.0
 40
840.0
 41
594.0
 69
     1
1001
ACAD
1000
MVIEW
1002
{
1070
    16
1010
0.0
1020
0.0
1030
0.0
1010
0.0
1020
0.0
1030
1.0
1040
0.0
1040
594.0
1040
420.0
1040
297.0
1040
50.0
1040
0.0
1040
0.0
1070
     0
1070
   100
1070
     1
1070
     1
1070
     0
1070
     0
1070
     0
1070
     0
1040
0.0
1040
0.0
1040
0.0
1040
1.0
1040
1.0
1040
0.0
1040
0.0
1070
     0
1002
{
1002
}
1002
}
  0
VIEWPORT
  8
0
  5
229
 67
     1
 68
     1
 10
0.0
 20
0.0
 30
0.0
 40
0.0
 41
0.0
 69
     1
1001
ACAD
1000
MVIEW
1002
{
1070
    16
1010
0.0
1020
0.0
1030
0.0
1010
0.0
1020
0.0
1030
1.0
1040
0.0
1040
594.0
1040
0.0
1040
0.0
1040
50.0
1040
0.0
1040
0.0
1070
     0
1070
   100
1070
     0
1070
     1
1070
     0
1070
     0
1070
     0
1070
     0
1040
0.0
1040
0.0
1040
0.0
1040
0.5
1040
0.5
1040
0.5
1040
0.5
1070
     0
1002
{
1002
}
1002
}
  0
INSERT
  8
0
  5
19F
  2
*X0
 10
165.942874
 20
212.785794
 30
0.0
  0
INSERT
  8
0
  5
1A0
  2
*X1
 10
267.692874
 20
212.785794
 30
0.0
  0
DIMENSION
  8
0
  5
1A1
  2
*D2
 10
246.280252
 20
462.0
 30
0.0
 11
246.280252
 21
462.0
 31
0.0
  1
%%c152
 13
323.061405
 23
427.25698
 33
0.0
 14
168.324343
 24
427.25698
 34
0.0
  3
LC-DIM-L-0100-01-02
  0
DIMENSION
  8
0
  5
1A2
  2
*D3
 10
364.0
 20
320.021387
 30
0.0
 11
364.0
 21
320.021387
 31
0.0
  1
215
 13
321.410874
 23
427.25698
 33
0.0
 14
267.692874
 24
212.785794
 34
0.0
 50
90.0
  3
LC-DIM-L-0100-01-02
  0
DIMENSION
  8
0
  5
1A3
  2
*D4
 10
320.0
 20
325.194
 30
0.0
 11
320.0
 21
325.194
 31
0.0
 13
323.061405
 23
412.785794
 33
0.0
 14
269.487103
 24
212.785794
 34
0.0
 50
90.0
  3
LC-DIM-L-0100-01-02
  0
DIMENSION
  8
0
  5
1A4
  2
*D5
 10
312.790402
 20
160.0
 30
0.0
 11
312.790402
 21
160.0
 31
0.0
  1
 DN50 
 13
220.692874
 23
217.285794
 33
0.0
 14
270.692874
 24
217.285794
 34
0.0
  3
LC-DIM-L-0100-01-02
  0
INSERT
  8
0
  5
1A5
  2
*X6
 10
225.692874
 20
435.723818
 30
0.0
  0
INSERT
  8
0
  5
1A6
  2
*X7
 10
170.442874
 20
435.723818
 30
0.0
  0
INSERT
  8
0
  5
1A8
  2
BLK1
 10
0.0
 20
0.0
 30
0.0
  0
INSERT
  8
0
  5
1A9
  2
BLK2
 10
0.0
 20
0.0
 30
0.0
  0
LINE
  8
LC-001-002-----0
  5
1AC
 10
245.692874
 20
438.648
 30
0.0
 11
245.692874
 21
212.785794
 31
0.0
  0
LINE
  8
LC-001-002-----0
  5
1AD
 10
175.942874
 20
427.76598
 30
0.0
 11
175.942874
 21
411.785784
 31
0.0
  0
LINE
  8
LC-001-002-----0
  5
1AE
 10
315.442874
 20
427.76598
 30
0.0
 11
315.442874
 21
411.785784
 31
0.0
  0
LINE
  8
LC-001-002-----0
  6
CONTINUOUS
 62
     1
  5
1AF
 10
170.442874
 20
447.73957
 30
0.0
 11
170.442874
 21
445.73193
 31
0.0
  0
LINE
  8
LC-001-002-----0
  6
CONTINUOUS
 62
     1
  5
1B0
 10
181.692874
 20
448.723818
 30
0.0
 11
205.692874
 21
448.723818
 31
0.0
  0
LINE
  8
LC-001-002-----0
  6
CONTINUOUS
 62
     1
  5
1B1
 10
298.693603
 20
435.723818
 30
0.0
 11
298.693233
 21
446.723818
 31
0.0
  0
LINE
  8
LC-001-002-----0
  6
CONTINUOUS
 62
     1
  5
1B2
 10
309.692874
 20
448.723818
 30
0.0
 11
320.942874
 21
447.73957
 31
0.0
  0
LINE
  8
LC-001-002-----0
  6
CONTINUOUS
 62
     1
  5
1B3
 10
298.693603
 20
435.723818
 30
0.0
 11
299.693552
 21
435.723818
 31
0.0
  0
LINE
  8
LC-001-002-----0
  6
CONTINUOUS
 62
     1
  5
1B4
 10
181.780196
 20
446.723818
 30
0.0
 11
185.692936
 21
446.723818
 31
0.0
  0
LINE
  8
LC-001-002-----0
  6
CONTINUOUS
 62
     1
  5
1B5
 10
309.605552
 20
446.723818
 30
0.0
 11
320.942874
 21
445.73193
 31
0.0
  0
LINE
  8
LC-001-002-----0
  6
CONTINUOUS
 62
     1
  5
1B6
 10
309.605552
 20
446.723818
 30
0.0
 11
300.693224
 21
446.723818
 31
0.0
  0
LINE
  8
LC-001-002-----0
  6
CONTINUOUS
 62
     1
  5
1B7
 10
320.942874
 20
445.73193
 30
0.0
 11
300.693254
 21
445.73193
 31
0.0
  0
LINE
  8
LC-001-002-----0
  6
CONTINUOUS
 62
     1
  5
1B8
 10
192.693379
 20
435.723818
 30
0.0
 11
192.693009
 21
446.723818
 31
0.0
  0
LINE
  8
LC-001-002-----0
  6
CONTINUOUS
 62
     1
  5
1B9
 10
320.942874
 20
447.73957
 30
0.0
 11
320.942874
 21
445.73193
 31
0.0
  0
LINE
  8
LC-001-002-----0
  6
CONTINUOUS
 62
     1
  5
1BA
 10
300.693552
 20
436.723869
 30
0.0
 11
300.693224
 21
446.723818
 31
0.0
  0
LINE
  8
LC-001-002-----0
  5
1BB
 10
245.692874
 20
438.648
 30
0.0
 11
245.692874
 21
448.723818
 31
0.0
  0
LINE
  8
LC-001-002-----0
  6
CONTINUOUS
 62
     1
  5
1BC
 10
225.692874
 20
448.723818
 30
0.0
 11
225.692874
 21
446.723818
 31
0.0
  0
LINE
  8
LC-001-002-----0
  6
CONTINUOUS
 62
     1
  5
1BD
 10
205.692874
 20
446.723818
 30
0.0
 11
225.692874
 21
446.723818
 31
0.0
  0
LINE
  8
LC-001-002-----0
  6
CONTINUOUS
 62
     1
  5
1BE
 10
205.692874
 20
448.723818
 30
0.0
 11
205.692874
 21
446.723818
 31
0.0
  0
LINE
  8
LC-001-002-----0
  6
CONTINUOUS
 62
     1
  5
1BF
 10
245.692874
 20
448.723818
 30
0.0
 11
309.692874
 21
448.723818
 31
0.0
  0
LINE
  8
LC-001-002-----0
  6
CONTINUOUS
 62
     1
  5
1C0
 10
245.692874
 20
446.723818
 30
0.0
 11
298.693233
 21
446.723818
 31
0.0
  0
LINE
  8
LC-001-002-----0
  6
CONTINUOUS
 62
     1
  5
1C1
 10
192.693009
 20
446.723818
 30
0.0
 11
205.692874
 21
446.723818
 31
0.0
  0
LINE
  8
LC-001-002-----0
  6
CONTINUOUS
 62
     1
  5
1C2
 10
181.780196
 20
446.723818
 30
0.0
 11
170.442874
 21
445.73193
 31
0.0
  0
LINE
  8
LC-001-002-----0
  6
CONTINUOUS
 62
     1
  5
1C3
 10
192.693379
 20
435.723818
 30
0.0
 11
298.693603
 21
435.723818
 31
0.0
  0
LINE
  8
LC-001-002-----0
  6
CONTINUOUS
 62
     1
  5
1C4
 10
192.193302
 20
435.723818
 30
0.0
 11
192.693379
 21
435.723818
 31
0.0
  0
LINE
  8
LC-001-002-----0
  6
CONTINUOUS
 62
     1
  5
1C5
 10
205.692874
 20
448.723818
 30
0.0
 11
225.692874
 21
448.723818
 31
0.0
  0
LINE
  8
LC-001-002-----0
  5
1C6
 10
215.692874
 20
446.723818
 30
0.0
 11
215.692874
 21
448.723818
 31
0.0
  0
LINE
  8
LC-001-002-----0
  6
CONTINUOUS
 62
     1
  5
1C7
 10
170.442874
 20
445.73193
 30
0.0
 11
185.692945
 21
445.73193
 31
0.0
  0
LINE
  8
LC-001-002-----0
  6
CONTINUOUS
 62
     1
  5
1C8
 10
181.692874
 20
448.723818
 30
0.0
 11
170.440674
 21
447.739378
 31
0.0
  0
LINE
  8
LC-001-002-----0
  6
CONTINUOUS
 62
     1
  5
1C9
 10
225.692874
 20
446.723818
 30
0.0
 11
245.692874
 21
446.723818
 31
0.0
  0
LINE
  8
LC-001-002-----0
  6
CONTINUOUS
 62
     1
  5
1CA
 10
225.692874
 20
448.723818
 30
0.0
 11
245.692874
 21
448.723818
 31
0.0
  0
ARC
  8
LC-001-002-----0
  6
CONTINUOUS
 62
     1
  5
1CB
 10
192.193302
 20
437.223818
 30
0.0
 40
1.5
 50
180.002947
 51
270.0
  0
LINE
  8
LC-001-002-----0
  6
CONTINUOUS
 62
     1
  5
1CC
 10
190.693302
 20
437.223818
 30
0.0
 11
187.693
 21
437.223818
 31
0.0
  0
LINE
  8
LC-001-002-----0
  6
CONTINUOUS
 62
     1
  5
1CD
 10
185.693
 20
439.223803
 30
0.0
 11
185.692936
 21
446.72378
 31
0.0
  0
ARC
  8
LC-006-002-RND-0
  6
CONTINUOUS
  5
1CF
 10
187.693
 20
439.223818
 30
0.0
 40
2.0
 50
180.000431
 51
270.0
  0
ARC
  8
LC-001-002-----0
  6
CONTINUOUS
 62
     1
  5
1D0
 10
299.693552
 20
436.723818
 30
0.0
 40
1.0
 50
270.0
 51
0.002947
  0
LINE
  8
LC-001-002-----0
  6
CONTINUOUS
 62
     1
  5
1D1
 10
180.301793
 20
412.785794
 30
0.0
 11
193.692874
 21
412.785794
 31
0.0
  0
LINE
  8
LC-001-002-----0
  6
CONTINUOUS
 62
     1
  5
1D2
 10
221.898645
 20
212.785794
 30
0.0
 11
220.692874
 21
217.285794
 31
0.0
  0
ARC
  8
LC-001-002-----0
  6
CONTINUOUS
 62
     1
  5
1D3
 10
315.442874
 20
421.785784
 30
0.0
 40
10.0
 50
244.157941
 51
295.841807
  0
LINE
  8
LC-001-002-----0
  6
CONTINUOUS
 62
     1
  5
1D4
 10
323.061405
 20
427.25698
 30
0.0
 11
323.061405
 21
412.785794
 31
0.0
  0
LINE
  8
LC-001-002-----0
  6
CONTINUOUS
 62
     1
  5
1D5
 10
267.692874
 20
415.001896
 30
0.0
 11
223.692874
 21
415.001244
 31
0.0
  0
LINE
  8
LC-001-002-----0
  6
CONTINUOUS
 62
     1
  5
1D6
 10
323.061405
 20
412.785794
 30
0.0
 11
319.801793
 21
412.785794
 31
0.0
  0
LINE
  8
LC-001-002-----0
  6
CONTINUOUS
 62
     1
  5
1D7
 10
305.442988
 20
415.787174
 30
0.0
 11
297.678781
 21
415.787174
 31
0.0
  0
LINE
  8
LC-001-002-----0
  6
CONTINUOUS
 62
     1
  5
1D8
 10
173.392874
 20
427.25698
 30
0.0
 11
177.027376
 21
427.25698
 31
0.0
  0
LINE
  8
LC-001-002-----0
  6
CONTINUOUS
 62
     1
  5
1D9
 10
267.692874
 20
212.785794
 30
0.0
 11
223.692874
 21
212.785794
 31
0.0
  0
LINE
  8
LC-001-002-----0
  6
CONTINUOUS
 62
     1
  5
1DA
 10
270.692865
 20
412.079383
 30
0.0
 11
270.692865
 21
412.079357
 31
0.0
  0
LINE
  8
LC-001-002-----0
  6
CONTINUOUS
 62
     1
  5
1DB
 10
220.692874
 20
412.078774
 30
0.0
 11
220.692874
 21
217.285794
 31
0.0
  0
LINE
  8
LC-001-002-----0
  6
CONTINUOUS
 62
     1
  5
1DC
 10
270.692874
 20
412.079426
 30
0.0
 11
270.692874
 21
217.285794
 31
0.0
  0
LINE
  8
LC-001-002-----0
  6
CONTINUOUS
 62
     1
  5
1DD
 10
223.692874
 20
415.001244
 30
0.0
 11
223.692874
 21
212.785794
 31
0.0
  0
LINE
  8
LC-001-002-----0
  6
CONTINUOUS
 62
     1
  5
1DE
 10
267.692874
 20
414.999265
 30
0.0
 11
267.692874
 21
212.785794
 31
0.0
  0
LINE
  8
LC-001-002-----0
  6
CONTINUOUS
 62
     1
  5
1DF
 10
269.487103
 20
212.785794
 30
0.0
 11
270.692874
 21
217.285794
 31
0.0
  0
LINE
  8
LC-001-002-----0
  6
CONTINUOUS
 62
     1
  5
1E0
 10
223.692874
 20
212.785794
 30
0.0
 11
221.898645
 21
212.785794
 31
0.0
  0
LINE
  8
LC-001-002-----0
  6
CONTINUOUS
 62
     1
  5
1E1
 10
267.692874
 20
212.785794
 30
0.0
 11
269.487103
 21
212.785794
 31
0.0
  0
LINE
  8
LC-001-002-----0
  6
CONTINUOUS
 62
     1
  5
1E2
 10
311.082489
 20
412.786504
 30
0.0
 11
297.692874
 21
412.786515
 31
0.0
  0
LINE
  8
LC-001-002-----0
  6
CONTINUOUS
 62
     1
  5
1E3
 10
168.324343
 20
412.785794
 30
0.0
 11
171.583955
 21
412.785794
 31
0.0
  0
LINE
  8
LC-001-002-----0
  6
CONTINUOUS
 62
     1
  5
1E4
 10
297.692874
 20
415.787174
 30
0.0
 11
267.692874
 21
414.999265
 31
0.0
  0
LINE
  8
LC-001-002-----0
  6
CONTINUOUS
 62
     1
  5
1E5
 10
297.692874
 20
412.786515
 30
0.0
 11
270.692874
 21
412.079426
 31
0.0
  0
LINE
  8
LC-001-002-----0
  6
CONTINUOUS
 62
     1
  5
1E6
 10
193.692874
 20
412.785794
 30
0.0
 11
220.692874
 21
412.078774
 31
0.0
  0
ARC
  8
LC-001-002-----0
  6
CONTINUOUS
 62
     1
  5
1E7
 10
175.942874
 20
421.785784
 30
0.0
 40
10.0
 50
244.158193
 51
295.842059
  0
LINE
  8
LC-001-002-----0
  6
CONTINUOUS
 62
     1
  5
1E8
 10
223.692874
 20
415.001244
 30
0.0
 11
193.614363
 21
415.788878
 31
0.0
  0
LINE
  8
LC-001-002-----0
  6
CONTINUOUS
 62
     1
  5
1E9
 10
193.614363
 20
415.788878
 30
0.0
 11
297.757734
 21
415.788878
 31
0.0
  0
LINE
  8
LC-001-002-----0
  6
CONTINUOUS
 62
     1
  5
1EA
 10
193.692874
 20
412.785794
 30
0.0
 11
193.692874
 21
412.785794
 31
0.0
  0
LINE
  8
LC-001-002-----0
  6
CONTINUOUS
 62
     1
  5
1EB
 10
193.614363
 20
415.788878
 30
0.0
 11
185.942847
 21
415.787228
 31
0.0
  0
LINE
  8
LC-001-002-----0
  6
CONTINUOUS
 62
     1
  5
1EC
 10
272.985798
 20
428.783277
 30
0.0
 11
272.985798
 21
431.837277
 31
0.0
  0
LINE
  8
LC-001-002-----0
  6
CONTINUOUS
 62
     1
  5
1ED
 10
272.985798
 20
431.837277
 30
0.0
 11
278.583874
 21
431.837277
 31
0.0
  0
LINE
  8
LC-001-002-----0
  6
CONTINUOUS
 62
     1
  5
1EE
 10
278.583874
 20
431.837277
 30
0.0
 11
278.583874
 21
428.783277
 31
0.0
  0
LINE
  8
LC-001-002-----0
  6
CONTINUOUS
 62
     1
  5
1EF
 10
171.710874
 20
427.76598
 30
0.0
 11
171.417003
 21
427.25698
 31
0.0
  0
LINE
  8
LC-001-002-----0
  6
CONTINUOUS
 62
     1
  5
1F0
 10
168.324343
 20
427.25698
 30
0.0
 11
173.392874
 21
427.25698
 31
0.0
  0
LINE
  8
LC-001-002-----0
  6
CONTINUOUS
 62
     1
  5
1F1
 10
172.004745
 20
427.25698
 30
0.0
 11
171.710874
 21
427.76598
 31
0.0
  0
LINE
  8
LC-001-002-----0
  6
CONTINUOUS
 62
     1
  5
1F2
 10
177.027376
 20
427.25698
 30
0.0
 11
178.492874
 21
427.25698
 31
0.0
  0
LINE
  8
LC-001-002-----0
  6
CONTINUOUS
 62
     1
  5
1F3
 10
173.410874
 20
427.76598
 30
0.0
 11
173.117003
 21
427.25698
 31
0.0
  0
LINE
  8
LC-001-002-----0
  6
CONTINUOUS
 62
     1
  5
1F4
 10
312.581003
 20
427.25698
 30
0.0
 11
312.874874
 21
427.76598
 31
0.0
  0
LINE
  8
LC-001-002-----0
  6
CONTINUOUS
 62
     1
  5
1F5
 10
185.910874
 20
431.835688
 30
0.0
 11
182.910874
 21
431.835688
 31
0.0
  0
LINE
  8
LC-001-002-----0
  6
CONTINUOUS
 62
     1
  5
1F6
 10
323.061405
 20
427.25698
 30
0.0
 11
321.410874
 21
427.25698
 31
0.0
  0
LINE
  8
LC-001-002-----0
  6
CONTINUOUS
 62
     1
  5
1F7
 10
181.910874
 20
428.783277
 30
0.0
 11
181.910874
 21
427.256277
 31
0.0
  0
LINE
  8
LC-001-002-----0
  6
CONTINUOUS
 62
     1
  5
1F8
 10
182.910874
 20
428.783409
 30
0.0
 11
182.910874
 21
431.837878
 31
0.0
  0
LINE
  8
LC-001-002-----0
  6
CONTINUOUS
 62
     1
  5
1F9
 10
183.290874
 20
431.835688
 30
0.0
 11
183.290874
 21
431.837878
 31
0.0
  0
LINE
  8
LC-001-002-----0
  6
CONTINUOUS
 62
     1
  5
1FA
 10
185.942847
 20
428.783277
 30
0.0
 11
245.692874
 21
428.783277
 31
0.0
  0
LINE
  8
LC-001-002-----0
  6
CONTINUOUS
 62
     1
  5
1FB
 10
319.968745
 20
427.25698
 30
0.0
 11
321.410874
 21
427.25698
 31
0.0
  0
LINE
  8
LC-001-002-----0
  6
CONTINUOUS
 62
     1
  5
1FC
 10
185.910874
 20
428.783277
 30
0.0
 11
185.910874
 21
431.837277
 31
0.0
  0
LINE
  8
LC-001-002-----0
  6
CONTINUOUS
 62
     1
  5
1FD
 10
310.881003
 20
427.25698
 30
0.0
 11
311.174874
 21
427.76598
 31
0.0
  0
LINE
  8
LC-001-002-----0
  6
CONTINUOUS
 62
     1
  5
1FE
 10
311.174874
 20
427.76598
 30
0.0
 11
311.468745
 21
427.25698
 31
0.0
  0
LINE
  8
LC-001-002-----0
  6
CONTINUOUS
 62
     1
  5
1FF
 10
309.474874
 20
427.25698
 30
0.0
 11
311.468745
 21
427.25698
 31
0.0
  0
LINE
  8
LC-001-002-----0
  6
CONTINUOUS
 62
     1
  5
200
 10
173.704745
 20
427.25698
 30
0.0
 11
173.410874
 21
427.76598
 31
0.0
  0
LINE
  8
LC-001-002-----0
  6
CONTINUOUS
 62
     1
  5
201
 10
175.110874
 20
427.76598
 30
0.0
 11
174.817003
 21
427.25698
 31
0.0
  0
LINE
  8
LC-001-002-----0
  6
CONTINUOUS
 62
     1
  5
202
 10
175.404745
 20
427.25698
 30
0.0
 11
175.110874
 21
427.76598
 31
0.0
  0
LINE
  8
LC-001-002-----0
  6
CONTINUOUS
 62
     1
  5
203
 10
176.810874
 20
427.76598
 30
0.0
 11
176.517003
 21
427.25698
 31
0.0
  0
LINE
  8
LC-001-002-----0
  6
CONTINUOUS
 62
     1
  5
204
 10
177.104745
 20
427.25698
 30
0.0
 11
176.810874
 21
427.76598
 31
0.0
  0
LINE
  8
LC-001-002-----0
  6
CONTINUOUS
 62
     1
  5
205
 10
312.892874
 20
427.25698
 30
0.0
 11
312.892874
 21
413.513277
 31
0.0
  0
LINE
  8
LC-001-002-----0
  6
CONTINUOUS
 62
     1
  5
206
 10
181.910874
 20
428.783277
 30
0.0
 11
181.910874
 21
427.256277
 31
0.0
  0
LINE
  8
LC-001-002-----0
  6
CONTINUOUS
 62
     1
  5
207
 10
317.992874
 20
427.25698
 30
0.0
 11
317.992874
 21
413.513277
 31
0.0
  0
LINE
  8
LC-001-002-----0
  6
CONTINUOUS
 62
     1
  5
208
 10
317.992874
 20
413.513277
 30
0.0
 11
312.892874
 21
413.513277
 31
0.0
  0
LINE
  8
LC-001-002-----0
  6
CONTINUOUS
 62
     1
  5
209
 10
178.510874
 20
427.76598
 30
0.0
 11
178.217003
 21
427.25698
 31
0.0
  0
LINE
  8
LC-001-002-----0
  6
CONTINUOUS
 62
     1
  5
20A
 10
317.992874
 20
427.25698
 30
0.0
 11
319.968745
 21
427.25698
 31
0.0
  0
LINE
  8
LC-001-002-----0
  6
CONTINUOUS
 62
     1
  5
20B
 10
173.392874
 20
413.513277
 30
0.0
 11
178.492874
 21
413.513277
 31
0.0
  0
LINE
  8
LC-001-002-----0
  6
CONTINUOUS
 62
     1
  5
20C
 10
181.910874
 20
428.783277
 30
0.0
 11
182.910874
 21
428.783277
 31
0.0
  0
LINE
  8
LC-001-002-----0
  6
CONTINUOUS
 62
     1
  5
20D
 10
178.804745
 20
427.25698
 30
0.0
 11
178.510874
 21
427.76598
 31
0.0
  0
LINE
  8
LC-001-002-----0
  6
CONTINUOUS
 62
     1
  5
20E
 10
185.942847
 20
428.783277
 30
0.0
 11
185.942847
 21
415.787228
 31
0.0
  0
LINE
  8
LC-001-002-----0
  6
CONTINUOUS
 62
     1
  5
20F
 10
309.474874
 20
428.783203
 30
0.0
 11
305.472988
 21
428.78398
 31
0.0
  0
LINE
  8
LC-001-002-----0
  6
CONTINUOUS
 62
     1
  5
210
 10
305.442988
 20
428.783277
 30
0.0
 11
305.442988
 21
415.787174
 31
0.0
  0
LINE
  8
LC-001-002-----0
  6
CONTINUOUS
 62
     1
  5
211
 10
245.692874
 20
428.783277
 30
0.0
 11
305.442988
 21
428.783277
 31
0.0
  0
LINE
  8
LC-001-002-----0
  6
CONTINUOUS
 62
     1
  5
212
 10
168.324343
 20
427.25698
 30
0.0
 11
168.324343
 21
412.785794
 31
0.0
  0
LINE
  8
LC-001-002-----0
  6
CONTINUOUS
 62
     1
  5
213
 10
180.210874
 20
427.76598
 30
0.0
 11
179.917003
 21
427.25698
 31
0.0
  0
LINE
  8
LC-001-002-----0
  6
CONTINUOUS
 62
     1
  5
214
 10
180.504745
 20
427.25698
 30
0.0
 11
180.210874
 21
427.76598
 31
0.0
  0
LINE
  8
LC-001-002-----0
  6
CONTINUOUS
 62
     1
  5
215
 10
185.871664
 20
431.835688
 30
0.0
 11
185.871664
 21
431.837226
 31
0.0
  0
LINE
  8
LC-001-002-----0
  6
CONTINUOUS
 62
     1
  5
216
 10
178.492874
 20
427.25698
 30
0.0
 11
181.910874
 21
427.25698
 31
0.0
  0
LINE
  8
LC-001-002-----0
  6
CONTINUOUS
 62
     1
  5
217
 10
314.281003
 20
427.25698
 30
0.0
 11
314.574874
 21
427.76598
 31
0.0
  0
LINE
  8
LC-001-002-----0
  6
CONTINUOUS
 62
     1
  5
218
 10
181.910874
 20
428.783277
 30
0.0
 11
181.910874
 21
427.256277
 31
0.0
  0
LINE
  8
LC-001-002-----0
  6
CONTINUOUS
 62
     1
  5
219
 10
178.492874
 20
427.25698
 30
0.0
 11
178.492874
 21
413.513277
 31
0.0
  0
LINE
  8
LC-001-002-----0
  6
CONTINUOUS
 62
     1
  5
21A
 10
173.392874
 20
427.25698
 30
0.0
 11
173.392874
 21
413.513277
 31
0.0
  0
LINE
  8
LC-001-002-----0
  6
CONTINUOUS
 62
     1
  5
21B
 10
309.474874
 20
428.783277
 30
0.0
 11
309.474874
 21
427.25698
 31
0.0
  0
LINE
  8
LC-001-002-----0
  6
CONTINUOUS
 62
     1
  5
21C
 10
171.710874
 20
427.76598
 30
0.0
 11
180.210874
 21
427.76598
 31
0.0
  0
LINE
  8
LC-001-002-----0
  6
CONTINUOUS
 62
     1
  5
21D
 10
319.674874
 20
427.76598
 30
0.0
 11
309.474874
 21
427.76598
 31
0.0
  0
LINE
  8
LC-001-002-----0
  6
CONTINUOUS
 62
     1
  5
21E
 10
315.981003
 20
427.25698
 30
0.0
 11
316.274874
 21
427.76598
 31
0.0
  0
LINE
  8
LC-001-002-----0
  6
CONTINUOUS
 62
     1
  5
21F
 10
317.681003
 20
427.25698
 30
0.0
 11
317.974874
 21
427.76598
 31
0.0
  0
LINE
  8
LC-001-002-----0
  6
CONTINUOUS
 62
     1
  5
220
 10
319.381003
 20
427.25698
 30
0.0
 11
319.674874
 21
427.76598
 31
0.0
  0
LINE
  8
LC-001-002-----0
  6
CONTINUOUS
 62
     1
  5
221
 10
319.674874
 20
427.76598
 30
0.0
 11
319.968745
 21
427.25698
 31
0.0
  0
LINE
  8
LC-001-002-----0
  6
CONTINUOUS
 62
     1
  5
222
 10
317.974874
 20
427.76598
 30
0.0
 11
318.268745
 21
427.25698
 31
0.0
  0
LINE
  8
LC-001-002-----0
  6
CONTINUOUS
 62
     1
  5
223
 10
316.274874
 20
427.76598
 30
0.0
 11
316.568745
 21
427.25698
 31
0.0
  0
LINE
  8
LC-001-002-----0
  6
CONTINUOUS
 62
     1
  5
224
 10
314.574874
 20
427.76598
 30
0.0
 11
314.868745
 21
427.25698
 31
0.0
  0
LINE
  8
LC-001-002-----0
  6
CONTINUOUS
 62
     1
  5
225
 10
312.874874
 20
427.76598
 30
0.0
 11
313.168745
 21
427.25698
 31
0.0
  0
LINE
  8
LC-001-002-----0
  6
CONTINUOUS
 62
     1
  5
226
 10
311.468745
 20
427.25698
 30
0.0
 11
317.992874
 21
427.25698
 31
0.0
  0
ENDSEC
  0
EOF
