  0
SECTION
  2
HEADER
  9
$ACADVER
  1
AC1015
  9
$ACADMAINTVER
 70
     6
  9
$DWGCODEPAGE
  3
DOS850
  9
$INSBASE
 10
0.0
 20
0.0
 30
0.0
  9
$EXTMIN
 10
-97.3416
 20
-54.33
 30
0.0
  9
$EXTMAX
 10
742.6584
 20
539.67
 30
0.0
  9
$LIMMIN
 10
-97.3416
 20
-54.33
  9
$LIMMAX
 10
742.6584
 20
539.67
  9
$ORTHOMODE
 70
     0
  9
$REGENMODE
 70
     1
  9
$FILLMODE
 70
     1
  9
$QTEXTMODE
 70
     0
  9
$MIRRTEXT
 70
     1
  9
$LTSCALE
 40
2.0
  9
$ATTMODE
 70
     1
  9
$TEXTSIZE
 40
0.2
  9
$TRACEWID
 40
0.05
  9
$TEXTSTYLE
  7
Standard
  9
$CLAYER
  8
0
  9
$CELTYPE
  6
ByBlock
  9
$CECOLOR
 62
     7
  9
$CELTSCALE
 40
1.0
  9
$DISPSILH
 70
     0
  9
$DIMSCALE
 40
2.0
  9
$DIMASZ
 40
3.5
  9
$DIMEXO
 40
0.0625
  9
$DIMDLI
 40
0.38
  9
$DIMRND
 40
0.0
  9
$DIMDLE
 40
0.0
  9
$DIMEXE
 40
0.18
  9
$DIMTP
 40
0.0
  9
$DIMTM
 40
0.0
  9
$DIMTXT
 40
3.5
  9
$DIMCEN
 40
0.09
  9
$DIMTSZ
 40
0.0
  9
$DIMTOL
 70
     0
  9
$DIMLIM
 70
     0
  9
$DIMTIH
 70
     1
  9
$DIMTOH
 70
     1
  9
$DIMSE1
 70
     0
  9
$DIMSE2
 70
     0
  9
$DIMTAD
 70
     1
  9
$DIMZIN
 70
     0
  9
$DIMBLK
  1

  9
$DIMASO
 70
     1
  9
$DIMSHO
 70
     1
  9
$DIMPOST
  1

  9
$DIMAPOST
  1

  9
$DIMALT
 70
     0
  9
$DIMALTD
 70
     2
  9
$DIMALTF
 40
25.4
  9
$DIMLFAC
 40
1.0
  9
$DIMTOFL
 70
     0
  9
$DIMTVP
 40
0.0
  9
$DIMTIX
 70
     0
  9
$DIMSOXD
 70
     0
  9
$DIMSAH
 70
     0
  9
$DIMBLK1
  1

  9
$DIMBLK2
  1

  9
$DIMSTYLE
  2
Standard
  9
$DIMCLRD
 70
     0
  9
$DIMCLRE
 70
     0
  9
$DIMCLRT
 70
     0
  9
$DIMTFAC
 40
1.0
  9
$DIMGAP
 40
0.09
  9
$DIMJUST
 70
     0
  9
$DIMSD1
 70
     0
  9
$DIMSD2
 70
     0
  9
$DIMTOLJ
 70
     1
  9
$DIMTZIN
 70
     0
  9
$DIMALTZ
 70
     0
  9
$DIMALTTZ
 70
     0
  9
$DIMUPT
 70
     0
  9
$DIMDEC
 70
     4
  9
$DIMTDEC
 70
     4
  9
$DIMALTU
 70
     2
  9
$DIMALTTD
 70
     2
  9
$DIMTXSTY
  7
Standard
  9
$DIMAUNIT
 70
     0
  9
$DIMADEC
 70
     0
  9
$DIMALTRND
 40
0.0
  9
$DIMAZIN
 70
     0
  9
$DIMDSEP
 70
     0
  9
$DIMATFIT
 70
     3
  9
$DIMFRAC
 70
     0
  9
$DIMLDRBLK
  1

  9
$DIMLUNIT
 70
     2
  9
$DIMLWD
 70
     0
  9
$DIMLWE
 70
     0
  9
$DIMTMOVE
 70
     0
  9
$LUNITS
 70
     2
  9
$LUPREC
 70
     6
  9
$SKETCHINC
 40
0.1
  9
$FILLETRAD
 40
0.0
  9
$AUNITS
 70
     0
  9
$AUPREC
 70
     0
  9
$MENU
  1
acad
  9
$ELEVATION
 40
0.0
  9
$PELEVATION
 40
0.0
  9
$THICKNESS
 40
0.0
  9
$LIMCHECK
 70
     0
  9
$CHAMFERA
 40
0.0
  9
$CHAMFERB
 40
0.0
  9
$CHAMFERC
 40
0.0
  9
$CHAMFERD
 40
0.0
  9
$SKPOLY
 70
     0
  9
$TDCREATE
 40
0.000000000
  9
$TDUCREATE
 40
0.000000000
  9
$TDUPDATE
 40
0.000000000
  9
$TDUUPDATE
 40
0.000000000
  9
$TDINDWG
 40
0.0000000000
  9
$TDUSRTIMER
 40
0.0000000000
  9
$USRTIMER
 70
     1
  9
$ANGBASE
 50
0.0
  9
$ANGDIR
 70
     0
  9
$PDMODE
 70
     0
  9
$PDSIZE
 40
0.0
  9
$PLINEWID
 40
0.0
  9
$SPLFRAME
 70
     0
  9
$SPLINETYPE
 70
     6
  9
$SPLINESEGS
 70
     8
  9
$HANDSEED
  5
1C2
  9
$SURFTAB1
 70
     6
  9
$SURFTAB2
 70
     6
  9
$SURFTYPE
 70
     6
  9
$SURFU
 70
     6
  9
$SURFV
 70
     6
  9
$UCSBASE
  2

  9
$UCSNAME
  2

  9
$UCSORG
 10
0.0
 20
0.0
 30
0.0
  9
$UCSXDIR
 10
1.0
 20
0.0
 30
0.0
  9
$UCSYDIR
 10
0.0
 20
1.0
 30
0.0
  9
$UCSORTHOREF
  2

  9
$UCSORTHOVIEW
 70
     0
  9
$UCSORGTOP
 10
0.0
 20
0.0
 30
0.0
  9
$UCSORGBOTTOM
 10
0.0
 20
0.0
 30
0.0
  9
$UCSORGLEFT
 10
0.0
 20
0.0
 30
0.0
  9
$UCSORGRIGHT
 10
0.0
 20
0.0
 30
0.0
  9
$UCSORGFRONT
 10
0.0
 20
0.0
 30
0.0
  9
$UCSORGBACK
 10
0.0
 20
0.0
 30
0.0
  9
$PUCSBASE
  2

  9
$PUCSNAME
  2

  9
$PUCSORG
 10
0.0
 20
0.0
 30
0.0
  9
$PUCSXDIR
 10
1.0
 20
0.0
 30
0.0
  9
$PUCSYDIR
 10
0.0
 20
1.0
 30
0.0
  9
$PUCSORTHOREF
  2

  9
$PUCSORTHOVIEW
 70
     0
  9
$PUCSORGTOP
 10
0.0
 20
0.0
 30
0.0
  9
$PUCSORGBOTTOM
 10
0.0
 20
0.0
 30
0.0
  9
$PUCSORGLEFT
 10
0.0
 20
0.0
 30
0.0
  9
$PUCSORGRIGHT
 10
0.0
 20
0.0
 30
0.0
  9
$PUCSORGFRONT
 10
0.0
 20
0.0
 30
0.0
  9
$PUCSORGBACK
 10
0.0
 20
0.0
 30
0.0
  9
$USERI1
 70
     0
  9
$USERI2
 70
     0
  9
$USERI3
 70
     0
  9
$USERI4
 70
     0
  9
$USERI5
 70
     0
  9
$USERR1
 40
0.0
  9
$USERR2
 40
0.0
  9
$USERR3
 40
0.0
  9
$USERR4
 40
0.0
  9
$USERR5
 40
0.0
  9
$WORLDVIEW
 70
     1
  9
$SHADEDGE
 70
     3
  9
$SHADEDIF
 70
    70
  9
$TILEMODE
 70
     1
  9
$MAXACTVP
 70
    16
  9
$PINSBASE
 10
0.0
 20
0.0
 30
0.0
  9
$PLIMCHECK
 70
     0
  9
$PEXTMIN
 10
-97.3416
 20
-54.33
 30
0.0
  9
$PEXTMAX
 10
742.6584
 20
539.67
 30
0.0
  9
$PLIMMIN
 10
-97.3416
 20
-54.33
  9
$PLIMMAX
 10
742.6584
 20
539.67
  9
$UNITMODE
 70
     0
  9
$VISRETAIN
 70
     0
  9
$PLINEGEN
 70
     1
  9
$PSLTSCALE
 70
     0
  9
$TREEDEPTH
 70
  3020
  9
$CMLSTYLE
  2
Standard
  9
$CMLJUST
 70
     0
  9
$CMLSCALE
 40
1.0
  9
$PROXYGRAPHICS
 70
     0
  9
$MEASUREMENT
 70
     0
  9
$CELWEIGHT
370
     0
  9
$ENDCAPS
280
     0
  9
$JOINSTYLE
280
     0
  9
$LWDISPLAY
290
     0
  9
$INSUNITS
 70
     0
  9
$HYPERLINKBASE
  1

  9
$STYLESHEET
  1

  9
$XEDIT
290
     1
  9
$CEPSNTYPE
380
     0
  9
$PSTYLEMODE
290
     1
  9
$FINGERPRINTGUID
  2

  9
$VERSIONGUID
  2

  9
$EXTNAMES
290
     1
  9
$PSVPSCALE
 40
0.0
  0
ENDSEC
  0
SECTION
  2
CLASSES
  0
CLASS
  1
LWPOLYLINE
  2
AcDbPolyline
  3
AutoCAD 2000
 90
        0
280
     0
281
     1
  0
CLASS
  1
IMAGE
  2
AcDbRasterImage
  3
ISM
 90
      127
280
     0
281
     1
  0
CLASS
  1
OLE2FRAME
  2
AcDbOle2Frame
  3
AutoCAD 2000
 90
        0
280
     0
281
     1
  0
CLASS
  1
HATCH
  2
AcDbHatch
  3
AutoCAD 2000
 90
        0
280
     0
281
     1
  0
CLASS
  1
DICTIONARYVAR
  2
AcDbDictionaryVar
  3
AutoCAD 2000
 90
        0
280
     0
281
     0
  0
CLASS
  1
RASTERVARIABLES
  2
AcDbRasterVariables
  3
ISM
 90
        0
280
     0
281
     0
  0
CLASS
  1
IMAGEDEF
  2
AcDbRasterImageDef
  3
ISM
 90
        0
280
     0
281
     0
  0
CLASS
  1
IMAGEDEF_REACTOR
  2
AcDbRasterImageDefReactor
  3
ISM
 90
        1
280
     0
281
     0
  0
CLASS
  1
IDBUFFER
  2
AcDbIdBuffer
  3
AutoCAD 2000
 90
        0
280
     0
281
     0
  0
CLASS
  1
SPATIAL_FILTER
  2
AcDbSpatialFilter
  3
AutoCAD 2000
 90
        0
280
     0
281
     0
  0
CLASS
  1
XRECORD
  2
AcDbXrecord
  3
AutoCAD 2000
 90
        0
280
     0
281
     0
  0
CLASS
  1
SORTENTSTABLE
  2
AcDbSortentsTable
  3
AutoCAD 2000
 90
        0
280
     0
281
     0
  0
CLASS
  1
LAYER_INDEX
  2
AcDbLayerIndex
  3
AutoCAD 2000
 90
        0
280
     0
281
     0
  0
CLASS
  1
SPATIAL_INDEX
  2
AcDbSpatialIndex
  3
AutoCAD 2000
 90
        0
280
     0
281
     0
  0
CLASS
  1
OBJECT_PTR
  2
CAseDLPNTableRecord
  3
"ASE-LPNTableRecord"
 90
        1
280
     0
281
     0
  0
CLASS
  1
LAYOUT
  2
AcDbLayout
  3
AutoCAD 2000
 90
        0
280
     0
281
     0
  0
CLASS
  1
PLOTSETTINGS
  2
AcDbPlotSettings
  3
AutoCAD 2000
 90
        0
280
     0
281
     0
  0
CLASS
  1
ACDBDICTIONARYWDFLT
  2
AcDbDictionaryWithDefault
  3
AutoCAD 2000
 90
        0
280
     0
281
     0
  0
CLASS
  1
ACDBPLACEHOLDER
  2
AcDbPlaceHolder
  3
AutoCAD 2000
 90
        0
280
     0
281
     0
  0
ENDSEC
  0
SECTION
  2
TABLES
  0
TABLE
  2
VPORT
  5
7
100
AcDbSymbolTable
 70
     1
  0
VPORT
  5
15
100
AcDbSymbolTableRecord
100
AcDbViewportTableRecord
  2
*ACTIVE
 70
     0
 10
0.0
 20
0.0
 11
1.0
 21
1.0
 12
420.0
 22
297.0
 13
0.0
 23
0.0
 14
1.0
 24
1.0
 15
0.0
 25
0.0
 16
0.0
 26
0.0
 36
1.0
 17
-97.3416
 27
-54.33
 37
0.0
 40
594.0
 41
1.604229
 42
50.0
 43
0.0
 44
0.0
 50
0.0
 51
0.0
 71
     0
 72
   100
 73
     1
 74
     1
 75
     0
 76
     0
 77
     0
 78
     0
281
     0
 65
     0
110
0.0
120
0.0
130
0.0
111
1.0
121
0.0
131
0.0
112
0.0
122
1.0
132
0.0
345
0
346
0
 79
     0
146
0.0
  0
ENDTAB
  0
TABLE
  2
LTYPE
  5
4
100
AcDbSymbolTable
 70
     5
  0
LTYPE
  5
11
100
AcDbSymbolTableRecord
100
AcDbLinetypeTableRecord
  2
ByBlock
 70
    64
  3

 72
    65
 73
     0
 40
0.0
  0
LTYPE
  5
12
100
AcDbSymbolTableRecord
100
AcDbLinetypeTableRecord
  2
ByLayer
 70
    64
  3

 72
    65
 73
     0
 40
0.0
  0
LTYPE
  5
13
100
AcDbSymbolTableRecord
100
AcDbLinetypeTableRecord
  2
Continuous
 70
    64
  3
Solid line
 72
    65
 73
     0
 40
0.0
  0
LTYPE
  5
23
100
AcDbSymbolTableRecord
100
AcDbLinetypeTableRecord
  2
DASHED
 70
    64
  3
__ __ __ __ __
 72
    65
 73
     2
 40
6.25
 49
5.0
 74
     0
 49
-1.25
 74
     0
  0
LTYPE
  5
2D
100
AcDbSymbolTableRecord
100
AcDbLinetypeTableRecord
  2
DASHDOT
 70
    64
  3
__ . __ . __ . __ . __
 72
    65
 73
     4
 40
7.5
 49
5.0
 74
     0
 49
-1.25
 74
     0
 49
0.0
 74
     0
 49
-1.25
 74
     0
  0
ENDTAB
  0
TABLE
  2
LAYER
  5
2
100
AcDbSymbolTable
 70
    11
  0
LAYER
  5
14
100
AcDbSymbolTableRecord
100
AcDbLayerTableRecord
  2
0
 70
     0
 62
     7
  6
Continuous
290
     1
370
    -3
390
1D
  0
LAYER
  5
24
100
AcDbSymbolTableRecord
100
AcDbLayerTableRecord
  2
LC-INFO-1-2-mm-A3-0
 70
     1
 62
   255
  6
ByBlock
290
     1
370
    -3
390
1D
  0
LAYER
  5
25
100
AcDbSymbolTableRecord
100
AcDbLayerTableRecord
  2
LC-3D-HIDDEN
 70
     0
 62
     9
  6
DASHED
290
     1
370
    -3
390
1D
  0
LAYER
  5
26
100
AcDbSymbolTableRecord
100
AcDbLayerTableRecord
  2
LC-CUT-HIDDEN
 70
     0
 62
     9
  6
DASHED
290
     1
370
    -3
390
1D
  0
LAYER
  5
27
100
AcDbSymbolTableRecord
100
AcDbLayerTableRecord
  2
LC-VIEWPORT
 70
     0
 62
     7
  6
ByBlock
290
     1
370
    -3
390
1D
  0
LAYER
  5
2A
100
AcDbSymbolTableRecord
100
AcDbLayerTableRecord
  2
LC-001-002-----0
 70
     0
 62
     1
  6
ByBlock
290
     1
370
    -3
390
1D
  0
LAYER
  5
33
100
AcDbSymbolTableRecord
100
AcDbLayerTableRecord
  2
LC-002-003-MTH-0
 70
     0
 62
     2
  6
ByBlock
290
     1
370
    -3
390
1D
  0
LAYER
  5
36
100
AcDbSymbolTableRecord
100
AcDbLayerTableRecord
  2
LC-003-003-----0
 70
     0
 62
     2
  6
ByBlock
290
     1
370
    -3
390
1D
  0
LAYER
  5
49
100
AcDbSymbolTableRecord
100
AcDbLayerTableRecord
  2
LC-004-003-MTG-0
 70
     0
 62
     2
  6
ByBlock
290
     1
370
    -3
390
1D
  0
LAYER
  5
D1
100
AcDbSymbolTableRecord
100
AcDbLayerTableRecord
  2
LC-005-002-RND-0
 70
     0
 62
     1
  6
ByBlock
290
     1
370
    -3
390
1D
  0
LAYER
  5
D6
100
AcDbSymbolTableRecord
100
AcDbLayerTableRecord
  2
LC-006-005-----0
 70
     0
 62
     2
  6
ByBlock
290
     1
370
    -3
390
1D
  0
ENDTAB
  0
TABLE
  2
STYLE
  5
3
100
AcDbSymbolTable
 70
     3
  0
STYLE
  5
17
100
AcDbSymbolTableRecord
100
AcDbTextStyleTableRecord
  2
Standard
 70
     0
 40
0.0
 41
1.0
 50
0.0
 71
     0
 42
0.0
  3
txt
  4

  0
STYLE
  5
29
100
AcDbSymbolTableRecord
100
AcDbTextStyleTableRecord
  2
LCTX15-400-0-0-ARIAL
 70
    64
 40
3.5
 41
1.0
 50
0.0
 71
     0
 42
0.0
  3
Arial
  4

1001
ACAD
1000
Arial
1071
 16777216
  0
STYLE
  5
30
100
AcDbSymbolTableRecord
100
AcDbTextStyleTableRecord
  2
LCTX15-400-0-0-DIN-SCHRIFTP
 70
    64
 40
0.0
 41
1.0
 50
1.5
 71
     0
 42
3.5
  3
STANDARD
  4

  0
ENDTAB
  0
TABLE
  2
VIEW
  5
5
100
AcDbSymbolTable
 70
     0
  0
ENDTAB
  0
TABLE
  2
UCS
  5
6
100
AcDbSymbolTable
 70
     0
  0
ENDTAB
  0
TABLE
  2
APPID
  5
8
100
AcDbSymbolTable
 70
     1
  0
APPID
  5
16
100
AcDbSymbolTableRecord
100
AcDbRegAppTableRecord
  2
ACAD
 70
     0
  0
ENDTAB
  0
TABLE
  2
DIMSTYLE
  5
9
100
AcDbSymbolTable
 70
     3
100
AcDbDimStyleTable
 71
     0
  0
DIMSTYLE
105
18
100
AcDbSymbolTableRecord
100
AcDbDimStyleTableRecord
  2
Standard
 70
     0
  3

  4

 40
1.0
 41
0.18
 42
0.0625
 43
0.38
 44
0.18
 45
0.0
 46
0.0
 47
0.0
 48
0.0
 71
     0
 72
     0
 73
     1
 74
     1
 75
     0
 76
     0
 77
     0
 78
     0
 79
     0
140
0.18
141
0.09
142
0.0
143
25.4
144
1.0
145
0.0
146
1.0
147
0.09
148
0.0
170
     0
171
     2
172
     0
173
     0
174
     0
175
     0
176
     0
177
     0
178
     0
179
     0
271
     4
272
     4
273
     2
274
     2
275
     0
276
     0
277
     2
278
    46
279
     0
280
     0
281
     0
282
     0
283
     1
284
     0
285
     0
286
     0
288
     0
289
     0
340
17
341
0
342
0
343
0
344
0
371
    -2
372
    -2
  0
DIMSTYLE
105
2F
100
AcDbSymbolTableRecord
100
AcDbDimStyleTableRecord
  2
LC-DIM-L-0140-01-02
 70
     0
  3

  4

 40
2.0
 41
3.5
 42
0.0
 43
7.5
 44
1.8
 45
0.0
 46
0.0
 47
0.0
 48
0.0
 71
     0
 72
     0
 73
     0
 74
     0
 75
     0
 76
     0
 77
     1
 78
     8
 79
     0
140
14.0
141
0.0
142
0.0
143
25.4
144
1.0
145
0.0
146
0.71
147
1.5
148
0.0
170
     0
171
     2
172
     0
173
     0
174
     0
175
     0
176
     2
177
     2
178
     2
179
     1
271
     1
272
     4
273
     2
274
     2
275
     0
276
     0
277
     2
278
    44
279
     0
280
     0
281
     0
282
     0
283
     1
284
     0
285
     0
286
     0
288
     0
289
     0
340
30
341
0
342
0
343
0
344
0
371
    -3
372
     0
  0
DIMSTYLE
105
193
100
AcDbSymbolTableRecord
100
AcDbDimStyleTableRecord
  2
LC-DIM-L-0140-02-02
 70
     0
  3

  4

 40
2.0
 41
3.5
 42
0.0
 43
7.5
 44
1.8
 45
0.0
 46
0.0
 47
0.0
 48
0.0
 71
     0
 72
     0
 73
     0
 74
     0
 75
     0
 76
     0
 77
     1
 78
     8
 79
     0
140
14.0
141
0.0
142
0.0
143
25.4
144
1.0
145
0.0
146
0.71
147
1.5
148
0.0
170
     0
171
     2
172
     0
173
     0
174
     0
175
     0
176
     2
177
     2
178
     2
179
     2
271
     2
272
     4
273
     2
274
     2
275
     0
276
     0
277
     2
278
    44
279
     0
280
     0
281
     0
282
     0
283
     1
284
     0
285
     0
286
     0
288
     0
289
     0
340
30
341
0
342
0
343
0
344
0
371
    -3
372
     0
  0
ENDTAB
  0
TABLE
  2
BLOCK_RECORD
  5
1
100
AcDbSymbolTable
 70
     6
  0
BLOCK_RECORD
  5
A
100
AcDbSymbolTableRecord
100
AcDbBlockTableRecord
  2
*MODEL_SPACE
340
20
  0
BLOCK_RECORD
  5
B
100
AcDbSymbolTableRecord
100
AcDbBlockTableRecord
  2
*PAPER_SPACE
340
21
  0
BLOCK_RECORD
  5
31
100
AcDbSymbolTableRecord
100
AcDbBlockTableRecord
  2
*D0
340
0
  0
BLOCK_RECORD
  5
50
100
AcDbSymbolTableRecord
100
AcDbBlockTableRecord
  2
*D1
340
0
  0
BLOCK_RECORD
  5
D4
100
AcDbSymbolTableRecord
100
AcDbBlockTableRecord
  2
*X2
340
0
102
{BLKREFS
331
123
102
}
  0
BLOCK_RECORD
  5
124
100
AcDbSymbolTableRecord
100
AcDbBlockTableRecord
  2
*X3
340
0
102
{BLKREFS
331
192
102
}
  0
BLOCK_RECORD
  5
194
100
AcDbSymbolTableRecord
100
AcDbBlockTableRecord
  2
*D4
340
0
  0
BLOCK_RECORD
  5
1A5
100
AcDbSymbolTableRecord
100
AcDbBlockTableRecord
  2
*D5
340
0
  0
ENDTAB
  0
ENDSEC
  0
SECTION
  2
BLOCKS
  0
BLOCK
  5
D
100
AcDbEntity
  8
0
390
0
100
AcDbBlockBegin
  2
*MODEL_SPACE
 70
     0
 10
0.0
 20
0.0
 30
0.0
  3
*MODEL_SPACE
  1

  0
ENDBLK
  5
E
100
AcDbEntity
  8
0
390
0
100
AcDbBlockEnd
  0
BLOCK
  5
F
100
AcDbEntity
 67
     1
  8
0
390
0
100
AcDbBlockBegin
  2
*PAPER_SPACE
 70
     0
 10
0.0
 20
0.0
 30
0.0
  3
*PAPER_SPACE
  1

  0
ENDBLK
  5
10
100
AcDbEntity
 67
     1
  8
0
390
0
100
AcDbBlockEnd
  0
BLOCK
  5
32
100
AcDbEntity
  8
0
390
0
100
AcDbBlockBegin
  2
*D0
 70
    65
 10
0.0
 20
0.0
 30
0.0
  3
*D0
  1

  0
LINE
  5
34
100
AcDbEntity
  8
LC-002-003-MTH-0
370
    25
390
0
 62
     2
100
AcDbLine
 10
279.524696
 20
186.964163
 30
0.0
 11
361.143551
 21
183.400607
 31
0.0
  0
LINE
  5
35
100
AcDbEntity
  8
LC-002-003-MTH-0
370
    25
390
0
 62
     2
100
AcDbLine
 10
282.79615
 20
261.89278
 30
0.0
 11
364.415005
 21
258.329223
 31
0.0
  0
LINE
  5
37
100
AcDbEntity
  8
LC-003-003-----0
370
    25
390
0
 62
     2
100
AcDbLine
 10
346.799901
 20
156.239961
 30
0.0
 11
344.359541
 21
184.133413
 31
0.0
  0
LINE
  5
38
100
AcDbEntity
  8
LC-003-003-----0
370
    25
390
0
 62
     2
100
AcDbLine
 10
344.359541
 20
184.133413
 30
0.0
 11
339.497392
 21
156.558795
 31
0.0
  0
LINE
  5
39
100
AcDbEntity
  8
LC-003-003-----0
370
    25
390
0
 62
     2
100
AcDbLine
 10
339.497392
 20
156.558795
 30
0.0
 11
346.799901
 21
156.239961
 31
0.0
  0
LINE
  5
3A
100
AcDbEntity
  8
LC-003-003-----0
370
    25
390
0
 62
     2
100
AcDbLine
 10
345.847858
 20
156.219187
 30
0.0
 11
344.041991
 21
176.860342
 31
0.0
  0
LINE
  5
3B
100
AcDbEntity
  8
LC-003-003-----0
370
    25
390
0
 62
     2
100
AcDbLine
 10
344.041991
 20
176.860342
 30
0.0
 11
340.444001
 21
156.455125
 31
0.0
  0
LINE
  5
3C
100
AcDbEntity
  8
LC-003-003-----0
370
    25
390
0
 62
     2
100
AcDbLine
 10
344.895816
 20
156.198414
 30
0.0
 11
343.724442
 21
169.58727
 31
0.0
  0
LINE
  5
3D
100
AcDbEntity
  8
LC-003-003-----0
370
    25
390
0
 62
     2
100
AcDbLine
 10
343.724442
 20
169.58727
 30
0.0
 11
341.390611
 21
156.351454
 31
0.0
  0
LINE
  5
3E
100
AcDbEntity
  8
LC-003-003-----0
370
    25
390
0
 62
     2
100
AcDbLine
 10
343.943773
 20
156.17764
 30
0.0
 11
343.406893
 21
162.314199
 31
0.0
  0
LINE
  5
3F
100
AcDbEntity
  8
LC-003-003-----0
370
    25
390
0
 62
     2
100
AcDbLine
 10
343.406893
 20
162.314199
 30
0.0
 11
342.33722
 21
156.247784
 31
0.0
  0
LINE
  5
40
100
AcDbEntity
  8
LC-003-003-----0
370
    25
390
0
 62
     2
100
AcDbLine
 10
345.190634
 20
286.955481
 30
0.0
 11
347.630995
 21
259.062029
 31
0.0
  0
LINE
  5
41
100
AcDbEntity
  8
LC-003-003-----0
370
    25
390
0
 62
     2
100
AcDbLine
 10
347.630995
 20
259.062029
 30
0.0
 11
352.493144
 21
286.636646
 31
0.0
  0
LINE
  5
42
100
AcDbEntity
  8
LC-003-003-----0
370
    25
390
0
 62
     2
100
AcDbLine
 10
352.493144
 20
286.636646
 30
0.0
 11
345.190634
 21
286.955481
 31
0.0
  0
LINE
  5
43
100
AcDbEntity
  8
LC-003-003-----0
370
    25
390
0
 62
     2
100
AcDbLine
 10
346.142677
 20
286.976254
 30
0.0
 11
347.948544
 21
266.3351
 31
0.0
  0
LINE
  5
44
100
AcDbEntity
  8
LC-003-003-----0
370
    25
390
0
 62
     2
100
AcDbLine
 10
347.948544
 20
266.3351
 30
0.0
 11
351.546534
 21
286.740317
 31
0.0
  0
LINE
  5
45
100
AcDbEntity
  8
LC-003-003-----0
370
    25
390
0
 62
     2
100
AcDbLine
 10
347.09472
 20
286.997028
 30
0.0
 11
348.266093
 21
273.608171
 31
0.0
  0
LINE
  5
46
100
AcDbEntity
  8
LC-003-003-----0
370
    25
390
0
 62
     2
100
AcDbLine
 10
348.266093
 20
273.608171
 30
0.0
 11
350.599924
 21
286.843987
 31
0.0
  0
LINE
  5
47
100
AcDbEntity
  8
LC-003-003-----0
370
    25
390
0
 62
     2
100
AcDbLine
 10
348.046763
 20
287.017802
 30
0.0
 11
348.583642
 21
280.881242
 31
0.0
  0
LINE
  5
48
100
AcDbEntity
  8
LC-003-003-----0
370
    25
390
0
 62
     2
100
AcDbLine
 10
348.583642
 20
280.881242
 30
0.0
 11
349.653315
 21
286.947658
 31
0.0
  0
LINE
  5
4A
100
AcDbEntity
  8
LC-004-003-MTG-0
370
    25
390
0
 62
     2
100
AcDbLine
 10
342.649661
 20
144.970722
 30
0.0
 11
353.390848
 21
390.984349
 31
0.0
  0
TEXT
  5
4B
100
AcDbEntity
  8
LC-003-003-----0
370
    -2
390
0
 62
     7
100
AcDbText
 10
341.710435
 20
302.910174
 30
0.0
 40
28.0
  1
DN70
 50
87.5
 41
0.9
 51
15.0
  7
LCTX15-400-0-0-ARIAL
100
AcDbText
  0
ENDBLK
  5
4C
100
AcDbEntity
  8
0
390
0
100
AcDbBlockEnd
  0
BLOCK
  5
51
100
AcDbEntity
  8
0
390
0
100
AcDbBlockBegin
  2
*D1
 70
    65
 10
0.0
 20
0.0
 30
0.0
  3
*D1
  1

  0
LINE
  5
52
100
AcDbEntity
  8
LC-002-003-MTH-0
370
    25
390
0
 62
     2
100
AcDbLine
 10
134.657023
 20
195.791604
 30
0.0
 11
134.657023
 21
100.8
 31
0.0
  0
LINE
  5
53
100
AcDbEntity
  8
LC-002-003-MTH-0
370
    25
390
0
 62
     2
100
AcDbLine
 10
284.657092
 20
224.275803
 30
0.0
 11
284.657092
 21
100.8
 31
0.0
  0
LINE
  5
54
100
AcDbEntity
  8
LC-004-003-MTG-0
370
    25
390
0
 62
     2
100
AcDbLine
 10
134.657023
 20
117.6
 30
0.0
 11
284.657092
 21
117.6
 31
0.0
  0
LINE
  5
55
100
AcDbEntity
  8
LC-003-003-----0
370
    25
390
0
 62
     2
100
AcDbLine
 10
162.417479
 20
121.254733
 30
0.0
 11
134.657023
 21
117.6
 31
0.0
  0
LINE
  5
56
100
AcDbEntity
  8
LC-003-003-----0
370
    25
390
0
 62
     2
100
AcDbLine
 10
134.657023
 20
117.6
 30
0.0
 11
162.417479
 21
113.945267
 31
0.0
  0
LINE
  5
57
100
AcDbEntity
  8
LC-003-003-----0
370
    25
390
0
 62
     2
100
AcDbLine
 10
162.417479
 20
113.945267
 30
0.0
 11
162.417479
 21
121.254733
 31
0.0
  0
LINE
  5
58
100
AcDbEntity
  8
LC-003-003-----0
370
    25
390
0
 62
     2
100
AcDbLine
 10
162.47976
 20
120.304503
 30
0.0
 11
141.937023
 21
117.6
 31
0.0
  0
LINE
  5
59
100
AcDbEntity
  8
LC-003-003-----0
370
    25
390
0
 62
     2
100
AcDbLine
 10
141.937023
 20
117.6
 30
0.0
 11
162.47976
 21
114.895497
 31
0.0
  0
LINE
  5
5A
100
AcDbEntity
  8
LC-003-003-----0
370
    25
390
0
 62
     2
100
AcDbLine
 10
162.542041
 20
119.354272
 30
0.0
 11
149.217023
 21
117.6
 31
0.0
  0
LINE
  5
5B
100
AcDbEntity
  8
LC-003-003-----0
370
    25
390
0
 62
     2
100
AcDbLine
 10
149.217023
 20
117.6
 30
0.0
 11
162.542041
 21
115.845728
 31
0.0
  0
LINE
  5
5C
100
AcDbEntity
  8
LC-003-003-----0
370
    25
390
0
 62
     2
100
AcDbLine
 10
162.604323
 20
118.404041
 30
0.0
 11
156.497023
 21
117.6
 31
0.0
  0
LINE
  5
5D
100
AcDbEntity
  8
LC-003-003-----0
370
    25
390
0
 62
     2
100
AcDbLine
 10
156.497023
 20
117.6
 30
0.0
 11
162.604323
 21
116.795959
 31
0.0
  0
LINE
  5
5E
100
AcDbEntity
  8
LC-003-003-----0
370
    25
390
0
 62
     2
100
AcDbLine
 10
256.896636
 20
113.945267
 30
0.0
 11
284.657092
 21
117.6
 31
0.0
  0
LINE
  5
5F
100
AcDbEntity
  8
LC-003-003-----0
370
    25
390
0
 62
     2
100
AcDbLine
 10
284.657092
 20
117.6
 30
0.0
 11
256.896636
 21
121.254733
 31
0.0
  0
LINE
  5
60
100
AcDbEntity
  8
LC-003-003-----0
370
    25
390
0
 62
     2
100
AcDbLine
 10
256.896636
 20
121.254733
 30
0.0
 11
256.896636
 21
113.945267
 31
0.0
  0
LINE
  5
61
100
AcDbEntity
  8
LC-003-003-----0
370
    25
390
0
 62
     2
100
AcDbLine
 10
256.834354
 20
114.895497
 30
0.0
 11
277.377092
 21
117.6
 31
0.0
  0
LINE
  5
62
100
AcDbEntity
  8
LC-003-003-----0
370
    25
390
0
 62
     2
100
AcDbLine
 10
277.377092
 20
117.6
 30
0.0
 11
256.834354
 21
120.304503
 31
0.0
  0
LINE
  5
63
100
AcDbEntity
  8
LC-003-003-----0
370
    25
390
0
 62
     2
100
AcDbLine
 10
256.772073
 20
115.845728
 30
0.0
 11
270.097092
 21
117.6
 31
0.0
  0
LINE
  5
64
100
AcDbEntity
  8
LC-003-003-----0
370
    25
390
0
 62
     2
100
AcDbLine
 10
270.097092
 20
117.6
 30
0.0
 11
256.772073
 21
119.354272
 31
0.0
  0
LINE
  5
65
100
AcDbEntity
  8
LC-003-003-----0
370
    25
390
0
 62
     2
100
AcDbLine
 10
256.709791
 20
116.795959
 30
0.0
 11
262.817092
 21
117.6
 31
0.0
  0
LINE
  5
66
100
AcDbEntity
  8
LC-003-003-----0
370
    25
390
0
 62
     2
100
AcDbLine
 10
262.817092
 20
117.6
 30
0.0
 11
256.709791
 21
118.404041
 31
0.0
  0
TEXT
  5
67
100
AcDbEntity
  8
LC-003-003-----0
370
    -2
390
0
 62
     7
100
AcDbText
 10
187.377217
 20
125.427554
 30
0.0
 40
28.0
  1
150
 41
0.9
 51
15.0
  7
LCTX15-400-0-0-ARIAL
 72
     1
 11
214.005217
 21
125.427554
 31
0.0
100
AcDbText
  0
ENDBLK
  5
68
100
AcDbEntity
  8
0
390
0
100
AcDbBlockEnd
  0
BLOCK
  5
D5
100
AcDbEntity
  8
0
390
0
100
AcDbBlockBegin
  2
*X2
 70
    65
 10
0.0
 20
0.0
 30
0.0
  3
*X2
  1

  0
LINE
  5
D7
100
AcDbEntity
  8
LC-006-005-----0
370
    25
390
0
 62
     2
100
AcDbLine
 10
288.657023
 20
279.85683
 30
0.0
 11
288.646943
 21
279.866909
 31
0.0
  0
LINE
  5
D8
100
AcDbEntity
  8
LC-006-005-----0
370
    25
390
0
 62
     2
100
AcDbLine
 10
286.45648
 20
282.057372
 30
0.0
 11
286.4464
 21
282.067452
 31
0.0
  0
LINE
  5
D9
100
AcDbEntity
  8
LC-006-005-----0
370
    25
390
0
 62
     2
100
AcDbLine
 10
287.452828
 20
278.232597
 30
0.0
 11
286.617973
 21
279.067452
 31
0.0
  0
LINE
  5
DA
100
AcDbEntity
  8
LC-006-005-----0
370
    25
390
0
 62
     2
100
AcDbLine
 10
284.822167
 20
280.863258
 30
0.0
 11
283.617973
 21
282.067452
 31
0.0
  0
LINE
  5
DB
100
AcDbEntity
  8
LC-006-005-----0
370
    25
390
0
 62
     2
100
AcDbLine
 10
283.789546
 20
279.067452
 30
0.0
 11
280.789546
 21
282.067452
 31
0.0
  0
LINE
  5
DC
100
AcDbEntity
  8
LC-006-005-----0
370
    25
390
0
 62
     2
100
AcDbLine
 10
280.961118
 20
279.067452
 30
0.0
 11
277.961118
 21
282.067452
 31
0.0
  0
LINE
  5
DD
100
AcDbEntity
  8
LC-006-005-----0
370
    25
390
0
 62
     2
100
AcDbLine
 10
278.132691
 20
279.067452
 30
0.0
 11
275.132691
 21
282.067452
 31
0.0
  0
LINE
  5
DE
100
AcDbEntity
  8
LC-006-005-----0
370
    25
390
0
 62
     2
100
AcDbLine
 10
275.304264
 20
279.067452
 30
0.0
 11
272.304264
 21
282.067452
 31
0.0
  0
LINE
  5
DF
100
AcDbEntity
  8
LC-006-005-----0
370
    25
390
0
 62
     2
100
AcDbLine
 10
272.475837
 20
279.067452
 30
0.0
 11
269.475837
 21
282.067452
 31
0.0
  0
LINE
  5
E0
100
AcDbEntity
  8
LC-006-005-----0
370
    25
390
0
 62
     2
100
AcDbLine
 10
269.64741
 20
279.067452
 30
0.0
 11
266.64741
 21
282.067452
 31
0.0
  0
LINE
  5
E1
100
AcDbEntity
  8
LC-006-005-----0
370
    25
390
0
 62
     2
100
AcDbLine
 10
286.203021
 20
259.683414
 30
0.0
 11
284.545096
 21
261.341339
 31
0.0
  0
LINE
  5
E2
100
AcDbEntity
  8
LC-006-005-----0
370
    25
390
0
 62
     2
100
AcDbLine
 10
266.818983
 20
279.067452
 30
0.0
 11
263.818983
 21
282.067452
 31
0.0
  0
LINE
  5
E3
100
AcDbEntity
  8
LC-006-005-----0
370
    25
390
0
 62
     2
100
AcDbLine
 10
283.705122
 20
259.352886
 30
0.0
 11
281.09077
 21
261.967238
 31
0.0
  0
LINE
  5
E4
100
AcDbEntity
  8
LC-006-005-----0
370
    25
390
0
 62
     2
100
AcDbLine
 10
263.990556
 20
279.067452
 30
0.0
 11
260.990556
 21
282.067452
 31
0.0
  0
LINE
  5
E5
100
AcDbEntity
  8
LC-006-005-----0
370
    25
390
0
 62
     2
100
AcDbLine
 10
280.744849
 20
259.484732
 30
0.0
 11
278.133213
 21
262.096368
 31
0.0
  0
LINE
  5
E6
100
AcDbEntity
  8
LC-006-005-----0
370
    25
390
0
 62
     2
100
AcDbLine
 10
261.162129
 20
279.067452
 30
0.0
 11
258.162129
 21
282.067452
 31
0.0
  0
LINE
  5
E7
100
AcDbEntity
  8
LC-006-005-----0
370
    25
390
0
 62
     2
100
AcDbLine
 10
277.784577
 20
259.616577
 30
0.0
 11
275.175656
 21
262.225498
 31
0.0
  0
LINE
  5
E8
100
AcDbEntity
  8
LC-006-005-----0
370
    25
390
0
 62
     2
100
AcDbLine
 10
258.333701
 20
279.067452
 30
0.0
 11
255.333701
 21
282.067452
 31
0.0
  0
LINE
  5
E9
100
AcDbEntity
  8
LC-006-005-----0
370
    25
390
0
 62
     2
100
AcDbLine
 10
274.824304
 20
259.748423
 30
0.0
 11
272.218099
 21
262.354627
 31
0.0
  0
LINE
  5
EA
100
AcDbEntity
  8
LC-006-005-----0
370
    25
390
0
 62
     2
100
AcDbLine
 10
255.505274
 20
279.067452
 30
0.0
 11
252.505274
 21
282.067452
 31
0.0
  0
LINE
  5
EB
100
AcDbEntity
  8
LC-006-005-----0
370
    25
390
0
 62
     2
100
AcDbLine
 10
271.864031
 20
259.880268
 30
0.0
 11
269.260542
 21
262.483757
 31
0.0
  0
LINE
  5
EC
100
AcDbEntity
  8
LC-006-005-----0
370
    25
390
0
 62
     2
100
AcDbLine
 10
252.676847
 20
279.067452
 30
0.0
 11
249.676847
 21
282.067452
 31
0.0
  0
LINE
  5
ED
100
AcDbEntity
  8
LC-006-005-----0
370
    25
390
0
 62
     2
100
AcDbLine
 10
268.903759
 20
260.012114
 30
0.0
 11
266.302986
 21
262.612887
 31
0.0
  0
LINE
  5
EE
100
AcDbEntity
  8
LC-006-005-----0
370
    25
390
0
 62
     2
100
AcDbLine
 10
249.84842
 20
279.067452
 30
0.0
 11
246.84842
 21
282.067452
 31
0.0
  0
LINE
  5
EF
100
AcDbEntity
  8
LC-006-005-----0
370
    25
390
0
 62
     2
100
AcDbLine
 10
265.943486
 20
260.143959
 30
0.0
 11
263.345429
 21
262.742016
 31
0.0
  0
LINE
  5
F0
100
AcDbEntity
  8
LC-006-005-----0
370
    25
390
0
 62
     2
100
AcDbLine
 10
247.019993
 20
279.067452
 30
0.0
 11
244.065226
 21
282.022219
 31
0.0
  0
LINE
  5
F1
100
AcDbEntity
  8
LC-006-005-----0
370
    25
390
0
 62
     2
100
AcDbLine
 10
262.983213
 20
260.275805
 30
0.0
 11
260.387872
 21
262.871146
 31
0.0
  0
LINE
  5
F2
100
AcDbEntity
  8
LC-006-005-----0
370
    25
390
0
 62
     2
100
AcDbLine
 10
244.191566
 20
279.067452
 30
0.0
 11
241.285315
 21
281.973703
 31
0.0
  0
LINE
  5
F3
100
AcDbEntity
  8
LC-006-005-----0
370
    25
390
0
 62
     2
100
AcDbLine
 10
260.02294
 20
260.40765
 30
0.0
 11
257.430315
 21
263.000276
 31
0.0
  0
LINE
  5
F4
100
AcDbEntity
  8
LC-006-005-----0
370
    25
390
0
 62
     2
100
AcDbLine
 10
241.467947
 20
278.962643
 30
0.0
 11
238.97326
 21
281.457331
 31
0.0
  0
LINE
  5
F5
100
AcDbEntity
  8
LC-006-005-----0
370
    25
390
0
 62
     2
100
AcDbLine
 10
257.062668
 20
260.539496
 30
0.0
 11
254.472758
 21
263.129406
 31
0.0
  0
LINE
  5
F6
100
AcDbEntity
  8
LC-006-005-----0
370
    25
390
0
 62
     2
100
AcDbLine
 10
239.178529
 20
278.423635
 30
0.0
 11
236.683842
 21
280.918322
 31
0.0
  0
LINE
  5
F7
100
AcDbEntity
  8
LC-006-005-----0
370
    25
390
0
 62
     2
100
AcDbLine
 10
254.102395
 20
260.671342
 30
0.0
 11
251.515201
 21
263.258535
 31
0.0
  0
LINE
  5
F8
100
AcDbEntity
  8
LC-006-005-----0
370
    25
390
0
 62
     2
100
AcDbLine
 10
236.88911
 20
277.884626
 30
0.0
 11
234.394423
 21
280.379313
 31
0.0
  0
LINE
  5
F9
100
AcDbEntity
  8
LC-006-005-----0
370
    25
390
0
 62
     2
100
AcDbLine
 10
251.142122
 20
260.803187
 30
0.0
 11
248.557645
 21
263.387665
 31
0.0
  0
LINE
  5
FA
100
AcDbEntity
  8
LC-006-005-----0
370
    25
390
0
 62
     2
100
AcDbLine
 10
234.599692
 20
277.345618
 30
0.0
 11
232.105005
 21
279.840305
 31
0.0
  0
LINE
  5
FB
100
AcDbEntity
  8
LC-006-005-----0
370
    25
390
0
 62
     2
100
AcDbLine
 10
248.18185
 20
260.935033
 30
0.0
 11
245.600088
 21
263.516795
 31
0.0
  0
LINE
  5
FC
100
AcDbEntity
  8
LC-006-005-----0
370
    25
390
0
 62
     2
100
AcDbLine
 10
232.310273
 20
276.806609
 30
0.0
 11
229.815586
 21
279.301296
 31
0.0
  0
LINE
  5
FD
100
AcDbEntity
  8
LC-006-005-----0
370
    25
390
0
 62
     2
100
AcDbLine
 10
245.221577
 20
261.066878
 30
0.0
 11
242.642531
 21
263.645925
 31
0.0
  0
LINE
  5
FE
100
AcDbEntity
  8
LC-006-005-----0
370
    25
390
0
 62
     2
100
AcDbLine
 10
230.020855
 20
276.2676
 30
0.0
 11
227.526168
 21
278.762287
 31
0.0
  0
LINE
  5
FF
100
AcDbEntity
  8
LC-006-005-----0
370
    25
390
0
 62
     2
100
AcDbLine
 10
242.261304
 20
261.198724
 30
0.0
 11
239.684974
 21
263.775054
 31
0.0
  0
LINE
  5
100
100
AcDbEntity
  8
LC-006-005-----0
370
    25
390
0
 62
     2
100
AcDbLine
 10
227.731436
 20
275.728592
 30
0.0
 11
225.236749
 21
278.223279
 31
0.0
  0
LINE
  5
101
100
AcDbEntity
  8
LC-006-005-----0
370
    25
390
0
 62
     2
100
AcDbLine
 10
239.301032
 20
261.330569
 30
0.0
 11
236.727417
 21
263.904184
 31
0.0
  0
LINE
  5
102
100
AcDbEntity
  8
LC-006-005-----0
370
    25
390
0
 62
     2
100
AcDbLine
 10
225.442018
 20
275.189583
 30
0.0
 11
222.947331
 21
277.68427
 31
0.0
  0
LINE
  5
103
100
AcDbEntity
  8
LC-006-005-----0
370
    25
390
0
 62
     2
100
AcDbLine
 10
236.340759
 20
261.462415
 30
0.0
 11
233.76986
 21
264.033314
 31
0.0
  0
LINE
  5
104
100
AcDbEntity
  8
LC-006-005-----0
370
    25
390
0
 62
     2
100
AcDbLine
 10
223.152599
 20
274.650575
 30
0.0
 11
220.657912
 21
277.145262
 31
0.0
  0
LINE
  5
105
100
AcDbEntity
  8
LC-006-005-----0
370
    25
390
0
 62
     2
100
AcDbLine
 10
233.380486
 20
261.59426
 30
0.0
 11
230.812303
 21
264.162443
 31
0.0
  0
LINE
  5
106
100
AcDbEntity
  8
LC-006-005-----0
370
    25
390
0
 62
     2
100
AcDbLine
 10
221.544624
 20
273.430123
 30
0.0
 11
217.829695
 21
277.145052
 31
0.0
  0
LINE
  5
107
100
AcDbEntity
  8
LC-006-005-----0
370
    25
390
0
 62
     2
100
AcDbLine
 10
230.420214
 20
261.726106
 30
0.0
 11
227.854747
 21
264.291573
 31
0.0
  0
LINE
  5
108
100
AcDbEntity
  8
LC-006-005-----0
370
    25
390
0
 62
     2
100
AcDbLine
 10
220.130411
 20
272.015909
 30
0.0
 11
217.101554
 21
275.044766
 31
0.0
  0
LINE
  5
109
100
AcDbEntity
  8
LC-006-005-----0
370
    25
390
0
 62
     2
100
AcDbLine
 10
227.459941
 20
261.857952
 30
0.0
 11
224.89719
 21
264.420703
 31
0.0
  0
LINE
  5
10A
100
AcDbEntity
  8
LC-006-005-----0
370
    25
390
0
 62
     2
100
AcDbLine
 10
218.28084
 20
271.037052
 30
0.0
 11
215.73584
 21
273.582052
 31
0.0
  0
LINE
  5
10B
100
AcDbEntity
  8
LC-006-005-----0
370
    25
390
0
 62
     2
100
AcDbLine
 10
224.499668
 20
261.989797
 30
0.0
 11
221.939633
 21
264.549833
 31
0.0
  0
LINE
  5
10C
100
AcDbEntity
  8
LC-006-005-----0
370
    25
390
0
 62
     2
100
AcDbLine
 10
215.452413
 20
271.037052
 30
0.0
 11
212.907413
 21
273.582052
 31
0.0
  0
LINE
  5
10D
100
AcDbEntity
  8
LC-006-005-----0
370
    25
390
0
 62
     2
100
AcDbLine
 10
210.375023
 20
276.114443
 30
0.0
 11
209.344413
 21
277.145052
 31
0.0
  0
LINE
  5
10E
100
AcDbEntity
  8
LC-006-005-----0
370
    25
390
0
 62
     2
100
AcDbLine
 10
221.539396
 20
262.121643
 30
0.0
 11
218.982076
 21
264.678962
 31
0.0
  0
LINE
  5
10F
100
AcDbEntity
  8
LC-006-005-----0
370
    25
390
0
 62
     2
100
AcDbLine
 10
212.623986
 20
271.037052
 30
0.0
 11
206.515986
 21
277.145052
 31
0.0
  0
LINE
  5
110
100
AcDbEntity
  8
LC-006-005-----0
370
    25
390
0
 62
     2
100
AcDbLine
 10
218.579123
 20
262.253488
 30
0.0
 11
216.024519
 21
264.808092
 31
0.0
  0
LINE
  5
111
100
AcDbEntity
  8
LC-006-005-----0
370
    25
390
0
 62
     2
100
AcDbLine
 10
209.795559
 20
271.037052
 30
0.0
 11
203.687559
 21
277.145052
 31
0.0
  0
LINE
  5
112
100
AcDbEntity
  8
LC-006-005-----0
370
    25
390
0
 62
     2
100
AcDbLine
 10
215.61885
 20
262.385334
 30
0.0
 11
213.066962
 21
264.937222
 31
0.0
  0
LINE
  5
113
100
AcDbEntity
  8
LC-006-005-----0
370
    25
390
0
 62
     2
100
AcDbLine
 10
206.967132
 20
271.037052
 30
0.0
 11
200.859132
 21
277.145052
 31
0.0
  0
LINE
  5
114
100
AcDbEntity
  8
LC-006-005-----0
370
    25
390
0
 62
     2
100
AcDbLine
 10
212.658578
 20
262.517179
 30
0.0
 11
210.109406
 21
265.066351
 31
0.0
  0
LINE
  5
115
100
AcDbEntity
  8
LC-006-005-----0
370
    25
390
0
 62
     2
100
AcDbLine
 10
204.138705
 20
271.037052
 30
0.0
 11
196.504408
 21
278.671349
 31
0.0
  0
LINE
  5
116
100
AcDbEntity
  8
LC-006-005-----0
370
    25
390
0
 62
     2
100
AcDbLine
 10
209.698305
 20
262.649025
 30
0.0
 11
207.151849
 21
265.195481
 31
0.0
  0
LINE
  5
117
100
AcDbEntity
  8
LC-006-005-----0
370
    25
390
0
 62
     2
100
AcDbLine
 10
201.310278
 20
271.037052
 30
0.0
 11
194.407049
 21
277.940281
 31
0.0
  0
LINE
  5
118
100
AcDbEntity
  8
LC-006-005-----0
370
    25
390
0
 62
     2
100
AcDbLine
 10
206.738032
 20
262.78087
 30
0.0
 11
204.194292
 21
265.324611
 31
0.0
  0
LINE
  5
119
100
AcDbEntity
  8
LC-006-005-----0
370
    25
390
0
 62
     2
100
AcDbLine
 10
198.481851
 20
271.037052
 30
0.0
 11
194.407049
 21
275.111854
 31
0.0
  0
LINE
  5
11A
100
AcDbEntity
  8
LC-006-005-----0
370
    25
390
0
 62
     2
100
AcDbLine
 10
203.77776
 20
262.912716
 30
0.0
 11
201.236735
 21
265.453741
 31
0.0
  0
LINE
  5
11B
100
AcDbEntity
  8
LC-006-005-----0
370
    25
390
0
 62
     2
100
AcDbLine
 10
197.657092
 20
269.033384
 30
0.0
 11
194.407049
 21
272.283427
 31
0.0
  0
LINE
  5
11C
100
AcDbEntity
  8
LC-006-005-----0
370
    25
390
0
 62
     2
100
AcDbLine
 10
200.817487
 20
263.044562
 30
0.0
 11
198.279178
 21
265.58287
 31
0.0
  0
LINE
  5
11D
100
AcDbEntity
  8
LC-006-005-----0
370
    25
390
0
 62
     2
100
AcDbLine
 10
197.657092
 20
266.204957
 30
0.0
 11
194.407049
 21
269.454999
 31
0.0
  0
LINE
  5
11E
100
AcDbEntity
  8
LC-006-005-----0
370
    25
390
0
 62
     2
100
AcDbLine
 10
197.857214
 20
263.176407
 30
0.0
 11
194.407049
 21
266.626572
 31
0.0
  0
LINE
  5
11F
100
AcDbEntity
  8
LC-006-005-----0
370
    25
390
0
 62
     2
100
AcDbLine
 10
194.896942
 20
263.308253
 30
0.0
 11
192.528244
 21
265.67695
 31
0.0
  0
LINE
  5
120
100
AcDbEntity
  8
LC-006-005-----0
370
    25
390
0
 62
     2
100
AcDbLine
 10
191.936669
 20
263.440098
 30
0.0
 11
189.699817
 21
265.67695
 31
0.0
  0
LINE
  5
121
100
AcDbEntity
  8
LC-006-005-----0
370
    25
390
0
 62
     2
100
AcDbLine
 10
188.976396
 20
263.571944
 30
0.0
 11
186.87139
 21
265.67695
 31
0.0
  0
ENDBLK
  5
122
100
AcDbEntity
  8
0
390
0
100
AcDbBlockEnd
  0
BLOCK
  5
125
100
AcDbEntity
  8
0
390
0
100
AcDbBlockBegin
  2
*X3
 70
    65
 10
0.0
 20
0.0
 30
0.0
  3
*X3
  1

  0
LINE
  5
126
100
AcDbEntity
  8
LC-006-005-----0
370
    25
390
0
 62
     2
100
AcDbLine
 10
283.126556
 20
189.220774
 30
0.0
 11
283.034005
 21
189.313325
 31
0.0
  0
LINE
  5
127
100
AcDbEntity
  8
LC-006-005-----0
370
    25
390
0
 62
     2
100
AcDbLine
 10
282.004893
 20
187.51401
 30
0.0
 11
280.076448
 21
189.442455
 31
0.0
  0
LINE
  5
128
100
AcDbEntity
  8
LC-006-005-----0
370
    25
390
0
 62
     2
100
AcDbLine
 10
279.689726
 20
187.000749
 30
0.0
 11
277.118891
 21
189.571584
 31
0.0
  0
LINE
  5
129
100
AcDbEntity
  8
LC-006-005-----0
370
    25
390
0
 62
     2
100
AcDbLine
 10
276.77796
 20
187.084088
 30
0.0
 11
274.161334
 21
189.700714
 31
0.0
  0
LINE
  5
12A
100
AcDbEntity
  8
LC-006-005-----0
370
    25
390
0
 62
     2
100
AcDbLine
 10
273.820404
 20
187.213218
 30
0.0
 11
271.203777
 21
189.829844
 31
0.0
  0
LINE
  5
12B
100
AcDbEntity
  8
LC-006-005-----0
370
    25
390
0
 62
     2
100
AcDbLine
 10
270.862847
 20
187.342348
 30
0.0
 11
268.246221
 21
189.958974
 31
0.0
  0
LINE
  5
12C
100
AcDbEntity
  8
LC-006-005-----0
370
    25
390
0
 62
     2
100
AcDbLine
 10
267.90529
 20
187.471477
 30
0.0
 11
265.288664
 21
190.088103
 31
0.0
  0
LINE
  5
12D
100
AcDbEntity
  8
LC-006-005-----0
370
    25
390
0
 62
     2
100
AcDbLine
 10
264.947733
 20
187.600607
 30
0.0
 11
262.331107
 21
190.217233
 31
0.0
  0
LINE
  5
12E
100
AcDbEntity
  8
LC-006-005-----0
370
    25
390
0
 62
     2
100
AcDbLine
 10
261.990176
 20
187.729737
 30
0.0
 11
259.37355
 21
190.346363
 31
0.0
  0
LINE
  5
12F
100
AcDbEntity
  8
LC-006-005-----0
370
    25
390
0
 62
     2
100
AcDbLine
 10
259.032619
 20
187.858866
 30
0.0
 11
256.415993
 21
190.475492
 31
0.0
  0
LINE
  5
130
100
AcDbEntity
  8
LC-006-005-----0
370
    25
390
0
 62
     2
100
AcDbLine
 10
256.075062
 20
187.987996
 30
0.0
 11
253.458436
 21
190.604622
 31
0.0
  0
LINE
  5
131
100
AcDbEntity
  8
LC-006-005-----0
370
    25
390
0
 62
     2
100
AcDbLine
 10
253.117506
 20
188.117126
 30
0.0
 11
250.50088
 21
190.733752
 31
0.0
  0
LINE
  5
132
100
AcDbEntity
  8
LC-006-005-----0
370
    25
390
0
 62
     2
100
AcDbLine
 10
250.159949
 20
188.246256
 30
0.0
 11
247.543323
 21
190.862882
 31
0.0
  0
LINE
  5
133
100
AcDbEntity
  8
LC-006-005-----0
370
    25
390
0
 62
     2
100
AcDbLine
 10
247.202392
 20
188.375385
 30
0.0
 11
244.585766
 21
190.992011
 31
0.0
  0
LINE
  5
134
100
AcDbEntity
  8
LC-006-005-----0
370
    25
390
0
 62
     2
100
AcDbLine
 10
244.244835
 20
188.504515
 30
0.0
 11
241.628209
 21
191.121141
 31
0.0
  0
LINE
  5
135
100
AcDbEntity
  8
LC-006-005-----0
370
    25
390
0
 62
     2
100
AcDbLine
 10
241.287278
 20
188.633645
 30
0.0
 11
238.670652
 21
191.250271
 31
0.0
  0
LINE
  5
136
100
AcDbEntity
  8
LC-006-005-----0
370
    25
390
0
 62
     2
100
AcDbLine
 10
238.329721
 20
188.762774
 30
0.0
 11
235.713095
 21
191.379401
 31
0.0
  0
LINE
  5
137
100
AcDbEntity
  8
LC-006-005-----0
370
    25
390
0
 62
     2
100
AcDbLine
 10
235.372165
 20
188.891904
 30
0.0
 11
232.755538
 21
191.50853
 31
0.0
  0
LINE
  5
138
100
AcDbEntity
  8
LC-006-005-----0
370
    25
390
0
 62
     2
100
AcDbLine
 10
232.414608
 20
189.021034
 30
0.0
 11
229.797982
 21
191.63766
 31
0.0
  0
LINE
  5
139
100
AcDbEntity
  8
LC-006-005-----0
370
    25
390
0
 62
     2
100
AcDbLine
 10
229.457051
 20
189.150164
 30
0.0
 11
226.840425
 21
191.76679
 31
0.0
  0
LINE
  5
13A
100
AcDbEntity
  8
LC-006-005-----0
370
    25
390
0
 62
     2
100
AcDbLine
 10
226.499494
 20
189.279293
 30
0.0
 11
223.882868
 21
191.895919
 31
0.0
  0
LINE
  5
13B
100
AcDbEntity
  8
LC-006-005-----0
370
    25
390
0
 62
     2
100
AcDbLine
 10
223.541937
 20
189.408423
 30
0.0
 11
220.925311
 21
192.025049
 31
0.0
  0
LINE
  5
13C
100
AcDbEntity
  8
LC-006-005-----0
370
    25
390
0
 62
     2
100
AcDbLine
 10
220.58438
 20
189.537553
 30
0.0
 11
217.967754
 21
192.154179
 31
0.0
  0
LINE
  5
13D
100
AcDbEntity
  8
LC-006-005-----0
370
    25
390
0
 62
     2
100
AcDbLine
 10
217.626823
 20
189.666682
 30
0.0
 11
215.010197
 21
192.283309
 31
0.0
  0
LINE
  5
13E
100
AcDbEntity
  8
LC-006-005-----0
370
    25
390
0
 62
     2
100
AcDbLine
 10
214.669267
 20
189.795812
 30
0.0
 11
212.052641
 21
192.412438
 31
0.0
  0
LINE
  5
13F
100
AcDbEntity
  8
LC-006-005-----0
370
    25
390
0
 62
     2
100
AcDbLine
 10
211.71171
 20
189.924942
 30
0.0
 11
209.095084
 21
192.541568
 31
0.0
  0
LINE
  5
140
100
AcDbEntity
  8
LC-006-005-----0
370
    25
390
0
 62
     2
100
AcDbLine
 10
208.754153
 20
190.054072
 30
0.0
 11
206.137527
 21
192.670698
 31
0.0
  0
LINE
  5
141
100
AcDbEntity
  8
LC-006-005-----0
370
    25
390
0
 62
     2
100
AcDbLine
 10
205.796596
 20
190.183201
 30
0.0
 11
203.17997
 21
192.799827
 31
0.0
  0
LINE
  5
142
100
AcDbEntity
  8
LC-006-005-----0
370
    25
390
0
 62
     2
100
AcDbLine
 10
202.839039
 20
190.312331
 30
0.0
 11
200.222413
 21
192.928957
 31
0.0
  0
LINE
  5
143
100
AcDbEntity
  8
LC-006-005-----0
370
    25
390
0
 62
     2
100
AcDbLine
 10
199.881482
 20
190.441461
 30
0.0
 11
197.264856
 21
193.058087
 31
0.0
  0
LINE
  5
144
100
AcDbEntity
  8
LC-006-005-----0
370
    25
390
0
 62
     2
100
AcDbLine
 10
196.923926
 20
190.570591
 30
0.0
 11
194.307299
 21
193.187217
 31
0.0
  0
LINE
  5
145
100
AcDbEntity
  8
LC-006-005-----0
370
    25
390
0
 62
     2
100
AcDbLine
 10
193.966369
 20
190.69972
 30
0.0
 11
191.349743
 21
193.316346
 31
0.0
  0
LINE
  5
146
100
AcDbEntity
  8
LC-006-005-----0
370
    25
390
0
 62
     2
100
AcDbLine
 10
191.008812
 20
190.82885
 30
0.0
 11
188.392186
 21
193.445476
 31
0.0
  0
LINE
  5
147
100
AcDbEntity
  8
LC-006-005-----0
370
    25
390
0
 62
     2
100
AcDbLine
 10
188.051255
 20
190.95798
 30
0.0
 11
185.434629
 21
193.574606
 31
0.0
  0
LINE
  5
148
100
AcDbEntity
  8
LC-006-005-----0
370
    25
390
0
 62
     2
100
AcDbLine
 10
185.093698
 20
191.087109
 30
0.0
 11
182.477072
 21
193.703735
 31
0.0
  0
LINE
  5
149
100
AcDbEntity
  8
LC-006-005-----0
370
    25
390
0
 62
     2
100
AcDbLine
 10
182.136141
 20
191.216239
 30
0.0
 11
179.519515
 21
193.832865
 31
0.0
  0
LINE
  5
14A
100
AcDbEntity
  8
LC-006-005-----0
370
    25
390
0
 62
     2
100
AcDbLine
 10
179.178584
 20
191.345369
 30
0.0
 11
176.561958
 21
193.961995
 31
0.0
  0
LINE
  5
14B
100
AcDbEntity
  8
LC-006-005-----0
370
    25
390
0
 62
     2
100
AcDbLine
 10
176.221028
 20
191.474499
 30
0.0
 11
173.604402
 21
194.091125
 31
0.0
  0
LINE
  5
14C
100
AcDbEntity
  8
LC-006-005-----0
370
    25
390
0
 62
     2
100
AcDbLine
 10
173.263471
 20
191.603628
 30
0.0
 11
170.646845
 21
194.220254
 31
0.0
  0
LINE
  5
14D
100
AcDbEntity
  8
LC-006-005-----0
370
    25
390
0
 62
     2
100
AcDbLine
 10
170.305914
 20
191.732758
 30
0.0
 11
167.689288
 21
194.349384
 31
0.0
  0
LINE
  5
14E
100
AcDbEntity
  8
LC-006-005-----0
370
    25
390
0
 62
     2
100
AcDbLine
 10
167.348357
 20
191.861888
 30
0.0
 11
164.731731
 21
194.478514
 31
0.0
  0
LINE
  5
14F
100
AcDbEntity
  8
LC-006-005-----0
370
    25
390
0
 62
     2
100
AcDbLine
 10
164.3908
 20
191.991017
 30
0.0
 11
161.774174
 21
194.607644
 31
0.0
  0
LINE
  5
150
100
AcDbEntity
  8
LC-006-005-----0
370
    25
390
0
 62
     2
100
AcDbLine
 10
161.433243
 20
192.120147
 30
0.0
 11
158.816617
 21
194.736773
 31
0.0
  0
LINE
  5
151
100
AcDbEntity
  8
LC-006-005-----0
370
    25
390
0
 62
     2
100
AcDbLine
 10
158.475687
 20
192.249277
 30
0.0
 11
155.85906
 21
194.865903
 31
0.0
  0
LINE
  5
152
100
AcDbEntity
  8
LC-006-005-----0
370
    25
390
0
 62
     2
100
AcDbLine
 10
74.906908
 20
275.818055
 30
0.0
 11
72.053459
 21
278.671504
 31
0.0
  0
LINE
  5
153
100
AcDbEntity
  8
LC-006-005-----0
370
    25
390
0
 62
     2
100
AcDbLine
 10
155.51813
 20
192.378407
 30
0.0
 11
152.901504
 21
194.995033
 31
0.0
  0
LINE
  5
154
100
AcDbEntity
  8
LC-006-005-----0
370
    25
390
0
 62
     2
100
AcDbLine
 10
82.940921
 20
264.955615
 30
0.0
 11
82.219682
 21
265.676854
 31
0.0
  0
LINE
  5
155
100
AcDbEntity
  8
LC-006-005-----0
370
    25
390
0
 62
     2
100
AcDbLine
 10
74.906908
 20
272.989628
 30
0.0
 11
70.751484
 21
277.145052
 31
0.0
  0
LINE
  5
156
100
AcDbEntity
  8
LC-006-005-----0
370
    25
390
0
 62
     2
100
AcDbLine
 10
152.560573
 20
192.507536
 30
0.0
 11
149.943947
 21
195.124162
 31
0.0
  0
LINE
  5
157
100
AcDbEntity
  8
LC-006-005-----0
370
    25
390
0
 62
     2
100
AcDbLine
 10
84.783765
 20
260.284344
 30
0.0
 11
79.391877
 21
265.676232
 31
0.0
  0
LINE
  5
158
100
AcDbEntity
  8
LC-006-005-----0
370
    25
390
0
 62
     2
100
AcDbLine
 10
74.906908
 20
270.161201
 30
0.0
 11
67.923057
 21
277.145052
 31
0.0
  0
LINE
  5
159
100
AcDbEntity
  8
LC-006-005-----0
370
    25
390
0
 62
     2
100
AcDbLine
 10
149.603016
 20
192.636666
 30
0.0
 11
146.98639
 21
195.253292
 31
0.0
  0
LINE
  5
15A
100
AcDbEntity
  8
LC-006-005-----0
370
    25
390
0
 62
     2
100
AcDbLine
 10
86.626609
 20
255.613073
 30
0.0
 11
82.188066
 21
260.051616
 31
0.0
  0
LINE
  5
15B
100
AcDbEntity
  8
LC-006-005-----0
370
    25
390
0
 62
     2
100
AcDbLine
 10
79.565126
 20
262.674556
 30
0.0
 11
76.564071
 21
265.675611
 31
0.0
  0
LINE
  5
15C
100
AcDbEntity
  8
LC-006-005-----0
370
    25
390
0
 62
     2
100
AcDbLine
 10
74.906908
 20
267.332774
 30
0.0
 11
71.456867
 21
270.782815
 31
0.0
  0
LINE
  5
15D
100
AcDbEntity
  8
LC-006-005-----0
370
    25
390
0
 62
     2
100
AcDbLine
 10
71.20263
 20
271.037052
 30
0.0
 11
65.09463
 21
277.145052
 31
0.0
  0
LINE
  5
15E
100
AcDbEntity
  8
LC-006-005-----0
370
    25
390
0
 62
     2
100
AcDbLine
 10
146.645459
 20
192.765796
 30
0.0
 11
144.028833
 21
195.382422
 31
0.0
  0
LINE
  5
15F
100
AcDbEntity
  8
LC-006-005-----0
370
    25
390
0
 62
     2
100
AcDbLine
 10
88.469453
 20
250.941802
 30
0.0
 11
84.03091
 21
255.380345
 31
0.0
  0
LINE
  5
160
100
AcDbEntity
  8
LC-006-005-----0
370
    25
390
0
 62
     2
100
AcDbLine
 10
76.736699
 20
262.674556
 30
0.0
 11
71.456867
 21
267.954388
 31
0.0
  0
LINE
  5
161
100
AcDbEntity
  8
LC-006-005-----0
370
    25
390
0
 62
     2
100
AcDbLine
 10
68.374203
 20
271.037052
 30
0.0
 11
62.266203
 21
277.145052
 31
0.0
  0
LINE
  5
162
100
AcDbEntity
  8
LC-006-005-----0
370
    25
390
0
 62
     2
100
AcDbLine
 10
143.687902
 20
192.894925
 30
0.0
 11
141.071276
 21
195.511552
 31
0.0
  0
LINE
  5
163
100
AcDbEntity
  8
LC-006-005-----0
370
    25
390
0
 62
     2
100
AcDbLine
 10
90.312297
 20
246.270531
 30
0.0
 11
85.873754
 21
250.709074
 31
0.0
  0
LINE
  5
164
100
AcDbEntity
  8
LC-006-005-----0
370
    25
390
0
 62
     2
100
AcDbLine
 10
73.908272
 20
262.674556
 30
0.0
 11
71.456867
 21
265.12596
 31
0.0
  0
LINE
  5
165
100
AcDbEntity
  8
LC-006-005-----0
370
    25
390
0
 62
     2
100
AcDbLine
 10
65.545776
 20
271.037052
 30
0.0
 11
59.437776
 21
277.145052
 31
0.0
  0
LINE
  5
166
100
AcDbEntity
  8
LC-006-005-----0
370
    25
390
0
 62
     2
100
AcDbLine
 10
140.730346
 20
193.024055
 30
0.0
 11
138.113719
 21
195.640681
 31
0.0
  0
LINE
  5
167
100
AcDbEntity
  8
LC-006-005-----0
370
    25
390
0
 62
     2
100
AcDbLine
 10
92.15514
 20
241.59926
 30
0.0
 11
87.716598
 21
246.037803
 31
0.0
  0
LINE
  5
168
100
AcDbEntity
  8
LC-006-005-----0
370
    25
390
0
 62
     2
100
AcDbLine
 10
62.717349
 20
271.037052
 30
0.0
 11
58.939023
 21
274.815378
 31
0.0
  0
LINE
  5
169
100
AcDbEntity
  8
LC-006-005-----0
370
    25
390
0
 62
     2
100
AcDbLine
 10
137.772789
 20
193.153185
 30
0.0
 11
135.156163
 21
195.769811
 31
0.0
  0
LINE
  5
16A
100
AcDbEntity
  8
LC-006-005-----0
370
    25
390
0
 62
     2
100
AcDbLine
 10
93.997984
 20
236.927989
 30
0.0
 11
89.559442
 21
241.366532
 31
0.0
  0
LINE
  5
16B
100
AcDbEntity
  8
LC-006-005-----0
370
    25
390
0
 62
     2
100
AcDbLine
 10
59.888921
 20
271.037052
 30
0.0
 11
57.343921
 21
273.582052
 31
0.0
  0
LINE
  5
16C
100
AcDbEntity
  8
LC-006-005-----0
370
    25
390
0
 62
     2
100
AcDbLine
 10
134.815232
 20
193.282315
 30
0.0
 11
132.197317
 21
195.900229
 31
0.0
  0
LINE
  5
16D
100
AcDbEntity
  8
LC-006-005-----0
370
    25
390
0
 62
     2
100
AcDbLine
 10
95.840828
 20
232.256719
 30
0.0
 11
91.402285
 21
236.695261
 31
0.0
  0
LINE
  5
16E
100
AcDbEntity
  8
LC-006-005-----0
370
    25
390
0
 62
     2
100
AcDbLine
 10
57.060494
 20
271.037052
 30
0.0
 11
54.515494
 21
273.582052
 31
0.0
  0
LINE
  5
16F
100
AcDbEntity
  8
LC-006-005-----0
370
    25
390
0
 62
     2
100
AcDbLine
 10
52.112491
 20
275.985055
 30
0.0
 11
50.952494
 21
277.145052
 31
0.0
  0
LINE
  5
170
100
AcDbEntity
  8
LC-006-005-----0
370
    25
390
0
 62
     2
100
AcDbLine
 10
131.853779
 20
193.41534
 30
0.0
 11
129.06395
 21
196.205169
 31
0.0
  0
LINE
  5
171
100
AcDbEntity
  8
LC-006-005-----0
370
    25
390
0
 62
     2
100
AcDbLine
 10
97.683672
 20
227.585448
 30
0.0
 11
93.245129
 21
232.02399
 31
0.0
  0
LINE
  5
172
100
AcDbEntity
  8
LC-006-005-----0
370
    25
390
0
 62
     2
100
AcDbLine
 10
54.232067
 20
271.037052
 30
0.0
 11
47.959953
 21
277.309167
 31
0.0
  0
LINE
  5
173
100
AcDbEntity
  8
LC-006-005-----0
370
    25
390
0
 62
     2
100
AcDbLine
 10
128.710397
 20
193.730295
 30
0.0
 11
125.547463
 21
196.89323
 31
0.0
  0
LINE
  5
174
100
AcDbEntity
  8
LC-006-005-----0
370
    25
390
0
 62
     2
100
AcDbLine
 10
99.526516
 20
222.914177
 30
0.0
 11
95.087973
 21
227.352719
 31
0.0
  0
LINE
  5
175
100
AcDbEntity
  8
LC-006-005-----0
370
    25
390
0
 62
     2
100
AcDbLine
 10
51.40364
 20
271.037052
 30
0.0
 11
44.26056
 21
278.180132
 31
0.0
  0
LINE
  5
176
100
AcDbEntity
  8
LC-006-005-----0
370
    25
390
0
 62
     2
100
AcDbLine
 10
125.210547
 20
194.401718
 30
0.0
 11
121.409527
 21
198.202738
 31
0.0
  0
LINE
  5
177
100
AcDbEntity
  8
LC-006-005-----0
370
    25
390
0
 62
     2
100
AcDbLine
 10
101.369359
 20
218.242906
 30
0.0
 11
96.930817
 21
222.681448
 31
0.0
  0
LINE
  5
178
100
AcDbEntity
  8
LC-006-005-----0
370
    25
390
0
 62
     2
100
AcDbLine
 10
44.592246
 20
275.020019
 30
0.0
 11
40.561168
 21
279.051098
 31
0.0
  0
LINE
  5
179
100
AcDbEntity
  8
LC-006-005-----0
370
    25
390
0
 62
     2
100
AcDbLine
 10
121.156488
 20
195.62735
 30
0.0
 11
115.840148
 21
200.94369
 31
0.0
  0
LINE
  5
17A
100
AcDbEntity
  8
LC-006-005-----0
370
    25
390
0
 62
     2
100
AcDbLine
 10
104.111931
 20
212.671907
 30
0.0
 11
98.773661
 21
218.010177
 31
0.0
  0
LINE
  5
17B
100
AcDbEntity
  8
LC-006-005-----0
370
    25
390
0
 62
     2
100
AcDbLine
 10
40.892854
 20
275.890984
 30
0.0
 11
36.861775
 21
279.922063
 31
0.0
  0
LINE
  5
17C
100
AcDbEntity
  8
LC-006-005-----0
370
    25
390
0
 62
     2
100
AcDbLine
 10
115.978317
 20
197.977094
 30
0.0
 11
101.145334
 21
212.810076
 31
0.0
  0
LINE
  5
17D
100
AcDbEntity
  8
LC-006-005-----0
370
    25
390
0
 62
     2
100
AcDbLine
 10
37.193461
 20
276.76195
 30
0.0
 11
33.162382
 21
280.793028
 31
0.0
  0
LINE
  5
17E
100
AcDbEntity
  8
LC-006-005-----0
370
    25
390
0
 62
     2
100
AcDbLine
 10
33.494069
 20
277.632915
 30
0.0
 11
29.46299
 21
281.663994
 31
0.0
  0
LINE
  5
17F
100
AcDbEntity
  8
LC-006-005-----0
370
    25
390
0
 62
     2
100
AcDbLine
 10
29.794676
 20
278.50388
 30
0.0
 11
26.294589
 21
282.003968
 31
0.0
  0
LINE
  5
180
100
AcDbEntity
  8
LC-006-005-----0
370
    25
390
0
 62
     2
100
AcDbLine
 10
26.402677
 20
279.067452
 30
0.0
 11
23.415922
 21
282.054208
 31
0.0
  0
LINE
  5
181
100
AcDbEntity
  8
LC-006-005-----0
370
    25
390
0
 62
     2
100
AcDbLine
 10
23.57425
 20
279.067452
 30
0.0
 11
20.57425
 21
282.067452
 31
0.0
  0
LINE
  5
182
100
AcDbEntity
  8
LC-006-005-----0
370
    25
390
0
 62
     2
100
AcDbLine
 10
20.745823
 20
279.067452
 30
0.0
 11
17.745823
 21
282.067452
 31
0.0
  0
LINE
  5
183
100
AcDbEntity
  8
LC-006-005-----0
370
    25
390
0
 62
     2
100
AcDbLine
 10
17.917396
 20
279.067452
 30
0.0
 11
14.917396
 21
282.067452
 31
0.0
  0
LINE
  5
184
100
AcDbEntity
  8
LC-006-005-----0
370
    25
390
0
 62
     2
100
AcDbLine
 10
15.088969
 20
279.067452
 30
0.0
 11
12.088969
 21
282.067452
 31
0.0
  0
LINE
  5
185
100
AcDbEntity
  8
LC-006-005-----0
370
    25
390
0
 62
     2
100
AcDbLine
 10
12.260542
 20
279.067452
 30
0.0
 11
9.260542
 21
282.067452
 31
0.0
  0
LINE
  5
186
100
AcDbEntity
  8
LC-006-005-----0
370
    25
390
0
 62
     2
100
AcDbLine
 10
9.432114
 20
279.067452
 30
0.0
 11
6.432114
 21
282.067452
 31
0.0
  0
LINE
  5
187
100
AcDbEntity
  8
LC-006-005-----0
370
    25
390
0
 62
     2
100
AcDbLine
 10
6.603687
 20
279.067452
 30
0.0
 11
3.603687
 21
282.067452
 31
0.0
  0
LINE
  5
188
100
AcDbEntity
  8
LC-006-005-----0
370
    25
390
0
 62
     2
100
AcDbLine
 10
3.77526
 20
279.067452
 30
0.0
 11
0.77526
 21
282.067452
 31
0.0
  0
LINE
  5
189
100
AcDbEntity
  8
LC-006-005-----0
370
    25
390
0
 62
     2
100
AcDbLine
 10
0.946833
 20
279.067452
 30
0.0
 11
-2.053167
 21
282.067452
 31
0.0
  0
LINE
  5
18A
100
AcDbEntity
  8
LC-006-005-----0
370
    25
390
0
 62
     2
100
AcDbLine
 10
-1.881594
 20
279.067452
 30
0.0
 11
-4.881594
 21
282.067452
 31
0.0
  0
LINE
  5
18B
100
AcDbEntity
  8
LC-006-005-----0
370
    25
390
0
 62
     2
100
AcDbLine
 10
-4.710021
 20
279.067452
 30
0.0
 11
-7.710021
 21
282.067452
 31
0.0
  0
LINE
  5
18C
100
AcDbEntity
  8
LC-006-005-----0
370
    25
390
0
 62
     2
100
AcDbLine
 10
-7.538448
 20
279.067452
 30
0.0
 11
-10.538448
 21
282.067452
 31
0.0
  0
LINE
  5
18D
100
AcDbEntity
  8
LC-006-005-----0
370
    25
390
0
 62
     2
100
AcDbLine
 10
-10.366875
 20
279.067452
 30
0.0
 11
-13.366875
 21
282.067452
 31
0.0
  0
LINE
  5
18E
100
AcDbEntity
  8
LC-006-005-----0
370
    25
390
0
 62
     2
100
AcDbLine
 10
-13.195303
 20
279.067452
 30
0.0
 11
-16.195303
 21
282.067452
 31
0.0
  0
LINE
  5
18F
100
AcDbEntity
  8
LC-006-005-----0
370
    25
390
0
 62
     2
100
AcDbLine
 10
-16.02373
 20
279.067452
 30
0.0
 11
-18.58853
 21
281.632252
 31
0.0
  0
LINE
  5
190
100
AcDbEntity
  8
LC-006-005-----0
370
    25
390
0
 62
     2
100
AcDbLine
 10
-18.852157
 20
279.067452
 30
0.0
 11
-19.342977
 21
279.558273
 31
0.0
  0
ENDBLK
  5
191
100
AcDbEntity
  8
0
390
0
100
AcDbBlockEnd
  0
BLOCK
  5
195
100
AcDbEntity
  8
0
390
0
100
AcDbBlockBegin
  2
*D4
 70
    65
 10
0.0
 20
0.0
 30
0.0
  3
*D4
  1

  0
LINE
  5
196
100
AcDbEntity
  8
LC-002-003-MTH-0
370
    25
390
0
 62
     2
100
AcDbLine
 10
132.47601
 20
193.384447
 30
0.0
 11
-72.8
 21
193.384447
 31
0.0
  0
LINE
  5
197
100
AcDbEntity
  8
LC-002-003-MTH-0
370
    25
390
0
 62
     2
100
AcDbLine
 10
-19.342977
 20
279.067452
 30
0.0
 11
-72.8
 21
279.067452
 31
0.0
  0
LINE
  5
198
100
AcDbEntity
  8
LC-004-003-MTG-0
370
    25
390
0
 62
     2
100
AcDbLine
 10
-56.0
 20
193.384447
 30
0.0
 11
-56.0
 21
210.897416
 31
0.0
  0
LINE
  5
199
100
AcDbEntity
  8
LC-004-003-MTG-0
370
    25
390
0
 62
     2
100
AcDbLine
 10
-56.0
 20
276.04835
 30
0.0
 11
-56.0
 21
279.067452
 31
0.0
  0
LINE
  5
19A
100
AcDbEntity
  8
LC-003-003-----0
370
    25
390
0
 62
     2
100
AcDbLine
 10
-58.305626
 20
210.897416
 30
0.0
 11
-56.0
 21
193.384447
 31
0.0
  0
LINE
  5
19B
100
AcDbEntity
  8
LC-003-003-----0
370
    25
390
0
 62
     2
100
AcDbLine
 10
-56.0
 20
193.384447
 30
0.0
 11
-53.694374
 21
210.897416
 31
0.0
  0
LINE
  5
19C
100
AcDbEntity
  8
LC-003-003-----0
370
    25
390
0
 62
     2
100
AcDbLine
 10
-57.347196
 20
210.897416
 30
0.0
 11
-56.0
 21
200.664447
 31
0.0
  0
LINE
  5
19D
100
AcDbEntity
  8
LC-003-003-----0
370
    25
390
0
 62
     2
100
AcDbLine
 10
-56.0
 20
200.664447
 30
0.0
 11
-54.652804
 21
210.897416
 31
0.0
  0
LINE
  5
19E
100
AcDbEntity
  8
LC-003-003-----0
370
    25
390
0
 62
     2
100
AcDbLine
 10
-56.388766
 20
210.897416
 30
0.0
 11
-56.0
 21
207.944447
 31
0.0
  0
LINE
  5
19F
100
AcDbEntity
  8
LC-003-003-----0
370
    25
390
0
 62
     2
100
AcDbLine
 10
-56.0
 20
207.944447
 30
0.0
 11
-55.611234
 21
210.897416
 31
0.0
  0
LINE
  5
1A0
100
AcDbEntity
  8
LC-003-003-----0
370
    25
390
0
 62
     2
100
AcDbLine
 10
-55.602528
 20
276.04835
 30
0.0
 11
-56.0
 21
279.067452
 31
0.0
  0
LINE
  5
1A1
100
AcDbEntity
  8
LC-003-003-----0
370
    25
390
0
 62
     2
100
AcDbLine
 10
-56.0
 20
279.067452
 30
0.0
 11
-56.397472
 21
276.04835
 31
0.0
  0
TEXT
  5
1A2
100
AcDbEntity
  8
LC-003-003-----0
370
    -2
390
0
 62
     7
100
AcDbText
 10
-63.827554
 20
222.82211
 30
0.0
 40
28.0
  1
85
 50
90.0
 41
0.9
 51
15.0
  7
LCTX15-400-0-0-ARIAL
 72
     1
 11
-63.827554
 21
240.57411
 31
0.0
100
AcDbText
  0
ENDBLK
  5
1A3
100
AcDbEntity
  8
0
390
0
100
AcDbBlockEnd
  0
BLOCK
  5
1A6
100
AcDbEntity
  8
0
390
0
100
AcDbBlockBegin
  2
*D5
 70
    65
 10
0.0
 20
0.0
 30
0.0
  3
*D5
  1

  0
LINE
  5
1A7
100
AcDbEntity
  8
LC-002-003-MTH-0
370
    25
390
0
 62
     2
100
AcDbLine
 10
-19.342977
 20
279.067452
 30
0.0
 11
-19.342977
 21
330.4
 31
0.0
  0
LINE
  5
1A8
100
AcDbEntity
  8
LC-002-003-MTH-0
370
    25
390
0
 62
     2
100
AcDbLine
 10
288.657023
 20
279.067452
 30
0.0
 11
288.657023
 21
330.4
 31
0.0
  0
LINE
  5
1A9
100
AcDbEntity
  8
LC-004-003-MTG-0
370
    25
390
0
 62
     2
100
AcDbLine
 10
-19.342977
 20
313.6
 30
0.0
 11
88.020489
 21
313.6
 31
0.0
  0
LINE
  5
1AA
100
AcDbEntity
  8
LC-004-003-MTG-0
370
    25
390
0
 62
     2
100
AcDbLine
 10
195.787422
 20
313.6
 30
0.0
 11
288.657023
 21
313.6
 31
0.0
  0
LINE
  5
1AB
100
AcDbEntity
  8
LC-003-003-----0
370
    25
390
0
 62
     2
100
AcDbLine
 10
8.417479
 20
317.254733
 30
0.0
 11
-19.342977
 21
313.6
 31
0.0
  0
LINE
  5
1AC
100
AcDbEntity
  8
LC-003-003-----0
370
    25
390
0
 62
     2
100
AcDbLine
 10
-19.342977
 20
313.6
 30
0.0
 11
8.417479
 21
309.945267
 31
0.0
  0
LINE
  5
1AD
100
AcDbEntity
  8
LC-003-003-----0
370
    25
390
0
 62
     2
100
AcDbLine
 10
8.417479
 20
309.945267
 30
0.0
 11
8.417479
 21
317.254733
 31
0.0
  0
LINE
  5
1AE
100
AcDbEntity
  8
LC-003-003-----0
370
    25
390
0
 62
     2
100
AcDbLine
 10
8.47976
 20
316.304503
 30
0.0
 11
-12.062977
 21
313.6
 31
0.0
  0
LINE
  5
1AF
100
AcDbEntity
  8
LC-003-003-----0
370
    25
390
0
 62
     2
100
AcDbLine
 10
-12.062977
 20
313.6
 30
0.0
 11
8.47976
 21
310.895497
 31
0.0
  0
LINE
  5
1B0
100
AcDbEntity
  8
LC-003-003-----0
370
    25
390
0
 62
     2
100
AcDbLine
 10
8.542041
 20
315.354272
 30
0.0
 11
-4.782977
 21
313.6
 31
0.0
  0
LINE
  5
1B1
100
AcDbEntity
  8
LC-003-003-----0
370
    25
390
0
 62
     2
100
AcDbLine
 10
-4.782977
 20
313.6
 30
0.0
 11
8.542041
 21
311.845728
 31
0.0
  0
LINE
  5
1B2
100
AcDbEntity
  8
LC-003-003-----0
370
    25
390
0
 62
     2
100
AcDbLine
 10
8.604323
 20
314.404041
 30
0.0
 11
2.497023
 21
313.6
 31
0.0
  0
LINE
  5
1B3
100
AcDbEntity
  8
LC-003-003-----0
370
    25
390
0
 62
     2
100
AcDbLine
 10
2.497023
 20
313.6
 30
0.0
 11
8.604323
 21
312.795959
 31
0.0
  0
LINE
  5
1B4
100
AcDbEntity
  8
LC-003-003-----0
370
    25
390
0
 62
     2
100
AcDbLine
 10
260.896566
 20
309.945267
 30
0.0
 11
288.657023
 21
313.6
 31
0.0
  0
LINE
  5
1B5
100
AcDbEntity
  8
LC-003-003-----0
370
    25
390
0
 62
     2
100
AcDbLine
 10
288.657023
 20
313.6
 30
0.0
 11
260.896566
 21
317.254733
 31
0.0
  0
LINE
  5
1B6
100
AcDbEntity
  8
LC-003-003-----0
370
    25
390
0
 62
     2
100
AcDbLine
 10
260.896566
 20
317.254733
 30
0.0
 11
260.896566
 21
309.945267
 31
0.0
  0
LINE
  5
1B7
100
AcDbEntity
  8
LC-003-003-----0
370
    25
390
0
 62
     2
100
AcDbLine
 10
260.834285
 20
310.895497
 30
0.0
 11
281.377023
 21
313.6
 31
0.0
  0
LINE
  5
1B8
100
AcDbEntity
  8
LC-003-003-----0
370
    25
390
0
 62
     2
100
AcDbLine
 10
281.377023
 20
313.6
 30
0.0
 11
260.834285
 21
316.304503
 31
0.0
  0
LINE
  5
1B9
100
AcDbEntity
  8
LC-003-003-----0
370
    25
390
0
 62
     2
100
AcDbLine
 10
260.772004
 20
311.845728
 30
0.0
 11
274.097023
 21
313.6
 31
0.0
  0
LINE
  5
1BA
100
AcDbEntity
  8
LC-003-003-----0
370
    25
390
0
 62
     2
100
AcDbLine
 10
274.097023
 20
313.6
 30
0.0
 11
260.772004
 21
315.354272
 31
0.0
  0
LINE
  5
1BB
100
AcDbEntity
  8
LC-003-003-----0
370
    25
390
0
 62
     2
100
AcDbLine
 10
260.709722
 20
312.795959
 30
0.0
 11
266.817023
 21
313.6
 31
0.0
  0
LINE
  5
1BC
100
AcDbEntity
  8
LC-003-003-----0
370
    25
390
0
 62
     2
100
AcDbLine
 10
266.817023
 20
313.6
 30
0.0
 11
260.709722
 21
314.404041
 31
0.0
  0
TEXT
  5
1BD
100
AcDbEntity
  8
LC-003-003-----0
370
    -2
390
0
 62
     7
100
AcDbText
 10
76.005182
 20
321.427554
 30
0.0
 40
28.0
  1
%%c308
 41
0.9
 51
15.0
  7
LCTX15-400-0-0-ARIAL
 72
     1
 11
139.005182
 21
321.427554
 31
0.0
100
AcDbText
  0
ENDBLK
  5
1BE
100
AcDbEntity
  8
0
390
0
100
AcDbBlockEnd
  0
ENDSEC
  0
SECTION
  2
ENTITIES
  0
VIEWPORT
  5
1C0
100
AcDbEntity
 67
     1
  8
LC-VIEWPORT
390
0
100
AcDbViewport
 10
420.0
 20
297.0
 30
0.0
 40
840.0
 41
594.0
 68
     1
 69
     1
 12
420.0
 22
297.0
 13
0.0
 23
0.0
 14
1.0
 24
1.0
 15
0.0
 25
0.0
 16
0.0
 26
0.0
 36
1.0
 17
0.0
 27
0.0
 37
0.0
 42
50.0
 43
0.0
 44
0.0
 45
594.0
 50
0.0
 51
0.0
 72
   100
 90
    32928
340
0
  1

281
     0
 71
     0
 74
     1
110
0.0
120
0.0
130
0.0
111
1.0
121
0.0
131
0.0
112
0.0
122
1.0
132
0.0
345
0
346
0
 79
     0
146
0.0
  0
LINE
  5
2B
100
AcDbEntity
  8
LC-001-002-----0
370
    50
390
0
 62
     1
100
AcDbLine
 10
52.112491
 20
277.145052
 30
0.0
 11
58.939023
 21
277.145052
 31
0.0
  0
LINE
  5
2C
102
{ACAD_REACTORS
330
1C1
102
}
100
AcDbEntity
  8
LC-001-002-----0
370
    50
390
0
 62
     1
100
AcDbLine
 10
197.657092
 20
265.610031
 30
0.0
 11
197.657092
 21
271.037052
 31
0.0
  0
LINE
  5
2E
100
AcDbEntity
  8
LC-001-002-----0
370
    25
390
0
  6
DASHDOT
 62
     7
100
AcDbLine
 10
134.657023
 20
282.067452
 30
0.0
 11
134.657023
 21
230.824948
 31
0.0
  0
DIMENSION
  5
4D
100
AcDbEntity
  8
LC-003-003-----0
370
    25
390
0
 62
     2
100
AcDbDimension
  2
*D0
 10
347.340791
 20
252.415284
 30
0.0
 11
347.340791
 21
252.415284
 31
0.0
 71
     5
 72
     1
 41
1.0
 42
0.0
  1
DN70
  3
LC-DIM-L-0140-01-02
100
AcDbAlignedDimension
 13
282.79615
 23
261.89278
 33
0.0
 14
279.524696
 24
186.964163
 34
0.0
 50
87.5
100
AcDbRotatedDimension
  0
LINE
  5
4E
100
AcDbEntity
  8
LC-001-002-----0
370
    25
390
0
  6
DASHDOT
 62
     2
100
AcDbLine
 10
134.657023
 20
230.824948
 30
0.0
 11
284.678881
 21
224.274852
 31
0.0
  0
LINE
  5
4F
100
AcDbEntity
  8
LC-001-002-----0
370
    25
390
0
  6
DASHDOT
 62
     2
100
AcDbLine
 10
204.407023
 20
277.654052
 30
0.0
 11
204.407023
 21
271.2838
 31
0.0
  0
DIMENSION
  5
69
100
AcDbEntity
  8
LC-003-003-----0
370
    25
390
0
 62
     2
100
AcDbDimension
  2
*D1
 10
209.657057
 20
117.6
 30
0.0
 11
209.657057
 21
117.6
 31
0.0
 71
     5
 72
     1
 41
1.0
 42
0.0
  3
LC-DIM-L-0140-01-02
100
AcDbAlignedDimension
 13
284.657092
 23
224.275803
 33
0.0
 14
134.657023
 24
195.791604
 34
0.0
100
AcDbRotatedDimension
  0
LINE
  5
6A
100
AcDbEntity
  8
LC-001-002-----0
370
    25
390
0
  6
DASHDOT
 62
     2
100
AcDbLine
 10
64.907023
 20
277.654052
 30
0.0
 11
64.907023
 21
271.037052
 31
0.0
  0
LINE
  5
6B
102
{ACAD_REACTORS
330
1C1
102
}
100
AcDbEntity
  8
LC-001-002-----0
370
    50
390
0
 62
     1
100
AcDbLine
 10
186.657023
 20
265.67695
 30
0.0
 11
194.407049
 21
265.67695
 31
0.0
  0
LINE
  5
6C
102
{ACAD_REACTORS
330
1C1
102
}
100
AcDbEntity
  8
LC-001-002-----0
370
    50
390
0
 62
     1
100
AcDbLine
 10
67.457023
 20
277.145052
 30
0.0
 11
62.357023
 21
277.145052
 31
0.0
  0
LINE
  5
6D
102
{ACAD_REACTORS
330
1C1
102
}
100
AcDbEntity
  8
LC-001-002-----0
370
    50
390
0
 62
     1
100
AcDbLine
 10
82.657023
 20
265.67695
 30
0.0
 11
74.906908
 21
265.675247
 31
0.0
  0
LINE
  5
6E
102
{ACAD_REACTORS
330
1C1
102
}
100
AcDbEntity
  8
LC-001-002-----0
370
    50
390
0
 62
     1
100
AcDbLine
 10
206.957023
 20
277.145052
 30
0.0
 11
201.857023
 21
277.145052
 31
0.0
  0
LINE
  5
6F
102
{ACAD_REACTORS
330
1C1
102
}
100
AcDbEntity
  8
LC-001-002-----0
370
    50
390
0
 62
     1
100
AcDbLine
 10
52.112491
 20
273.582051
 30
0.0
 11
52.112491
 21
277.145051
 31
0.0
  0
LINE
  5
70
102
{ACAD_REACTORS
330
1C1
102
}
100
AcDbEntity
  8
LC-001-002-----0
370
    50
390
0
 62
     1
100
AcDbLine
 10
246.657031
 20
282.067452
 30
0.0
 11
22.657023
 21
282.067452
 31
0.0
  0
LINE
  5
71
102
{ACAD_REACTORS
330
1C1
102
}
100
AcDbEntity
  8
LC-001-002-----0
370
    50
390
0
 62
     1
100
AcDbLine
 10
58.939023
 20
277.145052
 30
0.0
 11
58.939023
 21
273.582052
 31
0.0
  0
LINE
  5
72
102
{ACAD_REACTORS
330
1C1
102
}
100
AcDbEntity
  8
LC-001-002-----0
370
    50
390
0
 62
     1
100
AcDbLine
 10
217.101554
 20
273.582052
 30
0.0
 11
217.101554
 21
277.145052
 31
0.0
  0
LINE
  5
73
102
{ACAD_REACTORS
330
1C1
102
}
100
AcDbEntity
  8
LC-001-002-----0
370
    50
390
0
 62
     1
100
AcDbLine
 10
208.639023
 20
277.654052
 30
0.0
 11
208.932894
 21
277.145052
 31
0.0
  0
LINE
  5
74
102
{ACAD_REACTORS
330
1C1
102
}
100
AcDbEntity
  8
LC-001-002-----0
370
    50
390
0
 62
     1
100
AcDbLine
 10
208.345151
 20
277.145052
 30
0.0
 11
206.957023
 21
277.145052
 31
0.0
  0
LINE
  5
75
102
{ACAD_REACTORS
330
1C1
102
}
100
AcDbEntity
  8
LC-001-002-----0
370
    50
390
0
 62
     1
100
AcDbLine
 10
208.345151
 20
277.145052
 30
0.0
 11
208.639023
 21
277.654052
 31
0.0
  0
LINE
  5
76
102
{ACAD_REACTORS
330
1C1
102
}
100
AcDbEntity
  8
LC-001-002-----0
370
    50
390
0
 62
     1
100
AcDbLine
 10
206.939023
 20
277.654052
 30
0.0
 11
207.232894
 21
277.145052
 31
0.0
  0
LINE
  5
77
102
{ACAD_REACTORS
330
1C1
102
}
100
AcDbEntity
  8
LC-001-002-----0
370
    50
390
0
 62
     1
100
AcDbLine
 10
67.768894
 20
277.145052
 30
0.0
 11
67.475023
 21
277.654052
 31
0.0
  0
LINE
  5
78
102
{ACAD_REACTORS
330
1C1
102
}
100
AcDbEntity
  8
LC-001-002-----0
370
    50
390
0
 62
     1
100
AcDbLine
 10
220.657023
 20
277.145052
 30
0.0
 11
217.101554
 21
277.145052
 31
0.0
  0
LINE
  5
79
102
{ACAD_REACTORS
330
1C1
102
}
100
AcDbEntity
  8
LC-001-002-----0
370
    50
390
0
 62
     1
100
AcDbLine
 10
198.439023
 20
278.671349
 30
0.0
 11
198.439023
 21
277.144349
 31
0.0
  0
LINE
  5
7A
102
{ACAD_REACTORS
330
1C1
102
}
100
AcDbEntity
  8
LC-001-002-----0
370
    50
390
0
 62
     1
100
AcDbLine
 10
241.157023
 20
281.971464
 30
0.0
 11
28.157023
 21
281.971464
 31
0.0
  0
LINE
  5
7B
102
{ACAD_REACTORS
330
1C1
102
}
100
AcDbEntity
  8
LC-001-002-----0
370
    50
390
0
 62
     1
100
AcDbLine
 10
217.101554
 20
277.145052
 30
0.0
 11
210.375023
 21
277.145052
 31
0.0
  0
LINE
  5
7C
102
{ACAD_REACTORS
330
1C1
102
}
100
AcDbEntity
  8
LC-001-002-----0
370
    50
390
0
 62
     1
100
AcDbLine
 10
194.407049
 20
278.671349
 30
0.0
 11
134.657023
 21
278.671349
 31
0.0
  0
LINE
  5
7D
102
{ACAD_REACTORS
330
1C1
102
}
100
AcDbEntity
  8
LC-001-002-----0
370
    50
390
0
 62
     1
100
AcDbLine
 10
210.375023
 20
277.145052
 30
0.0
 11
210.375023
 21
273.582052
 31
0.0
  0
LINE
  5
7E
102
{ACAD_REACTORS
330
1C1
102
}
100
AcDbEntity
  8
LC-001-002-----0
370
    50
390
0
 62
     1
100
AcDbLine
 10
40.44183
 20
282.0675
 30
0.0
 11
134.657023
 21
282.067751
 31
0.0
  0
LINE
  5
7F
102
{ACAD_REACTORS
330
1C1
102
}
100
AcDbEntity
  8
LC-001-002-----0
370
    50
390
0
 62
     1
100
AcDbLine
 10
28.157023
 20
281.971464
 30
0.0
 11
48.657023
 21
277.145052
 31
0.0
  0
LINE
  5
80
102
{ACAD_REACTORS
330
1C1
102
}
100
AcDbEntity
  8
LC-001-002-----0
370
    50
390
0
 62
     1
100
AcDbLine
 10
246.657031
 20
282.067452
 30
0.0
 11
241.157023
 21
281.971464
 31
0.0
  0
LINE
  5
81
102
{ACAD_REACTORS
330
1C1
102
}
100
AcDbEntity
  8
LC-001-002-----0
370
    50
390
0
 62
     1
100
AcDbLine
 10
19.657023
 20
279.067452
 30
0.0
 11
27.400926
 21
279.067452
 31
0.0
  0
LINE
  5
82
102
{ACAD_REACTORS
330
1C1
102
}
100
AcDbEntity
  8
LC-001-002-----0
370
    50
390
0
 62
     1
100
AcDbLine
 10
60.381151
 20
277.145052
 30
0.0
 11
58.939023
 21
277.145052
 31
0.0
  0
LINE
  5
83
102
{ACAD_REACTORS
330
1C1
102
}
100
AcDbEntity
  8
LC-001-002-----0
370
    50
390
0
 62
     1
100
AcDbLine
 10
198.439023
 20
277.144355
 30
0.0
 11
200.432913
 21
277.145019
 31
0.0
  0
LINE
  5
84
102
{ACAD_REACTORS
330
1C1
102
}
100
AcDbEntity
  8
LC-001-002-----0
370
    50
390
0
 62
     1
100
AcDbLine
 10
58.939023
 20
273.582052
 30
0.0
 11
52.112491
 21
273.582052
 31
0.0
  0
LINE
  5
85
102
{ACAD_REACTORS
330
1C1
102
}
100
AcDbEntity
  8
LC-001-002-----0
370
    50
390
0
 62
     1
100
AcDbLine
 10
210.375023
 20
273.582052
 30
0.0
 11
217.101554
 21
273.582052
 31
0.0
  0
LINE
  5
86
102
{ACAD_REACTORS
330
1C1
102
}
100
AcDbEntity
  8
LC-001-002-----0
370
    50
390
0
 62
     1
100
AcDbLine
 10
71.456867
 20
271.037052
 30
0.0
 11
50.162491
 21
271.037052
 31
0.0
  0
LINE
  5
87
102
{ACAD_REACTORS
330
1C1
102
}
100
AcDbEntity
  8
LC-001-002-----0
370
    50
390
0
 62
     1
100
AcDbLine
 10
50.162491
 20
271.037052
 30
0.0
 11
46.6683
 21
274.531244
 31
0.0
  0
LINE
  5
88
102
{ACAD_REACTORS
330
1C1
102
}
100
AcDbEntity
  8
LC-001-002-----0
370
    50
390
0
 62
     1
100
AcDbLine
 10
69.468894
 20
277.145052
 30
0.0
 11
69.175023
 21
277.654052
 31
0.0
  0
LINE
  5
89
102
{ACAD_REACTORS
330
1C1
102
}
100
AcDbEntity
  8
LC-001-002-----0
370
    50
390
0
 62
     1
100
AcDbLine
 10
69.175023
 20
277.654052
 30
0.0
 11
68.881151
 21
277.145052
 31
0.0
  0
LINE
  5
8A
102
{ACAD_REACTORS
330
1C1
102
}
100
AcDbEntity
  8
LC-001-002-----0
370
    50
390
0
 62
     1
100
AcDbLine
 10
70.875023
 20
277.145052
 30
0.0
 11
68.881151
 21
277.145052
 31
0.0
  0
LINE
  5
8B
102
{ACAD_REACTORS
330
1C1
102
}
100
AcDbEntity
  8
LC-001-002-----0
370
    50
390
0
 62
     1
100
AcDbLine
 10
206.645151
 20
277.145052
 30
0.0
 11
206.939023
 21
277.654052
 31
0.0
  0
LINE
  5
8C
102
{ACAD_REACTORS
330
1C1
102
}
100
AcDbEntity
  8
LC-001-002-----0
370
    50
390
0
 62
     1
100
AcDbLine
 10
197.657092
 20
271.037052
 30
0.0
 11
219.151554
 21
271.037052
 31
0.0
  0
LINE
  5
8D
102
{ACAD_REACTORS
330
1C1
102
}
100
AcDbEntity
  8
LC-001-002-----0
370
    50
390
0
 62
     1
100
AcDbLine
 10
219.151554
 20
271.037052
 30
0.0
 11
222.645745
 21
274.531244
 31
0.0
  0
LINE
  5
8E
102
{ACAD_REACTORS
330
1C1
102
}
100
AcDbEntity
  8
LC-001-002-----0
370
    50
390
0
 62
     1
100
AcDbLine
 10
205.239023
 20
277.654052
 30
0.0
 11
205.532894
 21
277.145052
 31
0.0
  0
LINE
  5
8F
102
{ACAD_REACTORS
330
1C1
102
}
100
AcDbEntity
  8
LC-001-002-----0
370
    50
390
0
 62
     1
100
AcDbLine
 10
204.945151
 20
277.145052
 30
0.0
 11
205.239023
 21
277.654052
 31
0.0
  0
LINE
  5
90
102
{ACAD_REACTORS
330
1C1
102
}
100
AcDbEntity
  8
LC-001-002-----0
370
    50
390
0
 62
     1
100
AcDbLine
 10
203.539023
 20
277.654052
 30
0.0
 11
203.832894
 21
277.145052
 31
0.0
  0
LINE
  5
91
102
{ACAD_REACTORS
330
1C1
102
}
100
AcDbEntity
  8
LC-001-002-----0
370
    50
390
0
 62
     1
100
AcDbLine
 10
203.245151
 20
277.145052
 30
0.0
 11
203.539023
 21
277.654052
 31
0.0
  0
LINE
  5
92
102
{ACAD_REACTORS
330
1C1
102
}
100
AcDbEntity
  8
LC-001-002-----0
370
    50
390
0
 62
     1
100
AcDbLine
 10
208.345151
 20
277.145052
 30
0.0
 11
210.375023
 21
277.145052
 31
0.0
  0
LINE
  5
93
102
{ACAD_REACTORS
330
1C1
102
}
100
AcDbEntity
  8
LC-001-002-----0
370
    50
390
0
 62
     1
100
AcDbLine
 10
288.657023
 20
279.067452
 30
0.0
 11
241.913119
 21
279.067452
 31
0.0
  0
LINE
  5
94
102
{ACAD_REACTORS
330
1C1
102
}
100
AcDbEntity
  8
LC-001-002-----0
370
    50
390
0
 62
     1
100
AcDbLine
 10
241.157023
 20
281.971464
 30
0.0
 11
220.657023
 21
277.145052
 31
0.0
  0
LINE
  5
95
102
{ACAD_REACTORS
330
1C1
102
}
100
AcDbEntity
  8
LC-001-002-----0
370
    50
390
0
 62
     1
100
AcDbLine
 10
201.839023
 20
277.654052
 30
0.0
 11
202.132894
 21
277.145052
 31
0.0
  0
LINE
  5
96
102
{ACAD_REACTORS
330
1C1
102
}
100
AcDbEntity
  8
LC-001-002-----0
370
    50
390
0
 62
     1
100
AcDbLine
 10
62.357023
 20
277.145052
 30
0.0
 11
60.381151
 21
277.145052
 31
0.0
  0
LINE
  5
97
102
{ACAD_REACTORS
330
1C1
102
}
100
AcDbEntity
  8
LC-001-002-----0
370
    50
390
0
 62
     1
100
AcDbLine
 10
198.439023
 20
278.671349
 30
0.0
 11
194.407049
 21
278.671349
 31
0.0
  0
LINE
  5
98
102
{ACAD_REACTORS
330
1C1
102
}
100
AcDbEntity
  8
LC-001-002-----0
370
    50
390
0
 62
     1
100
AcDbLine
 10
201.545151
 20
277.145052
 30
0.0
 11
201.839023
 21
277.654052
 31
0.0
  0
LINE
  5
99
102
{ACAD_REACTORS
330
1C1
102
}
100
AcDbEntity
  8
LC-001-002-----0
370
    50
390
0
 62
     1
100
AcDbLine
 10
194.407049
 20
278.671349
 30
0.0
 11
194.407049
 21
265.67695
 31
0.0
  0
LINE
  5
9A
102
{ACAD_REACTORS
330
1C1
102
}
100
AcDbEntity
  8
LC-001-002-----0
370
    50
390
0
 62
     1
100
AcDbLine
 10
70.875023
 20
278.671276
 30
0.0
 11
74.876908
 21
278.672052
 31
0.0
  0
LINE
  5
9B
102
{ACAD_REACTORS
330
1C1
102
}
100
AcDbEntity
  8
LC-001-002-----0
370
    50
390
0
 62
     1
100
AcDbLine
 10
52.112491
 20
277.145052
 30
0.0
 11
48.657023
 21
277.145052
 31
0.0
  0
LINE
  5
9C
102
{ACAD_REACTORS
330
1C1
102
}
100
AcDbEntity
  8
LC-001-002-----0
370
    50
390
0
 62
     1
100
AcDbLine
 10
74.906908
 20
278.671349
 30
0.0
 11
74.906908
 21
265.675247
 31
0.0
  0
LINE
  5
9D
102
{ACAD_REACTORS
330
1C1
102
}
100
AcDbEntity
  8
LC-001-002-----0
370
    50
390
0
 62
     1
100
AcDbLine
 10
134.657023
 20
278.671349
 30
0.0
 11
74.906908
 21
278.671349
 31
0.0
  0
LINE
  5
9E
102
{ACAD_REACTORS
330
1C1
102
}
100
AcDbEntity
  8
LC-001-002-----0
370
    50
390
0
 62
     1
100
AcDbLine
 10
200.139023
 20
277.654052
 30
0.0
 11
200.432913
 21
277.145019
 31
0.0
  0
LINE
  5
9F
102
{ACAD_REACTORS
330
1C1
102
}
100
AcDbEntity
  8
LC-001-002-----0
370
    50
390
0
 62
     1
100
AcDbLine
 10
199.845019
 20
277.144823
 30
0.0
 11
200.139023
 21
277.654052
 31
0.0
  0
LINE
  5
A0
102
{ACAD_REACTORS
330
1C1
102
}
100
AcDbEntity
  8
LC-001-002-----0
370
    50
390
0
 62
     1
100
AcDbLine
 10
201.857023
 20
277.145052
 30
0.0
 11
200.432894
 21
277.145052
 31
0.0
  0
LINE
  5
A1
102
{ACAD_REACTORS
330
1C1
102
}
100
AcDbEntity
  8
LC-001-002-----0
370
    50
390
0
 62
     1
100
AcDbLine
 10
66.068894
 20
277.145052
 30
0.0
 11
65.775023
 21
277.654052
 31
0.0
  0
LINE
  5
A2
102
{ACAD_REACTORS
330
1C1
102
}
100
AcDbEntity
  8
LC-001-002-----0
370
    50
390
0
 62
     1
100
AcDbLine
 10
70.875023
 20
278.671349
 30
0.0
 11
70.875023
 21
277.145052
 31
0.0
  0
LINE
  5
A3
102
{ACAD_REACTORS
330
1C1
102
}
100
AcDbEntity
  8
LC-001-002-----0
370
    50
390
0
 62
     1
100
AcDbLine
 10
208.639023
 20
277.654052
 30
0.0
 11
198.439023
 21
277.654052
 31
0.0
  0
LINE
  5
A4
102
{ACAD_REACTORS
330
1C1
102
}
100
AcDbEntity
  8
LC-001-002-----0
370
    50
390
0
 62
     1
100
AcDbLine
 10
60.675023
 20
277.654052
 30
0.0
 11
70.875023
 21
277.654052
 31
0.0
  0
LINE
  5
A5
102
{ACAD_REACTORS
330
1C1
102
}
100
AcDbEntity
  8
LC-001-002-----0
370
    50
390
0
 62
     1
100
AcDbLine
 10
64.368894
 20
277.145052
 30
0.0
 11
64.075023
 21
277.654052
 31
0.0
  0
LINE
  5
A6
102
{ACAD_REACTORS
330
1C1
102
}
100
AcDbEntity
  8
LC-001-002-----0
370
    50
390
0
 62
     1
100
AcDbLine
 10
62.668894
 20
277.145052
 30
0.0
 11
62.375023
 21
277.654052
 31
0.0
  0
LINE
  5
A7
102
{ACAD_REACTORS
330
1C1
102
}
100
AcDbEntity
  8
LC-001-002-----0
370
    50
390
0
 62
     1
100
AcDbLine
 10
60.968894
 20
277.145052
 30
0.0
 11
60.675023
 21
277.654052
 31
0.0
  0
LINE
  5
A8
102
{ACAD_REACTORS
330
1C1
102
}
100
AcDbEntity
  8
LC-001-002-----0
370
    50
390
0
 62
     1
100
AcDbLine
 10
60.675023
 20
277.654052
 30
0.0
 11
60.381151
 21
277.145052
 31
0.0
  0
LINE
  5
A9
102
{ACAD_REACTORS
330
1C1
102
}
100
AcDbEntity
  8
LC-001-002-----0
370
    50
390
0
 62
     1
100
AcDbLine
 10
62.375023
 20
277.654052
 30
0.0
 11
62.081151
 21
277.145052
 31
0.0
  0
LINE
  5
AA
102
{ACAD_REACTORS
330
1C1
102
}
100
AcDbEntity
  8
LC-001-002-----0
370
    50
390
0
 62
     1
100
AcDbLine
 10
64.075023
 20
277.654052
 30
0.0
 11
63.781151
 21
277.145052
 31
0.0
  0
LINE
  5
AB
102
{ACAD_REACTORS
330
1C1
102
}
100
AcDbEntity
  8
LC-001-002-----0
370
    50
390
0
 62
     1
100
AcDbLine
 10
65.775023
 20
277.654052
 30
0.0
 11
65.481151
 21
277.145052
 31
0.0
  0
LINE
  5
AC
102
{ACAD_REACTORS
330
1C1
102
}
100
AcDbEntity
  8
LC-001-002-----0
370
    50
390
0
 62
     1
100
AcDbLine
 10
67.475023
 20
277.654052
 30
0.0
 11
67.181151
 21
277.145052
 31
0.0
  0
LINE
  5
AD
102
{ACAD_REACTORS
330
1C1
102
}
100
AcDbEntity
  8
LC-001-002-----0
370
    50
390
0
 62
     1
100
AcDbLine
 10
68.881151
 20
277.145052
 30
0.0
 11
67.457023
 21
277.145052
 31
0.0
  0
LINE
  5
AE
102
{ACAD_REACTORS
330
1C1
102
}
100
AcDbEntity
  8
LC-001-002-----0
370
    50
390
0
 62
     1
100
AcDbLine
 10
286.251911
 20
260.803182
 30
0.0
 11
286.18377
 21
259.242491
 31
0.0
  0
ELLIPSE
  5
AF
102
{ACAD_REACTORS
330
1C1
102
}
100
AcDbEntity
  8
LC-001-002-----0
370
    50
390
0
 62
     1
100
AcDbEllipse
 10
186.656979
 20
228.554581
 30
0.0
 11
0.0
 21
35.120665866525954
 31
0.0
210
0.0
220
0.0
230
1.0
 40
0.385961
 41
0.0000000000001887
 42
3.052229502918431
  0
LINE
  5
B0
102
{ACAD_REACTORS
330
1C1
102
}
100
AcDbEntity
  8
LC-001-002-----0
370
    50
390
0
 62
     1
100
AcDbLine
 10
101.46284
 20
218.00595
 30
0.0
 11
82.657023
 21
265.675247
 31
0.0
  0
ARC
  5
B1
102
{ACAD_REACTORS
330
1C1
102
}
100
AcDbEntity
  8
LC-001-002-----0
370
    50
390
0
 62
     1
100
AcDbCircle
 10
134.016996
 20
230.848756
 30
0.0
 40
34.995867
100
AcDbArc
 50
201.529525
 51
267.5
  0
LINE
  5
B2
102
{ACAD_REACTORS
330
1C1
102
}
100
AcDbEntity
  8
LC-001-002-----0
370
    50
390
0
 62
     1
100
AcDbLine
 10
99.137268
 20
217.088498
 30
0.0
 11
81.153301
 21
262.674556
 31
0.0
  0
ARC
  5
B3
102
{ACAD_REACTORS
330
1C1
102
}
100
AcDbEntity
  8
LC-001-002-----0
370
    50
390
0
 62
     1
100
AcDbCircle
 10
134.657023
 20
227.217087
 30
0.0
 40
38.458159
100
AcDbArc
 50
359.710305
 51
90.0
  0
ARC
  5
B4
102
{ACAD_REACTORS
330
1C1
102
}
100
AcDbEntity
  8
LC-001-002-----0
370
    50
390
0
 62
     1
100
AcDbCircle
 10
134.016996
 20
230.848756
 30
0.0
 40
37.495867
100
AcDbArc
 50
201.529525
 51
267.5
  0
LINE
  5
B5
102
{ACAD_REACTORS
330
1C1
102
}
100
AcDbEntity
  8
LC-001-002-----0
370
    50
390
0
 62
     1
100
AcDbLine
 10
283.130413
 20
189.309116
 30
0.0
 11
132.490498
 21
195.886196
 31
0.0
  0
LINE
  5
B6
102
{ACAD_REACTORS
330
1C1
102
}
100
AcDbEntity
  8
LC-001-002-----0
370
    50
390
0
 62
     1
100
AcDbLine
 10
283.130413
 20
189.309116
 30
0.0
 11
283.062272
 21
187.748425
 31
0.0
  0
LINE
  5
B7
102
{ACAD_REACTORS
330
1C1
102
}
100
AcDbEntity
  8
LC-001-002-----0
370
    50
390
0
 62
     1
100
AcDbLine
 10
79.695519
 20
278.671349
 30
0.0
 11
79.695519
 21
281.671349
 31
0.0
  0
LINE
  5
B8
102
{ACAD_REACTORS
330
1C1
102
}
100
AcDbEntity
  8
LC-001-002-----0
370
    50
390
0
 62
     1
100
AcDbLine
 10
84.259981
 20
281.671349
 30
0.0
 11
84.259981
 21
278.671349
 31
0.0
  0
LINE
  5
B9
102
{ACAD_REACTORS
330
1C1
102
}
100
AcDbEntity
  8
LC-001-002-----0
370
    50
390
0
 62
     1
100
AcDbLine
 10
186.656979
 20
263.675247
 30
0.0
 11
186.656979
 21
265.675247
 31
0.0
  0
LINE
  5
BA
102
{ACAD_REACTORS
330
1C1
102
}
100
AcDbEntity
  8
LC-001-002-----0
370
    50
390
0
 62
     1
100
AcDbLine
 10
189.618526
 20
278.671349
 30
0.0
 11
189.618526
 21
281.671349
 31
0.0
  0
LINE
  5
BB
102
{ACAD_REACTORS
330
1C1
102
}
100
AcDbEntity
  8
LC-001-002-----0
370
    50
390
0
 62
     1
100
AcDbLine
 10
189.618526
 20
281.671349
 30
0.0
 11
185.054064
 21
281.671349
 31
0.0
  0
LINE
  5
BC
102
{ACAD_REACTORS
330
1C1
102
}
100
AcDbEntity
  8
LC-001-002-----0
370
    50
390
0
 62
     1
100
AcDbLine
 10
185.054064
 20
281.671349
 30
0.0
 11
185.054064
 21
278.671349
 31
0.0
  0
LINE
  5
BD
102
{ACAD_REACTORS
330
1C1
102
}
100
AcDbEntity
  8
LC-001-002-----0
370
    50
390
0
 62
     1
100
AcDbLine
 10
188.053126
 20
278.671349
 30
0.0
 11
188.053126
 21
281.671349
 31
0.0
  0
LINE
  5
BE
102
{ACAD_REACTORS
330
1C1
102
}
100
AcDbEntity
  8
LC-001-002-----0
370
    50
390
0
 62
     1
100
AcDbLine
 10
81.260919
 20
278.671349
 30
0.0
 11
81.260919
 21
281.671349
 31
0.0
  0
LINE
  5
BF
102
{ACAD_REACTORS
330
1C1
102
}
100
AcDbEntity
  8
LC-001-002-----0
370
    50
390
0
 62
     1
100
AcDbLine
 10
79.695519
 20
281.671349
 30
0.0
 11
84.259981
 21
281.671349
 31
0.0
  0
LINE
  5
C0
102
{ACAD_REACTORS
330
1C1
102
}
100
AcDbEntity
  8
LC-001-002-----0
370
    50
390
0
 62
     1
100
AcDbLine
 10
71.456867
 20
271.037052
 30
0.0
 11
71.456867
 21
262.674556
 31
0.0
  0
LINE
  5
C1
102
{ACAD_REACTORS
330
1C1
102
}
100
AcDbEntity
  8
LC-001-002-----0
370
    50
390
0
 62
     1
100
AcDbLine
 10
282.79615
 20
261.89278
 30
0.0
 11
197.657092
 21
265.610031
 31
0.0
  0
LINE
  5
C2
102
{ACAD_REACTORS
330
1C1
102
}
100
AcDbEntity
  8
LC-001-002-----0
370
    50
390
0
 62
     1
100
AcDbLine
 10
286.18377
 20
259.242491
 30
0.0
 11
283.130413
 21
189.309116
 31
0.0
  0
LINE
  5
C3
102
{ACAD_REACTORS
330
1C1
102
}
100
AcDbEntity
  8
LC-001-002-----0
370
    50
390
0
 62
     1
100
AcDbLine
 10
286.251911
 20
260.803182
 30
0.0
 11
282.79615
 21
261.89278
 31
0.0
  0
LINE
  5
C4
102
{ACAD_REACTORS
330
1C1
102
}
100
AcDbEntity
  8
LC-001-002-----0
370
    50
390
0
 62
     1
100
AcDbLine
 10
283.062272
 20
187.748425
 30
0.0
 11
279.524696
 21
186.964163
 31
0.0
  0
LINE
  5
C5
102
{ACAD_REACTORS
330
1C1
102
}
100
AcDbEntity
  8
LC-001-002-----0
370
    50
390
0
 62
     1
100
AcDbLine
 10
71.456867
 20
262.674556
 30
0.0
 11
81.153301
 21
262.674556
 31
0.0
  0
LINE
  5
C6
102
{ACAD_REACTORS
330
1C1
102
}
100
AcDbEntity
  8
LC-001-002-----0
370
    50
390
0
 62
     1
100
AcDbLine
 10
286.18377
 20
259.242491
 30
0.0
 11
186.656979
 21
263.675247
 31
0.0
  0
LINE
  5
C7
102
{ACAD_REACTORS
330
1C1
102
}
100
AcDbEntity
  8
LC-001-002-----0
370
    50
390
0
 62
     1
100
AcDbLine
 10
279.524696
 20
186.964163
 30
0.0
 11
132.47601
 21
193.384447
 31
0.0
  0
LINE
  5
C8
102
{ACAD_REACTORS
330
1C1
102
}
100
AcDbEntity
  8
LC-001-002-----0
370
    50
390
0
 62
     1
100
AcDbLine
 10
82.657023
 20
265.675247
 30
0.0
 11
186.656979
 21
265.675247
 31
0.0
  0
LINE
  5
C9
102
{ACAD_REACTORS
330
1C1
102
}
100
AcDbEntity
  8
LC-001-002-----0
370
    50
390
0
 62
     1
100
AcDbLine
 10
288.657023
 20
279.067452
 30
0.0
 11
288.657023
 21
280.067452
 31
0.0
  0
LINE
  5
CA
102
{ACAD_REACTORS
330
1C1
102
}
100
AcDbEntity
  8
LC-001-002-----0
370
    50
390
0
 62
     1
100
AcDbLine
 10
286.657023
 20
282.067452
 30
0.0
 11
246.657031
 21
282.067452
 31
0.0
  0
LINE
  5
CB
102
{ACAD_REACTORS
330
1C1
102
}
100
AcDbEntity
  8
LC-001-002-----0
370
    50
390
0
 62
     1
100
AcDbLine
 10
241.913119
 20
279.067452
 30
0.0
 11
222.645745
 21
274.531244
 31
0.0
  0
LINE
  5
CC
102
{ACAD_REACTORS
330
1C1
102
}
100
AcDbEntity
  8
LC-001-002-----0
370
    50
390
0
 62
     1
100
AcDbLine
 10
-19.342977
 20
279.067452
 30
0.0
 11
27.400926
 21
279.067452
 31
0.0
  0
LINE
  5
CD
100
AcDbEntity
  8
LC-001-002-----0
370
    50
390
0
 62
     1
100
AcDbLine
 10
-19.342977
 20
279.067452
 30
0.0
 11
-19.342977
 21
280.067452
 31
0.0
  0
LINE
  5
CE
102
{ACAD_REACTORS
330
1C1
102
}
100
AcDbEntity
  8
LC-001-002-----0
370
    50
390
0
 62
     1
100
AcDbLine
 10
-17.342977
 20
282.067452
 30
0.0
 11
22.657015
 21
282.067452
 31
0.0
  0
LINE
  5
CF
100
AcDbEntity
  8
LC-001-002-----0
370
    50
390
0
 62
     1
100
AcDbLine
 10
28.157023
 20
281.971464
 30
0.0
 11
22.657023
 21
282.067452
 31
0.0
  0
LINE
  5
D0
102
{ACAD_REACTORS
330
1C1
102
}
100
AcDbEntity
  8
LC-001-002-----0
370
    50
390
0
 62
     1
100
AcDbLine
 10
27.400926
 20
279.067452
 30
0.0
 11
46.6683
 21
274.531244
 31
0.0
  0
ARC
  5
D2
102
{ACAD_REACTORS
330
1C1
102
}
100
AcDbEntity
  8
LC-005-002-RND-0
370
    50
390
0
 62
     1
100
AcDbCircle
 10
286.657023
 20
280.067452
 30
0.0
 40
2.0
100
AcDbArc
 50
0.0
 51
90.0
  0
ARC
  5
D3
102
{ACAD_REACTORS
330
1C1
102
}
100
AcDbEntity
  8
LC-005-002-RND-0
370
    50
390
0
 62
     1
100
AcDbCircle
 10
-17.342977
 20
280.067452
 30
0.0
 40
2.0
100
AcDbArc
 50
90.0
 51
180.0
  0
INSERT
  5
123
102
{ACAD_REACTORS
330
1C1
102
}
100
AcDbEntity
  8
LC-006-005-----0
370
    25
390
0
 62
     2
100
AcDbBlockReference
  2
*X2
 10
0.0
 20
0.0
 30
0.0
  0
INSERT
  5
192
100
AcDbEntity
  8
LC-006-005-----0
370
    25
390
0
 62
     2
100
AcDbBlockReference
  2
*X3
 10
0.0
 20
0.0
 30
0.0
  0
DIMENSION
  5
1A4
100
AcDbEntity
  8
LC-003-003-----0
370
    25
390
0
 62
     2
100
AcDbDimension
  2
*D4
 10
-56.0
 20
236.22595
 30
0.0
 11
-56.0
 21
236.22595
 31
0.0
 71
     5
 72
     1
 41
1.0
 42
0.0
  1
85
  3
LC-DIM-L-0140-02-02
100
AcDbAlignedDimension
 13
-19.342977
 23
279.067452
 33
0.0
 14
132.47601
 24
193.384447
 34
0.0
 50
90.0
100
AcDbRotatedDimension
  0
DIMENSION
  5
1BF
100
AcDbEntity
  8
LC-003-003-----0
370
    25
390
0
 62
     2
100
AcDbDimension
  2
*D5
 10
134.657023
 20
313.6
 30
0.0
 11
134.657023
 21
313.6
 31
0.0
 71
     5
 72
     1
 41
1.0
 42
0.0
  1
%%c<>
  3
LC-DIM-L-0140-02-02
100
AcDbAlignedDimension
 13
-19.342977
 23
279.067452
 33
0.0
 14
288.657023
 24
279.067452
 34
0.0
100
AcDbRotatedDimension
  0
ENDSEC
  0
SECTION
  2
OBJECTS
  0
DICTIONARY
  5
19
100
AcDbDictionary
280
     0
281
     1
  3
ACAD_GROUP
350
1A
  3
ACAD_MLINESTYLE
350
1B
  3
ACAD_LAYOUT
350
1E
  3
ACAD_PLOTSETTINGS
350
22
  3
ACAD_PLOTSTYLENAME
350
1F
  0
DICTIONARY
  5
1A
102
{ACAD_REACTORS
330
19
102
}
100
AcDbDictionary
280
     0
281
     1
  3
GRP12
350
1C1
  0
DICTIONARY
  5
1B
102
{ACAD_REACTORS
330
19
102
}
100
AcDbDictionary
280
     0
281
     1
  3
Standard
350
1C
  0
MLINESTYLE
  5
1C
102
{ACAD_REACTORS
330
1B
102
}
100
AcDbMlineStyle
  2
Standard
 70
     0
  3

 62
     0
 51
90.0
 52
90.0
 71
     2
 49
0.5
 62
   256
  6
ByLayer
 49
-0.5
 62
   256
  6
ByLayer
  0
ACDBDICTIONARYWDFLT
  5
1F
102
{ACAD_REACTORS
330
19
102
}
100
AcDbDictionary
281
     1
  3
Normal
350
1D
100
AcDbDictionaryWithDefault
340
1D
  0
ACDBPLACEHOLDER
  5
1D
102
{ACAD_REACTORS
330
1F
102
}
  0
LAYOUT
  5
20
102
{ACAD_REACTORS
330
1E
102
}
100
AcDbPlotSettings
  1

  2

  4

  6

 40
0.0
 41
0.0
 42
0.0
 43
0.0
 44
0.0
 45
0.0
 46
0.0
 47
0.0
 48
0.0
 49
0.0
140
0.0
141
0.0
142
1.0
143
1.0
 70
  1152
 72
     0
 73
     0
 74
     0
  7

 75
     0
147
1.0
148
0.0
149
0.0
100
AcDbLayout
  1
Model
 70
     0
 71
     0
 10
0.0
 20
0.0
 11
0.0
 21
0.0
 12
0.0
 22
0.0
 32
0.0
 14
0.0
 24
0.0
 34
0.0
 15
0.0
 25
0.0
 35
0.0
146
0.0
 13
0.0
 23
0.0
 33
0.0
 16
0.0
 26
0.0
 36
0.0
 17
0.0
 27
0.0
 37
0.0
 76
     0
330
A
331
0
345
0
346
0
  0
LAYOUT
  5
21
102
{ACAD_REACTORS
330
1E
102
}
100
AcDbPlotSettings
  1

  2

  4

  6

 40
0.0
 41
0.0
 42
0.0
 43
0.0
 44
0.0
 45
0.0
 46
0.0
 47
0.0
 48
0.0
 49
0.0
140
0.0
141
0.0
142
1.0
143
1.0
 70
   128
 72
     0
 73
     0
 74
     0
  7

 75
     0
147
1.0
148
0.0
149
0.0
100
AcDbLayout
  1
Layout1
 70
     0
 71
     0
 10
0.0
 20
0.0
 11
0.0
 21
0.0
 12
0.0
 22
0.0
 32
0.0
 14
0.0
 24
0.0
 34
0.0
 15
0.0
 25
0.0
 35
0.0
146
0.0
 13
0.0
 23
0.0
 33
0.0
 16
0.0
 26
0.0
 36
0.0
 17
0.0
 27
0.0
 37
0.0
 76
     0
330
B
331
0
345
0
346
0
  0
DICTIONARY
  5
1E
102
{ACAD_REACTORS
330
19
102
}
100
AcDbDictionary
280
     0
281
     1
  3
Layout1
350
21
  3
Model
350
20
  0
DICTIONARY
  5
22
102
{ACAD_REACTORS
330
19
102
}
100
AcDbDictionary
280
     0
281
     1
  0
GROUP
  5
1C1
102
{ACAD_REACTORS
330
1A
102
}
100
AcDbGroup
300
GRP12
 70
     0
 71
     1
340
2C
340
6B
340
6C
340
6D
340
6E
340
6F
340
70
340
71
340
72
340
73
340
74
340
75
340
76
340
77
340
78
340
79
340
7A
340
7B
340
7C
340
7D
340
7E
340
7F
340
80
340
81
340
82
340
83
340
84
340
85
340
86
340
87
340
88
340
89
340
8A
340
8B
340
8C
340
8D
340
8E
340
8F
340
90
340
91
340
92
340
93
340
94
340
95
340
96
340
97
340
98
340
99
340
9A
340
9B
340
9C
340
9D
340
9E
340
9F
340
A0
340
A1
340
A2
340
A3
340
A4
340
A5
340
A6
340
A7
340
A8
340
A9
340
AA
340
AB
340
AC
340
AD
340
AE
340
AF
340
B0
340
B1
340
B2
340
B3
340
B4
340
B5
340
B6
340
B7
340
B8
340
B9
340
BA
340
BB
340
BC
340
BD
340
BE
340
BF
340
C0
340
C1
340
C2
340
C3
340
C4
340
C5
340
C6
340
C7
340
C8
340
C9
340
CA
340
CB
340
CC
340
CE
340
D0
340
D2
340
D3
340
123
  0
ENDSEC
  0
EOF
