  0
SECTION
  2
HEADER
  9
$ACADVER
  1
AC1009
  9
$INSBASE
 10
0.0
 20
0.0
 30
0.0
  9
$EXTMIN
 10
0.0
 20
0.0
 30
0.0
  9
$EXTMAX
 10
840.0
 20
594.0
 30
0.0
  9
$LIMMIN
 10
0.0
 20
0.0
  9
$LIMMAX
 10
840.0
 20
594.0
  9
$ORTHOMODE
 70
     0
  9
$REGENMODE
 70
     1
  9
$FILLMODE
 70
     1
  9
$QTEXTMODE
 70
     0
  9
$MIRRTEXT
 70
     1
  9
$DRAGMODE
 70
     2
  9
$LTSCALE
 40
2.0
  9
$OSMODE
 70
     0
  9
$ATTMODE
 70
     1
  9
$TEXTSIZE
 40
0.2
  9
$TRACEWID
 40
0.05
  9
$TEXTSTYLE
  7
STANDARD
  9
$CLAYER
  8
0
  9
$CELTYPE
  6
BYLAYER
  9
$CECOLOR
 62
     7
  9
$DIMSCALE
 40
2.0
  9
$DIMASZ
 40
3.5
  9
$DIMEXO
 40
0.0625
  9
$DIMDLI
 40
0.38
  9
$DIMRND
 40
0.0
  9
$DIMDLE
 40
0.0
  9
$DIMEXE
 40
0.18
  9
$DIMTP
 40
0.0
  9
$DIMTM
 40
0.0
  9
$DIMTXT
 40
3.5
  9
$DIMCEN
 40
0.09
  9
$DIMTSZ
 40
0.0
  9
$DIMTOL
 70
     0
  9
$DIMLIM
 70
     0
  9
$DIMTIH
 70
     1
  9
$DIMTOH
 70
     1
  9
$DIMSE1
 70
     0
  9
$DIMSE2
 70
     0
  9
$DIMTAD
 70
     1
  9
$DIMZIN
 70
     0
  9
$DIMBLK
  1

  9
$DIMASO
 70
     1
  9
$DIMSHO
 70
     1
  9
$DIMPOST
  1

  9
$DIMAPOST
  1

  9
$DIMALT
 70
     0
  9
$DIMALTD
 70
     2
  9
$DIMALTF
 40
25.4
  9
$DIMLFAC
 40
1.0
  9
$DIMTOFL
 70
     0
  9
$DIMTVP
 40
0.0
  9
$DIMTIX
 70
     0
  9
$DIMSOXD
 70
     0
  9
$DIMSAH
 70
     0
  9
$DIMBLK1
  1

  9
$DIMBLK2
  1

  9
$DIMSTYLE
  2
STANDARD
  9
$DIMCLRD
 70
     0
  9
$DIMCLRE
 70
     0
  9
$DIMCLRT
 70
     0
  9
$DIMTFAC
 40
1.0
  9
$DIMGAP
 40
0.09
  9
$LUNITS
 70
     2
  9
$LUPREC
 70
     2
  9
$AXISMODE
 70
     0
  9
$AXISUNIT
 10
0.0
 20
0.0
  9
$SKETCHINC
 40
0.1
  9
$FILLETRAD
 40
0.0
  9
$AUNITS
 70
     0
  9
$AUPREC
 70
     0
  9
$MENU
  1
acad
  9
$ELEVATION
 40
0.0
  9
$PELEVATION
 40
0.0
  9
$THICKNESS
 40
0.0
  9
$LIMCHECK
 70
     0
  9
$BLIPMODE
 70
     1
  9
$CHAMFERA
 40
0.0
  9
$CHAMFERB
 40
0.0
  9
$SKPOLY
 70
     0
  9
$TDCREATE
 40
0.000000000
  9
$TDUPDATE
 40
0.000000000
  9
$TDINDWG
 40
0.0000000000
  9
$TDUSRTIMER
 40
0.0000000000
  9
$USRTIMER
 70
     1
  9
$ANGBASE
 50
0.0
  9
$ANGDIR
 70
     0
  9
$PDMODE
 70
     0
  9
$PDSIZE
 40
0.0
  9
$PLINEWID
 40
0.0
  9
$COORDS
 70
     0
  9
$SPLFRAME
 70
     0
  9
$SPLINETYPE
 70
     6
  9
$SPLINESEGS
 70
     8
  9
$ATTDIA
 70
     0
  9
$ATTREQ
 70
     1
  9
$HANDLING
 70
     1
  9
$HANDSEED
  5
24C
  9
$SURFTAB1
 70
     6
  9
$SURFTAB2
 70
     6
  9
$SURFTYPE
 70
     6
  9
$SURFU
 70
     6
  9
$SURFV
 70
     6
  9
$UCSNAME
  2

  9
$UCSORG
 10
0.0
 20
0.0
 30
0.0
  9
$UCSXDIR
 10
1.0
 20
0.0
 30
0.0
  9
$UCSYDIR
 10
0.0
 20
1.0
 30
0.0
  9
$PUCSNAME
  2

  9
$PUCSORG
 10
0.0
 20
0.0
 30
0.0
  9
$PUCSXDIR
 10
1.0
 20
0.0
 30
0.0
  9
$PUCSYDIR
 10
0.0
 20
1.0
 30
0.0
  9
$USERI1
 70
     0
  9
$USERI2
 70
     0
  9
$USERI3
 70
     0
  9
$USERI4
 70
     0
  9
$USERI5
 70
     0
  9
$USERR1
 40
0.0
  9
$USERR2
 40
0.0
  9
$USERR3
 40
0.0
  9
$USERR4
 40
0.0
  9
$USERR5
 40
0.0
  9
$WORLDVIEW
 70
     1
  9
$SHADEDGE
 70
     3
  9
$SHADEDIF
 70
    70
  9
$TILEMODE
 70
     1
  9
$MAXACTVP
 70
    16
  9
$PINSBASE
 10
0.0
 20
0.0
 30
0.0
  9
$PLIMCHECK
 70
     0
  9
$PEXTMIN
 10
1.000000E+20
 20
1.000000E+20
 30
1.000000E+20
  9
$PEXTMAX
 10
-1.000000E+20
 20
-1.000000E+20
 30
-1.000000E+20
  9
$PLIMMIN
 10
0.0
 20
0.0
  9
$PLIMMAX
 10
840.0
 20
594.0
  9
$UNITMODE
 70
     0
  9
$VISRETAIN
 70
     0
  9
$PLINEGEN
 70
     1
  9
$PSLTSCALE
 70
     0
  9
$TREEDEPTH
 70
  3020
  9
$DWGCODEPAGE
  3
dos850
  0
ENDSEC
  0
SECTION
  2
TABLES
  0
TABLE
  2
VPORT
 70
     1
  0
VPORT
  2
*ACTIVE
 70
     0
 10
0.0
 20
0.0
 11
1.0
 21
1.0
 12
420.0
 22
297.0
 13
0.0
 23
0.0
 14
1.0
 24
1.0
 15
0.0
 25
0.0
 16
0.0
 26
0.0
 36
1.0
 17
0.0
 27
0.0
 37
0.0
 40
594.0
 41
1.604229
 42
50.0
 43
0.0
 44
0.0
 50
0.0
 51
0.0
 71
     0
 72
   100
 73
     1
 74
     1
 75
     0
 76
     0
 77
     0
 78
     0
  0
ENDTAB
  0
TABLE
  2
LTYPE
 70
     2
  0
LTYPE
  2
CONTINUOUS
 70
    64
  3
Solid line
 72
    65
 73
     0
 40
0.0
  0
LTYPE
  2
DASHDOT
 70
    64
  3
__ . __ . __ . __ . __
 72
    65
 73
     4
 40
7.5
 49
5.0
 49
-1.25
 49
0.0
 49
-1.25
  0
ENDTAB
  0
TABLE
  2
LAYER
 70
     9
  0
LAYER
  2
0
 70
     0
 62
     7
  6
CONTINUOUS
  0
LAYER
  2
LC-INFO-1-2-MM-A3-0
 70
     1
 62
    -1
  6
CONTINUOUS
  0
LAYER
  2
LC-003-005-----0
 70
     0
 62
     2
  6
CONTINUOUS
  0
LAYER
  2
LC-005-003-MTH-0
 70
     0
 62
     2
  6
CONTINUOUS
  0
LAYER
  2
LC-006-003-MTG-0
 70
     0
 62
     2
  6
CONTINUOUS
  0
LAYER
  2
LC-004-003-----0
 70
     0
 62
     2
  6
CONTINUOUS
  0
LAYER
  2
LC-001-002-----0
 70
     0
 62
     2
  6
DASHDOT
  0
LAYER
  2
LC-002-002-RND-0
 70
     0
 62
     1
  6
CONTINUOUS
  0
LAYER
  2
LC-000
 70
     0
 62
     7
  6
CONTINUOUS
  0
ENDTAB
  0
TABLE
  2
STYLE
 70
     4
  0
STYLE
  2
STANDARD
 70
     0
 40
0.0
 41
1.0
 50
0.0
 71
     0
 42
0.0
  3
txt
  4

  0
STYLE
  2
LC-STANDARD
 70
    64
 40
0.0
 41
1.0
 50
0.0
 71
     0
 42
3.5
  3
MONOTXT
  4

  0
STYLE
  2
LC-TXTSTYLE-150-400-0-0-D2
 70
    64
 40
0.0
 41
1.0
 50
15.0
 71
     0
 42
3.5
  3
MONOTXT
  4

  0
STYLE
  2
LC-TXTSTYLE-150-400-0-0-D3
 70
    64
 40
0.0
 41
1.0
 50
15.0
 71
     0
 42
3.5
  3
LC-STANDARD
  4

  0
ENDTAB
  0
TABLE
  2
VIEW
 70
     0
  0
ENDTAB
  0
TABLE
  2
UCS
 70
     0
  0
ENDTAB
  0
TABLE
  2
APPID
 70
     1
  0
APPID
  2
ACAD
 70
     0
  0
ENDTAB
  0
TABLE
  2
DIMSTYLE
 70
     3
  0
DIMSTYLE
  2
STANDARD
 70
     0
  3

  4

  5

  6

  7

 40
1.0
 41
0.18
 42
0.0625
 43
0.38
 44
0.18
 45
0.0
 46
0.0
 47
0.0
 48
0.0
 71
     0
 72
     0
 73
     1
 74
     1
 75
     0
 76
     0
 77
     0
 78
     0
140
0.18
141
0.09
142
0.0
143
25.4
144
1.0
145
0.0
146
1.0
147
0.09
170
     0
171
     2
172
     0
173
     0
174
     0
175
     0
176
     0
177
     0
178
     0
  0
DIMSTYLE
  2
LC-STANDARD
 70
     0
  3

  4

  5

  6

  7

 40
1.0
 41
3.5
 42
0.0
 43
7.5
 44
1.8
 45
0.0
 46
0.0
 47
0.0
 48
0.0
 71
     0
 72
     0
 73
     0
 74
     0
 75
     0
 76
     0
 77
     1
 78
     8
140
3.5
141
0.0
142
0.0
143
25.4
144
1.0
145
0.0
146
0.71
147
1.5
170
     0
171
     2
172
     1
173
     0
174
     0
175
     0
176
     0
177
     0
178
     3
  0
DIMSTYLE
  2
LC-DIM-L-0090-02-02
 70
     0
  3

  4

  5

  6

  7

 40
2.0
 41
3.5
 42
0.0
 43
7.5
 44
1.8
 45
0.0
 46
0.0
 47
0.0
 48
0.0
 71
     0
 72
     0
 73
     0
 74
     0
 75
     0
 76
     0
 77
     1
 78
     8
140
9.0
141
0.0
142
0.0
143
25.4
144
1.0
145
0.0
146
0.71
147
1.5
170
     0
171
     2
172
     0
173
     0
174
     0
175
     0
176
     2
177
     2
178
     6
  0
ENDTAB
  0
ENDSEC
  0
SECTION
  2
BLOCKS
  0
BLOCK
  8
0
  5
23
  2
*X0
 70
    65
 10
302.709958
 20
329.418253
 30
0.0
  3
*X0
  0
LINE
  8
LC-003-005-----0
  6
CONTINUOUS
  5
25
 10
306.083729
 20
329.418253
 30
0.0
 11
306.709958
 21
330.044481
 31
0.0
  0
LINE
  8
LC-003-005-----0
  6
CONTINUOUS
  5
26
 10
303.962408
 20
329.418253
 30
0.0
 11
306.709958
 21
332.165802
 31
0.0
  0
LINE
  8
LC-003-005-----0
  6
CONTINUOUS
  5
27
 10
302.709958
 20
330.287122
 30
0.0
 11
304.341088
 21
331.918253
 31
0.0
  0
LINE
  8
LC-003-005-----0
  6
CONTINUOUS
  5
28
 10
305.209958
 20
332.787122
 30
0.0
 11
306.709958
 21
334.287122
 31
0.0
  0
LINE
  8
LC-003-005-----0
  6
CONTINUOUS
  5
29
 10
305.209958
 20
334.908442
 30
0.0
 11
306.709958
 21
336.408442
 31
0.0
  0
LINE
  8
LC-003-005-----0
  6
CONTINUOUS
  5
2A
 10
305.209958
 20
337.029763
 30
0.0
 11
306.709958
 21
338.529763
 31
0.0
  0
LINE
  8
LC-003-005-----0
  6
CONTINUOUS
  5
2B
 10
305.209958
 20
339.151083
 30
0.0
 11
306.709958
 21
340.651083
 31
0.0
  0
LINE
  8
LC-003-005-----0
  6
CONTINUOUS
  5
2C
 10
307.477127
 20
341.418253
 30
0.0
 11
308.209958
 21
342.151083
 31
0.0
  0
LINE
  8
LC-003-005-----0
  6
CONTINUOUS
  5
2D
 10
305.209958
 20
341.272404
 30
0.0
 11
308.209958
 21
344.272404
 31
0.0
  0
LINE
  8
LC-003-005-----0
  6
CONTINUOUS
  5
2E
 10
305.209958
 20
343.393724
 30
0.0
 11
367.13639
 21
405.320157
 31
0.0
  0
LINE
  8
LC-003-005-----0
  6
CONTINUOUS
  5
2F
 10
305.209958
 20
345.515044
 30
0.0
 11
369.106517
 21
409.411604
 31
0.0
  0
LINE
  8
LC-003-005-----0
  6
CONTINUOUS
  5
30
 10
365.583766
 20
408.010172
 30
0.0
 11
369.209958
 21
411.636365
 31
0.0
  0
LINE
  8
LC-003-005-----0
  6
CONTINUOUS
  5
31
 10
366.209958
 20
410.757685
 30
0.0
 11
369.209958
 21
413.757685
 31
0.0
  0
LINE
  8
LC-003-005-----0
  6
CONTINUOUS
  5
32
 10
366.209958
 20
412.879005
 30
0.0
 11
369.209958
 21
415.879005
 31
0.0
  0
LINE
  8
LC-003-005-----0
  6
CONTINUOUS
  5
33
 10
366.209958
 20
415.000326
 30
0.0
 11
369.209958
 21
418.000326
 31
0.0
  0
LINE
  8
LC-003-005-----0
  6
CONTINUOUS
  5
34
 10
366.209958
 20
417.121646
 30
0.0
 11
369.209958
 21
420.121646
 31
0.0
  0
LINE
  8
LC-003-005-----0
  6
CONTINUOUS
  5
35
 10
366.209958
 20
419.242966
 30
0.0
 11
369.209958
 21
422.242966
 31
0.0
  0
LINE
  8
LC-003-005-----0
  6
CONTINUOUS
  5
36
 10
366.209958
 20
421.364287
 30
0.0
 11
369.209958
 21
424.364287
 31
0.0
  0
LINE
  8
LC-003-005-----0
  6
CONTINUOUS
  5
37
 10
366.209958
 20
423.485607
 30
0.0
 11
369.209958
 21
426.485607
 31
0.0
  0
LINE
  8
LC-003-005-----0
  6
CONTINUOUS
  5
38
 10
366.209958
 20
425.606927
 30
0.0
 11
369.209958
 21
428.606927
 31
0.0
  0
LINE
  8
LC-003-005-----0
  6
CONTINUOUS
  5
39
 10
366.209958
 20
427.728248
 30
0.0
 11
369.209958
 21
430.728248
 31
0.0
  0
LINE
  8
LC-003-005-----0
  6
CONTINUOUS
  5
3A
 10
366.209958
 20
429.849568
 30
0.0
 11
369.209958
 21
432.849568
 31
0.0
  0
LINE
  8
LC-003-005-----0
  6
CONTINUOUS
  5
3B
 10
366.209958
 20
431.970888
 30
0.0
 11
369.209958
 21
434.970888
 31
0.0
  0
LINE
  8
LC-003-005-----0
  6
CONTINUOUS
  5
3C
 10
366.209958
 20
434.092209
 30
0.0
 11
369.209958
 21
437.092209
 31
0.0
  0
LINE
  8
LC-003-005-----0
  6
CONTINUOUS
  5
3D
 10
366.209958
 20
436.213529
 30
0.0
 11
369.209958
 21
439.213529
 31
0.0
  0
LINE
  8
LC-003-005-----0
  6
CONTINUOUS
  5
3E
 10
366.209958
 20
438.334849
 30
0.0
 11
368.293361
 21
440.418253
 31
0.0
  0
ENDBLK
  8
0
  5
3F
  0
BLOCK
  8
0
  5
41
  2
*X1
 70
    65
 10
306.709958
 20
329.418253
 30
0.0
  3
*X1
  0
LINE
  8
LC-003-005-----0
  6
CONTINUOUS
  5
42
 10
306.709958
 20
330.044481
 30
0.0
 11
308.209958
 21
331.544481
 31
0.0
  0
LINE
  8
LC-003-005-----0
  6
CONTINUOUS
  5
43
 10
306.709958
 20
332.165802
 30
0.0
 11
308.209958
 21
333.665802
 31
0.0
  0
LINE
  8
LC-003-005-----0
  6
CONTINUOUS
  5
44
 10
306.709958
 20
334.287122
 30
0.0
 11
308.209958
 21
335.787122
 31
0.0
  0
LINE
  8
LC-003-005-----0
  6
CONTINUOUS
  5
45
 10
306.709958
 20
336.408442
 30
0.0
 11
308.209958
 21
337.908442
 31
0.0
  0
LINE
  8
LC-003-005-----0
  6
CONTINUOUS
  5
46
 10
306.709958
 20
338.529763
 30
0.0
 11
308.154203
 21
339.974008
 31
0.0
  0
LINE
  8
LC-003-005-----0
  6
CONTINUOUS
  5
47
 10
306.709958
 20
340.651083
 30
0.0
 11
307.093542
 21
341.034668
 31
0.0
  0
ENDBLK
  8
0
  5
48
  0
BLOCK
  8
0
  5
4A
  2
*X2
 70
    65
 10
199.209958
 20
329.418253
 30
0.0
  3
*X2
  0
LINE
  8
LC-003-005-----0
  6
CONTINUOUS
  5
4B
 10
263.657322
 20
329.418253
 30
0.0
 11
265.709958
 21
331.470888
 31
0.0
  0
LINE
  8
LC-003-005-----0
  6
CONTINUOUS
  5
4C
 10
261.709958
 20
329.592209
 30
0.0
 11
264.036002
 21
331.918253
 31
0.0
  0
LINE
  8
LC-003-005-----0
  6
CONTINUOUS
  5
4D
 10
261.709958
 20
331.713529
 30
0.0
 11
263.209958
 21
333.213529
 31
0.0
  0
LINE
  8
LC-003-005-----0
  6
CONTINUOUS
  5
4E
 10
261.709958
 20
333.834849
 30
0.0
 11
263.209958
 21
335.334849
 31
0.0
  0
LINE
  8
LC-003-005-----0
  6
CONTINUOUS
  5
4F
 10
261.709958
 20
335.95617
 30
0.0
 11
263.209958
 21
337.45617
 31
0.0
  0
LINE
  8
LC-003-005-----0
  6
CONTINUOUS
  5
50
 10
261.709958
 20
338.07749
 30
0.0
 11
263.209958
 21
339.57749
 31
0.0
  0
LINE
  8
LC-003-005-----0
  6
CONTINUOUS
  5
51
 10
261.709958
 20
340.19881
 30
0.0
 11
263.209958
 21
341.69881
 31
0.0
  0
LINE
  8
LC-003-005-----0
  6
CONTINUOUS
  5
52
 10
260.808079
 20
341.418253
 30
0.0
 11
263.209958
 21
343.820131
 31
0.0
  0
LINE
  8
LC-003-005-----0
  6
CONTINUOUS
  5
53
 10
260.209958
 20
342.941451
 30
0.0
 11
263.209958
 21
345.941451
 31
0.0
  0
LINE
  8
LC-003-005-----0
  6
CONTINUOUS
  5
54
 10
260.209958
 20
345.062771
 30
0.0
 11
262.507644
 21
347.360457
 31
0.0
  0
LINE
  8
LC-003-005-----0
  6
CONTINUOUS
  5
55
 10
259.334216
 20
346.30835
 30
0.0
 11
261.455607
 21
348.429741
 31
0.0
  0
LINE
  8
LC-003-005-----0
  6
CONTINUOUS
  5
56
 10
258.282179
 20
347.377634
 30
0.0
 11
260.40357
 21
349.499024
 31
0.0
  0
LINE
  8
LC-003-005-----0
  6
CONTINUOUS
  5
57
 10
257.230142
 20
348.446917
 30
0.0
 11
259.351533
 21
350.568308
 31
0.0
  0
LINE
  8
LC-003-005-----0
  6
CONTINUOUS
  5
58
 10
256.178105
 20
349.516201
 30
0.0
 11
258.299496
 21
351.637591
 31
0.0
  0
LINE
  8
LC-003-005-----0
  6
CONTINUOUS
  5
59
 10
255.126069
 20
350.585484
 30
0.0
 11
257.247459
 21
352.706874
 31
0.0
  0
LINE
  8
LC-003-005-----0
  6
CONTINUOUS
  5
5A
 10
254.074032
 20
351.654767
 30
0.0
 11
256.195422
 21
353.776158
 31
0.0
  0
LINE
  8
LC-003-005-----0
  6
CONTINUOUS
  5
5B
 10
253.021995
 20
352.724051
 30
0.0
 11
255.143385
 21
354.845441
 31
0.0
  0
LINE
  8
LC-003-005-----0
  6
CONTINUOUS
  5
5C
 10
251.969958
 20
353.793334
 30
0.0
 11
254.091348
 21
355.914725
 31
0.0
  0
LINE
  8
LC-003-005-----0
  6
CONTINUOUS
  5
5D
 10
250.917921
 20
354.862618
 30
0.0
 11
253.039311
 21
356.984008
 31
0.0
  0
LINE
  8
LC-003-005-----0
  6
CONTINUOUS
  5
5E
 10
249.865884
 20
355.931901
 30
0.0
 11
251.987274
 21
358.053292
 31
0.0
  0
LINE
  8
LC-003-005-----0
  6
CONTINUOUS
  5
5F
 10
248.813847
 20
357.001185
 30
0.0
 11
250.935238
 21
359.122575
 31
0.0
  0
LINE
  8
LC-003-005-----0
  6
CONTINUOUS
  5
60
 10
247.76181
 20
358.070468
 30
0.0
 11
249.883201
 21
360.191858
 31
0.0
  0
LINE
  8
LC-003-005-----0
  6
CONTINUOUS
  5
61
 10
246.709773
 20
359.139751
 30
0.0
 11
248.831164
 21
361.261142
 31
0.0
  0
LINE
  8
LC-003-005-----0
  6
CONTINUOUS
  5
62
 10
245.657736
 20
360.209035
 30
0.0
 11
247.779127
 21
362.330425
 31
0.0
  0
LINE
  8
LC-003-005-----0
  6
CONTINUOUS
  5
63
 10
244.605699
 20
361.278318
 30
0.0
 11
246.72709
 21
363.399709
 31
0.0
  0
LINE
  8
LC-003-005-----0
  6
CONTINUOUS
  5
64
 10
243.553662
 20
362.347602
 30
0.0
 11
245.675053
 21
364.468992
 31
0.0
  0
LINE
  8
LC-003-005-----0
  6
CONTINUOUS
  5
65
 10
242.501626
 20
363.416885
 30
0.0
 11
244.623016
 21
365.538276
 31
0.0
  0
LINE
  8
LC-003-005-----0
  6
CONTINUOUS
  5
66
 10
241.449589
 20
364.486169
 30
0.0
 11
243.570979
 21
366.607559
 31
0.0
  0
LINE
  8
LC-003-005-----0
  6
CONTINUOUS
  5
67
 10
240.397552
 20
365.555452
 30
0.0
 11
242.518942
 21
367.676842
 31
0.0
  0
LINE
  8
LC-003-005-----0
  6
CONTINUOUS
  5
68
 10
239.345515
 20
366.624735
 30
0.0
 11
241.466905
 21
368.746126
 31
0.0
  0
LINE
  8
LC-003-005-----0
  6
CONTINUOUS
  5
69
 10
238.293478
 20
367.694019
 30
0.0
 11
240.414868
 21
369.815409
 31
0.0
  0
LINE
  8
LC-003-005-----0
  6
CONTINUOUS
  5
6A
 10
237.241441
 20
368.763302
 30
0.0
 11
239.362831
 21
370.884693
 31
0.0
  0
LINE
  8
LC-003-005-----0
  6
CONTINUOUS
  5
6B
 10
236.189404
 20
369.832586
 30
0.0
 11
238.310794
 21
371.953976
 31
0.0
  0
LINE
  8
LC-003-005-----0
  6
CONTINUOUS
  5
6C
 10
235.137367
 20
370.901869
 30
0.0
 11
237.258758
 21
373.02326
 31
0.0
  0
LINE
  8
LC-003-005-----0
  6
CONTINUOUS
  5
6D
 10
234.08533
 20
371.971153
 30
0.0
 11
236.206721
 21
374.092543
 31
0.0
  0
LINE
  8
LC-003-005-----0
  6
CONTINUOUS
  5
6E
 10
233.033293
 20
373.040436
 30
0.0
 11
235.154684
 21
375.161826
 31
0.0
  0
LINE
  8
LC-003-005-----0
  6
CONTINUOUS
  5
6F
 10
231.981256
 20
374.109719
 30
0.0
 11
234.102647
 21
376.23111
 31
0.0
  0
LINE
  8
LC-003-005-----0
  6
CONTINUOUS
  5
70
 10
230.929219
 20
375.179003
 30
0.0
 11
233.05061
 21
377.300393
 31
0.0
  0
LINE
  8
LC-003-005-----0
  6
CONTINUOUS
  5
71
 10
229.877183
 20
376.248286
 30
0.0
 11
231.998573
 21
378.369677
 31
0.0
  0
LINE
  8
LC-003-005-----0
  6
CONTINUOUS
  5
72
 10
228.825146
 20
377.31757
 30
0.0
 11
230.946536
 21
379.43896
 31
0.0
  0
LINE
  8
LC-003-005-----0
  6
CONTINUOUS
  5
73
 10
227.773109
 20
378.386853
 30
0.0
 11
229.894499
 21
380.508244
 31
0.0
  0
LINE
  8
LC-003-005-----0
  6
CONTINUOUS
  5
74
 10
226.721072
 20
379.456137
 30
0.0
 11
228.842462
 21
381.577527
 31
0.0
  0
LINE
  8
LC-003-005-----0
  6
CONTINUOUS
  5
75
 10
225.669035
 20
380.52542
 30
0.0
 11
227.790425
 21
382.64681
 31
0.0
  0
LINE
  8
LC-003-005-----0
  6
CONTINUOUS
  5
76
 10
224.616998
 20
381.594703
 30
0.0
 11
226.738388
 21
383.716094
 31
0.0
  0
LINE
  8
LC-003-005-----0
  6
CONTINUOUS
  5
77
 10
223.564961
 20
382.663987
 30
0.0
 11
225.686351
 21
384.785377
 31
0.0
  0
LINE
  8
LC-003-005-----0
  6
CONTINUOUS
  5
78
 10
222.512924
 20
383.73327
 30
0.0
 11
224.634315
 21
385.854661
 31
0.0
  0
LINE
  8
LC-003-005-----0
  6
CONTINUOUS
  5
79
 10
221.460887
 20
384.802554
 30
0.0
 11
223.582278
 21
386.923944
 31
0.0
  0
LINE
  8
LC-003-005-----0
  6
CONTINUOUS
  5
7A
 10
220.40885
 20
385.871837
 30
0.0
 11
222.530241
 21
387.993228
 31
0.0
  0
LINE
  8
LC-003-005-----0
  6
CONTINUOUS
  5
7B
 10
219.356813
 20
386.94112
 30
0.0
 11
221.478204
 21
389.062511
 31
0.0
  0
LINE
  8
LC-003-005-----0
  6
CONTINUOUS
  5
7C
 10
218.304776
 20
388.010404
 30
0.0
 11
220.426167
 21
390.131794
 31
0.0
  0
LINE
  8
LC-003-005-----0
  6
CONTINUOUS
  5
7D
 10
217.25274
 20
389.079687
 30
0.0
 11
219.37413
 21
391.201078
 31
0.0
  0
LINE
  8
LC-003-005-----0
  6
CONTINUOUS
  5
7E
 10
216.200703
 20
390.148971
 30
0.0
 11
218.322093
 21
392.270361
 31
0.0
  0
LINE
  8
LC-003-005-----0
  6
CONTINUOUS
  5
7F
 10
215.148666
 20
391.218254
 30
0.0
 11
217.270056
 21
393.339645
 31
0.0
  0
LINE
  8
LC-003-005-----0
  6
CONTINUOUS
  5
80
 10
214.096629
 20
392.287538
 30
0.0
 11
216.218019
 21
394.408928
 31
0.0
  0
LINE
  8
LC-003-005-----0
  6
CONTINUOUS
  5
81
 10
213.044592
 20
393.356821
 30
0.0
 11
215.165982
 21
395.478211
 31
0.0
  0
LINE
  8
LC-003-005-----0
  6
CONTINUOUS
  5
82
 10
211.992555
 20
394.426104
 30
0.0
 11
214.113945
 21
396.547495
 31
0.0
  0
LINE
  8
LC-003-005-----0
  6
CONTINUOUS
  5
83
 10
210.940518
 20
395.495388
 30
0.0
 11
213.061908
 21
397.616778
 31
0.0
  0
LINE
  8
LC-003-005-----0
  6
CONTINUOUS
  5
84
 10
209.888481
 20
396.564671
 30
0.0
 11
212.009872
 21
398.686062
 31
0.0
  0
LINE
  8
LC-003-005-----0
  6
CONTINUOUS
  5
85
 10
208.836444
 20
397.633955
 30
0.0
 11
210.957835
 21
399.755345
 31
0.0
  0
LINE
  8
LC-003-005-----0
  6
CONTINUOUS
  5
86
 10
207.784407
 20
398.703238
 30
0.0
 11
209.905798
 21
400.824629
 31
0.0
  0
LINE
  8
LC-003-005-----0
  6
CONTINUOUS
  5
87
 10
206.73237
 20
399.772522
 30
0.0
 11
208.853761
 21
401.893912
 31
0.0
  0
LINE
  8
LC-003-005-----0
  6
CONTINUOUS
  5
88
 10
205.680333
 20
400.841805
 30
0.0
 11
207.801724
 21
402.963195
 31
0.0
  0
LINE
  8
LC-003-005-----0
  6
CONTINUOUS
  5
89
 10
204.628296
 20
401.911088
 30
0.0
 11
206.749687
 21
404.032479
 31
0.0
  0
LINE
  8
LC-003-005-----0
  6
CONTINUOUS
  5
8A
 10
203.57626
 20
402.980372
 30
0.0
 11
205.69765
 21
405.101762
 31
0.0
  0
LINE
  8
LC-003-005-----0
  6
CONTINUOUS
  5
8B
 10
202.524223
 20
404.049655
 30
0.0
 11
204.645613
 21
406.171046
 31
0.0
  0
LINE
  8
LC-003-005-----0
  6
CONTINUOUS
  5
8C
 10
201.472297
 20
405.11905
 30
0.0
 11
203.593576
 21
407.240329
 31
0.0
  0
LINE
  8
LC-003-005-----0
  6
CONTINUOUS
  5
8D
 10
200.527534
 20
406.295607
 30
0.0
 11
202.541539
 21
408.309613
 31
0.0
  0
LINE
  8
LC-003-005-----0
  6
CONTINUOUS
  5
8E
 10
199.796865
 20
407.686259
 30
0.0
 11
202.209958
 21
410.099351
 31
0.0
  0
LINE
  8
LC-003-005-----0
  6
CONTINUOUS
  5
8F
 10
199.325936
 20
409.33665
 30
0.0
 11
202.209958
 21
412.220672
 31
0.0
  0
LINE
  8
LC-003-005-----0
  6
CONTINUOUS
  5
90
 10
199.209958
 20
411.341992
 30
0.0
 11
202.209958
 21
414.341992
 31
0.0
  0
LINE
  8
LC-003-005-----0
  6
CONTINUOUS
  5
91
 10
199.209958
 20
413.463312
 30
0.0
 11
202.209958
 21
416.463312
 31
0.0
  0
LINE
  8
LC-003-005-----0
  6
CONTINUOUS
  5
92
 10
199.209958
 20
415.584633
 30
0.0
 11
202.209958
 21
418.584633
 31
0.0
  0
LINE
  8
LC-003-005-----0
  6
CONTINUOUS
  5
93
 10
199.209958
 20
417.705953
 30
0.0
 11
202.209958
 21
420.705953
 31
0.0
  0
LINE
  8
LC-003-005-----0
  6
CONTINUOUS
  5
94
 10
199.209958
 20
419.827273
 30
0.0
 11
202.209958
 21
422.827273
 31
0.0
  0
LINE
  8
LC-003-005-----0
  6
CONTINUOUS
  5
95
 10
199.209958
 20
421.948594
 30
0.0
 11
202.209958
 21
424.948594
 31
0.0
  0
LINE
  8
LC-003-005-----0
  6
CONTINUOUS
  5
96
 10
199.209958
 20
424.069914
 30
0.0
 11
202.209958
 21
427.069914
 31
0.0
  0
LINE
  8
LC-003-005-----0
  6
CONTINUOUS
  5
97
 10
199.209958
 20
426.191234
 30
0.0
 11
202.209958
 21
429.191234
 31
0.0
  0
LINE
  8
LC-003-005-----0
  6
CONTINUOUS
  5
98
 10
199.209958
 20
428.312555
 30
0.0
 11
202.209958
 21
431.312555
 31
0.0
  0
LINE
  8
LC-003-005-----0
  6
CONTINUOUS
  5
99
 10
199.209958
 20
430.433875
 30
0.0
 11
202.209958
 21
433.433875
 31
0.0
  0
LINE
  8
LC-003-005-----0
  6
CONTINUOUS
  5
9A
 10
199.209958
 20
432.555195
 30
0.0
 11
202.209958
 21
435.555195
 31
0.0
  0
LINE
  8
LC-003-005-----0
  6
CONTINUOUS
  5
9B
 10
199.209958
 20
434.676516
 30
0.0
 11
202.209958
 21
437.676516
 31
0.0
  0
LINE
  8
LC-003-005-----0
  6
CONTINUOUS
  5
9C
 10
199.209958
 20
436.797836
 30
0.0
 11
202.209958
 21
439.797836
 31
0.0
  0
LINE
  8
LC-003-005-----0
  6
CONTINUOUS
  5
9D
 10
199.209958
 20
438.919156
 30
0.0
 11
200.709054
 21
440.418253
 31
0.0
  0
ENDBLK
  8
0
  5
9E
  0
BLOCK
  8
0
  5
A0
  2
*X3
 70
    65
 10
260.209958
 20
329.418253
 30
0.0
  3
*X3
  0
LINE
  8
LC-003-005-----0
  6
CONTINUOUS
  5
A1
 10
261.62298
 20
329.505231
 30
0.0
 11
261.709958
 21
329.592209
 31
0.0
  0
LINE
  8
LC-003-005-----0
  6
CONTINUOUS
  5
A2
 10
260.562319
 20
330.565891
 30
0.0
 11
261.709958
 21
331.713529
 31
0.0
  0
LINE
  8
LC-003-005-----0
  6
CONTINUOUS
  5
A3
 10
260.209958
 20
332.334849
 30
0.0
 11
261.709958
 21
333.834849
 31
0.0
  0
LINE
  8
LC-003-005-----0
  6
CONTINUOUS
  5
A4
 10
260.209958
 20
334.45617
 30
0.0
 11
261.709958
 21
335.95617
 31
0.0
  0
LINE
  8
LC-003-005-----0
  6
CONTINUOUS
  5
A5
 10
260.209958
 20
336.57749
 30
0.0
 11
261.709958
 21
338.07749
 31
0.0
  0
LINE
  8
LC-003-005-----0
  6
CONTINUOUS
  5
A6
 10
260.209958
 20
338.69881
 30
0.0
 11
261.709958
 21
340.19881
 31
0.0
  0
ENDBLK
  8
0
  5
A7
  0
BLOCK
  8
0
  5
A9
  2
*X4
 70
    65
 10
280.209958
 20
329.418253
 30
0.0
  3
*X4
  0
LINE
  8
LC-003-005-----0
  6
CONTINUOUS
  5
AA
 10
286.991846
 20
329.418253
 30
0.0
 11
288.209958
 21
330.636365
 31
0.0
  0
LINE
  8
LC-003-005-----0
  6
CONTINUOUS
  5
AB
 10
284.870525
 20
329.418253
 30
0.0
 11
287.370525
 21
331.918253
 31
0.0
  0
LINE
  8
LC-003-005-----0
  6
CONTINUOUS
  5
AC
 10
282.749205
 20
329.418253
 30
0.0
 11
285.249205
 21
331.918253
 31
0.0
  0
LINE
  8
LC-003-005-----0
  6
CONTINUOUS
  5
AD
 10
280.627885
 20
329.418253
 30
0.0
 11
283.127885
 21
331.918253
 31
0.0
  0
LINE
  8
LC-003-005-----0
  6
CONTINUOUS
  5
AE
 10
280.209958
 20
331.121646
 30
0.0
 11
281.006564
 21
331.918253
 31
0.0
  0
ENDBLK
  8
0
  5
AF
  0
BLOCK
  8
0
  5
B1
  2
*X5
 70
    65
 10
261.709958
 20
326.918253
 30
0.0
  3
*X5
  0
LINE
  8
LC-003-005-----0
  6
CONTINUOUS
  5
B2
 10
261.709958
 20
328.017098
 30
0.0
 11
262.808803
 21
326.918253
 31
0.0
  0
LINE
  8
LC-003-005-----0
  6
CONTINUOUS
  5
B3
 10
262.930123
 20
328.918253
 30
0.0
 11
264.930123
 21
326.918253
 31
0.0
  0
LINE
  8
LC-003-005-----0
  6
CONTINUOUS
  5
B4
 10
265.051444
 20
328.918253
 30
0.0
 11
266.709958
 21
327.259739
 31
0.0
  0
ENDBLK
  8
0
  5
B5
  0
BLOCK
  8
0
  5
B7
  2
*X6
 70
    65
 10
301.709958
 20
326.918253
 30
0.0
  3
*X6
  0
LINE
  8
LC-003-005-----0
  6
CONTINUOUS
  5
B8
 10
301.709958
 20
328.322184
 30
0.0
 11
303.11389
 21
326.918253
 31
0.0
  0
LINE
  8
LC-003-005-----0
  6
CONTINUOUS
  5
B9
 10
303.23521
 20
328.918253
 30
0.0
 11
305.23521
 21
326.918253
 31
0.0
  0
LINE
  8
LC-003-005-----0
  6
CONTINUOUS
  5
BA
 10
305.35653
 20
328.918253
 30
0.0
 11
306.709958
 21
327.564825
 31
0.0
  0
ENDBLK
  8
0
  5
BB
  0
BLOCK
  8
0
  5
BD
  2
*X7
 70
    65
 10
256.959958
 20
320.418253
 30
0.0
  3
*X7
  0
LINE
  8
LC-003-005-----0
  6
CONTINUOUS
  5
BE
 10
257.959958
 20
323.281816
 30
0.0
 11
260.823522
 21
320.418253
 31
0.0
  0
LINE
  8
LC-003-005-----0
  6
CONTINUOUS
  5
BF
 10
257.959958
 20
325.403137
 30
0.0
 11
259.709958
 21
323.653137
 31
0.0
  0
LINE
  8
LC-003-005-----0
  6
CONTINUOUS
  5
C0
 10
259.944842
 20
323.418253
 30
0.0
 11
262.553276
 21
320.809818
 31
0.0
  0
LINE
  8
LC-003-005-----0
  6
CONTINUOUS
  5
C1
 10
257.959958
 20
327.524457
 30
0.0
 11
259.709958
 21
325.774457
 31
0.0
  0
LINE
  8
LC-003-005-----0
  6
CONTINUOUS
  5
C2
 10
262.066162
 20
323.418253
 30
0.0
 11
263.520597
 21
321.963818
 31
0.0
  0
LINE
  8
LC-003-005-----0
  6
CONTINUOUS
  5
C3
 10
257.959958
 20
329.645778
 30
0.0
 11
259.709958
 21
327.895778
 31
0.0
  0
LINE
  8
LC-003-005-----0
  6
CONTINUOUS
  5
C4
 10
257.959958
 20
331.767098
 30
0.0
 11
259.709958
 21
330.017098
 31
0.0
  0
LINE
  8
LC-003-005-----0
  6
CONTINUOUS
  5
C5
 10
257.959958
 20
333.888418
 30
0.0
 11
259.709958
 21
332.138418
 31
0.0
  0
LINE
  8
LC-003-005-----0
  6
CONTINUOUS
  5
C6
 10
256.959958
 20
337.009739
 30
0.0
 11
257.551444
 21
336.418253
 31
0.0
  0
LINE
  8
LC-003-005-----0
  6
CONTINUOUS
  5
C7
 10
257.959958
 20
336.009739
 30
0.0
 11
259.709958
 21
334.259739
 31
0.0
  0
LINE
  8
LC-003-005-----0
  6
CONTINUOUS
  5
C8
 10
258.672764
 20
337.418253
 30
0.0
 11
259.709958
 21
336.381059
 31
0.0
  0
ENDBLK
  8
0
  5
C9
  0
BLOCK
  8
0
  5
CB
  2
*X8
 70
    65
 10
259.709958
 20
323.418253
 30
0.0
  3
*X8
  0
LINE
  8
LC-003-005-----0
  6
CONTINUOUS
  5
CC
 10
259.709958
 20
323.653137
 30
0.0
 11
259.8274
 21
323.535695
 31
0.0
  0
LINE
  8
LC-003-005-----0
  6
CONTINUOUS
  5
CD
 10
259.709958
 20
325.774457
 30
0.0
 11
260.88806
 21
324.596355
 31
0.0
  0
LINE
  8
LC-003-005-----0
  6
CONTINUOUS
  5
CE
 10
259.709958
 20
327.895778
 30
0.0
 11
261.209958
 21
326.395778
 31
0.0
  0
LINE
  8
LC-003-005-----0
  6
CONTINUOUS
  5
CF
 10
259.709958
 20
330.017098
 30
0.0
 11
261.209958
 21
328.517098
 31
0.0
  0
LINE
  8
LC-003-005-----0
  6
CONTINUOUS
  5
D0
 10
259.709958
 20
332.138418
 30
0.0
 11
260.209958
 21
331.638418
 31
0.0
  0
LINE
  8
LC-003-005-----0
  6
CONTINUOUS
  5
D1
 10
259.709958
 20
334.259739
 30
0.0
 11
260.209958
 21
333.759739
 31
0.0
  0
LINE
  8
LC-003-005-----0
  6
CONTINUOUS
  5
D2
 10
259.709958
 20
336.381059
 30
0.0
 11
260.209958
 21
335.881059
 31
0.0
  0
ENDBLK
  8
0
  5
D3
  0
BLOCK
  8
0
  5
D5
  2
*X9
 70
    65
 10
304.709958
 20
320.418253
 30
0.0
  3
*X9
  0
LINE
  8
LC-003-005-----0
  6
CONTINUOUS
  5
D6
 10
304.724384
 20
323.186438
 30
0.0
 11
307.492569
 21
320.418253
 31
0.0
  0
LINE
  8
LC-003-005-----0
  6
CONTINUOUS
  5
D7
 10
306.61389
 20
323.418253
 30
0.0
 11
309.253327
 21
320.778815
 31
0.0
  0
LINE
  8
LC-003-005-----0
  6
CONTINUOUS
  5
D8
 10
307.209958
 20
324.943505
 30
0.0
 11
310.246351
 21
321.907112
 31
0.0
  0
LINE
  8
LC-003-005-----0
  6
CONTINUOUS
  5
D9
 10
307.209958
 20
327.064825
 30
0.0
 11
310.459958
 21
323.814825
 31
0.0
  0
LINE
  8
LC-003-005-----0
  6
CONTINUOUS
  5
DA
 10
307.209958
 20
329.186145
 30
0.0
 11
310.459958
 21
325.936145
 31
0.0
  0
LINE
  8
LC-003-005-----0
  6
CONTINUOUS
  5
DB
 10
307.904564
 20
330.612859
 30
0.0
 11
310.459958
 21
328.057466
 31
0.0
  0
LINE
  8
LC-003-005-----0
  6
CONTINUOUS
  5
DC
 10
308.209958
 20
332.428786
 30
0.0
 11
310.459958
 21
330.178786
 31
0.0
  0
LINE
  8
LC-003-005-----0
  6
CONTINUOUS
  5
DD
 10
308.209958
 20
334.550106
 30
0.0
 11
310.459958
 21
332.300106
 31
0.0
  0
LINE
  8
LC-003-005-----0
  6
CONTINUOUS
  5
DE
 10
308.209958
 20
336.671427
 30
0.0
 11
310.459958
 21
334.421427
 31
0.0
  0
LINE
  8
LC-003-005-----0
  6
CONTINUOUS
  5
DF
 10
309.584452
 20
337.418253
 30
0.0
 11
310.584452
 21
336.418253
 31
0.0
  0
ENDBLK
  8
0
  5
E0
  0
BLOCK
  8
0
  5
E2
  2
*D10
 70
    65
 10
0.0
 20
0.0
 30
0.0
  3
*D10
  0
LINE
  8
LC-005-003-MTH-0
  6
CONTINUOUS
  5
E4
 10
414.209958
 20
330.418253
 30
0.0
 11
414.209958
 21
420.8
 31
0.0
  0
LINE
  8
LC-005-003-MTH-0
  6
CONTINUOUS
  5
E5
 10
584.209958
 20
330.418253
 30
0.0
 11
584.209958
 21
420.8
 31
0.0
  0
LINE
  8
LC-006-003-MTG-0
  6
CONTINUOUS
  5
E7
 10
414.209958
 20
410.0
 30
0.0
 11
584.209958
 21
410.0
 31
0.0
  0
LINE
  8
LC-004-003-----0
  6
CONTINUOUS
  5
E9
 10
432.055965
 20
412.349471
 30
0.0
 11
414.209958
 21
410.0
 31
0.0
  0
LINE
  8
LC-004-003-----0
  6
CONTINUOUS
  5
EA
 10
414.209958
 20
410.0
 30
0.0
 11
432.055965
 21
407.650529
 31
0.0
  0
LINE
  8
LC-004-003-----0
  6
CONTINUOUS
  5
EB
 10
432.055965
 20
407.650529
 30
0.0
 11
432.055965
 21
412.349471
 31
0.0
  0
LINE
  8
LC-004-003-----0
  6
CONTINUOUS
  5
EC
 10
432.096003
 20
411.738609
 30
0.0
 11
418.889958
 21
410.0
 31
0.0
  0
LINE
  8
LC-004-003-----0
  6
CONTINUOUS
  5
ED
 10
418.889958
 20
410.0
 30
0.0
 11
432.096003
 21
408.261391
 31
0.0
  0
LINE
  8
LC-004-003-----0
  6
CONTINUOUS
  5
EE
 10
432.136041
 20
411.127746
 30
0.0
 11
423.569958
 21
410.0
 31
0.0
  0
LINE
  8
LC-004-003-----0
  6
CONTINUOUS
  5
EF
 10
423.569958
 20
410.0
 30
0.0
 11
432.136041
 21
408.872254
 31
0.0
  0
LINE
  8
LC-004-003-----0
  6
CONTINUOUS
  5
F0
 10
432.176079
 20
410.516884
 30
0.0
 11
428.249958
 21
410.0
 31
0.0
  0
LINE
  8
LC-004-003-----0
  6
CONTINUOUS
  5
F1
 10
428.249958
 20
410.0
 30
0.0
 11
432.176079
 21
409.483116
 31
0.0
  0
LINE
  8
LC-004-003-----0
  6
CONTINUOUS
  5
F2
 10
566.36395
 20
407.650529
 30
0.0
 11
584.209958
 21
410.0
 31
0.0
  0
LINE
  8
LC-004-003-----0
  6
CONTINUOUS
  5
F3
 10
584.209958
 20
410.0
 30
0.0
 11
566.36395
 21
412.349471
 31
0.0
  0
LINE
  8
LC-004-003-----0
  6
CONTINUOUS
  5
F4
 10
566.36395
 20
412.349471
 30
0.0
 11
566.36395
 21
407.650529
 31
0.0
  0
LINE
  8
LC-004-003-----0
  6
CONTINUOUS
  5
F5
 10
566.323912
 20
408.261391
 30
0.0
 11
579.529958
 21
410.0
 31
0.0
  0
LINE
  8
LC-004-003-----0
  6
CONTINUOUS
  5
F6
 10
579.529958
 20
410.0
 30
0.0
 11
566.323912
 21
411.738609
 31
0.0
  0
LINE
  8
LC-004-003-----0
  6
CONTINUOUS
  5
F7
 10
566.283874
 20
408.872254
 30
0.0
 11
574.849958
 21
410.0
 31
0.0
  0
LINE
  8
LC-004-003-----0
  6
CONTINUOUS
  5
F8
 10
574.849958
 20
410.0
 30
0.0
 11
566.283874
 21
411.127746
 31
0.0
  0
LINE
  8
LC-004-003-----0
  6
CONTINUOUS
  5
F9
 10
566.243836
 20
409.483116
 30
0.0
 11
570.169958
 21
410.0
 31
0.0
  0
LINE
  8
LC-004-003-----0
  6
CONTINUOUS
  5
FA
 10
570.169958
 20
410.0
 30
0.0
 11
566.243836
 21
410.516884
 31
0.0
  0
TEXT
  8
LC-004-003-----0
  6
CONTINUOUS
 62
     6
  5
FC
 10
482.871345
 20
420.431999
 30
0.0
 40
18.0
  1
170
 41
0.9
 51
15.0
  7
LC-TXTSTYLE-150-400-0-0-D0
 72
     1
 11
502.005203
 21
420.431999
 31
0.0
  0
ENDBLK
  8
0
  5
FD
  0
BLOCK
  8
0
  5
FF
  2
*D11
 70
    65
 10
0.0
 20
0.0
 30
0.0
  3
*D11
  0
LINE
  8
LC-005-003-MTH-0
  6
CONTINUOUS
  5
100
 10
538.209958
 20
284.418253
 30
0.0
 11
650.8
 21
284.418253
 31
0.0
  0
LINE
  8
LC-005-003-MTH-0
  6
CONTINUOUS
  5
101
 10
538.209958
 20
376.418253
 30
0.0
 11
650.8
 21
376.418253
 31
0.0
  0
LINE
  8
LC-006-003-MTG-0
  6
CONTINUOUS
  5
102
 10
640.0
 20
284.418253
 30
0.0
 11
640.0
 21
376.418253
 31
0.0
  0
LINE
  8
LC-004-003-----0
  6
CONTINUOUS
  5
103
 10
637.650529
 20
302.26426
 30
0.0
 11
640.0
 21
284.418253
 31
0.0
  0
LINE
  8
LC-004-003-----0
  6
CONTINUOUS
  5
104
 10
640.0
 20
284.418253
 30
0.0
 11
642.349471
 21
302.26426
 31
0.0
  0
LINE
  8
LC-004-003-----0
  6
CONTINUOUS
  5
105
 10
642.349471
 20
302.26426
 30
0.0
 11
637.650529
 21
302.26426
 31
0.0
  0
LINE
  8
LC-004-003-----0
  6
CONTINUOUS
  5
106
 10
638.261391
 20
302.304298
 30
0.0
 11
640.0
 21
289.098253
 31
0.0
  0
LINE
  8
LC-004-003-----0
  6
CONTINUOUS
  5
107
 10
640.0
 20
289.098253
 30
0.0
 11
641.738609
 21
302.304298
 31
0.0
  0
LINE
  8
LC-004-003-----0
  6
CONTINUOUS
  5
108
 10
638.872254
 20
302.344336
 30
0.0
 11
640.0
 21
293.778253
 31
0.0
  0
LINE
  8
LC-004-003-----0
  6
CONTINUOUS
  5
109
 10
640.0
 20
293.778253
 30
0.0
 11
641.127746
 21
302.344336
 31
0.0
  0
LINE
  8
LC-004-003-----0
  6
CONTINUOUS
  5
10A
 10
639.483116
 20
302.384374
 30
0.0
 11
640.0
 21
298.458253
 31
0.0
  0
LINE
  8
LC-004-003-----0
  6
CONTINUOUS
  5
10B
 10
640.0
 20
298.458253
 30
0.0
 11
640.516884
 21
302.384374
 31
0.0
  0
LINE
  8
LC-004-003-----0
  6
CONTINUOUS
  5
10C
 10
642.349471
 20
358.572245
 30
0.0
 11
640.0
 21
376.418253
 31
0.0
  0
LINE
  8
LC-004-003-----0
  6
CONTINUOUS
  5
10D
 10
640.0
 20
376.418253
 30
0.0
 11
637.650529
 21
358.572245
 31
0.0
  0
LINE
  8
LC-004-003-----0
  6
CONTINUOUS
  5
10E
 10
637.650529
 20
358.572245
 30
0.0
 11
642.349471
 21
358.572245
 31
0.0
  0
LINE
  8
LC-004-003-----0
  6
CONTINUOUS
  5
10F
 10
641.738609
 20
358.532207
 30
0.0
 11
640.0
 21
371.738253
 31
0.0
  0
LINE
  8
LC-004-003-----0
  6
CONTINUOUS
  5
110
 10
640.0
 20
371.738253
 30
0.0
 11
638.261391
 21
358.532207
 31
0.0
  0
LINE
  8
LC-004-003-----0
  6
CONTINUOUS
  5
111
 10
641.127746
 20
358.492169
 30
0.0
 11
640.0
 21
367.058253
 31
0.0
  0
LINE
  8
LC-004-003-----0
  6
CONTINUOUS
  5
112
 10
640.0
 20
367.058253
 30
0.0
 11
638.872254
 21
358.492169
 31
0.0
  0
LINE
  8
LC-004-003-----0
  6
CONTINUOUS
  5
113
 10
640.516884
 20
358.452131
 30
0.0
 11
640.0
 21
362.378253
 31
0.0
  0
LINE
  8
LC-004-003-----0
  6
CONTINUOUS
  5
114
 10
640.0
 20
362.378253
 30
0.0
 11
639.483116
 21
358.452131
 31
0.0
  0
TEXT
  8
LC-004-003-----0
  6
CONTINUOUS
 62
     6
  5
115
 10
629.568001
 20
321.350506
 30
0.0
 40
18.0
  1
92
 50
90.0
 51
15.0
  7
LC-TXTSTYLE-150-400-0-0-D0
 72
     1
 11
629.568001
 21
333.213498
 31
0.0
  0
ENDBLK
  8
0
  5
116
  0
BLOCK
  8
0
  5
118
  2
*D12
 70
    65
 10
0.0
 20
0.0
 30
0.0
  3
*D12
  0
LINE
  8
LC-005-003-MTH-0
  6
CONTINUOUS
  5
119
 10
264.209958
 20
226.383058
 30
0.0
 11
264.209958
 21
189.2
 31
0.0
  0
LINE
  8
LC-005-003-MTH-0
  6
CONTINUOUS
  5
11A
 10
304.209958
 20
226.077972
 30
0.0
 11
304.209958
 21
189.2
 31
0.0
  0
LINE
  8
LC-004-003-----0
  6
CONTINUOUS
  5
11B
 10
246.36395
 20
197.650529
 30
0.0
 11
264.209958
 21
200.0
 31
0.0
  0
LINE
  8
LC-004-003-----0
  6
CONTINUOUS
  5
11C
 10
264.209958
 20
200.0
 30
0.0
 11
246.36395
 21
202.349471
 31
0.0
  0
LINE
  8
LC-004-003-----0
  6
CONTINUOUS
  5
11D
 10
246.36395
 20
202.349471
 30
0.0
 11
246.36395
 21
197.650529
 31
0.0
  0
LINE
  8
LC-004-003-----0
  6
CONTINUOUS
  5
11E
 10
246.323912
 20
198.261391
 30
0.0
 11
259.529958
 21
200.0
 31
0.0
  0
LINE
  8
LC-004-003-----0
  6
CONTINUOUS
  5
11F
 10
259.529958
 20
200.0
 30
0.0
 11
246.323912
 21
201.738609
 31
0.0
  0
LINE
  8
LC-004-003-----0
  6
CONTINUOUS
  5
120
 10
246.283874
 20
198.872254
 30
0.0
 11
254.849958
 21
200.0
 31
0.0
  0
LINE
  8
LC-004-003-----0
  6
CONTINUOUS
  5
121
 10
254.849958
 20
200.0
 30
0.0
 11
246.283874
 21
201.127746
 31
0.0
  0
LINE
  8
LC-004-003-----0
  6
CONTINUOUS
  5
122
 10
246.243836
 20
199.483116
 30
0.0
 11
250.169958
 21
200.0
 31
0.0
  0
LINE
  8
LC-004-003-----0
  6
CONTINUOUS
  5
123
 10
250.169958
 20
200.0
 30
0.0
 11
246.243836
 21
200.516884
 31
0.0
  0
LINE
  8
LC-004-003-----0
  6
CONTINUOUS
  5
124
 10
322.055965
 20
202.349471
 30
0.0
 11
304.209958
 21
200.0
 31
0.0
  0
LINE
  8
LC-004-003-----0
  6
CONTINUOUS
  5
125
 10
304.209958
 20
200.0
 30
0.0
 11
322.055965
 21
197.650529
 31
0.0
  0
LINE
  8
LC-004-003-----0
  6
CONTINUOUS
  5
126
 10
322.055965
 20
197.650529
 30
0.0
 11
322.055965
 21
202.349471
 31
0.0
  0
LINE
  8
LC-004-003-----0
  6
CONTINUOUS
  5
127
 10
322.096003
 20
201.738609
 30
0.0
 11
308.889958
 21
200.0
 31
0.0
  0
LINE
  8
LC-004-003-----0
  6
CONTINUOUS
  5
128
 10
308.889958
 20
200.0
 30
0.0
 11
322.096003
 21
198.261391
 31
0.0
  0
LINE
  8
LC-004-003-----0
  6
CONTINUOUS
  5
129
 10
322.136041
 20
201.127746
 30
0.0
 11
313.569958
 21
200.0
 31
0.0
  0
LINE
  8
LC-004-003-----0
  6
CONTINUOUS
  5
12A
 10
313.569958
 20
200.0
 30
0.0
 11
322.136041
 21
198.872254
 31
0.0
  0
LINE
  8
LC-004-003-----0
  6
CONTINUOUS
  5
12B
 10
322.176079
 20
200.516884
 30
0.0
 11
318.249958
 21
200.0
 31
0.0
  0
LINE
  8
LC-004-003-----0
  6
CONTINUOUS
  5
12C
 10
318.249958
 20
200.0
 30
0.0
 11
322.176079
 21
199.483116
 31
0.0
  0
LINE
  8
LC-006-003-MTG-0
  6
CONTINUOUS
  5
12D
 10
239.009958
 20
200.0
 30
0.0
 11
394.612477
 21
200.0
 31
0.0
  0
TEXT
  8
LC-004-003-----0
  6
CONTINUOUS
 62
     6
  5
12E
 10
331.485203
 20
210.431999
 30
0.0
 40
18.0
  1
DN40
 51
15.0
  7
LC-TXTSTYLE-150-400-0-0-D0
  0
ENDBLK
  8
0
  5
12F
  0
BLOCK
  8
0
  5
131
  2
*D13
 70
    65
 10
0.0
 20
0.0
 30
0.0
  3
*D13
  0
LINE
  8
LC-005-003-MTH-0
  6
CONTINUOUS
  5
132
 10
260.209958
 20
345.418253
 30
0.0
 11
149.2
 21
345.418253
 31
0.0
  0
LINE
  8
LC-005-003-MTH-0
  6
CONTINUOUS
  5
133
 10
199.209958
 20
440.418253
 30
0.0
 11
149.2
 21
440.418253
 31
0.0
  0
LINE
  8
LC-006-003-MTG-0
  6
CONTINUOUS
  5
134
 10
160.0
 20
345.418253
 30
0.0
 11
160.0
 21
440.418253
 31
0.0
  0
LINE
  8
LC-004-003-----0
  6
CONTINUOUS
  5
135
 10
157.650529
 20
363.26426
 30
0.0
 11
160.0
 21
345.418253
 31
0.0
  0
LINE
  8
LC-004-003-----0
  6
CONTINUOUS
  5
136
 10
160.0
 20
345.418253
 30
0.0
 11
162.349471
 21
363.26426
 31
0.0
  0
LINE
  8
LC-004-003-----0
  6
CONTINUOUS
  5
137
 10
162.349471
 20
363.26426
 30
0.0
 11
157.650529
 21
363.26426
 31
0.0
  0
LINE
  8
LC-004-003-----0
  6
CONTINUOUS
  5
138
 10
158.261391
 20
363.304298
 30
0.0
 11
160.0
 21
350.098253
 31
0.0
  0
LINE
  8
LC-004-003-----0
  6
CONTINUOUS
  5
139
 10
160.0
 20
350.098253
 30
0.0
 11
161.738609
 21
363.304298
 31
0.0
  0
LINE
  8
LC-004-003-----0
  6
CONTINUOUS
  5
13A
 10
158.872254
 20
363.344336
 30
0.0
 11
160.0
 21
354.778253
 31
0.0
  0
LINE
  8
LC-004-003-----0
  6
CONTINUOUS
  5
13B
 10
160.0
 20
354.778253
 30
0.0
 11
161.127746
 21
363.344336
 31
0.0
  0
LINE
  8
LC-004-003-----0
  6
CONTINUOUS
  5
13C
 10
159.483116
 20
363.384374
 30
0.0
 11
160.0
 21
359.458253
 31
0.0
  0
LINE
  8
LC-004-003-----0
  6
CONTINUOUS
  5
13D
 10
160.0
 20
359.458253
 30
0.0
 11
160.516884
 21
363.384374
 31
0.0
  0
LINE
  8
LC-004-003-----0
  6
CONTINUOUS
  5
13E
 10
162.349471
 20
422.572245
 30
0.0
 11
160.0
 21
440.418253
 31
0.0
  0
LINE
  8
LC-004-003-----0
  6
CONTINUOUS
  5
13F
 10
160.0
 20
440.418253
 30
0.0
 11
157.650529
 21
422.572245
 31
0.0
  0
LINE
  8
LC-004-003-----0
  6
CONTINUOUS
  5
140
 10
157.650529
 20
422.572245
 30
0.0
 11
162.349471
 21
422.572245
 31
0.0
  0
LINE
  8
LC-004-003-----0
  6
CONTINUOUS
  5
141
 10
161.738609
 20
422.532207
 30
0.0
 11
160.0
 21
435.738253
 31
0.0
  0
LINE
  8
LC-004-003-----0
  6
CONTINUOUS
  5
142
 10
160.0
 20
435.738253
 30
0.0
 11
158.261391
 21
422.532207
 31
0.0
  0
LINE
  8
LC-004-003-----0
  6
CONTINUOUS
  5
143
 10
161.127746
 20
422.492169
 30
0.0
 11
160.0
 21
431.058253
 31
0.0
  0
LINE
  8
LC-004-003-----0
  6
CONTINUOUS
  5
144
 10
160.0
 20
431.058253
 30
0.0
 11
158.872254
 21
422.492169
 31
0.0
  0
LINE
  8
LC-004-003-----0
  6
CONTINUOUS
  5
145
 10
160.516884
 20
422.452131
 30
0.0
 11
160.0
 21
426.378253
 31
0.0
  0
LINE
  8
LC-004-003-----0
  6
CONTINUOUS
  5
146
 10
160.0
 20
426.378253
 30
0.0
 11
159.483116
 21
422.452131
 31
0.0
  0
TEXT
  8
LC-004-003-----0
  6
CONTINUOUS
 62
     6
  5
147
 10
149.568001
 20
383.850506
 30
0.0
 40
18.0
  1
95
 50
90.0
 51
15.0
  7
LC-TXTSTYLE-150-400-0-0-D0
 72
     1
 11
149.568001
 21
395.713498
 31
0.0
  0
ENDBLK
  8
0
  5
148
  0
ENDSEC
  0
SECTION
  2
ENTITIES
  0
VIEWPORT
  8
LC-000
  5
248
 67
     1
 68
     1
 10
420.0
 20
297.0
 30
0.0
 40
840.0
 41
594.0
 69
     1
1001
ACAD
1000
MVIEW
1002
{
1070
    16
1010
0.0
1020
0.0
1030
0.0
1010
0.0
1020
0.0
1030
1.0
1040
0.0
1040
594.0
1040
420.0
1040
297.0
1040
50.0
1040
0.0
1040
0.0
1070
     0
1070
   100
1070
     1
1070
     1
1070
     0
1070
     0
1070
     0
1070
     0
1040
0.0
1040
0.0
1040
0.0
1040
1.0
1040
1.0
1040
0.0
1040
0.0
1070
     0
1002
{
1002
}
1002
}
  0
VIEWPORT
  8
0
  5
249
 67
     1
 68
     1
 10
0.0
 20
0.0
 30
0.0
 40
0.0
 41
0.0
 69
     1
1001
ACAD
1000
MVIEW
1002
{
1070
    16
1010
0.0
1020
0.0
1030
0.0
1010
0.0
1020
0.0
1030
1.0
1040
0.0
1040
594.0
1040
0.0
1040
0.0
1040
50.0
1040
0.0
1040
0.0
1070
     0
1070
   100
1070
     0
1070
     1
1070
     0
1070
     0
1070
     0
1070
     0
1040
0.0
1040
0.0
1040
0.0
1040
0.5
1040
0.5
1040
0.5
1040
0.5
1070
     0
1002
{
1002
}
1002
}
  0
INSERT
  8
0
  5
149
  2
*X0
 10
302.709958
 20
329.418253
 30
0.0
  0
INSERT
  8
0
  5
14A
  2
*X1
 10
306.709958
 20
329.418253
 30
0.0
  0
INSERT
  8
0
  5
14B
  2
*X2
 10
199.209958
 20
329.418253
 30
0.0
  0
INSERT
  8
0
  5
14C
  2
*X3
 10
260.209958
 20
329.418253
 30
0.0
  0
INSERT
  8
0
  5
14D
  2
*X4
 10
280.209958
 20
329.418253
 30
0.0
  0
INSERT
  8
0
  5
14E
  2
*X5
 10
261.709958
 20
326.918253
 30
0.0
  0
INSERT
  8
0
  5
14F
  2
*X6
 10
301.709958
 20
326.918253
 30
0.0
  0
INSERT
  8
0
  5
150
  2
*X7
 10
256.959958
 20
320.418253
 30
0.0
  0
INSERT
  8
0
  5
151
  2
*X8
 10
259.709958
 20
323.418253
 30
0.0
  0
INSERT
  8
0
  5
152
  2
*X9
 10
304.709958
 20
320.418253
 30
0.0
  0
DIMENSION
  8
0
  5
153
  2
*D10
 10
499.209958
 20
410.0
 30
0.0
 11
499.209958
 21
410.0
 31
0.0
 13
414.209958
 23
330.418253
 33
0.0
 14
584.209958
 24
330.418253
 34
0.0
  3
LC-DIM-L-0090-02-02
  0
DIMENSION
  8
0
  5
154
  2
*D11
 10
640.0
 20
330.418253
 30
0.0
 11
640.0
 21
330.418253
 31
0.0
 13
538.209958
 23
376.418253
 33
0.0
 14
538.209958
 24
284.418253
 34
0.0
 50
90.0
  3
LC-DIM-L-0090-02-02
  0
DIMENSION
  8
0
  5
155
  2
*D12
 10
284.209958
 20
200.0
 30
0.0
 11
284.209958
 21
200.0
 31
0.0
  1
DN40
 13
264.209958
 23
226.383058
 33
0.0
 14
304.209958
 24
226.077972
 34
0.0
  3
LC-DIM-L-0090-02-02
  0
DIMENSION
  8
0
  5
156
  2
*D13
 10
160.0
 20
392.918253
 30
0.0
 11
160.0
 21
392.918253
 31
0.0
 13
199.209958
 23
440.418253
 33
0.0
 14
260.209958
 24
345.418253
 34
0.0
 50
90.0
  3
LC-DIM-L-0090-02-02
  0
LINE
  8
LC-001-002-----0
  5
159
 10
284.209958
 20
440.418253
 30
0.0
 11
284.209958
 21
220.418253
 31
0.0
  0
LINE
  8
LC-001-002-----0
  6
CONTINUOUS
 62
     1
  5
15A
 10
369.209958
 20
440.418253
 30
0.0
 11
199.209958
 21
440.418253
 31
0.0
  0
LINE
  8
LC-001-002-----0
  6
CONTINUOUS
 62
     1
  5
15B
 10
202.209958
 20
440.418253
 30
0.0
 11
202.209958
 21
408.64663
 31
0.0
  0
LINE
  8
LC-001-002-----0
  6
CONTINUOUS
 62
     1
  5
15C
 10
263.209958
 20
346.64663
 30
0.0
 11
202.209958
 21
408.64663
 31
0.0
  0
LINE
  8
LC-001-002-----0
  6
CONTINUOUS
 62
     1
  5
15D
 10
305.209958
 20
346.64663
 30
0.0
 11
366.209958
 21
408.64663
 31
0.0
  0
LINE
  8
LC-001-002-----0
  6
CONTINUOUS
 62
     1
  5
15E
 10
366.209958
 20
408.64663
 30
0.0
 11
366.209958
 21
440.418253
 31
0.0
  0
LINE
  8
LC-001-002-----0
  6
CONTINUOUS
 62
     1
  5
15F
 10
260.209958
 20
345.418253
 30
0.0
 11
201.507301
 21
405.083248
 31
0.0
  0
ARC
  8
LC-002-002-RND-0
  6
CONTINUOUS
  5
161
 10
207.209958
 20
410.693926
 30
0.0
 40
8.0
 50
180.0
 51
224.534191
  0
LINE
  8
LC-001-002-----0
  6
CONTINUOUS
 62
     1
  5
162
 10
199.209958
 20
440.418253
 30
0.0
 11
199.209958
 21
410.693926
 31
0.0
  0
LINE
  8
LC-001-002-----0
  6
CONTINUOUS
 62
     1
  5
163
 10
369.209958
 20
410.693926
 30
0.0
 11
369.209958
 21
440.418253
 31
0.0
  0
ARC
  8
LC-002-002-RND-0
  6
CONTINUOUS
  5
164
 10
361.209958
 20
410.693926
 30
0.0
 40
8.0
 50
315.465809
 51
0.0
  0
LINE
  8
LC-001-002-----0
  6
CONTINUOUS
 62
     1
  5
165
 10
308.209958
 20
345.418253
 30
0.0
 11
366.912614
 21
405.083248
 31
0.0
  0
LINE
  8
LC-001-002-----0
  6
CONTINUOUS
 62
     1
  5
166
 10
260.209958
 20
345.418253
 30
0.0
 11
260.209958
 21
341.418253
 31
0.0
  0
LINE
  8
LC-001-002-----0
  6
CONTINUOUS
 62
     1
  5
167
 10
261.709958
 20
329.418253
 30
0.0
 11
306.709958
 21
329.418253
 31
0.0
  0
LINE
  8
LC-001-002-----0
  6
CONTINUOUS
 62
     1
  5
168
 10
308.209958
 20
330.918253
 30
0.0
 11
308.209958
 21
339.918253
 31
0.0
  0
LINE
  8
LC-001-002-----0
  6
CONTINUOUS
 62
     1
  5
169
 10
263.209958
 20
331.918253
 30
0.0
 11
305.209958
 21
331.918253
 31
0.0
  0
LINE
  8
LC-001-002-----0
  6
CONTINUOUS
 62
     1
  5
16A
 10
263.209958
 20
346.64663
 30
0.0
 11
263.209958
 21
331.918253
 31
0.0
  0
LINE
  8
LC-001-002-----0
  6
CONTINUOUS
 62
     1
  5
16B
 10
305.209958
 20
331.918253
 30
0.0
 11
305.209958
 21
346.64663
 31
0.0
  0
LINE
  8
LC-001-002-----0
  6
CONTINUOUS
 62
     1
  5
16C
 10
263.209958
 20
346.64663
 30
0.0
 11
305.209958
 21
346.64663
 31
0.0
  0
LINE
  8
LC-001-002-----0
  6
CONTINUOUS
 62
     1
  5
16D
 10
202.209958
 20
408.64663
 30
0.0
 11
366.209958
 21
408.64663
 31
0.0
  0
LINE
  8
LC-001-002-----0
  6
CONTINUOUS
 62
     1
  5
16E
 10
288.209958
 20
331.918253
 30
0.0
 11
288.209958
 21
329.418253
 31
0.0
  0
LINE
  8
LC-001-002-----0
  6
CONTINUOUS
 62
     1
  5
16F
 10
280.209958
 20
331.918253
 30
0.0
 11
280.209958
 21
329.418253
 31
0.0
  0
LINE
  8
LC-001-002-----0
  6
CONTINUOUS
 62
     1
  5
170
 10
302.709958
 20
331.918253
 30
0.0
 11
302.709958
 21
329.418253
 31
0.0
  0
LINE
  8
LC-001-002-----0
  6
CONTINUOUS
 62
     1
  5
171
 10
265.709958
 20
331.918253
 30
0.0
 11
265.709958
 21
329.418253
 31
0.0
  0
LINE
  8
LC-001-002-----0
  6
CONTINUOUS
 62
     1
  5
172
 10
260.209958
 20
341.418253
 30
0.0
 11
261.709958
 21
341.418253
 31
0.0
  0
LINE
  8
LC-001-002-----0
  6
CONTINUOUS
  5
173
 10
261.709958
 20
341.418253
 30
0.0
 11
261.709958
 21
329.418253
 31
0.0
  0
LINE
  8
LC-001-002-----0
  6
CONTINUOUS
 62
     1
  5
174
 10
261.709958
 20
329.418253
 30
0.0
 11
260.209958
 21
330.918253
 31
0.0
  0
LINE
  8
LC-001-002-----0
  6
CONTINUOUS
 62
     1
  5
175
 10
261.709958
 20
341.418253
 30
0.0
 11
260.209958
 21
339.918253
 31
0.0
  0
LINE
  8
LC-001-002-----0
  6
CONTINUOUS
 62
     1
  5
176
 10
260.209958
 20
339.918253
 30
0.0
 11
260.209958
 21
330.918253
 31
0.0
  0
LINE
  8
LC-001-002-----0
  6
CONTINUOUS
 62
     1
  5
177
 10
306.709958
 20
341.418253
 30
0.0
 11
308.209958
 21
339.918253
 31
0.0
  0
LINE
  8
LC-001-002-----0
  6
CONTINUOUS
 62
     1
  5
178
 10
306.709958
 20
329.418253
 30
0.0
 11
308.209958
 21
330.918253
 31
0.0
  0
LINE
  8
LC-001-002-----0
  6
CONTINUOUS
  5
179
 10
306.709958
 20
341.418253
 30
0.0
 11
306.709958
 21
329.418253
 31
0.0
  0
LINE
  8
LC-001-002-----0
  6
CONTINUOUS
 62
     1
  5
17A
 10
308.209958
 20
341.418253
 30
0.0
 11
306.709958
 21
341.418253
 31
0.0
  0
LINE
  8
LC-001-002-----0
  6
CONTINUOUS
 62
     1
  5
17B
 10
308.209958
 20
341.418253
 30
0.0
 11
308.209958
 21
345.418253
 31
0.0
  0
LINE
  8
LC-001-002-----0
  6
CONTINUOUS
 62
     1
  5
17C
 10
306.709958
 20
328.918253
 30
0.0
 11
261.709958
 21
328.918253
 31
0.0
  0
LINE
  8
LC-001-002-----0
  6
CONTINUOUS
 62
     1
  5
17D
 10
261.709958
 20
328.918253
 30
0.0
 11
261.709958
 21
326.918253
 31
0.0
  0
LINE
  8
LC-001-002-----0
  6
CONTINUOUS
 62
     1
  5
17E
 10
261.709958
 20
326.918253
 30
0.0
 11
306.709958
 21
326.918253
 31
0.0
  0
LINE
  8
LC-001-002-----0
  6
CONTINUOUS
 62
     1
  5
17F
 10
306.709958
 20
326.918253
 30
0.0
 11
306.709958
 21
328.918253
 31
0.0
  0
LINE
  8
LC-001-002-----0
  6
CONTINUOUS
 62
     1
  5
180
 10
266.709958
 20
326.918253
 30
0.0
 11
266.709958
 21
328.918253
 31
0.0
  0
LINE
  8
LC-001-002-----0
  6
CONTINUOUS
 62
     1
  5
181
 10
301.709958
 20
326.918253
 30
0.0
 11
301.709958
 21
328.918253
 31
0.0
  0
LINE
  8
LC-001-002-----0
  6
CONTINUOUS
 62
     1
  5
182
 10
262.209958
 20
323.918253
 30
0.0
 11
264.209958
 21
323.918253
 31
0.0
  0
LINE
  8
LC-001-002-----0
  6
CONTINUOUS
 62
     1
  5
183
 10
302.766582
 20
220.418253
 30
0.0
 11
265.653333
 21
220.418253
 31
0.0
  0
LINE
  8
LC-001-002-----0
  6
CONTINUOUS
 62
     1
  5
184
 10
264.209958
 20
222.918253
 30
0.0
 11
264.209958
 21
315.418253
 31
0.0
  0
LINE
  8
LC-001-002-----0
  6
CONTINUOUS
 62
     1
  5
185
 10
304.209958
 20
222.918253
 30
0.0
 11
304.209958
 21
315.418253
 31
0.0
  0
LINE
  8
LC-001-002-----0
  6
CONTINUOUS
 62
     1
  5
186
 10
266.509958
 20
220.418253
 30
0.0
 11
266.509958
 21
326.418253
 31
0.0
  0
LINE
  8
LC-001-002-----0
  6
CONTINUOUS
 62
     1
  5
187
 10
301.909958
 20
220.418253
 30
0.0
 11
301.909958
 21
326.418253
 31
0.0
  0
LINE
  8
LC-001-002-----0
  6
CONTINUOUS
 62
     1
  5
188
 10
304.209958
 20
323.918253
 30
0.0
 11
306.209958
 21
323.918253
 31
0.0
  0
LINE
  8
LC-001-002-----0
  6
CONTINUOUS
 62
     1
  5
189
 10
264.209958
 20
222.918253
 30
0.0
 11
265.653333
 21
220.418253
 31
0.0
  0
LINE
  8
LC-001-002-----0
  6
CONTINUOUS
 62
     1
  5
18A
 10
304.209958
 20
222.918253
 30
0.0
 11
302.766582
 21
220.418253
 31
0.0
  0
LINE
  8
LC-001-002-----0
  6
CONTINUOUS
 62
     1
  5
18B
 10
262.209958
 20
323.918253
 30
0.0
 11
262.209958
 21
323.918253
 31
0.0
  0
ARC
  8
LC-002-002-RND-0
  6
CONTINUOUS
  5
18C
 10
264.709958
 20
323.918253
 30
0.0
 40
2.5
 50
90.0
 51
180.0
  0
LINE
  8
LC-001-002-----0
  6
CONTINUOUS
 62
     1
  5
18D
 10
306.209958
 20
323.918253
 30
0.0
 11
306.209958
 21
323.918253
 31
0.0
  0
ARC
  8
LC-002-002-RND-0
  6
CONTINUOUS
  5
18E
 10
303.709958
 20
323.918253
 30
0.0
 40
2.5
 50
0.0
 51
90.0
  0
LINE
  8
LC-001-002-----0
  6
CONTINUOUS
 62
     1
  5
18F
 10
303.709958
 20
326.418253
 30
0.0
 11
264.709958
 21
326.418253
 31
0.0
  0
LINE
  8
LC-001-002-----0
  6
CONTINUOUS
 62
     1
  5
190
 10
310.459958
 20
336.418253
 30
0.0
 11
311.459958
 21
336.418253
 31
0.0
  0
LINE
  8
LC-001-002-----0
  6
CONTINUOUS
 62
     1
  5
191
 10
311.459958
 20
336.418253
 30
0.0
 11
311.459958
 21
337.418253
 31
0.0
  0
LINE
  8
LC-001-002-----0
  6
CONTINUOUS
 62
     1
  5
192
 10
311.459958
 20
337.418253
 30
0.0
 11
308.709958
 21
337.418253
 31
0.0
  0
LINE
  8
LC-001-002-----0
  6
CONTINUOUS
 62
     1
  5
193
 10
256.959958
 20
337.418253
 30
0.0
 11
256.959958
 21
336.418253
 31
0.0
  0
LINE
  8
LC-001-002-----0
  6
CONTINUOUS
 62
     1
  5
194
 10
256.959958
 20
336.418253
 30
0.0
 11
257.959958
 21
336.418253
 31
0.0
  0
LINE
  8
LC-001-002-----0
  6
CONTINUOUS
 62
     1
  5
195
 10
257.959958
 20
336.418253
 30
0.0
 11
257.959958
 21
322.918253
 31
0.0
  0
LINE
  8
LC-001-002-----0
  6
CONTINUOUS
 62
     1
  5
196
 10
307.209958
 20
324.918253
 30
0.0
 11
307.209958
 21
329.918253
 31
0.0
  0
LINE
  8
LC-001-002-----0
  6
CONTINUOUS
 62
     1
  5
197
 10
304.709958
 20
323.418253
 30
0.0
 11
307.209958
 21
323.418253
 31
0.0
  0
LINE
  8
LC-001-002-----0
  6
CONTINUOUS
 62
     1
  5
198
 10
307.209958
 20
323.418253
 30
0.0
 11
308.709958
 21
323.418253
 31
0.0
  0
LINE
  8
LC-001-002-----0
  6
CONTINUOUS
 62
     1
  5
199
 10
308.709958
 20
323.418253
 30
0.0
 11
307.209958
 21
324.918253
 31
0.0
  0
LINE
  8
LC-001-002-----0
  6
CONTINUOUS
  5
19A
 10
308.709958
 20
323.418253
 30
0.0
 11
308.709958
 21
337.418253
 31
0.0
  0
LINE
  8
LC-001-002-----0
  6
CONTINUOUS
 62
     1
  5
19B
 10
308.709958
 20
337.418253
 30
0.0
 11
308.209958
 21
336.918253
 31
0.0
  0
ARC
  8
LC-002-002-RND-0
  6
CONTINUOUS
  5
19C
 10
307.209958
 20
322.918253
 30
0.0
 40
2.5
 50
180.0
 51
270.0
  0
LINE
  8
LC-001-002-----0
  6
CONTINUOUS
 62
     1
  5
19D
 10
304.709958
 20
322.918253
 30
0.0
 11
304.709958
 21
323.418253
 31
0.0
  0
LINE
  8
LC-001-002-----0
  6
CONTINUOUS
 62
     1
  5
19E
 10
307.209958
 20
320.418253
 30
0.0
 11
307.959958
 21
320.418253
 31
0.0
  0
ARC
  8
LC-002-002-RND-0
  6
CONTINUOUS
  5
19F
 10
307.959958
 20
322.918253
 30
0.0
 40
2.5
 50
270.0
 51
0.0
  0
LINE
  8
LC-001-002-----0
  6
CONTINUOUS
 62
     1
  5
1A0
 10
310.459958
 20
322.918253
 30
0.0
 11
310.459958
 21
336.418253
 31
0.0
  0
LINE
  8
LC-001-002-----0
  6
CONTINUOUS
 62
     1
  5
1A1
 10
263.709958
 20
323.418253
 30
0.0
 11
261.209958
 21
323.418253
 31
0.0
  0
ARC
  8
LC-002-002-RND-0
  6
CONTINUOUS
  5
1A2
 10
261.209958
 20
322.918253
 30
0.0
 40
2.5
 50
270.0
 51
0.0
  0
LINE
  8
LC-001-002-----0
  6
CONTINUOUS
 62
     1
  5
1A3
 10
263.709958
 20
322.918253
 30
0.0
 11
263.709958
 21
323.418253
 31
0.0
  0
LINE
  8
LC-001-002-----0
  6
CONTINUOUS
 62
     1
  5
1A4
 10
261.209958
 20
320.418253
 30
0.0
 11
260.459958
 21
320.418253
 31
0.0
  0
ARC
  8
LC-002-002-RND-0
  6
CONTINUOUS
  5
1A5
 10
260.459958
 20
322.918253
 30
0.0
 40
2.5
 50
180.0
 51
270.0
  0
LINE
  8
LC-001-002-----0
  6
CONTINUOUS
 62
     1
  5
1A6
 10
263.709958
 20
323.418253
 30
0.0
 11
261.209958
 21
323.418253
 31
0.0
  0
LINE
  8
LC-001-002-----0
  6
CONTINUOUS
 62
     1
  5
1A7
 10
261.209958
 20
323.418253
 30
0.0
 11
259.709958
 21
323.418253
 31
0.0
  0
LINE
  8
LC-001-002-----0
  6
CONTINUOUS
 62
     1
  5
1A8
 10
259.709958
 20
323.418253
 30
0.0
 11
261.209958
 21
324.918253
 31
0.0
  0
LINE
  8
LC-001-002-----0
  6
CONTINUOUS
 62
     1
  5
1A9
 10
261.209958
 20
324.918253
 30
0.0
 11
261.209958
 21
329.918253
 31
0.0
  0
LINE
  8
LC-001-002-----0
  6
CONTINUOUS
  5
1AA
 10
259.709958
 20
323.418253
 30
0.0
 11
259.709958
 21
337.418253
 31
0.0
  0
LINE
  8
LC-001-002-----0
  6
CONTINUOUS
 62
     1
  5
1AB
 10
259.709958
 20
337.418253
 30
0.0
 11
260.209958
 21
336.918253
 31
0.0
  0
LINE
  8
LC-001-002-----0
  6
CONTINUOUS
 62
     1
  5
1AC
 10
259.709958
 20
337.418253
 30
0.0
 11
256.959958
 21
337.418253
 31
0.0
  0
LINE
  8
LC-001-002-----0
  6
CONTINUOUS
 62
     1
  5
1AD
 10
262.709958
 20
318.918253
 30
0.0
 11
264.209958
 21
318.918253
 31
0.0
  0
LINE
  8
LC-001-002-----0
  6
CONTINUOUS
 62
     1
  5
1AE
 10
264.209958
 20
315.418253
 30
0.0
 11
262.709958
 21
318.918253
 31
0.0
  0
LINE
  8
LC-001-002-----0
  6
CONTINUOUS
 62
     1
  5
1AF
 10
305.709958
 20
318.918253
 30
0.0
 11
304.209958
 21
318.918253
 31
0.0
  0
LINE
  8
LC-001-002-----0
  6
CONTINUOUS
 62
     1
  5
1B0
 10
304.209958
 20
315.418253
 30
0.0
 11
305.709958
 21
318.918253
 31
0.0
  0
LINE
  8
LC-001-002-----0
  6
CONTINUOUS
 62
     1
  5
1B1
 10
264.209958
 20
318.918253
 30
0.0
 11
264.209958
 21
323.918253
 31
0.0
  0
LINE
  8
LC-001-002-----0
  6
CONTINUOUS
 62
     1
  5
1B2
 10
304.209958
 20
318.918253
 30
0.0
 11
304.209958
 21
323.918253
 31
0.0
  0
LINE
  8
LC-003-005-----0
  6
CONTINUOUS
  5
1B3
 10
265.271122
 20
221.080262
 30
0.0
 11
266.509958
 21
222.319097
 31
0.0
  0
LINE
  8
LC-003-005-----0
  6
CONTINUOUS
  5
1B4
 10
264.494665
 20
222.425125
 30
0.0
 11
266.509958
 21
224.440418
 31
0.0
  0
LINE
  8
LC-003-005-----0
  6
CONTINUOUS
  5
1B5
 10
264.209958
 20
224.261738
 30
0.0
 11
266.509958
 21
226.561738
 31
0.0
  0
LINE
  8
LC-003-005-----0
  6
CONTINUOUS
  5
1B6
 10
264.209958
 20
226.383058
 30
0.0
 11
266.509958
 21
228.683058
 31
0.0
  0
LINE
  8
LC-003-005-----0
  6
CONTINUOUS
  5
1B7
 10
264.209958
 20
228.504379
 30
0.0
 11
266.509958
 21
230.804379
 31
0.0
  0
LINE
  8
LC-003-005-----0
  6
CONTINUOUS
  5
1B8
 10
264.209958
 20
230.625699
 30
0.0
 11
266.509958
 21
232.925699
 31
0.0
  0
LINE
  8
LC-003-005-----0
  6
CONTINUOUS
  5
1B9
 10
264.209958
 20
232.747019
 30
0.0
 11
266.509958
 21
235.047019
 31
0.0
  0
LINE
  8
LC-003-005-----0
  6
CONTINUOUS
  5
1BA
 10
264.209958
 20
234.86834
 30
0.0
 11
266.509958
 21
237.16834
 31
0.0
  0
LINE
  8
LC-003-005-----0
  6
CONTINUOUS
  5
1BB
 10
264.209958
 20
236.98966
 30
0.0
 11
266.509958
 21
239.28966
 31
0.0
  0
LINE
  8
LC-003-005-----0
  6
CONTINUOUS
  5
1BC
 10
264.209958
 20
239.11098
 30
0.0
 11
266.509958
 21
241.41098
 31
0.0
  0
LINE
  8
LC-003-005-----0
  6
CONTINUOUS
  5
1BD
 10
264.209958
 20
241.232301
 30
0.0
 11
266.509958
 21
243.532301
 31
0.0
  0
LINE
  8
LC-003-005-----0
  6
CONTINUOUS
  5
1BE
 10
264.209958
 20
243.353621
 30
0.0
 11
266.509958
 21
245.653621
 31
0.0
  0
LINE
  8
LC-003-005-----0
  6
CONTINUOUS
  5
1BF
 10
264.209958
 20
245.474941
 30
0.0
 11
266.509958
 21
247.774941
 31
0.0
  0
LINE
  8
LC-003-005-----0
  6
CONTINUOUS
  5
1C0
 10
264.209958
 20
247.596262
 30
0.0
 11
266.509958
 21
249.896262
 31
0.0
  0
LINE
  8
LC-003-005-----0
  6
CONTINUOUS
  5
1C1
 10
264.209958
 20
249.717582
 30
0.0
 11
266.509958
 21
252.017582
 31
0.0
  0
LINE
  8
LC-003-005-----0
  6
CONTINUOUS
  5
1C2
 10
264.209958
 20
251.838902
 30
0.0
 11
266.509958
 21
254.138902
 31
0.0
  0
LINE
  8
LC-003-005-----0
  6
CONTINUOUS
  5
1C3
 10
264.209958
 20
253.960223
 30
0.0
 11
266.509958
 21
256.260223
 31
0.0
  0
LINE
  8
LC-003-005-----0
  6
CONTINUOUS
  5
1C4
 10
264.209958
 20
256.081543
 30
0.0
 11
266.509958
 21
258.381543
 31
0.0
  0
LINE
  8
LC-003-005-----0
  6
CONTINUOUS
  5
1C5
 10
264.209958
 20
258.202863
 30
0.0
 11
266.509958
 21
260.502863
 31
0.0
  0
LINE
  8
LC-003-005-----0
  6
CONTINUOUS
  5
1C6
 10
264.209958
 20
260.324184
 30
0.0
 11
266.509958
 21
262.624184
 31
0.0
  0
LINE
  8
LC-003-005-----0
  6
CONTINUOUS
  5
1C7
 10
264.209958
 20
262.445504
 30
0.0
 11
266.509958
 21
264.745504
 31
0.0
  0
LINE
  8
LC-003-005-----0
  6
CONTINUOUS
  5
1C8
 10
264.209958
 20
264.566824
 30
0.0
 11
266.509958
 21
266.866824
 31
0.0
  0
LINE
  8
LC-003-005-----0
  6
CONTINUOUS
  5
1C9
 10
264.209958
 20
266.688145
 30
0.0
 11
266.509958
 21
268.988145
 31
0.0
  0
LINE
  8
LC-003-005-----0
  6
CONTINUOUS
  5
1CA
 10
264.209958
 20
268.809465
 30
0.0
 11
266.509958
 21
271.109465
 31
0.0
  0
LINE
  8
LC-003-005-----0
  6
CONTINUOUS
  5
1CB
 10
264.209958
 20
270.930786
 30
0.0
 11
266.509958
 21
273.230786
 31
0.0
  0
LINE
  8
LC-003-005-----0
  6
CONTINUOUS
  5
1CC
 10
264.209958
 20
273.052106
 30
0.0
 11
266.509958
 21
275.352106
 31
0.0
  0
LINE
  8
LC-003-005-----0
  6
CONTINUOUS
  5
1CD
 10
264.209958
 20
275.173426
 30
0.0
 11
266.509958
 21
277.473426
 31
0.0
  0
LINE
  8
LC-003-005-----0
  6
CONTINUOUS
  5
1CE
 10
264.209958
 20
277.294747
 30
0.0
 11
266.509958
 21
279.594747
 31
0.0
  0
LINE
  8
LC-003-005-----0
  6
CONTINUOUS
  5
1CF
 10
264.209958
 20
279.416067
 30
0.0
 11
266.509958
 21
281.716067
 31
0.0
  0
LINE
  8
LC-003-005-----0
  6
CONTINUOUS
  5
1D0
 10
264.209958
 20
281.537387
 30
0.0
 11
266.509958
 21
283.837387
 31
0.0
  0
LINE
  8
LC-003-005-----0
  6
CONTINUOUS
  5
1D1
 10
264.209958
 20
283.658708
 30
0.0
 11
266.509958
 21
285.958708
 31
0.0
  0
LINE
  8
LC-003-005-----0
  6
CONTINUOUS
  5
1D2
 10
264.209958
 20
285.780028
 30
0.0
 11
266.509958
 21
288.080028
 31
0.0
  0
LINE
  8
LC-003-005-----0
  6
CONTINUOUS
  5
1D3
 10
264.209958
 20
287.901348
 30
0.0
 11
266.509958
 21
290.201348
 31
0.0
  0
LINE
  8
LC-003-005-----0
  6
CONTINUOUS
  5
1D4
 10
264.209958
 20
290.022669
 30
0.0
 11
266.509958
 21
292.322669
 31
0.0
  0
LINE
  8
LC-003-005-----0
  6
CONTINUOUS
  5
1D5
 10
264.209958
 20
292.143989
 30
0.0
 11
266.509958
 21
294.443989
 31
0.0
  0
LINE
  8
LC-003-005-----0
  6
CONTINUOUS
  5
1D6
 10
264.209958
 20
294.265309
 30
0.0
 11
266.509958
 21
296.565309
 31
0.0
  0
LINE
  8
LC-003-005-----0
  6
CONTINUOUS
  5
1D7
 10
264.209958
 20
296.38663
 30
0.0
 11
266.509958
 21
298.68663
 31
0.0
  0
LINE
  8
LC-003-005-----0
  6
CONTINUOUS
  5
1D8
 10
264.209958
 20
298.50795
 30
0.0
 11
266.509958
 21
300.80795
 31
0.0
  0
LINE
  8
LC-003-005-----0
  6
CONTINUOUS
  5
1D9
 10
264.209958
 20
300.62927
 30
0.0
 11
266.509958
 21
302.92927
 31
0.0
  0
LINE
  8
LC-003-005-----0
  6
CONTINUOUS
  5
1DA
 10
264.209958
 20
302.750591
 30
0.0
 11
266.509958
 21
305.050591
 31
0.0
  0
LINE
  8
LC-003-005-----0
  6
CONTINUOUS
  5
1DB
 10
264.209958
 20
304.871911
 30
0.0
 11
266.509958
 21
307.171911
 31
0.0
  0
LINE
  8
LC-003-005-----0
  6
CONTINUOUS
  5
1DC
 10
264.209958
 20
306.993231
 30
0.0
 11
266.509958
 21
309.293231
 31
0.0
  0
LINE
  8
LC-003-005-----0
  6
CONTINUOUS
  5
1DD
 10
264.209958
 20
309.114552
 30
0.0
 11
266.509958
 21
311.414552
 31
0.0
  0
LINE
  8
LC-003-005-----0
  6
CONTINUOUS
  5
1DE
 10
264.209958
 20
311.235872
 30
0.0
 11
266.509958
 21
313.535872
 31
0.0
  0
LINE
  8
LC-003-005-----0
  6
CONTINUOUS
  5
1DF
 10
264.209958
 20
313.357192
 30
0.0
 11
266.509958
 21
315.657192
 31
0.0
  0
LINE
  8
LC-003-005-----0
  6
CONTINUOUS
  5
1E0
 10
264.209958
 20
315.478513
 30
0.0
 11
266.509958
 21
317.778513
 31
0.0
  0
LINE
  8
LC-003-005-----0
  6
CONTINUOUS
  5
1E1
 10
263.555483
 20
316.945359
 30
0.0
 11
266.509958
 21
319.899833
 31
0.0
  0
LINE
  8
LC-003-005-----0
  6
CONTINUOUS
  5
1E2
 10
262.919087
 20
318.430283
 30
0.0
 11
263.407057
 21
318.918253
 31
0.0
  0
LINE
  8
LC-003-005-----0
  6
CONTINUOUS
  5
1E3
 10
264.209958
 20
321.842474
 30
0.0
 11
266.509958
 21
324.142474
 31
0.0
  0
LINE
  8
LC-003-005-----0
  6
CONTINUOUS
  5
1E4
 10
264.164416
 20
323.918253
 30
0.0
 11
266.509958
 21
326.263794
 31
0.0
  0
LINE
  8
LC-003-005-----0
  6
CONTINUOUS
  5
1E5
 10
262.21594
 20
324.091097
 30
0.0
 11
264.537114
 21
326.41227
 31
0.0
  0
LINE
  8
LC-003-005-----0
  6
CONTINUOUS
  5
1E6
 10
301.909958
 20
221.656651
 30
0.0
 11
304.209958
 21
223.956651
 31
0.0
  0
LINE
  8
LC-003-005-----0
  6
CONTINUOUS
  5
1E7
 10
301.909958
 20
223.777972
 30
0.0
 11
304.209958
 21
226.077972
 31
0.0
  0
LINE
  8
LC-003-005-----0
  6
CONTINUOUS
  5
1E8
 10
301.909958
 20
225.899292
 30
0.0
 11
304.209958
 21
228.199292
 31
0.0
  0
LINE
  8
LC-003-005-----0
  6
CONTINUOUS
  5
1E9
 10
301.909958
 20
228.020612
 30
0.0
 11
304.209958
 21
230.320612
 31
0.0
  0
LINE
  8
LC-003-005-----0
  6
CONTINUOUS
  5
1EA
 10
301.909958
 20
230.141933
 30
0.0
 11
304.209958
 21
232.441933
 31
0.0
  0
LINE
  8
LC-003-005-----0
  6
CONTINUOUS
  5
1EB
 10
301.909958
 20
232.263253
 30
0.0
 11
304.209958
 21
234.563253
 31
0.0
  0
LINE
  8
LC-003-005-----0
  6
CONTINUOUS
  5
1EC
 10
301.909958
 20
234.384573
 30
0.0
 11
304.209958
 21
236.684573
 31
0.0
  0
LINE
  8
LC-003-005-----0
  6
CONTINUOUS
  5
1ED
 10
301.909958
 20
236.505894
 30
0.0
 11
304.209958
 21
238.805894
 31
0.0
  0
LINE
  8
LC-003-005-----0
  6
CONTINUOUS
  5
1EE
 10
301.909958
 20
238.627214
 30
0.0
 11
304.209958
 21
240.927214
 31
0.0
  0
LINE
  8
LC-003-005-----0
  6
CONTINUOUS
  5
1EF
 10
301.909958
 20
240.748535
 30
0.0
 11
304.209958
 21
243.048535
 31
0.0
  0
LINE
  8
LC-003-005-----0
  6
CONTINUOUS
  5
1F0
 10
301.909958
 20
242.869855
 30
0.0
 11
304.209958
 21
245.169855
 31
0.0
  0
LINE
  8
LC-003-005-----0
  6
CONTINUOUS
  5
1F1
 10
301.909958
 20
244.991175
 30
0.0
 11
304.209958
 21
247.291175
 31
0.0
  0
LINE
  8
LC-003-005-----0
  6
CONTINUOUS
  5
1F2
 10
301.909958
 20
247.112496
 30
0.0
 11
304.209958
 21
249.412496
 31
0.0
  0
LINE
  8
LC-003-005-----0
  6
CONTINUOUS
  5
1F3
 10
301.909958
 20
249.233816
 30
0.0
 11
304.209958
 21
251.533816
 31
0.0
  0
LINE
  8
LC-003-005-----0
  6
CONTINUOUS
  5
1F4
 10
301.909958
 20
251.355136
 30
0.0
 11
304.209958
 21
253.655136
 31
0.0
  0
LINE
  8
LC-003-005-----0
  6
CONTINUOUS
  5
1F5
 10
301.909958
 20
253.476457
 30
0.0
 11
304.209958
 21
255.776457
 31
0.0
  0
LINE
  8
LC-003-005-----0
  6
CONTINUOUS
  5
1F6
 10
301.909958
 20
255.597777
 30
0.0
 11
304.209958
 21
257.897777
 31
0.0
  0
LINE
  8
LC-003-005-----0
  6
CONTINUOUS
  5
1F7
 10
301.909958
 20
257.719097
 30
0.0
 11
304.209958
 21
260.019097
 31
0.0
  0
LINE
  8
LC-003-005-----0
  6
CONTINUOUS
  5
1F8
 10
301.909958
 20
259.840418
 30
0.0
 11
304.209958
 21
262.140418
 31
0.0
  0
LINE
  8
LC-003-005-----0
  6
CONTINUOUS
  5
1F9
 10
301.909958
 20
261.961738
 30
0.0
 11
304.209958
 21
264.261738
 31
0.0
  0
LINE
  8
LC-003-005-----0
  6
CONTINUOUS
  5
1FA
 10
301.909958
 20
264.083058
 30
0.0
 11
304.209958
 21
266.383058
 31
0.0
  0
LINE
  8
LC-003-005-----0
  6
CONTINUOUS
  5
1FB
 10
301.909958
 20
266.204379
 30
0.0
 11
304.209958
 21
268.504379
 31
0.0
  0
LINE
  8
LC-003-005-----0
  6
CONTINUOUS
  5
1FC
 10
301.909958
 20
268.325699
 30
0.0
 11
304.209958
 21
270.625699
 31
0.0
  0
LINE
  8
LC-003-005-----0
  6
CONTINUOUS
  5
1FD
 10
301.909958
 20
270.447019
 30
0.0
 11
304.209958
 21
272.747019
 31
0.0
  0
LINE
  8
LC-003-005-----0
  6
CONTINUOUS
  5
1FE
 10
301.909958
 20
272.56834
 30
0.0
 11
304.209958
 21
274.86834
 31
0.0
  0
LINE
  8
LC-003-005-----0
  6
CONTINUOUS
  5
1FF
 10
301.909958
 20
274.68966
 30
0.0
 11
304.209958
 21
276.98966
 31
0.0
  0
LINE
  8
LC-003-005-----0
  6
CONTINUOUS
  5
200
 10
301.909958
 20
276.81098
 30
0.0
 11
304.209958
 21
279.11098
 31
0.0
  0
LINE
  8
LC-003-005-----0
  6
CONTINUOUS
  5
201
 10
301.909958
 20
278.932301
 30
0.0
 11
304.209958
 21
281.232301
 31
0.0
  0
LINE
  8
LC-003-005-----0
  6
CONTINUOUS
  5
202
 10
301.909958
 20
281.053621
 30
0.0
 11
304.209958
 21
283.353621
 31
0.0
  0
LINE
  8
LC-003-005-----0
  6
CONTINUOUS
  5
203
 10
301.909958
 20
283.174941
 30
0.0
 11
304.209958
 21
285.474941
 31
0.0
  0
LINE
  8
LC-003-005-----0
  6
CONTINUOUS
  5
204
 10
301.909958
 20
285.296262
 30
0.0
 11
304.209958
 21
287.596262
 31
0.0
  0
LINE
  8
LC-003-005-----0
  6
CONTINUOUS
  5
205
 10
301.909958
 20
287.417582
 30
0.0
 11
304.209958
 21
289.717582
 31
0.0
  0
LINE
  8
LC-003-005-----0
  6
CONTINUOUS
  5
206
 10
301.909958
 20
289.538902
 30
0.0
 11
304.209958
 21
291.838902
 31
0.0
  0
LINE
  8
LC-003-005-----0
  6
CONTINUOUS
  5
207
 10
301.909958
 20
291.660223
 30
0.0
 11
304.209958
 21
293.960223
 31
0.0
  0
LINE
  8
LC-003-005-----0
  6
CONTINUOUS
  5
208
 10
301.909958
 20
293.781543
 30
0.0
 11
304.209958
 21
296.081543
 31
0.0
  0
LINE
  8
LC-003-005-----0
  6
CONTINUOUS
  5
209
 10
301.909958
 20
295.902863
 30
0.0
 11
304.209958
 21
298.202863
 31
0.0
  0
LINE
  8
LC-003-005-----0
  6
CONTINUOUS
  5
20A
 10
301.909958
 20
298.024184
 30
0.0
 11
304.209958
 21
300.324184
 31
0.0
  0
LINE
  8
LC-003-005-----0
  6
CONTINUOUS
  5
20B
 10
301.909958
 20
300.145504
 30
0.0
 11
304.209958
 21
302.445504
 31
0.0
  0
LINE
  8
LC-003-005-----0
  6
CONTINUOUS
  5
20C
 10
301.909958
 20
302.266824
 30
0.0
 11
304.209958
 21
304.566824
 31
0.0
  0
LINE
  8
LC-003-005-----0
  6
CONTINUOUS
  5
20D
 10
301.909958
 20
304.388145
 30
0.0
 11
304.209958
 21
306.688145
 31
0.0
  0
LINE
  8
LC-003-005-----0
  6
CONTINUOUS
  5
20E
 10
301.909958
 20
306.509465
 30
0.0
 11
304.209958
 21
308.809465
 31
0.0
  0
LINE
  8
LC-003-005-----0
  6
CONTINUOUS
  5
20F
 10
301.909958
 20
308.630786
 30
0.0
 11
304.209958
 21
310.930786
 31
0.0
  0
LINE
  8
LC-003-005-----0
  6
CONTINUOUS
  5
210
 10
301.909958
 20
310.752106
 30
0.0
 11
304.209958
 21
313.052106
 31
0.0
  0
LINE
  8
LC-003-005-----0
  6
CONTINUOUS
  5
211
 10
301.909958
 20
312.873426
 30
0.0
 11
304.209958
 21
315.173426
 31
0.0
  0
LINE
  8
LC-003-005-----0
  6
CONTINUOUS
  5
212
 10
301.909958
 20
314.994747
 30
0.0
 11
305.617328
 21
318.702117
 31
0.0
  0
LINE
  8
LC-003-005-----0
  6
CONTINUOUS
  5
213
 10
301.909958
 20
317.116067
 30
0.0
 11
304.209958
 21
319.416067
 31
0.0
  0
LINE
  8
LC-003-005-----0
  6
CONTINUOUS
  5
214
 10
301.909958
 20
319.237387
 30
0.0
 11
304.209958
 21
321.537387
 31
0.0
  0
LINE
  8
LC-003-005-----0
  6
CONTINUOUS
  5
215
 10
301.909958
 20
321.358708
 30
0.0
 11
304.209958
 21
323.658708
 31
0.0
  0
LINE
  8
LC-003-005-----0
  6
CONTINUOUS
  5
216
 10
304.469503
 20
323.918253
 30
0.0
 11
305.816222
 21
325.264972
 31
0.0
  0
LINE
  8
LC-003-005-----0
  6
CONTINUOUS
  5
217
 10
301.909958
 20
323.480028
 30
0.0
 11
304.660447
 21
326.230518
 31
0.0
  0
LINE
  8
LC-003-005-----0
  6
CONTINUOUS
  5
218
 10
301.909958
 20
325.601348
 30
0.0
 11
302.726862
 21
326.418253
 31
0.0
  0
LINE
  8
LC-003-005-----0
  6
CONTINUOUS
  5
219
 10
264.209958
 20
319.721153
 30
0.0
 11
266.509958
 21
322.021153
 31
0.0
  0
ARC
  8
LC-001-002-----0
  6
CONTINUOUS
 62
     1
  5
21A
 10
538.209958
 20
330.418253
 30
0.0
 40
46.0
 50
270.0
 51
90.0
  0
ARC
  8
LC-001-002-----0
  6
CONTINUOUS
 62
     1
  5
21B
 10
460.209958
 20
330.418253
 30
0.0
 40
46.0
 50
90.0
 51
270.0
  0
LINE
  8
LC-001-002-----0
  6
CONTINUOUS
 62
     1
  5
21C
 10
460.209958
 20
376.418253
 30
0.0
 11
538.209958
 21
376.418253
 31
0.0
  0
LINE
  8
LC-001-002-----0
  6
CONTINUOUS
 62
     1
  5
21D
 10
460.209958
 20
284.418253
 30
0.0
 11
538.209958
 21
284.418253
 31
0.0
  0
ARC
  8
LC-001-002-----0
  6
CONTINUOUS
 62
     1
  5
21E
 10
460.209958
 20
330.418253
 30
0.0
 40
43.0
 50
90.0
 51
270.0
  0
ARC
  8
LC-001-002-----0
  6
CONTINUOUS
 62
     1
  5
21F
 10
538.209958
 20
330.418253
 30
0.0
 40
43.0
 50
270.0
 51
90.0
  0
LINE
  8
LC-001-002-----0
  6
CONTINUOUS
 62
     1
  5
220
 10
460.209958
 20
373.418253
 30
0.0
 11
538.209958
 21
373.418253
 31
0.0
  0
LINE
  8
LC-001-002-----0
  6
CONTINUOUS
 62
     1
  5
221
 10
460.209958
 20
287.418253
 30
0.0
 11
538.209958
 21
287.418253
 31
0.0
  0
CIRCLE
  8
LC-001-002-----0
  6
CONTINUOUS
 62
     1
  5
222
 10
499.209958
 20
330.418253
 30
0.0
 40
21.0
  0
LINE
  8
LC-001-002-----0
  6
CONTINUOUS
 62
     1
  5
223
 10
489.645509
 20
344.244363
 30
0.0
 11
495.771837
 21
333.633253
 31
0.0
  0
ARC
  8
LC-002-002-RND-0
  6
CONTINUOUS
  5
224
 10
488.346471
 20
343.494363
 30
0.0
 40
1.5
 50
30.0
 51
129.719424
  0
LINE
  8
LC-001-002-----0
  6
CONTINUOUS
 62
     1
  5
225
 10
482.454828
 20
331.793253
 30
0.0
 11
494.706626
 21
331.793253
 31
0.0
  0
ARC
  8
LC-002-002-RND-0
  6
CONTINUOUS
  5
226
 10
482.454828
 20
333.293253
 30
0.0
 40
1.5
 50
170.263479
 51
270.0
  0
ARC
  8
LC-001-002-----0
  6
CONTINUOUS
 62
     1
  5
227
 10
499.209958
 20
330.418253
 30
0.0
 40
18.5
 50
129.719424
 51
170.263479
  0
LINE
  8
LC-001-002-----0
  6
CONTINUOUS
 62
     1
  5
228
 10
482.453971
 20
329.048253
 30
0.0
 11
494.706626
 21
329.048253
 31
0.0
  0
ARC
  8
LC-002-002-RND-0
  6
CONTINUOUS
  5
229
 10
482.453971
 20
327.548253
 30
0.0
 40
1.5
 50
90.0
 51
189.719424
  0
ARC
  8
LC-001-002-----0
  6
CONTINUOUS
 62
     1
  5
22A
 10
499.209958
 20
330.418253
 30
0.0
 40
18.5
 50
189.719424
 51
230.280576
  0
ARC
  8
LC-002-002-RND-0
  6
CONTINUOUS
  5
22B
 10
488.346471
 20
317.342142
 30
0.0
 40
1.5
 50
230.280576
 51
330.0
  0
LINE
  8
LC-001-002-----0
  6
CONTINUOUS
 62
     1
  5
22C
 10
495.771837
 20
327.203253
 30
0.0
 11
489.645509
 21
316.592142
 31
0.0
  0
ARC
  8
LC-002-002-RND-0
  6
CONTINUOUS
  5
22D
 10
493.317457
 20
314.472142
 30
0.0
 40
1.5
 50
150.0
 51
249.719424
  0
LINE
  8
LC-001-002-----0
  6
CONTINUOUS
 62
     1
  5
22E
 10
498.144746
 20
325.833253
 30
0.0
 11
492.018419
 21
315.222142
 31
0.0
  0
LINE
  8
LC-001-002-----0
  6
CONTINUOUS
 62
     1
  5
22F
 10
500.275169
 20
325.833253
 30
0.0
 11
506.401496
 21
315.222142
 31
0.0
  0
ARC
  8
LC-002-002-RND-0
  6
CONTINUOUS
  5
230
 10
505.102458
 20
314.472142
 30
0.0
 40
1.5
 50
290.280576
 51
30.0
  0
ARC
  8
LC-001-002-----0
  6
CONTINUOUS
 62
     1
  5
231
 10
499.209958
 20
330.418253
 30
0.0
 40
18.5
 50
249.719424
 51
290.280576
  0
ARC
  8
LC-002-002-RND-0
  6
CONTINUOUS
  5
232
 10
510.073444
 20
317.342142
 30
0.0
 40
1.5
 50
210.0
 51
309.719424
  0
LINE
  8
LC-001-002-----0
  6
CONTINUOUS
 62
     1
  5
233
 10
502.648079
 20
327.203253
 30
0.0
 11
508.774406
 21
316.592142
 31
0.0
  0
LINE
  8
LC-001-002-----0
  6
CONTINUOUS
 62
     1
  5
234
 10
503.71329
 20
329.048253
 30
0.0
 11
515.965945
 21
329.048253
 31
0.0
  0
ARC
  8
LC-002-002-RND-0
  6
CONTINUOUS
  5
235
 10
515.965945
 20
327.548253
 30
0.0
 40
1.5
 50
350.280576
 51
90.0
  0
ARC
  8
LC-001-002-----0
  6
CONTINUOUS
 62
     1
  5
236
 10
499.209958
 20
330.418253
 30
0.0
 40
18.5
 50
309.719424
 51
350.280576
  0
ARC
  8
LC-002-002-RND-0
  6
CONTINUOUS
  5
237
 10
515.965087
 20
333.293253
 30
0.0
 40
1.5
 50
270.0
 51
9.736521
  0
LINE
  8
LC-001-002-----0
  6
CONTINUOUS
 62
     1
  5
238
 10
503.71329
 20
331.793253
 30
0.0
 11
515.965087
 21
331.793253
 31
0.0
  0
LINE
  8
LC-001-002-----0
  6
CONTINUOUS
 62
     1
  5
239
 10
508.774406
 20
344.244363
 30
0.0
 11
502.648079
 21
333.633253
 31
0.0
  0
ARC
  8
LC-002-002-RND-0
  6
CONTINUOUS
  5
23A
 10
510.073444
 20
343.494363
 30
0.0
 40
1.5
 50
50.280576
 51
150.0
  0
ARC
  8
LC-001-002-----0
  6
CONTINUOUS
 62
     1
  5
23B
 10
499.209958
 20
330.418253
 30
0.0
 40
18.5
 50
9.736521
 51
50.280576
  0
ARC
  8
LC-002-002-RND-0
  6
CONTINUOUS
  5
23C
 10
505.102458
 20
346.364363
 30
0.0
 40
1.5
 50
330.0
 51
69.719424
  0
LINE
  8
LC-001-002-----0
  6
CONTINUOUS
 62
     1
  5
23D
 10
506.401496
 20
345.614363
 30
0.0
 11
500.275169
 21
335.003253
 31
0.0
  0
LINE
  8
LC-001-002-----0
  6
CONTINUOUS
 62
     1
  5
23E
 10
492.018419
 20
345.614363
 30
0.0
 11
498.144746
 21
335.003253
 31
0.0
  0
ARC
  8
LC-002-002-RND-0
  6
CONTINUOUS
  5
23F
 10
493.317457
 20
346.364363
 30
0.0
 40
1.5
 50
110.280576
 51
210.0
  0
ARC
  8
LC-001-002-----0
  6
CONTINUOUS
 62
     1
  5
240
 10
499.209958
 20
330.418253
 30
0.0
 40
18.5
 50
69.719424
 51
110.280576
  0
ARC
  8
LC-001-002-----0
  6
CONTINUOUS
 62
     1
  5
241
 10
499.209958
 20
325.218253
 30
0.0
 40
1.2
 50
30.0
 51
150.0
  0
ARC
  8
LC-001-002-----0
  6
CONTINUOUS
 62
     1
  5
242
 10
503.71329
 20
327.818253
 30
0.0
 40
1.2
 50
90.0
 51
210.0
  0
ARC
  8
LC-001-002-----0
  6
CONTINUOUS
 62
     1
  5
243
 10
503.71329
 20
333.018253
 30
0.0
 40
1.2
 50
150.0
 51
270.0
  0
ARC
  8
LC-001-002-----0
  6
CONTINUOUS
 62
     1
  5
244
 10
499.209958
 20
335.618253
 30
0.0
 40
1.2
 50
210.0
 51
330.0
  0
ARC
  8
LC-001-002-----0
  6
CONTINUOUS
 62
     1
  5
245
 10
494.706626
 20
333.018253
 30
0.0
 40
1.2
 50
270.0
 51
30.0
  0
ARC
  8
LC-001-002-----0
  6
CONTINUOUS
 62
     1
  5
246
 10
494.706626
 20
327.818253
 30
0.0
 40
1.2
 50
330.0
 51
90.0
  0
ENDSEC
  0
EOF
