  0
SECTION
  2
HEADER
  9
$ACADVER
  1
AC1009
  9
$INSBASE
 10
0.0
 20
0.0
 30
0.0
  9
$EXTMIN
 10
-315.0
 20
-148.5
 30
0.0
  9
$EXTMAX
 10
525.0
 20
445.5
 30
0.0
  9
$LIMMIN
 10
-315.0
 20
-148.5
  9
$LIMMAX
 10
525.0
 20
445.5
  9
$ORTHOMODE
 70
     0
  9
$REGENMODE
 70
     1
  9
$FILLMODE
 70
     1
  9
$QTEXTMODE
 70
     0
  9
$MIRRTEXT
 70
     1
  9
$DRAGMODE
 70
     2
  9
$LTSCALE
 40
2.0
  9
$OSMODE
 70
     0
  9
$ATTMODE
 70
     1
  9
$TEXTSIZE
 40
0.2
  9
$TRACEWID
 40
0.05
  9
$TEXTSTYLE
  7
STANDARD
  9
$CLAYER
  8
0
  9
$CELTYPE
  6
BYLAYER
  9
$CECOLOR
 62
     7
  9
$DIMSCALE
 40
2.0
  9
$DIMASZ
 40
3.5
  9
$DIMEXO
 40
0.0625
  9
$DIMDLI
 40
0.38
  9
$DIMRND
 40
0.0
  9
$DIMDLE
 40
0.0
  9
$DIMEXE
 40
0.18
  9
$DIMTP
 40
0.0
  9
$DIMTM
 40
0.0
  9
$DIMTXT
 40
3.5
  9
$DIMCEN
 40
0.09
  9
$DIMTSZ
 40
0.0
  9
$DIMTOL
 70
     0
  9
$DIMLIM
 70
     0
  9
$DIMTIH
 70
     1
  9
$DIMTOH
 70
     1
  9
$DIMSE1
 70
     0
  9
$DIMSE2
 70
     0
  9
$DIMTAD
 70
     1
  9
$DIMZIN
 70
     0
  9
$DIMBLK
  1

  9
$DIMASO
 70
     1
  9
$DIMSHO
 70
     1
  9
$DIMPOST
  1

  9
$DIMAPOST
  1

  9
$DIMALT
 70
     0
  9
$DIMALTD
 70
     2
  9
$DIMALTF
 40
25.4
  9
$DIMLFAC
 40
1.0
  9
$DIMTOFL
 70
     0
  9
$DIMTVP
 40
0.0
  9
$DIMTIX
 70
     0
  9
$DIMSOXD
 70
     0
  9
$DIMSAH
 70
     0
  9
$DIMBLK1
  1

  9
$DIMBLK2
  1

  9
$DIMSTYLE
  2
STANDARD
  9
$DIMCLRD
 70
     0
  9
$DIMCLRE
 70
     0
  9
$DIMCLRT
 70
     0
  9
$DIMTFAC
 40
1.0
  9
$DIMGAP
 40
0.09
  9
$LUNITS
 70
     2
  9
$LUPREC
 70
     2
  9
$AXISMODE
 70
     0
  9
$AXISUNIT
 10
0.0
 20
0.0
  9
$SKETCHINC
 40
0.1
  9
$FILLETRAD
 40
0.0
  9
$AUNITS
 70
     0
  9
$AUPREC
 70
     0
  9
$MENU
  1
acad
  9
$ELEVATION
 40
0.0
  9
$PELEVATION
 40
0.0
  9
$THICKNESS
 40
0.0
  9
$LIMCHECK
 70
     0
  9
$BLIPMODE
 70
     1
  9
$CHAMFERA
 40
0.0
  9
$CHAMFERB
 40
0.0
  9
$SKPOLY
 70
     0
  9
$TDCREATE
 40
0.000000000
  9
$TDUPDATE
 40
0.000000000
  9
$TDINDWG
 40
0.0000000000
  9
$TDUSRTIMER
 40
0.0000000000
  9
$USRTIMER
 70
     1
  9
$ANGBASE
 50
0.0
  9
$ANGDIR
 70
     0
  9
$PDMODE
 70
     0
  9
$PDSIZE
 40
0.0
  9
$PLINEWID
 40
0.0
  9
$COORDS
 70
     0
  9
$SPLFRAME
 70
     0
  9
$SPLINETYPE
 70
     6
  9
$SPLINESEGS
 70
     8
  9
$ATTDIA
 70
     0
  9
$ATTREQ
 70
     1
  9
$HANDLING
 70
     1
  9
$HANDSEED
  5
E6
  9
$SURFTAB1
 70
     6
  9
$SURFTAB2
 70
     6
  9
$SURFTYPE
 70
     6
  9
$SURFU
 70
     6
  9
$SURFV
 70
     6
  9
$UCSNAME
  2

  9
$UCSORG
 10
0.0
 20
0.0
 30
0.0
  9
$UCSXDIR
 10
1.0
 20
0.0
 30
0.0
  9
$UCSYDIR
 10
0.0
 20
1.0
 30
0.0
  9
$PUCSNAME
  2

  9
$PUCSORG
 10
0.0
 20
0.0
 30
0.0
  9
$PUCSXDIR
 10
1.0
 20
0.0
 30
0.0
  9
$PUCSYDIR
 10
0.0
 20
1.0
 30
0.0
  9
$USERI1
 70
     0
  9
$USERI2
 70
     0
  9
$USERI3
 70
     0
  9
$USERI4
 70
     0
  9
$USERI5
 70
     0
  9
$USERR1
 40
0.0
  9
$USERR2
 40
0.0
  9
$USERR3
 40
0.0
  9
$USERR4
 40
0.0
  9
$USERR5
 40
0.0
  9
$WORLDVIEW
 70
     1
  9
$SHADEDGE
 70
     3
  9
$SHADEDIF
 70
    70
  9
$TILEMODE
 70
     1
  9
$MAXACTVP
 70
    16
  9
$PINSBASE
 10
0.0
 20
0.0
 30
0.0
  9
$PLIMCHECK
 70
     0
  9
$PEXTMIN
 10
1.000000E+20
 20
1.000000E+20
 30
1.000000E+20
  9
$PEXTMAX
 10
-1.000000E+20
 20
-1.000000E+20
 30
-1.000000E+20
  9
$PLIMMIN
 10
-315.0
 20
-148.5
  9
$PLIMMAX
 10
525.0
 20
445.5
  9
$UNITMODE
 70
     0
  9
$VISRETAIN
 70
     0
  9
$PLINEGEN
 70
     1
  9
$PSLTSCALE
 70
     0
  9
$TREEDEPTH
 70
  3020
  9
$DWGCODEPAGE
  3
dos850
  0
ENDSEC
  0
SECTION
  2
TABLES
  0
TABLE
  2
VPORT
 70
     1
  0
VPORT
  2
*ACTIVE
 70
     0
 10
0.0
 20
0.0
 11
1.0
 21
1.0
 12
420.0
 22
297.0
 13
0.0
 23
0.0
 14
1.0
 24
1.0
 15
0.0
 25
0.0
 16
0.0
 26
0.0
 36
1.0
 17
-315.0
 27
-148.5
 37
0.0
 40
594.0
 41
1.604229
 42
50.0
 43
0.0
 44
0.0
 50
0.0
 51
0.0
 71
     0
 72
   100
 73
     1
 74
     1
 75
     0
 76
     0
 77
     0
 78
     0
  0
ENDTAB
  0
TABLE
  2
LTYPE
 70
     3
  0
LTYPE
  2
CONTINUOUS
 70
    64
  3
Solid line
 72
    65
 73
     0
 40
0.0
  0
LTYPE
  2
DASHDOT
 70
    64
  3
__ . __ . __ . __ . __
 72
    65
 73
     4
 40
7.5
 49
5.0
 49
-1.25
 49
0.0
 49
-1.25
  0
LTYPE
  2
CENTER
 70
    64
  3
__ . __ . __ . __ . __
 72
    65
 73
     4
 40
7.5
 49
5.0
 49
-1.25
 49
0.0
 49
-1.25
  0
ENDTAB
  0
TABLE
  2
LAYER
 70
     9
  0
LAYER
  2
0
 70
     0
 62
     7
  6
CONTINUOUS
  0
LAYER
  2
LC-INFO-1-2-MM-A3-0
 70
     1
 62
    -1
  6
CONTINUOUS
  0
LAYER
  2
LC-001-005-----0
 70
     0
 62
     2
  6
CONTINUOUS
  0
LAYER
  2
LC-004-003-MTH-0
 70
     0
 62
     2
  6
CONTINUOUS
  0
LAYER
  2
LC-003-003-----0
 70
     0
 62
     2
  6
CONTINUOUS
  0
LAYER
  2
LC-005-003-MTG-0
 70
     0
 62
     2
  6
CONTINUOUS
  0
LAYER
  2
LC-002-006-MLN-0
 70
     0
 62
     2
  6
CENTER
  0
LAYER
  2
LC-006-002-----0
 70
     0
 62
     1
  6
CONTINUOUS
  0
LAYER
  2
LC-000
 70
     0
 62
     7
  6
CONTINUOUS
  0
ENDTAB
  0
TABLE
  2
STYLE
 70
     4
  0
STYLE
  2
STANDARD
 70
     0
 40
0.0
 41
1.0
 50
0.0
 71
     0
 42
0.0
  3
txt
  4

  0
STYLE
  2
LC-STANDARD
 70
    64
 40
0.0
 41
1.0
 50
0.0
 71
     0
 42
3.5
  3
MONOTXT
  4

  0
STYLE
  2
LC-TXTSTYLE-150-400-0-0-D2
 70
    64
 40
0.0
 41
1.0
 50
15.0
 71
     0
 42
3.5
  3
MONOTXT
  4

  0
STYLE
  2
LC-TXTSTYLE-150-400-0-0-D3
 70
    64
 40
0.0
 41
1.0
 50
15.0
 71
     0
 42
3.5
  3
LC-STANDARD
  4

  0
ENDTAB
  0
TABLE
  2
VIEW
 70
     0
  0
ENDTAB
  0
TABLE
  2
UCS
 70
     0
  0
ENDTAB
  0
TABLE
  2
APPID
 70
     1
  0
APPID
  2
ACAD
 70
     0
  0
ENDTAB
  0
TABLE
  2
DIMSTYLE
 70
     3
  0
DIMSTYLE
  2
STANDARD
 70
     0
  3

  4

  5

  6

  7

 40
1.0
 41
0.18
 42
0.0625
 43
0.38
 44
0.18
 45
0.0
 46
0.0
 47
0.0
 48
0.0
 71
     0
 72
     0
 73
     1
 74
     1
 75
     0
 76
     0
 77
     0
 78
     0
140
0.18
141
0.09
142
0.0
143
25.4
144
1.0
145
0.0
146
1.0
147
0.09
170
     0
171
     2
172
     0
173
     0
174
     0
175
     0
176
     0
177
     0
178
     0
  0
DIMSTYLE
  2
LC-STANDARD
 70
     0
  3

  4

  5

  6

  7

 40
1.0
 41
3.5
 42
0.0
 43
7.5
 44
1.8
 45
0.0
 46
0.0
 47
0.0
 48
0.0
 71
     0
 72
     0
 73
     0
 74
     0
 75
     0
 76
     0
 77
     1
 78
     8
140
3.5
141
0.0
142
0.0
143
25.4
144
1.0
145
0.0
146
0.71
147
1.5
170
     0
171
     2
172
     1
173
     0
174
     0
175
     0
176
     0
177
     0
178
     3
  0
DIMSTYLE
  2
LC-DIM-L-0090-02-02
 70
     0
  3

  4

  5

  6

  7

 40
2.0
 41
3.5
 42
0.0
 43
7.5
 44
1.8
 45
0.0
 46
0.0
 47
0.0
 48
0.0
 71
     0
 72
     0
 73
     0
 74
     0
 75
     0
 76
     0
 77
     1
 78
     8
140
9.0
141
0.0
142
0.0
143
25.4
144
1.0
145
0.0
146
0.71
147
1.5
170
     0
171
     2
172
     0
173
     0
174
     0
175
     0
176
     2
177
     2
178
     6
  0
ENDTAB
  0
ENDSEC
  0
SECTION
  2
BLOCKS
  0
BLOCK
  8
0
  5
23
  2
*X0
 70
    65
 10
84.809106
 20
191.822407
 30
0.0
  3
*X0
  0
LINE
  8
LC-001-005-----0
  6
CONTINUOUS
  5
25
 10
85.983799
 20
193.46403
 30
0.0
 11
86.714514
 21
194.194745
 31
0.0
  0
LINE
  8
LC-001-005-----0
  6
CONTINUOUS
  5
26
 10
85.635272
 20
195.94393
 30
0.0
 11
86.714514
 21
197.023172
 31
0.0
  0
LINE
  8
LC-001-005-----0
  6
CONTINUOUS
  5
27
 10
85.286745
 20
198.42383
 30
0.0
 11
86.714514
 21
199.851599
 31
0.0
  0
LINE
  8
LC-001-005-----0
  6
CONTINUOUS
  5
28
 10
84.938218
 20
200.90373
 30
0.0
 11
85.856895
 21
201.822407
 31
0.0
  0
ENDBLK
  8
0
  5
29
  0
BLOCK
  8
0
  5
2B
  2
*X1
 70
    65
 10
126.714514
 20
191.822407
 30
0.0
  3
*X1
  0
LINE
  8
LC-001-005-----0
  6
CONTINUOUS
  5
2C
 10
126.768584
 20
191.822407
 30
0.0
 11
127.287434
 21
192.341258
 31
0.0
  0
LINE
  8
LC-001-005-----0
  6
CONTINUOUS
  5
2D
 10
126.714514
 20
194.596765
 30
0.0
 11
127.749945
 21
195.632196
 31
0.0
  0
LINE
  8
LC-001-005-----0
  6
CONTINUOUS
  5
2E
 10
126.714514
 20
197.425192
 30
0.0
 11
128.212456
 21
198.923134
 31
0.0
  0
LINE
  8
LC-001-005-----0
  6
CONTINUOUS
  5
2F
 10
126.714514
 20
200.253619
 30
0.0
 11
128.283302
 21
201.822407
 31
0.0
  0
ENDBLK
  8
0
  5
30
  0
BLOCK
  8
0
  5
32
  2
*D2
 70
    65
 10
0.0
 20
0.0
 30
0.0
  3
*D2
  0
LINE
  8
LC-004-003-MTH-0
  6
CONTINUOUS
  5
34
 10
86.714514
 20
191.822407
 30
0.0
 11
86.714514
 21
164.2
 31
0.0
  0
LINE
  8
LC-004-003-MTH-0
  6
CONTINUOUS
  5
35
 10
126.714514
 20
191.822407
 30
0.0
 11
126.714514
 21
164.2
 31
0.0
  0
LINE
  8
LC-003-003-----0
  6
CONTINUOUS
  5
37
 10
68.868507
 20
172.650529
 30
0.0
 11
86.714514
 21
175.0
 31
0.0
  0
LINE
  8
LC-003-003-----0
  6
CONTINUOUS
  5
38
 10
86.714514
 20
175.0
 30
0.0
 11
68.868507
 21
177.349471
 31
0.0
  0
LINE
  8
LC-003-003-----0
  6
CONTINUOUS
  5
39
 10
68.868507
 20
177.349471
 30
0.0
 11
68.868507
 21
172.650529
 31
0.0
  0
LINE
  8
LC-003-003-----0
  6
CONTINUOUS
  5
3A
 10
68.828469
 20
173.261391
 30
0.0
 11
82.034514
 21
175.0
 31
0.0
  0
LINE
  8
LC-003-003-----0
  6
CONTINUOUS
  5
3B
 10
82.034514
 20
175.0
 30
0.0
 11
68.828469
 21
176.738609
 31
0.0
  0
LINE
  8
LC-003-003-----0
  6
CONTINUOUS
  5
3C
 10
68.788431
 20
173.872254
 30
0.0
 11
77.354514
 21
175.0
 31
0.0
  0
LINE
  8
LC-003-003-----0
  6
CONTINUOUS
  5
3D
 10
77.354514
 20
175.0
 30
0.0
 11
68.788431
 21
176.127746
 31
0.0
  0
LINE
  8
LC-003-003-----0
  6
CONTINUOUS
  5
3E
 10
68.748392
 20
174.483116
 30
0.0
 11
72.674514
 21
175.0
 31
0.0
  0
LINE
  8
LC-003-003-----0
  6
CONTINUOUS
  5
3F
 10
72.674514
 20
175.0
 30
0.0
 11
68.748392
 21
175.516884
 31
0.0
  0
LINE
  8
LC-003-003-----0
  6
CONTINUOUS
  5
40
 10
144.560522
 20
177.349471
 30
0.0
 11
126.714514
 21
175.0
 31
0.0
  0
LINE
  8
LC-003-003-----0
  6
CONTINUOUS
  5
41
 10
126.714514
 20
175.0
 30
0.0
 11
144.560522
 21
172.650529
 31
0.0
  0
LINE
  8
LC-003-003-----0
  6
CONTINUOUS
  5
42
 10
144.560522
 20
172.650529
 30
0.0
 11
144.560522
 21
177.349471
 31
0.0
  0
LINE
  8
LC-003-003-----0
  6
CONTINUOUS
  5
43
 10
144.60056
 20
176.738609
 30
0.0
 11
131.394514
 21
175.0
 31
0.0
  0
LINE
  8
LC-003-003-----0
  6
CONTINUOUS
  5
44
 10
131.394514
 20
175.0
 30
0.0
 11
144.60056
 21
173.261391
 31
0.0
  0
LINE
  8
LC-003-003-----0
  6
CONTINUOUS
  5
45
 10
144.640598
 20
176.127746
 30
0.0
 11
136.074514
 21
175.0
 31
0.0
  0
LINE
  8
LC-003-003-----0
  6
CONTINUOUS
  5
46
 10
136.074514
 20
175.0
 30
0.0
 11
144.640598
 21
173.872254
 31
0.0
  0
LINE
  8
LC-003-003-----0
  6
CONTINUOUS
  5
47
 10
144.680636
 20
175.516884
 30
0.0
 11
140.754514
 21
175.0
 31
0.0
  0
LINE
  8
LC-003-003-----0
  6
CONTINUOUS
  5
48
 10
140.754514
 20
175.0
 30
0.0
 11
144.680636
 21
174.483116
 31
0.0
  0
LINE
  8
LC-005-003-MTG-0
  6
CONTINUOUS
  5
4A
 10
61.514514
 20
175.0
 30
0.0
 11
200.917034
 21
175.0
 31
0.0
  0
TEXT
  8
LC-003-003-----0
  6
CONTINUOUS
 62
     6
  5
4C
 10
153.98976
 20
185.431999
 30
0.0
 40
18.0
  1
Ø40
 41
0.9
 51
15.0
  7
LC-TXTSTYLE-150-400-0-0-D0
  0
ENDBLK
  8
0
  5
4D
  0
BLOCK
  8
0
  5
4F
  2
*D3
 70
    65
 10
0.0
 20
0.0
 30
0.0
  3
*D3
  0
LINE
  8
LC-004-003-MTH-0
  6
CONTINUOUS
  5
50
 10
86.214514
 20
191.822407
 30
0.0
 11
86.214514
 21
133.2
 31
0.0
  0
LINE
  8
LC-004-003-MTH-0
  6
CONTINUOUS
  5
51
 10
127.214514
 20
191.822407
 30
0.0
 11
127.214514
 21
133.2
 31
0.0
  0
LINE
  8
LC-003-003-----0
  6
CONTINUOUS
  5
52
 10
68.368507
 20
141.650529
 30
0.0
 11
86.214514
 21
144.0
 31
0.0
  0
LINE
  8
LC-003-003-----0
  6
CONTINUOUS
  5
53
 10
86.214514
 20
144.0
 30
0.0
 11
68.368507
 21
146.349471
 31
0.0
  0
LINE
  8
LC-003-003-----0
  6
CONTINUOUS
  5
54
 10
68.368507
 20
146.349471
 30
0.0
 11
68.368507
 21
141.650529
 31
0.0
  0
LINE
  8
LC-003-003-----0
  6
CONTINUOUS
  5
55
 10
68.328469
 20
142.261391
 30
0.0
 11
81.534514
 21
144.0
 31
0.0
  0
LINE
  8
LC-003-003-----0
  6
CONTINUOUS
  5
56
 10
81.534514
 20
144.0
 30
0.0
 11
68.328469
 21
145.738609
 31
0.0
  0
LINE
  8
LC-003-003-----0
  6
CONTINUOUS
  5
57
 10
68.288431
 20
142.872254
 30
0.0
 11
76.854514
 21
144.0
 31
0.0
  0
LINE
  8
LC-003-003-----0
  6
CONTINUOUS
  5
58
 10
76.854514
 20
144.0
 30
0.0
 11
68.288431
 21
145.127746
 31
0.0
  0
LINE
  8
LC-003-003-----0
  6
CONTINUOUS
  5
59
 10
68.248392
 20
143.483116
 30
0.0
 11
72.174514
 21
144.0
 31
0.0
  0
LINE
  8
LC-003-003-----0
  6
CONTINUOUS
  5
5A
 10
72.174514
 20
144.0
 30
0.0
 11
68.248392
 21
144.516884
 31
0.0
  0
LINE
  8
LC-003-003-----0
  6
CONTINUOUS
  5
5B
 10
145.060522
 20
146.349471
 30
0.0
 11
127.214514
 21
144.0
 31
0.0
  0
LINE
  8
LC-003-003-----0
  6
CONTINUOUS
  5
5C
 10
127.214514
 20
144.0
 30
0.0
 11
145.060522
 21
141.650529
 31
0.0
  0
LINE
  8
LC-003-003-----0
  6
CONTINUOUS
  5
5D
 10
145.060522
 20
141.650529
 30
0.0
 11
145.060522
 21
146.349471
 31
0.0
  0
LINE
  8
LC-003-003-----0
  6
CONTINUOUS
  5
5E
 10
145.10056
 20
145.738609
 30
0.0
 11
131.894514
 21
144.0
 31
0.0
  0
LINE
  8
LC-003-003-----0
  6
CONTINUOUS
  5
5F
 10
131.894514
 20
144.0
 30
0.0
 11
145.10056
 21
142.261391
 31
0.0
  0
LINE
  8
LC-003-003-----0
  6
CONTINUOUS
  5
60
 10
145.140598
 20
145.127746
 30
0.0
 11
136.574514
 21
144.0
 31
0.0
  0
LINE
  8
LC-003-003-----0
  6
CONTINUOUS
  5
61
 10
136.574514
 20
144.0
 30
0.0
 11
145.140598
 21
142.872254
 31
0.0
  0
LINE
  8
LC-003-003-----0
  6
CONTINUOUS
  5
62
 10
145.180636
 20
144.516884
 30
0.0
 11
141.254514
 21
144.0
 31
0.0
  0
LINE
  8
LC-003-003-----0
  6
CONTINUOUS
  5
63
 10
141.254514
 20
144.0
 30
0.0
 11
145.180636
 21
143.483116
 31
0.0
  0
LINE
  8
LC-005-003-MTG-0
  6
CONTINUOUS
  5
64
 10
61.014514
 20
144.0
 30
0.0
 11
201.417034
 21
144.0
 31
0.0
  0
TEXT
  8
LC-003-003-----0
  6
CONTINUOUS
 62
     6
  5
65
 10
154.48976
 20
154.431999
 30
0.0
 40
18.0
  1
Ø41
 51
15.0
  7
LC-TXTSTYLE-150-400-0-0-D0
  0
ENDBLK
  8
0
  5
66
  0
BLOCK
  8
0
  5
68
  2
*D4
 70
    65
 10
0.0
 20
0.0
 30
0.0
  3
*D4
  0
LINE
  8
LC-004-003-MTH-0
  6
CONTINUOUS
  5
69
 10
127.214514
 20
191.822407
 30
0.0
 11
25.2
 21
191.822407
 31
0.0
  0
LINE
  8
LC-004-003-MTH-0
  6
CONTINUOUS
  5
6A
 10
128.619922
 20
201.822407
 30
0.0
 11
25.2
 21
201.822407
 31
0.0
  0
LINE
  8
LC-003-003-----0
  6
CONTINUOUS
  5
6B
 10
38.349471
 20
173.9764
 30
0.0
 11
36.0
 21
191.822407
 31
0.0
  0
LINE
  8
LC-003-003-----0
  6
CONTINUOUS
  5
6C
 10
36.0
 20
191.822407
 30
0.0
 11
33.650529
 21
173.9764
 31
0.0
  0
LINE
  8
LC-003-003-----0
  6
CONTINUOUS
  5
6D
 10
33.650529
 20
173.9764
 30
0.0
 11
38.349471
 21
173.9764
 31
0.0
  0
LINE
  8
LC-003-003-----0
  6
CONTINUOUS
  5
6E
 10
37.738609
 20
173.936362
 30
0.0
 11
36.0
 21
187.142407
 31
0.0
  0
LINE
  8
LC-003-003-----0
  6
CONTINUOUS
  5
6F
 10
36.0
 20
187.142407
 30
0.0
 11
34.261391
 21
173.936362
 31
0.0
  0
LINE
  8
LC-003-003-----0
  6
CONTINUOUS
  5
70
 10
37.127746
 20
173.896324
 30
0.0
 11
36.0
 21
182.462407
 31
0.0
  0
LINE
  8
LC-003-003-----0
  6
CONTINUOUS
  5
71
 10
36.0
 20
182.462407
 30
0.0
 11
34.872254
 21
173.896324
 31
0.0
  0
LINE
  8
LC-003-003-----0
  6
CONTINUOUS
  5
72
 10
36.516884
 20
173.856286
 30
0.0
 11
36.0
 21
177.782407
 31
0.0
  0
LINE
  8
LC-003-003-----0
  6
CONTINUOUS
  5
73
 10
36.0
 20
177.782407
 30
0.0
 11
35.483116
 21
173.856286
 31
0.0
  0
LINE
  8
LC-003-003-----0
  6
CONTINUOUS
  5
74
 10
33.650529
 20
219.668415
 30
0.0
 11
36.0
 21
201.822407
 31
0.0
  0
LINE
  8
LC-003-003-----0
  6
CONTINUOUS
  5
75
 10
36.0
 20
201.822407
 30
0.0
 11
38.349471
 21
219.668415
 31
0.0
  0
LINE
  8
LC-003-003-----0
  6
CONTINUOUS
  5
76
 10
38.349471
 20
219.668415
 30
0.0
 11
33.650529
 21
219.668415
 31
0.0
  0
LINE
  8
LC-003-003-----0
  6
CONTINUOUS
  5
77
 10
34.261391
 20
219.708453
 30
0.0
 11
36.0
 21
206.502407
 31
0.0
  0
LINE
  8
LC-003-003-----0
  6
CONTINUOUS
  5
78
 10
36.0
 20
206.502407
 30
0.0
 11
37.738609
 21
219.708453
 31
0.0
  0
LINE
  8
LC-003-003-----0
  6
CONTINUOUS
  5
79
 10
34.872254
 20
219.748491
 30
0.0
 11
36.0
 21
211.182407
 31
0.0
  0
LINE
  8
LC-003-003-----0
  6
CONTINUOUS
  5
7A
 10
36.0
 20
211.182407
 30
0.0
 11
37.127746
 21
219.748491
 31
0.0
  0
LINE
  8
LC-003-003-----0
  6
CONTINUOUS
  5
7B
 10
35.483116
 20
219.788529
 30
0.0
 11
36.0
 21
215.862407
 31
0.0
  0
LINE
  8
LC-003-003-----0
  6
CONTINUOUS
  5
7C
 10
36.0
 20
215.862407
 30
0.0
 11
36.516884
 21
219.788529
 31
0.0
  0
LINE
  8
LC-005-003-MTG-0
  6
CONTINUOUS
  5
7D
 10
36.0
 20
166.622407
 30
0.0
 11
36.0
 21
259.824927
 31
0.0
  0
TEXT
  8
LC-003-003-----0
  6
CONTINUOUS
 62
     6
  5
7E
 10
25.568001
 20
229.097653
 30
0.0
 40
18.0
  1
10
 50
90.0
 51
15.0
  7
LC-TXTSTYLE-150-400-0-0-D0
  0
ENDBLK
  8
0
  5
7F
  0
BLOCK
  8
0
  5
81
  2
*X5
 70
    65
 10
131.714514
 20
227.575755
 30
0.0
  3
*X5
  0
LINE
  8
LC-001-005-----0
  6
CONTINUOUS
  5
82
 10
134.964514
 20
228.205529
 30
0.0
 11
134.594288
 21
228.575755
 31
0.0
  0
LINE
  8
LC-001-005-----0
  6
CONTINUOUS
  5
83
 10
134.964514
 20
227.639843
 30
0.0
 11
134.028602
 21
228.575755
 31
0.0
  0
LINE
  8
LC-001-005-----0
  6
CONTINUOUS
  5
84
 10
134.462917
 20
227.575755
 30
0.0
 11
133.462917
 21
228.575755
 31
0.0
  0
LINE
  8
LC-001-005-----0
  6
CONTINUOUS
  5
85
 10
133.897231
 20
227.575755
 30
0.0
 11
132.897231
 21
228.575755
 31
0.0
  0
LINE
  8
LC-001-005-----0
  6
CONTINUOUS
  5
86
 10
133.331546
 20
227.575755
 30
0.0
 11
132.331546
 21
228.575755
 31
0.0
  0
LINE
  8
LC-001-005-----0
  6
CONTINUOUS
  5
87
 10
132.76586
 20
227.575755
 30
0.0
 11
131.76586
 21
228.575755
 31
0.0
  0
LINE
  8
LC-001-005-----0
  6
CONTINUOUS
  5
88
 10
132.200175
 20
227.575755
 30
0.0
 11
131.714514
 21
228.061416
 31
0.0
  0
ENDBLK
  8
0
  5
89
  0
BLOCK
  8
0
  5
8B
  2
*X6
 70
    65
 10
78.464514
 20
227.575755
 30
0.0
  3
*X6
  0
LINE
  8
LC-001-005-----0
  6
CONTINUOUS
  5
8C
 10
81.714514
 20
228.281099
 30
0.0
 11
81.419858
 21
228.575755
 31
0.0
  0
LINE
  8
LC-001-005-----0
  6
CONTINUOUS
  5
8D
 10
81.714514
 20
227.715413
 30
0.0
 11
80.854172
 21
228.575755
 31
0.0
  0
LINE
  8
LC-001-005-----0
  6
CONTINUOUS
  5
8E
 10
81.288487
 20
227.575755
 30
0.0
 11
80.288487
 21
228.575755
 31
0.0
  0
LINE
  8
LC-001-005-----0
  6
CONTINUOUS
  5
8F
 10
80.722801
 20
227.575755
 30
0.0
 11
79.722801
 21
228.575755
 31
0.0
  0
LINE
  8
LC-001-005-----0
  6
CONTINUOUS
  5
90
 10
80.157116
 20
227.575755
 30
0.0
 11
79.157116
 21
228.575755
 31
0.0
  0
LINE
  8
LC-001-005-----0
  6
CONTINUOUS
  5
91
 10
79.591431
 20
227.575755
 30
0.0
 11
78.591431
 21
228.575755
 31
0.0
  0
LINE
  8
LC-001-005-----0
  6
CONTINUOUS
  5
92
 10
79.025745
 20
227.575755
 30
0.0
 11
78.464514
 21
228.136986
 31
0.0
  0
ENDBLK
  8
0
  5
93
  0
BLOCK
  8
0
  5
95
  2
*D7
 70
    65
 10
0.0
 20
0.0
 30
0.0
  3
*D7
  0
LINE
  8
LC-004-003-MTH-0
  6
CONTINUOUS
  5
96
 10
78.464514
 20
228.575755
 30
0.0
 11
78.464514
 21
298.8
 31
0.0
  0
LINE
  8
LC-004-003-MTH-0
  6
CONTINUOUS
  5
97
 10
134.964514
 20
228.575755
 30
0.0
 11
134.964514
 21
298.8
 31
0.0
  0
LINE
  8
LC-003-003-----0
  6
CONTINUOUS
  5
98
 10
60.618507
 20
285.650529
 30
0.0
 11
78.464514
 21
288.0
 31
0.0
  0
LINE
  8
LC-003-003-----0
  6
CONTINUOUS
  5
99
 10
78.464514
 20
288.0
 30
0.0
 11
60.618507
 21
290.349471
 31
0.0
  0
LINE
  8
LC-003-003-----0
  6
CONTINUOUS
  5
9A
 10
60.618507
 20
290.349471
 30
0.0
 11
60.618507
 21
285.650529
 31
0.0
  0
LINE
  8
LC-003-003-----0
  6
CONTINUOUS
  5
9B
 10
60.578469
 20
286.261391
 30
0.0
 11
73.784514
 21
288.0
 31
0.0
  0
LINE
  8
LC-003-003-----0
  6
CONTINUOUS
  5
9C
 10
73.784514
 20
288.0
 30
0.0
 11
60.578469
 21
289.738609
 31
0.0
  0
LINE
  8
LC-003-003-----0
  6
CONTINUOUS
  5
9D
 10
60.538431
 20
286.872254
 30
0.0
 11
69.104514
 21
288.0
 31
0.0
  0
LINE
  8
LC-003-003-----0
  6
CONTINUOUS
  5
9E
 10
69.104514
 20
288.0
 30
0.0
 11
60.538431
 21
289.127746
 31
0.0
  0
LINE
  8
LC-003-003-----0
  6
CONTINUOUS
  5
9F
 10
60.498392
 20
287.483116
 30
0.0
 11
64.424514
 21
288.0
 31
0.0
  0
LINE
  8
LC-003-003-----0
  6
CONTINUOUS
  5
A0
 10
64.424514
 20
288.0
 30
0.0
 11
60.498392
 21
288.516884
 31
0.0
  0
LINE
  8
LC-003-003-----0
  6
CONTINUOUS
  5
A1
 10
152.810522
 20
290.349471
 30
0.0
 11
134.964514
 21
288.0
 31
0.0
  0
LINE
  8
LC-003-003-----0
  6
CONTINUOUS
  5
A2
 10
134.964514
 20
288.0
 30
0.0
 11
152.810522
 21
285.650529
 31
0.0
  0
LINE
  8
LC-003-003-----0
  6
CONTINUOUS
  5
A3
 10
152.810522
 20
285.650529
 30
0.0
 11
152.810522
 21
290.349471
 31
0.0
  0
LINE
  8
LC-003-003-----0
  6
CONTINUOUS
  5
A4
 10
152.85056
 20
289.738609
 30
0.0
 11
139.644514
 21
288.0
 31
0.0
  0
LINE
  8
LC-003-003-----0
  6
CONTINUOUS
  5
A5
 10
139.644514
 20
288.0
 30
0.0
 11
152.85056
 21
286.261391
 31
0.0
  0
LINE
  8
LC-003-003-----0
  6
CONTINUOUS
  5
A6
 10
152.890598
 20
289.127746
 30
0.0
 11
144.324514
 21
288.0
 31
0.0
  0
LINE
  8
LC-003-003-----0
  6
CONTINUOUS
  5
A7
 10
144.324514
 20
288.0
 30
0.0
 11
152.890598
 21
286.872254
 31
0.0
  0
LINE
  8
LC-003-003-----0
  6
CONTINUOUS
  5
A8
 10
152.930636
 20
288.516884
 30
0.0
 11
149.004514
 21
288.0
 31
0.0
  0
LINE
  8
LC-003-003-----0
  6
CONTINUOUS
  5
A9
 10
149.004514
 20
288.0
 30
0.0
 11
152.930636
 21
287.483116
 31
0.0
  0
LINE
  8
LC-005-003-MTG-0
  6
CONTINUOUS
  5
AA
 10
-28.138006
 20
288.0
 30
0.0
 11
160.164514
 21
288.0
 31
0.0
  0
TEXT
  8
LC-003-003-----0
  6
CONTINUOUS
 62
     6
  5
AB
 10
1.164012
 20
298.431999
 30
0.0
 40
18.0
  1
Ø56,5
 51
15.0
  7
LC-TXTSTYLE-150-400-0-0-D0
 72
     2
 11
56.77976
 21
298.431999
 31
0.0
  0
ENDBLK
  8
0
  5
AC
  0
BLOCK
  8
0
  5
AE
  2
*D8
 70
    65
 10
0.0
 20
0.0
 30
0.0
  3
*D8
  0
LINE
  8
LC-004-003-MTH-0
  6
CONTINUOUS
  5
AF
 10
134.964514
 20
227.575755
 30
0.0
 11
178.8
 21
227.575755
 31
0.0
  0
LINE
  8
LC-004-003-MTH-0
  6
CONTINUOUS
  5
B0
 10
134.964514
 20
228.575755
 30
0.0
 11
178.8
 21
228.575755
 31
0.0
  0
LINE
  8
LC-003-003-----0
  6
CONTINUOUS
  5
B1
 10
170.349471
 20
209.729748
 30
0.0
 11
168.0
 21
227.575755
 31
0.0
  0
LINE
  8
LC-003-003-----0
  6
CONTINUOUS
  5
B2
 10
168.0
 20
227.575755
 30
0.0
 11
165.650529
 21
209.729748
 31
0.0
  0
LINE
  8
LC-003-003-----0
  6
CONTINUOUS
  5
B3
 10
165.650529
 20
209.729748
 30
0.0
 11
170.349471
 21
209.729748
 31
0.0
  0
LINE
  8
LC-003-003-----0
  6
CONTINUOUS
  5
B4
 10
169.738609
 20
209.68971
 30
0.0
 11
168.0
 21
222.895755
 31
0.0
  0
LINE
  8
LC-003-003-----0
  6
CONTINUOUS
  5
B5
 10
168.0
 20
222.895755
 30
0.0
 11
166.261391
 21
209.68971
 31
0.0
  0
LINE
  8
LC-003-003-----0
  6
CONTINUOUS
  5
B6
 10
169.127746
 20
209.649672
 30
0.0
 11
168.0
 21
218.215755
 31
0.0
  0
LINE
  8
LC-003-003-----0
  6
CONTINUOUS
  5
B7
 10
168.0
 20
218.215755
 30
0.0
 11
166.872254
 21
209.649672
 31
0.0
  0
LINE
  8
LC-003-003-----0
  6
CONTINUOUS
  5
B8
 10
168.516884
 20
209.609634
 30
0.0
 11
168.0
 21
213.535755
 31
0.0
  0
LINE
  8
LC-003-003-----0
  6
CONTINUOUS
  5
B9
 10
168.0
 20
213.535755
 30
0.0
 11
167.483116
 21
209.609634
 31
0.0
  0
LINE
  8
LC-003-003-----0
  6
CONTINUOUS
  5
BA
 10
165.650529
 20
246.421763
 30
0.0
 11
168.0
 21
228.575755
 31
0.0
  0
LINE
  8
LC-003-003-----0
  6
CONTINUOUS
  5
BB
 10
168.0
 20
228.575755
 30
0.0
 11
170.349471
 21
246.421763
 31
0.0
  0
LINE
  8
LC-003-003-----0
  6
CONTINUOUS
  5
BC
 10
170.349471
 20
246.421763
 30
0.0
 11
165.650529
 21
246.421763
 31
0.0
  0
LINE
  8
LC-003-003-----0
  6
CONTINUOUS
  5
BD
 10
166.261391
 20
246.461801
 30
0.0
 11
168.0
 21
233.255755
 31
0.0
  0
LINE
  8
LC-003-003-----0
  6
CONTINUOUS
  5
BE
 10
168.0
 20
233.255755
 30
0.0
 11
169.738609
 21
246.461801
 31
0.0
  0
LINE
  8
LC-003-003-----0
  6
CONTINUOUS
  5
BF
 10
166.872254
 20
246.501839
 30
0.0
 11
168.0
 21
237.935755
 31
0.0
  0
LINE
  8
LC-003-003-----0
  6
CONTINUOUS
  5
C0
 10
168.0
 20
237.935755
 30
0.0
 11
169.127746
 21
246.501839
 31
0.0
  0
LINE
  8
LC-003-003-----0
  6
CONTINUOUS
  5
C1
 10
167.483116
 20
246.541877
 30
0.0
 11
168.0
 21
242.615755
 31
0.0
  0
LINE
  8
LC-003-003-----0
  6
CONTINUOUS
  5
C2
 10
168.0
 20
242.615755
 30
0.0
 11
168.516884
 21
246.541877
 31
0.0
  0
LINE
  8
LC-005-003-MTG-0
  6
CONTINUOUS
  5
C3
 10
168.0
 20
202.375755
 30
0.0
 11
168.0
 21
270.378275
 31
0.0
  0
TEXT
  8
LC-003-003-----0
  6
CONTINUOUS
 62
     6
  5
C4
 10
157.568001
 20
255.851001
 30
0.0
 40
18.0
  1
1
 50
90.0
 51
15.0
  7
LC-TXTSTYLE-150-400-0-0-D0
  0
ENDBLK
  8
0
  5
C5
  0
ENDSEC
  0
SECTION
  2
ENTITIES
  0
VIEWPORT
  8
LC-000
  5
E2
 67
     1
 68
     1
 10
420.0
 20
297.0
 30
0.0
 40
840.0
 41
594.0
 69
     1
1001
ACAD
1000
MVIEW
1002
{
1070
    16
1010
0.0
1020
0.0
1030
0.0
1010
0.0
1020
0.0
1030
1.0
1040
0.0
1040
594.0
1040
420.0
1040
297.0
1040
50.0
1040
0.0
1040
0.0
1070
     0
1070
   100
1070
     1
1070
     1
1070
     0
1070
     0
1070
     0
1070
     0
1040
0.0
1040
0.0
1040
0.0
1040
1.0
1040
1.0
1040
0.0
1040
0.0
1070
     0
1002
{
1002
}
1002
}
  0
VIEWPORT
  8
0
  5
E3
 67
     1
 68
     1
 10
0.0
 20
0.0
 30
0.0
 40
0.0
 41
0.0
 69
     1
1001
ACAD
1000
MVIEW
1002
{
1070
    16
1010
0.0
1020
0.0
1030
0.0
1010
0.0
1020
0.0
1030
1.0
1040
0.0
1040
594.0
1040
0.0
1040
0.0
1040
50.0
1040
0.0
1040
0.0
1070
     0
1070
   100
1070
     0
1070
     1
1070
     0
1070
     0
1070
     0
1070
     0
1040
0.0
1040
0.0
1040
0.0
1040
0.5
1040
0.5
1040
0.5
1040
0.5
1070
     0
1002
{
1002
}
1002
}
  0
INSERT
  8
0
  5
C6
  2
*X0
 10
84.809106
 20
191.822407
 30
0.0
  0
INSERT
  8
0
  5
C7
  2
*X1
 10
126.714514
 20
191.822407
 30
0.0
  0
DIMENSION
  8
0
  5
C8
  2
*D2
 10
106.714514
 20
175.0
 30
0.0
 11
106.714514
 21
175.0
 31
0.0
  1
%%c<>
 13
86.714514
 23
191.822407
 33
0.0
 14
126.714514
 24
191.822407
 34
0.0
  3
LC-DIM-L-0090-02-02
  0
DIMENSION
  8
0
  5
C9
  2
*D3
 10
106.714514
 20
144.0
 30
0.0
 11
106.714514
 21
144.0
 31
0.0
  1
%%c<>
 13
86.214514
 23
191.822407
 33
0.0
 14
127.214514
 24
191.822407
 34
0.0
  3
LC-DIM-L-0090-02-02
  0
DIMENSION
  8
0
  5
CA
  2
*D4
 10
36.0
 20
196.822407
 30
0.0
 11
36.0
 21
196.822407
 31
0.0
 13
127.214514
 23
191.822407
 33
0.0
 14
128.619922
 24
201.822407
 34
0.0
 50
90.0
  3
LC-DIM-L-0090-02-02
  0
INSERT
  8
0
  5
CB
  2
*X5
 10
131.714514
 20
227.575755
 30
0.0
  0
INSERT
  8
0
  5
CC
  2
*X6
 10
78.464514
 20
227.575755
 30
0.0
  0
DIMENSION
  8
0
  5
CD
  2
*D7
 10
24.760247
 20
288.0
 30
0.0
 11
24.760247
 21
288.0
 31
0.0
  1
%%c<>
 13
78.464514
 23
228.575755
 33
0.0
 14
134.964514
 24
228.575755
 34
0.0
  3
LC-DIM-L-0090-02-02
  0
DIMENSION
  8
0
  5
CE
  2
*D8
 10
168.0
 20
228.075755
 30
0.0
 11
168.0
 21
228.075755
 31
0.0
 13
134.964514
 23
228.575755
 33
0.0
 14
134.964514
 24
227.575755
 34
0.0
 50
90.0
  3
LC-DIM-L-0090-02-02
  0
LINE
  8
LC-002-006-MLN-0
  6
DASHDOT
  5
D2
 10
106.714514
 20
238.575755
 30
0.0
 11
106.714514
 21
217.575755
 31
0.0
  0
LINE
  8
LC-006-002-----0
  6
CONTINUOUS
  5
D4
 10
84.809106
 20
201.822407
 30
0.0
 11
128.619922
 21
201.822407
 31
0.0
  0
LINE
  8
LC-006-002-----0
  6
CONTINUOUS
  5
D5
 10
86.214514
 20
191.822407
 30
0.0
 11
84.809106
 21
201.822407
 31
0.0
  0
LINE
  8
LC-006-002-----0
  6
CONTINUOUS
  5
D6
 10
127.214514
 20
191.822407
 30
0.0
 11
86.214514
 21
191.822407
 31
0.0
  0
LINE
  8
LC-006-002-----0
  6
CONTINUOUS
  5
D7
 10
127.214514
 20
191.822407
 30
0.0
 11
128.619922
 21
201.822407
 31
0.0
  0
LINE
  8
LC-006-002-----0
  6
CONTINUOUS
  5
D8
 10
86.714514
 20
191.822407
 30
0.0
 11
86.714514
 21
201.822407
 31
0.0
  0
LINE
  8
LC-006-002-----0
  6
CONTINUOUS
  5
D9
 10
126.714514
 20
201.822407
 30
0.0
 11
126.714514
 21
191.822407
 31
0.0
  0
LINE
  8
LC-006-002-----0
  6
CONTINUOUS
  5
DA
 10
78.464514
 20
227.575755
 30
0.0
 11
134.964514
 21
227.575755
 31
0.0
  0
LINE
  8
LC-006-002-----0
  6
CONTINUOUS
  5
DB
 10
78.464514
 20
228.575755
 30
0.0
 11
134.964514
 21
228.575755
 31
0.0
  0
LINE
  8
LC-002-006-MLN-0
  6
DASHDOT
  5
DC
 10
106.714514
 20
211.822407
 30
0.0
 11
106.714514
 21
181.822407
 31
0.0
  0
LINE
  8
LC-006-002-----0
  6
CONTINUOUS
  5
DD
 10
131.714514
 20
228.575755
 30
0.0
 11
131.714514
 21
227.575755
 31
0.0
  0
LINE
  8
LC-006-002-----0
  6
CONTINUOUS
  5
DE
 10
134.964514
 20
228.575755
 30
0.0
 11
134.964514
 21
227.575755
 31
0.0
  0
LINE
  8
LC-006-002-----0
  6
CONTINUOUS
  5
DF
 10
81.714514
 20
228.575755
 30
0.0
 11
81.714514
 21
227.575755
 31
0.0
  0
LINE
  8
LC-006-002-----0
  6
CONTINUOUS
  5
E0
 10
78.464514
 20
228.575755
 30
0.0
 11
78.464514
 21
227.575755
 31
0.0
  0
ENDSEC
  0
EOF
