  0
SECTION
  2
HEADER
  9
$ACADVER
  1
AC1009
  9
$INSBASE
 10
0.0
 20
0.0
 30
0.0
  9
$EXTMIN
 10
-34.406553
 20
-15.48
 30
0.0
  9
$EXTMAX
 10
805.593447
 20
578.52
 30
0.0
  9
$LIMMIN
 10
-34.406553
 20
-15.48
  9
$LIMMAX
 10
805.593447
 20
578.52
  9
$ORTHOMODE
 70
     0
  9
$REGENMODE
 70
     1
  9
$FILLMODE
 70
     1
  9
$QTEXTMODE
 70
     0
  9
$MIRRTEXT
 70
     1
  9
$DRAGMODE
 70
     2
  9
$LTSCALE
 40
2.0
  9
$OSMODE
 70
     0
  9
$ATTMODE
 70
     1
  9
$TEXTSIZE
 40
0.2
  9
$TRACEWID
 40
0.05
  9
$TEXTSTYLE
  7
STANDARD
  9
$CLAYER
  8
0
  9
$CELTYPE
  6
BYLAYER
  9
$CECOLOR
 62
     7
  9
$DIMSCALE
 40
2.0
  9
$DIMASZ
 40
3.5
  9
$DIMEXO
 40
0.0625
  9
$DIMDLI
 40
0.38
  9
$DIMRND
 40
0.0
  9
$DIMDLE
 40
0.0
  9
$DIMEXE
 40
0.18
  9
$DIMTP
 40
0.0
  9
$DIMTM
 40
0.0
  9
$DIMTXT
 40
3.5
  9
$DIMCEN
 40
0.09
  9
$DIMTSZ
 40
0.0
  9
$DIMTOL
 70
     0
  9
$DIMLIM
 70
     0
  9
$DIMTIH
 70
     1
  9
$DIMTOH
 70
     1
  9
$DIMSE1
 70
     0
  9
$DIMSE2
 70
     0
  9
$DIMTAD
 70
     1
  9
$DIMZIN
 70
     0
  9
$DIMBLK
  1

  9
$DIMASO
 70
     1
  9
$DIMSHO
 70
     1
  9
$DIMPOST
  1

  9
$DIMAPOST
  1

  9
$DIMALT
 70
     0
  9
$DIMALTD
 70
     2
  9
$DIMALTF
 40
25.4
  9
$DIMLFAC
 40
1.0
  9
$DIMTOFL
 70
     0
  9
$DIMTVP
 40
0.0
  9
$DIMTIX
 70
     0
  9
$DIMSOXD
 70
     0
  9
$DIMSAH
 70
     0
  9
$DIMBLK1
  1

  9
$DIMBLK2
  1

  9
$DIMSTYLE
  2
STANDARD
  9
$DIMCLRD
 70
     0
  9
$DIMCLRE
 70
     0
  9
$DIMCLRT
 70
     0
  9
$DIMTFAC
 40
1.0
  9
$DIMGAP
 40
0.09
  9
$LUNITS
 70
     2
  9
$LUPREC
 70
     2
  9
$AXISMODE
 70
     0
  9
$AXISUNIT
 10
0.0
 20
0.0
  9
$SKETCHINC
 40
0.1
  9
$FILLETRAD
 40
0.0
  9
$AUNITS
 70
     0
  9
$AUPREC
 70
     0
  9
$MENU
  1
acad
  9
$ELEVATION
 40
0.0
  9
$PELEVATION
 40
0.0
  9
$THICKNESS
 40
0.0
  9
$LIMCHECK
 70
     0
  9
$BLIPMODE
 70
     1
  9
$CHAMFERA
 40
0.0
  9
$CHAMFERB
 40
0.0
  9
$SKPOLY
 70
     0
  9
$TDCREATE
 40
0.000000000
  9
$TDUPDATE
 40
0.000000000
  9
$TDINDWG
 40
0.0000000000
  9
$TDUSRTIMER
 40
0.0000000000
  9
$USRTIMER
 70
     1
  9
$ANGBASE
 50
0.0
  9
$ANGDIR
 70
     0
  9
$PDMODE
 70
     0
  9
$PDSIZE
 40
0.0
  9
$PLINEWID
 40
0.0
  9
$COORDS
 70
     0
  9
$SPLFRAME
 70
     0
  9
$SPLINETYPE
 70
     6
  9
$SPLINESEGS
 70
     8
  9
$ATTDIA
 70
     0
  9
$ATTREQ
 70
     1
  9
$HANDLING
 70
     1
  9
$HANDSEED
  5
151
  9
$SURFTAB1
 70
     6
  9
$SURFTAB2
 70
     6
  9
$SURFTYPE
 70
     6
  9
$SURFU
 70
     6
  9
$SURFV
 70
     6
  9
$UCSNAME
  2

  9
$UCSORG
 10
0.0
 20
0.0
 30
0.0
  9
$UCSXDIR
 10
1.0
 20
0.0
 30
0.0
  9
$UCSYDIR
 10
0.0
 20
1.0
 30
0.0
  9
$PUCSNAME
  2

  9
$PUCSORG
 10
0.0
 20
0.0
 30
0.0
  9
$PUCSXDIR
 10
1.0
 20
0.0
 30
0.0
  9
$PUCSYDIR
 10
0.0
 20
1.0
 30
0.0
  9
$USERI1
 70
     0
  9
$USERI2
 70
     0
  9
$USERI3
 70
     0
  9
$USERI4
 70
     0
  9
$USERI5
 70
     0
  9
$USERR1
 40
0.0
  9
$USERR2
 40
0.0
  9
$USERR3
 40
0.0
  9
$USERR4
 40
0.0
  9
$USERR5
 40
0.0
  9
$WORLDVIEW
 70
     1
  9
$SHADEDGE
 70
     3
  9
$SHADEDIF
 70
    70
  9
$TILEMODE
 70
     1
  9
$MAXACTVP
 70
    16
  9
$PINSBASE
 10
0.0
 20
0.0
 30
0.0
  9
$PLIMCHECK
 70
     0
  9
$PEXTMIN
 10
1.000000E+20
 20
1.000000E+20
 30
1.000000E+20
  9
$PEXTMAX
 10
-1.000000E+20
 20
-1.000000E+20
 30
-1.000000E+20
  9
$PLIMMIN
 10
-34.406553
 20
-15.48
  9
$PLIMMAX
 10
805.593447
 20
578.52
  9
$UNITMODE
 70
     0
  9
$VISRETAIN
 70
     0
  9
$PLINEGEN
 70
     1
  9
$PSLTSCALE
 70
     0
  9
$TREEDEPTH
 70
  3020
  9
$DWGCODEPAGE
  3
dos850
  0
ENDSEC
  0
SECTION
  2
TABLES
  0
TABLE
  2
VPORT
 70
     1
  0
VPORT
  2
*ACTIVE
 70
     0
 10
0.0
 20
0.0
 11
1.0
 21
1.0
 12
420.0
 22
297.0
 13
0.0
 23
0.0
 14
1.0
 24
1.0
 15
0.0
 25
0.0
 16
0.0
 26
0.0
 36
1.0
 17
-34.406553
 27
-15.48
 37
0.0
 40
594.0
 41
1.604229
 42
50.0
 43
0.0
 44
0.0
 50
0.0
 51
0.0
 71
     0
 72
   100
 73
     1
 74
     1
 75
     0
 76
     0
 77
     0
 78
     0
  0
ENDTAB
  0
TABLE
  2
LTYPE
 70
     3
  0
LTYPE
  2
CONTINUOUS
 70
    64
  3
Solid line
 72
    65
 73
     0
 40
0.0
  0
LTYPE
  2
DASHED
 70
    64
  3
__ __ __ __ __
 72
    65
 73
     2
 40
6.25
 49
5.0
 49
-1.25
  0
LTYPE
  2
DASHDOT
 70
    64
  3
__ . __ . __ . __ . __
 72
    65
 73
     4
 40
7.5
 49
5.0
 49
-1.25
 49
0.0
 49
-1.25
  0
ENDTAB
  0
TABLE
  2
LAYER
 70
     9
  0
LAYER
  2
0
 70
     0
 62
     7
  6
CONTINUOUS
  0
LAYER
  2
LC-INFO-1-2-MM-A3-0
 70
     1
 62
    -1
  6
CONTINUOUS
  0
LAYER
  2
LC-001-002-----0
 70
     0
 62
     2
  6
DASHED
  0
LAYER
  2
LC-005-003-MTH-0
 70
     0
 62
     2
  6
CONTINUOUS
  0
LAYER
  2
LC-004-003-----0
 70
     0
 62
     2
  6
CONTINUOUS
  0
LAYER
  2
LC-006-003-MTG-0
 70
     0
 62
     2
  6
CONTINUOUS
  0
LAYER
  2
LC-002-000-----0
 70
     0
 62
     7
  6
CONTINUOUS
  0
LAYER
  2
LC-003-000-----0
 70
     0
 62
     7
  6
CONTINUOUS
  0
LAYER
  2
LC-000
 70
     0
 62
     7
  6
CONTINUOUS
  0
ENDTAB
  0
TABLE
  2
STYLE
 70
     4
  0
STYLE
  2
STANDARD
 70
     0
 40
0.0
 41
1.0
 50
0.0
 71
     0
 42
0.0
  3
txt
  4

  0
STYLE
  2
LC-STANDARD
 70
    64
 40
0.0
 41
1.0
 50
0.0
 71
     0
 42
3.5
  3
MONOTXT
  4

  0
STYLE
  2
LC-TXTSTYLE-150-400-0-0-D2
 70
    64
 40
0.0
 41
1.0
 50
15.0
 71
     0
 42
3.5
  3
MONOTXT
  4

  0
STYLE
  2
LC-TXTSTYLE-150-400-0-0-D3
 70
    64
 40
0.0
 41
1.0
 50
15.0
 71
     0
 42
3.5
  3
LC-STANDARD
  4

  0
ENDTAB
  0
TABLE
  2
VIEW
 70
     0
  0
ENDTAB
  0
TABLE
  2
UCS
 70
     0
  0
ENDTAB
  0
TABLE
  2
APPID
 70
     1
  0
APPID
  2
ACAD
 70
     0
  0
ENDTAB
  0
TABLE
  2
DIMSTYLE
 70
     3
  0
DIMSTYLE
  2
STANDARD
 70
     0
  3

  4

  5

  6

  7

 40
1.0
 41
0.18
 42
0.0625
 43
0.38
 44
0.18
 45
0.0
 46
0.0
 47
0.0
 48
0.0
 71
     0
 72
     0
 73
     1
 74
     1
 75
     0
 76
     0
 77
     0
 78
     0
140
0.18
141
0.09
142
0.0
143
25.4
144
1.0
145
0.0
146
1.0
147
0.09
170
     0
171
     2
172
     0
173
     0
174
     0
175
     0
176
     0
177
     0
178
     0
  0
DIMSTYLE
  2
LC-STANDARD
 70
     0
  3

  4

  5

  6

  7

 40
1.0
 41
3.5
 42
0.0
 43
7.5
 44
1.8
 45
0.0
 46
0.0
 47
0.0
 48
0.0
 71
     0
 72
     0
 73
     0
 74
     0
 75
     0
 76
     0
 77
     1
 78
     8
140
3.5
141
0.0
142
0.0
143
25.4
144
1.0
145
0.0
146
0.71
147
1.5
170
     0
171
     2
172
     1
173
     0
174
     0
175
     0
176
     0
177
     0
178
     3
  0
DIMSTYLE
  2
LC-DIM-L-0090-02-02
 70
     0
  3

  4

  5

  6

  7

 40
2.0
 41
3.5
 42
0.0
 43
7.5
 44
1.8
 45
0.0
 46
0.0
 47
0.0
 48
0.0
 71
     0
 72
     0
 73
     0
 74
     0
 75
     0
 76
     0
 77
     1
 78
     8
140
9.0
141
0.0
142
0.0
143
25.4
144
1.0
145
0.0
146
0.71
147
1.5
170
     0
171
     2
172
     0
173
     0
174
     0
175
     0
176
     2
177
     2
178
     6
  0
ENDTAB
  0
ENDSEC
  0
SECTION
  2
BLOCKS
  0
BLOCK
  8
0
  5
23
  2
BLK1
 70
    64
 10
0.0
 20
0.0
 30
0.0
  3
BLK1
  0
ARC
  8
LC-001-002-----0
  6
CONTINUOUS
 62
     1
  5
26
 10
330.540848
 20
314.749347
 30
0.0
 40
9.503897
 50
359.691743
 51
18.076087
  0
ARC
  8
LC-001-002-----0
  6
CONTINUOUS
 62
     1
  5
27
 10
334.227237
 20
316.049986
 30
0.0
 40
5.596654
 50
17.127699
 51
43.385681
  0
ARC
  8
LC-001-002-----0
  6
CONTINUOUS
 62
     1
  5
28
 10
336.175412
 20
317.80402
 30
0.0
 40
2.976645
 50
44.607571
 51
64.637306
  0
ARC
  8
LC-001-002-----0
  6
CONTINUOUS
 62
     1
  5
29
 10
336.533289
 20
318.53902
 30
0.0
 40
2.159209
 50
64.864126
 51
89.700366
  0
ARC
  8
LC-001-002-----0
  6
CONTINUOUS
 62
     1
  5
2A
 10
336.555892
 20
318.539021
 30
0.0
 40
2.159209
 50
90.30014
 51
115.13638
  0
ARC
  8
LC-001-002-----0
  6
CONTINUOUS
 62
     1
  5
2B
 10
336.913776
 20
317.804023
 30
0.0
 40
2.976645
 50
115.3632
 51
135.392934
  0
ARC
  8
LC-001-002-----0
  6
CONTINUOUS
 62
     1
  5
2C
 10
338.861966
 20
316.050006
 30
0.0
 40
5.596654
 50
136.614824
 51
162.872807
  0
ARC
  8
LC-001-002-----0
  6
CONTINUOUS
 62
     1
  5
2D
 10
342.548367
 20
314.7494
 30
0.0
 40
9.503897
 50
161.924418
 51
180.308763
  0
ARC
  8
LC-001-002-----0
  6
CONTINUOUS
 62
     1
  5
2E
 10
342.548367
 20
314.647053
 30
0.0
 40
9.503897
 50
179.691743
 51
198.076087
  0
ARC
  8
LC-001-002-----0
  6
CONTINUOUS
 62
     1
  5
2F
 10
338.861978
 20
313.346414
 30
0.0
 40
5.596654
 50
197.127699
 51
223.385681
  0
ARC
  8
LC-001-002-----0
  6
CONTINUOUS
 62
     1
  5
30
 10
336.913803
 20
311.59238
 30
0.0
 40
2.976645
 50
224.607571
 51
244.637306
  0
ARC
  8
LC-001-002-----0
  6
CONTINUOUS
 62
     1
  5
31
 10
336.555926
 20
310.857379
 30
0.0
 40
2.159209
 50
244.864126
 51
269.700366
  0
ARC
  8
LC-001-002-----0
  6
CONTINUOUS
 62
     1
  5
32
 10
336.533323
 20
310.857379
 30
0.0
 40
2.159209
 50
270.30014
 51
295.13638
  0
ARC
  8
LC-001-002-----0
  6
CONTINUOUS
 62
     1
  5
33
 10
336.17544
 20
311.592377
 30
0.0
 40
2.976645
 50
295.3632
 51
315.392934
  0
ARC
  8
LC-001-002-----0
  6
CONTINUOUS
 62
     1
  5
34
 10
334.227249
 20
313.346394
 30
0.0
 40
5.596654
 50
316.614824
 51
342.872807
  0
ARC
  8
LC-001-002-----0
  6
CONTINUOUS
 62
     1
  5
35
 10
330.540849
 20
314.647
 30
0.0
 40
9.503897
 50
341.924418
 51
0.308763
  0
ENDBLK
  8
0
  5
36
  0
BLOCK
  8
0
  5
38
  2
BLK2
 70
    64
 10
0.0
 20
0.0
 30
0.0
  3
BLK2
  0
ARC
  8
LC-001-002-----0
  6
CONTINUOUS
 62
     1
  5
39
 10
334.517298
 20
301.728211
 30
0.0
 40
5.522367
 50
359.802929
 51
23.824283
  0
ARC
  8
LC-001-002-----0
  6
CONTINUOUS
 62
     1
  5
3A
 10
335.758609
 20
302.313247
 30
0.0
 40
4.150652
 50
23.358008
 51
52.474731
  0
ARC
  8
LC-001-002-----0
  6
CONTINUOUS
 62
     1
  5
3B
 10
336.508947
 20
303.279581
 30
0.0
 40
2.927234
 50
52.601501
 51
89.462986
  0
ARC
  8
LC-001-002-----0
  6
CONTINUOUS
 62
     1
  5
3C
 10
336.568047
 20
303.279624
 30
0.0
 40
2.927234
 50
90.619786
 51
127.481271
  0
ARC
  8
LC-001-002-----0
  6
CONTINUOUS
 62
     1
  5
3D
 10
337.319781
 20
302.314375
 30
0.0
 40
4.150652
 50
127.608041
 51
156.724764
  0
ARC
  8
LC-001-002-----0
  6
CONTINUOUS
 62
     1
  5
3E
 10
338.561935
 20
301.731133
 30
0.0
 40
5.522367
 50
156.258489
 51
180.279843
  0
ARC
  8
LC-001-002-----0
  6
CONTINUOUS
 62
     1
  5
3F
 10
338.561968
 20
301.685166
 30
0.0
 40
5.522367
 50
179.802929
 51
203.824283
  0
ARC
  8
LC-001-002-----0
  6
CONTINUOUS
 62
     1
  5
40
 10
337.320658
 20
301.10013
 30
0.0
 40
4.150652
 50
203.358008
 51
232.474731
  0
ARC
  8
LC-001-002-----0
  6
CONTINUOUS
 62
     1
  5
41
 10
336.570319
 20
300.133796
 30
0.0
 40
2.927234
 50
232.601501
 51
269.462986
  0
ARC
  8
LC-001-002-----0
  6
CONTINUOUS
 62
     1
  5
42
 10
336.51122
 20
300.133753
 30
0.0
 40
2.927234
 50
270.619786
 51
307.481271
  0
ARC
  8
LC-001-002-----0
  6
CONTINUOUS
 62
     1
  5
43
 10
335.759486
 20
301.099002
 30
0.0
 40
4.150652
 50
307.608041
 51
336.724764
  0
ARC
  8
LC-001-002-----0
  6
CONTINUOUS
 62
     1
  5
44
 10
334.517332
 20
301.682245
 30
0.0
 40
5.522367
 50
336.258489
 51
0.279843
  0
ENDBLK
  8
0
  5
45
  0
BLOCK
  8
0
  5
47
  2
BLK3
 70
    64
 10
0.0
 20
0.0
 30
0.0
  3
BLK3
  0
ARC
  8
LC-001-002-----0
  6
CONTINUOUS
 62
     1
  5
48
 10
334.515786
 20
327.713915
 30
0.0
 40
5.522367
 50
359.726959
 51
23.748313
  0
ARC
  8
LC-001-002-----0
  6
CONTINUOUS
 62
     1
  5
49
 10
335.757872
 20
328.297304
 30
0.0
 40
4.150652
 50
23.282038
 51
52.398761
  0
ARC
  8
LC-001-002-----0
  6
CONTINUOUS
 62
     1
  5
4A
 10
336.509491
 20
329.262643
 30
0.0
 40
2.927234
 50
52.525531
 51
89.387016
  0
ARC
  8
LC-001-002-----0
  6
CONTINUOUS
 62
     1
  5
4B
 10
336.56859
 20
329.262607
 30
0.0
 40
2.927234
 50
90.543815
 51
127.405301
  0
ARC
  8
LC-001-002-----0
  6
CONTINUOUS
 62
     1
  5
4C
 10
337.319043
 20
328.296362
 30
0.0
 40
4.150652
 50
127.53207
 51
156.648794
  0
ARC
  8
LC-001-002-----0
  6
CONTINUOUS
 62
     1
  5
4D
 10
338.560423
 20
327.711473
 30
0.0
 40
5.522367
 50
156.182518
 51
180.203873
  0
ARC
  8
LC-001-002-----0
  6
CONTINUOUS
 62
     1
  5
4E
 10
338.560396
 20
327.665507
 30
0.0
 40
5.522367
 50
179.726959
 51
203.748313
  0
ARC
  8
LC-001-002-----0
  6
CONTINUOUS
 62
     1
  5
4F
 10
337.31831
 20
327.082117
 30
0.0
 40
4.150652
 50
203.282038
 51
232.398761
  0
ARC
  8
LC-001-002-----0
  6
CONTINUOUS
 62
     1
  5
50
 10
336.566691
 20
326.116779
 30
0.0
 40
2.927234
 50
232.525531
 51
269.387016
  0
ARC
  8
LC-001-002-----0
  6
CONTINUOUS
 62
     1
  5
51
 10
336.507592
 20
326.116814
 30
0.0
 40
2.927234
 50
270.543815
 51
307.405301
  0
ARC
  8
LC-001-002-----0
  6
CONTINUOUS
 62
     1
  5
52
 10
335.757139
 20
327.08306
 30
0.0
 40
4.150652
 50
307.53207
 51
336.648794
  0
ARC
  8
LC-001-002-----0
  6
CONTINUOUS
 62
     1
  5
53
 10
334.515759
 20
327.667948
 30
0.0
 40
5.522367
 50
336.182518
 51
0.203873
  0
ENDBLK
  8
0
  5
54
  0
BLOCK
  8
0
  5
56
  2
BLK4
 70
    64
 10
0.0
 20
0.0
 30
0.0
  3
BLK4
  0
ENDBLK
  8
0
  5
57
  0
BLOCK
  8
0
  5
59
  2
BLK5
 70
    64
 10
0.0
 20
0.0
 30
0.0
  3
BLK5
  0
ARC
  8
LC-001-002-----0
  6
CONTINUOUS
 62
     1
  5
5A
 10
446.940376
 20
337.651936
 30
0.0
 40
3.207986
 50
0.822609
 51
39.628027
  0
ARC
  8
LC-001-002-----0
  6
CONTINUOUS
 62
     1
  5
5B
 10
445.532844
 20
336.481376
 30
0.0
 40
5.038655
 50
39.671711
 51
68.273542
  0
ARC
  8
LC-001-002-----0
  6
CONTINUOUS
 62
     1
  5
5C
 10
444.681527
 20
334.546019
 30
0.0
 40
7.152052
 50
67.677361
 51
90.268336
  0
ARC
  8
LC-001-002-----0
  6
CONTINUOUS
 62
     1
  5
5D
 10
444.614536
 20
334.546019
 30
0.0
 40
7.152052
 50
89.731664
 51
112.322639
  0
ARC
  8
LC-001-002-----0
  6
CONTINUOUS
 62
     1
  5
5E
 10
443.76322
 20
336.481376
 30
0.0
 40
5.038655
 50
111.726458
 51
140.328289
  0
ARC
  8
LC-001-002-----0
  6
CONTINUOUS
 62
     1
  5
5F
 10
442.355687
 20
337.651936
 30
0.0
 40
3.207986
 50
140.371973
 51
179.177391
  0
ARC
  8
LC-001-002-----0
  6
CONTINUOUS
 62
     1
  5
60
 10
442.355687
 20
337.744048
 30
0.0
 40
3.207986
 50
180.822609
 51
219.628027
  0
ARC
  8
LC-001-002-----0
  6
CONTINUOUS
 62
     1
  5
61
 10
443.76322
 20
338.914609
 30
0.0
 40
5.038655
 50
219.671711
 51
248.273542
  0
ARC
  8
LC-001-002-----0
  6
CONTINUOUS
 62
     1
  5
62
 10
444.614536
 20
340.849966
 30
0.0
 40
7.152052
 50
247.677361
 51
270.268336
  0
ARC
  8
LC-001-002-----0
  6
CONTINUOUS
 62
     1
  5
63
 10
444.681527
 20
340.849966
 30
0.0
 40
7.152052
 50
269.731664
 51
292.322639
  0
ARC
  8
LC-001-002-----0
  6
CONTINUOUS
 62
     1
  5
64
 10
445.532844
 20
338.914609
 30
0.0
 40
5.038655
 50
291.726458
 51
320.328289
  0
ARC
  8
LC-001-002-----0
  6
CONTINUOUS
 62
     1
  5
65
 10
446.940376
 20
337.744048
 30
0.0
 40
3.207986
 50
320.371973
 51
359.177391
  0
ENDBLK
  8
0
  5
66
  0
BLOCK
  8
0
  5
68
  2
BLK6
 70
    64
 10
0.0
 20
0.0
 30
0.0
  3
BLK6
  0
ARC
  8
LC-001-002-----0
  6
CONTINUOUS
 62
     1
  5
69
 10
426.179479
 20
333.213915
 30
0.0
 40
7.152052
 50
314.731664
 51
337.322639
  0
ARC
  8
LC-001-002-----0
  6
CONTINUOUS
 62
     1
  5
6A
 10
428.149954
 20
332.447382
 30
0.0
 40
5.038655
 50
336.726458
 51
5.328289
  0
ARC
  8
LC-001-002-----0
  6
CONTINUOUS
 62
     1
  5
6B
 10
429.972941
 20
332.614947
 30
0.0
 40
3.207986
 50
5.371973
 51
44.177391
  0
ARC
  8
LC-001-002-----0
  6
CONTINUOUS
 62
     1
  5
6C
 10
430.038075
 20
332.549814
 30
0.0
 40
3.207986
 50
45.822609
 51
84.628027
  0
ARC
  8
LC-001-002-----0
  6
CONTINUOUS
 62
     1
  5
6D
 10
429.87051
 20
330.726827
 30
0.0
 40
5.038655
 50
84.671711
 51
113.273542
  0
ARC
  8
LC-001-002-----0
  6
CONTINUOUS
 62
     1
  5
6E
 10
430.637042
 20
328.756351
 30
0.0
 40
7.152052
 50
112.677361
 51
135.268336
  0
ARC
  8
LC-001-002-----0
  6
CONTINUOUS
 62
     1
  5
6F
 10
430.589673
 20
328.708981
 30
0.0
 40
7.152052
 50
134.731664
 51
157.322639
  0
ARC
  8
LC-001-002-----0
  6
CONTINUOUS
 62
     1
  5
70
 10
428.619197
 20
329.475514
 30
0.0
 40
5.038655
 50
156.726458
 51
185.328289
  0
ARC
  8
LC-001-002-----0
  6
CONTINUOUS
 62
     1
  5
71
 10
426.79621
 20
329.307949
 30
0.0
 40
3.207986
 50
185.371973
 51
224.177391
  0
ARC
  8
LC-001-002-----0
  6
CONTINUOUS
 62
     1
  5
72
 10
426.731077
 20
329.373083
 30
0.0
 40
3.207986
 50
225.822609
 51
264.628027
  0
ARC
  8
LC-001-002-----0
  6
CONTINUOUS
 62
     1
  5
73
 10
426.898641
 20
331.196069
 30
0.0
 40
5.038655
 50
264.671711
 51
293.273542
  0
ARC
  8
LC-001-002-----0
  6
CONTINUOUS
 62
     1
  5
74
 10
426.132109
 20
333.166545
 30
0.0
 40
7.152052
 50
292.677361
 51
315.268336
  0
ENDBLK
  8
0
  5
75
  0
BLOCK
  8
0
  5
77
  2
BLK7
 70
    64
 10
0.0
 20
0.0
 30
0.0
  3
BLK7
  0
ARC
  8
LC-001-002-----0
  6
CONTINUOUS
 62
     1
  5
78
 10
418.496058
 20
314.731488
 30
0.0
 40
7.152052
 50
359.731664
 51
22.322639
  0
ARC
  8
LC-001-002-----0
  6
CONTINUOUS
 62
     1
  5
79
 10
420.431415
 20
315.582804
 30
0.0
 40
5.038655
 50
21.726458
 51
50.328289
  0
ARC
  8
LC-001-002-----0
  6
CONTINUOUS
 62
     1
  5
7A
 10
421.601975
 20
316.990337
 30
0.0
 40
3.207986
 50
50.371973
 51
89.177391
  0
ARC
  8
LC-001-002-----0
  6
CONTINUOUS
 62
     1
  5
7B
 10
421.694088
 20
316.990337
 30
0.0
 40
3.207986
 50
90.822609
 51
129.628027
  0
ARC
  8
LC-001-002-----0
  6
CONTINUOUS
 62
     1
  5
7C
 10
422.864648
 20
315.582804
 30
0.0
 40
5.038655
 50
129.671711
 51
158.273542
  0
ARC
  8
LC-001-002-----0
  6
CONTINUOUS
 62
     1
  5
7D
 10
424.800005
 20
314.731488
 30
0.0
 40
7.152052
 50
157.677361
 51
180.268336
  0
ARC
  8
LC-001-002-----0
  6
CONTINUOUS
 62
     1
  5
7E
 10
424.800005
 20
314.664497
 30
0.0
 40
7.152052
 50
179.731664
 51
202.322639
  0
ARC
  8
LC-001-002-----0
  6
CONTINUOUS
 62
     1
  5
7F
 10
422.864648
 20
313.81318
 30
0.0
 40
5.038655
 50
201.726458
 51
230.328289
  0
ARC
  8
LC-001-002-----0
  6
CONTINUOUS
 62
     1
  5
80
 10
421.694088
 20
312.405648
 30
0.0
 40
3.207986
 50
230.371973
 51
269.177391
  0
ARC
  8
LC-001-002-----0
  6
CONTINUOUS
 62
     1
  5
81
 10
421.601975
 20
312.405648
 30
0.0
 40
3.207986
 50
270.822609
 51
309.628027
  0
ARC
  8
LC-001-002-----0
  6
CONTINUOUS
 62
     1
  5
82
 10
420.431415
 20
313.81318
 30
0.0
 40
5.038655
 50
309.671711
 51
338.273542
  0
ARC
  8
LC-001-002-----0
  6
CONTINUOUS
 62
     1
  5
83
 10
418.496058
 20
314.664497
 30
0.0
 40
7.152052
 50
337.677361
 51
0.268336
  0
ENDBLK
  8
0
  5
84
  0
BLOCK
  8
0
  5
86
  2
BLK8
 70
    64
 10
0.0
 20
0.0
 30
0.0
  3
BLK8
  0
ARC
  8
LC-001-002-----0
  6
CONTINUOUS
 62
     1
  5
87
 10
429.972941
 20
296.781037
 30
0.0
 40
3.207986
 50
315.822609
 51
354.628027
  0
ARC
  8
LC-001-002-----0
  6
CONTINUOUS
 62
     1
  5
88
 10
428.149954
 20
296.948602
 30
0.0
 40
5.038655
 50
354.671711
 51
23.273542
  0
ARC
  8
LC-001-002-----0
  6
CONTINUOUS
 62
     1
  5
89
 10
426.179479
 20
296.18207
 30
0.0
 40
7.152052
 50
22.677361
 51
45.268336
  0
ARC
  8
LC-001-002-----0
  6
CONTINUOUS
 62
     1
  5
8A
 10
426.132109
 20
296.229439
 30
0.0
 40
7.152052
 50
44.731664
 51
67.322639
  0
ARC
  8
LC-001-002-----0
  6
CONTINUOUS
 62
     1
  5
8B
 10
426.898641
 20
298.199915
 30
0.0
 40
5.038655
 50
66.726458
 51
95.328289
  0
ARC
  8
LC-001-002-----0
  6
CONTINUOUS
 62
     1
  5
8C
 10
426.731077
 20
300.022902
 30
0.0
 40
3.207986
 50
95.371973
 51
134.177391
  0
ARC
  8
LC-001-002-----0
  6
CONTINUOUS
 62
     1
  5
8D
 10
426.79621
 20
300.088035
 30
0.0
 40
3.207986
 50
135.822609
 51
174.628027
  0
ARC
  8
LC-001-002-----0
  6
CONTINUOUS
 62
     1
  5
8E
 10
428.619197
 20
299.92047
 30
0.0
 40
5.038655
 50
174.671711
 51
203.273542
  0
ARC
  8
LC-001-002-----0
  6
CONTINUOUS
 62
     1
  5
8F
 10
430.589673
 20
300.687003
 30
0.0
 40
7.152052
 50
202.677361
 51
225.268336
  0
ARC
  8
LC-001-002-----0
  6
CONTINUOUS
 62
     1
  5
90
 10
430.637042
 20
300.639633
 30
0.0
 40
7.152052
 50
224.731664
 51
247.322639
  0
ARC
  8
LC-001-002-----0
  6
CONTINUOUS
 62
     1
  5
91
 10
429.87051
 20
298.669157
 30
0.0
 40
5.038655
 50
246.726458
 51
275.328289
  0
ARC
  8
LC-001-002-----0
  6
CONTINUOUS
 62
     1
  5
92
 10
430.038075
 20
296.846171
 30
0.0
 40
3.207986
 50
275.371973
 51
314.177391
  0
ENDBLK
  8
0
  5
93
  0
BLOCK
  8
0
  5
95
  2
BLK9
 70
    64
 10
0.0
 20
0.0
 30
0.0
  3
BLK9
  0
ARC
  8
LC-001-002-----0
  6
CONTINUOUS
 62
     1
  5
96
 10
458.706391
 20
300.687003
 30
0.0
 40
7.152052
 50
314.731664
 51
337.322639
  0
ARC
  8
LC-001-002-----0
  6
CONTINUOUS
 62
     1
  5
97
 10
460.676866
 20
299.92047
 30
0.0
 40
5.038655
 50
336.726458
 51
5.328289
  0
ARC
  8
LC-001-002-----0
  6
CONTINUOUS
 62
     1
  5
98
 10
462.499853
 20
300.088035
 30
0.0
 40
3.207986
 50
5.371973
 51
44.177391
  0
ARC
  8
LC-001-002-----0
  6
CONTINUOUS
 62
     1
  5
99
 10
462.564987
 20
300.022902
 30
0.0
 40
3.207986
 50
45.822609
 51
84.628027
  0
ARC
  8
LC-001-002-----0
  6
CONTINUOUS
 62
     1
  5
9A
 10
462.397422
 20
298.199915
 30
0.0
 40
5.038655
 50
84.671711
 51
113.273542
  0
ARC
  8
LC-001-002-----0
  6
CONTINUOUS
 62
     1
  5
9B
 10
463.163954
 20
296.229439
 30
0.0
 40
7.152052
 50
112.677361
 51
135.268336
  0
ARC
  8
LC-001-002-----0
  6
CONTINUOUS
 62
     1
  5
9C
 10
463.116585
 20
296.18207
 30
0.0
 40
7.152052
 50
134.731664
 51
157.322639
  0
ARC
  8
LC-001-002-----0
  6
CONTINUOUS
 62
     1
  5
9D
 10
461.146109
 20
296.948602
 30
0.0
 40
5.038655
 50
156.726458
 51
185.328289
  0
ARC
  8
LC-001-002-----0
  6
CONTINUOUS
 62
     1
  5
9E
 10
459.323122
 20
296.781037
 30
0.0
 40
3.207986
 50
185.371973
 51
224.177391
  0
ARC
  8
LC-001-002-----0
  6
CONTINUOUS
 62
     1
  5
9F
 10
459.257989
 20
296.846171
 30
0.0
 40
3.207986
 50
225.822609
 51
264.628027
  0
ARC
  8
LC-001-002-----0
  6
CONTINUOUS
 62
     1
  5
A0
 10
459.425553
 20
298.669157
 30
0.0
 40
5.038655
 50
264.671711
 51
293.273542
  0
ARC
  8
LC-001-002-----0
  6
CONTINUOUS
 62
     1
  5
A1
 10
458.659021
 20
300.639633
 30
0.0
 40
7.152052
 50
292.677361
 51
315.268336
  0
ENDBLK
  8
0
  5
A2
  0
BLOCK
  8
0
  5
A4
  2
BLK10
 70
    64
 10
0.0
 20
0.0
 30
0.0
  3
BLK10
  0
ARC
  8
LC-001-002-----0
  6
CONTINUOUS
 62
     1
  5
A5
 10
464.496058
 20
314.731488
 30
0.0
 40
7.152052
 50
359.731664
 51
22.322639
  0
ARC
  8
LC-001-002-----0
  6
CONTINUOUS
 62
     1
  5
A6
 10
466.431415
 20
315.582804
 30
0.0
 40
5.038655
 50
21.726458
 51
50.328289
  0
ARC
  8
LC-001-002-----0
  6
CONTINUOUS
 62
     1
  5
A7
 10
467.601975
 20
316.990337
 30
0.0
 40
3.207986
 50
50.371973
 51
89.177391
  0
ARC
  8
LC-001-002-----0
  6
CONTINUOUS
 62
     1
  5
A8
 10
467.694088
 20
316.990337
 30
0.0
 40
3.207986
 50
90.822609
 51
129.628027
  0
ARC
  8
LC-001-002-----0
  6
CONTINUOUS
 62
     1
  5
A9
 10
468.864648
 20
315.582804
 30
0.0
 40
5.038655
 50
129.671711
 51
158.273542
  0
ARC
  8
LC-001-002-----0
  6
CONTINUOUS
 62
     1
  5
AA
 10
470.800005
 20
314.731488
 30
0.0
 40
7.152052
 50
157.677361
 51
180.268336
  0
ARC
  8
LC-001-002-----0
  6
CONTINUOUS
 62
     1
  5
AB
 10
470.800005
 20
314.664497
 30
0.0
 40
7.152052
 50
179.731664
 51
202.322639
  0
ARC
  8
LC-001-002-----0
  6
CONTINUOUS
 62
     1
  5
AC
 10
468.864648
 20
313.81318
 30
0.0
 40
5.038655
 50
201.726458
 51
230.328289
  0
ARC
  8
LC-001-002-----0
  6
CONTINUOUS
 62
     1
  5
AD
 10
467.694088
 20
312.405648
 30
0.0
 40
3.207986
 50
230.371973
 51
269.177391
  0
ARC
  8
LC-001-002-----0
  6
CONTINUOUS
 62
     1
  5
AE
 10
467.601975
 20
312.405648
 30
0.0
 40
3.207986
 50
270.822609
 51
309.628027
  0
ARC
  8
LC-001-002-----0
  6
CONTINUOUS
 62
     1
  5
AF
 10
466.431415
 20
313.81318
 30
0.0
 40
5.038655
 50
309.671711
 51
338.273542
  0
ARC
  8
LC-001-002-----0
  6
CONTINUOUS
 62
     1
  5
B0
 10
464.496058
 20
314.664497
 30
0.0
 40
7.152052
 50
337.677361
 51
0.268336
  0
ENDBLK
  8
0
  5
B1
  0
BLOCK
  8
0
  5
B3
  2
BLK11
 70
    64
 10
0.0
 20
0.0
 30
0.0
  3
BLK11
  0
ARC
  8
LC-001-002-----0
  6
CONTINUOUS
 62
     1
  5
B4
 10
462.499853
 20
329.307949
 30
0.0
 40
3.207986
 50
315.822609
 51
354.628027
  0
ARC
  8
LC-001-002-----0
  6
CONTINUOUS
 62
     1
  5
B5
 10
460.676866
 20
329.475514
 30
0.0
 40
5.038655
 50
354.671711
 51
23.273542
  0
ARC
  8
LC-001-002-----0
  6
CONTINUOUS
 62
     1
  5
B6
 10
458.706391
 20
328.708981
 30
0.0
 40
7.152052
 50
22.677361
 51
45.268336
  0
ARC
  8
LC-001-002-----0
  6
CONTINUOUS
 62
     1
  5
B7
 10
458.659021
 20
328.756351
 30
0.0
 40
7.152052
 50
44.731664
 51
67.322639
  0
ARC
  8
LC-001-002-----0
  6
CONTINUOUS
 62
     1
  5
B8
 10
459.425553
 20
330.726827
 30
0.0
 40
5.038655
 50
66.726458
 51
95.328289
  0
ARC
  8
LC-001-002-----0
  6
CONTINUOUS
 62
     1
  5
B9
 10
459.257989
 20
332.549814
 30
0.0
 40
3.207986
 50
95.371973
 51
134.177391
  0
ARC
  8
LC-001-002-----0
  6
CONTINUOUS
 62
     1
  5
BA
 10
459.323122
 20
332.614947
 30
0.0
 40
3.207986
 50
135.822609
 51
174.628027
  0
ARC
  8
LC-001-002-----0
  6
CONTINUOUS
 62
     1
  5
BB
 10
461.146109
 20
332.447382
 30
0.0
 40
5.038655
 50
174.671711
 51
203.273542
  0
ARC
  8
LC-001-002-----0
  6
CONTINUOUS
 62
     1
  5
BC
 10
463.116585
 20
333.213915
 30
0.0
 40
7.152052
 50
202.677361
 51
225.268336
  0
ARC
  8
LC-001-002-----0
  6
CONTINUOUS
 62
     1
  5
BD
 10
463.163954
 20
333.166545
 30
0.0
 40
7.152052
 50
224.731664
 51
247.322639
  0
ARC
  8
LC-001-002-----0
  6
CONTINUOUS
 62
     1
  5
BE
 10
462.397422
 20
331.196069
 30
0.0
 40
5.038655
 50
246.726458
 51
275.328289
  0
ARC
  8
LC-001-002-----0
  6
CONTINUOUS
 62
     1
  5
BF
 10
462.564987
 20
329.373083
 30
0.0
 40
3.207986
 50
275.371973
 51
314.177391
  0
ENDBLK
  8
0
  5
C0
  0
BLOCK
  8
0
  5
C2
  2
BLK12
 70
    64
 10
0.0
 20
0.0
 30
0.0
  3
BLK12
  0
ENDBLK
  8
0
  5
C3
  0
BLOCK
  8
0
  5
C5
  2
BLK13
 70
    64
 10
0.0
 20
0.0
 30
0.0
  3
BLK13
  0
ENDBLK
  8
0
  5
C6
  0
BLOCK
  8
0
  5
C8
  2
BLK14
 70
    64
 10
0.0
 20
0.0
 30
0.0
  3
BLK14
  0
ENDBLK
  8
0
  5
C9
  0
BLOCK
  8
0
  5
CB
  2
BLK15
 70
    64
 10
0.0
 20
0.0
 30
0.0
  3
BLK15
  0
ARC
  8
LC-001-002-----0
  6
CONTINUOUS
 62
     1
  5
CC
 10
446.940376
 20
291.651936
 30
0.0
 40
3.207986
 50
0.822609
 51
39.628027
  0
ARC
  8
LC-001-002-----0
  6
CONTINUOUS
 62
     1
  5
CD
 10
445.532844
 20
290.481376
 30
0.0
 40
5.038655
 50
39.671711
 51
68.273542
  0
ARC
  8
LC-001-002-----0
  6
CONTINUOUS
 62
     1
  5
CE
 10
444.681527
 20
288.546019
 30
0.0
 40
7.152052
 50
67.677361
 51
90.268336
  0
ARC
  8
LC-001-002-----0
  6
CONTINUOUS
 62
     1
  5
CF
 10
444.614536
 20
288.546019
 30
0.0
 40
7.152052
 50
89.731664
 51
112.322639
  0
ARC
  8
LC-001-002-----0
  6
CONTINUOUS
 62
     1
  5
D0
 10
443.76322
 20
290.481376
 30
0.0
 40
5.038655
 50
111.726458
 51
140.328289
  0
ARC
  8
LC-001-002-----0
  6
CONTINUOUS
 62
     1
  5
D1
 10
442.355687
 20
291.651936
 30
0.0
 40
3.207986
 50
140.371973
 51
179.177391
  0
ARC
  8
LC-001-002-----0
  6
CONTINUOUS
 62
     1
  5
D2
 10
442.355687
 20
291.744048
 30
0.0
 40
3.207986
 50
180.822609
 51
219.628027
  0
ARC
  8
LC-001-002-----0
  6
CONTINUOUS
 62
     1
  5
D3
 10
443.76322
 20
292.914609
 30
0.0
 40
5.038655
 50
219.671711
 51
248.273542
  0
ARC
  8
LC-001-002-----0
  6
CONTINUOUS
 62
     1
  5
D4
 10
444.614536
 20
294.849966
 30
0.0
 40
7.152052
 50
247.677361
 51
270.268336
  0
ARC
  8
LC-001-002-----0
  6
CONTINUOUS
 62
     1
  5
D5
 10
444.681527
 20
294.849966
 30
0.0
 40
7.152052
 50
269.731664
 51
292.322639
  0
ARC
  8
LC-001-002-----0
  6
CONTINUOUS
 62
     1
  5
D6
 10
445.532844
 20
292.914609
 30
0.0
 40
5.038655
 50
291.726458
 51
320.328289
  0
ARC
  8
LC-001-002-----0
  6
CONTINUOUS
 62
     1
  5
D7
 10
446.940376
 20
291.744048
 30
0.0
 40
3.207986
 50
320.371973
 51
359.177391
  0
ENDBLK
  8
0
  5
D8
  0
BLOCK
  8
0
  5
DA
  2
*D15
 70
    65
 10
0.0
 20
0.0
 30
0.0
  3
*D15
  0
LINE
  8
LC-005-003-MTH-0
  6
CONTINUOUS
  5
DC
 10
332.042355
 20
334.450191
 30
0.0
 11
332.042355
 21
360.8
 31
0.0
  0
LINE
  8
LC-005-003-MTH-0
  6
CONTINUOUS
  5
DD
 10
341.04449
 20
341.402319
 30
0.0
 11
341.04449
 21
360.8
 31
0.0
  0
LINE
  8
LC-004-003-----0
  6
CONTINUOUS
  5
DF
 10
314.196347
 20
347.650529
 30
0.0
 11
332.042355
 21
350.0
 31
0.0
  0
LINE
  8
LC-004-003-----0
  6
CONTINUOUS
  5
E0
 10
332.042355
 20
350.0
 30
0.0
 11
314.196347
 21
352.349471
 31
0.0
  0
LINE
  8
LC-004-003-----0
  6
CONTINUOUS
  5
E1
 10
314.196347
 20
352.349471
 30
0.0
 11
314.196347
 21
347.650529
 31
0.0
  0
LINE
  8
LC-004-003-----0
  6
CONTINUOUS
  5
E2
 10
314.156309
 20
348.261391
 30
0.0
 11
327.362355
 21
350.0
 31
0.0
  0
LINE
  8
LC-004-003-----0
  6
CONTINUOUS
  5
E3
 10
327.362355
 20
350.0
 30
0.0
 11
314.156309
 21
351.738609
 31
0.0
  0
LINE
  8
LC-004-003-----0
  6
CONTINUOUS
  5
E4
 10
314.116271
 20
348.872254
 30
0.0
 11
322.682355
 21
350.0
 31
0.0
  0
LINE
  8
LC-004-003-----0
  6
CONTINUOUS
  5
E5
 10
322.682355
 20
350.0
 30
0.0
 11
314.116271
 21
351.127746
 31
0.0
  0
LINE
  8
LC-004-003-----0
  6
CONTINUOUS
  5
E6
 10
314.076233
 20
349.483116
 30
0.0
 11
318.002355
 21
350.0
 31
0.0
  0
LINE
  8
LC-004-003-----0
  6
CONTINUOUS
  5
E7
 10
318.002355
 20
350.0
 30
0.0
 11
314.076233
 21
350.516884
 31
0.0
  0
LINE
  8
LC-004-003-----0
  6
CONTINUOUS
  5
E8
 10
358.890497
 20
352.349471
 30
0.0
 11
341.04449
 21
350.0
 31
0.0
  0
LINE
  8
LC-004-003-----0
  6
CONTINUOUS
  5
E9
 10
341.04449
 20
350.0
 30
0.0
 11
358.890497
 21
347.650529
 31
0.0
  0
LINE
  8
LC-004-003-----0
  6
CONTINUOUS
  5
EA
 10
358.890497
 20
347.650529
 30
0.0
 11
358.890497
 21
352.349471
 31
0.0
  0
LINE
  8
LC-004-003-----0
  6
CONTINUOUS
  5
EB
 10
358.930535
 20
351.738609
 30
0.0
 11
345.72449
 21
350.0
 31
0.0
  0
LINE
  8
LC-004-003-----0
  6
CONTINUOUS
  5
EC
 10
345.72449
 20
350.0
 30
0.0
 11
358.930535
 21
348.261391
 31
0.0
  0
LINE
  8
LC-004-003-----0
  6
CONTINUOUS
  5
ED
 10
358.970573
 20
351.127746
 30
0.0
 11
350.40449
 21
350.0
 31
0.0
  0
LINE
  8
LC-004-003-----0
  6
CONTINUOUS
  5
EE
 10
350.40449
 20
350.0
 30
0.0
 11
358.970573
 21
348.872254
 31
0.0
  0
LINE
  8
LC-004-003-----0
  6
CONTINUOUS
  5
EF
 10
359.010611
 20
350.516884
 30
0.0
 11
355.08449
 21
350.0
 31
0.0
  0
LINE
  8
LC-004-003-----0
  6
CONTINUOUS
  5
F0
 10
355.08449
 20
350.0
 30
0.0
 11
359.010611
 21
349.483116
 31
0.0
  0
LINE
  8
LC-006-003-MTG-0
  6
CONTINUOUS
  5
F2
 10
306.842355
 20
350.0
 30
0.0
 11
382.847009
 21
350.0
 31
0.0
  0
TEXT
  8
LC-004-003-----0
  6
CONTINUOUS
 62
     6
  5
F4
 10
368.319735
 20
360.431999
 30
0.0
 40
18.0
  1
9
 41
0.9
 51
15.0
  7
LC-TXTSTYLE-150-400-0-0-D0
  0
ENDBLK
  8
0
  5
F5
  0
BLOCK
  8
0
  5
F7
  2
*D16
 70
    65
 10
0.0
 20
0.0
 30
0.0
  3
*D16
  0
LINE
  8
LC-005-003-MTH-0
  6
CONTINUOUS
  5
F8
 10
417.648032
 20
314.692772
 30
0.0
 11
417.648032
 21
360.8
 31
0.0
  0
LINE
  8
LC-005-003-MTH-0
  6
CONTINUOUS
  5
F9
 10
471.648032
 20
314.703212
 30
0.0
 11
471.648032
 21
360.8
 31
0.0
  0
LINE
  8
LC-006-003-MTG-0
  6
CONTINUOUS
  5
FA
 10
417.648032
 20
350.0
 30
0.0
 11
471.648032
 21
350.0
 31
0.0
  0
LINE
  8
LC-004-003-----0
  6
CONTINUOUS
  5
FB
 10
435.494039
 20
352.349471
 30
0.0
 11
417.648032
 21
350.0
 31
0.0
  0
LINE
  8
LC-004-003-----0
  6
CONTINUOUS
  5
FC
 10
417.648032
 20
350.0
 30
0.0
 11
435.494039
 21
347.650529
 31
0.0
  0
LINE
  8
LC-004-003-----0
  6
CONTINUOUS
  5
FD
 10
435.494039
 20
347.650529
 30
0.0
 11
435.494039
 21
352.349471
 31
0.0
  0
LINE
  8
LC-004-003-----0
  6
CONTINUOUS
  5
FE
 10
435.534077
 20
351.738609
 30
0.0
 11
422.328032
 21
350.0
 31
0.0
  0
LINE
  8
LC-004-003-----0
  6
CONTINUOUS
  5
FF
 10
422.328032
 20
350.0
 30
0.0
 11
435.534077
 21
348.261391
 31
0.0
  0
LINE
  8
LC-004-003-----0
  6
CONTINUOUS
  5
100
 10
435.574115
 20
351.127746
 30
0.0
 11
427.008032
 21
350.0
 31
0.0
  0
LINE
  8
LC-004-003-----0
  6
CONTINUOUS
  5
101
 10
427.008032
 20
350.0
 30
0.0
 11
435.574115
 21
348.872254
 31
0.0
  0
LINE
  8
LC-004-003-----0
  6
CONTINUOUS
  5
102
 10
435.614153
 20
350.516884
 30
0.0
 11
431.688032
 21
350.0
 31
0.0
  0
LINE
  8
LC-004-003-----0
  6
CONTINUOUS
  5
103
 10
431.688032
 20
350.0
 30
0.0
 11
435.614153
 21
349.483116
 31
0.0
  0
LINE
  8
LC-004-003-----0
  6
CONTINUOUS
  5
104
 10
453.802024
 20
347.650529
 30
0.0
 11
471.648032
 21
350.0
 31
0.0
  0
LINE
  8
LC-004-003-----0
  6
CONTINUOUS
  5
105
 10
471.648032
 20
350.0
 30
0.0
 11
453.802024
 21
352.349471
 31
0.0
  0
LINE
  8
LC-004-003-----0
  6
CONTINUOUS
  5
106
 10
453.802024
 20
352.349471
 30
0.0
 11
453.802024
 21
347.650529
 31
0.0
  0
LINE
  8
LC-004-003-----0
  6
CONTINUOUS
  5
107
 10
453.761986
 20
348.261391
 30
0.0
 11
466.968032
 21
350.0
 31
0.0
  0
LINE
  8
LC-004-003-----0
  6
CONTINUOUS
  5
108
 10
466.968032
 20
350.0
 30
0.0
 11
453.761986
 21
351.738609
 31
0.0
  0
LINE
  8
LC-004-003-----0
  6
CONTINUOUS
  5
109
 10
453.721948
 20
348.872254
 30
0.0
 11
462.288032
 21
350.0
 31
0.0
  0
LINE
  8
LC-004-003-----0
  6
CONTINUOUS
  5
10A
 10
462.288032
 20
350.0
 30
0.0
 11
453.721948
 21
351.127746
 31
0.0
  0
LINE
  8
LC-004-003-----0
  6
CONTINUOUS
  5
10B
 10
453.68191
 20
349.483116
 30
0.0
 11
457.608032
 21
350.0
 31
0.0
  0
LINE
  8
LC-004-003-----0
  6
CONTINUOUS
  5
10C
 10
457.608032
 20
350.0
 30
0.0
 11
453.68191
 21
350.516884
 31
0.0
  0
TEXT
  8
LC-004-003-----0
  6
CONTINUOUS
 62
     6
  5
10D
 10
435.580285
 20
360.431999
 30
0.0
 40
18.0
  1
54
 51
15.0
  7
LC-TXTSTYLE-150-400-0-0-D0
 72
     1
 11
447.443277
 21
360.431999
 31
0.0
  0
ENDBLK
  8
0
  5
10E
  0
ENDSEC
  0
SECTION
  2
ENTITIES
  0
VIEWPORT
  8
LC-000
  5
149
 67
     1
 68
     1
 10
420.0
 20
297.0
 30
0.0
 40
840.0
 41
594.0
 69
     1
1001
ACAD
1000
MVIEW
1002
{
1070
    16
1010
0.0
1020
0.0
1030
0.0
1010
0.0
1020
0.0
1030
1.0
1040
0.0
1040
594.0
1040
420.0
1040
297.0
1040
50.0
1040
0.0
1040
0.0
1070
     0
1070
   100
1070
     1
1070
     1
1070
     0
1070
     0
1070
     0
1070
     0
1040
0.0
1040
0.0
1040
0.0
1040
1.0
1040
1.0
1040
0.0
1040
0.0
1070
     0
1002
{
1002
}
1002
}
  0
VIEWPORT
  8
0
  5
14A
 67
     1
 68
     1
 10
0.0
 20
0.0
 30
0.0
 40
0.0
 41
0.0
 69
     1
1001
ACAD
1000
MVIEW
1002
{
1070
    16
1010
0.0
1020
0.0
1030
0.0
1010
0.0
1020
0.0
1030
1.0
1040
0.0
1040
594.0
1040
0.0
1040
0.0
1040
50.0
1040
0.0
1040
0.0
1070
     0
1070
   100
1070
     0
1070
     1
1070
     0
1070
     0
1070
     0
1070
     0
1040
0.0
1040
0.0
1040
0.0
1040
0.5
1040
0.5
1040
0.5
1040
0.5
1070
     0
1002
{
1002
}
1002
}
  0
INSERT
  8
0
  5
10F
  2
BLK1
 10
0.0
 20
0.0
 30
0.0
  0
INSERT
  8
0
  5
110
  2
BLK2
 10
0.0
 20
0.0
 30
0.0
  0
INSERT
  8
0
  5
111
  2
BLK3
 10
0.0
 20
0.0
 30
0.0
  0
INSERT
  8
0
  5
113
  2
BLK4
 10
0.0
 20
0.0
 30
0.0
  0
INSERT
  8
0
  5
114
  2
BLK5
 10
0.0
 20
0.0
 30
0.0
  0
INSERT
  8
0
  5
115
  2
BLK6
 10
0.0
 20
0.0
 30
0.0
  0
INSERT
  8
0
  5
116
  2
BLK7
 10
0.0
 20
0.0
 30
0.0
  0
INSERT
  8
0
  5
117
  2
BLK8
 10
0.0
 20
0.0
 30
0.0
  0
INSERT
  8
0
  5
118
  2
BLK9
 10
0.0
 20
0.0
 30
0.0
  0
INSERT
  8
0
  5
119
  2
BLK10
 10
0.0
 20
0.0
 30
0.0
  0
INSERT
  8
0
  5
11A
  2
BLK11
 10
0.0
 20
0.0
 30
0.0
  0
INSERT
  8
0
  5
11B
  2
BLK12
 10
0.0
 20
0.0
 30
0.0
  0
INSERT
  8
0
  5
11D
  2
BLK13
 10
0.0
 20
0.0
 30
0.0
  0
INSERT
  8
0
  5
11E
  2
BLK14
 10
0.0
 20
0.0
 30
0.0
  0
INSERT
  8
0
  5
11F
  2
BLK15
 10
0.0
 20
0.0
 30
0.0
  0
DIMENSION
  8
0
  5
120
  2
*D15
 10
336.543422
 20
350.0
 30
0.0
 11
336.543422
 21
350.0
 31
0.0
 13
332.042355
 23
334.450191
 33
0.0
 14
341.04449
 24
341.402319
 34
0.0
  3
LC-DIM-L-0090-02-02
  0
DIMENSION
  8
0
  5
121
  2
*D16
 10
444.648032
 20
350.0
 30
0.0
 11
444.648032
 21
350.0
 31
0.0
 13
417.648032
 23
314.692772
 33
0.0
 14
471.648032
 24
314.703212
 34
0.0
  3
LC-DIM-L-0090-02-02
  0
ARC
  8
LC-001-002-----0
  5
122
 10
331.37637
 20
286.413831
 30
0.0
 40
8.451553
 50
8.690273
 51
78.599914
  0
ARC
  8
LC-001-002-----0
  6
CONTINUOUS
 62
     1
  5
123
 10
339.727689
 20
335.01525
 30
0.0
 40
6.690726
 50
87.284886
 51
182.717845
  0
ARC
  8
LC-001-002-----0
  6
CONTINUOUS
 62
     1
  5
124
 10
339.7301
 20
294.381528
 30
0.0
 40
6.690726
 50
177.288957
 51
272.721915
  0
ARC
  8
LC-001-002-----0
  5
125
 10
331.373012
 20
342.981955
 30
0.0
 40
8.451553
 50
281.406888
 51
351.316528
  0
LINE
  8
LC-001-002-----0
  6
CONTINUOUS
 62
     1
  5
126
 10
341.044498
 20
339.620577
 30
0.0
 11
340.044633
 21
338.238774
 31
0.0
  0
LINE
  8
LC-001-002-----0
  6
CONTINUOUS
 62
     1
  5
127
 10
340.044628
 20
341.698465
 30
0.0
 11
341.04449
 21
341.402319
 31
0.0
  0
LINE
  8
LC-001-002-----0
  6
CONTINUOUS
 62
     1
  5
128
 10
341.045181
 20
308.906683
 30
0.0
 11
341.044494
 21
314.698719
 31
0.0
  0
LINE
  8
LC-001-002-----0
  6
CONTINUOUS
 62
     1
  5
129
 10
340.045352
 20
308.610418
 30
0.0
 11
341.045181
 21
308.906683
 31
0.0
  0
LINE
  8
LC-001-002-----0
  6
CONTINUOUS
 62
     1
  5
12A
 10
340.044629
 20
340.786397
 30
0.0
 11
341.044494
 21
340.490251
 31
0.0
  0
LINE
  8
LC-001-002-----0
  6
CONTINUOUS
 62
     1
  5
12B
 10
340.044628
 20
341.698465
 30
0.0
 11
340.044712
 21
287.698466
 31
0.0
  0
LINE
  8
LC-001-002-----0
  6
CONTINUOUS
 62
     1
  5
12C
 10
340.044629
 20
336.286397
 30
0.0
 11
341.044494
 21
335.990251
 31
0.0
  0
CIRCLE
  8
LC-001-002-----0
  6
CONTINUOUS
 62
     1
  5
12D
 10
615.380306
 20
140.129278
 30
0.0
 40
2525.0
  0
LINE
  8
LC-001-002-----0
  6
CONTINUOUS
 62
     1
  5
12E
 10
333.042355
 20
334.45019
 30
0.0
 11
333.042355
 21
331.30019
 31
0.0
  0
LINE
  8
LC-001-002-----0
  6
CONTINUOUS
 62
     1
  5
12F
 10
341.04449
 20
341.402319
 30
0.0
 11
341.04449
 21
339.620577
 31
0.0
  0
LINE
  8
LC-001-002-----0
  6
CONTINUOUS
 62
     1
  5
130
 10
332.04233
 20
295.948164
 30
0.0
 11
332.042355
 21
334.450191
 31
0.0
  0
LINE
  8
LC-001-002-----0
  6
CONTINUOUS
 62
     1
  5
131
 10
332.042355
 20
334.450191
 30
0.0
 11
333.042355
 21
334.45019
 31
0.0
  0
LINE
  8
LC-001-002-----0
  6
CONTINUOUS
 62
     1
  5
132
 10
332.044695
 20
295.948164
 30
0.0
 11
332.0447
 21
294.948164
 31
0.0
  0
LINE
  8
LC-001-002-----0
  6
CONTINUOUS
 62
     1
  5
133
 10
332.0447
 20
294.948164
 30
0.0
 11
333.0447
 21
294.948168
 31
0.0
  0
LINE
  8
LC-001-002-----0
  6
CONTINUOUS
 62
     1
  5
134
 10
333.0447
 20
294.948168
 30
0.0
 11
333.04453
 21
331.30019
 31
0.0
  0
LINE
  8
LC-001-002-----0
  6
CONTINUOUS
 62
     1
  5
135
 10
341.047021
 20
293.406683
 30
0.0
 11
341.045834
 21
303.406683
 31
0.0
  0
LINE
  8
LC-001-002-----0
  6
CONTINUOUS
 62
     1
  5
136
 10
341.044494
 20
335.990251
 30
0.0
 11
341.044494
 21
325.990251
 31
0.0
  0
LINE
  8
LC-001-002-----0
  6
CONTINUOUS
 62
     1
  5
137
 10
340.044629
 20
320.786397
 30
0.0
 11
341.044494
 21
320.490251
 31
0.0
  0
LINE
  8
LC-001-002-----0
  6
CONTINUOUS
 62
     1
  5
138
 10
341.044494
 20
320.490251
 30
0.0
 11
341.044494
 21
314.698215
 31
0.0
  0
LINE
  8
LC-001-002-----0
  6
CONTINUOUS
 62
     1
  5
139
 10
340.045935
 20
303.702711
 30
0.0
 11
341.045834
 21
303.406683
 31
0.0
  0
LINE
  8
LC-001-002-----0
  6
CONTINUOUS
 62
     1
  5
13A
 10
340.044629
 20
325.694104
 30
0.0
 11
341.044494
 21
325.990251
 31
0.0
  0
LINE
  8
LC-001-002-----0
  6
CONTINUOUS
 62
     1
  5
13B
 10
340.047192
 20
293.110418
 30
0.0
 11
341.047021
 21
293.406683
 31
0.0
  0
LINE
  8
LC-001-002-----0
  6
CONTINUOUS
 62
     1
  5
13C
 10
341.047456
 20
289.776357
 30
0.0
 11
340.047428
 21
291.158042
 31
0.0
  0
LINE
  8
LC-001-002-----0
  6
CONTINUOUS
 62
     1
  5
13D
 10
341.04766
 20
287.994615
 30
0.0
 11
341.047448
 21
289.776357
 31
0.0
  0
LINE
  8
LC-001-002-----0
  6
CONTINUOUS
 62
     1
  5
13E
 10
340.047726
 20
288.610418
 30
0.0
 11
341.047556
 21
288.906683
 31
0.0
  0
LINE
  8
LC-001-002-----0
  6
CONTINUOUS
 62
     1
  5
13F
 10
340.047833
 20
287.69835
 30
0.0
 11
341.04766
 21
287.994615
 31
0.0
  0
CIRCLE
  8
LC-001-002-----0
  6
CONTINUOUS
 62
     1
  5
140
 10
444.648032
 20
314.697992
 30
0.0
 40
27.0
  0
CIRCLE
  8
LC-001-002-----0
  6
CONTINUOUS
 62
     1
  5
141
 10
444.648032
 20
314.697992
 30
0.0
 40
19.0
  0
LINE
  8
LC-001-002-----0
  6
DASHDOT
  5
143
 10
332.042342
 20
314.697992
 30
0.0
 11
341.044494
 21
314.697992
 31
0.0
  0
LINE
  8
LC-001-002-----0
  6
CONTINUOUS
 62
     1
  5
144
 10
333.044696
 20
294.697993
 30
0.0
 11
333.044519
 21
334.697342
 31
0.0
  0
LINE
  8
LC-001-002-----0
  6
DASHDOT
  5
145
 10
417.648032
 20
314.697992
 30
0.0
 11
471.648032
 21
314.697992
 31
0.0
  0
LINE
  8
LC-001-002-----0
  6
DASHDOT
  5
146
 10
444.64376
 20
341.697992
 30
0.0
 11
444.64376
 21
287.697993
 31
0.0
  0
CIRCLE
  8
LC-001-002-----0
  6
CONTINUOUS
 62
     1
  5
147
 10
444.648032
 20
314.697992
 30
0.0
 40
14.0
  0
ENDSEC
  0
EOF
