  0
SECTION
  2
HEADER
  9
$ACADVER
  1
AC1009
  9
$DWGCODEPAGE
  3
ansi_1252
  9
$INSBASE
 10
0.0
 20
0.0
 30
0.0
  9
$EXTMIN
 10
0.0
 20
0.0
 30
0.0
  9
$EXTMAX
 10
841.0
 20
594.0
 30
0.0
  9
$LIMMIN
 10
0.0
 20
0.0
  9
$LIMMAX
 10
841.0
 20
594.0
  9
$ORTHOMODE
 70
     0
  9
$REGENMODE
 70
     1
  9
$FILLMODE
 70
     1
  9
$QTEXTMODE
 70
     0
  9
$MIRRTEXT
 70
     1
  9
$DRAGMODE
 70
     2
  9
$LTSCALE
 40
1.0
  9
$OSMODE
 70
    37
  9
$ATTMODE
 70
     1
  9
$TEXTSIZE
 40
3.5
  9
$TRACEWID
 40
1.0
  9
$TEXTSTYLE
  7
STANDARD
  9
$CLAYER
  8
0
  9
$CELTYPE
  6
BYLAYER
  9
$CECOLOR
 62
   256
  9
$DIMSCALE
 40
1.0
  9
$DIMASZ
 40
3.302
  9
$DIMEXO
 40
1.0
  9
$DIMDLI
 40
3.75
  9
$DIMRND
 40
0.0
  9
$DIMDLE
 40
0.0
  9
$DIMEXE
 40
1.0
  9
$DIMTP
 40
0.0
  9
$DIMTM
 40
0.0
  9
$DIMTXT
 40
3.5
  9
$DIMCEN
 40
2.5
  9
$DIMTSZ
 40
0.0
  9
$DIMTOL
 70
     0
  9
$DIMLIM
 70
     0
  9
$DIMTIH
 70
     1
  9
$DIMTOH
 70
     1
  9
$DIMSE1
 70
     0
  9
$DIMSE2
 70
     0
  9
$DIMTAD
 70
     1
  9
$DIMZIN
 70
     1
  9
$DIMBLK
  1

  9
$DIMASO
 70
     1
  9
$DIMSHO
 70
     1
  9
$DIMPOST
  1

  9
$DIMAPOST
  1

  9
$DIMALT
 70
     0
  9
$DIMALTD
 70
     3
  9
$DIMALTF
 40
0.0393700787
  9
$DIMLFAC
 40
1.0
  9
$DIMTOFL
 70
     1
  9
$DIMTVP
 40
0.0
  9
$DIMTIX
 70
     0
  9
$DIMSOXD
 70
     0
  9
$DIMSAH
 70
     0
  9
$DIMBLK1
  1

  9
$DIMBLK2
  1

  9
$DIMSTYLE
  2
ISO-25
  9
$DIMCLRD
 70
     0
  9
$DIMCLRE
 70
     0
  9
$DIMCLRT
 70
     0
  9
$DIMTFAC
 40
1.0
  9
$DIMGAP
 40
1.524
  9
$LUNITS
 70
     2
  9
$LUPREC
 70
     4
  9
$SKETCHINC
 40
1.0
  9
$FILLETRAD
 40
10.0
  9
$AUNITS
 70
     0
  9
$AUPREC
 70
     0
  9
$MENU
  1
.
  9
$ELEVATION
 40
0.0
  9
$PELEVATION
 40
0.0
  9
$THICKNESS
 40
0.0
  9
$LIMCHECK
 70
     0
  9
$CHAMFERA
 40
0.0
  9
$CHAMFERB
 40
0.0
  9
$SKPOLY
 70
     0
  9
$TDCREATE
 40
2457354.439216308
  9
$TDUPDATE
 40
2457354.439217037
  9
$TDINDWG
 40
0.0000000116
  9
$TDUSRTIMER
 40
0.0000000116
  9
$USRTIMER
 70
     1
  9
$ANGBASE
 50
0.0
  9
$ANGDIR
 70
     0
  9
$PDMODE
 70
     0
  9
$PDSIZE
 40
-1.0
  9
$PLINEWID
 40
0.0
  9
$COORDS
 70
     1
  9
$SPLFRAME
 70
     0
  9
$SPLINETYPE
 70
     6
  9
$SPLINESEGS
 70
     8
  9
$ATTDIA
 70
     0
  9
$ATTREQ
 70
     1
  9
$HANDLING
 70
     1
  9
$HANDSEED
  5
3DD
  9
$SURFTAB1
 70
     6
  9
$SURFTAB2
 70
     6
  9
$SURFTYPE
 70
     6
  9
$SURFU
 70
     6
  9
$SURFV
 70
     6
  9
$UCSNAME
  2

  9
$UCSORG
 10
0.0
 20
0.0
 30
0.0
  9
$UCSXDIR
 10
1.0
 20
0.0
 30
0.0
  9
$UCSYDIR
 10
0.0
 20
1.0
 30
0.0
  9
$PUCSNAME
  2

  9
$PUCSORG
 10
0.0
 20
0.0
 30
0.0
  9
$PUCSXDIR
 10
1.0
 20
0.0
 30
0.0
  9
$PUCSYDIR
 10
0.0
 20
1.0
 30
0.0
  9
$USERI1
 70
     0
  9
$USERI2
 70
     0
  9
$USERI3
 70
     0
  9
$USERI4
 70
     0
  9
$USERI5
 70
     0
  9
$USERR1
 40
0.0
  9
$USERR2
 40
0.0
  9
$USERR3
 40
0.0
  9
$USERR4
 40
0.0
  9
$USERR5
 40
0.0
  9
$WORLDVIEW
 70
     1
  9
$SHADEDGE
 70
     3
  9
$SHADEDIF
 70
    70
  9
$TILEMODE
 70
     1
  9
$MAXACTVP
 70
    64
  9
$PLIMCHECK
 70
     0
  9
$PEXTMIN
 10
1.0000000000E+20
 20
1.0000000000E+20
 30
1.0000000000E+20
  9
$PEXTMAX
 10
-1.0000000000E+20
 20
-1.0000000000E+20
 30
-1.0000000000E+20
  9
$PLIMMIN
 10
0.0
 20
0.0
  9
$PLIMMAX
 10
420.0
 20
297.0
  9
$UNITMODE
 70
     0
  9
$VISRETAIN
 70
     1
  9
$PLINEGEN
 70
     0
  9
$PSLTSCALE
 70
     1
  0
ENDSEC
  0
SECTION
  2
TABLES
  0
TABLE
  2
VPORT
 70
     1
  0
VPORT
  2
*ACTIVE
 70
     0
 10
0.0
 20
0.0
 11
1.0
 21
1.0
 12
420.5
 22
297.0
 13
0.0
 23
0.0
 14
10.0
 24
10.0
 15
10.0
 25
10.0
 16
0.0
 26
0.0
 36
1.0
 17
0.0
 27
0.0
 37
0.0
 40
594.0
 41
1.4158249158
 42
50.0
 43
0.0
 44
0.0
 50
0.0
 51
0.0
 71
     0
 72
  2000
 73
     1
 74
     3
 75
     0
 76
     0
 77
     0
 78
     0
  0
ENDTAB
  0
TABLE
  2
LTYPE
 70
     6
  0
LTYPE
  2
CONTINUOUS
 70
     0
  3
Solid line
 72
    65
 73
     0
 40
0.0
  0
LTYPE
  2
HIDDEN
 70
     0
  3
Hidden __ __ __ __ __ __ __ __ __ __ __ __ __ __
 72
    65
 73
     2
 40
1.905
 49
1.27
 49
-0.635
  0
LTYPE
  2
PHANTOM
 70
     0
  3
Phantom ______  __  __  ______  __  __  ______
 72
    65
 73
     6
 40
12.7
 49
6.35
 49
-1.27
 49
1.27
 49
-1.27
 49
1.27
 49
-1.27
  0
LTYPE
  2
CENTER
 70
     0
  3
Center ____ _ ____ _ ____ _ ____ _ ____ _ ____
 72
    65
 73
     4
 40
10.16
 49
6.35
 49
-1.27
 49
1.27
 49
-1.27
  0
LTYPE
  2
CENTERX2
 70
     0
  3
Center (2x) ________  __  ________  __  _____
 72
    65
 73
     4
 40
20.32
 49
12.7
 49
-2.54
 49
2.54
 49
-2.54
  0
LTYPE
  2
DOT2
 70
     0
  3
Dot (.5x) ........................................
 72
    65
 73
     2
 40
0.635
 49
0.0
 49
-0.635
  0
ENDTAB
  0
TABLE
  2
LAYER
 70
     2
  0
LAYER
  2
0
 70
     0
 62
     7
  6
CONTINUOUS
  0
LAYER
  2
DEFPOINTS
 70
     0
 62
     7
  6
CONTINUOUS
  0
ENDTAB
  0
TABLE
  2
STYLE
 70
     1
  0
STYLE
  2
STANDARD
 70
     0
 40
0.0
 41
1.0
 50
0.0
 71
     0
 42
3.5
  3
txt
  4

  0
ENDTAB
  0
TABLE
  2
VIEW
 70
     0
  0
ENDTAB
  0
TABLE
  2
UCS
 70
     0
  0
ENDTAB
  0
TABLE
  2
APPID
 70
     1
  0
APPID
  2
ACAD
 70
     0
  0
ENDTAB
  0
TABLE
  2
DIMSTYLE
 70
     4
  0
DIMSTYLE
  2
ISO-25
 70
     0
  3

  4

  5

  6

  7

 40
1.0
 41
2.5
 42
0.625
 43
3.75
 44
1.25
 45
0.0
 46
0.0
 47
0.0
 48
0.0
140
2.5
141
2.5
142
0.0
143
0.0393700787
144
1.0
145
0.0
146
1.0
147
0.625
 71
     0
 72
     0
 73
     0
 74
     0
 75
     0
 76
     0
 77
     1
 78
     8
170
     0
171
     3
172
     1
173
     0
174
     0
175
     0
176
     0
177
     0
178
     0
  0
DIMSTYLE
  2
SLDDIMSTYLE0
 70
     0
  3

  4

  5

  6

  7

 40
1.0
 41
3.302
 42
0.0625
 43
0.38
 44
0.0
 45
0.000000001
 46
0.0
 47
0.0
 48
0.0
140
14.0
141
0.09
142
0.0
143
25.4
144
1.0
145
0.0
146
1.0
147
3.5
 71
     0
 72
     0
 73
     0
 74
     0
 75
     0
 76
     0
 77
     1
 78
    12
170
     0
171
     2
172
     1
173
     1
174
     0
175
     0
176
     0
177
     0
178
     0
  0
DIMSTYLE
  2
SLDDIMSTYLE1
 70
     0
  3

  4

  5

  6
NONE
  7
NONE
 40
1.0
 41
3.302
 42
0.0625
 43
0.38
 44
0.0
 45
0.000000001
 46
0.0
 47
0.0
 48
0.0
140
28.0
141
0.09
142
0.0
143
25.4
144
1.0
145
0.0
146
1.0
147
7.0
 71
     0
 72
     0
 73
     0
 74
     0
 75
     0
 76
     0
 77
     1
 78
    12
170
     0
171
     2
172
     0
173
     1
174
     0
175
     0
176
     0
177
     0
178
     0
  0
DIMSTYLE
  2
SLDDIMSTYLE2
 70
     0
  3

  4

  5

  6
NONE
  7
NONE
 40
1.0
 41
3.302
 42
0.0625
 43
0.38
 44
0.0
 45
0.000000001
 46
0.0
 47
0.0
 48
0.0
140
28.0
141
0.09
142
0.0
143
25.4
144
1.0
145
0.0
146
1.0
147
7.0
 71
     0
 72
     0
 73
     0
 74
     0
 75
     0
 76
     0
 77
     1
 78
    12
170
     0
171
     2
172
     0
173
     1
174
     0
175
     0
176
     0
177
     0
178
     0
  0
ENDTAB
  0
ENDSEC
  0
SECTION
  2
BLOCKS
  0
BLOCK
  8
0
  2
$MODEL_SPACE
 70
     0
 10
0.0
 20
0.0
 30
0.0
  3
$MODEL_SPACE
  1

  0
ENDBLK
  5
21
  8
0
  0
BLOCK
 67
     1
  8
0
  2
$PAPER_SPACE
 70
     0
 10
0.0
 20
0.0
 30
0.0
  3
$PAPER_SPACE
  1

  0
ENDBLK
  5
1D
 67
     1
  8
0
  0
BLOCK
  8
0
  2
POLY1
 70
     0
 10
0.0
 20
0.0
 30
0.0
  3
POLY1
  1

  0
LINE
  5
77
  8
0
 62
   179
 10
162.5648
 20
201.606411
 30
0.0
 11
162.55067
 21
201.645179
 31
0.0
  0
LINE
  5
78
  8
0
 62
   179
 10
162.55067
 20
201.645179
 30
0.0
 11
162.521476
 21
201.725281
 31
0.0
  0
LINE
  5
79
  8
0
 62
   179
 10
162.521476
 20
201.725281
 30
0.0
 11
162.283252
 21
202.391149
 31
0.0
  0
LINE
  5
7A
  8
0
 62
   179
 10
162.283252
 20
202.391149
 30
0.0
 11
161.908931
 21
203.484112
 31
0.0
  0
LINE
  5
7B
  8
0
 62
   179
 10
161.908931
 20
203.484112
 30
0.0
 11
161.418038
 21
205.024823
 31
0.0
  0
LINE
  5
7C
  8
0
 62
   179
 10
161.418038
 20
205.024823
 30
0.0
 11
161.004761
 21
206.4575
 31
0.0
  0
LINE
  5
7D
  8
0
 62
   179
 10
161.004761
 20
206.4575
 30
0.0
 11
160.772425
 21
207.354374
 31
0.0
  0
LINE
  5
7E
  8
0
 62
   179
 10
160.772425
 20
207.354374
 30
0.0
 11
160.727983
 21
207.525931
 31
0.0
  0
ENDBLK
  5
76
  8
0
  0
BLOCK
  8
0
  2
POLY2
 70
     0
 10
0.0
 20
0.0
 30
0.0
  3
POLY2
  1

  0
LINE
  5
82
  8
0
 62
   179
 10
160.727983
 20
207.525931
 30
0.0
 11
160.55516
 21
208.231863
 31
0.0
  0
LINE
  5
83
  8
0
 62
   179
 10
160.55516
 20
208.231863
 30
0.0
 11
160.209541
 21
209.643626
 31
0.0
  0
LINE
  5
84
  8
0
 62
   179
 10
160.209541
 20
209.643626
 30
0.0
 11
159.722189
 21
212.185634
 31
0.0
  0
LINE
  5
85
  8
0
 62
   179
 10
159.722189
 20
212.185634
 30
0.0
 11
159.329634
 21
215.046361
 31
0.0
  0
LINE
  5
86
  8
0
 62
   179
 10
159.329634
 20
215.046361
 30
0.0
 11
159.097012
 21
218.13204
 31
0.0
  0
LINE
  5
87
  8
0
 62
   179
 10
159.097012
 20
218.13204
 30
0.0
 11
159.074926
 21
221.215432
 31
0.0
  0
LINE
  5
88
  8
0
 62
   179
 10
159.074926
 20
221.215432
 30
0.0
 11
159.234617
 21
224.172814
 31
0.0
  0
LINE
  5
89
  8
0
 62
   179
 10
159.234617
 20
224.172814
 30
0.0
 11
159.562396
 21
226.979805
 31
0.0
  0
LINE
  5
8A
  8
0
 62
   179
 10
159.562396
 20
226.979805
 30
0.0
 11
160.012148
 21
229.621084
 31
0.0
  0
LINE
  5
8B
  8
0
 62
   179
 10
160.012148
 20
229.621084
 30
0.0
 11
160.550527
 21
232.041071
 31
0.0
  0
LINE
  5
8C
  8
0
 62
   179
 10
160.550527
 20
232.041071
 30
0.0
 11
161.033434
 21
233.861723
 31
0.0
  0
LINE
  5
8D
  8
0
 62
   179
 10
161.033434
 20
233.861723
 30
0.0
 11
161.307734
 21
234.787974
 31
0.0
  0
LINE
  5
8E
  8
0
 62
   179
 10
161.307734
 20
234.787974
 30
0.0
 11
161.402035
 21
235.106408
 31
0.0
  0
ENDBLK
  5
81
  8
0
  0
BLOCK
  8
0
  2
KLON1
 70
     0
 10
0.0
 20
0.0
 30
0.0
  3
KLON1
  1

  0
LINE
  5
92
  8
0
 62
   179
 10
80.814802
 20
212.369002
 30
0.0
 11
80.945973
 21
212.351735
 31
0.0
  0
LINE
  5
93
  8
0
 62
   179
 10
80.945973
 20
212.351735
 30
0.0
 11
81.064799
 21
212.336089
 31
0.0
  0
ENDBLK
  5
91
  8
0
  0
BLOCK
  8
0
  2
KLON2
 70
     0
 10
0.0
 20
0.0
 30
0.0
  3
KLON2
  1

  0
LINE
  5
97
  8
0
 62
   179
 10
142.064801
 20
204.305287
 30
0.0
 11
142.183626
 21
204.289644
 31
0.0
  0
LINE
  5
98
  8
0
 62
   179
 10
142.183626
 20
204.289644
 30
0.0
 11
142.314801
 21
204.272374
 31
0.0
  0
ENDBLK
  5
96
  8
0
  0
BLOCK
  8
0
  2
POLY3
 70
     0
 10
0.0
 20
0.0
 30
0.0
  3
POLY3
  1

  0
LINE
  5
9C
  8
0
 62
   179
 10
81.841377
 20
233.920983
 30
0.0
 11
81.431398
 21
234.685896
 31
0.0
  0
LINE
  5
9D
  8
0
 62
   179
 10
81.431398
 20
234.685896
 30
0.0
 11
79.37975
 21
238.513731
 31
0.0
  0
LINE
  5
9E
  8
0
 62
   179
 10
79.37975
 20
238.513731
 30
0.0
 11
77.330093
 21
242.342634
 31
0.0
  0
LINE
  5
9F
  8
0
 62
   179
 10
77.330093
 20
242.342634
 30
0.0
 11
75.690017
 21
245.406411
 31
0.0
  0
ENDBLK
  5
9B
  8
0
  0
BLOCK
  8
0
  2
POLY4
 70
     0
 10
0.0
 20
0.0
 30
0.0
  3
POLY4
  1

  0
LINE
  5
A3
  8
0
 62
   179
 10
147.439582
 20
245.406411
 30
0.0
 11
145.799506
 21
242.342634
 31
0.0
  0
LINE
  5
A4
  8
0
 62
   179
 10
145.799506
 20
242.342634
 30
0.0
 11
143.749849
 21
238.513732
 31
0.0
  0
LINE
  5
A5
  8
0
 62
   179
 10
143.749849
 20
238.513732
 30
0.0
 11
141.698203
 21
234.685896
 31
0.0
  0
LINE
  5
A6
  8
0
 62
   179
 10
141.698203
 20
234.685896
 30
0.0
 11
141.288225
 21
233.920983
 31
0.0
  0
ENDBLK
  5
A2
  8
0
  0
BLOCK
  8
0
  2
KLON3
 70
     0
 10
0.0
 20
0.0
 30
0.0
  3
KLON3
  1

  0
LINE
  5
AA
  8
0
 62
   179
 10
153.464801
 20
234.287106
 30
0.0
 11
157.064801
 21
237.887106
 31
0.0
  0
LINE
  5
AB
  8
0
 62
   179
 10
160.807702
 20
241.630007
 30
0.0
 11
165.564801
 21
246.387106
 31
0.0
  0
LINE
  5
AC
  8
0
 62
   179
 10
154.119519
 20
230.451694
 30
0.0
 11
157.064801
 21
233.396976
 31
0.0
  0
LINE
  5
AD
  8
0
 62
   179
 10
160.987511
 20
237.319686
 30
0.0
 11
163.883942
 21
240.216117
 31
0.0
  0
LINE
  5
AE
  8
0
 62
   179
 10
164.204148
 20
240.536323
 30
0.0
 11
166.774237
 21
243.106412
 31
0.0
  0
LINE
  5
AF
  8
0
 62
   179
 10
166.764367
 20
238.606412
 30
0.0
 11
170.064801
 21
241.906846
 31
0.0
  0
ENDBLK
  5
A9
  8
0
  0
BLOCK
  8
0
  2
KLON4
 70
     0
 10
0.0
 20
0.0
 30
0.0
  3
KLON4
  1

  0
LINE
  5
B3
  8
0
 62
   179
 10
68.461801
 20
230.106412
 30
0.0
 11
69.664801
 21
231.309411
 31
0.0
  0
LINE
  5
B4
  8
0
 62
   179
 10
53.064801
 20
241.650179
 30
0.0
 11
54.521033
 21
243.106412
 31
0.0
  0
LINE
  5
B5
  8
0
 62
   179
 10
57.564801
 20
246.150179
 30
0.0
 11
58.521033
 21
247.106412
 31
0.0
  0
LINE
  5
B6
  8
0
 62
   179
 10
54.511163
 20
238.606412
 30
0.0
 11
62.064801
 21
246.160049
 31
0.0
  0
LINE
  5
B7
  8
0
 62
   179
 10
59.534189
 20
239.139308
 30
0.0
 11
65.501293
 21
245.106412
 31
0.0
  0
LINE
  5
B8
  8
0
 62
   179
 10
60.483067
 20
235.598046
 30
0.0
 11
62.139824
 21
237.254803
 31
0.0
  0
LINE
  5
B9
  8
0
 62
   179
 10
66.064801
 20
241.179779
 30
0.0
 11
69.328117
 21
244.443095
 31
0.0
  0
ENDBLK
  5
B2
  8
0
  0
BLOCK
  8
0
  2
KLON5
 70
     0
 10
0.0
 20
0.0
 30
0.0
  3
KLON5
  1

  0
LINE
  5
BD
  8
0
 62
   179
 10
135.731064
 20
194.102729
 30
0.0
 11
141.368483
 21
199.740148
 31
0.0
  0
LINE
  5
BE
  8
0
 62
   179
 10
130.544619
 20
193.406412
 30
0.0
 11
132.044619
 21
194.906412
 31
0.0
  0
LINE
  5
BF
  8
0
 62
   179
 10
140.564801
 20
203.426593
 30
0.0
 11
142.064801
 21
204.926593
 31
0.0
  0
LINE
  5
C0
  8
0
 62
   179
 10
126.054491
 20
193.406412
 30
0.0
 11
127.554491
 21
194.906412
 31
0.0
  0
LINE
  5
C1
  8
0
 62
   179
 10
140.564801
 20
207.916721
 30
0.0
 11
142.064801
 21
209.416721
 31
0.0
  0
LINE
  5
C2
  8
0
 62
   179
 10
121.564363
 20
193.406412
 30
0.0
 11
123.064363
 21
194.906412
 31
0.0
  0
LINE
  5
C3
  8
0
 62
   179
 10
140.564801
 20
212.406849
 30
0.0
 11
142.064801
 21
213.906849
 31
0.0
  0
LINE
  5
C4
  8
0
 62
   179
 10
117.074235
 20
193.406412
 30
0.0
 11
118.574235
 21
194.906412
 31
0.0
  0
LINE
  5
C5
  8
0
 62
   179
 10
140.564801
 20
216.896978
 30
0.0
 11
142.064801
 21
218.396978
 31
0.0
  0
LINE
  5
C6
  8
0
 62
   179
 10
112.584107
 20
193.406412
 30
0.0
 11
114.084107
 21
194.906412
 31
0.0
  0
LINE
  5
C7
  8
0
 62
   179
 10
140.564801
 20
221.387106
 30
0.0
 11
142.064801
 21
222.887106
 31
0.0
  0
LINE
  5
C8
  8
0
 62
   179
 10
108.093979
 20
193.406412
 30
0.0
 11
109.593979
 21
194.906412
 31
0.0
  0
LINE
  5
C9
  8
0
 62
   179
 10
140.564801
 20
225.877234
 30
0.0
 11
142.064801
 21
227.377234
 31
0.0
  0
LINE
  5
CA
  8
0
 62
   179
 10
103.60385
 20
193.406412
 30
0.0
 11
105.10385
 21
194.906412
 31
0.0
  0
LINE
  5
CB
  8
0
 62
   179
 10
140.564801
 20
230.367362
 30
0.0
 11
142.064801
 21
231.867362
 31
0.0
  0
LINE
  5
CC
  8
0
 62
   179
 10
99.113722
 20
193.406412
 30
0.0
 11
100.613722
 21
194.906412
 31
0.0
  0
LINE
  5
CD
  8
0
 62
   179
 10
143.50889
 20
237.801579
 30
0.0
 11
147.151747
 21
241.444436
 31
0.0
  0
LINE
  5
CE
  8
0
 62
   179
 10
94.623594
 20
193.406412
 30
0.0
 11
96.123594
 21
194.906412
 31
0.0
  0
LINE
  5
CF
  8
0
 62
   179
 10
147.564801
 20
246.347618
 30
0.0
 11
150.123594
 21
248.906412
 31
0.0
  0
LINE
  5
D0
  8
0
 62
   179
 10
90.173285
 20
193.446231
 30
0.0
 11
91.633466
 21
194.906412
 31
0.0
  0
LINE
  5
D1
  8
0
 62
   179
 10
86.663834
 20
194.426908
 30
0.0
 11
87.79671
 21
195.559783
 31
0.0
  0
LINE
  5
D2
  8
0
 62
   179
 10
84.038076
 20
196.291277
 30
0.0
 11
85.09876
 21
197.351962
 31
0.0
  0
LINE
  5
D3
  8
0
 62
   179
 10
82.144104
 20
198.887433
 30
0.0
 11
83.27098
 21
200.014309
 31
0.0
  0
LINE
  5
D4
  8
0
 62
   179
 10
81.120353
 20
202.353811
 30
0.0
 11
82.564801
 21
203.798258
 31
0.0
  0
LINE
  5
D5
  8
0
 62
   179
 10
81.064801
 20
206.788386
 30
0.0
 11
82.564801
 21
208.288386
 31
0.0
  0
LINE
  5
D6
  8
0
 62
   179
 10
81.064801
 20
211.278514
 30
0.0
 11
82.564801
 21
212.778514
 31
0.0
  0
LINE
  5
D7
  8
0
 62
   179
 10
81.064801
 20
215.768642
 30
0.0
 11
82.564801
 21
217.268642
 31
0.0
  0
LINE
  5
D8
  8
0
 62
   179
 10
81.064801
 20
220.25877
 30
0.0
 11
82.564801
 21
221.75877
 31
0.0
  0
LINE
  5
D9
  8
0
 62
   179
 10
81.064801
 20
224.748898
 30
0.0
 11
82.564801
 21
226.248898
 31
0.0
  0
LINE
  5
DA
  8
0
 62
   179
 10
81.064801
 20
229.239027
 30
0.0
 11
82.564801
 21
230.739027
 31
0.0
  0
LINE
  5
DB
  8
0
 62
   179
 10
80.430803
 20
233.095157
 30
0.0
 11
81.539499
 21
234.203853
 31
0.0
  0
LINE
  5
DC
  8
0
 62
   179
 10
78.869019
 20
236.023501
 30
0.0
 11
79.977715
 21
237.132197
 31
0.0
  0
LINE
  5
DD
  8
0
 62
   179
 10
77.307236
 20
238.951846
 30
0.0
 11
78.415931
 21
240.060541
 31
0.0
  0
LINE
  5
DE
  8
0
 62
   179
 10
75.745452
 20
241.88019
 30
0.0
 11
76.854148
 21
242.988886
 31
0.0
  0
LINE
  5
DF
  8
0
 62
   179
 10
74.187461
 20
244.812327
 30
0.0
 11
75.564801
 21
246.189667
 31
0.0
  0
LINE
  5
E0
  8
0
 62
   179
 10
72.291417
 20
247.406412
 30
0.0
 11
73.791417
 21
248.906412
 31
0.0
  0
ENDBLK
  5
BC
  8
0
  0
BLOCK
  8
0
  2
KLON6
 70
     0
 10
0.0
 20
0.0
 30
0.0
  3
KLON6
  1

  0
LINE
  5
E4
  8
0
 62
   179
 10
93.564801
 20
229.72442
 30
0.0
 11
92.564801
 21
230.72442
 31
0.0
  0
LINE
  5
E5
  8
0
 62
   179
 10
77.882809
 20
245.406412
 30
0.0
 11
76.064801
 21
247.22442
 31
0.0
  0
LINE
  5
E6
  8
0
 62
   179
 10
74.382809
 20
248.906412
 30
0.0
 11
72.682809
 21
250.606412
 31
0.0
  0
LINE
  5
E7
  8
0
 62
   179
 10
93.564801
 20
234.21455
 30
0.0
 11
92.53266
 21
235.246691
 31
0.0
  0
LINE
  5
E8
  8
0
 62
   179
 10
82.40508
 20
245.374271
 30
0.0
 11
81.372939
 21
246.406412
 31
0.0
  0
LINE
  5
E9
  8
0
 62
   179
 10
78.064801
 20
249.71455
 30
0.0
 11
72.372939
 21
255.406412
 31
0.0
  0
LINE
  5
EA
  8
0
 62
   179
 10
93.564801
 20
207.273781
 30
0.0
 11
92.564801
 21
208.273781
 31
0.0
  0
LINE
  5
EB
  8
0
 62
   179
 10
92.078594
 20
240.190886
 30
0.0
 11
87.349275
 21
244.920205
 31
0.0
  0
LINE
  5
EC
  8
0
 62
   179
 10
77.669905
 20
254.599575
 30
0.0
 11
77.257964
 21
255.011516
 31
0.0
  0
LINE
  5
ED
  8
0
 62
   179
 10
93.564801
 20
211.763911
 30
0.0
 11
92.564801
 21
212.763911
 31
0.0
  0
LINE
  5
EE
  8
0
 62
   179
 10
93.564801
 20
216.254051
 30
0.0
 11
92.564801
 21
217.254051
 31
0.0
  0
ENDBLK
  5
E3
  8
0
  0
BLOCK
  8
0
  2
KLON7
 70
     0
 10
0.0
 20
0.0
 30
0.0
  3
KLON7
  1

  0
LINE
  5
F2
  8
0
 62
   179
 10
150.705114
 20
253.406412
 30
0.0
 11
148.705114
 21
255.406412
 31
0.0
  0
LINE
  5
F3
  8
0
 62
   179
 10
134.409557
 20
242.7612
 30
0.0
 11
133.700515
 21
243.470242
 31
0.0
  0
LINE
  5
F4
  8
0
 62
   179
 10
130.564801
 20
219.665188
 30
0.0
 11
129.564801
 21
220.665188
 31
0.0
  0
LINE
  5
F5
  8
0
 62
   179
 10
137.170377
 20
244.49051
 30
0.0
 11
136.415459
 21
245.245428
 31
0.0
  0
LINE
  5
F6
  8
0
 62
   179
 10
130.564801
 20
224.155318
 30
0.0
 11
129.564801
 21
225.155318
 31
0.0
  0
LINE
  5
F7
  8
0
 62
   179
 10
140.773131
 20
245.377886
 30
0.0
 11
139.865528
 21
246.285489
 31
0.0
  0
LINE
  5
F8
  8
0
 62
   179
 10
130.564801
 20
228.645448
 30
0.0
 11
129.564801
 21
229.645448
 31
0.0
  0
LINE
  5
F9
  8
0
 62
   179
 10
145.234745
 20
245.406412
 30
0.0
 11
144.222269
 21
246.418888
 31
0.0
  0
LINE
  5
FA
  8
0
 62
   179
 10
130.564801
 20
233.135588
 30
0.0
 11
129.564801
 21
234.135588
 31
0.0
  0
LINE
  5
FB
  8
0
 62
   179
 10
130.564801
 20
206.19482
 30
0.0
 11
129.564801
 21
207.19482
 31
0.0
  0
ENDBLK
  5
F1
  8
0
  0
BLOCK
  8
0
  2
KLON8
 70
     0
 10
0.0
 20
0.0
 30
0.0
  3
KLON8
  1

  0
LINE
  5
FF
  8
0
 62
   179
 10
57.564801
 20
243.273781
 30
0.0
 11
55.564801
 21
245.273781
 31
0.0
  0
LINE
  5
100
  8
0
 62
   179
 10
58.2223
 20
247.106412
 30
0.0
 11
55.564801
 21
249.763911
 31
0.0
  0
LINE
  5
101
  8
0
 62
   179
 10
64.21244
 20
245.606412
 30
0.0
 11
60.21244
 21
249.606412
 31
0.0
  0
ENDBLK
  5
FE
  8
0
  0
BLOCK
  8
0
  2
KLON9
 70
     0
 10
0.0
 20
0.0
 30
0.0
  3
KLON9
  1

  0
LINE
  5
105
  8
0
 62
   179
 10
161.495244
 20
247.106412
 30
0.0
 11
158.722354
 21
249.879302
 31
0.0
  0
LINE
  5
106
  8
0
 62
   179
 10
167.564801
 20
245.526985
 30
0.0
 11
163.275087
 21
249.816698
 31
0.0
  0
LINE
  5
107
  8
0
 62
   179
 10
167.564801
 20
250.017125
 30
0.0
 11
165.520157
 21
252.061768
 31
0.0
  0
ENDBLK
  5
104
  8
0
  0
BLOCK
  8
0
  2
KLON10
 70
     0
 10
0.0
 20
0.0
 30
0.0
  3
KLON10
  1

  0
LINE
  5
10B
  8
0
 62
   179
 10
72.942058
 20
225.606412
 30
0.0
 11
74.064801
 21
226.729155
 31
0.0
  0
LINE
  5
10C
  8
0
 62
   179
 10
69.258365
 20
226.412847
 30
0.0
 11
74.064801
 21
231.219283
 31
0.0
  0
LINE
  5
10D
  8
0
 62
   179
 10
68.564801
 20
230.209411
 30
0.0
 11
74.064801
 21
235.709411
 31
0.0
  0
LINE
  5
10E
  8
0
 62
   179
 10
68.564801
 20
234.699539
 30
0.0
 11
74.064801
 21
240.199539
 31
0.0
  0
LINE
  5
10F
  8
0
 62
   179
 10
68.564801
 20
239.189667
 30
0.0
 11
74.064801
 21
244.689667
 31
0.0
  0
LINE
  5
110
  8
0
 62
   179
 10
68.564801
 20
243.679795
 30
0.0
 11
72.291417
 21
247.406412
 31
0.0
  0
LINE
  5
111
  8
0
 62
   179
 10
68.564801
 20
248.169923
 30
0.0
 11
71.564801
 21
251.169923
 31
0.0
  0
LINE
  5
112
  8
0
 62
   179
 10
68.564801
 20
252.660051
 30
0.0
 11
71.244579
 21
255.339829
 31
0.0
  0
LINE
  5
113
  8
0
 62
   179
 10
64.521027
 20
253.106406
 30
0.0
 11
66.98265
 21
255.568028
 31
0.0
  0
LINE
  5
114
  8
0
 62
   179
 10
60.030899
 20
253.106406
 30
0.0
 11
62.054308
 21
255.129814
 31
0.0
  0
ENDBLK
  5
10A
  8
0
  0
BLOCK
  8
0
  2
KLON11
 70
     0
 10
0.0
 20
0.0
 30
0.0
  3
KLON11
  1

  0
LINE
  5
118
  8
0
 62
   179
 10
149.274235
 20
225.606412
 30
0.0
 11
154.564801
 21
230.896978
 31
0.0
  0
LINE
  5
119
  8
0
 62
   179
 10
149.064801
 20
229.887106
 30
0.0
 11
154.564801
 21
235.387106
 31
0.0
  0
LINE
  5
11A
  8
0
 62
   179
 10
149.064801
 20
234.377234
 30
0.0
 11
154.564801
 21
239.877234
 31
0.0
  0
LINE
  5
11B
  8
0
 62
   179
 10
149.064801
 20
238.867362
 30
0.0
 11
154.564801
 21
244.367362
 31
0.0
  0
LINE
  5
11C
  8
0
 62
   179
 10
163.303844
 20
253.106406
 30
0.0
 11
164.688785
 21
254.491347
 31
0.0
  0
LINE
  5
11D
  8
0
 62
   179
 10
149.064801
 20
243.35749
 30
0.0
 11
154.564801
 21
248.85749
 31
0.0
  0
LINE
  5
11E
  8
0
 62
   179
 10
158.813716
 20
253.106406
 30
0.0
 11
160.865806
 21
255.158496
 31
0.0
  0
LINE
  5
11F
  8
0
 62
   179
 10
151.564801
 20
250.347618
 30
0.0
 11
156.757534
 21
255.540351
 31
0.0
  0
LINE
  5
120
  8
0
 62
   179
 10
151.601349
 20
254.874294
 30
0.0
 11
152.296918
 21
255.569863
 31
0.0
  0
ENDBLK
  5
117
  8
0
  0
BLOCK
  8
0
  2
KLON12
 70
     0
 10
0.0
 20
0.0
 30
0.0
  3
KLON12
  1

  0
LINE
  5
124
  8
0
 62
   179
 10
160.863029
 20
255.155718
 30
0.0
 11
164.658029
 21
258.950719
 31
0.0
  0
LINE
  5
125
  8
0
 62
   179
 10
156.756386
 20
255.539203
 30
0.0
 11
166.720018
 21
265.502836
 31
0.0
  0
LINE
  5
126
  8
0
 62
   179
 10
143.333466
 20
246.606412
 30
0.0
 11
145.164801
 21
248.437746
 31
0.0
  0
LINE
  5
127
  8
0
 62
   179
 10
152.333466
 20
255.606412
 30
0.0
 11
162.509704
 21
265.782649
 31
0.0
  0
LINE
  5
128
  8
0
 62
   179
 10
138.843338
 20
246.606412
 30
0.0
 11
145.164801
 21
252.927874
 31
0.0
  0
LINE
  5
129
  8
0
 62
   179
 10
147.843338
 20
255.606412
 30
0.0
 11
158.278328
 21
266.041401
 31
0.0
  0
LINE
  5
12A
  8
0
 62
   179
 10
138.133856
 20
250.387057
 30
0.0
 11
154.025591
 21
266.278793
 31
0.0
  0
LINE
  5
12B
  8
0
 62
   179
 10
137.772624
 20
254.515953
 30
0.0
 11
149.751187
 21
266.494517
 31
0.0
  0
LINE
  5
12C
  8
0
 62
   179
 10
137.411392
 20
258.64485
 30
0.0
 11
145.454799
 21
266.688257
 31
0.0
  0
LINE
  5
12D
  8
0
 62
   179
 10
136.882826
 20
262.606412
 30
0.0
 11
141.136101
 21
266.859686
 31
0.0
  0
LINE
  5
12E
  8
0
 62
   179
 10
132.392698
 20
262.606412
 30
0.0
 11
136.794755
 21
267.008469
 31
0.0
  0
LINE
  5
12F
  8
0
 62
   179
 10
127.90257
 20
262.606412
 30
0.0
 11
132.430415
 21
267.134257
 31
0.0
  0
LINE
  5
130
  8
0
 62
   179
 10
123.412442
 20
262.606412
 30
0.0
 11
128.042723
 21
267.236692
 31
0.0
  0
LINE
  5
131
  8
0
 62
   179
 10
118.922314
 20
262.606412
 30
0.0
 11
123.631308
 21
267.315406
 31
0.0
  0
LINE
  5
132
  8
0
 62
   179
 10
114.432186
 20
262.606412
 30
0.0
 11
119.19579
 21
267.370016
 31
0.0
  0
LINE
  5
133
  8
0
 62
   179
 10
109.942058
 20
262.606412
 30
0.0
 11
114.735773
 21
267.400127
 31
0.0
  0
LINE
  5
134
  8
0
 62
   179
 10
105.45193
 20
262.606412
 30
0.0
 11
110.25085
 21
267.405333
 31
0.0
  0
LINE
  5
135
  8
0
 62
   179
 10
100.961801
 20
262.606412
 30
0.0
 11
105.7406
 21
267.385211
 31
0.0
  0
LINE
  5
136
  8
0
 62
   179
 10
80.471673
 20
246.606412
 30
0.0
 11
85.067023
 21
251.201761
 31
0.0
  0
LINE
  5
137
  8
0
 62
   179
 10
96.471673
 20
262.606412
 30
0.0
 11
101.204587
 21
267.339325
 31
0.0
  0
LINE
  5
138
  8
0
 62
   179
 10
77.964801
 20
248.589667
 30
0.0
 11
85.497522
 21
256.122388
 31
0.0
  0
LINE
  5
139
  8
0
 62
   179
 10
91.981545
 20
262.606412
 30
0.0
 11
96.642359
 21
267.267225
 31
0.0
  0
LINE
  5
13A
  8
0
 62
   179
 10
77.964801
 20
253.079795
 30
0.0
 11
85.928021
 21
261.043015
 31
0.0
  0
LINE
  5
13B
  8
0
 62
   179
 10
87.491417
 20
262.606412
 30
0.0
 11
92.053449
 21
267.168443
 31
0.0
  0
LINE
  5
13C
  8
0
 62
   179
 10
76.001289
 20
255.606412
 30
0.0
 11
87.437373
 21
267.042496
 31
0.0
  0
LINE
  5
13D
  8
0
 62
   179
 10
71.511161
 20
255.606412
 30
0.0
 11
82.793631
 21
266.888882
 31
0.0
  0
LINE
  5
13E
  8
0
 62
   179
 10
66.98169
 20
255.567069
 30
0.0
 11
78.121702
 21
266.70708
 31
0.0
  0
LINE
  5
13F
  8
0
 62
   179
 10
62.050525
 20
255.126032
 30
0.0
 11
73.421046
 21
266.496553
 31
0.0
  0
LINE
  5
140
  8
0
 62
   179
 10
59.427742
 20
256.993376
 30
0.0
 11
68.691105
 21
266.256739
 31
0.0
  0
LINE
  5
141
  8
0
 62
   179
 10
57.954151
 20
260.009913
 30
0.0
 11
63.931296
 21
265.987058
 31
0.0
  0
LINE
  5
142
  8
0
 62
   179
 10
56.060521
 20
262.606412
 30
0.0
 11
59.141015
 21
265.686905
 31
0.0
  0
ENDBLK
  5
123
  8
0
  0
BLOCK
  8
0
  2
KLON13
 70
     0
 10
0.0
 20
0.0
 30
0.0
  3
KLON13
  1

  0
LINE
  5
146
  8
0
 62
   179
 10
212.50781
 20
239.448579
 30
0.0
 11
214.364801
 21
241.305569
 31
0.0
  0
LINE
  5
147
  8
0
 62
   179
 10
207.175515
 20
238.606412
 30
0.0
 11
209.429752
 21
240.860648
 31
0.0
  0
LINE
  5
148
  8
0
 62
   179
 10
209.860564
 20
241.29146
 30
0.0
 11
211.671703
 21
243.1026
 31
0.0
  0
LINE
  5
149
  8
0
 62
   179
 10
202.685387
 20
238.606412
 30
0.0
 11
205.664801
 21
241.585825
 31
0.0
  0
LINE
  5
14A
  8
0
 62
   179
 10
198.195259
 20
238.606412
 30
0.0
 11
204.550573
 21
244.961725
 31
0.0
  0
LINE
  5
14B
  8
0
 62
   179
 10
193.705131
 20
238.606412
 30
0.0
 11
200.145974
 21
245.047254
 31
0.0
  0
LINE
  5
14C
  8
0
 62
   179
 10
189.215003
 20
238.606412
 30
0.0
 11
194.651871
 21
244.04328
 31
0.0
  0
LINE
  5
14D
  8
0
 62
   179
 10
181.224875
 20
235.106412
 30
0.0
 11
193.45621
 21
247.337747
 31
0.0
  0
LINE
  5
14E
  8
0
 62
   179
 10
176.734747
 20
235.106412
 30
0.0
 11
183.234747
 21
241.606412
 31
0.0
  0
LINE
  5
14F
  8
0
 62
   179
 10
172.244619
 20
235.106412
 30
0.0
 11
175.244619
 21
238.106412
 31
0.0
  0
LINE
  5
150
  8
0
 62
   179
 10
167.754491
 20
235.106412
 30
0.0
 11
170.754491
 21
238.106412
 31
0.0
  0
LINE
  5
151
  8
0
 62
   179
 10
163.264363
 20
235.106412
 30
0.0
 11
166.264363
 21
238.106412
 31
0.0
  0
LINE
  5
152
  8
0
 62
   179
 10
163.915641
 20
240.247818
 30
0.0
 11
164.197576
 21
240.529753
 31
0.0
  0
ENDBLK
  5
145
  8
0
  0
BLOCK
  8
0
  2
KLON14
 70
     0
 10
0.0
 20
0.0
 30
0.0
  3
KLON14
  1

  0
LINE
  5
156
  8
0
 62
   179
 10
210.147995
 20
196.677611
 30
0.0
 11
213.869709
 21
200.399325
 31
0.0
  0
LINE
  5
157
  8
0
 62
   179
 10
204.195553
 20
195.215297
 30
0.0
 11
205.664801
 21
196.684544
 31
0.0
  0
LINE
  5
158
  8
0
 62
   179
 10
208.336668
 20
199.356412
 30
0.0
 11
210.328457
 21
201.348201
 31
0.0
  0
LINE
  5
159
  8
0
 62
   179
 10
199.691209
 20
195.201081
 30
0.0
 11
206.09654
 21
201.606412
 31
0.0
  0
LINE
  5
15A
  8
0
 62
   179
 10
195.842591
 20
195.842591
 30
0.0
 11
201.606412
 21
201.606412
 31
0.0
  0
LINE
  5
15B
  8
0
 62
   179
 10
192.454837
 20
196.944965
 30
0.0
 11
197.116284
 21
201.606412
 31
0.0
  0
LINE
  5
15C
  8
0
 62
   179
 10
187.126156
 20
196.106412
 30
0.0
 11
192.626156
 21
201.606412
 31
0.0
  0
LINE
  5
15D
  8
0
 62
   179
 10
185.136027
 20
198.606412
 30
0.0
 11
188.136027
 21
201.606412
 31
0.0
  0
LINE
  5
15E
  8
0
 62
   179
 10
180.645899
 20
198.606412
 30
0.0
 11
183.645899
 21
201.606412
 31
0.0
  0
LINE
  5
15F
  8
0
 62
   179
 10
176.155771
 20
198.606412
 30
0.0
 11
179.155771
 21
201.606412
 31
0.0
  0
LINE
  5
160
  8
0
 62
   179
 10
171.665643
 20
198.606412
 30
0.0
 11
174.665643
 21
201.606412
 31
0.0
  0
LINE
  5
161
  8
0
 62
   179
 10
167.175515
 20
198.606412
 30
0.0
 11
170.175515
 21
201.606412
 31
0.0
  0
LINE
  5
162
  8
0
 62
   179
 10
162.685387
 20
198.606412
 30
0.0
 11
165.685387
 21
201.606412
 31
0.0
  0
LINE
  5
163
  8
0
 62
   179
 10
158.680721
 20
199.091874
 30
0.0
 11
161.354587
 21
201.765739
 31
0.0
  0
LINE
  5
164
  8
0
 62
   179
 10
154.712959
 20
199.614239
 30
0.0
 11
157.386825
 21
202.288105
 31
0.0
  0
LINE
  5
165
  8
0
 62
   179
 10
150.745196
 20
200.136605
 30
0.0
 11
153.419062
 21
202.810471
 31
0.0
  0
LINE
  5
166
  8
0
 62
   179
 10
137.243627
 20
191.125164
 30
0.0
 11
144.580125
 21
198.461662
 31
0.0
  0
LINE
  5
167
  8
0
 62
   179
 10
146.777434
 20
200.658971
 30
0.0
 11
149.4513
 21
203.332837
 31
0.0
  0
LINE
  5
168
  8
0
 62
   179
 10
131.734747
 20
190.106412
 30
0.0
 11
135.346526
 21
193.718191
 31
0.0
  0
LINE
  5
169
  8
0
 62
   179
 10
141.703022
 20
200.074686
 30
0.0
 11
145.483538
 21
203.855203
 31
0.0
  0
LINE
  5
16A
  8
0
 62
   179
 10
127.244619
 20
190.106412
 30
0.0
 11
130.244619
 21
193.106412
 31
0.0
  0
LINE
  5
16B
  8
0
 62
   179
 10
122.754491
 20
190.106412
 30
0.0
 11
125.754491
 21
193.106412
 31
0.0
  0
LINE
  5
16C
  8
0
 62
   179
 10
118.264363
 20
190.106412
 30
0.0
 11
121.264363
 21
193.106412
 31
0.0
  0
LINE
  5
16D
  8
0
 62
   179
 10
113.774235
 20
190.106412
 30
0.0
 11
116.774235
 21
193.106412
 31
0.0
  0
LINE
  5
16E
  8
0
 62
   179
 10
109.284107
 20
190.106412
 30
0.0
 11
112.284107
 21
193.106412
 31
0.0
  0
LINE
  5
16F
  8
0
 62
   179
 10
104.793979
 20
190.106412
 30
0.0
 11
107.793979
 21
193.106412
 31
0.0
  0
LINE
  5
170
  8
0
 62
   179
 10
100.30385
 20
190.106412
 30
0.0
 11
103.30385
 21
193.106412
 31
0.0
  0
LINE
  5
171
  8
0
 62
   179
 10
95.813722
 20
190.106412
 30
0.0
 11
98.813722
 21
193.106412
 31
0.0
  0
LINE
  5
172
  8
0
 62
   179
 10
91.323594
 20
190.106412
 30
0.0
 11
94.323594
 21
193.106412
 31
0.0
  0
LINE
  5
173
  8
0
 62
   179
 10
87.4104
 20
190.683345
 30
0.0
 11
89.925751
 21
193.198696
 31
0.0
  0
LINE
  5
174
  8
0
 62
   179
 10
84.305554
 20
192.068627
 30
0.0
 11
86.508137
 21
194.27121
 31
0.0
  0
LINE
  5
175
  8
0
 62
   179
 10
81.788083
 20
194.041285
 30
0.0
 11
83.909409
 21
196.16261
 31
0.0
  0
LINE
  5
176
  8
0
 62
   179
 10
79.806132
 20
196.549461
 30
0.0
 11
82.005824
 21
198.749154
 31
0.0
  0
LINE
  5
177
  8
0
 62
   179
 10
78.40967
 20
199.643128
 30
0.0
 11
80.916328
 21
202.149785
 31
0.0
  0
LINE
  5
178
  8
0
 62
   179
 10
77.814971
 20
203.538557
 30
0.0
 11
80.814801
 21
206.538386
 31
0.0
  0
LINE
  5
179
  8
0
 62
   179
 10
77.814801
 20
208.028514
 30
0.0
 11
80.814801
 21
211.028514
 31
0.0
  0
LINE
  5
17A
  8
0
 62
   179
 10
75.357714
 20
210.061556
 30
0.0
 11
78.03158
 21
212.735421
 31
0.0
  0
LINE
  5
17B
  8
0
 62
   179
 10
71.389951
 20
210.583921
 30
0.0
 11
74.063817
 21
213.257787
 31
0.0
  0
LINE
  5
17C
  8
0
 62
   179
 10
67.422189
 20
211.106287
 30
0.0
 11
70.096055
 21
213.780153
 31
0.0
  0
LINE
  5
17D
  8
0
 62
   179
 10
63.513171
 20
211.687397
 30
0.0
 11
66.128293
 21
214.302519
 31
0.0
  0
LINE
  5
17E
  8
0
 62
   179
 10
60.534709
 20
213.199063
 30
0.0
 11
62.675099
 21
215.339453
 31
0.0
  0
LINE
  5
17F
  8
0
 62
   179
 10
58.504129
 20
215.658611
 30
0.0
 11
60.788035
 21
217.942517
 31
0.0
  0
LINE
  5
180
  8
0
 62
   179
 10
57.567498
 20
219.212108
 30
0.0
 11
60.564801
 21
222.209411
 31
0.0
  0
LINE
  5
181
  8
0
 62
   179
 10
57.564801
 20
223.699539
 30
0.0
 11
60.564801
 21
226.699539
 31
0.0
  0
LINE
  5
182
  8
0
 62
   179
 10
57.564801
 20
228.189667
 30
0.0
 11
60.564801
 21
231.189667
 31
0.0
  0
LINE
  5
183
  8
0
 62
   179
 10
57.564801
 20
232.679795
 30
0.0
 11
60.464763
 21
235.579757
 31
0.0
  0
LINE
  5
184
  8
0
 62
   179
 10
57.564801
 20
237.169923
 30
0.0
 11
59.515887
 21
239.12101
 31
0.0
  0
ENDBLK
  5
155
  8
0
  0
BLOCK
  8
0
  2
KLON15
 70
     0
 10
0.0
 20
0.0
 30
0.0
  3
KLON15
  1

  0
LINE
  5
188
  8
0
 62
   179
 10
284.243609
 20
200.690222
 30
0.0
 11
281.827419
 21
203.106412
 31
0.0
  0
LINE
  5
189
  8
0
 62
   179
 10
280.337291
 20
200.106412
 30
0.0
 11
277.337291
 21
203.106412
 31
0.0
  0
LINE
  5
18A
  8
0
 62
   179
 10
275.847163
 20
200.106412
 30
0.0
 11
272.847163
 21
203.106412
 31
0.0
  0
LINE
  5
18B
  8
0
 62
   179
 10
271.357035
 20
200.106412
 30
0.0
 11
268.357035
 21
203.106412
 31
0.0
  0
LINE
  5
18C
  8
0
 62
   179
 10
266.866907
 20
200.106412
 30
0.0
 11
263.866907
 21
203.106412
 31
0.0
  0
LINE
  5
18D
  8
0
 62
   179
 10
262.376779
 20
200.106412
 30
0.0
 11
259.376779
 21
203.106412
 31
0.0
  0
LINE
  5
18E
  8
0
 62
   179
 10
257.886651
 20
200.106412
 30
0.0
 11
254.886651
 21
203.106412
 31
0.0
  0
LINE
  5
18F
  8
0
 62
   179
 10
253.396522
 20
200.106412
 30
0.0
 11
250.396522
 21
203.106412
 31
0.0
  0
LINE
  5
190
  8
0
 62
   179
 10
248.906394
 20
200.106412
 30
0.0
 11
245.906394
 21
203.106412
 31
0.0
  0
LINE
  5
191
  8
0
 62
   179
 10
244.416266
 20
200.106412
 30
0.0
 11
241.416266
 21
203.106412
 31
0.0
  0
LINE
  5
192
  8
0
 62
   179
 10
239.926138
 20
200.106412
 30
0.0
 11
236.926138
 21
203.106412
 31
0.0
  0
LINE
  5
193
  8
0
 62
   179
 10
235.43601
 20
200.106412
 30
0.0
 11
232.43601
 21
203.106412
 31
0.0
  0
LINE
  5
194
  8
0
 62
   179
 10
230.945882
 20
200.106412
 30
0.0
 11
227.945882
 21
203.106412
 31
0.0
  0
LINE
  5
195
  8
0
 62
   179
 10
226.455754
 20
200.106412
 30
0.0
 11
223.455754
 21
203.106412
 31
0.0
  0
LINE
  5
196
  8
0
 62
   179
 10
221.965626
 20
200.106412
 30
0.0
 11
219.726907
 21
202.345131
 31
0.0
  0
LINE
  5
197
  8
0
 62
   179
 10
218.991342
 20
198.590567
 30
0.0
 11
217.211059
 21
200.370851
 31
0.0
  0
LINE
  5
198
  8
0
 62
   179
 10
216.356908
 20
196.734873
 30
0.0
 11
214.536161
 21
198.55562
 31
0.0
  0
LINE
  5
199
  8
0
 62
   179
 10
213.440326
 20
195.161328
 30
0.0
 11
211.545036
 21
197.056617
 31
0.0
  0
LINE
  5
19A
  8
0
 62
   179
 10
210.20872
 20
193.902805
 30
0.0
 11
208.191362
 21
195.920163
 31
0.0
  0
LINE
  5
19B
  8
0
 62
   179
 10
206.603612
 20
193.017785
 30
0.0
 11
204.387391
 21
195.234007
 31
0.0
  0
LINE
  5
19C
  8
0
 62
   179
 10
202.51712
 20
192.614149
 30
0.0
 11
199.951539
 21
195.179731
 31
0.0
  0
LINE
  5
19D
  8
0
 62
   179
 10
198.03473
 20
192.606412
 30
0.0
 11
194.608974
 21
196.032167
 31
0.0
  0
ENDBLK
  5
187
  8
0
  0
BLOCK
  8
0
  2
KLON16
 70
     0
 10
0.0
 20
0.0
 30
0.0
  3
KLON16
  1

  0
LINE
  5
1A1
  8
0
 62
   179
 10
283.748443
 20
237.106412
 30
0.0
 11
280.748443
 21
240.106412
 31
0.0
  0
LINE
  5
1A2
  8
0
 62
   179
 10
279.258315
 20
237.106412
 30
0.0
 11
276.258315
 21
240.106412
 31
0.0
  0
LINE
  5
1A3
  8
0
 62
   179
 10
274.768187
 20
237.106412
 30
0.0
 11
271.768187
 21
240.106412
 31
0.0
  0
LINE
  5
1A4
  8
0
 62
   179
 10
270.278059
 20
237.106412
 30
0.0
 11
267.278059
 21
240.106412
 31
0.0
  0
LINE
  5
1A5
  8
0
 62
   179
 10
265.787931
 20
237.106412
 30
0.0
 11
262.787931
 21
240.106412
 31
0.0
  0
LINE
  5
1A6
  8
0
 62
   179
 10
261.297803
 20
237.106412
 30
0.0
 11
258.297803
 21
240.106412
 31
0.0
  0
LINE
  5
1A7
  8
0
 62
   179
 10
256.807675
 20
237.106412
 30
0.0
 11
253.807675
 21
240.106412
 31
0.0
  0
LINE
  5
1A8
  8
0
 62
   179
 10
252.317547
 20
237.106412
 30
0.0
 11
249.317547
 21
240.106412
 31
0.0
  0
LINE
  5
1A9
  8
0
 62
   179
 10
247.827419
 20
237.106412
 30
0.0
 11
244.827419
 21
240.106412
 31
0.0
  0
LINE
  5
1AA
  8
0
 62
   179
 10
243.337291
 20
237.106412
 30
0.0
 11
240.337291
 21
240.106412
 31
0.0
  0
LINE
  5
1AB
  8
0
 62
   179
 10
238.847163
 20
237.106412
 30
0.0
 11
235.847163
 21
240.106412
 31
0.0
  0
LINE
  5
1AC
  8
0
 62
   179
 10
234.357035
 20
237.106412
 30
0.0
 11
231.357035
 21
240.106412
 31
0.0
  0
LINE
  5
1AD
  8
0
 62
   179
 10
229.866907
 20
237.106412
 30
0.0
 11
226.866907
 21
240.106412
 31
0.0
  0
LINE
  5
1AE
  8
0
 62
   179
 10
225.376779
 20
237.106412
 30
0.0
 11
222.376779
 21
240.106412
 31
0.0
  0
LINE
  5
1AF
  8
0
 62
   179
 10
220.407126
 20
237.585936
 30
0.0
 11
212.545543
 21
245.44752
 31
0.0
  0
LINE
  5
1B0
  8
0
 62
   179
 10
209.634561
 20
243.868373
 30
0.0
 11
206.248103
 21
247.254831
 31
0.0
  0
LINE
  5
1B1
  8
0
 62
   179
 10
203.997531
 20
245.015275
 30
0.0
 11
201.406394
 21
247.606412
 31
0.0
  0
LINE
  5
1B2
  8
0
 62
   179
 10
199.525915
 20
244.996763
 30
0.0
 11
196.916266
 21
247.606412
 31
0.0
  0
LINE
  5
1B3
  8
0
 62
   179
 10
195.698528
 20
244.334022
 30
0.0
 11
194.064801
 21
245.967749
 31
0.0
  0
ENDBLK
  5
1A0
  8
0
  0
BLOCK
  8
0
  2
LCDIM1
 70
     0
 10
0.0
 20
0.0
 30
0.0
  3
LCDIM1
  1

  0
ARC
  5
1B7
  8
0
 62
   179
 10
201.864801
 20
220.106412
 30
0.0
 40
210.3533801260473
 50
318.304252
 51
337.547392
  0
ARC
  5
1B8
  8
0
 62
   179
 10
201.864801
 20
220.106412
 30
0.0
 40
210.3533801260473
 50
341.245552
 51
10.55616
  0
LINE
  5
1B9
  8
0
 62
   179
 10
399.560388
 20
138.206477
 30
0.0
 11
401.585347
 21
148.333336
 31
0.0
  0
LINE
  5
1BA
  8
0
 62
   179
 10
402.263007
 20
151.722331
 30
0.0
 11
405.050563
 21
165.662951
 31
0.0
  0
LINE
  5
1BB
  8
0
 62
   179
 10
405.050563
 20
165.662951
 30
0.0
 11
399.121715
 21
153.670888
 31
0.0
  0
LINE
  5
1BC
  8
0
 62
   179
 10
396.046055
 20
139.403379
 30
0.0
 11
399.560388
 21
138.206477
 31
0.0
  0
LINE
  5
1BD
  8
0
 62
   179
 10
398.640814
 20
138.453868
 30
0.0
 11
400.15533
 21
146.027989
 31
0.0
  0
LINE
  5
1BE
  8
0
 62
   179
 10
401.400898
 20
152.257101
 30
0.0
 11
402.703544
 21
158.771659
 31
0.0
  0
LINE
  5
1BF
  8
0
 62
   179
 10
402.703544
 20
158.771659
 30
0.0
 11
399.932948
 21
153.167676
 31
0.0
  0
LINE
  5
1C0
  8
0
 62
   179
 10
397.721241
 20
138.701259
 30
0.0
 11
398.725313
 21
143.722642
 31
0.0
  0
LINE
  5
1C1
  8
0
 62
   179
 10
396.801668
 20
138.948651
 30
0.0
 11
397.295296
 21
141.417295
 31
0.0
  0
LINE
  5
1C2
  8
0
 62
   179
 10
406.728005
 20
247.562886
 30
0.0
 11
412.218181
 21
220.106412
 31
0.0
  0
LINE
  5
1C3
  8
0
 62
   179
 10
412.218181
 20
220.106412
 30
0.0
 11
414.021337
 21
248.048291
 31
0.0
  0
LINE
  5
1C4
  8
0
 62
   179
 10
414.021337
 20
248.048291
 30
0.0
 11
406.728005
 21
247.562886
 31
0.0
  0
LINE
  5
1C5
  8
0
 62
   179
 10
407.672002
 20
247.688132
 30
0.0
 11
411.734732
 21
227.370342
 31
0.0
  0
LINE
  5
1C6
  8
0
 62
   179
 10
411.734732
 20
227.370342
 30
0.0
 11
413.069068
 21
248.047332
 31
0.0
  0
LINE
  5
1C7
  8
0
 62
   179
 10
408.616
 20
247.813379
 30
0.0
 11
411.251284
 21
234.634271
 31
0.0
  0
LINE
  5
1C8
  8
0
 62
   179
 10
411.251284
 20
234.634271
 30
0.0
 11
412.116799
 21
248.046374
 31
0.0
  0
LINE
  5
1C9
  8
0
 62
   179
 10
409.559997
 20
247.938626
 30
0.0
 11
410.767835
 21
241.898201
 31
0.0
  0
LINE
  5
1CA
  8
0
 62
   179
 10
410.767835
 20
241.898201
 30
0.0
 11
411.16453
 21
248.045415
 31
0.0
  0
LINE
  5
1CB
  8
0
 62
   179
 10
249.378656
 20
207.375112
 30
0.0
 11
360.440613
 21
177.616151
 31
0.0
  0
LINE
  5
1CC
  8
0
 62
   179
 10
360.579093
 20
177.579045
 30
0.0
 11
408.914266
 21
164.627674
 31
0.0
  0
LINE
  5
1CD
  8
0
 62
   179
 10
287.064801
 20
220.106412
 30
0.0
 11
416.218181
 21
220.106412
 31
0.0
  0
TEXT
  5
1CE
  8
0
  6
CONTINUOUS
 62
   179
 10
352.3540699476
 20
97.7118564178
 30
0.0
 40
28.0
  1
 15°
 50
58.188492
 41
0.5907172996
 11
360.7595509508
 21
92.4978998164
 31
0.0
 73
     1
  0
ENDBLK
  5
1B6
  8
0
  0
BLOCK
  8
0
  2
_D
 70
     0
 10
0.0
 20
0.0
 30
0.0
  3
_D
  1

  0
SOLID
  5
33D
  8
0
 10
37.7460479447
 20
250.60641
 30
0.0
 11
37.2380479447
 21
247.30441
 31
0.0
 12
38.2540479447
 22
247.30441
 32
0.0
 13
38.2540479447
 23
247.30441
 33
0.0
  0
SOLID
  5
33E
  8
0
 10
37.7460479447
 20
256.60641
 30
0.0
 11
38.2540479447
 21
259.90841
 31
0.0
 12
37.2380479447
 22
259.90841
 32
0.0
 13
37.2380479447
 23
259.90841
 33
0.0
  0
LINE
  5
33F
  8
0
 10
62.98745
 20
250.60641
 30
0.0
 11
36.7460479447
 21
250.60641
 31
0.0
  0
LINE
  5
340
  8
0
 10
55.562879
 20
256.60641
 30
0.0
 11
36.7460479447
 21
256.60641
 31
0.0
  0
LINE
  5
341
  8
0
 10
37.7460479447
 20
250.60641
 30
0.0
 11
37.7460479447
 21
244.25641
 31
0.0
  0
LINE
  5
342
  8
0
 10
37.7460479447
 20
250.60641
 30
0.0
 11
37.7460479447
 21
256.60641
 31
0.0
  0
LINE
  5
343
  8
0
 10
37.7460479447
 20
256.60641
 30
0.0
 11
37.7460479447
 21
271.9087917297
 31
0.0
  0
TEXT
  5
344
  8
0
 10
32.8004070778
 20
261.2143475502
 30
0.0
 40
14.0
  1
6
 50
90.0
 41
0.7
 11
37.7460479447
 21
261.2143475502
 31
0.0
 73
     1
  0
ENDBLK
  5
33C
  8
0
  0
BLOCK
  8
0
  2
_NONE
 70
     0
 10
0.0
 20
0.0
 30
0.0
  3
_NONE
  1

  0
ENDBLK
  5
349
  8
0
  0
BLOCK
  8
0
  2
_D_1
 70
     0
 10
0.0
 20
0.0
 30
0.0
  3
_D_1
  1

  0
LINE
  5
34D
  8
0
  6
CONTINUOUS
 62
   179
 10
282.064797
 20
240.106411
 30
0.0
 11
318.522618
 21
240.106411
 31
0.0
  0
LINE
  5
34E
  8
0
  6
CONTINUOUS
 62
   179
 10
282.064797
 20
200.106412
 30
0.0
 11
318.522618
 21
200.106412
 31
0.0
  0
LINE
  5
34F
  8
0
  6
CONTINUOUS
 62
   179
 10
314.922618
 20
268.106411
 30
0.0
 11
314.922618
 21
296.106411
 31
0.0
  0
LINE
  5
350
  8
0
  6
CONTINUOUS
 62
   179
 10
314.922618
 20
172.106412
 30
0.0
 11
314.922618
 21
144.106412
 31
0.0
  0
LINE
  5
351
  8
0
  6
CONTINUOUS
 62
   179
 10
314.922618
 20
240.106411
 30
0.0
 11
314.922618
 21
200.106412
 31
0.0
  0
TEXT
  5
352
  8
0
  6
CONTINUOUS
 62
   179
 10
292.1141501632
 20
204.9993996918
 30
0.0
 40
28.0
  1
DN40
 50
90.0
 41
0.7
 11
302.005431897
 21
204.9993996918
 31
0.0
 73
     1
  0
SOLID
  5
353
  8
0
  6
CONTINUOUS
 62
   179
 10
310.255951
 20
268.106411
 30
0.0
 11
319.589284
 21
268.106411
 31
0.0
 12
314.922618
 22
240.106411
 32
0.0
 13
314.922618
 23
240.106411
 33
0.0
  0
SOLID
  5
354
  8
0
  6
CONTINUOUS
 62
   179
 10
319.589284
 20
172.106412
 30
0.0
 11
310.255951
 21
172.106412
 31
0.0
 12
314.922618
 22
200.106412
 32
0.0
 13
314.922618
 23
200.106412
 33
0.0
  0
ENDBLK
  5
34C
  8
0
  0
BLOCK
  8
0
  2
_D_2
 70
     0
 10
0.0
 20
0.0
 30
0.0
  3
_D_2
  1

  0
LINE
  5
359
  8
0
  6
CONTINUOUS
 62
   179
 10
54.564801
 20
263.975304
 30
0.0
 11
54.564801
 21
296.592419
 31
0.0
  0
LINE
  5
35A
  8
0
  6
CONTINUOUS
 62
   179
 10
168.564801
 20
263.975304
 30
0.0
 11
168.564801
 21
296.592419
 31
0.0
  0
LINE
  5
35B
  8
0
  6
CONTINUOUS
 62
   179
 10
82.564801
 20
292.992419
 30
0.0
 11
140.564801
 21
292.992419
 31
0.0
  0
TEXT
  5
35C
  8
0
  6
CONTINUOUS
 62
   179
 10
93.228123923
 20
315.8008882337
 30
0.0
 40
28.0
  1
%%c
 41
0.7
 11
93.228123923
 21
305.9096065
 31
0.0
 73
     1
  0
TEXT
  5
35D
  8
0
  6
CONTINUOUS
 62
   179
 10
135.45562311
 20
316.228665647
 30
0.0
 40
28.0
  1
114
 41
0.7
 11
135.45562311
 21
306.3373839133
 31
0.0
 73
     1
  0
SOLID
  5
35E
  8
0
  6
CONTINUOUS
 62
   179
 10
82.564801
 20
297.659086
 30
0.0
 11
82.564801
 21
288.325752
 31
0.0
 12
54.564801
 22
292.992419
 32
0.0
 13
54.564801
 23
292.992419
 33
0.0
  0
SOLID
  5
35F
  8
0
  6
CONTINUOUS
 62
   179
 10
140.564801
 20
288.325752
 30
0.0
 11
140.564801
 21
297.659086
 31
0.0
 12
168.564801
 22
292.992419
 32
0.0
 13
168.564801
 23
292.992419
 33
0.0
  0
ENDBLK
  5
358
  8
0
  0
BLOCK
  8
0
  2
_D_3
 70
     0
 10
0.0
 20
0.0
 30
0.0
  3
_D_3
  1

  0
LINE
  5
365
  8
0
  6
CONTINUOUS
 62
   179
 10
77.8148
 20
209.738075
 30
0.0
 11
77.8148
 21
140.669568
 31
0.0
  0
LINE
  5
366
  8
0
  6
CONTINUOUS
 62
   179
 10
145.314801
 20
200.85153
 30
0.0
 11
145.314801
 21
140.669568
 31
0.0
  0
LINE
  5
367
  8
0
  6
CONTINUOUS
 62
   179
 10
105.8148
 20
144.269568
 30
0.0
 11
117.314801
 21
144.269568
 31
0.0
  0
LINE
  5
368
  8
0
  6
CONTINUOUS
 62
   179
 10
145.314801
 20
144.269568
 30
0.0
 11
199.470636
 21
144.269568
 31
0.0
  0
TEXT
  5
369
  8
0
  6
CONTINUOUS
 62
   179
 10
142.2092125855
 20
167.0780372337
 30
0.0
 40
28.0
  1
%%c
 41
0.7
 11
142.2092125855
 21
157.1867555
 31
0.0
 73
     1
  0
TEXT
  5
36A
  8
0
  6
CONTINUOUS
 62
   179
 10
184.4367117725
 20
167.505814647
 30
0.0
 40
28.0
  1
67,5
 41
0.7
 11
184.4367117725
 21
157.6145329133
 31
0.0
 73
     1
  0
SOLID
  5
36B
  8
0
  6
CONTINUOUS
 62
   179
 10
105.8148
 20
148.936235
 30
0.0
 11
105.8148
 21
139.602902
 31
0.0
 12
77.8148
 22
144.269568
 32
0.0
 13
77.8148
 23
144.269568
 33
0.0
  0
SOLID
  5
36C
  8
0
  6
CONTINUOUS
 62
   179
 10
117.314801
 20
139.602902
 30
0.0
 11
117.314801
 21
148.936235
 31
0.0
 12
145.314801
 22
144.269568
 32
0.0
 13
145.314801
 23
144.269568
 33
0.0
  0
ENDBLK
  5
364
  8
0
  0
BLOCK
  8
0
  2
_D_4
 70
     0
 10
0.0
 20
0.0
 30
0.0
  3
_D_4
  1

  0
LINE
  5
371
  8
0
  6
CONTINUOUS
 62
   179
 10
60.064801
 20
249.606415
 30
0.0
 11
-76.618146
 21
249.606415
 31
0.0
  0
LINE
  5
372
  8
0
  6
CONTINUOUS
 62
   179
 10
91.323594
 20
190.106412
 30
0.0
 11
-76.618146
 21
190.106412
 31
0.0
  0
LINE
  5
373
  8
0
  6
CONTINUOUS
 62
   179
 10
-73.018146
 20
277.606415
 30
0.0
 11
-73.018146
 21
305.606415
 31
0.0
  0
LINE
  5
374
  8
0
  6
CONTINUOUS
 62
   179
 10
-73.018146
 20
162.106412
 30
0.0
 11
-73.018146
 21
134.106412
 31
0.0
  0
LINE
  5
375
  8
0
  6
CONTINUOUS
 62
   179
 10
-73.018146
 20
249.606415
 30
0.0
 11
-73.018146
 21
190.106412
 31
0.0
  0
TEXT
  5
376
  8
0
  6
CONTINUOUS
 62
   179
 10
-95.8266138368
 20
220.2950423515
 30
0.0
 40
28.0
  1
59,5
 50
90.0
 41
0.7
 11
-85.935332103
 21
220.2950423515
 31
0.0
 73
     1
  0
SOLID
  5
377
  8
0
  6
CONTINUOUS
 62
   179
 10
-77.684813
 20
277.606415
 30
0.0
 11
-68.351479
 21
277.606415
 31
0.0
 12
-73.018146
 22
249.606415
 32
0.0
 13
-73.018146
 23
249.606415
 33
0.0
  0
SOLID
  5
378
  8
0
  6
CONTINUOUS
 62
   179
 10
-68.351479
 20
162.106412
 30
0.0
 11
-77.684813
 21
162.106412
 31
0.0
 12
-73.018146
 22
190.106412
 32
0.0
 13
-73.018146
 23
190.106412
 33
0.0
  0
ENDBLK
  5
370
  8
0
  0
BLOCK
  8
0
  2
_D_5
 70
     0
 10
0.0
 20
0.0
 30
0.0
  3
_D_5
  1

  0
LINE
  5
37D
  8
0
  6
CONTINUOUS
 62
   179
 10
92.5648
 20
204.40641
 30
0.0
 11
-30.828347
 21
204.40641
 31
0.0
  0
LINE
  5
37E
  8
0
  6
CONTINUOUS
 62
   179
 10
81.564801
 20
234.406412
 30
0.0
 11
-30.828347
 21
234.406412
 31
0.0
  0
LINE
  5
37F
  8
0
  6
CONTINUOUS
 62
   179
 10
-27.228347
 20
176.40641
 30
0.0
 11
-27.228347
 21
148.40641
 31
0.0
  0
LINE
  5
380
  8
0
  6
CONTINUOUS
 62
   179
 10
-27.228347
 20
262.406412
 30
0.0
 11
-27.228347
 21
271.141795
 31
0.0
  0
TEXT
  5
381
  8
0
  6
CONTINUOUS
 62
   179
 10
-50.0368148368
 20
240.7478084594
 30
0.0
 40
28.0
  1
30
 50
90.0
 41
0.7
 11
-40.145533103
 21
240.7478084594
 31
0.0
 73
     1
  0
SOLID
  5
382
  8
0
  6
CONTINUOUS
 62
   179
 10
-22.56168
 20
176.40641
 30
0.0
 11
-31.895013
 21
176.40641
 31
0.0
 12
-27.228347
 22
204.40641
 32
0.0
 13
-27.228347
 23
204.40641
 33
0.0
  0
SOLID
  5
383
  8
0
  6
CONTINUOUS
 62
   179
 10
-31.895013
 20
262.406412
 30
0.0
 11
-22.56168
 21
262.406412
 31
0.0
 12
-27.228347
 22
234.406412
 32
0.0
 13
-27.228347
 23
234.406412
 33
0.0
  0
ENDBLK
  5
37C
  8
0
  0
BLOCK
  8
0
  2
_D_6
 70
     0
 10
0.0
 20
0.0
 30
0.0
  3
_D_6
  1

  0
LINE
  5
388
  8
0
  6
CONTINUOUS
 62
   179
 10
53.064802
 20
238.606415
 30
0.0
 11
53.064802
 21
84.833568
 31
0.0
  0
LINE
  5
389
  8
0
  6
CONTINUOUS
 62
   179
 10
170.064801
 20
238.606415
 30
0.0
 11
170.064801
 21
84.833568
 31
0.0
  0
LINE
  5
38A
  8
0
  6
CONTINUOUS
 62
   179
 10
81.064802
 20
88.433568
 30
0.0
 11
142.064801
 21
88.433568
 31
0.0
  0
TEXT
  5
38B
  8
0
  6
CONTINUOUS
 62
   179
 10
96.156540923
 20
111.2420372337
 30
0.0
 40
28.0
  1
%%c
 41
0.7
 11
96.156540923
 21
101.3507555
 31
0.0
 73
     1
  0
TEXT
  5
38C
  8
0
  6
CONTINUOUS
 62
   179
 10
138.38404011
 20
111.669814647
 30
0.0
 40
28.0
  1
117
 41
0.7
 11
138.38404011
 21
101.7785329133
 31
0.0
 73
     1
  0
SOLID
  5
38D
  8
0
  6
CONTINUOUS
 62
   179
 10
81.064802
 20
93.100235
 30
0.0
 11
81.064802
 21
83.766902
 31
0.0
 12
53.064802
 22
88.433568
 32
0.0
 13
53.064802
 23
88.433568
 33
0.0
  0
SOLID
  5
38E
  8
0
  6
CONTINUOUS
 62
   179
 10
142.064801
 20
83.766902
 30
0.0
 11
142.064801
 21
93.100235
 31
0.0
 12
170.064801
 22
88.433568
 32
0.0
 13
170.064801
 23
88.433568
 33
0.0
  0
ENDBLK
  5
387
  8
0
  0
BLOCK
  8
0
  2
_D_7
 70
     0
 10
0.0
 20
0.0
 30
0.0
  3
_D_7
  1

  0
LINE
  5
393
  8
0
  6
CONTINUOUS
 62
   179
 10
111.564801
 20
189.219375
 30
0.0
 11
111.564801
 21
27.215568
 31
0.0
  0
LINE
  5
394
  8
0
  6
CONTINUOUS
 62
   179
 10
285.064803
 20
203.10641
 30
0.0
 11
285.064803
 21
27.215568
 31
0.0
  0
LINE
  5
395
  8
0
  6
CONTINUOUS
 62
   179
 10
139.564801
 20
30.815568
 30
0.0
 11
257.064803
 21
30.815568
 31
0.0
  0
TEXT
  5
396
  8
0
  6
CONTINUOUS
 62
   179
 10
158.2882675811
 20
53.6240358368
 30
0.0
 40
28.0
  1
173,5
 41
0.7
 11
158.2882675811
 21
43.732754103
 31
0.0
 73
     1
  0
SOLID
  5
397
  8
0
  6
CONTINUOUS
 62
   179
 10
139.564801
 20
35.482235
 30
0.0
 11
139.564801
 21
26.148902
 31
0.0
 12
111.564801
 22
30.815568
 32
0.0
 13
111.564801
 23
30.815568
 33
0.0
  0
SOLID
  5
398
  8
0
  6
CONTINUOUS
 62
   179
 10
257.064803
 20
26.148902
 30
0.0
 11
257.064803
 21
35.482235
 31
0.0
 12
285.064803
 22
30.815568
 32
0.0
 13
285.064803
 23
30.815568
 33
0.0
  0
ENDBLK
  5
392
  8
0
  0
ENDSEC
  0
SECTION
  2
ENTITIES
  0
LINE
  5
1CF
  8
0
  6
CONTINUOUS
 62
   179
 10
201.8648015246
 20
220.1064123267
 30
0.0
 11
352.0179585246
 21
179.8729943267
 31
0.0
  0
LINE
  5
1D0
  8
0
  6
CONTINUOUS
 62
   179
 10
205.864803
 20
242.856413
 30
0.0
 11
205.864803
 21
240.95641
 31
0.0
  0
LINE
  5
1D1
  8
0
  6
CONTINUOUS
 62
   179
 10
205.864803
 20
199.256412
 30
0.0
 11
205.864803
 21
197.356412
 31
0.0
  0
LINE
  5
1D2
  8
0
  6
CONTINUOUS
 62
   179
 10
72.3148
 20
250.906415
 30
0.0
 11
73.564799
 21
250.906415
 31
0.0
  0
LINE
  5
1D3
  8
0
  6
CONTINUOUS
 62
   179
 10
149.564801
 20
250.906415
 30
0.0
 11
150.814801
 21
250.906415
 31
0.0
  0
LINE
  5
1D4
  8
0
  6
CONTINUOUS
 62
   179
 10
194.0648014899
 20
192.6064116749
 30
0.0
 11
201.8648025246
 21
192.6064116749
 31
0.0
  0
LINE
  5
1D5
  8
0
  6
CONTINUOUS
 62
   179
 10
201.8648025246
 20
247.606411776
 30
0.0
 11
194.0648017236
 21
247.606411776
 31
0.0
  0
LINE
  5
1D6
  8
0
  6
CONTINUOUS
 62
   179
 10
221.5648012163
 20
203.10641
 30
0.0
 11
219.261834
 21
202.1524918063
 31
0.0
  0
LINE
  5
1D7
  8
0
  6
CONTINUOUS
 62
   179
 10
285.0648032163
 20
203.10641
 30
0.0
 11
221.5648012163
 21
203.10641
 31
0.0
  0
LINE
  5
1D8
  8
0
  6
CONTINUOUS
 62
   179
 10
285.0648032163
 20
200.910259
 30
0.0
 11
285.0648032163
 21
203.10641
 31
0.0
  0
LINE
  5
1D9
  8
0
  6
CONTINUOUS
 62
   179
 10
285.0648032163
 20
200.910259
 30
0.0
 11
282.0647972163
 21
200.106412
 31
0.0
  0
LINE
  5
1DA
  8
0
  6
CONTINUOUS
 62
   179
 10
220.7393882163
 20
200.106412
 30
0.0
 11
282.0647972163
 21
200.106412
 31
0.0
  0
LINE
  5
1DB
  8
0
  6
CONTINUOUS
 62
   179
 10
194.0648014899
 20
195.2741752034
 30
0.0
 11
194.0648014899
 21
192.6064116749
 31
0.0
  0
LINE
  5
1DC
  8
0
  6
CONTINUOUS
 62
   179
 10
282.0647972163
 20
240.106411
 30
0.0
 11
220.7393882163
 21
240.106411
 31
0.0
  0
LINE
  5
1DD
  8
0
  6
CONTINUOUS
 62
   179
 10
282.0647972163
 20
240.106411
 30
0.0
 11
285.0648032163
 21
239.302568
 31
0.0
  0
LINE
  5
1DE
  8
0
  6
CONTINUOUS
 62
   179
 10
285.0648032163
 20
237.106412
 30
0.0
 11
285.0648032163
 21
239.302568
 31
0.0
  0
LINE
  5
1DF
  8
0
  6
CONTINUOUS
 62
   179
 10
221.564801
 20
237.106412
 30
0.0
 11
285.0648032163
 21
237.106412
 31
0.0
  0
LINE
  5
1E0
  8
0
  6
CONTINUOUS
 62
   179
 10
219.261834
 20
238.060332
 30
0.0
 11
221.564801
 21
237.106412
 31
0.0
  0
LINE
  5
1E1
  8
0
  6
CONTINUOUS
 62
   179
 10
194.0648017236
 20
247.606411776
 30
0.0
 11
194.0648017236
 21
244.9386488125
 31
0.0
  0
LINE
  5
1E2
  8
0
  6
CONTINUOUS
 62
   179
 10
221.564801
 20
237.106412
 30
0.0
 11
221.5648012163
 21
203.10641
 31
0.0
  0
LINE
  5
1E3
  8
0
  6
CONTINUOUS
 62
   179
 10
219.261834
 20
238.060332
 30
0.0
 11
219.261834
 21
202.1524918063
 31
0.0
  0
LINE
  5
1E4
  8
0
  6
CONTINUOUS
 62
   179
 10
285.0648032163
 20
237.106412
 30
0.0
 11
285.0648032163
 21
203.10641
 31
0.0
  0
LINE
  5
1E5
  8
0
  6
CONTINUOUS
 62
   179
 10
194.0648014899
 20
195.2741752034
 30
0.0
 11
194.0648014899
 21
196.3543592034
 31
0.0
  0
LINE
  5
1E6
  8
0
  6
CONTINUOUS
 62
   179
 10
209.8648025811
 20
198.8564124114
 30
0.0
 11
209.8648025811
 21
197.1281604114
 31
0.0
  0
LINE
  5
1E7
  8
0
  6
CONTINUOUS
 62
   179
 10
206.1648010811
 20
199.3564109114
 30
0.0
 11
209.3648010811
 21
199.3564129114
 31
0.0
  0
LINE
  5
1E8
  8
0
  6
CONTINUOUS
 62
   179
 10
205.6648010811
 20
195.8296739114
 30
0.0
 11
205.6648020811
 21
198.8564119114
 31
0.0
  0
LINE
  5
1E9
  8
0
  6
CONTINUOUS
 62
   179
 10
189.5647994849
 20
196.1064113713
 30
0.0
 11
189.5648013885
 21
198.3415323433
 31
0.0
  0
LINE
  5
1EA
  8
0
  6
CONTINUOUS
 62
   179
 10
186.5648005664
 20
196.1064113713
 30
0.0
 11
189.5647994849
 21
196.1064113713
 31
0.0
  0
LINE
  5
1EB
  8
0
  6
CONTINUOUS
 62
   179
 10
186.5648005664
 20
198.6064123713
 30
0.0
 11
162.3681705664
 21
198.6064123713
 31
0.0
  0
LINE
  5
1EC
  8
0
  6
CONTINUOUS
 62
   179
 10
145.3148015664
 20
200.8515293713
 30
0.0
 11
162.3681705664
 21
198.6064123713
 31
0.0
  0
LINE
  5
1ED
  8
0
  6
CONTINUOUS
 62
   179
 10
132.0988780653
 20
190.1064117578
 30
0.0
 11
91.3148020653
 21
190.1064117578
 31
0.0
  0
LINE
  5
1EE
  8
0
  6
CONTINUOUS
 62
   179
 10
77.8148013273
 20
203.6064106883
 30
0.0
 11
77.8148003273
 21
209.7380736883
 31
0.0
  0
LINE
  5
1EF
  8
0
  6
CONTINUOUS
 62
   179
 10
64.5205913273
 20
211.4882896883
 30
0.0
 11
77.8148003273
 21
209.7380736883
 31
0.0
  0
LINE
  5
1F0
  8
0
  6
CONTINUOUS
 62
   179
 10
57.564801
 20
219.419849
 30
0.0
 11
57.564804
 21
239.740386
 31
0.0
  0
LINE
  5
1F1
  8
0
  6
CONTINUOUS
 62
   179
 10
57.564804
 20
239.740386
 30
0.0
 11
59.064799
 21
240.606412
 31
0.0
  0
LINE
  5
1F2
  8
0
  6
CONTINUOUS
 62
   179
 10
59.064799
 20
240.606412
 30
0.0
 11
59.117877
 21
240.606412
 31
0.0
  0
LINE
  5
1F3
  8
0
  6
CONTINUOUS
 62
   179
 10
59.117877
 20
240.606412
 30
0.0
 11
60.564802
 21
235.20641
 31
0.0
  0
LINE
  5
1F4
  8
0
  6
CONTINUOUS
 62
   179
 10
60.564802
 20
235.20641
 30
0.0
 11
60.564802
 21
219.419848
 31
0.0
  0
LINE
  5
1F5
  8
0
  6
CONTINUOUS
 62
   179
 10
80.8148025653
 20
212.3690024957
 30
0.0
 11
64.9121706042
 21
214.4626251889
 31
0.0
  0
LINE
  5
1F6
  8
0
  6
CONTINUOUS
 62
   179
 10
80.8148025653
 20
212.3690024957
 30
0.0
 11
80.8148025653
 21
203.6064114957
 31
0.0
  0
LINE
  5
1F7
  8
0
  6
CONTINUOUS
 62
   179
 10
91.3148020653
 20
193.1064129957
 30
0.0
 11
131.8148010653
 21
193.1064129957
 31
0.0
  0
LINE
  5
1F8
  8
0
  6
CONTINUOUS
 62
   179
 10
142.314801
 20
203.606412
 30
0.0
 11
142.314801
 21
204.272374
 31
0.0
  0
LINE
  5
1F9
  8
0
  6
CONTINUOUS
 62
   179
 10
162.5648
 20
201.606411
 30
0.0
 11
142.314801
 21
204.272374
 31
0.0
  0
LINE
  5
1FA
  8
0
  6
CONTINUOUS
 62
   179
 10
209.364803
 20
201.606411
 30
0.0
 11
162.5648
 21
201.606411
 31
0.0
  0
LINE
  5
1FB
  8
0
  6
CONTINUOUS
 62
   179
 10
209.364803
 20
201.606411
 30
0.0
 11
214.364798
 21
200.266666
 31
0.0
  0
LINE
  5
1FC
  8
0
  6
CONTINUOUS
 62
   179
 10
214.364798
 20
198.746401
 30
0.0
 11
214.364798
 21
200.266666
 31
0.0
  0
LINE
  5
1FD
  8
0
  6
CONTINUOUS
 62
   179
 10
186.5648005664
 20
198.6064123713
 30
0.0
 11
186.5648005664
 21
196.1064113713
 31
0.0
  0
LINE
  5
1FE
  8
0
  6
CONTINUOUS
 62
   179
 10
183.0648010082
 20
241.6064140141
 30
0.0
 11
186.5648003832
 21
241.6064140141
 31
0.0
  0
LINE
  5
1FF
  8
0
  6
CONTINUOUS
 62
   179
 10
214.364798
 20
239.946156
 30
0.0
 11
214.364801
 21
241.466421
 31
0.0
  0
LINE
  5
200
  8
0
  6
CONTINUOUS
 62
   179
 10
214.364798
 20
239.946156
 30
0.0
 11
209.364803
 21
238.606415
 31
0.0
  0
LINE
  5
201
  8
0
  6
CONTINUOUS
 62
   179
 10
185.064801
 20
238.606415
 30
0.0
 11
209.364803
 21
238.606415
 31
0.0
  0
LINE
  5
202
  8
0
  6
CONTINUOUS
 62
   179
 10
185.064801
 20
238.606415
 30
0.0
 11
181.564802
 21
235.106408
 31
0.0
  0
LINE
  5
203
  8
0
  6
CONTINUOUS
 62
   179
 10
162.5648
 20
235.106408
 30
0.0
 11
181.564802
 21
235.106408
 31
0.0
  0
LINE
  5
204
  8
0
  6
CONTINUOUS
 62
   179
 10
162.5648
 20
235.106408
 30
0.0
 11
162.5648
 21
235.20641
 31
0.0
  0
LINE
  5
205
  8
0
  6
CONTINUOUS
 62
   179
 10
162.5648
 20
235.20641
 30
0.0
 11
164.011725
 21
240.606412
 31
0.0
  0
LINE
  5
206
  8
0
  6
CONTINUOUS
 62
   179
 10
164.011725
 20
240.606412
 30
0.0
 11
164.0648
 21
240.606412
 31
0.0
  0
LINE
  5
207
  8
0
  6
CONTINUOUS
 62
   179
 10
164.0648
 20
240.606412
 30
0.0
 11
165.5648010082
 21
239.7403860141
 31
0.0
  0
LINE
  5
208
  8
0
  6
CONTINUOUS
 62
   179
 10
165.5648010082
 20
239.7403860141
 30
0.0
 11
165.5648010082
 21
238.1064140141
 31
0.0
  0
LINE
  5
209
  8
0
  6
CONTINUOUS
 62
   179
 10
165.5648010082
 20
238.1064140141
 30
0.0
 11
179.5648010082
 21
238.1064140141
 31
0.0
  0
LINE
  5
20A
  8
0
  6
CONTINUOUS
 62
   179
 10
183.0648010082
 20
241.6064140141
 30
0.0
 11
179.5648010082
 21
238.1064140141
 31
0.0
  0
LINE
  5
20B
  8
0
  6
CONTINUOUS
 62
   179
 10
194.0648014442
 20
243.8584645718
 30
0.0
 11
194.0648014442
 21
247.5182713254
 31
0.0
  0
LINE
  5
20C
  8
0
  6
CONTINUOUS
 62
   179
 10
205.6648009604
 20
241.356410482
 30
0.0
 11
205.6648019604
 21
244.383149482
 31
0.0
  0
LINE
  5
20D
  8
0
  6
CONTINUOUS
 62
   179
 10
209.3648034604
 20
240.856408982
 30
0.0
 11
206.1648014604
 21
240.856411982
 31
0.0
  0
LINE
  5
20E
  8
0
  6
CONTINUOUS
 62
   179
 10
209.8648029604
 20
243.084660482
 30
0.0
 11
209.8648029604
 21
241.356410482
 31
0.0
  0
LINE
  5
20F
  8
0
  6
CONTINUOUS
 62
   179
 10
186.5648013434
 20
244.151370415
 30
0.0
 11
186.5648003832
 21
241.6064140141
 31
0.0
  0
LINE
  5
210
  8
0
  6
CONTINUOUS
 62
   179
 10
209.364803
 20
201.606411
 30
0.0
 11
209.364803
 21
238.606415
 31
0.0
  0
LINE
  5
211
  8
0
  6
CONTINUOUS
 62
   179
 10
214.364798
 20
239.946156
 30
0.0
 11
214.364798
 21
200.266666
 31
0.0
  0
LINE
  5
212
  8
0
  6
CONTINUOUS
 62
   179
 10
162.5648
 20
235.20641
 30
0.0
 11
162.541595
 21
235.20641
 31
0.0
  0
LINE
  5
213
  8
0
  6
CONTINUOUS
 62
   179
 10
60.588003
 20
235.20641
 30
0.0
 11
60.564802
 21
235.20641
 31
0.0
  0
LINE
  5
214
  8
0
  6
CONTINUOUS
 62
   179
 10
59.117877
 20
240.606412
 30
0.0
 11
59.141078
 21
240.606412
 31
0.0
  0
LINE
  5
215
  8
0
  6
CONTINUOUS
 62
   179
 10
163.988521
 20
240.606412
 30
0.0
 11
164.011725
 21
240.606412
 31
0.0
  0
LINE
  5
216
  8
0
  6
CONTINUOUS
 62
   179
 10
162.514801
 20
235.106408
 30
0.0
 11
162.5648
 21
235.106408
 31
0.0
  0
LINE
  5
217
  8
0
  6
CONTINUOUS
 62
   179
 10
77.9648
 20
254.606411
 30
0.0
 11
77.9648
 21
247.606412
 31
0.0
  0
LINE
  5
218
  8
0
  6
CONTINUOUS
 62
   179
 10
68.964803
 20
255.606412
 30
0.0
 11
76.964801
 21
255.606412
 31
0.0
  0
LINE
  5
219
  8
0
  6
CONTINUOUS
 62
   179
 10
60.4611221543
 20
254.877980334
 30
0.0
 11
56.685747
 21
262.606412
 31
0.0
  0
LINE
  5
21A
  8
0
  6
CONTINUOUS
 62
   179
 10
56.05906
 20
262.606412
 30
0.0
 11
56.685747
 21
262.606412
 31
0.0
  0
LINE
  5
21B
  8
0
  6
CONTINUOUS
 62
   179
 10
166.4438517916
 20
262.6064169042
 30
0.0
 11
167.0705427916
 21
262.6064169042
 31
0.0
  0
LINE
  5
21C
  8
0
  6
CONTINUOUS
 62
   179
 10
166.4438517916
 20
262.6064169042
 30
0.0
 11
162.6684807916
 21
254.8779819042
 31
0.0
  0
LINE
  5
21D
  8
0
  6
CONTINUOUS
 62
   179
 10
146.1648015
 20
255.6064135
 30
0.0
 11
154.1648025
 21
255.6064135
 31
0.0
  0
LINE
  5
21E
  8
0
  6
CONTINUOUS
 62
   179
 10
145.1648025
 20
247.6064125
 30
0.0
 11
145.1648025
 21
254.6064135
 31
0.0
  0
LINE
  5
21F
  8
0
  6
CONTINUOUS
 62
   179
 10
138.4646205
 20
246.6064105
 30
0.0
 11
144.1648025
 21
246.6064135
 31
0.0
  0
LINE
  5
220
  8
0
  6
CONTINUOUS
 62
   179
 10
137.0648025
 20
262.6064135
 30
0.0
 11
138.4646205
 21
246.6064105
 31
0.0
  0
LINE
  5
221
  8
0
  6
CONTINUOUS
 62
   179
 10
86.0648035
 20
262.6064135
 30
0.0
 11
137.0648025
 21
262.6064135
 31
0.0
  0
LINE
  5
222
  8
0
  6
CONTINUOUS
 62
   179
 10
84.6649845
 20
246.6064105
 30
0.0
 11
86.0648035
 21
262.6064135
 31
0.0
  0
LINE
  5
223
  8
0
  6
CONTINUOUS
 62
   179
 10
78.9648025
 20
246.6064105
 30
0.0
 11
84.6649845
 21
246.6064105
 31
0.0
  0
LINE
  5
224
  8
0
  6
CONTINUOUS
 62
   179
 10
91.907361
 20
246.606409
 30
0.0
 11
92.5021
 21
262.606412
 31
0.0
  0
LINE
  5
225
  8
0
  6
CONTINUOUS
 62
   179
 10
87.876723
 20
246.606409
 30
0.0
 11
91.907361
 21
246.606409
 31
0.0
  0
LINE
  5
226
  8
0
  6
CONTINUOUS
 62
   179
 10
91.907361
 20
246.606409
 30
0.0
 11
93.180151
 21
246.606409
 31
0.0
  0
LINE
  5
227
  8
0
  6
CONTINUOUS
 62
   179
 10
93.180151
 20
246.606409
 30
0.0
 11
94.565057
 21
262.606412
 31
0.0
  0
LINE
  5
228
  8
0
  6
CONTINUOUS
 62
   179
 10
129.949449
 20
246.606409
 30
0.0
 11
131.222241
 21
246.606409
 31
0.0
  0
LINE
  5
229
  8
0
  6
CONTINUOUS
 62
   179
 10
129.949449
 20
246.606409
 30
0.0
 11
128.564544
 21
262.606412
 31
0.0
  0
LINE
  5
22A
  8
0
  6
CONTINUOUS
 62
   179
 10
131.222241
 20
246.606409
 30
0.0
 11
130.627503
 21
262.606412
 31
0.0
  0
LINE
  5
22B
  8
0
  6
CONTINUOUS
 62
   179
 10
135.252878
 20
246.606409
 30
0.0
 11
131.222241
 21
246.606409
 31
0.0
  0
LINE
  5
22C
  8
0
  6
CONTINUOUS
 62
   179
 10
110.664801
 20
246.606409
 30
0.0
 11
112.4648
 21
246.606409
 31
0.0
  0
LINE
  5
22D
  8
0
  6
CONTINUOUS
 62
   179
 10
112.4648
 20
246.606409
 30
0.0
 11
113.023534
 21
262.606412
 31
0.0
  0
LINE
  5
22E
  8
0
  6
CONTINUOUS
 62
   179
 10
110.664801
 20
246.606409
 30
0.0
 11
110.106069
 21
262.606412
 31
0.0
  0
LINE
  5
22F
  8
0
  6
CONTINUOUS
 62
   179
 10
166.5667253927
 20
253.106407
 30
0.0
 11
166.5667253927
 21
254.0498959131
 31
0.0
  0
LINE
  5
230
  8
0
  6
CONTINUOUS
 62
   179
 10
56.562879
 20
257.5499
 30
0.0
 11
56.562879
 21
256.60641
 31
0.0
  0
LINE
  5
231
  8
0
  6
CONTINUOUS
 62
   179
 10
154.5648015294
 20
227.106411
 30
0.0
 11
154.5648015294
 21
253.106407
 31
0.0
  0
LINE
  5
232
  8
0
  6
CONTINUOUS
 62
   179
 10
68.564804
 20
256.60641
 30
0.0
 11
68.564804
 21
230.606414
 31
0.0
  0
LINE
  5
233
  8
0
  6
CONTINUOUS
 62
   179
 10
70.064799
 20
229.106414
 30
0.0
 11
68.564804
 21
230.606414
 31
0.0
  0
LINE
  5
234
  8
0
  6
CONTINUOUS
 62
   179
 10
154.5648015294
 20
227.106411
 30
0.0
 11
153.0648015294
 21
225.606411
 31
0.0
  0
LINE
  5
235
  8
0
  6
CONTINUOUS
 62
   179
 10
151.5648015294
 20
254.606412
 30
0.0
 11
151.5648005294
 21
247.406415
 31
0.0
  0
LINE
  5
236
  8
0
  6
CONTINUOUS
 62
   179
 10
71.5648019553
 20
250.9064183557
 30
0.0
 11
71.5648009553
 21
258.1064153557
 31
0.0
  0
LINE
  5
237
  8
0
  6
CONTINUOUS
 62
   179
 10
74.06479825
 20
229.106414
 30
0.0
 11
81.06479725
 21
229.106414
 31
0.0
  0
LINE
  5
238
  8
0
  6
CONTINUOUS
 62
   179
 10
142.0648015294
 20
225.606411
 30
0.0
 11
149.0648015294
 21
225.606411
 31
0.0
  0
LINE
  5
239
  8
0
  6
CONTINUOUS
 62
   179
 10
74.06479825
 20
250.9064183557
 30
0.0
 11
71.5648019553
 21
250.9064183557
 31
0.0
  0
LINE
  5
23A
  8
0
  6
CONTINUOUS
 62
   179
 10
74.06479825
 20
250.9064183557
 30
0.0
 11
74.06479825
 21
229.106414
 31
0.0
  0
LINE
  5
23B
  8
0
  6
CONTINUOUS
 62
   179
 10
70.064799
 20
229.106414
 30
0.0
 11
74.06479825
 21
229.106414
 31
0.0
  0
LINE
  5
23C
  8
0
  6
CONTINUOUS
 62
   179
 10
70.5648009553
 20
259.1064153557
 30
0.0
 11
68.9414409553
 21
259.1064153557
 31
0.0
  0
LINE
  5
23D
  8
0
  6
CONTINUOUS
 62
   179
 10
56.562879
 20
256.60641
 30
0.0
 11
68.564804
 21
256.60641
 31
0.0
  0
LINE
  5
23E
  8
0
  6
CONTINUOUS
 62
   179
 10
149.0648015294
 20
225.606411
 30
0.0
 11
149.0648015294
 21
247.406415
 31
0.0
  0
LINE
  5
23F
  8
0
  6
CONTINUOUS
 62
   179
 10
151.5648005294
 20
247.406415
 30
0.0
 11
149.0648015294
 21
247.406415
 31
0.0
  0
LINE
  5
240
  8
0
  6
CONTINUOUS
 62
   179
 10
149.0648015294
 20
225.606411
 30
0.0
 11
153.0648015294
 21
225.606411
 31
0.0
  0
LINE
  5
241
  8
0
  6
CONTINUOUS
 62
   179
 10
154.1881605294
 20
255.606412
 30
0.0
 11
152.5648015294
 21
255.606412
 31
0.0
  0
LINE
  5
242
  8
0
  6
CONTINUOUS
 62
   179
 10
154.5648015294
 20
253.106407
 30
0.0
 11
166.5667253927
 21
253.106407
 31
0.0
  0
LINE
  5
243
  8
0
  6
CONTINUOUS
 62
   179
 10
55.5648
 20
243.106409
 30
0.0
 11
55.5648
 21
254.106409
 31
0.0
  0
LINE
  5
244
  8
0
  6
CONTINUOUS
 62
   179
 10
167.564801
 20
254.106409
 30
0.0
 11
167.564801
 21
243.1064092061
 31
0.0
  0
LINE
  5
245
  8
0
  6
CONTINUOUS
 62
   179
 10
167.564801
 20
254.106409
 30
0.0
 11
166.343405
 21
254.106409
 31
0.0
  0
LINE
  5
246
  8
0
  6
CONTINUOUS
 62
   179
 10
56.786196
 20
254.106409
 30
0.0
 11
55.5648
 21
254.106409
 31
0.0
  0
LINE
  5
247
  8
0
  6
CONTINUOUS
 62
   179
 10
55.5648
 20
254.106409
 30
0.0
 11
60.064801
 21
249.606415
 31
0.0
  0
LINE
  5
248
  8
0
  6
CONTINUOUS
 62
   179
 10
163.064801
 20
249.606415
 30
0.0
 11
167.564801
 21
254.106409
 31
0.0
  0
LINE
  5
249
  8
0
  6
CONTINUOUS
 62
   179
 10
57.564804
 20
247.10641
 30
0.0
 11
57.564804
 21
243.106409
 31
0.0
  0
LINE
  5
24A
  8
0
  6
CONTINUOUS
 62
   179
 10
165.564801199
 20
243.1064092061
 30
0.0
 11
165.564801199
 21
247.1064102061
 31
0.0
  0
LINE
  5
24B
  8
0
  6
CONTINUOUS
 62
   179
 10
161.451553
 20
250.60641
 30
0.0
 11
162.028902
 21
249.606415
 31
0.0
  0
LINE
  5
24C
  8
0
  6
CONTINUOUS
 62
   179
 10
161.451553
 20
250.60641
 30
0.0
 11
160.296851
 21
250.60641
 31
0.0
  0
LINE
  5
24D
  8
0
  6
CONTINUOUS
 62
   179
 10
62.832751
 20
250.60641
 30
0.0
 11
61.678046
 21
250.60641
 31
0.0
  0
LINE
  5
24E
  8
0
  6
CONTINUOUS
 62
   179
 10
61.1007
 20
249.606415
 30
0.0
 11
61.678046
 21
250.60641
 31
0.0
  0
LINE
  5
24F
  8
0
  6
CONTINUOUS
 62
   179
 10
61.678046
 20
250.60641
 30
0.0
 11
62.255399
 21
249.606415
 31
0.0
  0
LINE
  5
250
  8
0
  6
CONTINUOUS
 62
   179
 10
160.874202
 20
249.606415
 30
0.0
 11
161.451553
 21
250.60641
 31
0.0
  0
LINE
  5
251
  8
0
  6
CONTINUOUS
 62
   179
 10
62.064798
 20
245.606414
 30
0.0
 11
62.064798
 21
247.10641
 31
0.0
  0
LINE
  5
252
  8
0
  6
CONTINUOUS
 62
   179
 10
161.064801199
 20
247.1064102061
 30
0.0
 11
161.064801199
 21
245.606414
 31
0.0
  0
LINE
  5
253
  8
0
  6
CONTINUOUS
 62
   179
 10
160.296851
 20
250.60641
 30
0.0
 11
160.874202
 21
249.606415
 31
0.0
  0
LINE
  5
254
  8
0
  6
CONTINUOUS
 62
   179
 10
160.296851
 20
250.60641
 30
0.0
 11
159.142151
 21
250.60641
 31
0.0
  0
LINE
  5
255
  8
0
  6
CONTINUOUS
 62
   179
 10
63.98745
 20
250.60641
 30
0.0
 11
62.832751
 21
250.60641
 31
0.0
  0
LINE
  5
256
  8
0
  6
CONTINUOUS
 62
   179
 10
62.255399
 20
249.606415
 30
0.0
 11
62.832751
 21
250.60641
 31
0.0
  0
LINE
  5
257
  8
0
  6
CONTINUOUS
 62
   179
 10
62.832751
 20
250.60641
 30
0.0
 11
63.410097
 21
249.606415
 31
0.0
  0
LINE
  5
258
  8
0
  6
CONTINUOUS
 62
   179
 10
159.719502
 20
249.606415
 30
0.0
 11
160.296851
 21
250.60641
 31
0.0
  0
LINE
  5
259
  8
0
  6
CONTINUOUS
 62
   179
 10
159.142151
 20
250.60641
 30
0.0
 11
159.719502
 21
249.606415
 31
0.0
  0
LINE
  5
25A
  8
0
  6
CONTINUOUS
 62
   179
 10
159.142151
 20
250.60641
 30
0.0
 11
154.564801
 21
250.60641
 31
0.0
  0
LINE
  5
25B
  8
0
  6
CONTINUOUS
 62
   179
 10
68.564804
 20
250.60641
 30
0.0
 11
63.98745
 21
250.60641
 31
0.0
  0
LINE
  5
25C
  8
0
  6
CONTINUOUS
 62
   179
 10
63.410097
 20
249.606415
 30
0.0
 11
63.98745
 21
250.60641
 31
0.0
  0
LINE
  5
25D
  8
0
  6
CONTINUOUS
 62
   179
 10
63.98745
 20
250.60641
 30
0.0
 11
64.564803
 21
249.606415
 31
0.0
  0
LINE
  5
25E
  8
0
  6
CONTINUOUS
 62
   179
 10
158.5648
 20
249.606415
 30
0.0
 11
159.142151
 21
250.60641
 31
0.0
  0
LINE
  5
25F
  8
0
  6
CONTINUOUS
 62
   179
 10
158.5648
 20
249.606415
 30
0.0
 11
154.564801
 21
249.606415
 31
0.0
  0
LINE
  5
260
  8
0
  6
CONTINUOUS
 62
   179
 10
68.564804
 20
249.606415
 30
0.0
 11
64.564803
 21
249.606415
 31
0.0
  0
LINE
  5
261
  8
0
  6
CONTINUOUS
 62
   179
 10
64.564803
 20
249.606415
 30
0.0
 11
64.564803
 21
245.606414
 31
0.0
  0
LINE
  5
262
  8
0
  6
CONTINUOUS
 62
   179
 10
158.5648
 20
245.606414
 30
0.0
 11
158.5648
 21
249.606415
 31
0.0
  0
LINE
  5
263
  8
0
  6
CONTINUOUS
 62
   179
 10
158.5648
 20
245.606414
 30
0.0
 11
154.564801
 21
245.606414
 31
0.0
  0
LINE
  5
264
  8
0
  6
CONTINUOUS
 62
   179
 10
68.564804
 20
245.606414
 30
0.0
 11
64.564803
 21
245.606414
 31
0.0
  0
LINE
  5
265
  8
0
  6
CONTINUOUS
 62
   179
 10
64.564803
 20
245.606414
 30
0.0
 11
62.064798
 21
245.606414
 31
0.0
  0
LINE
  5
266
  8
0
  6
CONTINUOUS
 62
   179
 10
60.064801
 20
249.606415
 30
0.0
 11
61.1007
 21
249.606415
 31
0.0
  0
LINE
  5
267
  8
0
  6
CONTINUOUS
 62
   179
 10
62.064798
 20
247.10641
 30
0.0
 11
57.564804
 21
247.10641
 31
0.0
  0
LINE
  5
268
  8
0
  6
CONTINUOUS
 62
   179
 10
57.564804
 20
243.106409
 30
0.0
 11
55.5648
 21
243.106409
 31
0.0
  0
LINE
  5
269
  8
0
  6
CONTINUOUS
 62
   179
 10
161.064801199
 20
245.606414
 30
0.0
 11
158.5648
 21
245.606414
 31
0.0
  0
LINE
  5
26A
  8
0
  6
CONTINUOUS
 62
   179
 10
162.028902
 20
249.606415
 30
0.0
 11
163.064801
 21
249.606415
 31
0.0
  0
LINE
  5
26B
  8
0
  6
CONTINUOUS
 62
   179
 10
165.564801199
 20
247.1064102061
 30
0.0
 11
161.064801199
 21
247.1064102061
 31
0.0
  0
LINE
  5
26C
  8
0
  6
CONTINUOUS
 62
   179
 10
167.564801
 20
243.1064092061
 30
0.0
 11
165.564801199
 21
243.1064092061
 31
0.0
  0
LINE
  5
26D
  8
0
  6
CONTINUOUS
 62
   179
 10
71.8148
 20
253.406412
 30
0.0
 11
71.8148
 21
255.406409
 31
0.0
  0
LINE
  5
26E
  8
0
  6
CONTINUOUS
 62
   179
 10
151.314802
 20
255.406409
 30
0.0
 11
151.314802
 21
253.406412
 31
0.0
  0
LINE
  5
26F
  8
0
  6
CONTINUOUS
 62
   179
 10
72.064804
 20
248.906411
 30
0.0
 11
72.064804
 21
250.60641
 31
0.0
  0
LINE
  5
270
  8
0
  6
CONTINUOUS
 62
   179
 10
151.064801
 20
250.60641
 30
0.0
 11
151.064801
 21
248.906411
 31
0.0
  0
LINE
  5
271
  8
0
  6
CONTINUOUS
 62
   179
 10
73.5648
 20
250.60641
 30
0.0
 11
73.5648
 21
253.406412
 31
0.0
  0
LINE
  5
272
  8
0
  6
CONTINUOUS
 62
   179
 10
149.564802
 20
253.406412
 30
0.0
 11
149.564802
 21
250.60641
 31
0.0
  0
LINE
  5
273
  8
0
  6
CONTINUOUS
 62
   179
 10
76.0648
 20
245.406411
 30
0.0
 11
76.0648
 21
248.906411
 31
0.0
  0
LINE
  5
274
  8
0
  6
CONTINUOUS
 62
   179
 10
147.064802
 20
248.906411
 30
0.0
 11
147.064802
 21
245.406411
 31
0.0
  0
LINE
  5
275
  8
0
  6
CONTINUOUS
 62
   179
 10
147.064802
 20
255.406412
 30
0.0
 11
145.564801
 21
255.406409
 31
0.0
  0
LINE
  5
276
  8
0
  6
CONTINUOUS
 62
   179
 10
77.5648
 20
255.406409
 30
0.0
 11
76.064802
 21
255.406412
 31
0.0
  0
LINE
  5
277
  8
0
  6
CONTINUOUS
 62
   179
 10
78.064802
 20
253.406412
 30
0.0
 11
78.064802
 21
247.406412
 31
0.0
  0
LINE
  5
278
  8
0
  6
CONTINUOUS
 62
   179
 10
145.064802
 20
247.406412
 30
0.0
 11
145.064802
 21
253.406412
 31
0.0
  0
LINE
  5
279
  8
0
  6
CONTINUOUS
 62
   179
 10
141.564802
 20
246.406412
 30
0.0
 11
81.564802
 21
246.406412
 31
0.0
  0
LINE
  5
27A
  8
0
  6
CONTINUOUS
 62
   179
 10
92.5648
 20
204.40641
 30
0.0
 11
92.564801
 21
234.406412
 31
0.0
  0
LINE
  5
27B
  8
0
  6
CONTINUOUS
 62
   179
 10
130.564802
 20
234.406412
 30
0.0
 11
130.564802
 21
204.40641
 31
0.0
  0
LINE
  5
27C
  8
0
  6
CONTINUOUS
 62
   179
 10
93.564801
 20
234.406412
 30
0.0
 11
93.564802
 21
204.40641
 31
0.0
  0
LINE
  5
27D
  8
0
  6
CONTINUOUS
 62
   179
 10
129.564801
 20
204.40641
 30
0.0
 11
129.564802
 21
234.406412
 31
0.0
  0
LINE
  5
27E
  8
0
  6
CONTINUOUS
 62
   179
 10
129.564801
 20
204.40641
 30
0.0
 11
93.564802
 21
204.40641
 31
0.0
  0
LINE
  5
27F
  8
0
  6
CONTINUOUS
 62
   179
 10
93.564802
 20
204.40641
 30
0.0
 11
92.5648
 21
204.40641
 31
0.0
  0
LINE
  5
280
  8
0
  6
CONTINUOUS
 62
   179
 10
79.064802
 20
246.406412
 30
0.0
 11
81.564802
 21
246.406412
 31
0.0
  0
LINE
  5
281
  8
0
  6
CONTINUOUS
 62
   179
 10
81.564801
 20
245.406412
 30
0.0
 11
76.0648
 21
245.406411
 31
0.0
  0
LINE
  5
282
  8
0
  6
CONTINUOUS
 62
   179
 10
72.064804
 20
250.60641
 30
0.0
 11
73.5648
 21
250.60641
 31
0.0
  0
LINE
  5
283
  8
0
  6
CONTINUOUS
 62
   179
 10
76.0648
 20
248.906411
 30
0.0
 11
72.064804
 21
248.906411
 31
0.0
  0
LINE
  5
284
  8
0
  6
CONTINUOUS
 62
   179
 10
73.5648
 20
253.406412
 30
0.0
 11
71.8148
 21
253.406412
 31
0.0
  0
LINE
  5
285
  8
0
  6
CONTINUOUS
 62
   179
 10
71.8148
 20
255.406409
 30
0.0
 11
76.064802
 21
255.406412
 31
0.0
  0
LINE
  5
286
  8
0
  6
CONTINUOUS
 62
   179
 10
130.564802
 20
204.40641
 30
0.0
 11
129.564801
 21
204.40641
 31
0.0
  0
LINE
  5
287
  8
0
  6
CONTINUOUS
 62
   179
 10
141.564802
 20
246.406412
 30
0.0
 11
144.064802
 21
246.406412
 31
0.0
  0
LINE
  5
288
  8
0
  6
CONTINUOUS
 62
   179
 10
147.064802
 20
245.406411
 30
0.0
 11
141.564802
 21
245.406412
 31
0.0
  0
LINE
  5
289
  8
0
  6
CONTINUOUS
 62
   179
 10
149.564802
 20
250.60641
 30
0.0
 11
151.064801
 21
250.60641
 31
0.0
  0
LINE
  5
28A
  8
0
  6
CONTINUOUS
 62
   179
 10
151.064801
 20
248.906411
 30
0.0
 11
147.064802
 21
248.906411
 31
0.0
  0
LINE
  5
28B
  8
0
  6
CONTINUOUS
 62
   179
 10
151.314802
 20
253.406412
 30
0.0
 11
149.564802
 21
253.406412
 31
0.0
  0
LINE
  5
28C
  8
0
  6
CONTINUOUS
 62
   179
 10
147.064802
 20
255.406412
 30
0.0
 11
151.314802
 21
255.406409
 31
0.0
  0
LINE
  5
28D
  8
0
  6
CONTINUOUS
 62
   179
 10
74.241271589
 20
244.7005296456
 30
0.0
 11
81.064799
 21
231.906414
 31
0.0
  0
LINE
  5
28E
  8
0
  6
CONTINUOUS
 62
   179
 10
91.0648015
 20
193.4064115
 30
0.0
 11
132.0648005
 21
193.4064115
 31
0.0
  0
LINE
  5
28F
  8
0
  6
CONTINUOUS
 62
   179
 10
81.064799
 20
231.906414
 30
0.0
 11
81.064801
 21
203.406412
 31
0.0
  0
LINE
  5
290
  8
0
  6
CONTINUOUS
 62
   179
 10
74.06479825
 20
250.9064183557
 30
0.0
 11
74.064801
 21
245.406412
 31
0.0
  0
LINE
  5
291
  8
0
  6
CONTINUOUS
 62
   179
 10
71.81479725
 20
250.9064183557
 30
0.0
 11
74.06479825
 21
250.9064183557
 31
0.0
  0
LINE
  5
292
  8
0
  6
CONTINUOUS
 62
   179
 10
71.81479725
 20
252.4064143557
 30
0.0
 11
71.81479725
 21
250.9064183557
 31
0.0
  0
LINE
  5
293
  8
0
  6
CONTINUOUS
 62
   179
 10
75.564797
 20
252.4064143557
 30
0.0
 11
71.81479725
 21
252.4064143557
 31
0.0
  0
LINE
  5
294
  8
0
  6
CONTINUOUS
 62
   179
 10
75.564801
 20
245.406412
 30
0.0
 11
75.564797
 21
252.4064143557
 31
0.0
  0
LINE
  5
295
  8
0
  6
CONTINUOUS
 62
   179
 10
81.690365
 20
233.920983
 30
0.0
 11
75.564801
 21
245.406412
 31
0.0
  0
LINE
  5
296
  8
0
  6
CONTINUOUS
 62
   179
 10
81.690365
 20
233.920983
 30
0.0
 11
82.564802
 21
232.406415
 31
0.0
  0
LINE
  5
297
  8
0
  6
CONTINUOUS
 62
   179
 10
82.564802
 20
203.406412
 30
0.0
 11
82.564802
 21
232.406415
 31
0.0
  0
LINE
  5
298
  8
0
  6
CONTINUOUS
 62
   179
 10
132.0648005
 20
194.9064115
 30
0.0
 11
91.0648015
 21
194.9064125
 31
0.0
  0
LINE
  5
299
  8
0
  6
CONTINUOUS
 62
   179
 10
140.564802
 20
232.406415
 30
0.0
 11
140.564802
 21
203.406412
 31
0.0
  0
LINE
  5
29A
  8
0
  6
CONTINUOUS
 62
   179
 10
140.564802
 20
232.406415
 30
0.0
 11
141.439238
 21
233.920983
 31
0.0
  0
LINE
  5
29B
  8
0
  6
CONTINUOUS
 62
   179
 10
147.564802
 20
245.406411
 30
0.0
 11
141.439238
 21
233.920983
 31
0.0
  0
LINE
  5
29C
  8
0
  6
CONTINUOUS
 62
   179
 10
147.564802
 20
248.906411
 30
0.0
 11
147.564802
 21
245.406411
 31
0.0
  0
LINE
  5
29D
  8
0
  6
CONTINUOUS
 62
   179
 10
151.3148015294
 20
248.906411
 30
0.0
 11
147.564802
 21
248.906411
 31
0.0
  0
LINE
  5
29E
  8
0
  6
CONTINUOUS
 62
   179
 10
151.3148015294
 20
247.406415
 30
0.0
 11
151.3148015294
 21
248.906411
 31
0.0
  0
LINE
  5
29F
  8
0
  6
CONTINUOUS
 62
   179
 10
149.0648015294
 20
247.406415
 30
0.0
 11
151.3148015294
 21
247.406415
 31
0.0
  0
LINE
  5
2A0
  8
0
  6
CONTINUOUS
 62
   179
 10
149.0648015294
 20
245.406411
 30
0.0
 11
149.0648015294
 21
247.406415
 31
0.0
  0
LINE
  5
2A1
  8
0
  6
CONTINUOUS
 62
   179
 10
142.064802
 20
231.906414
 30
0.0
 11
148.888331411
 21
244.7005296456
 31
0.0
  0
LINE
  5
2A2
  8
0
  6
CONTINUOUS
 62
   179
 10
142.064802
 20
203.406412
 30
0.0
 11
142.064802
 21
231.906414
 31
0.0
  0
LINE
  5
2A3
  8
0
  6
CONTINUOUS
 62
   179
 10
140.564802
 20
232.406415
 30
0.0
 11
130.564802
 21
232.406415
 31
0.0
  0
LINE
  5
2A4
  8
0
  6
CONTINUOUS
 62
   179
 10
92.5648
 20
232.406415
 30
0.0
 11
82.564802
 21
232.406415
 31
0.0
  0
LINE
  5
2A5
  8
0
  6
CONTINUOUS
 62
   179
 10
75.564801
 20
245.406412
 30
0.0
 11
75.690017
 21
245.406411
 31
0.0
  0
LINE
  5
2A6
  8
0
  6
CONTINUOUS
 62
   179
 10
81.690365
 20
233.920983
 30
0.0
 11
81.841377
 21
233.920983
 31
0.0
  0
LINE
  5
2A7
  8
0
  6
CONTINUOUS
 62
   179
 10
147.439583
 20
245.406411
 30
0.0
 11
147.564802
 21
245.406411
 31
0.0
  0
LINE
  5
2A8
  8
0
  6
CONTINUOUS
 62
   179
 10
147.439583
 20
245.406411
 30
0.0
 11
147.064802
 21
245.406411
 31
0.0
  0
LINE
  5
2A9
  8
0
  6
CONTINUOUS
 62
   179
 10
76.0648
 20
245.406411
 30
0.0
 11
75.690017
 21
245.406411
 31
0.0
  0
LINE
  5
2AA
  8
0
  6
CONTINUOUS
 62
   179
 10
81.5597
 20
234.406411
 30
0.0
 11
92.564801
 21
234.406412
 31
0.0
  0
LINE
  5
2AB
  8
0
  6
CONTINUOUS
 62
   179
 10
130.564802
 20
234.406412
 30
0.0
 11
141.569901
 21
234.406411
 31
0.0
  0
LINE
  5
2AC
  8
0
  6
CONTINUOUS
 62
   179
 10
141.288226
 20
233.920983
 30
0.0
 11
141.439238
 21
233.920983
 31
0.0
  0
LINE
  5
2AD
  8
0
  6
CONTINUOUS
 62
   179
 10
161.064801
 20
235.106408
 30
0.0
 11
160.843947
 21
241.430841
 31
0.0
  0
LINE
  5
2AE
  8
0
  6
CONTINUOUS
 62
   179
 10
161.064801
 20
235.106408
 30
0.0
 11
157.0648
 21
235.106408
 31
0.0
  0
LINE
  5
2AF
  8
0
  6
CONTINUOUS
 62
   179
 10
66.064798
 20
235.106408
 30
0.0
 11
62.064798
 21
235.106408
 31
0.0
  0
LINE
  5
2B0
  8
0
  6
CONTINUOUS
 62
   179
 10
62.285655
 20
241.430841
 30
0.0
 11
62.064798
 21
235.106408
 31
0.0
  0
LINE
  5
2B1
  8
0
  6
CONTINUOUS
 62
   179
 10
69.6648
 20
244.106411
 30
0.0
 11
69.6648
 21
231.106415
 31
0.0
  0
LINE
  5
2B2
  8
0
  6
CONTINUOUS
 62
   179
 10
69.6648
 20
231.106415
 30
0.0
 11
68.664798
 21
230.106413
 31
0.0
  0
LINE
  5
2B3
  8
0
  6
CONTINUOUS
 62
   179
 10
68.664798
 20
230.106413
 30
0.0
 11
66.0648012995
 21
230.106413
 31
0.0
  0
LINE
  5
2B4
  8
0
  6
CONTINUOUS
 62
   179
 10
66.0648012995
 20
230.106413
 30
0.0
 11
66.0648012995
 21
241.4064096366
 31
0.0
  0
LINE
  5
2B5
  8
0
  6
CONTINUOUS
 62
   179
 10
65.3648027995
 20
242.1064101366
 30
0.0
 11
62.9852297995
 21
242.1064131366
 31
0.0
  0
LINE
  5
2B6
  8
0
  6
CONTINUOUS
 62
   179
 10
62.064798
 20
235.106408
 30
0.0
 11
60.614803
 21
235.106408
 31
0.0
  0
LINE
  5
2B7
  8
0
  6
CONTINUOUS
 62
   179
 10
60.614803
 20
235.106408
 30
0.0
 11
59.128457
 21
240.653529
 31
0.0
  0
LINE
  5
2B8
  8
0
  6
CONTINUOUS
 62
   179
 10
59.128457
 20
240.653529
 30
0.0
 11
56.814798
 21
239.317737
 31
0.0
  0
LINE
  5
2B9
  8
0
  6
CONTINUOUS
 62
   179
 10
56.814798
 20
239.317737
 30
0.0
 11
56.814798
 21
238.606415
 31
0.0
  0
LINE
  5
2BA
  8
0
  6
CONTINUOUS
 62
   179
 10
56.814798
 20
238.606415
 30
0.0
 11
53.064802
 21
238.606415
 31
0.0
  0
LINE
  5
2BB
  8
0
  6
CONTINUOUS
 62
   179
 10
53.064802
 20
238.606415
 30
0.0
 11
53.064802
 21
243.106409
 31
0.0
  0
LINE
  5
2BC
  8
0
  6
CONTINUOUS
 62
   179
 10
53.064802
 20
243.106409
 30
0.0
 11
57.564804
 21
243.106409
 31
0.0
  0
LINE
  5
2BD
  8
0
  6
CONTINUOUS
 62
   179
 10
62.064798
 20
247.10641
 30
0.0
 11
62.064798
 21
245.106413
 31
0.0
  0
LINE
  5
2BE
  8
0
  6
CONTINUOUS
 62
   179
 10
62.064798
 20
245.106413
 30
0.0
 11
68.664798
 21
245.106413
 31
0.0
  0
LINE
  5
2BF
  8
0
  6
CONTINUOUS
 62
   179
 10
68.664798
 20
245.106413
 30
0.0
 11
69.6648
 21
244.106411
 31
0.0
  0
LINE
  5
2C0
  8
0
  6
CONTINUOUS
 62
   179
 10
157.064801199
 20
241.4064122061
 30
0.0
 11
157.064800199
 21
230.1064132061
 31
0.0
  0
LINE
  5
2C1
  8
0
  6
CONTINUOUS
 62
   179
 10
166.3148
 20
239.317737
 30
0.0
 11
164.001146
 21
240.653529
 31
0.0
  0
LINE
  5
2C2
  8
0
  6
CONTINUOUS
 62
   179
 10
166.3148
 20
239.317737
 30
0.0
 11
165.564801
 21
239.317737
 31
0.0
  0
LINE
  5
2C3
  8
0
  6
CONTINUOUS
 62
   179
 10
57.564804
 20
239.317737
 30
0.0
 11
56.814798
 21
239.317737
 31
0.0
  0
LINE
  5
2C4
  8
0
  6
CONTINUOUS
 62
   179
 10
166.3148
 20
238.606415
 30
0.0
 11
166.3148
 21
239.317737
 31
0.0
  0
LINE
  5
2C5
  8
0
  6
CONTINUOUS
 62
   179
 10
166.3148
 20
238.606415
 30
0.0
 11
165.564801
 21
238.606415
 31
0.0
  0
LINE
  5
2C6
  8
0
  6
CONTINUOUS
 62
   179
 10
57.564804
 20
238.606415
 30
0.0
 11
56.814798
 21
238.606415
 31
0.0
  0
LINE
  5
2C7
  8
0
  6
CONTINUOUS
 62
   179
 10
164.001146
 20
240.653529
 30
0.0
 11
162.514801
 21
235.106408
 31
0.0
  0
LINE
  5
2C8
  8
0
  6
CONTINUOUS
 62
   179
 10
161.064801199
 20
245.1064132061
 30
0.0
 11
161.064801199
 21
247.1064102061
 31
0.0
  0
LINE
  5
2C9
  8
0
  6
CONTINUOUS
 62
   179
 10
154.464801199
 20
230.1064132061
 30
0.0
 11
153.464801199
 21
231.1064152061
 31
0.0
  0
LINE
  5
2CA
  8
0
  6
CONTINUOUS
 62
   179
 10
153.464801199
 20
244.1064112061
 30
0.0
 11
154.464801199
 21
245.1064132061
 31
0.0
  0
LINE
  5
2CB
  8
0
  6
CONTINUOUS
 62
   179
 10
153.464801199
 20
231.1064152061
 30
0.0
 11
153.464801199
 21
244.1064112061
 31
0.0
  0
LINE
  5
2CC
  8
0
  6
CONTINUOUS
 62
   179
 10
170.064801
 20
243.1064092061
 30
0.0
 11
170.064801
 21
238.606415
 31
0.0
  0
LINE
  5
2CD
  8
0
  6
CONTINUOUS
 62
   179
 10
157.064800199
 20
230.1064132061
 30
0.0
 11
154.464801199
 21
230.1064132061
 31
0.0
  0
LINE
  5
2CE
  8
0
  6
CONTINUOUS
 62
   179
 10
154.464801199
 20
245.1064132061
 30
0.0
 11
161.064801199
 21
245.1064132061
 31
0.0
  0
LINE
  5
2CF
  8
0
  6
CONTINUOUS
 62
   179
 10
162.514801
 20
235.106408
 30
0.0
 11
161.064801
 21
235.106408
 31
0.0
  0
LINE
  5
2D0
  8
0
  6
CONTINUOUS
 62
   179
 10
165.564801199
 20
243.1064092061
 30
0.0
 11
170.064801
 21
243.1064092061
 31
0.0
  0
LINE
  5
2D1
  8
0
  6
CONTINUOUS
 62
   179
 10
170.064801
 20
238.606415
 30
0.0
 11
166.3148
 21
238.606415
 31
0.0
  0
LINE
  5
2D2
  8
0
  6
CONTINUOUS
 62
   179
 10
160.144373199
 20
242.1064122061
 30
0.0
 11
157.764801199
 21
242.1064122061
 31
0.0
  0
LINE
  5
2D3
  8
0
  6
CONTINUOUS
 62
   179
 10
80.8148025653
 20
203.6064114957
 30
0.0
 11
81.0647995653
 21
203.6064114957
 31
0.0
  0
LINE
  5
2D4
  8
0
  6
CONTINUOUS
 62
   179
 10
142.064801
 20
203.606411
 30
0.0
 11
142.314801
 21
203.606412
 31
0.0
  0
LINE
  5
2D5
  8
0
  6
CONTINUOUS
 62
   179
 10
151.5648015294
 20
254.606412
 30
0.0
 11
151.3148015294
 21
254.60641
 31
0.0
  0
LINE
  5
2D6
  8
0
  6
CONTINUOUS
 62
   179
 10
71.8147989553
 20
258.1064133557
 30
0.0
 11
71.5648009553
 21
258.1064153557
 31
0.0
  0
LINE
  5
2D7
  8
0
  6
CONTINUOUS
 62
   179
 10
138.394628
 20
247.406415
 30
0.0
 11
135.899939
 21
247.406415
 31
0.0
  0
LINE
  5
2D8
  8
0
  6
CONTINUOUS
 62
   179
 10
87.229663
 20
247.406415
 30
0.0
 11
84.734974
 21
247.406415
 31
0.0
  0
LINE
  5
2D9
  8
0
  6
CONTINUOUS
 62
   179
 10
160.843947
 20
241.430841
 30
0.0
 11
157.065227
 21
241.430841
 31
0.0
  0
LINE
  5
2DA
  8
0
  6
CONTINUOUS
 62
   179
 10
66.064374
 20
241.430841
 30
0.0
 11
62.285655
 21
241.430841
 31
0.0
  0
LINE
  5
2DB
  8
0
  6
CONTINUOUS
 62
   179
 10
71.557106
 20
251.162229
 30
0.0
 11
73.308983
 21
252.914106
 31
0.0
  0
LINE
  5
2DC
  8
0
  6
CONTINUOUS
 62
   179
 10
205.910691
 20
196.930435
 30
0.0
 11
208.290777
 21
199.310521
 31
0.0
  0
LINE
  5
2DD
  8
0
  6
CONTINUOUS
 62
   179
 10
206.064411
 20
241.985436
 30
0.0
 11
208.735776
 21
244.656801
 31
0.0
  0
LINE
  5
2DE
  8
0
  6
CENTERX2
 62
   179
 10
111.564801
 20
269.391929
 30
0.0
 11
111.564801
 21
189.219375
 31
0.0
  0
LINE
  5
2DF
  8
0
  6
CENTERX2
 62
   179
 10
158.179858
 20
220.106412
 30
0.0
 11
287.064801
 21
220.106412
 31
0.0
  0
CIRCLE
  5
2E0
  8
0
  6
CONTINUOUS
 62
   179
 10
207.864801
 20
242.856412
 30
0.0
 40
2.0
  0
CIRCLE
  5
2E1
  8
0
  6
CONTINUOUS
 62
   179
 10
207.864801
 20
197.356412
 30
0.0
 40
2.0
  0
ARC
  5
2E2
  8
0
  6
CONTINUOUS
 62
   179
 10
194.8648014899
 20
195.2741752034
 30
0.0
 40
0.8000000000000114
 50
74.2573
 51
180.0
  0
ARC
  5
2E3
  8
0
  6
CONTINUOUS
 62
   179
 10
201.8648015246
 20
220.1064123267
 30
0.0
 40
25.00000002007316
 50
254.2572994824
 51
314.0974869714
  0
ARC
  5
2E4
  8
0
  6
CONTINUOUS
 62
   179
 10
201.8648015246
 20
220.1064123267
 30
0.0
 40
27.50000065181979
 50
270.0000020835
 51
313.3417586744
  0
ARC
  5
2E5
  8
0
  6
CONTINUOUS
 62
   179
 10
201.8648015246
 20
220.1064123267
 30
0.0
 40
24.99999941164259
 50
45.9025116775
 51
105.7427
  0
ARC
  5
2E6
  8
0
  6
CONTINUOUS
 62
   179
 10
194.8648016696
 20
244.9386488125
 30
0.0
 40
0.7999999459706619
 50
180.0
 51
285.7427161739
  0
ARC
  5
2E7
  8
0
  6
CONTINUOUS
 62
   179
 10
201.8648015246
 20
220.1064123267
 30
0.0
 40
27.49999944927795
 50
46.6582389611
 51
89.9999979165
  0
ARC
  5
2E8
  8
0
  6
CONTINUOUS
 62
   179
 10
209.3648010811
 20
198.8564114114
 30
0.0
 40
0.5000015000004846
 50
0.0001145909
 51
90.0
  0
ARC
  5
2E9
  8
0
  6
CONTINUOUS
 62
   179
 10
206.1648010811
 20
198.8564119114
 30
0.0
 40
0.4999990000000025
 50
90.0
 51
180.0
  0
ARC
  5
2EA
  8
0
  6
CONTINUOUS
 62
   179
 10
205.1648015811
 20
195.8296739114
 30
0.0
 40
0.4999995000000013
 50
277.740919
 51
0.0
  0
ARC
  5
2EB
  8
0
  6
CONTINUOUS
 62
   179
 10
201.8648015246
 20
220.1064123267
 30
0.0
 40
25.00000008082286
 50
240.527879
 51
277.7409186451
  0
ARC
  5
2EC
  8
0
  6
CONTINUOUS
 62
   179
 10
132.0988780653
 20
203.6064122674
 30
0.0
 40
13.50000050958269
 50
270.0
 51
348.2252065382
  0
ARC
  5
2ED
  8
0
  6
CONTINUOUS
 62
   179
 10
91.3148020653
 20
203.6064124957
 30
0.0
 40
13.50000073795385
 50
180.000007671
 51
270.0
  0
ARC
  5
2EE
  8
0
  6
CONTINUOUS
 62
   179
 10
65.5648015
 20
219.419849
 30
0.0
 40
8.000000499999956
 50
180.0
 51
262.4999958849
  0
ARC
  5
2EF
  8
0
  6
CONTINUOUS
 62
   179
 10
65.5648015
 20
219.419849
 30
0.0
 40
4.999999500000068
 50
180.0000114592
 51
262.5
  0
ARC
  5
2F0
  8
0
  6
CONTINUOUS
 62
   179
 10
91.3148020653
 20
203.6064124957
 30
0.0
 40
10.49999950000006
 50
180.0000054567
 51
270.0
  0
ARC
  5
2F1
  8
0
  6
CONTINUOUS
 62
   179
 10
131.814801
 20
203.6064129957
 30
0.0
 40
10.50000000000002
 50
270.0000003561
 51
359.9999945666
  0
ARC
  5
2F2
  8
0
  6
CONTINUOUS
 62
   179
 10
213.8647995
 20
198.7463997871
 30
0.0
 40
0.4999985000005369
 50
299.3275138124
 51
0.0001389833
  0
ARC
  5
2F3
  8
0
  6
CONTINUOUS
 62
   179
 10
201.8648015246
 20
220.1064123267
 30
0.0
 40
25.00000027755204
 50
290.300191
 51
299.3271680553
  0
ARC
  5
2F4
  8
0
  6
CONTINUOUS
 62
   179
 10
210.364800887
 20
197.1281594025
 30
0.0
 40
0.4999983059286027
 50
179.9998843937
 51
290.3003602264
  0
ARC
  5
2F5
  8
0
  6
CONTINUOUS
 62
   179
 10
210.3648029604
 20
243.0846620887
 30
0.0
 40
0.5000000000000508
 50
69.699972767
 51
180.0001841125
  0
ARC
  5
2F6
  8
0
  6
CONTINUOUS
 62
   179
 10
201.8648015246
 20
220.1064123267
 30
0.0
 40
24.99999972512761
 50
60.672831
 51
69.6998086889
  0
ARC
  5
2F7
  8
0
  6
CONTINUOUS
 62
   179
 10
213.8648008416
 20
241.4664215768
 30
0.0
 40
0.5000001583665808
 50
359.9999339002
 51
60.6727576213
  0
ARC
  5
2F8
  8
0
  6
CONTINUOUS
 62
   179
 10
201.8648015246
 20
220.1064123267
 30
0.0
 40
28.50000026341617
 50
105.8836170613
 51
122.468925
  0
ARC
  5
2F9
  8
0
  6
CONTINUOUS
 62
   179
 10
201.8648015246
 20
220.1064123267
 30
0.0
 40
24.99999974210708
 50
82.259081
 51
108.1798015775
  0
ARC
  5
2FA
  8
0
  6
CONTINUOUS
 62
   179
 10
205.1648015458
 20
244.383149482
 30
0.0
 40
0.5000004146207573
 50
0.0
 51
82.2590786885
  0
ARC
  5
2FB
  8
0
  6
CONTINUOUS
 62
   179
 10
206.1648014604
 20
241.356412482
 30
0.0
 40
0.5000005000020167
 50
180.0002291827
 51
270.0
  0
ARC
  5
2FC
  8
0
  6
CONTINUOUS
 62
   179
 10
209.3648014604
 20
241.356410482
 30
0.0
 40
0.5000015000020066
 50
270.0002291817
 51
0.0
  0
ARC
  5
2FD
  8
0
  6
CONTINUOUS
 62
   179
 10
155.791502
 20
207.476248
 30
0.0
 40
4.93673060276642
 50
263.766075
 51
0.576626
  0
ARC
  5
2FE
  8
0
  6
CONTINUOUS
 62
   179
 10
167.0648008783
 20
263.9753038671
 30
0.0
 40
1.500000000000028
 50
0.0
 51
86.014425
  0
ARC
  5
2FF
  8
0
  6
CONTINUOUS
 62
   179
 10
56.0648008783
 20
263.9753038671
 30
0.0
 40
1.500000000000021
 50
93.985575
 51
180.0
  0
ARC
  5
300
  8
0
  6
CONTINUOUS
 62
   179
 10
167.0705417305
 20
264.1064172801
 30
0.0
 40
1.500000375877255
 50
270.0000405301
 51
354.9854384332
  0
ARC
  5
301
  8
0
  6
CONTINUOUS
 62
   179
 10
56.05906
 20
264.1064118778
 30
0.0
 40
1.499999877790834
 50
185.0143560893
 51
270.0
  0
ARC
  5
302
  8
0
  6
CONTINUOUS
 62
   179
 10
76.964801
 20
254.606413
 30
0.0
 40
0.9999990000010825
 50
359.9998854082
 51
90.0
  0
ARC
  5
303
  8
0
  6
CONTINUOUS
 62
   179
 10
68.964801
 20
205.606412
 30
0.0
 40
50.00000000000004
 50
89.9999977082
 51
99.792097
  0
ARC
  5
304
  8
0
  6
CONTINUOUS
 62
   179
 10
111.5648008783
 20
-532.5935881329
 30
0.0
 40
799.9999998134675
 50
86.0144249186
 51
93.9855750814
  0
ARC
  5
305
  8
0
  6
CONTINUOUS
 62
   179
 10
154.1648025
 20
205.6064152146
 30
0.0
 40
49.99999828538446
 50
80.2079033052
 51
90.0
  0
ARC
  5
306
  8
0
  6
CONTINUOUS
 62
   179
 10
146.1648025
 20
254.6064135
 30
0.0
 40
1.000000000000256
 50
90.0000572958
 51
180.0
  0
ARC
  5
307
  8
0
  6
CONTINUOUS
 62
   179
 10
144.1648025
 20
247.6064135
 30
0.0
 40
1.000000000000216
 50
270.0
 51
359.9999427042
  0
ARC
  5
308
  8
0
  6
CONTINUOUS
 62
   179
 10
78.9648025
 20
247.606413
 30
0.0
 40
1.000002500000249
 50
180.0000572957
 51
270.0
  0
ARC
  5
309
  8
0
  6
CONTINUOUS
 62
   179
 10
154.1881605294
 20
205.606411448
 30
0.0
 40
50.00000055202221
 50
75.6661596797
 51
90.0
  0
ARC
  5
30A
  8
0
  6
CONTINUOUS
 62
   179
 10
68.9414409553
 20
209.106415175
 30
0.0
 40
50.00000018066529
 50
90.0
 51
104.3338369896
  0
ARC
  5
30B
  8
0
  6
CONTINUOUS
 62
   179
 10
152.5648015294
 20
254.606412
 30
0.0
 40
1.0
 50
90.0
 51
180.0
  0
ARC
  5
30C
  8
0
  6
CONTINUOUS
 62
   179
 10
70.5648009553
 20
258.1064153557
 30
0.0
 40
1.0
 50
0.0
 51
90.0
  0
CIRCLE
  5
30D
  8
0
  6
CONTINUOUS
 62
   179
 10
72.314801
 20
252.156412
 30
0.0
 40
1.25
  0
CIRCLE
  5
30E
  8
0
  6
CONTINUOUS
 62
   179
 10
150.814801
 20
252.156412
 30
0.0
 40
1.25
  0
ARC
  5
30F
  8
0
  6
CONTINUOUS
 62
   179
 10
76.064802
 20
253.406412
 30
0.0
 40
2.0
 50
0.0
 51
90.0
  0
ARC
  5
310
  8
0
  6
CONTINUOUS
 62
   179
 10
147.064802
 20
253.406412
 30
0.0
 40
2.0
 50
90.0
 51
180.0
  0
ARC
  5
311
  8
0
  6
CONTINUOUS
 62
   179
 10
79.064802
 20
247.406412
 30
0.0
 40
1.000000000000028
 50
180.0
 51
270.0
  0
ARC
  5
312
  8
0
  6
CONTINUOUS
 62
   179
 10
144.064802
 20
247.406412
 30
0.0
 40
1.0
 50
270.0
 51
0.0
  0
ARC
  5
313
  8
0
  6
CONTINUOUS
 62
   179
 10
81.564801
 20
234.406412
 30
0.0
 40
11.0
 50
0.0
 51
90.0
  0
ARC
  5
314
  8
0
  6
CONTINUOUS
 62
   179
 10
141.564802
 20
234.406412
 30
0.0
 40
11.0
 50
90.0
 51
180.0
  0
ARC
  5
315
  8
0
  6
CONTINUOUS
 62
   179
 10
81.564801
 20
234.406412
 30
0.0
 40
12.00000000000001
 50
0.0
 51
89.9999952254
  0
ARC
  5
316
  8
0
  6
CONTINUOUS
 62
   179
 10
141.564802
 20
234.406412
 30
0.0
 40
12.0
 50
90.0
 51
180.0
  0
ARC
  5
317
  8
0
  6
CONTINUOUS
 62
   179
 10
75.564801
 20
245.406412
 30
0.0
 40
1.500000000000006
 50
180.0
 51
208.072487
  0
ARC
  5
318
  8
0
  6
CONTINUOUS
 62
   179
 10
91.0648015
 20
203.406412
 30
0.0
 40
10.0000005
 50
180.0
 51
270.0
  0
ARC
  5
319
  8
0
  6
CONTINUOUS
 62
   179
 10
91.0648015
 20
203.406412
 30
0.0
 40
8.499999500000001
 50
180.0
 51
270.0
  0
ARC
  5
31A
  8
0
  6
CONTINUOUS
 62
   179
 10
132.0648015
 20
203.406412
 30
0.0
 40
8.500000500000029
 50
269.9999932593
 51
0.0
  0
ARC
  5
31B
  8
0
  6
CONTINUOUS
 62
   179
 10
147.564802
 20
245.406411
 30
0.0
 40
1.499999529412068
 50
331.9275467034
 51
0.0
  0
ARC
  5
31C
  8
0
  6
CONTINUOUS
 62
   179
 10
132.0648015
 20
203.406412
 30
0.0
 40
10.00000050000003
 50
269.9999942704
 51
0.0
  0
ARC
  5
31D
  8
0
  6
CONTINUOUS
 62
   179
 10
65.3648027995
 20
241.4064116366
 30
0.0
 40
0.6999985000014569
 50
359.9998362971
 51
90.0
  0
ARC
  5
31E
  8
0
  6
CONTINUOUS
 62
   179
 10
62.9852297995
 20
241.4064119372
 30
0.0
 40
0.7000011994177263
 50
90.0
 51
178.0000513283
  0
ARC
  5
31F
  8
0
  6
CONTINUOUS
 62
   179
 10
160.144373199
 20
241.4064120069
 30
0.0
 40
0.700000199113191
 50
1.9999458152
 51
90.0
  0
ARC
  5
320
  8
0
  6
CONTINUOUS
 62
   179
 10
157.764801199
 20
241.4064122061
 30
0.0
 40
0.700000000000017
 50
90.0
 51
180.0
  0
POLYLINE
  5
321
  8
0
  6
CONTINUOUS
 62
   179
 66
     1
 10
0.0
 20
0.0
 30
0.0
 70
   128
  0
VERTEX
  5
399
  8
0
  6
CONTINUOUS
 62
   179
 10
88.4520574427
 20
248.1064120179
 30
0.0
  0
VERTEX
  5
39A
  8
0
  6
CONTINUOUS
 62
   179
 10
88.4398593437
 20
248.1336374852
 30
0.0
  0
VERTEX
  5
39B
  8
0
  6
CONTINUOUS
 62
   179
 10
88.4270693514
 20
248.1603320812
 30
0.0
  0
VERTEX
  5
39C
  8
0
  6
CONTINUOUS
 62
   179
 10
88.4137003442
 20
248.1864689265
 30
0.0
  0
VERTEX
  5
39D
  8
0
  6
CONTINUOUS
 62
   179
 10
88.3997657836
 20
248.2120217037
 30
0.0
  0
VERTEX
  5
39E
  8
0
  6
CONTINUOUS
 62
   179
 10
88.3852797005
 20
248.2369646833
 30
0.0
  0
VERTEX
  5
39F
  8
0
  6
CONTINUOUS
 62
   179
 10
88.3702566811
 20
248.2612727497
 30
0.0
  0
VERTEX
  5
3A0
  8
0
  6
CONTINUOUS
 62
   179
 10
88.3547118525
 20
248.2849214269
 30
0.0
  0
VERTEX
  5
3A1
  8
0
  6
CONTINUOUS
 62
   179
 10
88.3386608668
 20
248.3078869027
 30
0.0
  0
VERTEX
  5
3A2
  8
0
  6
CONTINUOUS
 62
   179
 10
88.3221198861
 20
248.3301460526
 30
0.0
  0
VERTEX
  5
3A3
  8
0
  6
CONTINUOUS
 62
   179
 10
88.3051055657
 20
248.3516764637
 30
0.0
  0
VERTEX
  5
3A4
  8
0
  6
CONTINUOUS
 62
   179
 10
88.2876350376
 20
248.3724564567
 30
0.0
  0
VERTEX
  5
3A5
  8
0
  6
CONTINUOUS
 62
   179
 10
88.2697258932
 20
248.3924651078
 30
0.0
  0
VERTEX
  5
3A6
  8
0
  6
CONTINUOUS
 62
   179
 10
88.2513961655
 20
248.4116822701
 30
0.0
  0
VERTEX
  5
3A7
  8
0
  6
CONTINUOUS
 62
   179
 10
88.2326643108
 20
248.4300885935
 30
0.0
  0
VERTEX
  5
3A8
  8
0
  6
CONTINUOUS
 62
   179
 10
88.2135491907
 20
248.4476655444
 30
0.0
  0
VERTEX
  5
3A9
  8
0
  6
CONTINUOUS
 62
   179
 10
88.1940700525
 20
248.4643954243
 30
0.0
  0
VERTEX
  5
3AA
  8
0
  6
CONTINUOUS
 62
   179
 10
88.1742465099
 20
248.4802613875
 30
0.0
  0
VERTEX
  5
3AB
  8
0
  6
CONTINUOUS
 62
   179
 10
88.1540985236
 20
248.4952474586
 30
0.0
  0
VERTEX
  5
3AC
  8
0
  6
CONTINUOUS
 62
   179
 10
88.1336463808
 20
248.5093385476
 30
0.0
  0
VERTEX
  5
3AD
  8
0
  6
CONTINUOUS
 62
   179
 10
88.1129106753
 20
248.5225204662
 30
0.0
  0
VERTEX
  5
3AE
  8
0
  6
CONTINUOUS
 62
   179
 10
88.0919122861
 20
248.5347799412
 30
0.0
  0
VERTEX
  5
3AF
  8
0
  6
CONTINUOUS
 62
   179
 10
88.0706723567
 20
248.5461046284
 30
0.0
  0
VERTEX
  5
3B0
  8
0
  6
CONTINUOUS
 62
   179
 10
88.0492122741
 20
248.5564831247
 30
0.0
  0
VERTEX
  5
3B1
  8
0
  6
CONTINUOUS
 62
   179
 10
88.0275536466
 20
248.56590498
 30
0.0
  0
VERTEX
  5
3B2
  8
0
  6
CONTINUOUS
 62
   179
 10
88.0057182826
 20
248.5743607072
 30
0.0
  0
VERTEX
  5
3B3
  8
0
  6
CONTINUOUS
 62
   179
 10
87.9837281686
 20
248.581841792
 30
0.0
  0
VERTEX
  5
3B4
  8
0
  6
CONTINUOUS
 62
   179
 10
87.9616054468
 20
248.5883407018
 30
0.0
  0
VERTEX
  5
3B5
  8
0
  6
CONTINUOUS
 62
   179
 10
87.9393723927
 20
248.5938508926
 30
0.0
  0
VERTEX
  5
3B6
  8
0
  6
CONTINUOUS
 62
   179
 10
87.9170513933
 20
248.5983668161
 30
0.0
  0
VERTEX
  5
3B7
  8
0
  6
CONTINUOUS
 62
   179
 10
87.8946649238
 20
248.6018839252
 30
0.0
  0
VERTEX
  5
3B8
  8
0
  6
CONTINUOUS
 62
   179
 10
87.8722355256
 20
248.6043986785
 30
0.0
  0
VERTEX
  5
3B9
  8
0
  6
CONTINUOUS
 62
   179
 10
87.8497857831
 20
248.6059085437
 30
0.0
  0
SEQEND
  5
3DB
  8
0
  6
CONTINUOUS
 62
   179
  0
POLYLINE
  5
322
  8
0
  6
CONTINUOUS
 62
   179
 66
     1
 10
0.0
 20
0.0
 30
0.0
 70
   128
  0
VERTEX
  5
3BA
  8
0
  6
CONTINUOUS
 62
   179
 10
135.3022626986
 20
248.6064120007
 30
0.0
  0
VERTEX
  5
3BB
  8
0
  6
CONTINUOUS
 62
   179
 10
135.2798152169
 20
248.6059085437
 30
0.0
  0
VERTEX
  5
3BC
  8
0
  6
CONTINUOUS
 62
   179
 10
135.2573654744
 20
248.6043986785
 30
0.0
  0
VERTEX
  5
3BD
  8
0
  6
CONTINUOUS
 62
   179
 10
135.2349360762
 20
248.6018839252
 30
0.0
  0
VERTEX
  5
3BE
  8
0
  6
CONTINUOUS
 62
   179
 10
135.2125496067
 20
248.5983668161
 30
0.0
  0
VERTEX
  5
3BF
  8
0
  6
CONTINUOUS
 62
   179
 10
135.1902286073
 20
248.5938508926
 30
0.0
  0
VERTEX
  5
3C0
  8
0
  6
CONTINUOUS
 62
   179
 10
135.1679955532
 20
248.5883407018
 30
0.0
  0
VERTEX
  5
3C1
  8
0
  6
CONTINUOUS
 62
   179
 10
135.1458728314
 20
248.581841792
 30
0.0
  0
VERTEX
  5
3C2
  8
0
  6
CONTINUOUS
 62
   179
 10
135.1238827174
 20
248.5743607072
 30
0.0
  0
VERTEX
  5
3C3
  8
0
  6
CONTINUOUS
 62
   179
 10
135.1020473534
 20
248.56590498
 30
0.0
  0
VERTEX
  5
3C4
  8
0
  6
CONTINUOUS
 62
   179
 10
135.0803887259
 20
248.5564831247
 30
0.0
  0
VERTEX
  5
3C5
  8
0
  6
CONTINUOUS
 62
   179
 10
135.0589286433
 20
248.5461046284
 30
0.0
  0
VERTEX
  5
3C6
  8
0
  6
CONTINUOUS
 62
   179
 10
135.0376887139
 20
248.5347799412
 30
0.0
  0
VERTEX
  5
3C7
  8
0
  6
CONTINUOUS
 62
   179
 10
135.0166903247
 20
248.5225204662
 30
0.0
  0
VERTEX
  5
3C8
  8
0
  6
CONTINUOUS
 62
   179
 10
134.9959546191
 20
248.5093385476
 30
0.0
  0
VERTEX
  5
3C9
  8
0
  6
CONTINUOUS
 62
   179
 10
134.9755024764
 20
248.4952474586
 30
0.0
  0
VERTEX
  5
3CA
  8
0
  6
CONTINUOUS
 62
   179
 10
134.9553544901
 20
248.4802613876
 30
0.0
  0
VERTEX
  5
3CB
  8
0
  6
CONTINUOUS
 62
   179
 10
134.9355309475
 20
248.4643954243
 30
0.0
  0
VERTEX
  5
3CC
  8
0
  6
CONTINUOUS
 62
   179
 10
134.9160518093
 20
248.4476655444
 30
0.0
  0
VERTEX
  5
3CD
  8
0
  6
CONTINUOUS
 62
   179
 10
134.8969366892
 20
248.4300885935
 30
0.0
  0
VERTEX
  5
3CE
  8
0
  6
CONTINUOUS
 62
   179
 10
134.8782048345
 20
248.4116822701
 30
0.0
  0
VERTEX
  5
3CF
  8
0
  6
CONTINUOUS
 62
   179
 10
134.8598751068
 20
248.3924651078
 30
0.0
  0
VERTEX
  5
3D0
  8
0
  6
CONTINUOUS
 62
   179
 10
134.8419659624
 20
248.3724564567
 30
0.0
  0
VERTEX
  5
3D1
  8
0
  6
CONTINUOUS
 62
   179
 10
134.8244954343
 20
248.3516764637
 30
0.0
  0
VERTEX
  5
3D2
  8
0
  6
CONTINUOUS
 62
   179
 10
134.8074811139
 20
248.3301460526
 30
0.0
  0
VERTEX
  5
3D3
  8
0
  6
CONTINUOUS
 62
   179
 10
134.7909401332
 20
248.3078869027
 30
0.0
  0
VERTEX
  5
3D4
  8
0
  6
CONTINUOUS
 62
   179
 10
134.7748891475
 20
248.2849214269
 30
0.0
  0
VERTEX
  5
3D5
  8
0
  6
CONTINUOUS
 62
   179
 10
134.7593443189
 20
248.2612727497
 30
0.0
  0
VERTEX
  5
3D6
  8
0
  6
CONTINUOUS
 62
   179
 10
134.7443212995
 20
248.2369646833
 30
0.0
  0
VERTEX
  5
3D7
  8
0
  6
CONTINUOUS
 62
   179
 10
134.7298352164
 20
248.2120217037
 30
0.0
  0
VERTEX
  5
3D8
  8
0
  6
CONTINUOUS
 62
   179
 10
134.7159006558
 20
248.1864689265
 30
0.0
  0
VERTEX
  5
3D9
  8
0
  6
CONTINUOUS
 62
   179
 10
134.7025316486
 20
248.1603320812
 30
0.0
  0
VERTEX
  5
3DA
  8
0
  6
CONTINUOUS
 62
   179
 10
134.6897416563
 20
248.1336374852
 30
0.0
  0
SEQEND
  5
3DC
  8
0
  6
CONTINUOUS
 62
   179
  0
INSERT
  5
323
  8
0
  6
CONTINUOUS
 62
     7
  2
KLON2
 10
0.0
 20
0.0
 30
0.0
  0
INSERT
  5
324
  8
0
  6
CONTINUOUS
 62
     7
  2
POLY3
 10
0.0
 20
0.0
 30
0.0
  0
INSERT
  5
325
  8
0
  6
CONTINUOUS
 62
     7
  2
KLON6
 10
0.0
 20
0.0
 30
0.0
  0
INSERT
  5
326
  8
0
  6
CONTINUOUS
 62
     7
  2
POLY4
 10
0.0
 20
0.0
 30
0.0
  0
INSERT
  5
327
  8
0
  6
CONTINUOUS
 62
     7
  2
KLON5
 10
0.0
 20
0.0
 30
0.0
  0
INSERT
  5
328
  8
0
  6
CONTINUOUS
 62
     7
  2
POLY1
 10
0.0
 20
0.0
 30
0.0
  0
INSERT
  5
329
  8
0
  6
CONTINUOUS
 62
     7
  2
KLON1
 10
0.0
 20
0.0
 30
0.0
  0
INSERT
  5
32A
  8
0
  6
CONTINUOUS
 62
     7
  2
POLY2
 10
0.0
 20
0.0
 30
0.0
  0
INSERT
  5
32B
  8
0
  6
CONTINUOUS
 62
     7
  2
KLON3
 10
0.0
 20
0.0
 30
0.0
  0
INSERT
  5
32C
  8
0
  6
CONTINUOUS
 62
     7
  2
KLON4
 10
0.0
 20
0.0
 30
0.0
  0
INSERT
  5
32D
  8
0
  6
CONTINUOUS
 62
     7
  2
KLON16
 10
0.0
 20
0.0
 30
0.0
  0
INSERT
  5
32E
  8
0
  6
CONTINUOUS
 62
     7
  2
KLON12
 10
0.0
 20
0.0
 30
0.0
  0
INSERT
  5
32F
  8
0
  6
CONTINUOUS
 62
     7
  2
LCDIM1
 10
0.0
 20
0.0
 30
0.0
  0
INSERT
  5
330
  8
0
  6
CONTINUOUS
 62
     7
  2
KLON13
 10
0.0
 20
0.0
 30
0.0
  0
INSERT
  5
331
  8
0
  6
CONTINUOUS
 62
     7
  2
KLON15
 10
0.0
 20
0.0
 30
0.0
  0
INSERT
  5
332
  8
0
  6
CONTINUOUS
 62
     7
  2
KLON10
 10
0.0
 20
0.0
 30
0.0
  0
INSERT
  5
333
  8
0
  6
CONTINUOUS
 62
     7
  2
KLON11
 10
0.0
 20
0.0
 30
0.0
  0
INSERT
  5
334
  8
0
  6
CONTINUOUS
 62
     7
  2
KLON8
 10
0.0
 20
0.0
 30
0.0
  0
INSERT
  5
335
  8
0
  6
CONTINUOUS
 62
     7
  2
KLON9
 10
0.0
 20
0.0
 30
0.0
  0
INSERT
  5
336
  8
0
  6
CONTINUOUS
 62
     7
  2
KLON7
 10
0.0
 20
0.0
 30
0.0
  0
INSERT
  5
337
  8
0
  6
CONTINUOUS
 62
     7
  2
KLON14
 10
0.0
 20
0.0
 30
0.0
  0
DIMENSION
  5
338
  8
0
  2
_D
 10
37.7460479447
 20
256.60641
 30
0.0
 11
37.7460479447
 21
266.56156964
 31
0.0
 70
   160
  1
<>
  3
SLDDIMSTYLE0
 13
63.98745
 23
250.60641
 33
0.0
 14
56.562879
 24
256.60641
 34
0.0
 50
90.0
  0
DIMENSION
  5
345
  8
0
  6
CONTINUOUS
 62
   179
  2
_D_1
 10
284.122618
 20
240.106411
 30
0.0
 11
284.122618
 21
222.471433
 31
0.0
 70
   160
  1
DN<>
  3
SLDDIMSTYLE1
 13
282.064797
 23
200.106412
 33
0.0
 14
282.064797
 24
240.106411
 34
0.0
 50
90.0
  0
DIMENSION
  5
355
  8
0
  6
CONTINUOUS
 62
   179
  2
_D_2
 10
54.564801
 20
323.792419
 30
0.0
 11
110.407271
 21
323.792419
 31
0.0
 70
   160
  1
%%c<>
  3
SLDDIMSTYLE1
 13
168.564801
 23
263.975304
 33
0.0
 14
54.564801
 24
263.975304
 34
0.0
  0
DIMENSION
  5
360
  8
0
  6
CONTINUOUS
 62
   179
  2
_D_3
 10
77.8148
 20
175.069568
 30
0.0
 11
161.255246
 21
175.069568
 31
0.0
 70
   160
  1
%%c<>
  3
SLDDIMSTYLE2
 13
145.314801
 23
200.85153
 33
0.0
 14
77.8148
 24
209.738075
 34
0.0
  0
DIMENSION
  5
36D
  8
0
  6
CONTINUOUS
 62
   179
  2
_D_4
 10
-103.818146
 20
249.606415
 30
0.0
 11
-103.818146
 21
233.369568
 31
0.0
 70
   160
  1
<>
  3
SLDDIMSTYLE2
 13
91.323594
 23
190.106412
 33
0.0
 14
60.064801
 24
249.606415
 34
0.0
 50
90.0
  0
DIMENSION
  5
379
  8
0
  6
CONTINUOUS
 62
   179
  2
_D_5
 10
-58.028347
 20
204.40641
 30
0.0
 11
-58.028347
 21
248.219568
 31
0.0
 70
   160
  1
<>
  3
SLDDIMSTYLE1
 13
81.564801
 23
234.406412
 33
0.0
 14
92.5648
 24
204.40641
 34
0.0
 50
90.0
  0
DIMENSION
  5
384
  8
0
  6
CONTINUOUS
 62
   179
  2
_D_6
 10
53.064802
 20
119.233568
 30
0.0
 11
113.335688
 21
119.233568
 31
0.0
 70
   160
  1
%%c<>
  3
SLDDIMSTYLE1
 13
170.064801
 23
238.606415
 33
0.0
 14
53.064802
 24
238.606415
 34
0.0
  0
DIMENSION
  5
38F
  8
0
  6
CONTINUOUS
 62
   179
  2
_D_7
 10
111.564801
 20
61.615568
 30
0.0
 11
175.098673
 21
61.615568
 31
0.0
 70
   160
  1
<>
  3
SLDDIMSTYLE2
 13
285.064803
 23
203.10641
 33
0.0
 14
111.564801
 24
189.219375
 34
0.0
 50
0.0
  0
ENDSEC
  0
EOF
