  0
SECTION
  2
HEADER
  9
$ACADVER
  1
AC1015
  9
$ACADMAINTVER
 70
     6
  9
$DWGCODEPAGE
  3
ANSI_1252
  9
$INSBASE
 10
0.0
 20
0.0
 30
0.0
  9
$EXTMIN
 10
0.0
 20
0.0
 30
0.0
  9
$EXTMAX
 10
840.0
 20
594.0
 30
0.0
  9
$LIMMIN
 10
0.0
 20
0.0
  9
$LIMMAX
 10
840.0
 20
594.0
  9
$ORTHOMODE
 70
     0
  9
$REGENMODE
 70
     1
  9
$FILLMODE
 70
     1
  9
$QTEXTMODE
 70
     0
  9
$MIRRTEXT
 70
     1
  9
$LTSCALE
 40
2.0
  9
$ATTMODE
 70
     1
  9
$TEXTSIZE
 40
2.5
  9
$TRACEWID
 40
1.0
  9
$TEXTSTYLE
  7
Standard
  9
$CLAYER
  8
0
  9
$CELTYPE
  6
ByLayer
  9
$CECOLOR
 62
     7
  9
$CELTSCALE
 40
1.0
  9
$DISPSILH
 70
     0
  9
$DIMSCALE
 40
2.0
  9
$DIMASZ
 40
3.5
  9
$DIMEXO
 40
0.625
  9
$DIMDLI
 40
3.75
  9
$DIMRND
 40
0.0
  9
$DIMDLE
 40
0.0
  9
$DIMEXE
 40
1.25
  9
$DIMTP
 40
0.0
  9
$DIMTM
 40
0.0
  9
$DIMTXT
 40
3.5
  9
$DIMCEN
 40
2.5
  9
$DIMTSZ
 40
0.0
  9
$DIMTOL
 70
     0
  9
$DIMLIM
 70
     0
  9
$DIMTIH
 70
     0
  9
$DIMTOH
 70
     0
  9
$DIMSE1
 70
     0
  9
$DIMSE2
 70
     0
  9
$DIMTAD
 70
     1
  9
$DIMZIN
 70
     8
  9
$DIMBLK
  1

  9
$DIMASO
 70
     1
  9
$DIMSHO
 70
     1
  9
$DIMPOST
  1

  9
$DIMAPOST
  1

  9
$DIMALT
 70
     0
  9
$DIMALTD
 70
     3
  9
$DIMALTF
 40
0.03937
  9
$DIMLFAC
 40
1.0
  9
$DIMTOFL
 70
     1
  9
$DIMTVP
 40
0.0
  9
$DIMTIX
 70
     0
  9
$DIMSOXD
 70
     0
  9
$DIMSAH
 70
     0
  9
$DIMBLK1
  1

  9
$DIMBLK2
  1

  9
$DIMSTYLE
  2
ISO-25
  9
$DIMCLRD
 70
     0
  9
$DIMCLRE
 70
     0
  9
$DIMCLRT
 70
     0
  9
$DIMTFAC
 40
1.0
  9
$DIMGAP
 40
0.625
  9
$DIMJUST
 70
     0
  9
$DIMSD1
 70
     0
  9
$DIMSD2
 70
     0
  9
$DIMTOLJ
 70
     0
  9
$DIMTZIN
 70
     8
  9
$DIMALTZ
 70
     0
  9
$DIMALTTZ
 70
     0
  9
$DIMUPT
 70
     0
  9
$DIMDEC
 70
     2
  9
$DIMTDEC
 70
     2
  9
$DIMALTU
 70
     2
  9
$DIMALTTD
 70
     3
  9
$DIMTXSTY
  7
Standard
  9
$DIMAUNIT
 70
     0
  9
$DIMADEC
 70
     0
  9
$DIMALTRND
 40
0.0
  9
$DIMAZIN
 70
     0
  9
$DIMDSEP
 70
    44
  9
$DIMATFIT
 70
     3
  9
$DIMFRAC
 70
     0
  9
$DIMLDRBLK
  1

  9
$DIMLUNIT
 70
     2
  9
$DIMLWD
 70
    -2
  9
$DIMLWE
 70
    -2
  9
$DIMTMOVE
 70
     0
  9
$LUNITS
 70
     2
  9
$LUPREC
 70
     4
  9
$SKETCHINC
 40
1.0
  9
$FILLETRAD
 40
10.0
  9
$AUNITS
 70
     0
  9
$AUPREC
 70
     0
  9
$MENU
  1
.
  9
$ELEVATION
 40
0.0
  9
$PELEVATION
 40
0.0
  9
$THICKNESS
 40
0.0
  9
$LIMCHECK
 70
     0
  9
$CHAMFERA
 40
10.0
  9
$CHAMFERB
 40
10.0
  9
$CHAMFERC
 40
20.0
  9
$CHAMFERD
 40
0.0
  9
$SKPOLY
 70
     0
  9
$TDCREATE
 40
2456000.502542859
  9
$TDUCREATE
 40
2456000.460876192
  9
$TDUPDATE
 40
2456000.502542871
  9
$TDUUPDATE
 40
2456000.460876204
  9
$TDINDWG
 40
0.0000000116
  9
$TDUSRTIMER
 40
0.0000000116
  9
$USRTIMER
 70
     1
  9
$ANGBASE
 50
0.0
  9
$ANGDIR
 70
     0
  9
$PDMODE
 70
     0
  9
$PDSIZE
 40
0.0
  9
$PLINEWID
 40
0.0
  9
$SPLFRAME
 70
     0
  9
$SPLINETYPE
 70
     6
  9
$SPLINESEGS
 70
     8
  9
$HANDSEED
  5
782
  9
$SURFTAB1
 70
     6
  9
$SURFTAB2
 70
     6
  9
$SURFTYPE
 70
     6
  9
$SURFU
 70
     6
  9
$SURFV
 70
     6
  9
$UCSBASE
  2

  9
$UCSNAME
  2

  9
$UCSORG
 10
0.0
 20
0.0
 30
0.0
  9
$UCSXDIR
 10
1.0
 20
0.0
 30
0.0
  9
$UCSYDIR
 10
0.0
 20
1.0
 30
0.0
  9
$UCSORTHOREF
  2

  9
$UCSORTHOVIEW
 70
     0
  9
$UCSORGTOP
 10
0.0
 20
0.0
 30
0.0
  9
$UCSORGBOTTOM
 10
0.0
 20
0.0
 30
0.0
  9
$UCSORGLEFT
 10
0.0
 20
0.0
 30
0.0
  9
$UCSORGRIGHT
 10
0.0
 20
0.0
 30
0.0
  9
$UCSORGFRONT
 10
0.0
 20
0.0
 30
0.0
  9
$UCSORGBACK
 10
0.0
 20
0.0
 30
0.0
  9
$PUCSBASE
  2

  9
$PUCSNAME
  2

  9
$PUCSORG
 10
0.0
 20
0.0
 30
0.0
  9
$PUCSXDIR
 10
1.0
 20
0.0
 30
0.0
  9
$PUCSYDIR
 10
0.0
 20
1.0
 30
0.0
  9
$PUCSORTHOREF
  2

  9
$PUCSORTHOVIEW
 70
     0
  9
$PUCSORGTOP
 10
0.0
 20
0.0
 30
0.0
  9
$PUCSORGBOTTOM
 10
0.0
 20
0.0
 30
0.0
  9
$PUCSORGLEFT
 10
0.0
 20
0.0
 30
0.0
  9
$PUCSORGRIGHT
 10
0.0
 20
0.0
 30
0.0
  9
$PUCSORGFRONT
 10
0.0
 20
0.0
 30
0.0
  9
$PUCSORGBACK
 10
0.0
 20
0.0
 30
0.0
  9
$USERI1
 70
     0
  9
$USERI2
 70
     0
  9
$USERI3
 70
     0
  9
$USERI4
 70
     0
  9
$USERI5
 70
     0
  9
$USERR1
 40
0.0
  9
$USERR2
 40
0.0
  9
$USERR3
 40
0.0
  9
$USERR4
 40
0.0
  9
$USERR5
 40
0.0
  9
$WORLDVIEW
 70
     1
  9
$SHADEDGE
 70
     3
  9
$SHADEDIF
 70
    70
  9
$TILEMODE
 70
     1
  9
$MAXACTVP
 70
    64
  9
$PINSBASE
 10
0.0
 20
0.0
 30
0.0
  9
$PLIMCHECK
 70
     0
  9
$PEXTMIN
 10
0.0
 20
0.0
 30
0.0
  9
$PEXTMAX
 10
840.0
 20
594.0
 30
0.0
  9
$PLIMMIN
 10
0.0
 20
0.0
  9
$PLIMMAX
 10
840.0
 20
594.0
  9
$UNITMODE
 70
     0
  9
$VISRETAIN
 70
     1
  9
$PLINEGEN
 70
     0
  9
$PSLTSCALE
 70
     1
  9
$TREEDEPTH
 70
  3020
  9
$CMLSTYLE
  2
Standard
  9
$CMLJUST
 70
     0
  9
$CMLSCALE
 40
20.0
  9
$PROXYGRAPHICS
 70
     1
  9
$MEASUREMENT
 70
     1
  9
$CELWEIGHT
370
    -1
  9
$ENDCAPS
280
     0
  9
$JOINSTYLE
280
     0
  9
$LWDISPLAY
290
     0
  9
$INSUNITS
 70
     4
  9
$HYPERLINKBASE
  1

  9
$STYLESHEET
  1

  9
$XEDIT
290
     1
  9
$CEPSNTYPE
380
     0
  9
$PSTYLEMODE
290
     1
  9
$FINGERPRINTGUID
  2
{FAEB1C30-E019-11D5-929B-00C0DF256EC4}
  9
$VERSIONGUID
  2
{FAEB1C32-E019-11D5-929B-00C0DF256EC4}
  9
$EXTNAMES
290
     1
  9
$PSVPSCALE
 40
0.0
  9
$OLESTARTUP
290
     0
  0
ENDSEC
  0
SECTION
  2
CLASSES
  0
CLASS
  1
ACDBDICTIONARYWDFLT
  2
AcDbDictionaryWithDefault
  3
ObjectDBX Classes
 90
        0
280
     0
281
     0
  0
CLASS
  1
ACDBPLACEHOLDER
  2
AcDbPlaceHolder
  3
ObjectDBX Classes
 90
        0
280
     0
281
     0
  0
CLASS
  1
LAYOUT
  2
AcDbLayout
  3
ObjectDBX Classes
 90
        0
280
     0
281
     0
  0
ENDSEC
  0
SECTION
  2
TABLES
  0
TABLE
  2
VPORT
  5
8
330
0
100
AcDbSymbolTable
 70
     2
  0
VPORT
  5
29
330
8
100
AcDbSymbolTableRecord
100
AcDbViewportTableRecord
  2
*ACTIVE
 70
     0
 10
0.0
 20
0.0
 11
1.0
 21
1.0
 12
420.0
 22
297.0
 13
0.0
 23
0.0
 14
1.0
 24
1.0
 15
0.0
 25
0.0
 16
0.0
 26
0.0
 36
1.0
 17
0.0
 27
0.0
 37
0.0
 40
594.0
 41
1.414141
 42
50.0
 43
0.0
 44
0.0
 50
0.0
 51
0.0
 71
    16
 72
   100
 73
     1
 74
     0
 75
     0
 76
     0
 77
     0
 78
     0
281
     0
 65
     0
110
0.0
120
0.0
130
0.0
111
1.0
121
0.0
131
0.0
112
0.0
122
1.0
132
0.0
 79
     0
146
0.0
  0
ENDTAB
  0
TABLE
  2
LTYPE
  5
5
330
0
100
AcDbSymbolTable
 70
     3
  0
LTYPE
  5
14
330
5
100
AcDbSymbolTableRecord
100
AcDbLinetypeTableRecord
  2
ByBlock
 70
     0
  3

 72
    65
 73
     0
 40
0.0
  0
LTYPE
  5
15
330
5
100
AcDbSymbolTableRecord
100
AcDbLinetypeTableRecord
  2
ByLayer
 70
     0
  3

 72
    65
 73
     0
 40
0.0
  0
LTYPE
  5
16
330
5
100
AcDbSymbolTableRecord
100
AcDbLinetypeTableRecord
  2
Continuous
 70
     0
  3
Solid line
 72
    65
 73
     0
 40
0.0
  0
LTYPE
  5
2A
330
5
100
AcDbSymbolTableRecord
100
AcDbLinetypeTableRecord
  2
DASHED
 70
     0
  3
__ __ __ __ __
 72
    65
 73
     2
 40
6.25
 49
5.0
 74
     4
 75
     0
340
0
 46
1.0
 50
0.0
 44
0.0
 45
0.0
 49
-1.25
 74
     4
 75
     0
340
0
 46
1.0
 50
0.0
 44
0.0
 45
0.0
  0
LTYPE
  5
30
330
5
100
AcDbSymbolTableRecord
100
AcDbLinetypeTableRecord
  2
DASHDOT
 70
     0
  3
__ . __ . __ . __ . __
 72
    65
 73
     4
 40
7.5
 49
5.0
 74
     4
 75
     0
340
0
 46
1.0
 50
0.0
 44
0.0
 45
0.0
 49
-1.25
 74
     4
 75
     0
340
0
 46
1.0
 50
0.0
 44
0.0
 45
0.0
 49
0.0
 74
     4
 75
     0
340
0
 46
1.0
 50
0.0
 44
0.0
 45
0.0
 49
-1.25
 74
     4
 75
     0
340
0
 46
1.0
 50
0.0
 44
0.0
 45
0.0
  0
ENDTAB
  0
TABLE
  2
LAYER
  5
2
330
0
100
AcDbSymbolTable
 70
    10
  0
LAYER
  5
10
330
2
100
AcDbSymbolTableRecord
100
AcDbLayerTableRecord
  2
0
 70
     0
 62
     7
  6
Continuous
370
    -3
390
F
  0
LAYER
  5
2B
330
2
100
AcDbSymbolTableRecord
100
AcDbLayerTableRecord
  2
LC-INFO-1-2-mm-A3-0
 70
     1
 62
     7
  6
ByBlock
370
    -3
390
F
  0
LAYER
  5
2C
330
2
100
AcDbSymbolTableRecord
100
AcDbLayerTableRecord
  2
LC-CUT-HIDDEN
 70
     0
 62
     7
  6
DASHED
370
    -3
390
F
  0
LAYER
  5
2D
330
2
100
AcDbSymbolTableRecord
100
AcDbLayerTableRecord
  2
LC-VIEWPORT
 70
     0
 62
     7
  6
ByBlock
370
    -3
390
F
  0
LAYER
  5
2E
330
2
100
AcDbSymbolTableRecord
100
AcDbLayerTableRecord
  2
LC-3D-HIDDEN
 70
     0
 62
     9
  6
DASHED
370
    -3
390
F
  0
LAYER
  5
31
330
2
100
AcDbSymbolTableRecord
100
AcDbLayerTableRecord
  2
LC-001-002-----0
 70
     0
 62
     2
  6
DASHDOT
370
    -3
390
F
  0
LAYER
  5
33
330
2
100
AcDbSymbolTableRecord
100
AcDbLayerTableRecord
  2
LC-002-100-D00-0
 70
     0
 62
     1
  6
ByBlock
370
    -3
390
F
  0
LAYER
  5
5C3
330
2
100
AcDbSymbolTableRecord
100
AcDbLayerTableRecord
  2
LC-003-101-D00-0
 70
     0
 62
     2
  6
ByBlock
370
    -3
390
F
  0
LAYER
  5
5C5
330
2
100
AcDbSymbolTableRecord
100
AcDbLayerTableRecord
  2
Defpoints
 70
     0
 62
     7
  6
Continuous
290
     0
370
    -3
390
F
  0
LAYER
  5
733
330
2
100
AcDbSymbolTableRecord
100
AcDbLayerTableRecord
  2
LC-004-003-----0
 70
     0
 62
     2
  6
ByBlock
370
    -3
390
F
  0
ENDTAB
  0
TABLE
  2
STYLE
  5
3
330
0
100
AcDbSymbolTable
 70
     3
  0
STYLE
  5
11
330
3
100
AcDbSymbolTableRecord
100
AcDbTextStyleTableRecord
  2
Standard
 70
     0
 40
0.0
 41
1.0
 50
0.0
 71
     0
 42
2.5
  3
txt
  4

  0
STYLE
  5
2F
330
3
100
AcDbSymbolTableRecord
100
AcDbTextStyleTableRecord
  2
LCTX15-400-0-0-Arial
 70
     0
 40
0.0
 41
0.8
 50
0.0
 71
     0
 42
3.5
  3

  4

1001
ACAD
1000
Arial
1071
 16777218
  0
STYLE
  5
5C1
330
3
100
AcDbSymbolTableRecord
100
AcDbTextStyleTableRecord
  2
LCTX15-400-0-0pDIN-Schrift
 70
     0
 40
2.5
 41
0.8
 50
15.0
 71
     0
 42
3.5
  3
STANDARD
  4

  0
ENDTAB
  0
TABLE
  2
VIEW
  5
6
330
0
100
AcDbSymbolTable
 70
     0
  0
ENDTAB
  0
TABLE
  2
UCS
  5
7
330
0
100
AcDbSymbolTable
 70
     0
  0
ENDTAB
  0
TABLE
  2
APPID
  5
9
330
0
100
AcDbSymbolTable
 70
     1
  0
APPID
  5
12
330
9
100
AcDbSymbolTableRecord
100
AcDbRegAppTableRecord
  2
ACAD
 70
     0
  0
ENDTAB
  0
TABLE
  2
DIMSTYLE
  5
A
330
0
100
AcDbSymbolTable
 70
     2
100
AcDbDimStyleTable
  0
DIMSTYLE
105
27
330
A
100
AcDbSymbolTableRecord
100
AcDbDimStyleTableRecord
  2
ISO-25
 70
     0
 41
2.5
 42
0.625
 43
3.75
 44
1.25
 73
     0
 74
     0
 77
     1
 78
     8
140
2.5
141
2.5
143
0.03937
147
0.625
171
     3
172
     1
271
     2
272
     2
274
     3
278
    44
283
     0
284
     8
340
11
  0
DIMSTYLE
105
5C2
102
{ACAD_REACTORS
330
5C4
330
5D4
330
5E3
330
734
330
741
330
74E
330
75B
330
768
330
775
102
}
330
A
100
AcDbSymbolTableRecord
100
AcDbDimStyleTableRecord
  2
LC-DIM-L-0140-02-02
 70
     0
 40
2.0
 41
14.0
 42
0.0
 43
7.5
 44
1.8
 73
     0
 74
     0
 77
     1
 78
     8
 79
     2
140
14.0
141
0.0
146
0.71
147
1.5
176
     2
177
     2
178
     2
179
     2
271
     2
278
    44
289
     1
340
5C1
  0
ENDTAB
  0
TABLE
  2
BLOCK_RECORD
  5
1
330
0
100
AcDbSymbolTable
 70
    69
  0
BLOCK_RECORD
  5
1F
330
1
100
AcDbSymbolTableRecord
100
AcDbBlockTableRecord
  2
*Model_Space
340
22
  0
BLOCK_RECORD
  5
1B
330
1
100
AcDbSymbolTableRecord
100
AcDbBlockTableRecord
  2
*Paper_Space
340
1E
  0
BLOCK_RECORD
  5
23
330
1
100
AcDbSymbolTableRecord
100
AcDbBlockTableRecord
  2
*Paper_Space0
340
26
  0
BLOCK_RECORD
  5
3E
330
1
100
AcDbSymbolTableRecord
100
AcDbBlockTableRecord
  2
POLY1
340
0
102
{BLKREFS
331
4F
102
}
  0
BLOCK_RECORD
  5
5A
330
1
100
AcDbSymbolTableRecord
100
AcDbBlockTableRecord
  2
POLY2
340
0
102
{BLKREFS
331
6D
102
}
  0
BLOCK_RECORD
  5
75
330
1
100
AcDbSymbolTableRecord
100
AcDbBlockTableRecord
  2
POLY3
340
0
102
{BLKREFS
331
86
102
}
  0
BLOCK_RECORD
  5
8E
330
1
100
AcDbSymbolTableRecord
100
AcDbBlockTableRecord
  2
POLY4
340
0
102
{BLKREFS
331
A1
102
}
  0
BLOCK_RECORD
  5
A3
330
1
100
AcDbSymbolTableRecord
100
AcDbBlockTableRecord
  2
POLY5
340
0
102
{BLKREFS
331
AE
102
}
  0
BLOCK_RECORD
  5
B2
330
1
100
AcDbSymbolTableRecord
100
AcDbBlockTableRecord
  2
POLY6
340
0
102
{BLKREFS
331
BD
102
}
  0
BLOCK_RECORD
  5
C0
330
1
100
AcDbSymbolTableRecord
100
AcDbBlockTableRecord
  2
POLY7
340
0
102
{BLKREFS
331
CD
102
}
  0
BLOCK_RECORD
  5
D2
330
1
100
AcDbSymbolTableRecord
100
AcDbBlockTableRecord
  2
POLY8
340
0
102
{BLKREFS
331
DF
102
}
  0
BLOCK_RECORD
  5
E2
330
1
100
AcDbSymbolTableRecord
100
AcDbBlockTableRecord
  2
POLY9
340
0
102
{BLKREFS
331
EF
102
}
  0
BLOCK_RECORD
  5
F2
330
1
100
AcDbSymbolTableRecord
100
AcDbBlockTableRecord
  2
POLY10
340
0
102
{BLKREFS
331
101
102
}
  0
BLOCK_RECORD
  5
128
330
1
100
AcDbSymbolTableRecord
100
AcDbBlockTableRecord
  2
POLY11
340
0
102
{BLKREFS
331
137
102
}
  0
BLOCK_RECORD
  5
139
330
1
100
AcDbSymbolTableRecord
100
AcDbBlockTableRecord
  2
POLY12
340
0
102
{BLKREFS
331
144
102
}
  0
BLOCK_RECORD
  5
146
330
1
100
AcDbSymbolTableRecord
100
AcDbBlockTableRecord
  2
POLY13
340
0
102
{BLKREFS
331
155
102
}
  0
BLOCK_RECORD
  5
157
330
1
100
AcDbSymbolTableRecord
100
AcDbBlockTableRecord
  2
POLY14
340
0
102
{BLKREFS
331
166
102
}
  0
BLOCK_RECORD
  5
167
330
1
100
AcDbSymbolTableRecord
100
AcDbBlockTableRecord
  2
POLY15
340
0
102
{BLKREFS
331
176
102
}
  0
BLOCK_RECORD
  5
177
330
1
100
AcDbSymbolTableRecord
100
AcDbBlockTableRecord
  2
POLY16
340
0
102
{BLKREFS
331
186
102
}
  0
BLOCK_RECORD
  5
187
330
1
100
AcDbSymbolTableRecord
100
AcDbBlockTableRecord
  2
POLY17
340
0
102
{BLKREFS
331
196
102
}
  0
BLOCK_RECORD
  5
198
330
1
100
AcDbSymbolTableRecord
100
AcDbBlockTableRecord
  2
POLY18
340
0
102
{BLKREFS
331
1A7
102
}
  0
BLOCK_RECORD
  5
1AB
330
1
100
AcDbSymbolTableRecord
100
AcDbBlockTableRecord
  2
POLY19
340
0
102
{BLKREFS
331
1B6
102
}
  0
BLOCK_RECORD
  5
1D8
330
1
100
AcDbSymbolTableRecord
100
AcDbBlockTableRecord
  2
POLY20
340
0
102
{BLKREFS
331
1EF
102
}
  0
BLOCK_RECORD
  5
1F0
330
1
100
AcDbSymbolTableRecord
100
AcDbBlockTableRecord
  2
POLY21
340
0
102
{BLKREFS
331
209
102
}
  0
BLOCK_RECORD
  5
21E
330
1
100
AcDbSymbolTableRecord
100
AcDbBlockTableRecord
  2
KLON1
340
0
102
{BLKREFS
331
223
102
}
  0
BLOCK_RECORD
  5
227
330
1
100
AcDbSymbolTableRecord
100
AcDbBlockTableRecord
  2
POLY22
340
0
102
{BLKREFS
331
23A
102
}
  0
BLOCK_RECORD
  5
23B
330
1
100
AcDbSymbolTableRecord
100
AcDbBlockTableRecord
  2
POLY23
340
0
102
{BLKREFS
331
24E
102
}
  0
BLOCK_RECORD
  5
24F
330
1
100
AcDbSymbolTableRecord
100
AcDbBlockTableRecord
  2
POLY24
340
0
102
{BLKREFS
331
26A
102
}
  0
BLOCK_RECORD
  5
26C
330
1
100
AcDbSymbolTableRecord
100
AcDbBlockTableRecord
  2
POLY25
340
0
102
{BLKREFS
331
287
102
}
  0
BLOCK_RECORD
  5
288
330
1
100
AcDbSymbolTableRecord
100
AcDbBlockTableRecord
  2
POLY26
340
0
102
{BLKREFS
331
2BF
102
}
  0
BLOCK_RECORD
  5
2EE
330
1
100
AcDbSymbolTableRecord
100
AcDbBlockTableRecord
  2
POLY27
340
0
102
{BLKREFS
331
2F9
102
}
  0
BLOCK_RECORD
  5
3CE
330
1
100
AcDbSymbolTableRecord
100
AcDbBlockTableRecord
  2
POLY28
340
0
102
{BLKREFS
331
3D9
102
}
  0
BLOCK_RECORD
  5
3DA
330
1
100
AcDbSymbolTableRecord
100
AcDbBlockTableRecord
  2
KLON2
340
0
102
{BLKREFS
331
3DF
102
}
  0
BLOCK_RECORD
  5
3E0
330
1
100
AcDbSymbolTableRecord
100
AcDbBlockTableRecord
  2
POLY29
340
0
102
{BLKREFS
331
3F1
102
}
  0
BLOCK_RECORD
  5
3F3
330
1
100
AcDbSymbolTableRecord
100
AcDbBlockTableRecord
  2
POLY30
340
0
102
{BLKREFS
331
408
102
}
  0
BLOCK_RECORD
  5
40D
330
1
100
AcDbSymbolTableRecord
100
AcDbBlockTableRecord
  2
KLON3
340
0
102
{BLKREFS
331
412
102
}
  0
BLOCK_RECORD
  5
415
330
1
100
AcDbSymbolTableRecord
100
AcDbBlockTableRecord
  2
POLY31
340
0
102
{BLKREFS
331
426
102
}
  0
BLOCK_RECORD
  5
427
330
1
100
AcDbSymbolTableRecord
100
AcDbBlockTableRecord
  2
KLON4
340
0
102
{BLKREFS
331
42C
102
}
  0
BLOCK_RECORD
  5
42F
330
1
100
AcDbSymbolTableRecord
100
AcDbBlockTableRecord
  2
POLY32
340
0
102
{BLKREFS
331
442
102
}
  0
BLOCK_RECORD
  5
44C
330
1
100
AcDbSymbolTableRecord
100
AcDbBlockTableRecord
  2
POLY33
340
0
102
{BLKREFS
331
45F
102
}
  0
BLOCK_RECORD
  5
480
330
1
100
AcDbSymbolTableRecord
100
AcDbBlockTableRecord
  2
POLY34
340
0
102
{BLKREFS
331
493
102
}
  0
BLOCK_RECORD
  5
49A
330
1
100
AcDbSymbolTableRecord
100
AcDbBlockTableRecord
  2
POLY35
340
0
102
{BLKREFS
331
4AD
102
}
  0
BLOCK_RECORD
  5
4CB
330
1
100
AcDbSymbolTableRecord
100
AcDbBlockTableRecord
  2
POLY36
340
0
102
{BLKREFS
331
4DE
102
}
  0
BLOCK_RECORD
  5
4E0
330
1
100
AcDbSymbolTableRecord
100
AcDbBlockTableRecord
  2
POLY37
340
0
102
{BLKREFS
331
4F1
102
}
  0
BLOCK_RECORD
  5
4F4
330
1
100
AcDbSymbolTableRecord
100
AcDbBlockTableRecord
  2
POLY38
340
0
102
{BLKREFS
331
505
102
}
  0
BLOCK_RECORD
  5
506
330
1
100
AcDbSymbolTableRecord
100
AcDbBlockTableRecord
  2
KLON5
340
0
102
{BLKREFS
331
50B
102
}
  0
BLOCK_RECORD
  5
50C
330
1
100
AcDbSymbolTableRecord
100
AcDbBlockTableRecord
  2
POLY39
340
0
102
{BLKREFS
331
517
102
}
  0
BLOCK_RECORD
  5
51D
330
1
100
AcDbSymbolTableRecord
100
AcDbBlockTableRecord
  2
KLON6
340
0
102
{BLKREFS
331
522
102
}
  0
BLOCK_RECORD
  5
523
330
1
100
AcDbSymbolTableRecord
100
AcDbBlockTableRecord
  2
KLON7
340
0
102
{BLKREFS
331
528
102
}
  0
BLOCK_RECORD
  5
539
330
1
100
AcDbSymbolTableRecord
100
AcDbBlockTableRecord
  2
POLY40
340
0
102
{BLKREFS
331
546
102
}
  0
BLOCK_RECORD
  5
549
330
1
100
AcDbSymbolTableRecord
100
AcDbBlockTableRecord
  2
POLY41
340
0
102
{BLKREFS
331
554
102
}
  0
BLOCK_RECORD
  5
558
330
1
100
AcDbSymbolTableRecord
100
AcDbBlockTableRecord
  2
POLY42
340
0
102
{BLKREFS
331
563
102
}
  0
BLOCK_RECORD
  5
567
330
1
100
AcDbSymbolTableRecord
100
AcDbBlockTableRecord
  2
POLY43
340
0
102
{BLKREFS
331
574
102
}
  0
BLOCK_RECORD
  5
598
330
1
100
AcDbSymbolTableRecord
100
AcDbBlockTableRecord
  2
KLON8
340
0
102
{BLKREFS
331
59E
102
}
  0
BLOCK_RECORD
  5
59F
330
1
100
AcDbSymbolTableRecord
100
AcDbBlockTableRecord
  2
KLON9
340
0
102
{BLKREFS
331
5A5
102
}
  0
BLOCK_RECORD
  5
5A7
330
1
100
AcDbSymbolTableRecord
100
AcDbBlockTableRecord
  2
KLON10
340
0
102
{BLKREFS
331
5AF
102
}
  0
BLOCK_RECORD
  5
5B3
330
1
100
AcDbSymbolTableRecord
100
AcDbBlockTableRecord
  2
KLON11
340
0
102
{BLKREFS
331
5B9
102
}
  0
BLOCK_RECORD
  5
5BA
330
1
100
AcDbSymbolTableRecord
100
AcDbBlockTableRecord
  2
KLON12
340
0
102
{BLKREFS
331
5C0
102
}
  0
BLOCK_RECORD
  5
5C6
330
1
100
AcDbSymbolTableRecord
100
AcDbBlockTableRecord
  2
*D56
340
0
  0
BLOCK_RECORD
  5
5D5
330
1
100
AcDbSymbolTableRecord
100
AcDbBlockTableRecord
  2
*D57
340
0
  0
BLOCK_RECORD
  5
5E4
330
1
100
AcDbSymbolTableRecord
100
AcDbBlockTableRecord
  2
*D58
340
0
  0
BLOCK_RECORD
  5
5F2
330
1
100
AcDbSymbolTableRecord
100
AcDbBlockTableRecord
  2
*X159
340
0
102
{BLKREFS
331
668
102
}
  0
BLOCK_RECORD
  5
669
330
1
100
AcDbSymbolTableRecord
100
AcDbBlockTableRecord
  2
*X260
340
0
102
{BLKREFS
331
6D8
102
}
  0
BLOCK_RECORD
  5
6D9
330
1
100
AcDbSymbolTableRecord
100
AcDbBlockTableRecord
  2
*X361
340
0
102
{BLKREFS
331
703
102
}
  0
BLOCK_RECORD
  5
704
330
1
100
AcDbSymbolTableRecord
100
AcDbBlockTableRecord
  2
*X462
340
0
102
{BLKREFS
331
732
102
}
  0
BLOCK_RECORD
  5
735
330
1
100
AcDbSymbolTableRecord
100
AcDbBlockTableRecord
  2
*D63
340
0
  0
BLOCK_RECORD
  5
742
330
1
100
AcDbSymbolTableRecord
100
AcDbBlockTableRecord
  2
*D64
340
0
  0
BLOCK_RECORD
  5
74F
330
1
100
AcDbSymbolTableRecord
100
AcDbBlockTableRecord
  2
*D65
340
0
  0
BLOCK_RECORD
  5
75C
330
1
100
AcDbSymbolTableRecord
100
AcDbBlockTableRecord
  2
*D66
340
0
  0
BLOCK_RECORD
  5
769
330
1
100
AcDbSymbolTableRecord
100
AcDbBlockTableRecord
  2
*D67
340
0
  0
BLOCK_RECORD
  5
776
330
1
100
AcDbSymbolTableRecord
100
AcDbBlockTableRecord
  2
*D68
340
0
  0
ENDTAB
  0
ENDSEC
  0
SECTION
  2
BLOCKS
  0
BLOCK
  5
20
330
1F
100
AcDbEntity
  8
0
100
AcDbBlockBegin
  2
*Model_Space
 70
     0
 71
     0
 10
0.0
 20
0.0
 30
0.0
  3
*Model_Space
  1

  0
ENDBLK
  5
21
330
1F
100
AcDbEntity
  8
0
100
AcDbBlockEnd
  0
BLOCK
  5
1C
330
1B
100
AcDbEntity
 67
     1
  8
0
100
AcDbBlockBegin
  2
*Paper_Space
 70
     0
 71
     0
 10
0.0
 20
0.0
 30
0.0
  3
*Paper_Space
  1

  0
ENDBLK
  5
1D
330
1B
100
AcDbEntity
 67
     1
  8
0
100
AcDbBlockEnd
  0
BLOCK
  5
24
330
23
100
AcDbEntity
  8
0
100
AcDbBlockBegin
  2
*Paper_Space0
 70
     0
 71
     0
 10
0.0
 20
0.0
 30
0.0
  3
*Paper_Space0
  1

  0
ENDBLK
  5
25
330
23
100
AcDbEntity
  8
0
100
AcDbBlockEnd
  0
BLOCK
  5
3F
330
3E
100
AcDbEntity
  8
0
100
AcDbBlockBegin
  2
POLY1
 70
     0
 71
     0
 10
0.0
 20
0.0
 30
0.0
  3
POLY1
  1

  4
POLY1
  0
LINE
  5
41
330
3E
100
AcDbEntity
  8
LC-002-100-D00-0
 62
     7
370
    50
100
AcDbLine
 10
419.04197
 20
339.500003
 30
0.0
 11
419.04197
 21
339.500003
 31
0.0
  0
LINE
  5
42
330
3E
100
AcDbEntity
  8
LC-002-100-D00-0
 62
     7
370
    50
100
AcDbLine
 10
419.04197
 20
339.500003
 30
0.0
 11
420.107097
 21
339.400565
 31
0.0
  0
LINE
  5
43
330
3E
100
AcDbEntity
  8
LC-002-100-D00-0
 62
     7
370
    50
100
AcDbLine
 10
420.107097
 20
339.400565
 30
0.0
 11
420.107097
 21
339.400565
 31
0.0
  0
LINE
  5
44
330
3E
100
AcDbEntity
  8
LC-002-100-D00-0
 62
     7
370
    50
100
AcDbLine
 10
420.107097
 20
339.400565
 30
0.0
 11
422.29583
 21
339.19623
 31
0.0
  0
LINE
  5
45
330
3E
100
AcDbEntity
  8
LC-002-100-D00-0
 62
     7
370
    50
100
AcDbLine
 10
422.29583
 20
339.19623
 30
0.0
 11
422.29583
 21
339.19623
 31
0.0
  0
LINE
  5
46
330
3E
100
AcDbEntity
  8
LC-002-100-D00-0
 62
     7
370
    50
100
AcDbLine
 10
422.29583
 20
339.19623
 30
0.0
 11
425.269814
 21
337.556185
 31
0.0
  0
LINE
  5
47
330
3E
100
AcDbEntity
  8
LC-002-100-D00-0
 62
     7
370
    50
100
AcDbLine
 10
425.269814
 20
337.556185
 30
0.0
 11
425.269814
 21
337.556185
 31
0.0
  0
LINE
  5
48
330
3E
100
AcDbEntity
  8
LC-002-100-D00-0
 62
     7
370
    50
100
AcDbLine
 10
425.269814
 20
337.556185
 30
0.0
 11
427.575474
 21
335.058745
 31
0.0
  0
LINE
  5
49
330
3E
100
AcDbEntity
  8
LC-002-100-D00-0
 62
     7
370
    50
100
AcDbLine
 10
427.575474
 20
335.058745
 30
0.0
 11
427.575474
 21
335.058745
 31
0.0
  0
LINE
  5
4A
330
3E
100
AcDbEntity
  8
LC-002-100-D00-0
 62
     7
370
    50
100
AcDbLine
 10
427.575474
 20
335.058745
 30
0.0
 11
428.850019
 21
332.213532
 31
0.0
  0
LINE
  5
4B
330
3E
100
AcDbEntity
  8
LC-002-100-D00-0
 62
     7
370
    50
100
AcDbLine
 10
428.850019
 20
332.213532
 30
0.0
 11
428.850019
 21
332.213532
 31
0.0
  0
LINE
  5
4C
330
3E
100
AcDbEntity
  8
LC-002-100-D00-0
 62
     7
370
    50
100
AcDbLine
 10
428.850019
 20
332.213532
 30
0.0
 11
428.985691
 21
330.296205
 31
0.0
  0
LINE
  5
4D
330
3E
100
AcDbEntity
  8
LC-002-100-D00-0
 62
     7
370
    50
100
AcDbLine
 10
428.985691
 20
330.296205
 30
0.0
 11
428.985691
 21
330.296205
 31
0.0
  0
LINE
  5
4E
330
3E
100
AcDbEntity
  8
LC-002-100-D00-0
 62
     7
370
    50
100
AcDbLine
 10
428.985691
 20
330.296205
 30
0.0
 11
429.042031
 21
329.500003
 31
0.0
  0
ENDBLK
  5
40
330
3E
100
AcDbEntity
  8
0
100
AcDbBlockEnd
  0
BLOCK
  5
5B
330
5A
100
AcDbEntity
  8
0
100
AcDbBlockBegin
  2
POLY2
 70
     0
 71
     0
 10
0.0
 20
0.0
 30
0.0
  3
POLY2
  1

  4
POLY2
  0
LINE
  5
5D
330
5A
100
AcDbEntity
  8
LC-002-100-D00-0
 62
     7
370
    50
100
AcDbLine
 10
363.542423
 20
341.500003
 30
0.0
 11
363.542423
 21
341.500003
 31
0.0
  0
LINE
  5
5E
330
5A
100
AcDbEntity
  8
LC-002-100-D00-0
 62
     7
370
    50
100
AcDbLine
 10
363.542423
 20
341.500003
 30
0.0
 11
362.40739
 21
341.405369
 31
0.0
  0
LINE
  5
5F
330
5A
100
AcDbEntity
  8
LC-002-100-D00-0
 62
     7
370
    50
100
AcDbLine
 10
362.40739
 20
341.405369
 30
0.0
 11
362.40739
 21
341.405369
 31
0.0
  0
LINE
  5
60
330
5A
100
AcDbEntity
  8
LC-002-100-D00-0
 62
     7
370
    50
100
AcDbLine
 10
362.40739
 20
341.405369
 30
0.0
 11
359.925104
 21
341.198406
 31
0.0
  0
LINE
  5
61
330
5A
100
AcDbEntity
  8
LC-002-100-D00-0
 62
     7
370
    50
100
AcDbLine
 10
359.925104
 20
341.198406
 30
0.0
 11
359.925104
 21
341.198406
 31
0.0
  0
LINE
  5
62
330
5A
100
AcDbEntity
  8
LC-002-100-D00-0
 62
     7
370
    50
100
AcDbLine
 10
359.925104
 20
341.198406
 30
0.0
 11
356.424747
 21
339.43117
 31
0.0
  0
LINE
  5
63
330
5A
100
AcDbEntity
  8
LC-002-100-D00-0
 62
     7
370
    50
100
AcDbLine
 10
356.424747
 20
339.43117
 30
0.0
 11
356.424747
 21
339.43117
 31
0.0
  0
LINE
  5
64
330
5A
100
AcDbEntity
  8
LC-002-100-D00-0
 62
     7
370
    50
100
AcDbLine
 10
356.424747
 20
339.43117
 30
0.0
 11
353.891895
 21
336.889833
 31
0.0
  0
LINE
  5
65
330
5A
100
AcDbEntity
  8
LC-002-100-D00-0
 62
     7
370
    50
100
AcDbLine
 10
353.891895
 20
336.889833
 30
0.0
 11
353.891895
 21
336.889833
 31
0.0
  0
LINE
  5
66
330
5A
100
AcDbEntity
  8
LC-002-100-D00-0
 62
     7
370
    50
100
AcDbLine
 10
353.891895
 20
336.889833
 30
0.0
 11
352.173789
 21
333.786911
 31
0.0
  0
LINE
  5
67
330
5A
100
AcDbEntity
  8
LC-002-100-D00-0
 62
     7
370
    50
100
AcDbLine
 10
352.173789
 20
333.786911
 30
0.0
 11
352.173789
 21
333.786911
 31
0.0
  0
LINE
  5
68
330
5A
100
AcDbEntity
  8
LC-002-100-D00-0
 62
     7
370
    50
100
AcDbLine
 10
352.173789
 20
333.786911
 30
0.0
 11
351.579862
 21
331.35691
 31
0.0
  0
LINE
  5
69
330
5A
100
AcDbEntity
  8
LC-002-100-D00-0
 62
     7
370
    50
100
AcDbLine
 10
351.579862
 20
331.35691
 30
0.0
 11
351.579862
 21
331.35691
 31
0.0
  0
LINE
  5
6A
330
5A
100
AcDbEntity
  8
LC-002-100-D00-0
 62
     7
370
    50
100
AcDbLine
 10
351.579862
 20
331.35691
 30
0.0
 11
351.547547
 21
329.757113
 31
0.0
  0
LINE
  5
6B
330
5A
100
AcDbEntity
  8
LC-002-100-D00-0
 62
     7
370
    50
100
AcDbLine
 10
351.547547
 20
329.757113
 30
0.0
 11
351.547547
 21
329.757113
 31
0.0
  0
LINE
  5
6C
330
5A
100
AcDbEntity
  8
LC-002-100-D00-0
 62
     7
370
    50
100
AcDbLine
 10
351.547547
 20
329.757113
 30
0.0
 11
351.542354
 21
329.500003
 31
0.0
  0
ENDBLK
  5
5C
330
5A
100
AcDbEntity
  8
0
100
AcDbBlockEnd
  0
BLOCK
  5
76
330
75
100
AcDbEntity
  8
0
100
AcDbBlockBegin
  2
POLY3
 70
     0
 71
     0
 10
0.0
 20
0.0
 30
0.0
  3
POLY3
  1

  4
POLY3
  0
LINE
  5
78
330
75
100
AcDbEntity
  8
LC-002-100-D00-0
 62
     7
370
    50
100
AcDbLine
 10
430.542035
 20
329.500003
 30
0.0
 11
430.542035
 21
329.500003
 31
0.0
  0
LINE
  5
79
330
75
100
AcDbEntity
  8
LC-002-100-D00-0
 62
     7
370
    50
100
AcDbLine
 10
430.542035
 20
329.500003
 30
0.0
 11
430.409467
 21
330.848647
 31
0.0
  0
LINE
  5
7A
330
75
100
AcDbEntity
  8
LC-002-100-D00-0
 62
     7
370
    50
100
AcDbLine
 10
430.409467
 20
330.848647
 30
0.0
 11
430.409467
 21
330.848647
 31
0.0
  0
LINE
  5
7B
330
75
100
AcDbEntity
  8
LC-002-100-D00-0
 62
     7
370
    50
100
AcDbLine
 10
430.409467
 20
330.848647
 30
0.0
 11
430.144286
 21
333.546369
 31
0.0
  0
LINE
  5
7C
330
75
100
AcDbEntity
  8
LC-002-100-D00-0
 62
     7
370
    50
100
AcDbLine
 10
430.144286
 20
333.546369
 30
0.0
 11
430.144286
 21
333.546369
 31
0.0
  0
LINE
  5
7D
330
75
100
AcDbEntity
  8
LC-002-100-D00-0
 62
     7
370
    50
100
AcDbLine
 10
430.144286
 20
333.546369
 30
0.0
 11
428.076003
 21
337.14229
 31
0.0
  0
LINE
  5
7E
330
75
100
AcDbEntity
  8
LC-002-100-D00-0
 62
     7
370
    50
100
AcDbLine
 10
428.076003
 20
337.14229
 30
0.0
 11
428.076003
 21
337.14229
 31
0.0
  0
LINE
  5
7F
330
75
100
AcDbEntity
  8
LC-002-100-D00-0
 62
     7
370
    50
100
AcDbLine
 10
428.076003
 20
337.14229
 30
0.0
 11
425.031341
 21
339.856462
 31
0.0
  0
LINE
  5
80
330
75
100
AcDbEntity
  8
LC-002-100-D00-0
 62
     7
370
    50
100
AcDbLine
 10
425.031341
 20
339.856462
 30
0.0
 11
425.031341
 21
339.856462
 31
0.0
  0
LINE
  5
81
330
75
100
AcDbEntity
  8
LC-002-100-D00-0
 62
     7
370
    50
100
AcDbLine
 10
425.031341
 20
339.856462
 30
0.0
 11
421.656989
 21
341.294994
 31
0.0
  0
LINE
  5
82
330
75
100
AcDbEntity
  8
LC-002-100-D00-0
 62
     7
370
    50
100
AcDbLine
 10
421.656989
 20
341.294994
 30
0.0
 11
421.656989
 21
341.294994
 31
0.0
  0
LINE
  5
83
330
75
100
AcDbEntity
  8
LC-002-100-D00-0
 62
     7
370
    50
100
AcDbLine
 10
421.656989
 20
341.294994
 30
0.0
 11
419.427058
 21
341.441753
 31
0.0
  0
LINE
  5
84
330
75
100
AcDbEntity
  8
LC-002-100-D00-0
 62
     7
370
    50
100
AcDbLine
 10
419.427058
 20
341.441753
 30
0.0
 11
419.427058
 21
341.441753
 31
0.0
  0
LINE
  5
85
330
75
100
AcDbEntity
  8
LC-002-100-D00-0
 62
     7
370
    50
100
AcDbLine
 10
419.427058
 20
341.441753
 30
0.0
 11
418.541966
 21
341.500003
 31
0.0
  0
ENDBLK
  5
77
330
75
100
AcDbEntity
  8
0
100
AcDbBlockEnd
  0
BLOCK
  5
8F
330
8E
100
AcDbEntity
  8
0
100
AcDbBlockBegin
  2
POLY4
 70
     0
 71
     0
 10
0.0
 20
0.0
 30
0.0
  3
POLY4
  1

  4
POLY4
  0
LINE
  5
91
330
8E
100
AcDbEntity
  8
LC-002-100-D00-0
 62
     7
370
    50
100
AcDbLine
 10
410.827162
 20
329.500003
 30
0.0
 11
410.827162
 21
329.500003
 31
0.0
  0
LINE
  5
92
330
8E
100
AcDbEntity
  8
LC-002-100-D00-0
 62
     7
370
    50
100
AcDbLine
 10
410.827162
 20
329.500003
 30
0.0
 11
410.82737
 21
329.536854
 31
0.0
  0
LINE
  5
93
330
8E
100
AcDbEntity
  8
LC-002-100-D00-0
 62
     7
370
    50
100
AcDbLine
 10
410.82737
 20
329.536854
 30
0.0
 11
410.82737
 21
329.536854
 31
0.0
  0
LINE
  5
94
330
8E
100
AcDbEntity
  8
LC-002-100-D00-0
 62
     7
370
    50
100
AcDbLine
 10
410.82737
 20
329.536854
 30
0.0
 11
410.833891
 21
330.692491
 31
0.0
  0
LINE
  5
95
330
8E
100
AcDbEntity
  8
LC-002-100-D00-0
 62
     7
370
    50
100
AcDbLine
 10
410.833891
 20
330.692491
 30
0.0
 11
410.833891
 21
330.692491
 31
0.0
  0
LINE
  5
96
330
8E
100
AcDbEntity
  8
LC-002-100-D00-0
 62
     7
370
    50
100
AcDbLine
 10
410.833891
 20
330.692491
 30
0.0
 11
410.642282
 21
332.980072
 31
0.0
  0
LINE
  5
97
330
8E
100
AcDbEntity
  8
LC-002-100-D00-0
 62
     7
370
    50
100
AcDbLine
 10
410.642282
 20
332.980072
 30
0.0
 11
410.642282
 21
332.980072
 31
0.0
  0
LINE
  5
98
330
8E
100
AcDbEntity
  8
LC-002-100-D00-0
 62
     7
370
    50
100
AcDbLine
 10
410.642282
 20
332.980072
 30
0.0
 11
409.819201
 21
335.9547
 31
0.0
  0
LINE
  5
99
330
8E
100
AcDbEntity
  8
LC-002-100-D00-0
 62
     7
370
    50
100
AcDbLine
 10
409.819201
 20
335.9547
 30
0.0
 11
409.819201
 21
335.9547
 31
0.0
  0
LINE
  5
9A
330
8E
100
AcDbEntity
  8
LC-002-100-D00-0
 62
     7
370
    50
100
AcDbLine
 10
409.819201
 20
335.9547
 30
0.0
 11
408.54577
 21
338.189212
 31
0.0
  0
LINE
  5
9B
330
8E
100
AcDbEntity
  8
LC-002-100-D00-0
 62
     7
370
    50
100
AcDbLine
 10
408.54577
 20
338.189212
 30
0.0
 11
408.54577
 21
338.189212
 31
0.0
  0
LINE
  5
9C
330
8E
100
AcDbEntity
  8
LC-002-100-D00-0
 62
     7
370
    50
100
AcDbLine
 10
408.54577
 20
338.189212
 30
0.0
 11
407.160745
 21
339.341644
 31
0.0
  0
LINE
  5
9D
330
8E
100
AcDbEntity
  8
LC-002-100-D00-0
 62
     7
370
    50
100
AcDbLine
 10
407.160745
 20
339.341644
 30
0.0
 11
407.160745
 21
339.341644
 31
0.0
  0
LINE
  5
9E
330
8E
100
AcDbEntity
  8
LC-002-100-D00-0
 62
     7
370
    50
100
AcDbLine
 10
407.160745
 20
339.341644
 30
0.0
 11
406.249964
 21
339.45598
 31
0.0
  0
LINE
  5
9F
330
8E
100
AcDbEntity
  8
LC-002-100-D00-0
 62
     7
370
    50
100
AcDbLine
 10
406.249964
 20
339.45598
 30
0.0
 11
406.249964
 21
339.45598
 31
0.0
  0
LINE
  5
A0
330
8E
100
AcDbEntity
  8
LC-002-100-D00-0
 62
     7
370
    50
100
AcDbLine
 10
406.249964
 20
339.45598
 30
0.0
 11
405.899289
 21
339.500003
 31
0.0
  0
ENDBLK
  5
90
330
8E
100
AcDbEntity
  8
0
100
AcDbBlockEnd
  0
BLOCK
  5
A4
330
A3
100
AcDbEntity
  8
0
100
AcDbBlockBegin
  2
POLY5
 70
     0
 71
     0
 10
0.0
 20
0.0
 30
0.0
  3
POLY5
  1

  4
POLY5
  0
LINE
  5
A6
330
A3
100
AcDbEntity
  8
LC-002-100-D00-0
 62
     7
370
    50
100
AcDbLine
 10
404.940339
 20
341.600003
 30
0.0
 11
404.940339
 21
341.600003
 31
0.0
  0
LINE
  5
A7
330
A3
100
AcDbEntity
  8
LC-002-100-D00-0
 62
     7
370
    50
100
AcDbLine
 10
404.940339
 20
341.600003
 30
0.0
 11
404.91098
 21
341.600003
 31
0.0
  0
LINE
  5
A8
330
A3
100
AcDbEntity
  8
LC-002-100-D00-0
 62
     7
370
    50
100
AcDbLine
 10
404.91098
 20
341.600003
 30
0.0
 11
404.91098
 21
341.600003
 31
0.0
  0
LINE
  5
A9
330
A3
100
AcDbEntity
  8
LC-002-100-D00-0
 62
     7
370
    50
100
AcDbLine
 10
404.91098
 20
341.600003
 30
0.0
 11
404.864977
 21
341.600003
 31
0.0
  0
LINE
  5
AA
330
A3
100
AcDbEntity
  8
LC-002-100-D00-0
 62
     7
370
    50
100
AcDbLine
 10
404.864977
 20
341.600003
 30
0.0
 11
404.864977
 21
341.600003
 31
0.0
  0
LINE
  5
AB
330
A3
100
AcDbEntity
  8
LC-002-100-D00-0
 62
     7
370
    50
100
AcDbLine
 10
404.864977
 20
341.600003
 30
0.0
 11
404.809226
 21
341.600003
 31
0.0
  0
LINE
  5
AC
330
A3
100
AcDbEntity
  8
LC-002-100-D00-0
 62
     7
370
    50
100
AcDbLine
 10
404.809226
 20
341.600003
 30
0.0
 11
404.809226
 21
341.600003
 31
0.0
  0
LINE
  5
AD
330
A3
100
AcDbEntity
  8
LC-002-100-D00-0
 62
     7
370
    50
100
AcDbLine
 10
404.809226
 20
341.600003
 30
0.0
 11
404.789053
 21
341.600003
 31
0.0
  0
ENDBLK
  5
A5
330
A3
100
AcDbEntity
  8
0
100
AcDbBlockEnd
  0
BLOCK
  5
B3
330
B2
100
AcDbEntity
  8
0
100
AcDbBlockBegin
  2
POLY6
 70
     0
 71
     0
 10
0.0
 20
0.0
 30
0.0
  3
POLY6
  1

  4
POLY6
  0
LINE
  5
B5
330
B2
100
AcDbEntity
  8
LC-002-100-D00-0
 62
     7
370
    50
100
AcDbLine
 10
393.162704
 20
341.600003
 30
0.0
 11
393.162704
 21
341.600003
 31
0.0
  0
LINE
  5
B6
330
B2
100
AcDbEntity
  8
LC-002-100-D00-0
 62
     7
370
    50
100
AcDbLine
 10
393.162704
 20
341.600003
 30
0.0
 11
392.967276
 21
341.600003
 31
0.0
  0
LINE
  5
B7
330
B2
100
AcDbEntity
  8
LC-002-100-D00-0
 62
     7
370
    50
100
AcDbLine
 10
392.967276
 20
341.600003
 30
0.0
 11
392.967276
 21
341.600003
 31
0.0
  0
LINE
  5
B8
330
B2
100
AcDbEntity
  8
LC-002-100-D00-0
 62
     7
370
    50
100
AcDbLine
 10
392.967276
 20
341.600003
 30
0.0
 11
392.618123
 21
341.600003
 31
0.0
  0
LINE
  5
B9
330
B2
100
AcDbEntity
  8
LC-002-100-D00-0
 62
     7
370
    50
100
AcDbLine
 10
392.618123
 20
341.600003
 30
0.0
 11
392.618123
 21
341.600003
 31
0.0
  0
LINE
  5
BA
330
B2
100
AcDbEntity
  8
LC-002-100-D00-0
 62
     7
370
    50
100
AcDbLine
 10
392.618123
 20
341.600003
 30
0.0
 11
392.226651
 21
341.600003
 31
0.0
  0
LINE
  5
BB
330
B2
100
AcDbEntity
  8
LC-002-100-D00-0
 62
     7
370
    50
100
AcDbLine
 10
392.226651
 20
341.600003
 30
0.0
 11
392.226651
 21
341.600003
 31
0.0
  0
LINE
  5
BC
330
B2
100
AcDbEntity
  8
LC-002-100-D00-0
 62
     7
370
    50
100
AcDbLine
 10
392.226651
 20
341.600003
 30
0.0
 11
392.054294
 21
341.600003
 31
0.0
  0
ENDBLK
  5
B4
330
B2
100
AcDbEntity
  8
0
100
AcDbBlockEnd
  0
BLOCK
  5
C1
330
C0
100
AcDbEntity
  8
0
100
AcDbBlockBegin
  2
POLY7
 70
     0
 71
     0
 10
0.0
 20
0.0
 30
0.0
  3
POLY7
  1

  4
POLY7
  0
LINE
  5
C3
330
C0
100
AcDbEntity
  8
LC-002-100-D00-0
 62
     7
370
    50
100
AcDbLine
 10
385.46104
 20
341.600003
 30
0.0
 11
385.46104
 21
341.600003
 31
0.0
  0
LINE
  5
C4
330
C0
100
AcDbEntity
  8
LC-002-100-D00-0
 62
     7
370
    50
100
AcDbLine
 10
385.46104
 20
341.600003
 30
0.0
 11
385.414022
 21
341.600003
 31
0.0
  0
LINE
  5
C5
330
C0
100
AcDbEntity
  8
LC-002-100-D00-0
 62
     7
370
    50
100
AcDbLine
 10
385.414022
 20
341.600003
 30
0.0
 11
385.414022
 21
341.600003
 31
0.0
  0
LINE
  5
C6
330
C0
100
AcDbEntity
  8
LC-002-100-D00-0
 62
     7
370
    50
100
AcDbLine
 10
385.414022
 20
341.600003
 30
0.0
 11
385.319806
 21
341.600003
 31
0.0
  0
LINE
  5
C7
330
C0
100
AcDbEntity
  8
LC-002-100-D00-0
 62
     7
370
    50
100
AcDbLine
 10
385.319806
 20
341.600003
 30
0.0
 11
385.319806
 21
341.600003
 31
0.0
  0
LINE
  5
C8
330
C0
100
AcDbEntity
  8
LC-002-100-D00-0
 62
     7
370
    50
100
AcDbLine
 10
385.319806
 20
341.600003
 30
0.0
 11
385.003913
 21
341.600003
 31
0.0
  0
LINE
  5
C9
330
C0
100
AcDbEntity
  8
LC-002-100-D00-0
 62
     7
370
    50
100
AcDbLine
 10
385.003913
 20
341.600003
 30
0.0
 11
385.003913
 21
341.600003
 31
0.0
  0
LINE
  5
CA
330
C0
100
AcDbEntity
  8
LC-002-100-D00-0
 62
     7
370
    50
100
AcDbLine
 10
385.003913
 20
341.600003
 30
0.0
 11
384.757064
 21
341.600003
 31
0.0
  0
LINE
  5
CB
330
C0
100
AcDbEntity
  8
LC-002-100-D00-0
 62
     7
370
    50
100
AcDbLine
 10
384.757064
 20
341.600003
 30
0.0
 11
384.757064
 21
341.600003
 31
0.0
  0
LINE
  5
CC
330
C0
100
AcDbEntity
  8
LC-002-100-D00-0
 62
     7
370
    50
100
AcDbLine
 10
384.757064
 20
341.600003
 30
0.0
 11
384.60617
 21
341.600003
 31
0.0
  0
ENDBLK
  5
C2
330
C0
100
AcDbEntity
  8
0
100
AcDbBlockEnd
  0
BLOCK
  5
D3
330
D2
100
AcDbEntity
  8
0
100
AcDbBlockBegin
  2
POLY8
 70
     0
 71
     0
 10
0.0
 20
0.0
 30
0.0
  3
POLY8
  1

  4
POLY8
  0
LINE
  5
D5
330
D2
100
AcDbEntity
  8
LC-002-100-D00-0
 62
     7
370
    50
100
AcDbLine
 10
395.312848
 20
341.600003
 30
0.0
 11
395.312848
 21
341.600003
 31
0.0
  0
LINE
  5
D6
330
D2
100
AcDbEntity
  8
LC-002-100-D00-0
 62
     7
370
    50
100
AcDbLine
 10
395.312848
 20
341.600003
 30
0.0
 11
395.26583
 21
341.600003
 31
0.0
  0
LINE
  5
D7
330
D2
100
AcDbEntity
  8
LC-002-100-D00-0
 62
     7
370
    50
100
AcDbLine
 10
395.26583
 20
341.600003
 30
0.0
 11
395.26583
 21
341.600003
 31
0.0
  0
LINE
  5
D8
330
D2
100
AcDbEntity
  8
LC-002-100-D00-0
 62
     7
370
    50
100
AcDbLine
 10
395.26583
 20
341.600003
 30
0.0
 11
395.171614
 21
341.600003
 31
0.0
  0
LINE
  5
D9
330
D2
100
AcDbEntity
  8
LC-002-100-D00-0
 62
     7
370
    50
100
AcDbLine
 10
395.171614
 20
341.600003
 30
0.0
 11
395.171614
 21
341.600003
 31
0.0
  0
LINE
  5
DA
330
D2
100
AcDbEntity
  8
LC-002-100-D00-0
 62
     7
370
    50
100
AcDbLine
 10
395.171614
 20
341.600003
 30
0.0
 11
394.85572
 21
341.600003
 31
0.0
  0
LINE
  5
DB
330
D2
100
AcDbEntity
  8
LC-002-100-D00-0
 62
     7
370
    50
100
AcDbLine
 10
394.85572
 20
341.600003
 30
0.0
 11
394.85572
 21
341.600003
 31
0.0
  0
LINE
  5
DC
330
D2
100
AcDbEntity
  8
LC-002-100-D00-0
 62
     7
370
    50
100
AcDbLine
 10
394.85572
 20
341.600003
 30
0.0
 11
394.60887
 21
341.600003
 31
0.0
  0
LINE
  5
DD
330
D2
100
AcDbEntity
  8
LC-002-100-D00-0
 62
     7
370
    50
100
AcDbLine
 10
394.60887
 20
341.600003
 30
0.0
 11
394.60887
 21
341.600003
 31
0.0
  0
LINE
  5
DE
330
D2
100
AcDbEntity
  8
LC-002-100-D00-0
 62
     7
370
    50
100
AcDbLine
 10
394.60887
 20
341.600003
 30
0.0
 11
394.457977
 21
341.600003
 31
0.0
  0
ENDBLK
  5
D4
330
D2
100
AcDbEntity
  8
0
100
AcDbBlockEnd
  0
BLOCK
  5
E3
330
E2
100
AcDbEntity
  8
0
100
AcDbBlockBegin
  2
POLY9
 70
     0
 71
     0
 10
0.0
 20
0.0
 30
0.0
  3
POLY9
  1

  4
POLY9
  0
LINE
  5
E5
330
E2
100
AcDbEntity
  8
LC-002-100-D00-0
 62
     7
370
    50
100
AcDbLine
 10
382.968454
 20
341.600003
 30
0.0
 11
382.968454
 21
341.600003
 31
0.0
  0
LINE
  5
E6
330
E2
100
AcDbEntity
  8
LC-002-100-D00-0
 62
     7
370
    50
100
AcDbLine
 10
382.968454
 20
341.600003
 30
0.0
 11
382.931879
 21
341.600003
 31
0.0
  0
LINE
  5
E7
330
E2
100
AcDbEntity
  8
LC-002-100-D00-0
 62
     7
370
    50
100
AcDbLine
 10
382.931879
 20
341.600003
 30
0.0
 11
382.931879
 21
341.600003
 31
0.0
  0
LINE
  5
E8
330
E2
100
AcDbEntity
  8
LC-002-100-D00-0
 62
     7
370
    50
100
AcDbLine
 10
382.931879
 20
341.600003
 30
0.0
 11
382.858744
 21
341.600003
 31
0.0
  0
LINE
  5
E9
330
E2
100
AcDbEntity
  8
LC-002-100-D00-0
 62
     7
370
    50
100
AcDbLine
 10
382.858744
 20
341.600003
 30
0.0
 11
382.858744
 21
341.600003
 31
0.0
  0
LINE
  5
EA
330
E2
100
AcDbEntity
  8
LC-002-100-D00-0
 62
     7
370
    50
100
AcDbLine
 10
382.858744
 20
341.600003
 30
0.0
 11
382.676415
 21
341.600003
 31
0.0
  0
LINE
  5
EB
330
E2
100
AcDbEntity
  8
LC-002-100-D00-0
 62
     7
370
    50
100
AcDbLine
 10
382.676415
 20
341.600003
 30
0.0
 11
382.676415
 21
341.600003
 31
0.0
  0
LINE
  5
EC
330
E2
100
AcDbEntity
  8
LC-002-100-D00-0
 62
     7
370
    50
100
AcDbLine
 10
382.676415
 20
341.600003
 30
0.0
 11
382.529101
 21
341.600003
 31
0.0
  0
LINE
  5
ED
330
E2
100
AcDbEntity
  8
LC-002-100-D00-0
 62
     7
370
    50
100
AcDbLine
 10
382.529101
 20
341.600003
 30
0.0
 11
382.529101
 21
341.600003
 31
0.0
  0
LINE
  5
EE
330
E2
100
AcDbEntity
  8
LC-002-100-D00-0
 62
     7
370
    50
100
AcDbLine
 10
382.529101
 20
341.600003
 30
0.0
 11
382.43915
 21
341.600003
 31
0.0
  0
ENDBLK
  5
E4
330
E2
100
AcDbEntity
  8
0
100
AcDbBlockEnd
  0
BLOCK
  5
F3
330
F2
100
AcDbEntity
  8
0
100
AcDbBlockBegin
  2
POLY10
 70
     0
 71
     0
 10
0.0
 20
0.0
 30
0.0
  3
POLY10
  1

  4
POLY10
  0
LINE
  5
F5
330
F2
100
AcDbEntity
  8
LC-002-100-D00-0
 62
     7
370
    50
100
AcDbLine
 10
400.563907
 20
341.600003
 30
0.0
 11
400.563907
 21
341.600003
 31
0.0
  0
LINE
  5
F6
330
F2
100
AcDbEntity
  8
LC-002-100-D00-0
 62
     7
370
    50
100
AcDbLine
 10
400.563907
 20
341.600003
 30
0.0
 11
400.419506
 21
341.600003
 31
0.0
  0
LINE
  5
F7
330
F2
100
AcDbEntity
  8
LC-002-100-D00-0
 62
     7
370
    50
100
AcDbLine
 10
400.419506
 20
341.600003
 30
0.0
 11
400.419506
 21
341.600003
 31
0.0
  0
LINE
  5
F8
330
F2
100
AcDbEntity
  8
LC-002-100-D00-0
 62
     7
370
    50
100
AcDbLine
 10
400.419506
 20
341.600003
 30
0.0
 11
400.202795
 21
341.600003
 31
0.0
  0
LINE
  5
F9
330
F2
100
AcDbEntity
  8
LC-002-100-D00-0
 62
     7
370
    50
100
AcDbLine
 10
400.202795
 20
341.600003
 30
0.0
 11
400.202795
 21
341.600003
 31
0.0
  0
LINE
  5
FA
330
F2
100
AcDbEntity
  8
LC-002-100-D00-0
 62
     7
370
    50
100
AcDbLine
 10
400.202795
 20
341.600003
 30
0.0
 11
400.00403
 21
341.600003
 31
0.0
  0
LINE
  5
FB
330
F2
100
AcDbEntity
  8
LC-002-100-D00-0
 62
     7
370
    50
100
AcDbLine
 10
400.00403
 20
341.600003
 30
0.0
 11
400.00403
 21
341.600003
 31
0.0
  0
LINE
  5
FC
330
F2
100
AcDbEntity
  8
LC-002-100-D00-0
 62
     7
370
    50
100
AcDbLine
 10
400.00403
 20
341.600003
 30
0.0
 11
399.940651
 21
341.600003
 31
0.0
  0
LINE
  5
FD
330
F2
100
AcDbEntity
  8
LC-002-100-D00-0
 62
     7
370
    50
100
AcDbLine
 10
399.940651
 20
341.600003
 30
0.0
 11
399.940651
 21
341.600003
 31
0.0
  0
LINE
  5
FE
330
F2
100
AcDbEntity
  8
LC-002-100-D00-0
 62
     7
370
    50
100
AcDbLine
 10
399.940651
 20
341.600003
 30
0.0
 11
399.935237
 21
341.600003
 31
0.0
  0
LINE
  5
FF
330
F2
100
AcDbEntity
  8
LC-002-100-D00-0
 62
     7
370
    50
100
AcDbLine
 10
399.935237
 20
341.600003
 30
0.0
 11
399.935237
 21
341.600003
 31
0.0
  0
LINE
  5
100
330
F2
100
AcDbEntity
  8
LC-002-100-D00-0
 62
     7
370
    50
100
AcDbLine
 10
399.935237
 20
341.600003
 30
0.0
 11
399.932529
 21
341.600003
 31
0.0
  0
ENDBLK
  5
F4
330
F2
100
AcDbEntity
  8
0
100
AcDbBlockEnd
  0
BLOCK
  5
129
330
128
100
AcDbEntity
  8
0
100
AcDbBlockBegin
  2
POLY11
 70
     0
 71
     0
 10
0.0
 20
0.0
 30
0.0
  3
POLY11
  1

  4
POLY11
  0
LINE
  5
12B
330
128
100
AcDbEntity
  8
LC-002-100-D00-0
 62
     7
370
    50
100
AcDbLine
 10
397.728055
 20
341.600003
 30
0.0
 11
397.728055
 21
341.600003
 31
0.0
  0
LINE
  5
12C
330
128
100
AcDbEntity
  8
LC-002-100-D00-0
 62
     7
370
    50
100
AcDbLine
 10
397.728055
 20
341.600003
 30
0.0
 11
397.651992
 21
341.600003
 31
0.0
  0
LINE
  5
12D
330
128
100
AcDbEntity
  8
LC-002-100-D00-0
 62
     7
370
    50
100
AcDbLine
 10
397.651992
 20
341.600003
 30
0.0
 11
397.651992
 21
341.600003
 31
0.0
  0
LINE
  5
12E
330
128
100
AcDbEntity
  8
LC-002-100-D00-0
 62
     7
370
    50
100
AcDbLine
 10
397.651992
 20
341.600003
 30
0.0
 11
397.500542
 21
341.600003
 31
0.0
  0
LINE
  5
12F
330
128
100
AcDbEntity
  8
LC-002-100-D00-0
 62
     7
370
    50
100
AcDbLine
 10
397.500542
 20
341.600003
 30
0.0
 11
397.500542
 21
341.600003
 31
0.0
  0
LINE
  5
130
330
128
100
AcDbEntity
  8
LC-002-100-D00-0
 62
     7
370
    50
100
AcDbLine
 10
397.500542
 20
341.600003
 30
0.0
 11
397.315921
 21
341.600003
 31
0.0
  0
LINE
  5
131
330
128
100
AcDbEntity
  8
LC-002-100-D00-0
 62
     7
370
    50
100
AcDbLine
 10
397.315921
 20
341.600003
 30
0.0
 11
397.315921
 21
341.600003
 31
0.0
  0
LINE
  5
132
330
128
100
AcDbEntity
  8
LC-002-100-D00-0
 62
     7
370
    50
100
AcDbLine
 10
397.315921
 20
341.600003
 30
0.0
 11
397.256957
 21
341.600003
 31
0.0
  0
LINE
  5
133
330
128
100
AcDbEntity
  8
LC-002-100-D00-0
 62
     7
370
    50
100
AcDbLine
 10
397.256957
 20
341.600003
 30
0.0
 11
397.256957
 21
341.600003
 31
0.0
  0
LINE
  5
134
330
128
100
AcDbEntity
  8
LC-002-100-D00-0
 62
     7
370
    50
100
AcDbLine
 10
397.256957
 20
341.600003
 30
0.0
 11
397.253553
 21
341.600003
 31
0.0
  0
LINE
  5
135
330
128
100
AcDbEntity
  8
LC-002-100-D00-0
 62
     7
370
    50
100
AcDbLine
 10
397.253553
 20
341.600003
 30
0.0
 11
397.253553
 21
341.600003
 31
0.0
  0
LINE
  5
136
330
128
100
AcDbEntity
  8
LC-002-100-D00-0
 62
     7
370
    50
100
AcDbLine
 10
397.253553
 20
341.600003
 30
0.0
 11
397.251846
 21
341.600003
 31
0.0
  0
ENDBLK
  5
12A
330
128
100
AcDbEntity
  8
0
100
AcDbBlockEnd
  0
BLOCK
  5
13A
330
139
100
AcDbEntity
  8
0
100
AcDbBlockBegin
  2
POLY12
 70
     0
 71
     0
 10
0.0
 20
0.0
 30
0.0
  3
POLY12
  1

  4
POLY12
  0
LINE
  5
13C
330
139
100
AcDbEntity
  8
LC-002-100-D00-0
 62
     7
370
    50
100
AcDbLine
 10
396.087459
 20
341.600003
 30
0.0
 11
396.087459
 21
341.600003
 31
0.0
  0
LINE
  5
13D
330
139
100
AcDbEntity
  8
LC-002-100-D00-0
 62
     7
370
    50
100
AcDbLine
 10
396.087459
 20
341.600003
 30
0.0
 11
396.069843
 21
341.600003
 31
0.0
  0
LINE
  5
13E
330
139
100
AcDbEntity
  8
LC-002-100-D00-0
 62
     7
370
    50
100
AcDbLine
 10
396.069843
 20
341.600003
 30
0.0
 11
396.069843
 21
341.600003
 31
0.0
  0
LINE
  5
13F
330
139
100
AcDbEntity
  8
LC-002-100-D00-0
 62
     7
370
    50
100
AcDbLine
 10
396.069843
 20
341.600003
 30
0.0
 11
396.038372
 21
341.600003
 31
0.0
  0
LINE
  5
140
330
139
100
AcDbEntity
  8
LC-002-100-D00-0
 62
     7
370
    50
100
AcDbLine
 10
396.038372
 20
341.600003
 30
0.0
 11
396.038372
 21
341.600003
 31
0.0
  0
LINE
  5
141
330
139
100
AcDbEntity
  8
LC-002-100-D00-0
 62
     7
370
    50
100
AcDbLine
 10
396.038372
 20
341.600003
 30
0.0
 11
396.035303
 21
341.600003
 31
0.0
  0
LINE
  5
142
330
139
100
AcDbEntity
  8
LC-002-100-D00-0
 62
     7
370
    50
100
AcDbLine
 10
396.035303
 20
341.600003
 30
0.0
 11
396.035303
 21
341.600003
 31
0.0
  0
LINE
  5
143
330
139
100
AcDbEntity
  8
LC-002-100-D00-0
 62
     7
370
    50
100
AcDbLine
 10
396.035303
 20
341.600003
 30
0.0
 11
396.033952
 21
341.600003
 31
0.0
  0
ENDBLK
  5
13B
330
139
100
AcDbEntity
  8
0
100
AcDbBlockEnd
  0
BLOCK
  5
147
330
146
100
AcDbEntity
  8
0
100
AcDbBlockBegin
  2
POLY13
 70
     0
 71
     0
 10
0.0
 20
0.0
 30
0.0
  3
POLY13
  1

  4
POLY13
  0
LINE
  5
149
330
146
100
AcDbEntity
  8
LC-002-100-D00-0
 62
     7
370
    50
100
AcDbLine
 10
388.528206
 20
341.600003
 30
0.0
 11
388.528206
 21
341.600003
 31
0.0
  0
LINE
  5
14A
330
146
100
AcDbEntity
  8
LC-002-100-D00-0
 62
     7
370
    50
100
AcDbLine
 10
388.528206
 20
341.600003
 30
0.0
 11
388.453835
 21
341.600003
 31
0.0
  0
LINE
  5
14B
330
146
100
AcDbEntity
  8
LC-002-100-D00-0
 62
     7
370
    50
100
AcDbLine
 10
388.453835
 20
341.600003
 30
0.0
 11
388.453835
 21
341.600003
 31
0.0
  0
LINE
  5
14C
330
146
100
AcDbEntity
  8
LC-002-100-D00-0
 62
     7
370
    50
100
AcDbLine
 10
388.453835
 20
341.600003
 30
0.0
 11
388.305589
 21
341.600003
 31
0.0
  0
LINE
  5
14D
330
146
100
AcDbEntity
  8
LC-002-100-D00-0
 62
     7
370
    50
100
AcDbLine
 10
388.305589
 20
341.600003
 30
0.0
 11
388.305589
 21
341.600003
 31
0.0
  0
LINE
  5
14E
330
146
100
AcDbEntity
  8
LC-002-100-D00-0
 62
     7
370
    50
100
AcDbLine
 10
388.305589
 20
341.600003
 30
0.0
 11
388.111301
 21
341.600003
 31
0.0
  0
LINE
  5
14F
330
146
100
AcDbEntity
  8
LC-002-100-D00-0
 62
     7
370
    50
100
AcDbLine
 10
388.111301
 20
341.600003
 30
0.0
 11
388.111301
 21
341.600003
 31
0.0
  0
LINE
  5
150
330
146
100
AcDbEntity
  8
LC-002-100-D00-0
 62
     7
370
    50
100
AcDbLine
 10
388.111301
 20
341.600003
 30
0.0
 11
388.033435
 21
341.600003
 31
0.0
  0
LINE
  5
151
330
146
100
AcDbEntity
  8
LC-002-100-D00-0
 62
     7
370
    50
100
AcDbLine
 10
388.033435
 20
341.600003
 30
0.0
 11
388.033435
 21
341.600003
 31
0.0
  0
LINE
  5
152
330
146
100
AcDbEntity
  8
LC-002-100-D00-0
 62
     7
370
    50
100
AcDbLine
 10
388.033435
 20
341.600003
 30
0.0
 11
388.028528
 21
341.600003
 31
0.0
  0
LINE
  5
153
330
146
100
AcDbEntity
  8
LC-002-100-D00-0
 62
     7
370
    50
100
AcDbLine
 10
388.028528
 20
341.600003
 30
0.0
 11
388.028528
 21
341.600003
 31
0.0
  0
LINE
  5
154
330
146
100
AcDbEntity
  8
LC-002-100-D00-0
 62
     7
370
    50
100
AcDbLine
 10
388.028528
 20
341.600003
 30
0.0
 11
388.026067
 21
341.600003
 31
0.0
  0
ENDBLK
  5
148
330
146
100
AcDbEntity
  8
0
100
AcDbBlockEnd
  0
BLOCK
  5
158
330
157
100
AcDbEntity
  8
0
100
AcDbBlockBegin
  2
POLY14
 70
     0
 71
     0
 10
0.0
 20
0.0
 30
0.0
  3
POLY14
  1

  4
POLY14
  0
LINE
  5
15A
330
157
100
AcDbEntity
  8
LC-002-100-D00-0
 62
     7
370
    50
100
AcDbLine
 10
398.857457
 20
341.600003
 30
0.0
 11
398.857457
 21
341.600003
 31
0.0
  0
LINE
  5
15B
330
157
100
AcDbEntity
  8
LC-002-100-D00-0
 62
     7
370
    50
100
AcDbLine
 10
398.857457
 20
341.600003
 30
0.0
 11
398.789394
 21
341.600003
 31
0.0
  0
LINE
  5
15C
330
157
100
AcDbEntity
  8
LC-002-100-D00-0
 62
     7
370
    50
100
AcDbLine
 10
398.789394
 20
341.600003
 30
0.0
 11
398.789394
 21
341.600003
 31
0.0
  0
LINE
  5
15D
330
157
100
AcDbEntity
  8
LC-002-100-D00-0
 62
     7
370
    50
100
AcDbLine
 10
398.789394
 20
341.600003
 30
0.0
 11
398.653571
 21
341.600003
 31
0.0
  0
LINE
  5
15E
330
157
100
AcDbEntity
  8
LC-002-100-D00-0
 62
     7
370
    50
100
AcDbLine
 10
398.653571
 20
341.600003
 30
0.0
 11
398.653571
 21
341.600003
 31
0.0
  0
LINE
  5
15F
330
157
100
AcDbEntity
  8
LC-002-100-D00-0
 62
     7
370
    50
100
AcDbLine
 10
398.653571
 20
341.600003
 30
0.0
 11
398.479824
 21
341.600003
 31
0.0
  0
LINE
  5
160
330
157
100
AcDbEntity
  8
LC-002-100-D00-0
 62
     7
370
    50
100
AcDbLine
 10
398.479824
 20
341.600003
 30
0.0
 11
398.479824
 21
341.600003
 31
0.0
  0
LINE
  5
161
330
157
100
AcDbEntity
  8
LC-002-100-D00-0
 62
     7
370
    50
100
AcDbLine
 10
398.479824
 20
341.600003
 30
0.0
 11
398.393325
 21
341.600003
 31
0.0
  0
LINE
  5
162
330
157
100
AcDbEntity
  8
LC-002-100-D00-0
 62
     7
370
    50
100
AcDbLine
 10
398.393325
 20
341.600003
 30
0.0
 11
398.393325
 21
341.600003
 31
0.0
  0
LINE
  5
163
330
157
100
AcDbEntity
  8
LC-002-100-D00-0
 62
     7
370
    50
100
AcDbLine
 10
398.393325
 20
341.600003
 30
0.0
 11
398.387474
 21
341.600003
 31
0.0
  0
LINE
  5
164
330
157
100
AcDbEntity
  8
LC-002-100-D00-0
 62
     7
370
    50
100
AcDbLine
 10
398.387474
 20
341.600003
 30
0.0
 11
398.387474
 21
341.600003
 31
0.0
  0
LINE
  5
165
330
157
100
AcDbEntity
  8
LC-002-100-D00-0
 62
     7
370
    50
100
AcDbLine
 10
398.387474
 20
341.600003
 30
0.0
 11
398.384541
 21
341.600003
 31
0.0
  0
ENDBLK
  5
159
330
157
100
AcDbEntity
  8
0
100
AcDbBlockEnd
  0
BLOCK
  5
168
330
167
100
AcDbEntity
  8
0
100
AcDbBlockBegin
  2
POLY15
 70
     0
 71
     0
 10
0.0
 20
0.0
 30
0.0
  3
POLY15
  1

  4
POLY15
  0
LINE
  5
16A
330
167
100
AcDbEntity
  8
LC-002-100-D00-0
 62
     7
370
    50
100
AcDbLine
 10
388.921686
 20
341.600003
 30
0.0
 11
388.921686
 21
341.600003
 31
0.0
  0
LINE
  5
16B
330
167
100
AcDbEntity
  8
LC-002-100-D00-0
 62
     7
370
    50
100
AcDbLine
 10
388.921686
 20
341.600003
 30
0.0
 11
388.921618
 21
341.600003
 31
0.0
  0
LINE
  5
16C
330
167
100
AcDbEntity
  8
LC-002-100-D00-0
 62
     7
370
    50
100
AcDbLine
 10
388.921618
 20
341.600003
 30
0.0
 11
388.921618
 21
341.600003
 31
0.0
  0
LINE
  5
16D
330
167
100
AcDbEntity
  8
LC-002-100-D00-0
 62
     7
370
    50
100
AcDbLine
 10
388.921618
 20
341.600003
 30
0.0
 11
388.921484
 21
341.600003
 31
0.0
  0
LINE
  5
16E
330
167
100
AcDbEntity
  8
LC-002-100-D00-0
 62
     7
370
    50
100
AcDbLine
 10
388.921484
 20
341.600003
 30
0.0
 11
388.921484
 21
341.600003
 31
0.0
  0
LINE
  5
16F
330
167
100
AcDbEntity
  8
LC-002-100-D00-0
 62
     7
370
    50
100
AcDbLine
 10
388.921484
 20
341.600003
 30
0.0
 11
388.817299
 21
341.600003
 31
0.0
  0
LINE
  5
170
330
167
100
AcDbEntity
  8
LC-002-100-D00-0
 62
     7
370
    50
100
AcDbLine
 10
388.817299
 20
341.600003
 30
0.0
 11
388.817299
 21
341.600003
 31
0.0
  0
LINE
  5
171
330
167
100
AcDbEntity
  8
LC-002-100-D00-0
 62
     7
370
    50
100
AcDbLine
 10
388.817299
 20
341.600003
 30
0.0
 11
388.669868
 21
341.600003
 31
0.0
  0
LINE
  5
172
330
167
100
AcDbEntity
  8
LC-002-100-D00-0
 62
     7
370
    50
100
AcDbLine
 10
388.669868
 20
341.600003
 30
0.0
 11
388.669868
 21
341.600003
 31
0.0
  0
LINE
  5
173
330
167
100
AcDbEntity
  8
LC-002-100-D00-0
 62
     7
370
    50
100
AcDbLine
 10
388.669868
 20
341.600003
 30
0.0
 11
388.575468
 21
341.600003
 31
0.0
  0
LINE
  5
174
330
167
100
AcDbEntity
  8
LC-002-100-D00-0
 62
     7
370
    50
100
AcDbLine
 10
388.575468
 20
341.600003
 30
0.0
 11
388.575468
 21
341.600003
 31
0.0
  0
LINE
  5
175
330
167
100
AcDbEntity
  8
LC-002-100-D00-0
 62
     7
370
    50
100
AcDbLine
 10
388.575468
 20
341.600003
 30
0.0
 11
388.528206
 21
341.600003
 31
0.0
  0
ENDBLK
  5
169
330
167
100
AcDbEntity
  8
0
100
AcDbBlockEnd
  0
BLOCK
  5
178
330
177
100
AcDbEntity
  8
0
100
AcDbBlockBegin
  2
POLY16
 70
     0
 71
     0
 10
0.0
 20
0.0
 30
0.0
  3
POLY16
  1

  4
POLY16
  0
LINE
  5
17A
330
177
100
AcDbEntity
  8
LC-002-100-D00-0
 62
     7
370
    50
100
AcDbLine
 10
399.201134
 20
341.600003
 30
0.0
 11
399.201134
 21
341.600003
 31
0.0
  0
LINE
  5
17B
330
177
100
AcDbEntity
  8
LC-002-100-D00-0
 62
     7
370
    50
100
AcDbLine
 10
399.201134
 20
341.600003
 30
0.0
 11
399.201871
 21
341.600003
 31
0.0
  0
LINE
  5
17C
330
177
100
AcDbEntity
  8
LC-002-100-D00-0
 62
     7
370
    50
100
AcDbLine
 10
399.201871
 20
341.600003
 30
0.0
 11
399.201871
 21
341.600003
 31
0.0
  0
LINE
  5
17D
330
177
100
AcDbEntity
  8
LC-002-100-D00-0
 62
     7
370
    50
100
AcDbLine
 10
399.201871
 20
341.600003
 30
0.0
 11
399.203328
 21
341.600003
 31
0.0
  0
LINE
  5
17E
330
177
100
AcDbEntity
  8
LC-002-100-D00-0
 62
     7
370
    50
100
AcDbLine
 10
399.203328
 20
341.600003
 30
0.0
 11
399.203328
 21
341.600003
 31
0.0
  0
LINE
  5
17F
330
177
100
AcDbEntity
  8
LC-002-100-D00-0
 62
     7
370
    50
100
AcDbLine
 10
399.203328
 20
341.600003
 30
0.0
 11
399.117707
 21
341.600003
 31
0.0
  0
LINE
  5
180
330
177
100
AcDbEntity
  8
LC-002-100-D00-0
 62
     7
370
    50
100
AcDbLine
 10
399.117707
 20
341.600003
 30
0.0
 11
399.117707
 21
341.600003
 31
0.0
  0
LINE
  5
181
330
177
100
AcDbEntity
  8
LC-002-100-D00-0
 62
     7
370
    50
100
AcDbLine
 10
399.117707
 20
341.600003
 30
0.0
 11
398.984787
 21
341.600003
 31
0.0
  0
LINE
  5
182
330
177
100
AcDbEntity
  8
LC-002-100-D00-0
 62
     7
370
    50
100
AcDbLine
 10
398.984787
 20
341.600003
 30
0.0
 11
398.984787
 21
341.600003
 31
0.0
  0
LINE
  5
183
330
177
100
AcDbEntity
  8
LC-002-100-D00-0
 62
     7
370
    50
100
AcDbLine
 10
398.984787
 20
341.600003
 30
0.0
 11
398.89994
 21
341.600003
 31
0.0
  0
LINE
  5
184
330
177
100
AcDbEntity
  8
LC-002-100-D00-0
 62
     7
370
    50
100
AcDbLine
 10
398.89994
 20
341.600003
 30
0.0
 11
398.89994
 21
341.600003
 31
0.0
  0
LINE
  5
185
330
177
100
AcDbEntity
  8
LC-002-100-D00-0
 62
     7
370
    50
100
AcDbLine
 10
398.89994
 20
341.600003
 30
0.0
 11
398.857457
 21
341.600003
 31
0.0
  0
ENDBLK
  5
179
330
177
100
AcDbEntity
  8
0
100
AcDbBlockEnd
  0
BLOCK
  5
188
330
187
100
AcDbEntity
  8
0
100
AcDbBlockBegin
  2
POLY17
 70
     0
 71
     0
 10
0.0
 20
0.0
 30
0.0
  3
POLY17
  1

  4
POLY17
  0
LINE
  5
18A
330
187
100
AcDbEntity
  8
LC-002-100-D00-0
 62
     7
370
    50
100
AcDbLine
 10
398.06844
 20
341.600003
 30
0.0
 11
398.06844
 21
341.600003
 31
0.0
  0
LINE
  5
18B
330
187
100
AcDbEntity
  8
LC-002-100-D00-0
 62
     7
370
    50
100
AcDbLine
 10
398.06844
 20
341.600003
 30
0.0
 11
398.065894
 21
341.600003
 31
0.0
  0
LINE
  5
18C
330
187
100
AcDbEntity
  8
LC-002-100-D00-0
 62
     7
370
    50
100
AcDbLine
 10
398.065894
 20
341.600003
 30
0.0
 11
398.065894
 21
341.600003
 31
0.0
  0
LINE
  5
18D
330
187
100
AcDbEntity
  8
LC-002-100-D00-0
 62
     7
370
    50
100
AcDbLine
 10
398.065894
 20
341.600003
 30
0.0
 11
398.060832
 21
341.600003
 31
0.0
  0
LINE
  5
18E
330
187
100
AcDbEntity
  8
LC-002-100-D00-0
 62
     7
370
    50
100
AcDbLine
 10
398.060832
 20
341.600003
 30
0.0
 11
398.060832
 21
341.600003
 31
0.0
  0
LINE
  5
18F
330
187
100
AcDbEntity
  8
LC-002-100-D00-0
 62
     7
370
    50
100
AcDbLine
 10
398.060832
 20
341.600003
 30
0.0
 11
397.976035
 21
341.600003
 31
0.0
  0
LINE
  5
190
330
187
100
AcDbEntity
  8
LC-002-100-D00-0
 62
     7
370
    50
100
AcDbLine
 10
397.976035
 20
341.600003
 30
0.0
 11
397.976035
 21
341.600003
 31
0.0
  0
LINE
  5
191
330
187
100
AcDbEntity
  8
LC-002-100-D00-0
 62
     7
370
    50
100
AcDbLine
 10
397.976035
 20
341.600003
 30
0.0
 11
397.848623
 21
341.600003
 31
0.0
  0
LINE
  5
192
330
187
100
AcDbEntity
  8
LC-002-100-D00-0
 62
     7
370
    50
100
AcDbLine
 10
397.848623
 20
341.600003
 30
0.0
 11
397.848623
 21
341.600003
 31
0.0
  0
LINE
  5
193
330
187
100
AcDbEntity
  8
LC-002-100-D00-0
 62
     7
370
    50
100
AcDbLine
 10
397.848623
 20
341.600003
 30
0.0
 11
397.768306
 21
341.600003
 31
0.0
  0
LINE
  5
194
330
187
100
AcDbEntity
  8
LC-002-100-D00-0
 62
     7
370
    50
100
AcDbLine
 10
397.768306
 20
341.600003
 30
0.0
 11
397.768306
 21
341.600003
 31
0.0
  0
LINE
  5
195
330
187
100
AcDbEntity
  8
LC-002-100-D00-0
 62
     7
370
    50
100
AcDbLine
 10
397.768306
 20
341.600003
 30
0.0
 11
397.728055
 21
341.600003
 31
0.0
  0
ENDBLK
  5
189
330
187
100
AcDbEntity
  8
0
100
AcDbBlockEnd
  0
BLOCK
  5
199
330
198
100
AcDbEntity
  8
0
100
AcDbBlockBegin
  2
POLY18
 70
     0
 71
     0
 10
0.0
 20
0.0
 30
0.0
  3
POLY18
  1

  4
POLY18
  0
LINE
  5
19B
330
198
100
AcDbEntity
  8
LC-002-100-D00-0
 62
     7
370
    50
100
AcDbLine
 10
396.396563
 20
341.600003
 30
0.0
 11
396.396563
 21
341.600003
 31
0.0
  0
LINE
  5
19C
330
198
100
AcDbEntity
  8
LC-002-100-D00-0
 62
     7
370
    50
100
AcDbLine
 10
396.396563
 20
341.600003
 30
0.0
 11
396.36036
 21
341.600003
 31
0.0
  0
LINE
  5
19D
330
198
100
AcDbEntity
  8
LC-002-100-D00-0
 62
     7
370
    50
100
AcDbLine
 10
396.36036
 20
341.600003
 30
0.0
 11
396.36036
 21
341.600003
 31
0.0
  0
LINE
  5
19E
330
198
100
AcDbEntity
  8
LC-002-100-D00-0
 62
     7
370
    50
100
AcDbLine
 10
396.36036
 20
341.600003
 30
0.0
 11
396.287995
 21
341.600003
 31
0.0
  0
LINE
  5
19F
330
198
100
AcDbEntity
  8
LC-002-100-D00-0
 62
     7
370
    50
100
AcDbLine
 10
396.287995
 20
341.600003
 30
0.0
 11
396.287995
 21
341.600003
 31
0.0
  0
LINE
  5
1A0
330
198
100
AcDbEntity
  8
LC-002-100-D00-0
 62
     7
370
    50
100
AcDbLine
 10
396.287995
 20
341.600003
 30
0.0
 11
396.195653
 21
341.600003
 31
0.0
  0
LINE
  5
1A1
330
198
100
AcDbEntity
  8
LC-002-100-D00-0
 62
     7
370
    50
100
AcDbLine
 10
396.195653
 20
341.600003
 30
0.0
 11
396.195653
 21
341.600003
 31
0.0
  0
LINE
  5
1A2
330
198
100
AcDbEntity
  8
LC-002-100-D00-0
 62
     7
370
    50
100
AcDbLine
 10
396.195653
 20
341.600003
 30
0.0
 11
396.12501
 21
341.600003
 31
0.0
  0
LINE
  5
1A3
330
198
100
AcDbEntity
  8
LC-002-100-D00-0
 62
     7
370
    50
100
AcDbLine
 10
396.12501
 20
341.600003
 30
0.0
 11
396.12501
 21
341.600003
 31
0.0
  0
LINE
  5
1A4
330
198
100
AcDbEntity
  8
LC-002-100-D00-0
 62
     7
370
    50
100
AcDbLine
 10
396.12501
 20
341.600003
 30
0.0
 11
396.099977
 21
341.600003
 31
0.0
  0
LINE
  5
1A5
330
198
100
AcDbEntity
  8
LC-002-100-D00-0
 62
     7
370
    50
100
AcDbLine
 10
396.099977
 20
341.600003
 30
0.0
 11
396.099977
 21
341.600003
 31
0.0
  0
LINE
  5
1A6
330
198
100
AcDbEntity
  8
LC-002-100-D00-0
 62
     7
370
    50
100
AcDbLine
 10
396.099977
 20
341.600003
 30
0.0
 11
396.087459
 21
341.600003
 31
0.0
  0
ENDBLK
  5
19A
330
198
100
AcDbEntity
  8
0
100
AcDbBlockEnd
  0
BLOCK
  5
1AC
330
1AB
100
AcDbEntity
  8
0
100
AcDbBlockBegin
  2
POLY19
 70
     0
 71
     0
 10
0.0
 20
0.0
 30
0.0
  3
POLY19
  1

  4
POLY19
  0
LINE
  5
1AE
330
1AB
100
AcDbEntity
  8
LC-002-100-D00-0
 62
     7
370
    50
100
AcDbLine
 10
396.631992
 20
341.600003
 30
0.0
 11
396.631992
 21
341.600003
 31
0.0
  0
LINE
  5
1AF
330
1AB
100
AcDbEntity
  8
LC-002-100-D00-0
 62
     7
370
    50
100
AcDbLine
 10
396.631992
 20
341.600003
 30
0.0
 11
396.590196
 21
341.600003
 31
0.0
  0
LINE
  5
1B0
330
1AB
100
AcDbEntity
  8
LC-002-100-D00-0
 62
     7
370
    50
100
AcDbLine
 10
396.590196
 20
341.600003
 30
0.0
 11
396.590196
 21
341.600003
 31
0.0
  0
LINE
  5
1B1
330
1AB
100
AcDbEntity
  8
LC-002-100-D00-0
 62
     7
370
    50
100
AcDbLine
 10
396.590196
 20
341.600003
 30
0.0
 11
396.515551
 21
341.600003
 31
0.0
  0
LINE
  5
1B2
330
1AB
100
AcDbEntity
  8
LC-002-100-D00-0
 62
     7
370
    50
100
AcDbLine
 10
396.515551
 20
341.600003
 30
0.0
 11
396.515551
 21
341.600003
 31
0.0
  0
LINE
  5
1B3
330
1AB
100
AcDbEntity
  8
LC-002-100-D00-0
 62
     7
370
    50
100
AcDbLine
 10
396.515551
 20
341.600003
 30
0.0
 11
396.432924
 21
341.600003
 31
0.0
  0
LINE
  5
1B4
330
1AB
100
AcDbEntity
  8
LC-002-100-D00-0
 62
     7
370
    50
100
AcDbLine
 10
396.432924
 20
341.600003
 30
0.0
 11
396.432924
 21
341.600003
 31
0.0
  0
LINE
  5
1B5
330
1AB
100
AcDbEntity
  8
LC-002-100-D00-0
 62
     7
370
    50
100
AcDbLine
 10
396.432924
 20
341.600003
 30
0.0
 11
396.396563
 21
341.600003
 31
0.0
  0
ENDBLK
  5
1AD
330
1AB
100
AcDbEntity
  8
0
100
AcDbBlockEnd
  0
BLOCK
  5
1D9
330
1D8
100
AcDbEntity
  8
0
100
AcDbBlockBegin
  2
POLY20
 70
     0
 71
     0
 10
0.0
 20
0.0
 30
0.0
  3
POLY20
  1

  4
POLY20
  0
LINE
  5
1DB
330
1D8
100
AcDbEntity
  8
LC-002-100-D00-0
 62
     7
370
    50
100
AcDbLine
 10
438.749168
 20
430.550254
 30
0.0
 11
438.749168
 21
430.550254
 31
0.0
  0
LINE
  5
1DC
330
1D8
100
AcDbEntity
  8
LC-002-100-D00-0
 62
     7
370
    50
100
AcDbLine
 10
438.749168
 20
430.550254
 30
0.0
 11
438.687032
 21
430.603973
 31
0.0
  0
LINE
  5
1DD
330
1D8
100
AcDbEntity
  8
LC-002-100-D00-0
 62
     7
370
    50
100
AcDbLine
 10
438.687032
 20
430.603973
 30
0.0
 11
438.687032
 21
430.603973
 31
0.0
  0
LINE
  5
1DE
330
1D8
100
AcDbEntity
  8
LC-002-100-D00-0
 62
     7
370
    50
100
AcDbLine
 10
438.687032
 20
430.603973
 30
0.0
 11
438.539828
 21
430.731237
 31
0.0
  0
LINE
  5
1DF
330
1D8
100
AcDbEntity
  8
LC-002-100-D00-0
 62
     7
370
    50
100
AcDbLine
 10
438.539828
 20
430.731237
 30
0.0
 11
438.539828
 21
430.731237
 31
0.0
  0
LINE
  5
1E0
330
1D8
100
AcDbEntity
  8
LC-002-100-D00-0
 62
     7
370
    50
100
AcDbLine
 10
438.539828
 20
430.731237
 30
0.0
 11
438.245826
 21
430.840774
 31
0.0
  0
LINE
  5
1E1
330
1D8
100
AcDbEntity
  8
LC-002-100-D00-0
 62
     7
370
    50
100
AcDbLine
 10
438.245826
 20
430.840774
 30
0.0
 11
438.245826
 21
430.840774
 31
0.0
  0
LINE
  5
1E2
330
1D8
100
AcDbEntity
  8
LC-002-100-D00-0
 62
     7
370
    50
100
AcDbLine
 10
438.245826
 20
430.840774
 30
0.0
 11
437.904888
 21
430.853213
 31
0.0
  0
LINE
  5
1E3
330
1D8
100
AcDbEntity
  8
LC-002-100-D00-0
 62
     7
370
    50
100
AcDbLine
 10
437.904888
 20
430.853213
 30
0.0
 11
437.904888
 21
430.853213
 31
0.0
  0
LINE
  5
1E4
330
1D8
100
AcDbEntity
  8
LC-002-100-D00-0
 62
     7
370
    50
100
AcDbLine
 10
437.904888
 20
430.853213
 30
0.0
 11
437.578161
 21
430.750516
 31
0.0
  0
LINE
  5
1E5
330
1D8
100
AcDbEntity
  8
LC-002-100-D00-0
 62
     7
370
    50
100
AcDbLine
 10
437.578161
 20
430.750516
 30
0.0
 11
437.578161
 21
430.750516
 31
0.0
  0
LINE
  5
1E6
330
1D8
100
AcDbEntity
  8
LC-002-100-D00-0
 62
     7
370
    50
100
AcDbLine
 10
437.578161
 20
430.750516
 30
0.0
 11
437.303685
 21
430.545991
 31
0.0
  0
LINE
  5
1E7
330
1D8
100
AcDbEntity
  8
LC-002-100-D00-0
 62
     7
370
    50
100
AcDbLine
 10
437.303685
 20
430.545991
 30
0.0
 11
437.303685
 21
430.545991
 31
0.0
  0
LINE
  5
1E8
330
1D8
100
AcDbEntity
  8
LC-002-100-D00-0
 62
     7
370
    50
100
AcDbLine
 10
437.303685
 20
430.545991
 30
0.0
 11
437.137579
 21
430.297062
 31
0.0
  0
LINE
  5
1E9
330
1D8
100
AcDbEntity
  8
LC-002-100-D00-0
 62
     7
370
    50
100
AcDbLine
 10
437.137579
 20
430.297062
 30
0.0
 11
437.137579
 21
430.297062
 31
0.0
  0
LINE
  5
1EA
330
1D8
100
AcDbEntity
  8
LC-002-100-D00-0
 62
     7
370
    50
100
AcDbLine
 10
437.137579
 20
430.297062
 30
0.0
 11
437.055195
 21
430.05531
 31
0.0
  0
LINE
  5
1EB
330
1D8
100
AcDbEntity
  8
LC-002-100-D00-0
 62
     7
370
    50
100
AcDbLine
 10
437.055195
 20
430.05531
 30
0.0
 11
437.055195
 21
430.05531
 31
0.0
  0
LINE
  5
1EC
330
1D8
100
AcDbEntity
  8
LC-002-100-D00-0
 62
     7
370
    50
100
AcDbLine
 10
437.055195
 20
430.05531
 30
0.0
 11
437.046453
 21
429.914133
 31
0.0
  0
LINE
  5
1ED
330
1D8
100
AcDbEntity
  8
LC-002-100-D00-0
 62
     7
370
    50
100
AcDbLine
 10
437.046453
 20
429.914133
 30
0.0
 11
437.046453
 21
429.914133
 31
0.0
  0
LINE
  5
1EE
330
1D8
100
AcDbEntity
  8
LC-002-100-D00-0
 62
     7
370
    50
100
AcDbLine
 10
437.046453
 20
429.914133
 30
0.0
 11
437.042058
 21
429.843149
 31
0.0
  0
ENDBLK
  5
1DA
330
1D8
100
AcDbEntity
  8
0
100
AcDbBlockEnd
  0
BLOCK
  5
1F1
330
1F0
100
AcDbEntity
  8
0
100
AcDbBlockBegin
  2
POLY21
 70
     0
 71
     0
 10
0.0
 20
0.0
 30
0.0
  3
POLY21
  1

  4
POLY21
  0
LINE
  5
1F3
330
1F0
100
AcDbEntity
  8
LC-002-100-D00-0
 62
     7
370
    50
100
AcDbLine
 10
345.04233
 20
429.843149
 30
0.0
 11
345.04233
 21
429.843149
 31
0.0
  0
LINE
  5
1F4
330
1F0
100
AcDbEntity
  8
LC-002-100-D00-0
 62
     7
370
    50
100
AcDbLine
 10
345.04233
 20
429.843149
 30
0.0
 11
345.041435
 21
429.87412
 31
0.0
  0
LINE
  5
1F5
330
1F0
100
AcDbEntity
  8
LC-002-100-D00-0
 62
     7
370
    50
100
AcDbLine
 10
345.041435
 20
429.87412
 30
0.0
 11
345.041435
 21
429.87412
 31
0.0
  0
LINE
  5
1F6
330
1F0
100
AcDbEntity
  8
LC-002-100-D00-0
 62
     7
370
    50
100
AcDbLine
 10
345.041435
 20
429.87412
 30
0.0
 11
345.037307
 21
430.017
 31
0.0
  0
LINE
  5
1F7
330
1F0
100
AcDbEntity
  8
LC-002-100-D00-0
 62
     7
370
    50
100
AcDbLine
 10
345.037307
 20
430.017
 30
0.0
 11
345.037307
 21
430.017
 31
0.0
  0
LINE
  5
1F8
330
1F0
100
AcDbEntity
  8
LC-002-100-D00-0
 62
     7
370
    50
100
AcDbLine
 10
345.037307
 20
430.017
 30
0.0
 11
344.96796
 21
430.268482
 31
0.0
  0
LINE
  5
1F9
330
1F0
100
AcDbEntity
  8
LC-002-100-D00-0
 62
     7
370
    50
100
AcDbLine
 10
344.96796
 20
430.268482
 30
0.0
 11
344.96796
 21
430.268482
 31
0.0
  0
LINE
  5
1FA
330
1F0
100
AcDbEntity
  8
LC-002-100-D00-0
 62
     7
370
    50
100
AcDbLine
 10
344.96796
 20
430.268482
 30
0.0
 11
344.775791
 21
430.550889
 31
0.0
  0
LINE
  5
1FB
330
1F0
100
AcDbEntity
  8
LC-002-100-D00-0
 62
     7
370
    50
100
AcDbLine
 10
344.775791
 20
430.550889
 30
0.0
 11
344.775791
 21
430.550889
 31
0.0
  0
LINE
  5
1FC
330
1F0
100
AcDbEntity
  8
LC-002-100-D00-0
 62
     7
370
    50
100
AcDbLine
 10
344.775791
 20
430.550889
 30
0.0
 11
344.499929
 21
430.753755
 31
0.0
  0
LINE
  5
1FD
330
1F0
100
AcDbEntity
  8
LC-002-100-D00-0
 62
     7
370
    50
100
AcDbLine
 10
344.499929
 20
430.753755
 30
0.0
 11
344.499929
 21
430.753755
 31
0.0
  0
LINE
  5
1FE
330
1F0
100
AcDbEntity
  8
LC-002-100-D00-0
 62
     7
370
    50
100
AcDbLine
 10
344.499929
 20
430.753755
 30
0.0
 11
344.172919
 21
430.853958
 31
0.0
  0
LINE
  5
1FF
330
1F0
100
AcDbEntity
  8
LC-002-100-D00-0
 62
     7
370
    50
100
AcDbLine
 10
344.172919
 20
430.853958
 30
0.0
 11
344.172919
 21
430.853958
 31
0.0
  0
LINE
  5
200
330
1F0
100
AcDbEntity
  8
LC-002-100-D00-0
 62
     7
370
    50
100
AcDbLine
 10
344.172919
 20
430.853958
 30
0.0
 11
343.873121
 21
430.84167
 31
0.0
  0
LINE
  5
201
330
1F0
100
AcDbEntity
  8
LC-002-100-D00-0
 62
     7
370
    50
100
AcDbLine
 10
343.873121
 20
430.84167
 30
0.0
 11
343.873121
 21
430.84167
 31
0.0
  0
LINE
  5
202
330
1F0
100
AcDbEntity
  8
LC-002-100-D00-0
 62
     7
370
    50
100
AcDbLine
 10
343.873121
 20
430.84167
 30
0.0
 11
343.592228
 21
430.750262
 31
0.0
  0
LINE
  5
203
330
1F0
100
AcDbEntity
  8
LC-002-100-D00-0
 62
     7
370
    50
100
AcDbLine
 10
343.592228
 20
430.750262
 30
0.0
 11
343.592228
 21
430.750262
 31
0.0
  0
LINE
  5
204
330
1F0
100
AcDbEntity
  8
LC-002-100-D00-0
 62
     7
370
    50
100
AcDbLine
 10
343.592228
 20
430.750262
 30
0.0
 11
343.428604
 21
430.64196
 31
0.0
  0
LINE
  5
205
330
1F0
100
AcDbEntity
  8
LC-002-100-D00-0
 62
     7
370
    50
100
AcDbLine
 10
343.428604
 20
430.64196
 30
0.0
 11
343.428604
 21
430.64196
 31
0.0
  0
LINE
  5
206
330
1F0
100
AcDbEntity
  8
LC-002-100-D00-0
 62
     7
370
    50
100
AcDbLine
 10
343.428604
 20
430.64196
 30
0.0
 11
343.34199
 21
430.556903
 31
0.0
  0
LINE
  5
207
330
1F0
100
AcDbEntity
  8
LC-002-100-D00-0
 62
     7
370
    50
100
AcDbLine
 10
343.34199
 20
430.556903
 30
0.0
 11
343.34199
 21
430.556903
 31
0.0
  0
LINE
  5
208
330
1F0
100
AcDbEntity
  8
LC-002-100-D00-0
 62
     7
370
    50
100
AcDbLine
 10
343.34199
 20
430.556903
 30
0.0
 11
343.335219
 21
430.550254
 31
0.0
  0
ENDBLK
  5
1F2
330
1F0
100
AcDbEntity
  8
0
100
AcDbBlockEnd
  0
BLOCK
  5
21F
330
21E
100
AcDbEntity
  8
0
100
AcDbBlockBegin
  2
KLON1
 70
     0
 71
     0
 10
0.0
 20
0.0
 30
0.0
  3
KLON1
  1

  4
KLON1
  0
LINE
  5
221
330
21E
100
AcDbEntity
  8
LC-002-100-D00-0
 62
     7
370
    15
100
AcDbLine
 10
347.84234
 20
429.654269
 30
0.0
 11
347.813338
 21
429.625003
 31
0.0
  0
LINE
  5
222
330
21E
100
AcDbEntity
  8
LC-002-100-D00-0
 62
     7
370
    15
100
AcDbLine
 10
347.813338
 20
429.625003
 30
0.0
 11
347.689446
 21
429.500005
 31
0.0
  0
ENDBLK
  5
220
330
21E
100
AcDbEntity
  8
0
100
AcDbBlockEnd
  0
BLOCK
  5
228
330
227
100
AcDbEntity
  8
0
100
AcDbBlockBegin
  2
POLY22
 70
     0
 71
     0
 10
0.0
 20
0.0
 30
0.0
  3
POLY22
  1

  4
POLY22
  0
LINE
  5
22A
330
227
100
AcDbEntity
  8
LC-002-100-D00-0
 62
     7
370
    50
100
AcDbLine
 10
434.24205
 20
429.49961
 30
0.0
 11
434.24205
 21
429.49961
 31
0.0
  0
LINE
  5
22B
330
227
100
AcDbEntity
  8
LC-002-100-D00-0
 62
     7
370
    50
100
AcDbLine
 10
434.24205
 20
429.49961
 30
0.0
 11
434.331693
 21
429.487958
 31
0.0
  0
LINE
  5
22C
330
227
100
AcDbEntity
  8
LC-002-100-D00-0
 62
     7
370
    50
100
AcDbLine
 10
434.331693
 20
429.487958
 30
0.0
 11
434.331693
 21
429.487958
 31
0.0
  0
LINE
  5
22D
330
227
100
AcDbEntity
  8
LC-002-100-D00-0
 62
     7
370
    50
100
AcDbLine
 10
434.331693
 20
429.487958
 30
0.0
 11
434.51098
 21
429.464653
 31
0.0
  0
LINE
  5
22E
330
227
100
AcDbEntity
  8
LC-002-100-D00-0
 62
     7
370
    50
100
AcDbLine
 10
434.51098
 20
429.464653
 30
0.0
 11
434.51098
 21
429.464653
 31
0.0
  0
LINE
  5
22F
330
227
100
AcDbEntity
  8
LC-002-100-D00-0
 62
     7
370
    50
100
AcDbLine
 10
434.51098
 20
429.464653
 30
0.0
 11
434.745936
 21
429.319362
 31
0.0
  0
LINE
  5
230
330
227
100
AcDbEntity
  8
LC-002-100-D00-0
 62
     7
370
    50
100
AcDbLine
 10
434.745936
 20
429.319362
 30
0.0
 11
434.745936
 21
429.319362
 31
0.0
  0
LINE
  5
231
330
227
100
AcDbEntity
  8
LC-002-100-D00-0
 62
     7
370
    50
100
AcDbLine
 10
434.745936
 20
429.319362
 30
0.0
 11
434.921783
 21
429.11057
 31
0.0
  0
LINE
  5
232
330
227
100
AcDbEntity
  8
LC-002-100-D00-0
 62
     7
370
    50
100
AcDbLine
 10
434.921783
 20
429.11057
 30
0.0
 11
434.921783
 21
429.11057
 31
0.0
  0
LINE
  5
233
330
227
100
AcDbEntity
  8
LC-002-100-D00-0
 62
     7
370
    50
100
AcDbLine
 10
434.921783
 20
429.11057
 30
0.0
 11
435.016939
 21
428.854309
 31
0.0
  0
LINE
  5
234
330
227
100
AcDbEntity
  8
LC-002-100-D00-0
 62
     7
370
    50
100
AcDbLine
 10
435.016939
 20
428.854309
 30
0.0
 11
435.016939
 21
428.854309
 31
0.0
  0
LINE
  5
235
330
227
100
AcDbEntity
  8
LC-002-100-D00-0
 62
     7
370
    50
100
AcDbLine
 10
435.016939
 20
428.854309
 30
0.0
 11
435.025084
 21
428.615755
 31
0.0
  0
LINE
  5
236
330
227
100
AcDbEntity
  8
LC-002-100-D00-0
 62
     7
370
    50
100
AcDbLine
 10
435.025084
 20
428.615755
 30
0.0
 11
435.025084
 21
428.615755
 31
0.0
  0
LINE
  5
237
330
227
100
AcDbEntity
  8
LC-002-100-D00-0
 62
     7
370
    50
100
AcDbLine
 10
435.025084
 20
428.615755
 30
0.0
 11
434.984153
 21
428.478026
 31
0.0
  0
LINE
  5
238
330
227
100
AcDbEntity
  8
LC-002-100-D00-0
 62
     7
370
    50
100
AcDbLine
 10
434.984153
 20
428.478026
 30
0.0
 11
434.984153
 21
428.478026
 31
0.0
  0
LINE
  5
239
330
227
100
AcDbEntity
  8
LC-002-100-D00-0
 62
     7
370
    50
100
AcDbLine
 10
434.984153
 20
428.478026
 30
0.0
 11
434.968805
 21
428.426384
 31
0.0
  0
ENDBLK
  5
229
330
227
100
AcDbEntity
  8
0
100
AcDbBlockEnd
  0
BLOCK
  5
23C
330
23B
100
AcDbEntity
  8
0
100
AcDbBlockBegin
  2
POLY23
 70
     0
 71
     0
 10
0.0
 20
0.0
 30
0.0
  3
POLY23
  1

  4
POLY23
  0
LINE
  5
23E
330
23B
100
AcDbEntity
  8
LC-002-100-D00-0
 62
     7
370
    50
100
AcDbLine
 10
347.115584
 20
428.426384
 30
0.0
 11
347.115584
 21
428.426384
 31
0.0
  0
LINE
  5
23F
330
23B
100
AcDbEntity
  8
LC-002-100-D00-0
 62
     7
370
    50
100
AcDbLine
 10
347.115584
 20
428.426384
 30
0.0
 11
347.093129
 21
428.513949
 31
0.0
  0
LINE
  5
240
330
23B
100
AcDbEntity
  8
LC-002-100-D00-0
 62
     7
370
    50
100
AcDbLine
 10
347.093129
 20
428.513949
 30
0.0
 11
347.093129
 21
428.513949
 31
0.0
  0
LINE
  5
241
330
23B
100
AcDbEntity
  8
LC-002-100-D00-0
 62
     7
370
    50
100
AcDbLine
 10
347.093129
 20
428.513949
 30
0.0
 11
347.048219
 21
428.689076
 31
0.0
  0
LINE
  5
242
330
23B
100
AcDbEntity
  8
LC-002-100-D00-0
 62
     7
370
    50
100
AcDbLine
 10
347.048219
 20
428.689076
 30
0.0
 11
347.048219
 21
428.689076
 31
0.0
  0
LINE
  5
243
330
23B
100
AcDbEntity
  8
LC-002-100-D00-0
 62
     7
370
    50
100
AcDbLine
 10
347.048219
 20
428.689076
 30
0.0
 11
347.095905
 21
428.961177
 31
0.0
  0
LINE
  5
244
330
23B
100
AcDbEntity
  8
LC-002-100-D00-0
 62
     7
370
    50
100
AcDbLine
 10
347.095905
 20
428.961177
 30
0.0
 11
347.095905
 21
428.961177
 31
0.0
  0
LINE
  5
245
330
23B
100
AcDbEntity
  8
LC-002-100-D00-0
 62
     7
370
    50
100
AcDbLine
 10
347.095905
 20
428.961177
 30
0.0
 11
347.224499
 21
429.201965
 31
0.0
  0
LINE
  5
246
330
23B
100
AcDbEntity
  8
LC-002-100-D00-0
 62
     7
370
    50
100
AcDbLine
 10
347.224499
 20
429.201965
 30
0.0
 11
347.224499
 21
429.201965
 31
0.0
  0
LINE
  5
247
330
23B
100
AcDbEntity
  8
LC-002-100-D00-0
 62
     7
370
    50
100
AcDbLine
 10
347.224499
 20
429.201965
 30
0.0
 11
347.427126
 21
429.385446
 31
0.0
  0
LINE
  5
248
330
23B
100
AcDbEntity
  8
LC-002-100-D00-0
 62
     7
370
    50
100
AcDbLine
 10
347.427126
 20
429.385446
 30
0.0
 11
347.427126
 21
429.385446
 31
0.0
  0
LINE
  5
249
330
23B
100
AcDbEntity
  8
LC-002-100-D00-0
 62
     7
370
    50
100
AcDbLine
 10
347.427126
 20
429.385446
 30
0.0
 11
347.645605
 21
429.481576
 31
0.0
  0
LINE
  5
24A
330
23B
100
AcDbEntity
  8
LC-002-100-D00-0
 62
     7
370
    50
100
AcDbLine
 10
347.645605
 20
429.481576
 30
0.0
 11
347.645605
 21
429.481576
 31
0.0
  0
LINE
  5
24B
330
23B
100
AcDbEntity
  8
LC-002-100-D00-0
 62
     7
370
    50
100
AcDbLine
 10
347.645605
 20
429.481576
 30
0.0
 11
347.788689
 21
429.494692
 31
0.0
  0
LINE
  5
24C
330
23B
100
AcDbEntity
  8
LC-002-100-D00-0
 62
     7
370
    50
100
AcDbLine
 10
347.788689
 20
429.494692
 30
0.0
 11
347.788689
 21
429.494692
 31
0.0
  0
LINE
  5
24D
330
23B
100
AcDbEntity
  8
LC-002-100-D00-0
 62
     7
370
    50
100
AcDbLine
 10
347.788689
 20
429.494692
 30
0.0
 11
347.84234
 21
429.49961
 31
0.0
  0
ENDBLK
  5
23D
330
23B
100
AcDbEntity
  8
0
100
AcDbBlockEnd
  0
BLOCK
  5
250
330
24F
100
AcDbEntity
  8
0
100
AcDbBlockBegin
  2
POLY24
 70
     0
 71
     0
 10
0.0
 20
0.0
 30
0.0
  3
POLY24
  1

  4
POLY24
  0
LINE
  5
252
330
24F
100
AcDbEntity
  8
LC-002-100-D00-0
 62
     7
370
    50
100
AcDbLine
 10
433.042046
 20
437.500006
 30
0.0
 11
433.042046
 21
437.500006
 31
0.0
  0
LINE
  5
253
330
24F
100
AcDbEntity
  8
LC-002-100-D00-0
 62
     7
370
    50
100
AcDbLine
 10
433.042046
 20
437.500006
 30
0.0
 11
432.985821
 21
437.505535
 31
0.0
  0
LINE
  5
254
330
24F
100
AcDbEntity
  8
LC-002-100-D00-0
 62
     7
370
    50
100
AcDbLine
 10
432.985821
 20
437.505535
 30
0.0
 11
432.985821
 21
437.505535
 31
0.0
  0
LINE
  5
255
330
24F
100
AcDbEntity
  8
LC-002-100-D00-0
 62
     7
370
    50
100
AcDbLine
 10
432.985821
 20
437.505535
 30
0.0
 11
432.873373
 21
437.516591
 31
0.0
  0
LINE
  5
256
330
24F
100
AcDbEntity
  8
LC-002-100-D00-0
 62
     7
370
    50
100
AcDbLine
 10
432.873373
 20
437.516591
 30
0.0
 11
432.873373
 21
437.516591
 31
0.0
  0
LINE
  5
257
330
24F
100
AcDbEntity
  8
LC-002-100-D00-0
 62
     7
370
    50
100
AcDbLine
 10
432.873373
 20
437.516591
 30
0.0
 11
432.723714
 21
437.602777
 31
0.0
  0
LINE
  5
258
330
24F
100
AcDbEntity
  8
LC-002-100-D00-0
 62
     7
370
    50
100
AcDbLine
 10
432.723714
 20
437.602777
 30
0.0
 11
432.723714
 21
437.602777
 31
0.0
  0
LINE
  5
259
330
24F
100
AcDbEntity
  8
LC-002-100-D00-0
 62
     7
370
    50
100
AcDbLine
 10
432.723714
 20
437.602777
 30
0.0
 11
432.609949
 21
437.729707
 31
0.0
  0
LINE
  5
25A
330
24F
100
AcDbEntity
  8
LC-002-100-D00-0
 62
     7
370
    50
100
AcDbLine
 10
432.609949
 20
437.729707
 30
0.0
 11
432.609949
 21
437.729707
 31
0.0
  0
LINE
  5
25B
330
24F
100
AcDbEntity
  8
LC-002-100-D00-0
 62
     7
370
    50
100
AcDbLine
 10
432.609949
 20
437.729707
 30
0.0
 11
432.544898
 21
437.888191
 31
0.0
  0
LINE
  5
25C
330
24F
100
AcDbEntity
  8
LC-002-100-D00-0
 62
     7
370
    50
100
AcDbLine
 10
432.544898
 20
437.888191
 30
0.0
 11
432.544898
 21
437.888191
 31
0.0
  0
LINE
  5
25D
330
24F
100
AcDbEntity
  8
LC-002-100-D00-0
 62
     7
370
    50
100
AcDbLine
 10
432.544898
 20
437.888191
 30
0.0
 11
432.535898
 21
438.059
 31
0.0
  0
LINE
  5
25E
330
24F
100
AcDbEntity
  8
LC-002-100-D00-0
 62
     7
370
    50
100
AcDbLine
 10
432.535898
 20
438.059
 30
0.0
 11
432.535898
 21
438.059
 31
0.0
  0
LINE
  5
25F
330
24F
100
AcDbEntity
  8
LC-002-100-D00-0
 62
     7
370
    50
100
AcDbLine
 10
432.535898
 20
438.059
 30
0.0
 11
432.583952
 21
438.223199
 31
0.0
  0
LINE
  5
260
330
24F
100
AcDbEntity
  8
LC-002-100-D00-0
 62
     7
370
    50
100
AcDbLine
 10
432.583952
 20
438.223199
 30
0.0
 11
432.583952
 21
438.223199
 31
0.0
  0
LINE
  5
261
330
24F
100
AcDbEntity
  8
LC-002-100-D00-0
 62
     7
370
    50
100
AcDbLine
 10
432.583952
 20
438.223199
 30
0.0
 11
432.683688
 21
438.362354
 31
0.0
  0
LINE
  5
262
330
24F
100
AcDbEntity
  8
LC-002-100-D00-0
 62
     7
370
    50
100
AcDbLine
 10
432.683688
 20
438.362354
 30
0.0
 11
432.683688
 21
438.362354
 31
0.0
  0
LINE
  5
263
330
24F
100
AcDbEntity
  8
LC-002-100-D00-0
 62
     7
370
    50
100
AcDbLine
 10
432.683688
 20
438.362354
 30
0.0
 11
432.823698
 21
438.460137
 31
0.0
  0
LINE
  5
264
330
24F
100
AcDbEntity
  8
LC-002-100-D00-0
 62
     7
370
    50
100
AcDbLine
 10
432.823698
 20
438.460137
 30
0.0
 11
432.823698
 21
438.460137
 31
0.0
  0
LINE
  5
265
330
24F
100
AcDbEntity
  8
LC-002-100-D00-0
 62
     7
370
    50
100
AcDbLine
 10
432.823698
 20
438.460137
 30
0.0
 11
432.951016
 21
438.497047
 31
0.0
  0
LINE
  5
266
330
24F
100
AcDbEntity
  8
LC-002-100-D00-0
 62
     7
370
    50
100
AcDbLine
 10
432.951016
 20
438.497047
 30
0.0
 11
432.951016
 21
438.497047
 31
0.0
  0
LINE
  5
267
330
24F
100
AcDbEntity
  8
LC-002-100-D00-0
 62
     7
370
    50
100
AcDbLine
 10
432.951016
 20
438.497047
 30
0.0
 11
433.02451
 21
438.499432
 31
0.0
  0
LINE
  5
268
330
24F
100
AcDbEntity
  8
LC-002-100-D00-0
 62
     7
370
    50
100
AcDbLine
 10
433.02451
 20
438.499432
 30
0.0
 11
433.02451
 21
438.499432
 31
0.0
  0
LINE
  5
269
330
24F
100
AcDbEntity
  8
LC-002-100-D00-0
 62
     7
370
    50
100
AcDbLine
 10
433.02451
 20
438.499432
 30
0.0
 11
433.042046
 21
438.500001
 31
0.0
  0
ENDBLK
  5
251
330
24F
100
AcDbEntity
  8
0
100
AcDbBlockEnd
  0
BLOCK
  5
26D
330
26C
100
AcDbEntity
  8
0
100
AcDbBlockBegin
  2
POLY25
 70
     0
 71
     0
 10
0.0
 20
0.0
 30
0.0
  3
POLY25
  1

  4
POLY25
  0
LINE
  5
26F
330
26C
100
AcDbEntity
  8
LC-002-100-D00-0
 62
     7
370
    50
100
AcDbLine
 10
349.042345
 20
438.500001
 30
0.0
 11
349.042345
 21
438.500001
 31
0.0
  0
LINE
  5
270
330
26C
100
AcDbEntity
  8
LC-002-100-D00-0
 62
     7
370
    50
100
AcDbLine
 10
349.042345
 20
438.500001
 30
0.0
 11
349.098569
 21
438.494472
 31
0.0
  0
LINE
  5
271
330
26C
100
AcDbEntity
  8
LC-002-100-D00-0
 62
     7
370
    50
100
AcDbLine
 10
349.098569
 20
438.494472
 30
0.0
 11
349.098569
 21
438.494472
 31
0.0
  0
LINE
  5
272
330
26C
100
AcDbEntity
  8
LC-002-100-D00-0
 62
     7
370
    50
100
AcDbLine
 10
349.098569
 20
438.494472
 30
0.0
 11
349.211017
 21
438.483415
 31
0.0
  0
LINE
  5
273
330
26C
100
AcDbEntity
  8
LC-002-100-D00-0
 62
     7
370
    50
100
AcDbLine
 10
349.211017
 20
438.483415
 30
0.0
 11
349.211017
 21
438.483415
 31
0.0
  0
LINE
  5
274
330
26C
100
AcDbEntity
  8
LC-002-100-D00-0
 62
     7
370
    50
100
AcDbLine
 10
349.211017
 20
438.483415
 30
0.0
 11
349.360676
 21
438.39723
 31
0.0
  0
LINE
  5
275
330
26C
100
AcDbEntity
  8
LC-002-100-D00-0
 62
     7
370
    50
100
AcDbLine
 10
349.360676
 20
438.39723
 30
0.0
 11
349.360676
 21
438.39723
 31
0.0
  0
LINE
  5
276
330
26C
100
AcDbEntity
  8
LC-002-100-D00-0
 62
     7
370
    50
100
AcDbLine
 10
349.360676
 20
438.39723
 30
0.0
 11
349.474438
 21
438.270298
 31
0.0
  0
LINE
  5
277
330
26C
100
AcDbEntity
  8
LC-002-100-D00-0
 62
     7
370
    50
100
AcDbLine
 10
349.474438
 20
438.270298
 30
0.0
 11
349.474438
 21
438.270298
 31
0.0
  0
LINE
  5
278
330
26C
100
AcDbEntity
  8
LC-002-100-D00-0
 62
     7
370
    50
100
AcDbLine
 10
349.474438
 20
438.270298
 30
0.0
 11
349.539492
 21
438.111816
 31
0.0
  0
LINE
  5
279
330
26C
100
AcDbEntity
  8
LC-002-100-D00-0
 62
     7
370
    50
100
AcDbLine
 10
349.539492
 20
438.111816
 30
0.0
 11
349.539492
 21
438.111816
 31
0.0
  0
LINE
  5
27A
330
26C
100
AcDbEntity
  8
LC-002-100-D00-0
 62
     7
370
    50
100
AcDbLine
 10
349.539492
 20
438.111816
 30
0.0
 11
349.548491
 21
437.941007
 31
0.0
  0
LINE
  5
27B
330
26C
100
AcDbEntity
  8
LC-002-100-D00-0
 62
     7
370
    50
100
AcDbLine
 10
349.548491
 20
437.941007
 30
0.0
 11
349.548491
 21
437.941007
 31
0.0
  0
LINE
  5
27C
330
26C
100
AcDbEntity
  8
LC-002-100-D00-0
 62
     7
370
    50
100
AcDbLine
 10
349.548491
 20
437.941007
 30
0.0
 11
349.500437
 21
437.776809
 31
0.0
  0
LINE
  5
27D
330
26C
100
AcDbEntity
  8
LC-002-100-D00-0
 62
     7
370
    50
100
AcDbLine
 10
349.500437
 20
437.776809
 30
0.0
 11
349.500437
 21
437.776809
 31
0.0
  0
LINE
  5
27E
330
26C
100
AcDbEntity
  8
LC-002-100-D00-0
 62
     7
370
    50
100
AcDbLine
 10
349.500437
 20
437.776809
 30
0.0
 11
349.400703
 21
437.637651
 31
0.0
  0
LINE
  5
27F
330
26C
100
AcDbEntity
  8
LC-002-100-D00-0
 62
     7
370
    50
100
AcDbLine
 10
349.400703
 20
437.637651
 30
0.0
 11
349.400703
 21
437.637651
 31
0.0
  0
LINE
  5
280
330
26C
100
AcDbEntity
  8
LC-002-100-D00-0
 62
     7
370
    50
100
AcDbLine
 10
349.400703
 20
437.637651
 30
0.0
 11
349.260691
 21
437.53987
 31
0.0
  0
LINE
  5
281
330
26C
100
AcDbEntity
  8
LC-002-100-D00-0
 62
     7
370
    50
100
AcDbLine
 10
349.260691
 20
437.53987
 30
0.0
 11
349.260691
 21
437.53987
 31
0.0
  0
LINE
  5
282
330
26C
100
AcDbEntity
  8
LC-002-100-D00-0
 62
     7
370
    50
100
AcDbLine
 10
349.260691
 20
437.53987
 30
0.0
 11
349.133375
 21
437.50296
 31
0.0
  0
LINE
  5
283
330
26C
100
AcDbEntity
  8
LC-002-100-D00-0
 62
     7
370
    50
100
AcDbLine
 10
349.133375
 20
437.50296
 30
0.0
 11
349.133375
 21
437.50296
 31
0.0
  0
LINE
  5
284
330
26C
100
AcDbEntity
  8
LC-002-100-D00-0
 62
     7
370
    50
100
AcDbLine
 10
349.133375
 20
437.50296
 30
0.0
 11
349.059881
 21
437.500575
 31
0.0
  0
LINE
  5
285
330
26C
100
AcDbEntity
  8
LC-002-100-D00-0
 62
     7
370
    50
100
AcDbLine
 10
349.059881
 20
437.500575
 30
0.0
 11
349.059881
 21
437.500575
 31
0.0
  0
LINE
  5
286
330
26C
100
AcDbEntity
  8
LC-002-100-D00-0
 62
     7
370
    50
100
AcDbLine
 10
349.059881
 20
437.500575
 30
0.0
 11
349.042345
 21
437.500006
 31
0.0
  0
ENDBLK
  5
26E
330
26C
100
AcDbEntity
  8
0
100
AcDbBlockEnd
  0
BLOCK
  5
289
330
288
100
AcDbEntity
  8
0
100
AcDbBlockBegin
  2
POLY26
 70
     0
 71
     0
 10
0.0
 20
0.0
 30
0.0
  3
POLY26
  1

  4
POLY26
  0
LINE
  5
28B
330
288
100
AcDbEntity
  8
LC-002-100-D00-0
 62
     7
370
    50
100
AcDbLine
 10
433.042046
 20
438.500001
 30
0.0
 11
433.042046
 21
438.500001
 31
0.0
  0
LINE
  5
28C
330
288
100
AcDbEntity
  8
LC-002-100-D00-0
 62
     7
370
    50
100
AcDbLine
 10
433.042046
 20
438.500001
 30
0.0
 11
432.968797
 21
438.500001
 31
0.0
  0
LINE
  5
28D
330
288
100
AcDbEntity
  8
LC-002-100-D00-0
 62
     7
370
    50
100
AcDbLine
 10
432.968797
 20
438.500001
 30
0.0
 11
432.968797
 21
438.500001
 31
0.0
  0
LINE
  5
28E
330
288
100
AcDbEntity
  8
LC-002-100-D00-0
 62
     7
370
    50
100
AcDbLine
 10
432.968797
 20
438.500001
 30
0.0
 11
432.822303
 21
438.500001
 31
0.0
  0
LINE
  5
28F
330
288
100
AcDbEntity
  8
LC-002-100-D00-0
 62
     7
370
    50
100
AcDbLine
 10
432.822303
 20
438.500001
 30
0.0
 11
432.822303
 21
438.500001
 31
0.0
  0
LINE
  5
290
330
288
100
AcDbEntity
  8
LC-002-100-D00-0
 62
     7
370
    50
100
AcDbLine
 10
432.822303
 20
438.500001
 30
0.0
 11
431.707381
 21
438.500001
 31
0.0
  0
LINE
  5
291
330
288
100
AcDbEntity
  8
LC-002-100-D00-0
 62
     7
370
    50
100
AcDbLine
 10
431.707381
 20
438.500001
 30
0.0
 11
431.707381
 21
438.500001
 31
0.0
  0
LINE
  5
292
330
288
100
AcDbEntity
  8
LC-002-100-D00-0
 62
     7
370
    50
100
AcDbLine
 10
431.707381
 20
438.500001
 30
0.0
 11
429.952953
 21
438.500001
 31
0.0
  0
LINE
  5
293
330
288
100
AcDbEntity
  8
LC-002-100-D00-0
 62
     7
370
    50
100
AcDbLine
 10
429.952953
 20
438.500001
 30
0.0
 11
429.952953
 21
438.500001
 31
0.0
  0
LINE
  5
294
330
288
100
AcDbEntity
  8
LC-002-100-D00-0
 62
     7
370
    50
100
AcDbLine
 10
429.952953
 20
438.500001
 30
0.0
 11
427.518766
 21
438.500001
 31
0.0
  0
LINE
  5
295
330
288
100
AcDbEntity
  8
LC-002-100-D00-0
 62
     7
370
    50
100
AcDbLine
 10
427.518766
 20
438.500001
 30
0.0
 11
427.518766
 21
438.500001
 31
0.0
  0
LINE
  5
296
330
288
100
AcDbEntity
  8
LC-002-100-D00-0
 62
     7
370
    50
100
AcDbLine
 10
427.518766
 20
438.500001
 30
0.0
 11
424.458604
 21
438.500001
 31
0.0
  0
LINE
  5
297
330
288
100
AcDbEntity
  8
LC-002-100-D00-0
 62
     7
370
    50
100
AcDbLine
 10
424.458604
 20
438.500001
 30
0.0
 11
424.458604
 21
438.500001
 31
0.0
  0
LINE
  5
298
330
288
100
AcDbEntity
  8
LC-002-100-D00-0
 62
     7
370
    50
100
AcDbLine
 10
424.458604
 20
438.500001
 30
0.0
 11
420.82567
 21
438.500001
 31
0.0
  0
LINE
  5
299
330
288
100
AcDbEntity
  8
LC-002-100-D00-0
 62
     7
370
    50
100
AcDbLine
 10
420.82567
 20
438.500001
 30
0.0
 11
420.82567
 21
438.500001
 31
0.0
  0
LINE
  5
29A
330
288
100
AcDbEntity
  8
LC-002-100-D00-0
 62
     7
370
    50
100
AcDbLine
 10
420.82567
 20
438.500001
 30
0.0
 11
416.683444
 21
438.500001
 31
0.0
  0
LINE
  5
29B
330
288
100
AcDbEntity
  8
LC-002-100-D00-0
 62
     7
370
    50
100
AcDbLine
 10
416.683444
 20
438.500001
 30
0.0
 11
416.683444
 21
438.500001
 31
0.0
  0
LINE
  5
29C
330
288
100
AcDbEntity
  8
LC-002-100-D00-0
 62
     7
370
    50
100
AcDbLine
 10
416.683444
 20
438.500001
 30
0.0
 11
412.102391
 21
438.500001
 31
0.0
  0
LINE
  5
29D
330
288
100
AcDbEntity
  8
LC-002-100-D00-0
 62
     7
370
    50
100
AcDbLine
 10
412.102391
 20
438.500001
 30
0.0
 11
412.102391
 21
438.500001
 31
0.0
  0
LINE
  5
29E
330
288
100
AcDbEntity
  8
LC-002-100-D00-0
 62
     7
370
    50
100
AcDbLine
 10
412.102391
 20
438.500001
 30
0.0
 11
407.161
 21
438.500001
 31
0.0
  0
LINE
  5
29F
330
288
100
AcDbEntity
  8
LC-002-100-D00-0
 62
     7
370
    50
100
AcDbLine
 10
407.161
 20
438.500001
 30
0.0
 11
407.161
 21
438.500001
 31
0.0
  0
LINE
  5
2A0
330
288
100
AcDbEntity
  8
LC-002-100-D00-0
 62
     7
370
    50
100
AcDbLine
 10
407.161
 20
438.500001
 30
0.0
 11
401.943834
 21
438.500001
 31
0.0
  0
LINE
  5
2A1
330
288
100
AcDbEntity
  8
LC-002-100-D00-0
 62
     7
370
    50
100
AcDbLine
 10
401.943834
 20
438.500001
 30
0.0
 11
401.943834
 21
438.500001
 31
0.0
  0
LINE
  5
2A2
330
288
100
AcDbEntity
  8
LC-002-100-D00-0
 62
     7
370
    50
100
AcDbLine
 10
401.943834
 20
438.500001
 30
0.0
 11
396.540124
 21
438.500001
 31
0.0
  0
LINE
  5
2A3
330
288
100
AcDbEntity
  8
LC-002-100-D00-0
 62
     7
370
    50
100
AcDbLine
 10
396.540124
 20
438.500001
 30
0.0
 11
396.540124
 21
438.500001
 31
0.0
  0
LINE
  5
2A4
330
288
100
AcDbEntity
  8
LC-002-100-D00-0
 62
     7
370
    50
100
AcDbLine
 10
396.540124
 20
438.500001
 30
0.0
 11
391.042343
 21
438.500001
 31
0.0
  0
LINE
  5
2A5
330
288
100
AcDbEntity
  8
LC-002-100-D00-0
 62
     7
370
    50
100
AcDbLine
 10
391.042343
 20
438.500001
 30
0.0
 11
391.042343
 21
438.500001
 31
0.0
  0
LINE
  5
2A6
330
288
100
AcDbEntity
  8
LC-002-100-D00-0
 62
     7
370
    50
100
AcDbLine
 10
391.042343
 20
438.500001
 30
0.0
 11
385.54456
 21
438.500001
 31
0.0
  0
LINE
  5
2A7
330
288
100
AcDbEntity
  8
LC-002-100-D00-0
 62
     7
370
    50
100
AcDbLine
 10
385.54456
 20
438.500001
 30
0.0
 11
385.54456
 21
438.500001
 31
0.0
  0
LINE
  5
2A8
330
288
100
AcDbEntity
  8
LC-002-100-D00-0
 62
     7
370
    50
100
AcDbLine
 10
385.54456
 20
438.500001
 30
0.0
 11
380.140845
 21
438.500001
 31
0.0
  0
LINE
  5
2A9
330
288
100
AcDbEntity
  8
LC-002-100-D00-0
 62
     7
370
    50
100
AcDbLine
 10
380.140845
 20
438.500001
 30
0.0
 11
380.140845
 21
438.500001
 31
0.0
  0
LINE
  5
2AA
330
288
100
AcDbEntity
  8
LC-002-100-D00-0
 62
     7
370
    50
100
AcDbLine
 10
380.140845
 20
438.500001
 30
0.0
 11
374.923667
 21
438.500001
 31
0.0
  0
LINE
  5
2AB
330
288
100
AcDbEntity
  8
LC-002-100-D00-0
 62
     7
370
    50
100
AcDbLine
 10
374.923667
 20
438.500001
 30
0.0
 11
374.923667
 21
438.500001
 31
0.0
  0
LINE
  5
2AC
330
288
100
AcDbEntity
  8
LC-002-100-D00-0
 62
     7
370
    50
100
AcDbLine
 10
374.923667
 20
438.500001
 30
0.0
 11
369.982262
 21
438.500001
 31
0.0
  0
LINE
  5
2AD
330
288
100
AcDbEntity
  8
LC-002-100-D00-0
 62
     7
370
    50
100
AcDbLine
 10
369.982262
 20
438.500001
 30
0.0
 11
369.982262
 21
438.500001
 31
0.0
  0
LINE
  5
2AE
330
288
100
AcDbEntity
  8
LC-002-100-D00-0
 62
     7
370
    50
100
AcDbLine
 10
369.982262
 20
438.500001
 30
0.0
 11
365.401191
 21
438.500001
 31
0.0
  0
LINE
  5
2AF
330
288
100
AcDbEntity
  8
LC-002-100-D00-0
 62
     7
370
    50
100
AcDbLine
 10
365.401191
 20
438.500001
 30
0.0
 11
365.401191
 21
438.500001
 31
0.0
  0
LINE
  5
2B0
330
288
100
AcDbEntity
  8
LC-002-100-D00-0
 62
     7
370
    50
100
AcDbLine
 10
365.401191
 20
438.500001
 30
0.0
 11
361.25893
 21
438.500001
 31
0.0
  0
LINE
  5
2B1
330
288
100
AcDbEntity
  8
LC-002-100-D00-0
 62
     7
370
    50
100
AcDbLine
 10
361.25893
 20
438.500001
 30
0.0
 11
361.25893
 21
438.500001
 31
0.0
  0
LINE
  5
2B2
330
288
100
AcDbEntity
  8
LC-002-100-D00-0
 62
     7
370
    50
100
AcDbLine
 10
361.25893
 20
438.500001
 30
0.0
 11
357.625963
 21
438.500001
 31
0.0
  0
LINE
  5
2B3
330
288
100
AcDbEntity
  8
LC-002-100-D00-0
 62
     7
370
    50
100
AcDbLine
 10
357.625963
 20
438.500001
 30
0.0
 11
357.625963
 21
438.500001
 31
0.0
  0
LINE
  5
2B4
330
288
100
AcDbEntity
  8
LC-002-100-D00-0
 62
     7
370
    50
100
AcDbLine
 10
357.625963
 20
438.500001
 30
0.0
 11
354.565777
 21
438.500001
 31
0.0
  0
LINE
  5
2B5
330
288
100
AcDbEntity
  8
LC-002-100-D00-0
 62
     7
370
    50
100
AcDbLine
 10
354.565777
 20
438.500001
 30
0.0
 11
354.565777
 21
438.500001
 31
0.0
  0
LINE
  5
2B6
330
288
100
AcDbEntity
  8
LC-002-100-D00-0
 62
     7
370
    50
100
AcDbLine
 10
354.565777
 20
438.500001
 30
0.0
 11
352.131549
 21
438.500001
 31
0.0
  0
LINE
  5
2B7
330
288
100
AcDbEntity
  8
LC-002-100-D00-0
 62
     7
370
    50
100
AcDbLine
 10
352.131549
 20
438.500001
 30
0.0
 11
352.131549
 21
438.500001
 31
0.0
  0
LINE
  5
2B8
330
288
100
AcDbEntity
  8
LC-002-100-D00-0
 62
     7
370
    50
100
AcDbLine
 10
352.131549
 20
438.500001
 30
0.0
 11
350.377077
 21
438.500001
 31
0.0
  0
LINE
  5
2B9
330
288
100
AcDbEntity
  8
LC-002-100-D00-0
 62
     7
370
    50
100
AcDbLine
 10
350.377077
 20
438.500001
 30
0.0
 11
350.377077
 21
438.500001
 31
0.0
  0
LINE
  5
2BA
330
288
100
AcDbEntity
  8
LC-002-100-D00-0
 62
     7
370
    50
100
AcDbLine
 10
350.377077
 20
438.500001
 30
0.0
 11
349.262125
 21
438.500001
 31
0.0
  0
LINE
  5
2BB
330
288
100
AcDbEntity
  8
LC-002-100-D00-0
 62
     7
370
    50
100
AcDbLine
 10
349.262125
 20
438.500001
 30
0.0
 11
349.262125
 21
438.500001
 31
0.0
  0
LINE
  5
2BC
330
288
100
AcDbEntity
  8
LC-002-100-D00-0
 62
     7
370
    50
100
AcDbLine
 10
349.262125
 20
438.500001
 30
0.0
 11
349.115609
 21
438.500001
 31
0.0
  0
LINE
  5
2BD
330
288
100
AcDbEntity
  8
LC-002-100-D00-0
 62
     7
370
    50
100
AcDbLine
 10
349.115609
 20
438.500001
 30
0.0
 11
349.115609
 21
438.500001
 31
0.0
  0
LINE
  5
2BE
330
288
100
AcDbEntity
  8
LC-002-100-D00-0
 62
     7
370
    50
100
AcDbLine
 10
349.115609
 20
438.500001
 30
0.0
 11
349.042345
 21
438.500001
 31
0.0
  0
ENDBLK
  5
28A
330
288
100
AcDbEntity
  8
0
100
AcDbBlockEnd
  0
BLOCK
  5
2EF
330
2EE
100
AcDbEntity
  8
0
100
AcDbBlockBegin
  2
POLY27
 70
     0
 71
     0
 10
0.0
 20
0.0
 30
0.0
  3
POLY27
  1

  4
POLY27
  0
LINE
  5
2F1
330
2EE
100
AcDbEntity
  8
LC-002-100-D00-0
 62
     7
370
    50
100
AcDbLine
 10
390.901332
 20
444.000004
 30
0.0
 11
390.901332
 21
444.000004
 31
0.0
  0
LINE
  5
2F2
330
2EE
100
AcDbEntity
  8
LC-002-100-D00-0
 62
     7
370
    50
100
AcDbLine
 10
390.901332
 20
444.000004
 30
0.0
 11
390.775077
 21
444.000004
 31
0.0
  0
LINE
  5
2F3
330
2EE
100
AcDbEntity
  8
LC-002-100-D00-0
 62
     7
370
    50
100
AcDbLine
 10
390.775077
 20
444.000004
 30
0.0
 11
390.775077
 21
444.000004
 31
0.0
  0
LINE
  5
2F4
330
2EE
100
AcDbEntity
  8
LC-002-100-D00-0
 62
     7
370
    50
100
AcDbLine
 10
390.775077
 20
444.000004
 30
0.0
 11
390.550488
 21
444.000004
 31
0.0
  0
LINE
  5
2F5
330
2EE
100
AcDbEntity
  8
LC-002-100-D00-0
 62
     7
370
    50
100
AcDbLine
 10
390.550488
 20
444.000004
 30
0.0
 11
390.550488
 21
444.000004
 31
0.0
  0
LINE
  5
2F6
330
2EE
100
AcDbEntity
  8
LC-002-100-D00-0
 62
     7
370
    50
100
AcDbLine
 10
390.550488
 20
444.000004
 30
0.0
 11
390.486763
 21
444.000004
 31
0.0
  0
LINE
  5
2F7
330
2EE
100
AcDbEntity
  8
LC-002-100-D00-0
 62
     7
370
    50
100
AcDbLine
 10
390.486763
 20
444.000004
 30
0.0
 11
390.486763
 21
444.000004
 31
0.0
  0
LINE
  5
2F8
330
2EE
100
AcDbEntity
  8
LC-002-100-D00-0
 62
     7
370
    50
100
AcDbLine
 10
390.486763
 20
444.000004
 30
0.0
 11
390.458862
 21
444.000004
 31
0.0
  0
ENDBLK
  5
2F0
330
2EE
100
AcDbEntity
  8
0
100
AcDbBlockEnd
  0
BLOCK
  5
3CF
330
3CE
100
AcDbEntity
  8
0
100
AcDbBlockBegin
  2
POLY28
 70
     0
 71
     0
 10
0.0
 20
0.0
 30
0.0
  3
POLY28
  1

  4
POLY28
  0
LINE
  5
3D1
330
3CE
100
AcDbEntity
  8
LC-002-100-D00-0
 62
     7
370
    50
100
AcDbLine
 10
339.093432
 20
276.505517
 30
0.0
 11
339.093432
 21
276.505517
 31
0.0
  0
LINE
  5
3D2
330
3CE
100
AcDbEntity
  8
LC-002-100-D00-0
 62
     7
370
    50
100
AcDbLine
 10
339.093432
 20
276.505517
 30
0.0
 11
339.083167
 21
276.547422
 31
0.0
  0
LINE
  5
3D3
330
3CE
100
AcDbEntity
  8
LC-002-100-D00-0
 62
     7
370
    50
100
AcDbLine
 10
339.083167
 20
276.547422
 30
0.0
 11
339.083167
 21
276.547422
 31
0.0
  0
LINE
  5
3D4
330
3CE
100
AcDbEntity
  8
LC-002-100-D00-0
 62
     7
370
    50
100
AcDbLine
 10
339.083167
 20
276.547422
 30
0.0
 11
339.052
 21
276.674651
 31
0.0
  0
LINE
  5
3D5
330
3CE
100
AcDbEntity
  8
LC-002-100-D00-0
 62
     7
370
    50
100
AcDbLine
 10
339.052
 20
276.674651
 30
0.0
 11
339.052
 21
276.674651
 31
0.0
  0
LINE
  5
3D6
330
3CE
100
AcDbEntity
  8
LC-002-100-D00-0
 62
     7
370
    50
100
AcDbLine
 10
339.052
 20
276.674651
 30
0.0
 11
339.046202
 21
276.805799
 31
0.0
  0
LINE
  5
3D7
330
3CE
100
AcDbEntity
  8
LC-002-100-D00-0
 62
     7
370
    50
100
AcDbLine
 10
339.046202
 20
276.805799
 30
0.0
 11
339.046202
 21
276.805799
 31
0.0
  0
LINE
  5
3D8
330
3CE
100
AcDbEntity
  8
LC-002-100-D00-0
 62
     7
370
    50
100
AcDbLine
 10
339.046202
 20
276.805799
 30
0.0
 11
339.042314
 21
276.893752
 31
0.0
  0
ENDBLK
  5
3D0
330
3CE
100
AcDbEntity
  8
0
100
AcDbBlockEnd
  0
BLOCK
  5
3DB
330
3DA
100
AcDbEntity
  8
0
100
AcDbBlockBegin
  2
KLON2
 70
     0
 71
     0
 10
0.0
 20
0.0
 30
0.0
  3
KLON2
  1

  4
KLON2
  0
LINE
  5
3DD
330
3DA
100
AcDbEntity
  8
LC-002-100-D00-0
 62
     7
370
    15
100
AcDbLine
 10
339.093432
 20
276.505517
 30
0.0
 11
341.186211
 21
268.695323
 31
0.0
  0
LINE
  5
3DE
330
3DA
100
AcDbEntity
  8
LC-002-100-D00-0
 62
     7
370
    15
100
AcDbLine
 10
341.186211
 20
268.695323
 30
0.0
 11
341.714569
 21
266.723531
 31
0.0
  0
ENDBLK
  5
3DC
330
3DA
100
AcDbEntity
  8
0
100
AcDbBlockEnd
  0
BLOCK
  5
3E1
330
3E0
100
AcDbEntity
  8
0
100
AcDbBlockBegin
  2
POLY29
 70
     0
 71
     0
 10
0.0
 20
0.0
 30
0.0
  3
POLY29
  1

  4
POLY29
  0
LINE
  5
3E3
330
3E0
100
AcDbEntity
  8
LC-002-100-D00-0
 62
     7
370
    50
100
AcDbLine
 10
341.714569
 20
266.723531
 30
0.0
 11
341.714569
 21
266.723531
 31
0.0
  0
LINE
  5
3E4
330
3E0
100
AcDbEntity
  8
LC-002-100-D00-0
 62
     7
370
    50
100
AcDbLine
 10
341.714569
 20
266.723531
 30
0.0
 11
341.798126
 21
266.483309
 31
0.0
  0
LINE
  5
3E5
330
3E0
100
AcDbEntity
  8
LC-002-100-D00-0
 62
     7
370
    50
100
AcDbLine
 10
341.798126
 20
266.483309
 30
0.0
 11
341.798126
 21
266.483309
 31
0.0
  0
LINE
  5
3E6
330
3E0
100
AcDbEntity
  8
LC-002-100-D00-0
 62
     7
370
    50
100
AcDbLine
 10
341.798126
 20
266.483309
 30
0.0
 11
341.951105
 21
266.043505
 31
0.0
  0
LINE
  5
3E7
330
3E0
100
AcDbEntity
  8
LC-002-100-D00-0
 62
     7
370
    50
100
AcDbLine
 10
341.951105
 20
266.043505
 30
0.0
 11
341.951105
 21
266.043505
 31
0.0
  0
LINE
  5
3E8
330
3E0
100
AcDbEntity
  8
LC-002-100-D00-0
 62
     7
370
    50
100
AcDbLine
 10
341.951105
 20
266.043505
 30
0.0
 11
342.4281
 21
265.391315
 31
0.0
  0
LINE
  5
3E9
330
3E0
100
AcDbEntity
  8
LC-002-100-D00-0
 62
     7
370
    50
100
AcDbLine
 10
342.4281
 20
265.391315
 30
0.0
 11
342.4281
 21
265.391315
 31
0.0
  0
LINE
  5
3EA
330
3E0
100
AcDbEntity
  8
LC-002-100-D00-0
 62
     7
370
    50
100
AcDbLine
 10
342.4281
 20
265.391315
 30
0.0
 11
343.125421
 21
264.830151
 31
0.0
  0
LINE
  5
3EB
330
3E0
100
AcDbEntity
  8
LC-002-100-D00-0
 62
     7
370
    50
100
AcDbLine
 10
343.125421
 20
264.830151
 30
0.0
 11
343.125421
 21
264.830151
 31
0.0
  0
LINE
  5
3EC
330
3E0
100
AcDbEntity
  8
LC-002-100-D00-0
 62
     7
370
    50
100
AcDbLine
 10
343.125421
 20
264.830151
 30
0.0
 11
343.936478
 21
264.534707
 31
0.0
  0
LINE
  5
3ED
330
3E0
100
AcDbEntity
  8
LC-002-100-D00-0
 62
     7
370
    50
100
AcDbLine
 10
343.936478
 20
264.534707
 30
0.0
 11
343.936478
 21
264.534707
 31
0.0
  0
LINE
  5
3EE
330
3E0
100
AcDbEntity
  8
LC-002-100-D00-0
 62
     7
370
    50
100
AcDbLine
 10
343.936478
 20
264.534707
 30
0.0
 11
344.442381
 21
264.50873
 31
0.0
  0
LINE
  5
3EF
330
3E0
100
AcDbEntity
  8
LC-002-100-D00-0
 62
     7
370
    50
100
AcDbLine
 10
344.442381
 20
264.50873
 30
0.0
 11
344.442381
 21
264.50873
 31
0.0
  0
LINE
  5
3F0
330
3E0
100
AcDbEntity
  8
LC-002-100-D00-0
 62
     7
370
    50
100
AcDbLine
 10
344.442381
 20
264.50873
 30
0.0
 11
344.612349
 21
264.500002
 31
0.0
  0
ENDBLK
  5
3E2
330
3E0
100
AcDbEntity
  8
0
100
AcDbBlockEnd
  0
BLOCK
  5
3F4
330
3F3
100
AcDbEntity
  8
0
100
AcDbBlockBegin
  2
POLY30
 70
     0
 71
     0
 10
0.0
 20
0.0
 30
0.0
  3
POLY30
  1

  4
POLY30
  0
LINE
  5
3F6
330
3F3
100
AcDbEntity
  8
LC-002-100-D00-0
 62
     7
370
    50
100
AcDbLine
 10
366.542452
 20
266.000001
 30
0.0
 11
366.542452
 21
266.000001
 31
0.0
  0
LINE
  5
3F7
330
3F3
100
AcDbEntity
  8
LC-002-100-D00-0
 62
     7
370
    50
100
AcDbLine
 10
366.542452
 20
266.000001
 30
0.0
 11
366.542451
 21
265.999095
 31
0.0
  0
LINE
  5
3F8
330
3F3
100
AcDbEntity
  8
LC-002-100-D00-0
 62
     7
370
    50
100
AcDbLine
 10
366.542451
 20
265.999095
 30
0.0
 11
366.542451
 21
265.999095
 31
0.0
  0
LINE
  5
3F9
330
3F3
100
AcDbEntity
  8
LC-002-100-D00-0
 62
     7
370
    50
100
AcDbLine
 10
366.542451
 20
265.999095
 30
0.0
 11
366.542271
 21
265.830307
 31
0.0
  0
LINE
  5
3FA
330
3F3
100
AcDbEntity
  8
LC-002-100-D00-0
 62
     7
370
    50
100
AcDbLine
 10
366.542271
 20
265.830307
 30
0.0
 11
366.542271
 21
265.830307
 31
0.0
  0
LINE
  5
3FB
330
3F3
100
AcDbEntity
  8
LC-002-100-D00-0
 62
     7
370
    50
100
AcDbLine
 10
366.542271
 20
265.830307
 30
0.0
 11
366.484041
 21
265.490996
 31
0.0
  0
LINE
  5
3FC
330
3F3
100
AcDbEntity
  8
LC-002-100-D00-0
 62
     7
370
    50
100
AcDbLine
 10
366.484041
 20
265.490996
 30
0.0
 11
366.484041
 21
265.490996
 31
0.0
  0
LINE
  5
3FD
330
3F3
100
AcDbEntity
  8
LC-002-100-D00-0
 62
     7
370
    50
100
AcDbLine
 10
366.484041
 20
265.490996
 30
0.0
 11
366.234644
 21
265.043012
 31
0.0
  0
LINE
  5
3FE
330
3F3
100
AcDbEntity
  8
LC-002-100-D00-0
 62
     7
370
    50
100
AcDbLine
 10
366.234644
 20
265.043012
 30
0.0
 11
366.234644
 21
265.043012
 31
0.0
  0
LINE
  5
3FF
330
3F3
100
AcDbEntity
  8
LC-002-100-D00-0
 62
     7
370
    50
100
AcDbLine
 10
366.234644
 20
265.043012
 30
0.0
 11
365.897735
 21
264.74456
 31
0.0
  0
LINE
  5
400
330
3F3
100
AcDbEntity
  8
LC-002-100-D00-0
 62
     7
370
    50
100
AcDbLine
 10
365.897735
 20
264.74456
 30
0.0
 11
365.897735
 21
264.74456
 31
0.0
  0
LINE
  5
401
330
3F3
100
AcDbEntity
  8
LC-002-100-D00-0
 62
     7
370
    50
100
AcDbLine
 10
365.897735
 20
264.74456
 30
0.0
 11
365.499027
 21
264.551157
 31
0.0
  0
LINE
  5
402
330
3F3
100
AcDbEntity
  8
LC-002-100-D00-0
 62
     7
370
    50
100
AcDbLine
 10
365.499027
 20
264.551157
 30
0.0
 11
365.499027
 21
264.551157
 31
0.0
  0
LINE
  5
403
330
3F3
100
AcDbEntity
  8
LC-002-100-D00-0
 62
     7
370
    50
100
AcDbLine
 10
365.499027
 20
264.551157
 30
0.0
 11
365.219284
 21
264.50051
 31
0.0
  0
LINE
  5
404
330
3F3
100
AcDbEntity
  8
LC-002-100-D00-0
 62
     7
370
    50
100
AcDbLine
 10
365.219284
 20
264.50051
 30
0.0
 11
365.219284
 21
264.50051
 31
0.0
  0
LINE
  5
405
330
3F3
100
AcDbEntity
  8
LC-002-100-D00-0
 62
     7
370
    50
100
AcDbLine
 10
365.219284
 20
264.50051
 30
0.0
 11
365.046923
 21
264.500015
 31
0.0
  0
LINE
  5
406
330
3F3
100
AcDbEntity
  8
LC-002-100-D00-0
 62
     7
370
    50
100
AcDbLine
 10
365.046923
 20
264.500015
 30
0.0
 11
365.046923
 21
264.500015
 31
0.0
  0
LINE
  5
407
330
3F3
100
AcDbEntity
  8
LC-002-100-D00-0
 62
     7
370
    50
100
AcDbLine
 10
365.046923
 20
264.500015
 30
0.0
 11
365.042437
 21
264.500002
 31
0.0
  0
ENDBLK
  5
3F5
330
3F3
100
AcDbEntity
  8
0
100
AcDbBlockEnd
  0
BLOCK
  5
40E
330
40D
100
AcDbEntity
  8
0
100
AcDbBlockBegin
  2
KLON3
 70
     0
 71
     0
 10
0.0
 20
0.0
 30
0.0
  3
KLON3
  1

  4
KLON3
  0
LINE
  5
410
330
40D
100
AcDbEntity
  8
LC-002-100-D00-0
 62
     7
370
    15
100
AcDbLine
 10
366.980277
 20
204.000002
 30
0.0
 11
366.898615
 21
204.304768
 31
0.0
  0
LINE
  5
411
330
40D
100
AcDbEntity
  8
LC-002-100-D00-0
 62
     7
370
    15
100
AcDbLine
 10
366.898615
 20
204.304768
 30
0.0
 11
366.042447
 21
207.500002
 31
0.0
  0
ENDBLK
  5
40F
330
40D
100
AcDbEntity
  8
0
100
AcDbBlockEnd
  0
BLOCK
  5
416
330
415
100
AcDbEntity
  8
0
100
AcDbBlockBegin
  2
POLY31
 70
     0
 71
     0
 10
0.0
 20
0.0
 30
0.0
  3
POLY31
  1

  4
POLY31
  0
LINE
  5
418
330
415
100
AcDbEntity
  8
LC-002-100-D00-0
 62
     7
370
    50
100
AcDbLine
 10
342.282184
 20
262.000001
 30
0.0
 11
342.282184
 21
262.000001
 31
0.0
  0
LINE
  5
419
330
415
100
AcDbEntity
  8
LC-002-100-D00-0
 62
     7
370
    50
100
AcDbLine
 10
342.282184
 20
262.000001
 30
0.0
 11
341.994025
 21
262.02426
 31
0.0
  0
LINE
  5
41A
330
415
100
AcDbEntity
  8
LC-002-100-D00-0
 62
     7
370
    50
100
AcDbLine
 10
341.994025
 20
262.02426
 30
0.0
 11
341.994025
 21
262.02426
 31
0.0
  0
LINE
  5
41B
330
415
100
AcDbEntity
  8
LC-002-100-D00-0
 62
     7
370
    50
100
AcDbLine
 10
341.994025
 20
262.02426
 30
0.0
 11
341.369136
 21
262.076869
 31
0.0
  0
LINE
  5
41C
330
415
100
AcDbEntity
  8
LC-002-100-D00-0
 62
     7
370
    50
100
AcDbLine
 10
341.369136
 20
262.076869
 30
0.0
 11
341.369136
 21
262.076869
 31
0.0
  0
LINE
  5
41D
330
415
100
AcDbEntity
  8
LC-002-100-D00-0
 62
     7
370
    50
100
AcDbLine
 10
341.369136
 20
262.076869
 30
0.0
 11
340.605197
 21
262.468354
 31
0.0
  0
LINE
  5
41E
330
415
100
AcDbEntity
  8
LC-002-100-D00-0
 62
     7
370
    50
100
AcDbLine
 10
340.605197
 20
262.468354
 30
0.0
 11
340.605197
 21
262.468354
 31
0.0
  0
LINE
  5
41F
330
415
100
AcDbEntity
  8
LC-002-100-D00-0
 62
     7
370
    50
100
AcDbLine
 10
340.605197
 20
262.468354
 30
0.0
 11
339.946885
 21
263.057564
 31
0.0
  0
LINE
  5
420
330
415
100
AcDbEntity
  8
LC-002-100-D00-0
 62
     7
370
    50
100
AcDbLine
 10
339.946885
 20
263.057564
 30
0.0
 11
339.946885
 21
263.057564
 31
0.0
  0
LINE
  5
421
330
415
100
AcDbEntity
  8
LC-002-100-D00-0
 62
     7
370
    50
100
AcDbLine
 10
339.946885
 20
263.057564
 30
0.0
 11
339.565405
 21
263.6444
 31
0.0
  0
LINE
  5
422
330
415
100
AcDbEntity
  8
LC-002-100-D00-0
 62
     7
370
    50
100
AcDbLine
 10
339.565405
 20
263.6444
 30
0.0
 11
339.565405
 21
263.6444
 31
0.0
  0
LINE
  5
423
330
415
100
AcDbEntity
  8
LC-002-100-D00-0
 62
     7
370
    50
100
AcDbLine
 10
339.565405
 20
263.6444
 30
0.0
 11
339.424783
 21
264.09433
 31
0.0
  0
LINE
  5
424
330
415
100
AcDbEntity
  8
LC-002-100-D00-0
 62
     7
370
    50
100
AcDbLine
 10
339.424783
 20
264.09433
 30
0.0
 11
339.424783
 21
264.09433
 31
0.0
  0
LINE
  5
425
330
415
100
AcDbEntity
  8
LC-002-100-D00-0
 62
     7
370
    50
100
AcDbLine
 10
339.424783
 20
264.09433
 30
0.0
 11
339.3844
 21
264.223541
 31
0.0
  0
ENDBLK
  5
417
330
415
100
AcDbEntity
  8
0
100
AcDbBlockEnd
  0
BLOCK
  5
428
330
427
100
AcDbEntity
  8
0
100
AcDbBlockBegin
  2
KLON4
 70
     0
 71
     0
 10
0.0
 20
0.0
 30
0.0
  3
KLON4
  1

  4
KLON4
  0
LINE
  5
42A
330
427
100
AcDbEntity
  8
LC-002-100-D00-0
 62
     7
370
    15
100
AcDbLine
 10
336.042308
 20
276.696271
 30
0.0
 11
338.522502
 21
267.440165
 31
0.0
  0
LINE
  5
42B
330
427
100
AcDbEntity
  8
LC-002-100-D00-0
 62
     7
370
    15
100
AcDbLine
 10
338.522502
 20
267.440165
 30
0.0
 11
339.3844
 21
264.223541
 31
0.0
  0
ENDBLK
  5
429
330
427
100
AcDbEntity
  8
0
100
AcDbBlockEnd
  0
BLOCK
  5
430
330
42F
100
AcDbEntity
  8
0
100
AcDbBlockBegin
  2
POLY32
 70
     0
 71
     0
 10
0.0
 20
0.0
 30
0.0
  3
POLY32
  1

  4
POLY32
  0
LINE
  5
432
330
42F
100
AcDbEntity
  8
LC-002-100-D00-0
 62
     7
370
    50
100
AcDbLine
 10
331.042298
 20
319.000003
 30
0.0
 11
331.042298
 21
319.000003
 31
0.0
  0
LINE
  5
433
330
42F
100
AcDbEntity
  8
LC-002-100-D00-0
 62
     7
370
    50
100
AcDbLine
 10
331.042298
 20
319.000003
 30
0.0
 11
330.859809
 21
319.00996
 31
0.0
  0
LINE
  5
434
330
42F
100
AcDbEntity
  8
LC-002-100-D00-0
 62
     7
370
    50
100
AcDbLine
 10
330.859809
 20
319.00996
 30
0.0
 11
330.859809
 21
319.00996
 31
0.0
  0
LINE
  5
435
330
42F
100
AcDbEntity
  8
LC-002-100-D00-0
 62
     7
370
    50
100
AcDbLine
 10
330.859809
 20
319.00996
 30
0.0
 11
330.341321
 21
319.038252
 31
0.0
  0
LINE
  5
436
330
42F
100
AcDbEntity
  8
LC-002-100-D00-0
 62
     7
370
    50
100
AcDbLine
 10
330.341321
 20
319.038252
 30
0.0
 11
330.341321
 21
319.038252
 31
0.0
  0
LINE
  5
437
330
42F
100
AcDbEntity
  8
LC-002-100-D00-0
 62
     7
370
    50
100
AcDbLine
 10
330.341321
 20
319.038252
 30
0.0
 11
329.642588
 21
319.305106
 31
0.0
  0
LINE
  5
438
330
42F
100
AcDbEntity
  8
LC-002-100-D00-0
 62
     7
370
    50
100
AcDbLine
 10
329.642588
 20
319.305106
 30
0.0
 11
329.642588
 21
319.305106
 31
0.0
  0
LINE
  5
439
330
42F
100
AcDbEntity
  8
LC-002-100-D00-0
 62
     7
370
    50
100
AcDbLine
 10
329.642588
 20
319.305106
 30
0.0
 11
328.923113
 21
319.821979
 31
0.0
  0
LINE
  5
43A
330
42F
100
AcDbEntity
  8
LC-002-100-D00-0
 62
     7
370
    50
100
AcDbLine
 10
328.923113
 20
319.821979
 30
0.0
 11
328.923113
 21
319.821979
 31
0.0
  0
LINE
  5
43B
330
42F
100
AcDbEntity
  8
LC-002-100-D00-0
 62
     7
370
    50
100
AcDbLine
 10
328.923113
 20
319.821979
 30
0.0
 11
328.365812
 21
320.526396
 31
0.0
  0
LINE
  5
43C
330
42F
100
AcDbEntity
  8
LC-002-100-D00-0
 62
     7
370
    50
100
AcDbLine
 10
328.365812
 20
320.526396
 30
0.0
 11
328.365812
 21
320.526396
 31
0.0
  0
LINE
  5
43D
330
42F
100
AcDbEntity
  8
LC-002-100-D00-0
 62
     7
370
    50
100
AcDbLine
 10
328.365812
 20
320.526396
 30
0.0
 11
328.075645
 21
321.333159
 31
0.0
  0
LINE
  5
43E
330
42F
100
AcDbEntity
  8
LC-002-100-D00-0
 62
     7
370
    50
100
AcDbLine
 10
328.075645
 20
321.333159
 30
0.0
 11
328.075645
 21
321.333159
 31
0.0
  0
LINE
  5
43F
330
42F
100
AcDbEntity
  8
LC-002-100-D00-0
 62
     7
370
    50
100
AcDbLine
 10
328.075645
 20
321.333159
 30
0.0
 11
328.050566
 21
321.834567
 31
0.0
  0
LINE
  5
440
330
42F
100
AcDbEntity
  8
LC-002-100-D00-0
 62
     7
370
    50
100
AcDbLine
 10
328.050566
 20
321.834567
 30
0.0
 11
328.050566
 21
321.834567
 31
0.0
  0
LINE
  5
441
330
42F
100
AcDbEntity
  8
LC-002-100-D00-0
 62
     7
370
    50
100
AcDbLine
 10
328.050566
 20
321.834567
 30
0.0
 11
328.042292
 21
322.000003
 31
0.0
  0
ENDBLK
  5
431
330
42F
100
AcDbEntity
  8
0
100
AcDbBlockEnd
  0
BLOCK
  5
44D
330
44C
100
AcDbEntity
  8
0
100
AcDbBlockBegin
  2
POLY33
 70
     0
 71
     0
 10
0.0
 20
0.0
 30
0.0
  3
POLY33
  1

  4
POLY33
  0
LINE
  5
44F
330
44C
100
AcDbEntity
  8
LC-002-100-D00-0
 62
     7
370
    50
100
AcDbLine
 10
276.542247
 20
352.670517
 30
0.0
 11
276.542247
 21
352.670517
 31
0.0
  0
LINE
  5
450
330
44C
100
AcDbEntity
  8
LC-002-100-D00-0
 62
     7
370
    50
100
AcDbLine
 10
276.542247
 20
352.670517
 30
0.0
 11
276.549227
 21
352.79537
 31
0.0
  0
LINE
  5
451
330
44C
100
AcDbEntity
  8
LC-002-100-D00-0
 62
     7
370
    50
100
AcDbLine
 10
276.549227
 20
352.79537
 30
0.0
 11
276.549227
 21
352.79537
 31
0.0
  0
LINE
  5
452
330
44C
100
AcDbEntity
  8
LC-002-100-D00-0
 62
     7
370
    50
100
AcDbLine
 10
276.549227
 20
352.79537
 30
0.0
 11
276.568732
 21
353.144239
 31
0.0
  0
LINE
  5
453
330
44C
100
AcDbEntity
  8
LC-002-100-D00-0
 62
     7
370
    50
100
AcDbLine
 10
276.568732
 20
353.144239
 30
0.0
 11
276.568732
 21
353.144239
 31
0.0
  0
LINE
  5
454
330
44C
100
AcDbEntity
  8
LC-002-100-D00-0
 62
     7
370
    50
100
AcDbLine
 10
276.568732
 20
353.144239
 30
0.0
 11
276.750156
 21
353.612243
 31
0.0
  0
LINE
  5
455
330
44C
100
AcDbEntity
  8
LC-002-100-D00-0
 62
     7
370
    50
100
AcDbLine
 10
276.750156
 20
353.612243
 30
0.0
 11
276.750156
 21
353.612243
 31
0.0
  0
LINE
  5
456
330
44C
100
AcDbEntity
  8
LC-002-100-D00-0
 62
     7
370
    50
100
AcDbLine
 10
276.750156
 20
353.612243
 30
0.0
 11
277.097012
 21
354.090275
 31
0.0
  0
LINE
  5
457
330
44C
100
AcDbEntity
  8
LC-002-100-D00-0
 62
     7
370
    50
100
AcDbLine
 10
277.097012
 20
354.090275
 30
0.0
 11
277.097012
 21
354.090275
 31
0.0
  0
LINE
  5
458
330
44C
100
AcDbEntity
  8
LC-002-100-D00-0
 62
     7
370
    50
100
AcDbLine
 10
277.097012
 20
354.090275
 30
0.0
 11
277.568387
 21
354.459329
 31
0.0
  0
LINE
  5
459
330
44C
100
AcDbEntity
  8
LC-002-100-D00-0
 62
     7
370
    50
100
AcDbLine
 10
277.568387
 20
354.459329
 30
0.0
 11
277.568387
 21
354.459329
 31
0.0
  0
LINE
  5
45A
330
44C
100
AcDbEntity
  8
LC-002-100-D00-0
 62
     7
370
    50
100
AcDbLine
 10
277.568387
 20
354.459329
 30
0.0
 11
278.125396
 21
354.657403
 31
0.0
  0
LINE
  5
45B
330
44C
100
AcDbEntity
  8
LC-002-100-D00-0
 62
     7
370
    50
100
AcDbLine
 10
278.125396
 20
354.657403
 30
0.0
 11
278.125396
 21
354.657403
 31
0.0
  0
LINE
  5
45C
330
44C
100
AcDbEntity
  8
LC-002-100-D00-0
 62
     7
370
    50
100
AcDbLine
 10
278.125396
 20
354.657403
 30
0.0
 11
278.479144
 21
354.666201
 31
0.0
  0
LINE
  5
45D
330
44C
100
AcDbEntity
  8
LC-002-100-D00-0
 62
     7
370
    50
100
AcDbLine
 10
278.479144
 20
354.666201
 30
0.0
 11
278.479144
 21
354.666201
 31
0.0
  0
LINE
  5
45E
330
44C
100
AcDbEntity
  8
LC-002-100-D00-0
 62
     7
370
    50
100
AcDbLine
 10
278.479144
 20
354.666201
 30
0.0
 11
278.608501
 21
354.669419
 31
0.0
  0
ENDBLK
  5
44E
330
44C
100
AcDbEntity
  8
0
100
AcDbBlockEnd
  0
BLOCK
  5
481
330
480
100
AcDbEntity
  8
0
100
AcDbBlockBegin
  2
POLY34
 70
     0
 71
     0
 10
0.0
 20
0.0
 30
0.0
  3
POLY34
  1

  4
POLY34
  0
LINE
  5
483
330
480
100
AcDbEntity
  8
LC-002-100-D00-0
 62
     7
370
    50
100
AcDbLine
 10
503.475883
 20
354.669419
 30
0.0
 11
503.475883
 21
354.669419
 31
0.0
  0
LINE
  5
484
330
480
100
AcDbEntity
  8
LC-002-100-D00-0
 62
     7
370
    50
100
AcDbLine
 10
503.475883
 20
354.669419
 30
0.0
 11
503.606751
 21
354.666086
 31
0.0
  0
LINE
  5
485
330
480
100
AcDbEntity
  8
LC-002-100-D00-0
 62
     7
370
    50
100
AcDbLine
 10
503.606751
 20
354.666086
 30
0.0
 11
503.606751
 21
354.666086
 31
0.0
  0
LINE
  5
486
330
480
100
AcDbEntity
  8
LC-002-100-D00-0
 62
     7
370
    50
100
AcDbLine
 10
503.606751
 20
354.666086
 30
0.0
 11
503.962014
 21
354.657038
 31
0.0
  0
LINE
  5
487
330
480
100
AcDbEntity
  8
LC-002-100-D00-0
 62
     7
370
    50
100
AcDbLine
 10
503.962014
 20
354.657038
 30
0.0
 11
503.962014
 21
354.657038
 31
0.0
  0
LINE
  5
488
330
480
100
AcDbEntity
  8
LC-002-100-D00-0
 62
     7
370
    50
100
AcDbLine
 10
503.962014
 20
354.657038
 30
0.0
 11
504.520221
 21
354.456941
 31
0.0
  0
LINE
  5
489
330
480
100
AcDbEntity
  8
LC-002-100-D00-0
 62
     7
370
    50
100
AcDbLine
 10
504.520221
 20
354.456941
 30
0.0
 11
504.520221
 21
354.456941
 31
0.0
  0
LINE
  5
48A
330
480
100
AcDbEntity
  8
LC-002-100-D00-0
 62
     7
370
    50
100
AcDbLine
 10
504.520221
 20
354.456941
 30
0.0
 11
505.057019
 21
354.034871
 31
0.0
  0
LINE
  5
48B
330
480
100
AcDbEntity
  8
LC-002-100-D00-0
 62
     7
370
    50
100
AcDbLine
 10
505.057019
 20
354.034871
 30
0.0
 11
505.057019
 21
354.034871
 31
0.0
  0
LINE
  5
48C
330
480
100
AcDbEntity
  8
LC-002-100-D00-0
 62
     7
370
    50
100
AcDbLine
 10
505.057019
 20
354.034871
 30
0.0
 11
505.422132
 21
353.456408
 31
0.0
  0
LINE
  5
48D
330
480
100
AcDbEntity
  8
LC-002-100-D00-0
 62
     7
370
    50
100
AcDbLine
 10
505.422132
 20
353.456408
 30
0.0
 11
505.422132
 21
353.456408
 31
0.0
  0
LINE
  5
48E
330
480
100
AcDbEntity
  8
LC-002-100-D00-0
 62
     7
370
    50
100
AcDbLine
 10
505.422132
 20
353.456408
 30
0.0
 11
505.536575
 21
352.972048
 31
0.0
  0
LINE
  5
48F
330
480
100
AcDbEntity
  8
LC-002-100-D00-0
 62
     7
370
    50
100
AcDbLine
 10
505.536575
 20
352.972048
 30
0.0
 11
505.536575
 21
352.972048
 31
0.0
  0
LINE
  5
490
330
480
100
AcDbEntity
  8
LC-002-100-D00-0
 62
     7
370
    50
100
AcDbLine
 10
505.536575
 20
352.972048
 30
0.0
 11
505.54142
 21
352.709382
 31
0.0
  0
LINE
  5
491
330
480
100
AcDbEntity
  8
LC-002-100-D00-0
 62
     7
370
    50
100
AcDbLine
 10
505.54142
 20
352.709382
 30
0.0
 11
505.54142
 21
352.709382
 31
0.0
  0
LINE
  5
492
330
480
100
AcDbEntity
  8
LC-002-100-D00-0
 62
     7
370
    50
100
AcDbLine
 10
505.54142
 20
352.709382
 30
0.0
 11
505.542137
 21
352.670517
 31
0.0
  0
ENDBLK
  5
482
330
480
100
AcDbEntity
  8
0
100
AcDbBlockEnd
  0
BLOCK
  5
49B
330
49A
100
AcDbEntity
  8
0
100
AcDbBlockBegin
  2
POLY35
 70
     0
 71
     0
 10
0.0
 20
0.0
 30
0.0
  3
POLY35
  1

  4
POLY35
  0
LINE
  5
49D
330
49A
100
AcDbEntity
  8
LC-002-100-D00-0
 62
     7
370
    50
100
AcDbLine
 10
417.041953
 20
264.500002
 30
0.0
 11
417.041953
 21
264.500002
 31
0.0
  0
LINE
  5
49E
330
49A
100
AcDbEntity
  8
LC-002-100-D00-0
 62
     7
370
    50
100
AcDbLine
 10
417.041953
 20
264.500002
 30
0.0
 11
416.903345
 21
264.511245
 31
0.0
  0
LINE
  5
49F
330
49A
100
AcDbEntity
  8
LC-002-100-D00-0
 62
     7
370
    50
100
AcDbLine
 10
416.903345
 20
264.511245
 30
0.0
 11
416.903345
 21
264.511245
 31
0.0
  0
LINE
  5
4A0
330
49A
100
AcDbEntity
  8
LC-002-100-D00-0
 62
     7
370
    50
100
AcDbLine
 10
416.903345
 20
264.511245
 30
0.0
 11
416.596392
 21
264.536143
 31
0.0
  0
LINE
  5
4A1
330
49A
100
AcDbEntity
  8
LC-002-100-D00-0
 62
     7
370
    50
100
AcDbLine
 10
416.596392
 20
264.536143
 30
0.0
 11
416.596392
 21
264.536143
 31
0.0
  0
LINE
  5
4A2
330
49A
100
AcDbEntity
  8
LC-002-100-D00-0
 62
     7
370
    50
100
AcDbLine
 10
416.596392
 20
264.536143
 30
0.0
 11
416.217713
 21
264.725029
 31
0.0
  0
LINE
  5
4A3
330
49A
100
AcDbEntity
  8
LC-002-100-D00-0
 62
     7
370
    50
100
AcDbLine
 10
416.217713
 20
264.725029
 30
0.0
 11
416.217713
 21
264.725029
 31
0.0
  0
LINE
  5
4A4
330
49A
100
AcDbEntity
  8
LC-002-100-D00-0
 62
     7
370
    50
100
AcDbLine
 10
416.217713
 20
264.725029
 30
0.0
 11
415.884186
 21
265.016017
 31
0.0
  0
LINE
  5
4A5
330
49A
100
AcDbEntity
  8
LC-002-100-D00-0
 62
     7
370
    50
100
AcDbLine
 10
415.884186
 20
265.016017
 30
0.0
 11
415.884186
 21
265.016017
 31
0.0
  0
LINE
  5
4A6
330
49A
100
AcDbEntity
  8
LC-002-100-D00-0
 62
     7
370
    50
100
AcDbLine
 10
415.884186
 20
265.016017
 30
0.0
 11
415.63938
 21
265.39316
 31
0.0
  0
LINE
  5
4A7
330
49A
100
AcDbEntity
  8
LC-002-100-D00-0
 62
     7
370
    50
100
AcDbLine
 10
415.63938
 20
265.39316
 30
0.0
 11
415.63938
 21
265.39316
 31
0.0
  0
LINE
  5
4A8
330
49A
100
AcDbEntity
  8
LC-002-100-D00-0
 62
     7
370
    50
100
AcDbLine
 10
415.63938
 20
265.39316
 30
0.0
 11
415.547254
 21
265.761388
 31
0.0
  0
LINE
  5
4A9
330
49A
100
AcDbEntity
  8
LC-002-100-D00-0
 62
     7
370
    50
100
AcDbLine
 10
415.547254
 20
265.761388
 30
0.0
 11
415.547254
 21
265.761388
 31
0.0
  0
LINE
  5
4AA
330
49A
100
AcDbEntity
  8
LC-002-100-D00-0
 62
     7
370
    50
100
AcDbLine
 10
415.547254
 20
265.761388
 30
0.0
 11
415.542727
 21
265.964623
 31
0.0
  0
LINE
  5
4AB
330
49A
100
AcDbEntity
  8
LC-002-100-D00-0
 62
     7
370
    50
100
AcDbLine
 10
415.542727
 20
265.964623
 30
0.0
 11
415.542727
 21
265.964623
 31
0.0
  0
LINE
  5
4AC
330
49A
100
AcDbEntity
  8
LC-002-100-D00-0
 62
     7
370
    50
100
AcDbLine
 10
415.542727
 20
265.964623
 30
0.0
 11
415.541939
 21
266.000001
 31
0.0
  0
ENDBLK
  5
49C
330
49A
100
AcDbEntity
  8
0
100
AcDbBlockEnd
  0
BLOCK
  5
4CC
330
4CB
100
AcDbEntity
  8
0
100
AcDbBlockBegin
  2
POLY36
 70
     0
 71
     0
 10
0.0
 20
0.0
 30
0.0
  3
POLY36
  1

  4
POLY36
  0
LINE
  5
4CE
330
4CB
100
AcDbEntity
  8
LC-002-100-D00-0
 62
     7
370
    50
100
AcDbLine
 10
454.042096
 20
322.000003
 30
0.0
 11
454.042096
 21
322.000003
 31
0.0
  0
LINE
  5
4CF
330
4CB
100
AcDbEntity
  8
LC-002-100-D00-0
 62
     7
370
    50
100
AcDbLine
 10
454.042096
 20
322.000003
 30
0.0
 11
454.04154
 21
321.958357
 31
0.0
  0
LINE
  5
4D0
330
4CB
100
AcDbEntity
  8
LC-002-100-D00-0
 62
     7
370
    50
100
AcDbLine
 10
454.04154
 20
321.958357
 30
0.0
 11
454.04154
 21
321.958357
 31
0.0
  0
LINE
  5
4D1
330
4CB
100
AcDbEntity
  8
LC-002-100-D00-0
 62
     7
370
    50
100
AcDbLine
 10
454.04154
 20
321.958357
 30
0.0
 11
454.036505
 21
321.581008
 31
0.0
  0
LINE
  5
4D2
330
4CB
100
AcDbEntity
  8
LC-002-100-D00-0
 62
     7
370
    50
100
AcDbLine
 10
454.036505
 20
321.581008
 30
0.0
 11
454.036505
 21
321.581008
 31
0.0
  0
LINE
  5
4D3
330
4CB
100
AcDbEntity
  8
LC-002-100-D00-0
 62
     7
370
    50
100
AcDbLine
 10
454.036505
 20
321.581008
 30
0.0
 11
453.881637
 21
320.868286
 31
0.0
  0
LINE
  5
4D4
330
4CB
100
AcDbEntity
  8
LC-002-100-D00-0
 62
     7
370
    50
100
AcDbLine
 10
453.881637
 20
320.868286
 30
0.0
 11
453.881637
 21
320.868286
 31
0.0
  0
LINE
  5
4D5
330
4CB
100
AcDbEntity
  8
LC-002-100-D00-0
 62
     7
370
    50
100
AcDbLine
 10
453.881637
 20
320.868286
 30
0.0
 11
453.348119
 21
319.991664
 31
0.0
  0
LINE
  5
4D6
330
4CB
100
AcDbEntity
  8
LC-002-100-D00-0
 62
     7
370
    50
100
AcDbLine
 10
453.348119
 20
319.991664
 30
0.0
 11
453.348119
 21
319.991664
 31
0.0
  0
LINE
  5
4D7
330
4CB
100
AcDbEntity
  8
LC-002-100-D00-0
 62
     7
370
    50
100
AcDbLine
 10
453.348119
 20
319.991664
 30
0.0
 11
452.553665
 21
319.345024
 31
0.0
  0
LINE
  5
4D8
330
4CB
100
AcDbEntity
  8
LC-002-100-D00-0
 62
     7
370
    50
100
AcDbLine
 10
452.553665
 20
319.345024
 30
0.0
 11
452.553665
 21
319.345024
 31
0.0
  0
LINE
  5
4D9
330
4CB
100
AcDbEntity
  8
LC-002-100-D00-0
 62
     7
370
    50
100
AcDbLine
 10
452.553665
 20
319.345024
 30
0.0
 11
451.737244
 21
319.037539
 31
0.0
  0
LINE
  5
4DA
330
4CB
100
AcDbEntity
  8
LC-002-100-D00-0
 62
     7
370
    50
100
AcDbLine
 10
451.737244
 20
319.037539
 30
0.0
 11
451.737244
 21
319.037539
 31
0.0
  0
LINE
  5
4DB
330
4CB
100
AcDbEntity
  8
LC-002-100-D00-0
 62
     7
370
    50
100
AcDbLine
 10
451.737244
 20
319.037539
 30
0.0
 11
451.221651
 21
319.009699
 31
0.0
  0
LINE
  5
4DC
330
4CB
100
AcDbEntity
  8
LC-002-100-D00-0
 62
     7
370
    50
100
AcDbLine
 10
451.221651
 20
319.009699
 30
0.0
 11
451.221651
 21
319.009699
 31
0.0
  0
LINE
  5
4DD
330
4CB
100
AcDbEntity
  8
LC-002-100-D00-0
 62
     7
370
    50
100
AcDbLine
 10
451.221651
 20
319.009699
 30
0.0
 11
451.04209
 21
319.000003
 31
0.0
  0
ENDBLK
  5
4CD
330
4CB
100
AcDbEntity
  8
0
100
AcDbBlockEnd
  0
BLOCK
  5
4E1
330
4E0
100
AcDbEntity
  8
0
100
AcDbBlockBegin
  2
POLY37
 70
     0
 71
     0
 10
0.0
 20
0.0
 30
0.0
  3
POLY37
  1

  4
POLY37
  0
LINE
  5
4E3
330
4E0
100
AcDbEntity
  8
LC-002-100-D00-0
 62
     7
370
    50
100
AcDbLine
 10
442.699992
 20
264.223541
 30
0.0
 11
442.699992
 21
264.223541
 31
0.0
  0
LINE
  5
4E4
330
4E0
100
AcDbEntity
  8
LC-002-100-D00-0
 62
     7
370
    50
100
AcDbLine
 10
442.699992
 20
264.223541
 30
0.0
 11
442.688093
 21
264.181498
 31
0.0
  0
LINE
  5
4E5
330
4E0
100
AcDbEntity
  8
LC-002-100-D00-0
 62
     7
370
    50
100
AcDbLine
 10
442.688093
 20
264.181498
 30
0.0
 11
442.688093
 21
264.181498
 31
0.0
  0
LINE
  5
4E6
330
4E0
100
AcDbEntity
  8
LC-002-100-D00-0
 62
     7
370
    50
100
AcDbLine
 10
442.688093
 20
264.181498
 30
0.0
 11
442.584775
 21
263.816429
 31
0.0
  0
LINE
  5
4E7
330
4E0
100
AcDbEntity
  8
LC-002-100-D00-0
 62
     7
370
    50
100
AcDbLine
 10
442.584775
 20
263.816429
 30
0.0
 11
442.584775
 21
263.816429
 31
0.0
  0
LINE
  5
4E8
330
4E0
100
AcDbEntity
  8
LC-002-100-D00-0
 62
     7
370
    50
100
AcDbLine
 10
442.584775
 20
263.816429
 30
0.0
 11
442.248168
 21
263.165716
 31
0.0
  0
LINE
  5
4E9
330
4E0
100
AcDbEntity
  8
LC-002-100-D00-0
 62
     7
370
    50
100
AcDbLine
 10
442.248168
 20
263.165716
 30
0.0
 11
442.248168
 21
263.165716
 31
0.0
  0
LINE
  5
4EA
330
4E0
100
AcDbEntity
  8
LC-002-100-D00-0
 62
     7
370
    50
100
AcDbLine
 10
442.248168
 20
263.165716
 30
0.0
 11
441.505136
 21
262.464029
 31
0.0
  0
LINE
  5
4EB
330
4E0
100
AcDbEntity
  8
LC-002-100-D00-0
 62
     7
370
    50
100
AcDbLine
 10
441.505136
 20
262.464029
 30
0.0
 11
441.505136
 21
262.464029
 31
0.0
  0
LINE
  5
4EC
330
4E0
100
AcDbEntity
  8
LC-002-100-D00-0
 62
     7
370
    50
100
AcDbLine
 10
441.505136
 20
262.464029
 30
0.0
 11
440.644831
 21
262.062948
 31
0.0
  0
LINE
  5
4ED
330
4E0
100
AcDbEntity
  8
LC-002-100-D00-0
 62
     7
370
    50
100
AcDbLine
 10
440.644831
 20
262.062948
 30
0.0
 11
440.644831
 21
262.062948
 31
0.0
  0
LINE
  5
4EE
330
4E0
100
AcDbEntity
  8
LC-002-100-D00-0
 62
     7
370
    50
100
AcDbLine
 10
440.644831
 20
262.062948
 30
0.0
 11
440.055267
 21
262.018905
 31
0.0
  0
LINE
  5
4EF
330
4E0
100
AcDbEntity
  8
LC-002-100-D00-0
 62
     7
370
    50
100
AcDbLine
 10
440.055267
 20
262.018905
 30
0.0
 11
440.055267
 21
262.018905
 31
0.0
  0
LINE
  5
4F0
330
4E0
100
AcDbEntity
  8
LC-002-100-D00-0
 62
     7
370
    50
100
AcDbLine
 10
440.055267
 20
262.018905
 30
0.0
 11
439.802207
 21
262.000001
 31
0.0
  0
ENDBLK
  5
4E2
330
4E0
100
AcDbEntity
  8
0
100
AcDbBlockEnd
  0
BLOCK
  5
4F5
330
4F4
100
AcDbEntity
  8
0
100
AcDbBlockBegin
  2
POLY38
 70
     0
 71
     0
 10
0.0
 20
0.0
 30
0.0
  3
POLY38
  1

  4
POLY38
  0
LINE
  5
4F7
330
4F4
100
AcDbEntity
  8
LC-002-100-D00-0
 62
     7
370
    50
100
AcDbLine
 10
437.472042
 20
264.500002
 30
0.0
 11
437.472042
 21
264.500002
 31
0.0
  0
LINE
  5
4F8
330
4F4
100
AcDbEntity
  8
LC-002-100-D00-0
 62
     7
370
    50
100
AcDbLine
 10
437.472042
 20
264.500002
 30
0.0
 11
437.560702
 21
264.502454
 31
0.0
  0
LINE
  5
4F9
330
4F4
100
AcDbEntity
  8
LC-002-100-D00-0
 62
     7
370
    50
100
AcDbLine
 10
437.560702
 20
264.502454
 30
0.0
 11
437.560702
 21
264.502454
 31
0.0
  0
LINE
  5
4FA
330
4F4
100
AcDbEntity
  8
LC-002-100-D00-0
 62
     7
370
    50
100
AcDbLine
 10
437.560702
 20
264.502454
 30
0.0
 11
437.98505
 21
264.514188
 31
0.0
  0
LINE
  5
4FB
330
4F4
100
AcDbEntity
  8
LC-002-100-D00-0
 62
     7
370
    50
100
AcDbLine
 10
437.98505
 20
264.514188
 30
0.0
 11
437.98505
 21
264.514188
 31
0.0
  0
LINE
  5
4FC
330
4F4
100
AcDbEntity
  8
LC-002-100-D00-0
 62
     7
370
    50
100
AcDbLine
 10
437.98505
 20
264.514188
 30
0.0
 11
438.737096
 21
264.71751
 31
0.0
  0
LINE
  5
4FD
330
4F4
100
AcDbEntity
  8
LC-002-100-D00-0
 62
     7
370
    50
100
AcDbLine
 10
438.737096
 20
264.71751
 30
0.0
 11
438.737096
 21
264.71751
 31
0.0
  0
LINE
  5
4FE
330
4F4
100
AcDbEntity
  8
LC-002-100-D00-0
 62
     7
370
    50
100
AcDbLine
 10
438.737096
 20
264.71751
 30
0.0
 11
439.582759
 21
265.291215
 31
0.0
  0
LINE
  5
4FF
330
4F4
100
AcDbEntity
  8
LC-002-100-D00-0
 62
     7
370
    50
100
AcDbLine
 10
439.582759
 20
265.291215
 30
0.0
 11
439.582759
 21
265.291215
 31
0.0
  0
LINE
  5
500
330
4F4
100
AcDbEntity
  8
LC-002-100-D00-0
 62
     7
370
    50
100
AcDbLine
 10
439.582759
 20
265.291215
 30
0.0
 11
440.130029
 21
266.00901
 31
0.0
  0
LINE
  5
501
330
4F4
100
AcDbEntity
  8
LC-002-100-D00-0
 62
     7
370
    50
100
AcDbLine
 10
440.130029
 20
266.00901
 30
0.0
 11
440.130029
 21
266.00901
 31
0.0
  0
LINE
  5
502
330
4F4
100
AcDbEntity
  8
LC-002-100-D00-0
 62
     7
370
    50
100
AcDbLine
 10
440.130029
 20
266.00901
 30
0.0
 11
440.303506
 21
266.525924
 31
0.0
  0
LINE
  5
503
330
4F4
100
AcDbEntity
  8
LC-002-100-D00-0
 62
     7
370
    50
100
AcDbLine
 10
440.303506
 20
266.525924
 30
0.0
 11
440.303506
 21
266.525924
 31
0.0
  0
LINE
  5
504
330
4F4
100
AcDbEntity
  8
LC-002-100-D00-0
 62
     7
370
    50
100
AcDbLine
 10
440.303506
 20
266.525924
 30
0.0
 11
440.369823
 21
266.723531
 31
0.0
  0
ENDBLK
  5
4F6
330
4F4
100
AcDbEntity
  8
0
100
AcDbBlockEnd
  0
BLOCK
  5
507
330
506
100
AcDbEntity
  8
0
100
AcDbBlockBegin
  2
KLON5
 70
     0
 71
     0
 10
0.0
 20
0.0
 30
0.0
  3
KLON5
  1

  4
KLON5
  0
LINE
  5
509
330
506
100
AcDbEntity
  8
LC-002-100-D00-0
 62
     7
370
    15
100
AcDbLine
 10
440.369823
 20
266.723531
 30
0.0
 11
440.898177
 21
268.695323
 31
0.0
  0
LINE
  5
50A
330
506
100
AcDbEntity
  8
LC-002-100-D00-0
 62
     7
370
    15
100
AcDbLine
 10
440.898177
 20
268.695323
 30
0.0
 11
442.990959
 21
276.505517
 31
0.0
  0
ENDBLK
  5
508
330
506
100
AcDbEntity
  8
0
100
AcDbBlockEnd
  0
BLOCK
  5
50D
330
50C
100
AcDbEntity
  8
0
100
AcDbBlockBegin
  2
POLY39
 70
     0
 71
     0
 10
0.0
 20
0.0
 30
0.0
  3
POLY39
  1

  4
POLY39
  0
LINE
  5
50F
330
50C
100
AcDbEntity
  8
LC-002-100-D00-0
 62
     7
370
    50
100
AcDbLine
 10
443.042074
 20
276.893752
 30
0.0
 11
443.042074
 21
276.893752
 31
0.0
  0
LINE
  5
510
330
50C
100
AcDbEntity
  8
LC-002-100-D00-0
 62
     7
370
    50
100
AcDbLine
 10
443.042074
 20
276.893752
 30
0.0
 11
443.041087
 21
276.849395
 31
0.0
  0
LINE
  5
511
330
50C
100
AcDbEntity
  8
LC-002-100-D00-0
 62
     7
370
    50
100
AcDbLine
 10
443.041087
 20
276.849395
 30
0.0
 11
443.041087
 21
276.849395
 31
0.0
  0
LINE
  5
512
330
50C
100
AcDbEntity
  8
LC-002-100-D00-0
 62
     7
370
    50
100
AcDbLine
 10
443.041087
 20
276.849395
 30
0.0
 11
443.038174
 21
276.718426
 31
0.0
  0
LINE
  5
513
330
50C
100
AcDbEntity
  8
LC-002-100-D00-0
 62
     7
370
    50
100
AcDbLine
 10
443.038174
 20
276.718426
 30
0.0
 11
443.038174
 21
276.718426
 31
0.0
  0
LINE
  5
514
330
50C
100
AcDbEntity
  8
LC-002-100-D00-0
 62
     7
370
    50
100
AcDbLine
 10
443.038174
 20
276.718426
 30
0.0
 11
443.009754
 21
276.590269
 31
0.0
  0
LINE
  5
515
330
50C
100
AcDbEntity
  8
LC-002-100-D00-0
 62
     7
370
    50
100
AcDbLine
 10
443.009754
 20
276.590269
 30
0.0
 11
443.009754
 21
276.590269
 31
0.0
  0
LINE
  5
516
330
50C
100
AcDbEntity
  8
LC-002-100-D00-0
 62
     7
370
    50
100
AcDbLine
 10
443.009754
 20
276.590269
 30
0.0
 11
442.990959
 21
276.505517
 31
0.0
  0
ENDBLK
  5
50E
330
50C
100
AcDbEntity
  8
0
100
AcDbBlockEnd
  0
BLOCK
  5
51E
330
51D
100
AcDbEntity
  8
0
100
AcDbBlockBegin
  2
KLON6
 70
     0
 71
     0
 10
0.0
 20
0.0
 30
0.0
  3
KLON6
  1

  4
KLON6
  0
LINE
  5
520
330
51D
100
AcDbEntity
  8
LC-002-100-D00-0
 62
     7
370
    15
100
AcDbLine
 10
416.041944
 20
207.500002
 30
0.0
 11
415.185775
 21
204.304768
 31
0.0
  0
LINE
  5
521
330
51D
100
AcDbEntity
  8
LC-002-100-D00-0
 62
     7
370
    15
100
AcDbLine
 10
415.185775
 20
204.304768
 30
0.0
 11
415.104112
 21
204.000002
 31
0.0
  0
ENDBLK
  5
51F
330
51D
100
AcDbEntity
  8
0
100
AcDbBlockEnd
  0
BLOCK
  5
524
330
523
100
AcDbEntity
  8
0
100
AcDbBlockBegin
  2
KLON7
 70
     0
 71
     0
 10
0.0
 20
0.0
 30
0.0
  3
KLON7
  1

  4
KLON7
  0
LINE
  5
526
330
523
100
AcDbEntity
  8
LC-002-100-D00-0
 62
     7
370
    15
100
AcDbLine
 10
442.699992
 20
264.223541
 30
0.0
 11
443.56189
 21
267.440165
 31
0.0
  0
LINE
  5
527
330
523
100
AcDbEntity
  8
LC-002-100-D00-0
 62
     7
370
    15
100
AcDbLine
 10
443.56189
 20
267.440165
 30
0.0
 11
446.04208
 21
276.696271
 31
0.0
  0
ENDBLK
  5
525
330
523
100
AcDbEntity
  8
0
100
AcDbBlockEnd
  0
BLOCK
  5
53A
330
539
100
AcDbEntity
  8
0
100
AcDbBlockBegin
  2
POLY40
 70
     0
 71
     0
 10
0.0
 20
0.0
 30
0.0
  3
POLY40
  1

  4
POLY40
  0
LINE
  5
53C
330
539
100
AcDbEntity
  8
LC-002-100-D00-0
 62
     7
370
    50
100
AcDbLine
 10
326.040939
 20
348.762477
 30
0.0
 11
326.040939
 21
348.762477
 31
0.0
  0
LINE
  5
53D
330
539
100
AcDbEntity
  8
LC-002-100-D00-0
 62
     7
370
    50
100
AcDbLine
 10
326.040939
 20
348.762477
 30
0.0
 11
326.040861
 21
348.762329
 31
0.0
  0
LINE
  5
53E
330
539
100
AcDbEntity
  8
LC-002-100-D00-0
 62
     7
370
    50
100
AcDbLine
 10
326.040861
 20
348.762329
 30
0.0
 11
326.040861
 21
348.762329
 31
0.0
  0
LINE
  5
53F
330
539
100
AcDbEntity
  8
LC-002-100-D00-0
 62
     7
370
    50
100
AcDbLine
 10
326.040861
 20
348.762329
 30
0.0
 11
326.034518
 21
348.750335
 31
0.0
  0
LINE
  5
540
330
539
100
AcDbEntity
  8
LC-002-100-D00-0
 62
     7
370
    50
100
AcDbLine
 10
326.034518
 20
348.750335
 30
0.0
 11
326.034518
 21
348.750335
 31
0.0
  0
LINE
  5
541
330
539
100
AcDbEntity
  8
LC-002-100-D00-0
 62
     7
370
    50
100
AcDbLine
 10
326.034518
 20
348.750335
 30
0.0
 11
325.97782
 21
348.644672
 31
0.0
  0
LINE
  5
542
330
539
100
AcDbEntity
  8
LC-002-100-D00-0
 62
     7
370
    50
100
AcDbLine
 10
325.97782
 20
348.644672
 30
0.0
 11
325.97782
 21
348.644672
 31
0.0
  0
LINE
  5
543
330
539
100
AcDbEntity
  8
LC-002-100-D00-0
 62
     7
370
    50
100
AcDbLine
 10
325.97782
 20
348.644672
 30
0.0
 11
325.84069
 21
348.389683
 31
0.0
  0
LINE
  5
544
330
539
100
AcDbEntity
  8
LC-002-100-D00-0
 62
     7
370
    50
100
AcDbLine
 10
325.84069
 20
348.389683
 30
0.0
 11
325.84069
 21
348.389683
 31
0.0
  0
LINE
  5
545
330
539
100
AcDbEntity
  8
LC-002-100-D00-0
 62
     7
370
    50
100
AcDbLine
 10
325.84069
 20
348.389683
 30
0.0
 11
325.773642
 21
348.265008
 31
0.0
  0
ENDBLK
  5
53B
330
539
100
AcDbEntity
  8
0
100
AcDbBlockEnd
  0
BLOCK
  5
54A
330
549
100
AcDbEntity
  8
0
100
AcDbBlockBegin
  2
POLY41
 70
     0
 71
     0
 10
0.0
 20
0.0
 30
0.0
  3
POLY41
  1

  4
POLY41
  0
LINE
  5
54C
330
549
100
AcDbEntity
  8
LC-002-100-D00-0
 62
     7
370
    50
100
AcDbLine
 10
316.350893
 20
348.265008
 30
0.0
 11
316.350893
 21
348.265008
 31
0.0
  0
LINE
  5
54D
330
549
100
AcDbEntity
  8
LC-002-100-D00-0
 62
     7
370
    50
100
AcDbLine
 10
316.350893
 20
348.265008
 30
0.0
 11
316.25874
 21
348.414364
 31
0.0
  0
LINE
  5
54E
330
549
100
AcDbEntity
  8
LC-002-100-D00-0
 62
     7
370
    50
100
AcDbLine
 10
316.25874
 20
348.414364
 30
0.0
 11
316.25874
 21
348.414364
 31
0.0
  0
LINE
  5
54F
330
549
100
AcDbEntity
  8
LC-002-100-D00-0
 62
     7
370
    50
100
AcDbLine
 10
316.25874
 20
348.414364
 30
0.0
 11
316.096746
 21
348.676914
 31
0.0
  0
LINE
  5
550
330
549
100
AcDbEntity
  8
LC-002-100-D00-0
 62
     7
370
    50
100
AcDbLine
 10
316.096746
 20
348.676914
 30
0.0
 11
316.096746
 21
348.676914
 31
0.0
  0
LINE
  5
551
330
549
100
AcDbEntity
  8
LC-002-100-D00-0
 62
     7
370
    50
100
AcDbLine
 10
316.096746
 20
348.676914
 30
0.0
 11
316.059507
 21
348.73705
 31
0.0
  0
LINE
  5
552
330
549
100
AcDbEntity
  8
LC-002-100-D00-0
 62
     7
370
    50
100
AcDbLine
 10
316.059507
 20
348.73705
 30
0.0
 11
316.059507
 21
348.73705
 31
0.0
  0
LINE
  5
553
330
549
100
AcDbEntity
  8
LC-002-100-D00-0
 62
     7
370
    50
100
AcDbLine
 10
316.059507
 20
348.73705
 30
0.0
 11
316.043452
 21
348.762977
 31
0.0
  0
ENDBLK
  5
54B
330
549
100
AcDbEntity
  8
0
100
AcDbBlockEnd
  0
BLOCK
  5
559
330
558
100
AcDbEntity
  8
0
100
AcDbBlockBegin
  2
POLY42
 70
     0
 71
     0
 10
0.0
 20
0.0
 30
0.0
  3
POLY42
  1

  4
POLY42
  0
LINE
  5
55B
330
558
100
AcDbEntity
  8
LC-002-100-D00-0
 62
     7
370
    50
100
AcDbLine
 10
456.310746
 20
348.265008
 30
0.0
 11
456.310746
 21
348.265008
 31
0.0
  0
LINE
  5
55C
330
558
100
AcDbEntity
  8
LC-002-100-D00-0
 62
     7
370
    50
100
AcDbLine
 10
456.310746
 20
348.265008
 30
0.0
 11
456.231212
 21
348.412921
 31
0.0
  0
LINE
  5
55D
330
558
100
AcDbEntity
  8
LC-002-100-D00-0
 62
     7
370
    50
100
AcDbLine
 10
456.231212
 20
348.412921
 30
0.0
 11
456.231212
 21
348.412921
 31
0.0
  0
LINE
  5
55E
330
558
100
AcDbEntity
  8
LC-002-100-D00-0
 62
     7
370
    50
100
AcDbLine
 10
456.231212
 20
348.412921
 30
0.0
 11
456.091377
 21
348.672976
 31
0.0
  0
LINE
  5
55F
330
558
100
AcDbEntity
  8
LC-002-100-D00-0
 62
     7
370
    50
100
AcDbLine
 10
456.091377
 20
348.672976
 30
0.0
 11
456.091377
 21
348.672976
 31
0.0
  0
LINE
  5
560
330
558
100
AcDbEntity
  8
LC-002-100-D00-0
 62
     7
370
    50
100
AcDbLine
 10
456.091377
 20
348.672976
 30
0.0
 11
456.057892
 21
348.735511
 31
0.0
  0
LINE
  5
561
330
558
100
AcDbEntity
  8
LC-002-100-D00-0
 62
     7
370
    50
100
AcDbLine
 10
456.057892
 20
348.735511
 30
0.0
 11
456.057892
 21
348.735511
 31
0.0
  0
LINE
  5
562
330
558
100
AcDbEntity
  8
LC-002-100-D00-0
 62
     7
370
    50
100
AcDbLine
 10
456.057892
 20
348.735511
 30
0.0
 11
456.043452
 21
348.762477
 31
0.0
  0
ENDBLK
  5
55A
330
558
100
AcDbEntity
  8
0
100
AcDbBlockEnd
  0
BLOCK
  5
568
330
567
100
AcDbEntity
  8
0
100
AcDbBlockBegin
  2
POLY43
 70
     0
 71
     0
 10
0.0
 20
0.0
 30
0.0
  3
POLY43
  1

  4
POLY43
  0
LINE
  5
56A
330
567
100
AcDbEntity
  8
LC-002-100-D00-0
 62
     7
370
    50
100
AcDbLine
 10
466.04094
 20
348.762977
 30
0.0
 11
466.04094
 21
348.762977
 31
0.0
  0
LINE
  5
56B
330
567
100
AcDbEntity
  8
LC-002-100-D00-0
 62
     7
370
    50
100
AcDbLine
 10
466.04094
 20
348.762977
 30
0.0
 11
466.040734
 21
348.762645
 31
0.0
  0
LINE
  5
56C
330
567
100
AcDbEntity
  8
LC-002-100-D00-0
 62
     7
370
    50
100
AcDbLine
 10
466.040734
 20
348.762645
 30
0.0
 11
466.040734
 21
348.762645
 31
0.0
  0
LINE
  5
56D
330
567
100
AcDbEntity
  8
LC-002-100-D00-0
 62
     7
370
    50
100
AcDbLine
 10
466.040734
 20
348.762645
 30
0.0
 11
466.033197
 21
348.75048
 31
0.0
  0
LINE
  5
56E
330
567
100
AcDbEntity
  8
LC-002-100-D00-0
 62
     7
370
    50
100
AcDbLine
 10
466.033197
 20
348.75048
 30
0.0
 11
466.033197
 21
348.75048
 31
0.0
  0
LINE
  5
56F
330
567
100
AcDbEntity
  8
LC-002-100-D00-0
 62
     7
370
    50
100
AcDbLine
 10
466.033197
 20
348.75048
 30
0.0
 11
465.965923
 21
348.641821
 31
0.0
  0
LINE
  5
570
330
567
100
AcDbEntity
  8
LC-002-100-D00-0
 62
     7
370
    50
100
AcDbLine
 10
465.965923
 20
348.641821
 30
0.0
 11
465.965923
 21
348.641821
 31
0.0
  0
LINE
  5
571
330
567
100
AcDbEntity
  8
LC-002-100-D00-0
 62
     7
370
    50
100
AcDbLine
 10
465.965923
 20
348.641821
 30
0.0
 11
465.807558
 21
348.385079
 31
0.0
  0
LINE
  5
572
330
567
100
AcDbEntity
  8
LC-002-100-D00-0
 62
     7
370
    50
100
AcDbLine
 10
465.807558
 20
348.385079
 30
0.0
 11
465.807558
 21
348.385079
 31
0.0
  0
LINE
  5
573
330
567
100
AcDbEntity
  8
LC-002-100-D00-0
 62
     7
370
    50
100
AcDbLine
 10
465.807558
 20
348.385079
 30
0.0
 11
465.733495
 21
348.265008
 31
0.0
  0
ENDBLK
  5
569
330
567
100
AcDbEntity
  8
0
100
AcDbBlockEnd
  0
BLOCK
  5
599
330
598
100
AcDbEntity
  8
0
100
AcDbBlockBegin
  2
KLON8
 70
     0
 71
     0
 10
0.0
 20
0.0
 30
0.0
  3
KLON8
  1

  4
KLON8
  0
LINE
  5
59B
330
598
100
AcDbEntity
  8
LC-002-100-D00-0
 62
     7
370
    50
100
AcDbLine
 10
331.153319
 20
322.944603
 30
0.0
 11
335.792195
 21
327.583478
 31
0.0
  0
LINE
  5
59C
330
598
100
AcDbEntity
  8
LC-002-100-D00-0
 62
     7
370
    50
100
AcDbLine
 10
331.046386
 20
331.817926
 30
0.0
 11
331.228463
 21
332.000003
 31
0.0
  0
LINE
  5
59D
330
598
100
AcDbEntity
  8
LC-002-100-D00-0
 62
     7
370
    50
100
AcDbLine
 10
333.792195
 20
334.563735
 30
0.0
 11
335.792195
 21
336.563735
 31
0.0
  0
ENDBLK
  5
59A
330
598
100
AcDbEntity
  8
0
100
AcDbBlockEnd
  0
BLOCK
  5
5A0
330
59F
100
AcDbEntity
  8
0
100
AcDbBlockBegin
  2
KLON9
 70
     0
 71
     0
 10
0.0
 20
0.0
 30
0.0
  3
KLON9
  1

  4
KLON9
  0
LINE
  5
5A2
330
59F
100
AcDbEntity
  8
LC-002-100-D00-0
 62
     7
370
    50
100
AcDbLine
 10
446.952049
 20
322.000003
 30
0.0
 11
451.038004
 21
326.085958
 31
0.0
  0
LINE
  5
5A3
330
59F
100
AcDbEntity
  8
LC-002-100-D00-0
 62
     7
370
    50
100
AcDbLine
 10
446.292195
 20
330.320405
 30
0.0
 11
448.292195
 21
332.320405
 31
0.0
  0
LINE
  5
5A4
330
59F
100
AcDbEntity
  8
LC-002-100-D00-0
 62
     7
370
    50
100
AcDbLine
 10
446.292195
 20
339.300661
 30
0.0
 11
448.292195
 21
341.300661
 31
0.0
  0
ENDBLK
  5
5A1
330
59F
100
AcDbEntity
  8
0
100
AcDbBlockEnd
  0
BLOCK
  5
5A8
330
5A7
100
AcDbEntity
  8
0
100
AcDbBlockBegin
  2
KLON10
 70
     0
 71
     0
 10
0.0
 20
0.0
 30
0.0
  3
KLON10
  1

  4
KLON10
  0
LINE
  5
5AA
330
5A7
100
AcDbEntity
  8
LC-002-100-D00-0
 62
     7
370
    25
100
AcDbLine
 10
407.307439
 20
444.000003
 30
0.0
 11
408.807439
 21
445.500003
 31
0.0
  0
LINE
  5
5AB
330
5A7
100
AcDbEntity
  8
LC-002-100-D00-0
 62
     7
370
    25
100
AcDbLine
 10
398.327183
 20
444.000003
 30
0.0
 11
399.727183
 21
445.400003
 31
0.0
  0
LINE
  5
5AC
330
5A7
100
AcDbEntity
  8
LC-002-100-D00-0
 62
     7
370
    25
100
AcDbLine
 10
389.346926
 20
444.000003
 30
0.0
 11
390.846926
 21
445.500003
 31
0.0
  0
LINE
  5
5AD
330
5A7
100
AcDbEntity
  8
LC-002-100-D00-0
 62
     7
370
    25
100
AcDbLine
 10
380.36667
 20
444.000003
 30
0.0
 11
381.86667
 21
445.500003
 31
0.0
  0
LINE
  5
5AE
330
5A7
100
AcDbEntity
  8
LC-002-100-D00-0
 62
     7
370
    25
100
AcDbLine
 10
370.042195
 20
442.655783
 30
0.0
 11
372.886414
 21
445.500003
 31
0.0
  0
ENDBLK
  5
5A9
330
5A7
100
AcDbEntity
  8
0
100
AcDbBlockEnd
  0
BLOCK
  5
5B4
330
5B3
100
AcDbEntity
  8
0
100
AcDbBlockBegin
  2
KLON11
 70
     0
 71
     0
 10
0.0
 20
0.0
 30
0.0
  3
KLON11
  1

  4
KLON11
  0
LINE
  5
5B6
330
5B3
100
AcDbEntity
  8
LC-002-100-D00-0
 62
     7
370
    25
100
AcDbLine
 10
347.848915
 20
429.44276
 30
0.0
 11
349.042344
 21
430.636189
 31
0.0
  0
LINE
  5
5B7
330
5B3
100
AcDbEntity
  8
LC-002-100-D00-0
 62
     7
370
    25
100
AcDbLine
 10
345.925902
 20
436.500003
 30
0.0
 11
347.925902
 21
438.500003
 31
0.0
  0
LINE
  5
5B8
330
5B3
100
AcDbEntity
  8
LC-002-100-D00-0
 62
     7
370
    25
100
AcDbLine
 10
341.542195
 20
441.096552
 30
0.0
 11
344.542233
 21
444.09659
 31
0.0
  0
ENDBLK
  5
5B5
330
5B3
100
AcDbEntity
  8
0
100
AcDbBlockEnd
  0
BLOCK
  5
5BB
330
5BA
100
AcDbEntity
  8
0
100
AcDbBlockBegin
  2
KLON12
 70
     0
 71
     0
 10
0.0
 20
0.0
 30
0.0
  3
KLON12
  1

  4
KLON12
  0
LINE
  5
5BD
330
5BA
100
AcDbEntity
  8
LC-002-100-D00-0
 62
     7
370
    25
100
AcDbLine
 10
433.208719
 20
425.000003
 30
0.0
 11
434.015257
 21
425.80654
 31
0.0
  0
LINE
  5
5BE
330
5BA
100
AcDbEntity
  8
LC-002-100-D00-0
 62
     7
370
    25
100
AcDbLine
 10
433.042045
 20
433.813585
 30
0.0
 11
434.24205
 21
435.013589
 31
0.0
  0
LINE
  5
5BF
330
5BA
100
AcDbEntity
  8
LC-002-100-D00-0
 62
     7
370
    25
100
AcDbLine
 10
435.728463
 20
436.500003
 30
0.0
 11
440.542195
 21
441.313735
 31
0.0
  0
ENDBLK
  5
5BC
330
5BA
100
AcDbEntity
  8
0
100
AcDbBlockEnd
  0
BLOCK
  5
5D2
330
5C6
100
AcDbEntity
  8
0
100
AcDbBlockBegin
  2
*D56
 70
     1
 71
     0
 10
0.0
 20
0.0
 30
0.0
  3
*D56
  1

  0
LINE
  5
5C7
330
5C6
100
AcDbEntity
  8
LC-003-101-D00-0
 62
     2
370
    -2
100
AcDbLine
 10
366.042446
 20
207.500003
 30
0.0
 11
366.042446
 21
185.131916
 31
0.0
  0
LINE
  5
5C8
330
5C6
100
AcDbEntity
  8
LC-003-101-D00-0
 62
     2
370
    -2
100
AcDbLine
 10
416.041944
 20
207.500003
 30
0.0
 11
416.041944
 21
185.131916
 31
0.0
  0
LINE
  5
5C9
330
5C6
100
AcDbEntity
  8
LC-003-101-D00-0
 62
     2
370
    -2
100
AcDbLine
 10
338.042446
 20
188.731916
 30
0.0
 11
310.042446
 21
188.731916
 31
0.0
  0
LINE
  5
5CA
330
5C6
100
AcDbEntity
  8
LC-003-101-D00-0
 62
     2
370
    -2
100
AcDbLine
 10
444.041944
 20
188.731916
 30
0.0
 11
472.041944
 21
188.731916
 31
0.0
  0
LINE
  5
5CB
330
5C6
100
AcDbEntity
  8
LC-003-101-D00-0
 62
     2
370
    -2
100
AcDbLine
 10
366.042446
 20
188.731916
 30
0.0
 11
416.041944
 21
188.731916
 31
0.0
  0
SOLID
  5
5CC
330
5C6
100
AcDbEntity
  8
LC-003-101-D00-0
 62
     2
100
AcDbTrace
 10
338.042446
 20
184.06525
 30
0.0
 11
338.042446
 21
193.398583
 31
0.0
 12
366.042446
 22
188.731916
 32
0.0
 13
366.042446
 23
188.731916
 33
0.0
  0
SOLID
  5
5CD
330
5C6
100
AcDbEntity
  8
LC-003-101-D00-0
 62
     2
100
AcDbTrace
 10
444.041944
 20
193.398583
 30
0.0
 11
444.041944
 21
184.06525
 31
0.0
 12
416.041944
 22
188.731916
 32
0.0
 13
416.041944
 23
188.731916
 33
0.0
  0
MTEXT
  5
5CE
330
5C6
100
AcDbEntity
  8
LC-003-101-D00-0
 62
     2
100
AcDbMText
 10
391.042198
 20
219.531916
 30
0.0
 40
28.0
 41
0.0
 71
     5
 72
     1
  1
\A1;DN50
  7
LCTX15-400-0-0pDIN-Schrift
 73
     1
 44
1.0
  0
POINT
  5
5CF
330
5C6
100
AcDbEntity
  8
Defpoints
 62
     0
100
AcDbPoint
 10
366.042446
 20
207.500003
 30
0.0
  0
POINT
  5
5D0
330
5C6
100
AcDbEntity
  8
Defpoints
 62
     0
100
AcDbPoint
 10
416.041944
 20
207.500003
 30
0.0
  0
POINT
  5
5D1
330
5C6
100
AcDbEntity
  8
Defpoints
 62
     0
100
AcDbPoint
 10
416.041944
 20
188.731916
 30
0.0
  0
ENDBLK
  5
5D3
330
5C6
100
AcDbEntity
  8
0
100
AcDbBlockEnd
  0
BLOCK
  5
5E1
330
5D5
100
AcDbEntity
  8
0
100
AcDbBlockBegin
  2
*D57
 70
     1
 71
     0
 10
0.0
 20
0.0
 30
0.0
  3
*D57
  1

  0
LINE
  5
5D6
330
5D5
100
AcDbEntity
  8
LC-003-101-D00-0
 62
     2
370
    -2
100
AcDbLine
 10
342.282183
 20
262.000003
 30
0.0
 11
261.829211
 21
262.000003
 31
0.0
  0
LINE
  5
5D7
330
5D5
100
AcDbEntity
  8
LC-003-101-D00-0
 62
     2
370
    -2
100
AcDbLine
 10
366.980278
 20
204.000003
 30
0.0
 11
261.829211
 21
204.000003
 31
0.0
  0
LINE
  5
5D8
330
5D5
100
AcDbEntity
  8
LC-003-101-D00-0
 62
     2
370
    -2
100
AcDbLine
 10
265.429211
 20
290.000003
 30
0.0
 11
265.429211
 21
318.000003
 31
0.0
  0
LINE
  5
5D9
330
5D5
100
AcDbEntity
  8
LC-003-101-D00-0
 62
     2
370
    -2
100
AcDbLine
 10
265.429211
 20
176.000003
 30
0.0
 11
265.429211
 21
148.000003
 31
0.0
  0
LINE
  5
5DA
330
5D5
100
AcDbEntity
  8
LC-003-101-D00-0
 62
     2
370
    -2
100
AcDbLine
 10
265.429211
 20
262.000003
 30
0.0
 11
265.429211
 21
204.000003
 31
0.0
  0
SOLID
  5
5DB
330
5D5
100
AcDbEntity
  8
LC-003-101-D00-0
 62
     2
100
AcDbTrace
 10
260.762544
 20
290.000003
 30
0.0
 11
270.095878
 21
290.000003
 31
0.0
 12
265.429211
 22
262.000003
 32
0.0
 13
265.429211
 23
262.000003
 33
0.0
  0
SOLID
  5
5DC
330
5D5
100
AcDbEntity
  8
LC-003-101-D00-0
 62
     2
100
AcDbTrace
 10
270.095878
 20
176.000003
 30
0.0
 11
260.762544
 21
176.000003
 31
0.0
 12
265.429211
 22
204.000003
 32
0.0
 13
265.429211
 23
204.000003
 33
0.0
  0
MTEXT
  5
5DD
330
5D5
100
AcDbEntity
  8
LC-003-101-D00-0
 62
     2
100
AcDbMText
 10
234.629211
 20
222.75
 30
0.0
 40
28.0
 41
0.0
 71
     5
 72
     1
  1
\A1;58
  7
LCTX15-400-0-0pDIN-Schrift
 11
6.123031769111886E-17
 21
1.0
 31
0.0
 73
     1
 44
1.0
  0
POINT
  5
5DE
330
5D5
100
AcDbEntity
  8
Defpoints
 62
     0
100
AcDbPoint
 10
342.282183
 20
262.000003
 30
0.0
  0
POINT
  5
5DF
330
5D5
100
AcDbEntity
  8
Defpoints
 62
     0
100
AcDbPoint
 10
366.980278
 20
204.000003
 30
0.0
  0
POINT
  5
5E0
330
5D5
100
AcDbEntity
  8
Defpoints
 62
     0
100
AcDbPoint
 10
265.429211
 20
204.000003
 30
0.0
  0
ENDBLK
  5
5E2
330
5D5
100
AcDbEntity
  8
0
100
AcDbBlockEnd
  0
BLOCK
  5
5F0
330
5E4
100
AcDbEntity
  8
0
100
AcDbBlockBegin
  2
*D58
 70
     1
 71
     0
 10
0.0
 20
0.0
 30
0.0
  3
*D58
  1

  0
LINE
  5
5E5
330
5E4
100
AcDbEntity
  8
LC-003-101-D00-0
 62
     2
370
    -2
100
AcDbLine
 10
351.542348
 20
276.500003
 30
0.0
 11
301.391972
 21
276.500003
 31
0.0
  0
LINE
  5
5E6
330
5E4
100
AcDbEntity
  8
LC-003-101-D00-0
 62
     2
370
    -2
100
AcDbLine
 10
366.542445
 20
326.500003
 30
0.0
 11
301.391972
 21
326.500003
 31
0.0
  0
LINE
  5
5E7
330
5E4
100
AcDbEntity
  8
LC-003-101-D00-0
 62
     2
370
    -2
100
AcDbLine
 10
304.991972
 20
248.500003
 30
0.0
 11
304.991972
 21
220.500003
 31
0.0
  0
LINE
  5
5E8
330
5E4
100
AcDbEntity
  8
LC-003-101-D00-0
 62
     2
370
    -2
100
AcDbLine
 10
304.991972
 20
354.500003
 30
0.0
 11
304.991972
 21
382.500003
 31
0.0
  0
LINE
  5
5E9
330
5E4
100
AcDbEntity
  8
LC-003-101-D00-0
 62
     2
370
    -2
100
AcDbLine
 10
304.991972
 20
276.500003
 30
0.0
 11
304.991972
 21
326.500003
 31
0.0
  0
SOLID
  5
5EA
330
5E4
100
AcDbEntity
  8
LC-003-101-D00-0
 62
     2
100
AcDbTrace
 10
309.658639
 20
248.500003
 30
0.0
 11
300.325306
 21
248.500003
 31
0.0
 12
304.991972
 22
276.500003
 32
0.0
 13
304.991972
 23
276.500003
 33
0.0
  0
SOLID
  5
5EB
330
5E4
100
AcDbEntity
  8
LC-003-101-D00-0
 62
     2
100
AcDbTrace
 10
300.325306
 20
354.500003
 30
0.0
 11
309.658639
 21
354.500003
 31
0.0
 12
304.991972
 22
326.500003
 32
0.0
 13
304.991972
 23
326.500003
 33
0.0
  0
MTEXT
  5
5EC
330
5E4
100
AcDbEntity
  8
LC-003-101-D00-0
 62
     2
100
AcDbMText
 10
274.191972
 20
283.338
 30
0.0
 40
28.0
 41
0.0
 71
     5
 72
     1
  1
\A1;50
  7
LCTX15-400-0-0pDIN-Schrift
 11
6.123031769111886E-17
 21
1.0
 31
0.0
 73
     1
 44
1.0
  0
POINT
  5
5ED
330
5E4
100
AcDbEntity
  8
Defpoints
 62
     0
100
AcDbPoint
 10
351.542348
 20
276.500003
 30
0.0
  0
POINT
  5
5EE
330
5E4
100
AcDbEntity
  8
Defpoints
 62
     0
100
AcDbPoint
 10
366.542445
 20
326.500003
 30
0.0
  0
POINT
  5
5EF
330
5E4
100
AcDbEntity
  8
Defpoints
 62
     0
100
AcDbPoint
 10
304.991972
 20
326.500003
 30
0.0
  0
ENDBLK
  5
5F1
330
5E4
100
AcDbEntity
  8
0
100
AcDbBlockEnd
  0
BLOCK
  5
5F3
330
5F2
100
AcDbEntity
  8
0
100
AcDbBlockBegin
  2
*X159
 70
     1
 71
     0
 10
0.0
 20
0.0
 30
0.0
  3
*X159
  1

  4
*X1
  0
LINE
  5
5F5
330
5F2
100
AcDbEntity
  8
LC-002-100-D00-0
 62
     7
370
    25
100
AcDbLine
 10
368.048776
 20
204.000002
 30
0.0
 11
369.042479
 21
204.993706
 31
0.0
  0
LINE
  5
5F6
330
5F2
100
AcDbEntity
  8
LC-002-100-D00-0
 62
     7
370
    25
100
AcDbLine
 10
366.608358
 20
205.388012
 30
0.0
 11
369.042479
 21
207.822133
 31
0.0
  0
LINE
  5
5F7
330
5F2
100
AcDbEntity
  8
LC-002-100-D00-0
 62
     7
370
    25
100
AcDbLine
 10
366.042447
 20
207.650528
 30
0.0
 11
369.042479
 21
210.65056
 31
0.0
  0
LINE
  5
5F8
330
5F2
100
AcDbEntity
  8
LC-002-100-D00-0
 62
     7
370
    25
100
AcDbLine
 10
366.042447
 20
210.478955
 30
0.0
 11
369.042479
 21
213.478987
 31
0.0
  0
LINE
  5
5F9
330
5F2
100
AcDbEntity
  8
LC-002-100-D00-0
 62
     7
370
    25
100
AcDbLine
 10
366.042447
 20
213.307382
 30
0.0
 11
369.042479
 21
216.307414
 31
0.0
  0
LINE
  5
5FA
330
5F2
100
AcDbEntity
  8
LC-002-100-D00-0
 62
     7
370
    25
100
AcDbLine
 10
366.042447
 20
216.135809
 30
0.0
 11
369.042479
 21
219.135841
 31
0.0
  0
LINE
  5
5FB
330
5F2
100
AcDbEntity
  8
LC-002-100-D00-0
 62
     7
370
    25
100
AcDbLine
 10
366.042447
 20
218.964236
 30
0.0
 11
369.042479
 21
221.964268
 31
0.0
  0
LINE
  5
5FC
330
5F2
100
AcDbEntity
  8
LC-002-100-D00-0
 62
     7
370
    25
100
AcDbLine
 10
366.042447
 20
221.792663
 30
0.0
 11
369.042479
 21
224.792696
 31
0.0
  0
LINE
  5
5FD
330
5F2
100
AcDbEntity
  8
LC-002-100-D00-0
 62
     7
370
    25
100
AcDbLine
 10
366.042447
 20
224.621091
 30
0.0
 11
369.042479
 21
227.621123
 31
0.0
  0
LINE
  5
5FE
330
5F2
100
AcDbEntity
  8
LC-002-100-D00-0
 62
     7
370
    25
100
AcDbLine
 10
366.042447
 20
227.449518
 30
0.0
 11
369.042479
 21
230.44955
 31
0.0
  0
LINE
  5
5FF
330
5F2
100
AcDbEntity
  8
LC-002-100-D00-0
 62
     7
370
    25
100
AcDbLine
 10
366.042447
 20
230.277945
 30
0.0
 11
369.042479
 21
233.277977
 31
0.0
  0
LINE
  5
600
330
5F2
100
AcDbEntity
  8
LC-002-100-D00-0
 62
     7
370
    25
100
AcDbLine
 10
366.042447
 20
233.106372
 30
0.0
 11
369.042479
 21
236.106404
 31
0.0
  0
LINE
  5
601
330
5F2
100
AcDbEntity
  8
LC-002-100-D00-0
 62
     7
370
    25
100
AcDbLine
 10
366.042447
 20
235.934799
 30
0.0
 11
369.042479
 21
238.934831
 31
0.0
  0
LINE
  5
602
330
5F2
100
AcDbEntity
  8
LC-002-100-D00-0
 62
     7
370
    25
100
AcDbLine
 10
366.042447
 20
238.763226
 30
0.0
 11
369.042479
 21
241.763258
 31
0.0
  0
LINE
  5
603
330
5F2
100
AcDbEntity
  8
LC-002-100-D00-0
 62
     7
370
    25
100
AcDbLine
 10
366.042447
 20
241.591653
 30
0.0
 11
369.042479
 21
244.591685
 31
0.0
  0
LINE
  5
604
330
5F2
100
AcDbEntity
  8
LC-002-100-D00-0
 62
     7
370
    25
100
AcDbLine
 10
366.042447
 20
244.42008
 30
0.0
 11
369.042479
 21
247.420113
 31
0.0
  0
LINE
  5
605
330
5F2
100
AcDbEntity
  8
LC-002-100-D00-0
 62
     7
370
    25
100
AcDbLine
 10
366.042447
 20
247.248508
 30
0.0
 11
369.042479
 21
250.24854
 31
0.0
  0
LINE
  5
606
330
5F2
100
AcDbEntity
  8
LC-002-100-D00-0
 62
     7
370
    25
100
AcDbLine
 10
366.042447
 20
250.076935
 30
0.0
 11
369.042479
 21
253.076967
 31
0.0
  0
LINE
  5
607
330
5F2
100
AcDbEntity
  8
LC-002-100-D00-0
 62
     7
370
    25
100
AcDbLine
 10
366.042447
 20
252.905362
 30
0.0
 11
369.042479
 21
255.905394
 31
0.0
  0
LINE
  5
608
330
5F2
100
AcDbEntity
  8
LC-002-100-D00-0
 62
     7
370
    25
100
AcDbLine
 10
366.042447
 20
255.733789
 30
0.0
 11
369.042479
 21
258.733821
 31
0.0
  0
LINE
  5
609
330
5F2
100
AcDbEntity
  8
LC-002-100-D00-0
 62
     7
370
    25
100
AcDbLine
 10
366.042447
 20
258.562216
 30
0.0
 11
369.042479
 21
261.562248
 31
0.0
  0
LINE
  5
60A
330
5F2
100
AcDbEntity
  8
LC-002-100-D00-0
 62
     7
370
    25
100
AcDbLine
 10
366.042447
 20
261.390643
 30
0.0
 11
369.042479
 21
264.390675
 31
0.0
  0
LINE
  5
60B
330
5F2
100
AcDbEntity
  8
LC-002-100-D00-0
 62
     7
370
    25
100
AcDbLine
 10
363.823377
 20
262.000001
 30
0.0
 11
369.042479
 21
267.219102
 31
0.0
  0
LINE
  5
60C
330
5F2
100
AcDbEntity
  8
LC-002-100-D00-0
 62
     7
370
    25
100
AcDbLine
 10
360.99495
 20
262.000001
 30
0.0
 11
363.494951
 21
264.500002
 31
0.0
  0
LINE
  5
60D
330
5F2
100
AcDbEntity
  8
LC-002-100-D00-0
 62
     7
370
    25
100
AcDbLine
 10
366.542452
 20
267.547502
 30
0.0
 11
369.042479
 21
270.04753
 31
0.0
  0
LINE
  5
60E
330
5F2
100
AcDbEntity
  8
LC-002-100-D00-0
 62
     7
370
    25
100
AcDbLine
 10
358.166523
 20
262.000001
 30
0.0
 11
360.666524
 21
264.500002
 31
0.0
  0
LINE
  5
60F
330
5F2
100
AcDbEntity
  8
LC-002-100-D00-0
 62
     7
370
    25
100
AcDbLine
 10
366.542452
 20
270.375929
 30
0.0
 11
369.042479
 21
272.875957
 31
0.0
  0
LINE
  5
610
330
5F2
100
AcDbEntity
  8
LC-002-100-D00-0
 62
     7
370
    25
100
AcDbLine
 10
355.338096
 20
262.000001
 30
0.0
 11
357.838097
 21
264.500002
 31
0.0
  0
LINE
  5
611
330
5F2
100
AcDbEntity
  8
LC-002-100-D00-0
 62
     7
370
    25
100
AcDbLine
 10
366.542452
 20
273.204356
 30
0.0
 11
369.042479
 21
275.704384
 31
0.0
  0
LINE
  5
612
330
5F2
100
AcDbEntity
  8
LC-002-100-D00-0
 62
     7
370
    25
100
AcDbLine
 10
352.509669
 20
262.000001
 30
0.0
 11
355.00967
 21
264.500002
 31
0.0
  0
LINE
  5
613
330
5F2
100
AcDbEntity
  8
LC-002-100-D00-0
 62
     7
370
    25
100
AcDbLine
 10
366.542452
 20
276.032784
 30
0.0
 11
369.042479
 21
278.532811
 31
0.0
  0
LINE
  5
614
330
5F2
100
AcDbEntity
  8
LC-002-100-D00-0
 62
     7
370
    25
100
AcDbLine
 10
349.681242
 20
262.000001
 30
0.0
 11
352.181243
 21
264.500002
 31
0.0
  0
LINE
  5
615
330
5F2
100
AcDbEntity
  8
LC-002-100-D00-0
 62
     7
370
    25
100
AcDbLine
 10
366.542452
 20
278.861211
 30
0.0
 11
369.042479
 21
281.361238
 31
0.0
  0
LINE
  5
616
330
5F2
100
AcDbEntity
  8
LC-002-100-D00-0
 62
     7
370
    25
100
AcDbLine
 10
346.852814
 20
262.000001
 30
0.0
 11
349.352816
 21
264.500002
 31
0.0
  0
LINE
  5
617
330
5F2
100
AcDbEntity
  8
LC-002-100-D00-0
 62
     7
370
    25
100
AcDbLine
 10
366.542452
 20
281.689638
 30
0.0
 11
369.042479
 21
284.189665
 31
0.0
  0
LINE
  5
618
330
5F2
100
AcDbEntity
  8
LC-002-100-D00-0
 62
     7
370
    25
100
AcDbLine
 10
344.024387
 20
262.000001
 30
0.0
 11
346.524389
 21
264.500002
 31
0.0
  0
LINE
  5
619
330
5F2
100
AcDbEntity
  8
LC-002-100-D00-0
 62
     7
370
    25
100
AcDbLine
 10
366.542452
 20
284.518065
 30
0.0
 11
369.042479
 21
287.018092
 31
0.0
  0
LINE
  5
61A
330
5F2
100
AcDbEntity
  8
LC-002-100-D00-0
 62
     7
370
    25
100
AcDbLine
 10
341.305459
 20
262.1095
 30
0.0
 11
343.78562
 21
264.58966
 31
0.0
  0
LINE
  5
61B
330
5F2
100
AcDbEntity
  8
LC-002-100-D00-0
 62
     7
370
    25
100
AcDbLine
 10
366.542452
 20
287.346492
 30
0.0
 11
369.042479
 21
289.846519
 31
0.0
  0
LINE
  5
61C
330
5F2
100
AcDbEntity
  8
LC-002-100-D00-0
 62
     7
370
    25
100
AcDbLine
 10
339.74132
 20
263.373788
 30
0.0
 11
342.145391
 21
265.777859
 31
0.0
  0
LINE
  5
61D
330
5F2
100
AcDbEntity
  8
LC-002-100-D00-0
 62
     7
370
    25
100
AcDbLine
 10
366.542452
 20
290.174919
 30
0.0
 11
369.042479
 21
292.674947
 31
0.0
  0
LINE
  5
61E
330
5F2
100
AcDbEntity
  8
LC-002-100-D00-0
 62
     7
370
    25
100
AcDbLine
 10
339.041681
 20
265.502576
 30
0.0
 11
341.407731
 21
267.868626
 31
0.0
  0
LINE
  5
61F
330
5F2
100
AcDbEntity
  8
LC-002-100-D00-0
 62
     7
370
    25
100
AcDbLine
 10
366.542452
 20
293.003346
 30
0.0
 11
369.042479
 21
295.503374
 31
0.0
  0
LINE
  5
620
330
5F2
100
AcDbEntity
  8
LC-002-100-D00-0
 62
     7
370
    25
100
AcDbLine
 10
338.44396
 20
267.733282
 30
0.0
 11
340.810002
 21
270.099324
 31
0.0
  0
LINE
  5
621
330
5F2
100
AcDbEntity
  8
LC-002-100-D00-0
 62
     7
370
    25
100
AcDbLine
 10
366.542452
 20
295.831773
 30
0.0
 11
369.042479
 21
298.331801
 31
0.0
  0
LINE
  5
622
330
5F2
100
AcDbEntity
  8
LC-002-100-D00-0
 62
     7
370
    25
100
AcDbLine
 10
337.846238
 20
269.963987
 30
0.0
 11
340.212275
 21
272.330024
 31
0.0
  0
LINE
  5
623
330
5F2
100
AcDbEntity
  8
LC-002-100-D00-0
 62
     7
370
    25
100
AcDbLine
 10
366.542452
 20
298.660201
 30
0.0
 11
369.042479
 21
301.160228
 31
0.0
  0
LINE
  5
624
330
5F2
100
AcDbEntity
  8
LC-002-100-D00-0
 62
     7
370
    25
100
AcDbLine
 10
337.248516
 20
272.194692
 30
0.0
 11
339.614549
 21
274.560725
 31
0.0
  0
LINE
  5
625
330
5F2
100
AcDbEntity
  8
LC-002-100-D00-0
 62
     7
370
    25
100
AcDbLine
 10
366.542452
 20
301.488628
 30
0.0
 11
369.042479
 21
303.988655
 31
0.0
  0
LINE
  5
626
330
5F2
100
AcDbEntity
  8
LC-002-100-D00-0
 62
     7
370
    25
100
AcDbLine
 10
336.650793
 20
274.425397
 30
0.0
 11
339.045567
 21
276.82017
 31
0.0
  0
LINE
  5
627
330
5F2
100
AcDbEntity
  8
LC-002-100-D00-0
 62
     7
370
    25
100
AcDbLine
 10
366.542452
 20
304.317055
 30
0.0
 11
369.042479
 21
306.817082
 31
0.0
  0
LINE
  5
628
330
5F2
100
AcDbEntity
  8
LC-002-100-D00-0
 62
     7
370
    25
100
AcDbLine
 10
336.053071
 20
276.656102
 30
0.0
 11
339.042314
 21
279.645344
 31
0.0
  0
LINE
  5
629
330
5F2
100
AcDbEntity
  8
LC-002-100-D00-0
 62
     7
370
    25
100
AcDbLine
 10
366.542452
 20
307.145482
 30
0.0
 11
369.042479
 21
309.645509
 31
0.0
  0
LINE
  5
62A
330
5F2
100
AcDbEntity
  8
LC-002-100-D00-0
 62
     7
370
    25
100
AcDbLine
 10
336.042308
 20
279.473765
 30
0.0
 11
339.042314
 21
282.473771
 31
0.0
  0
LINE
  5
62B
330
5F2
100
AcDbEntity
  8
LC-002-100-D00-0
 62
     7
370
    25
100
AcDbLine
 10
366.542452
 20
309.973909
 30
0.0
 11
369.042479
 21
312.473936
 31
0.0
  0
LINE
  5
62C
330
5F2
100
AcDbEntity
  8
LC-002-100-D00-0
 62
     7
370
    25
100
AcDbLine
 10
336.042308
 20
282.302192
 30
0.0
 11
339.042314
 21
285.302198
 31
0.0
  0
LINE
  5
62D
330
5F2
100
AcDbEntity
  8
LC-002-100-D00-0
 62
     7
370
    25
100
AcDbLine
 10
366.542452
 20
312.802336
 30
0.0
 11
369.042479
 21
315.302364
 31
0.0
  0
LINE
  5
62E
330
5F2
100
AcDbEntity
  8
LC-002-100-D00-0
 62
     7
370
    25
100
AcDbLine
 10
336.042308
 20
285.130619
 30
0.0
 11
339.042314
 21
288.130626
 31
0.0
  0
LINE
  5
62F
330
5F2
100
AcDbEntity
  8
LC-002-100-D00-0
 62
     7
370
    25
100
AcDbLine
 10
366.542452
 20
315.630763
 30
0.0
 11
369.042479
 21
318.130791
 31
0.0
  0
LINE
  5
630
330
5F2
100
AcDbEntity
  8
LC-002-100-D00-0
 62
     7
370
    25
100
AcDbLine
 10
336.042308
 20
287.959047
 30
0.0
 11
339.042314
 21
290.959053
 31
0.0
  0
LINE
  5
631
330
5F2
100
AcDbEntity
  8
LC-002-100-D00-0
 62
     7
370
    25
100
AcDbLine
 10
366.542452
 20
318.45919
 30
0.0
 11
369.042479
 21
320.959218
 31
0.0
  0
LINE
  5
632
330
5F2
100
AcDbEntity
  8
LC-002-100-D00-0
 62
     7
370
    25
100
AcDbLine
 10
336.042308
 20
290.787474
 30
0.0
 11
339.042314
 21
293.78748
 31
0.0
  0
LINE
  5
633
330
5F2
100
AcDbEntity
  8
LC-002-100-D00-0
 62
     7
370
    25
100
AcDbLine
 10
366.542452
 20
321.287618
 30
0.0
 11
369.042479
 21
323.787645
 31
0.0
  0
LINE
  5
634
330
5F2
100
AcDbEntity
  8
LC-002-100-D00-0
 62
     7
370
    25
100
AcDbLine
 10
336.042308
 20
293.615901
 30
0.0
 11
339.042314
 21
296.615907
 31
0.0
  0
LINE
  5
635
330
5F2
100
AcDbEntity
  8
LC-002-100-D00-0
 62
     7
370
    25
100
AcDbLine
 10
366.542452
 20
324.116045
 30
0.0
 11
368.92641
 21
326.500003
 31
0.0
  0
LINE
  5
636
330
5F2
100
AcDbEntity
  8
LC-002-100-D00-0
 62
     7
370
    25
100
AcDbLine
 10
336.042308
 20
296.444328
 30
0.0
 11
339.042314
 21
299.444334
 31
0.0
  0
LINE
  5
637
330
5F2
100
AcDbEntity
  8
LC-002-100-D00-0
 62
     7
370
    25
100
AcDbLine
 10
336.042308
 20
299.272755
 30
0.0
 11
339.042314
 21
302.272761
 31
0.0
  0
LINE
  5
638
330
5F2
100
AcDbEntity
  8
LC-002-100-D00-0
 62
     7
370
    25
100
AcDbLine
 10
336.042308
 20
302.101182
 30
0.0
 11
339.042314
 21
305.101188
 31
0.0
  0
LINE
  5
639
330
5F2
100
AcDbEntity
  8
LC-002-100-D00-0
 62
     7
370
    25
100
AcDbLine
 10
336.042308
 20
304.929609
 30
0.0
 11
339.042314
 21
307.929615
 31
0.0
  0
LINE
  5
63A
330
5F2
100
AcDbEntity
  8
LC-002-100-D00-0
 62
     7
370
    25
100
AcDbLine
 10
336.042308
 20
307.758036
 30
0.0
 11
339.042314
 21
310.758043
 31
0.0
  0
LINE
  5
63B
330
5F2
100
AcDbEntity
  8
LC-002-100-D00-0
 62
     7
370
    25
100
AcDbLine
 10
336.042308
 20
310.586464
 30
0.0
 11
339.042314
 21
313.58647
 31
0.0
  0
LINE
  5
63C
330
5F2
100
AcDbEntity
  8
LC-002-100-D00-0
 62
     7
370
    25
100
AcDbLine
 10
336.042308
 20
313.414891
 30
0.0
 11
339.042314
 21
316.414897
 31
0.0
  0
LINE
  5
63D
330
5F2
100
AcDbEntity
  8
LC-002-100-D00-0
 62
     7
370
    25
100
AcDbLine
 10
336.042308
 20
316.243318
 30
0.0
 11
339.042314
 21
319.243324
 31
0.0
  0
LINE
  5
63E
330
5F2
100
AcDbEntity
  8
LC-002-100-D00-0
 62
     7
370
    25
100
AcDbLine
 10
335.970566
 20
319.000003
 30
0.0
 11
338.970566
 21
322.000003
 31
0.0
  0
LINE
  5
63F
330
5F2
100
AcDbEntity
  8
LC-002-100-D00-0
 62
     7
370
    25
100
AcDbLine
 10
333.142139
 20
319.000003
 30
0.0
 11
336.142138
 21
322.000003
 31
0.0
  0
LINE
  5
640
330
5F2
100
AcDbEntity
  8
LC-002-100-D00-0
 62
     7
370
    25
100
AcDbLine
 10
330.35141
 20
319.037701
 30
0.0
 11
333.313711
 21
322.000003
 31
0.0
  0
LINE
  5
641
330
5F2
100
AcDbEntity
  8
LC-002-100-D00-0
 62
     7
370
    25
100
AcDbLine
 10
328.651091
 20
320.165809
 30
0.0
 11
331.042298
 21
322.557016
 31
0.0
  0
LINE
  5
642
330
5F2
100
AcDbEntity
  8
LC-002-100-D00-0
 62
     7
370
    25
100
AcDbLine
 10
328.042292
 20
322.385437
 30
0.0
 11
331.042298
 21
325.385443
 31
0.0
  0
LINE
  5
643
330
5F2
100
AcDbEntity
  8
LC-002-100-D00-0
 62
     7
370
    25
100
AcDbLine
 10
328.042292
 20
325.213864
 30
0.0
 11
331.042298
 21
328.21387
 31
0.0
  0
LINE
  5
644
330
5F2
100
AcDbEntity
  8
LC-002-100-D00-0
 62
     7
370
    25
100
AcDbLine
 10
328.042292
 20
328.042292
 30
0.0
 11
331.042298
 21
331.042298
 31
0.0
  0
LINE
  5
645
330
5F2
100
AcDbEntity
  8
LC-002-100-D00-0
 62
     7
370
    25
100
AcDbLine
 10
328.042292
 20
330.870719
 30
0.0
 11
331.042298
 21
333.870725
 31
0.0
  0
LINE
  5
646
330
5F2
100
AcDbEntity
  8
LC-002-100-D00-0
 62
     7
370
    25
100
AcDbLine
 10
327.268606
 20
332.92546
 30
0.0
 11
331.042298
 21
336.699152
 31
0.0
  0
LINE
  5
647
330
5F2
100
AcDbEntity
  8
LC-002-100-D00-0
 62
     7
370
    25
100
AcDbLine
 10
324.440179
 20
332.92546
 30
0.0
 11
331.042298
 21
339.527579
 31
0.0
  0
LINE
  5
648
330
5F2
100
AcDbEntity
  8
LC-002-100-D00-0
 62
     7
370
    25
100
AcDbLine
 10
320.699323
 20
332.013032
 30
0.0
 11
331.042298
 21
342.356006
 31
0.0
  0
LINE
  5
649
330
5F2
100
AcDbEntity
  8
LC-002-100-D00-0
 62
     7
370
    25
100
AcDbLine
 10
318.533958
 20
332.676094
 30
0.0
 11
321.122872
 21
335.265007
 31
0.0
  0
LINE
  5
64A
330
5F2
100
AcDbEntity
  8
LC-002-100-D00-0
 62
     7
370
    25
100
AcDbLine
 10
323.539682
 20
337.681818
 30
0.0
 11
331.042298
 21
345.184433
 31
0.0
  0
LINE
  5
64B
330
5F2
100
AcDbEntity
  8
LC-002-100-D00-0
 62
     7
370
    25
100
AcDbLine
 10
315.954897
 20
332.92546
 30
0.0
 11
318.669655
 21
335.640218
 31
0.0
  0
LINE
  5
64C
330
5F2
100
AcDbEntity
  8
LC-002-100-D00-0
 62
     7
370
    25
100
AcDbLine
 10
323.539682
 20
340.510245
 30
0.0
 11
331.042298
 21
348.01286
 31
0.0
  0
LINE
  5
64D
330
5F2
100
AcDbEntity
  8
LC-002-100-D00-0
 62
     7
370
    25
100
AcDbLine
 10
315.043241
 20
334.842231
 30
0.0
 11
318.544709
 21
338.343698
 31
0.0
  0
LINE
  5
64E
330
5F2
100
AcDbEntity
  8
LC-002-100-D00-0
 62
     7
370
    25
100
AcDbLine
 10
323.539682
 20
343.338672
 30
0.0
 11
330.042296
 21
349.841285
 31
0.0
  0
LINE
  5
64F
330
5F2
100
AcDbEntity
  8
LC-002-100-D00-0
 62
     7
370
    25
100
AcDbLine
 10
315.043241
 20
337.670658
 30
0.0
 11
318.544709
 21
341.172126
 31
0.0
  0
LINE
  5
650
330
5F2
100
AcDbEntity
  8
LC-002-100-D00-0
 62
     7
370
    25
100
AcDbLine
 10
323.539682
 20
346.167099
 30
0.0
 11
325.931937
 21
348.559354
 31
0.0
  0
LINE
  5
651
330
5F2
100
AcDbEntity
  8
LC-002-100-D00-0
 62
     7
370
    25
100
AcDbLine
 10
326.040939
 20
348.668356
 30
0.0
 11
326.077241
 21
348.704658
 31
0.0
  0
LINE
  5
652
330
5F2
100
AcDbEntity
  8
LC-002-100-D00-0
 62
     7
370
    25
100
AcDbLine
 10
327.04229
 20
349.669707
 30
0.0
 11
327.137663
 21
349.76508
 31
0.0
  0
LINE
  5
653
330
5F2
100
AcDbEntity
  8
LC-002-100-D00-0
 62
     7
370
    25
100
AcDbLine
 10
328.044288
 20
350.671705
 30
0.0
 11
330.042296
 21
352.669713
 31
0.0
  0
LINE
  5
654
330
5F2
100
AcDbEntity
  8
LC-002-100-D00-0
 62
     7
370
    25
100
AcDbLine
 10
315.043241
 20
340.499085
 30
0.0
 11
318.544709
 21
344.000553
 31
0.0
  0
LINE
  5
655
330
5F2
100
AcDbEntity
  8
LC-002-100-D00-0
 62
     7
370
    25
100
AcDbLine
 10
314.141189
 20
342.425461
 30
0.0
 11
318.544709
 21
346.82898
 31
0.0
  0
LINE
  5
656
330
5F2
100
AcDbEntity
  8
LC-002-100-D00-0
 62
     7
370
    25
100
AcDbLine
 10
311.312762
 20
342.425461
 30
0.0
 11
313.65231
 21
344.765008
 31
0.0
  0
LINE
  5
657
330
5F2
100
AcDbEntity
  8
LC-002-100-D00-0
 62
     7
370
    25
100
AcDbLine
 10
315.04228
 20
346.154978
 30
0.0
 11
317.652308
 21
348.765007
 31
0.0
  0
LINE
  5
658
330
5F2
100
AcDbEntity
  8
LC-002-100-D00-0
 62
     7
370
    25
100
AcDbLine
 10
308.484335
 20
342.425461
 30
0.0
 11
310.823883
 21
344.765008
 31
0.0
  0
LINE
  5
659
330
5F2
100
AcDbEntity
  8
LC-002-100-D00-0
 62
     7
370
    25
100
AcDbLine
 10
306.791148
 20
343.560701
 30
0.0
 11
308.042273
 21
344.811826
 31
0.0
  0
LINE
  5
65A
330
5F2
100
AcDbEntity
  8
LC-002-100-D00-0
 62
     7
370
    25
100
AcDbLine
 10
305.249485
 20
344.847465
 30
0.0
 11
308.042273
 21
347.640253
 31
0.0
  0
LINE
  5
65B
330
5F2
100
AcDbEntity
  8
LC-002-100-D00-0
 62
     7
370
    25
100
AcDbLine
 10
303.083321
 20
345.509728
 30
0.0
 11
305.886289
 21
348.312696
 31
0.0
  0
LINE
  5
65C
330
5F2
100
AcDbEntity
  8
LC-002-100-D00-0
 62
     7
370
    25
100
AcDbLine
 10
300.917156
 20
346.17199
 30
0.0
 11
303.720124
 21
348.974958
 31
0.0
  0
LINE
  5
65D
330
5F2
100
AcDbEntity
  8
LC-002-100-D00-0
 62
     7
370
    25
100
AcDbLine
 10
298.750991
 20
346.834252
 30
0.0
 11
301.553959
 21
349.637221
 31
0.0
  0
LINE
  5
65E
330
5F2
100
AcDbEntity
  8
LC-002-100-D00-0
 62
     7
370
    25
100
AcDbLine
 10
296.584827
 20
347.496515
 30
0.0
 11
299.387795
 21
350.299483
 31
0.0
  0
LINE
  5
65F
330
5F2
100
AcDbEntity
  8
LC-002-100-D00-0
 62
     7
370
    25
100
AcDbLine
 10
294.418662
 20
348.158777
 30
0.0
 11
297.22163
 21
350.961746
 31
0.0
  0
LINE
  5
660
330
5F2
100
AcDbEntity
  8
LC-002-100-D00-0
 62
     7
370
    25
100
AcDbLine
 10
292.252497
 20
348.82104
 30
0.0
 11
295.055465
 21
351.624008
 31
0.0
  0
LINE
  5
661
330
5F2
100
AcDbEntity
  8
LC-002-100-D00-0
 62
     7
370
    25
100
AcDbLine
 10
290.086333
 20
349.483302
 30
0.0
 11
292.889301
 21
352.28627
 31
0.0
  0
LINE
  5
662
330
5F2
100
AcDbEntity
  8
LC-002-100-D00-0
 62
     7
370
    25
100
AcDbLine
 10
287.920168
 20
350.145565
 30
0.0
 11
290.723136
 21
352.948533
 31
0.0
  0
LINE
  5
663
330
5F2
100
AcDbEntity
  8
LC-002-100-D00-0
 62
     7
370
    25
100
AcDbLine
 10
285.754003
 20
350.807827
 30
0.0
 11
288.556971
 21
353.610795
 31
0.0
  0
LINE
  5
664
330
5F2
100
AcDbEntity
  8
LC-002-100-D00-0
 62
     7
370
    25
100
AcDbLine
 10
283.080026
 20
350.962277
 30
0.0
 11
286.390807
 21
354.273058
 31
0.0
  0
LINE
  5
665
330
5F2
100
AcDbEntity
  8
LC-002-100-D00-0
 62
     7
370
    25
100
AcDbLine
 10
280.345808
 20
351.056487
 30
0.0
 11
283.787097
 21
354.497775
 31
0.0
  0
LINE
  5
666
330
5F2
100
AcDbEntity
  8
LC-002-100-D00-0
 62
     7
370
    25
100
AcDbLine
 10
277.611591
 20
351.150696
 30
0.0
 11
281.04941
 21
354.588515
 31
0.0
  0
LINE
  5
667
330
5F2
100
AcDbEntity
  8
LC-002-100-D00-0
 62
     7
370
    25
100
AcDbLine
 10
276.556416
 20
352.923948
 30
0.0
 11
278.294066
 21
354.661598
 31
0.0
  0
ENDBLK
  5
5F4
330
5F2
100
AcDbEntity
  8
0
100
AcDbBlockEnd
  0
BLOCK
  5
66A
330
669
100
AcDbEntity
  8
0
100
AcDbBlockBegin
  2
*X260
 70
     1
 71
     0
 10
0.0
 20
0.0
 30
0.0
  3
*X260
  1

  4
*X2
  0
LINE
  5
66C
330
669
100
AcDbEntity
  8
LC-002-100-D00-0
 62
     7
370
    25
100
AcDbLine
 10
413.30361
 20
204.000002
 30
0.0
 11
415.763142
 21
206.459535
 31
0.0
  0
LINE
  5
66D
330
669
100
AcDbEntity
  8
LC-002-100-D00-0
 62
     7
370
    25
100
AcDbLine
 10
413.041905
 20
206.566725
 30
0.0
 11
416.041937
 21
209.566757
 31
0.0
  0
LINE
  5
66E
330
669
100
AcDbEntity
  8
LC-002-100-D00-0
 62
     7
370
    25
100
AcDbLine
 10
413.041905
 20
209.395152
 30
0.0
 11
416.041937
 21
212.395184
 31
0.0
  0
LINE
  5
66F
330
669
100
AcDbEntity
  8
LC-002-100-D00-0
 62
     7
370
    25
100
AcDbLine
 10
413.041905
 20
212.223579
 30
0.0
 11
416.041937
 21
215.223611
 31
0.0
  0
LINE
  5
670
330
669
100
AcDbEntity
  8
LC-002-100-D00-0
 62
     7
370
    25
100
AcDbLine
 10
413.041905
 20
215.052006
 30
0.0
 11
416.041937
 21
218.052038
 31
0.0
  0
LINE
  5
671
330
669
100
AcDbEntity
  8
LC-002-100-D00-0
 62
     7
370
    25
100
AcDbLine
 10
413.041905
 20
217.880433
 30
0.0
 11
416.041937
 21
220.880466
 31
0.0
  0
LINE
  5
672
330
669
100
AcDbEntity
  8
LC-002-100-D00-0
 62
     7
370
    25
100
AcDbLine
 10
413.041905
 20
220.708861
 30
0.0
 11
416.041937
 21
223.708893
 31
0.0
  0
LINE
  5
673
330
669
100
AcDbEntity
  8
LC-002-100-D00-0
 62
     7
370
    25
100
AcDbLine
 10
413.041905
 20
223.537288
 30
0.0
 11
416.041937
 21
226.53732
 31
0.0
  0
LINE
  5
674
330
669
100
AcDbEntity
  8
LC-002-100-D00-0
 62
     7
370
    25
100
AcDbLine
 10
413.041905
 20
226.365715
 30
0.0
 11
416.041937
 21
229.365747
 31
0.0
  0
LINE
  5
675
330
669
100
AcDbEntity
  8
LC-002-100-D00-0
 62
     7
370
    25
100
AcDbLine
 10
413.041905
 20
229.194142
 30
0.0
 11
416.041937
 21
232.194174
 31
0.0
  0
LINE
  5
676
330
669
100
AcDbEntity
  8
LC-002-100-D00-0
 62
     7
370
    25
100
AcDbLine
 10
413.041905
 20
232.022569
 30
0.0
 11
416.041937
 21
235.022601
 31
0.0
  0
LINE
  5
677
330
669
100
AcDbEntity
  8
LC-002-100-D00-0
 62
     7
370
    25
100
AcDbLine
 10
413.041905
 20
234.850996
 30
0.0
 11
416.041937
 21
237.851028
 31
0.0
  0
LINE
  5
678
330
669
100
AcDbEntity
  8
LC-002-100-D00-0
 62
     7
370
    25
100
AcDbLine
 10
440.226643
 20
262.035734
 30
0.0
 11
442.804498
 21
264.613589
 31
0.0
  0
LINE
  5
679
330
669
100
AcDbEntity
  8
LC-002-100-D00-0
 62
     7
370
    25
100
AcDbLine
 10
413.041905
 20
237.679423
 30
0.0
 11
416.041937
 21
240.679455
 31
0.0
  0
LINE
  5
67A
330
669
100
AcDbEntity
  8
LC-002-100-D00-0
 62
     7
370
    25
100
AcDbLine
 10
437.362482
 20
262.000001
 30
0.0
 11
443.839786
 21
268.477304
 31
0.0
  0
LINE
  5
67B
330
669
100
AcDbEntity
  8
LC-002-100-D00-0
 62
     7
370
    25
100
AcDbLine
 10
413.041905
 20
240.50785
 30
0.0
 11
416.041937
 21
243.507883
 31
0.0
  0
LINE
  5
67C
330
669
100
AcDbEntity
  8
LC-002-100-D00-0
 62
     7
370
    25
100
AcDbLine
 10
434.534055
 20
262.000001
 30
0.0
 11
437.034057
 21
264.500002
 31
0.0
  0
LINE
  5
67D
330
669
100
AcDbEntity
  8
LC-002-100-D00-0
 62
     7
370
    25
100
AcDbLine
 10
440.776938
 20
268.242883
 30
0.0
 11
444.875078
 21
272.341023
 31
0.0
  0
LINE
  5
67E
330
669
100
AcDbEntity
  8
LC-002-100-D00-0
 62
     7
370
    25
100
AcDbLine
 10
413.041905
 20
243.336278
 30
0.0
 11
416.041937
 21
246.33631
 31
0.0
  0
LINE
  5
67F
330
669
100
AcDbEntity
  8
LC-002-100-D00-0
 62
     7
370
    25
100
AcDbLine
 10
431.705628
 20
262.000001
 30
0.0
 11
434.205629
 21
264.500002
 31
0.0
  0
LINE
  5
680
330
669
100
AcDbEntity
  8
LC-002-100-D00-0
 62
     7
370
    25
100
AcDbLine
 10
441.812246
 20
272.106618
 30
0.0
 11
445.91037
 21
276.204743
 31
0.0
  0
LINE
  5
681
330
669
100
AcDbEntity
  8
LC-002-100-D00-0
 62
     7
370
    25
100
AcDbLine
 10
413.041905
 20
246.164705
 30
0.0
 11
416.041937
 21
249.164737
 31
0.0
  0
LINE
  5
682
330
669
100
AcDbEntity
  8
LC-002-100-D00-0
 62
     7
370
    25
100
AcDbLine
 10
428.877201
 20
262.000001
 30
0.0
 11
431.377202
 21
264.500002
 31
0.0
  0
LINE
  5
683
330
669
100
AcDbEntity
  8
LC-002-100-D00-0
 62
     7
370
    25
100
AcDbLine
 10
442.847551
 20
275.970351
 30
0.0
 11
446.042076
 21
279.164876
 31
0.0
  0
LINE
  5
684
330
669
100
AcDbEntity
  8
LC-002-100-D00-0
 62
     7
370
    25
100
AcDbLine
 10
413.041905
 20
248.993132
 30
0.0
 11
416.041937
 21
251.993164
 31
0.0
  0
LINE
  5
685
330
669
100
AcDbEntity
  8
LC-002-100-D00-0
 62
     7
370
    25
100
AcDbLine
 10
426.048774
 20
262.000001
 30
0.0
 11
428.548775
 21
264.500002
 31
0.0
  0
LINE
  5
686
330
669
100
AcDbEntity
  8
LC-002-100-D00-0
 62
     7
370
    25
100
AcDbLine
 10
443.04207
 20
278.993297
 30
0.0
 11
446.042076
 21
281.993303
 31
0.0
  0
LINE
  5
687
330
669
100
AcDbEntity
  8
LC-002-100-D00-0
 62
     7
370
    25
100
AcDbLine
 10
413.041905
 20
251.821559
 30
0.0
 11
416.041937
 21
254.821591
 31
0.0
  0
LINE
  5
688
330
669
100
AcDbEntity
  8
LC-002-100-D00-0
 62
     7
370
    25
100
AcDbLine
 10
423.220347
 20
262.000001
 30
0.0
 11
425.720348
 21
264.500002
 31
0.0
  0
LINE
  5
689
330
669
100
AcDbEntity
  8
LC-002-100-D00-0
 62
     7
370
    25
100
AcDbLine
 10
443.04207
 20
281.821724
 30
0.0
 11
446.042076
 21
284.82173
 31
0.0
  0
LINE
  5
68A
330
669
100
AcDbEntity
  8
LC-002-100-D00-0
 62
     7
370
    25
100
AcDbLine
 10
413.041905
 20
254.649986
 30
0.0
 11
416.041937
 21
257.650018
 31
0.0
  0
LINE
  5
68B
330
669
100
AcDbEntity
  8
LC-002-100-D00-0
 62
     7
370
    25
100
AcDbLine
 10
420.39192
 20
262.000001
 30
0.0
 11
422.891921
 21
264.500002
 31
0.0
  0
LINE
  5
68C
330
669
100
AcDbEntity
  8
LC-002-100-D00-0
 62
     7
370
    25
100
AcDbLine
 10
443.04207
 20
284.650151
 30
0.0
 11
446.042076
 21
287.650157
 31
0.0
  0
LINE
  5
68D
330
669
100
AcDbEntity
  8
LC-002-100-D00-0
 62
     7
370
    25
100
AcDbLine
 10
413.041905
 20
257.478413
 30
0.0
 11
416.041937
 21
260.478445
 31
0.0
  0
LINE
  5
68E
330
669
100
AcDbEntity
  8
LC-002-100-D00-0
 62
     7
370
    25
100
AcDbLine
 10
417.563493
 20
262.000001
 30
0.0
 11
420.063494
 21
264.500002
 31
0.0
  0
LINE
  5
68F
330
669
100
AcDbEntity
  8
LC-002-100-D00-0
 62
     7
370
    25
100
AcDbLine
 10
443.04207
 20
287.478578
 30
0.0
 11
446.042076
 21
290.478584
 31
0.0
  0
LINE
  5
690
330
669
100
AcDbEntity
  8
LC-002-100-D00-0
 62
     7
370
    25
100
AcDbLine
 10
413.041905
 20
260.30684
 30
0.0
 11
417.235067
 21
264.500002
 31
0.0
  0
LINE
  5
691
330
669
100
AcDbEntity
  8
LC-002-100-D00-0
 62
     7
370
    25
100
AcDbLine
 10
443.04207
 20
290.307005
 30
0.0
 11
446.042076
 21
293.307011
 31
0.0
  0
LINE
  5
692
330
669
100
AcDbEntity
  8
LC-002-100-D00-0
 62
     7
370
    25
100
AcDbLine
 10
503.864812
 20
351.129747
 30
0.0
 11
505.534907
 21
352.799842
 31
0.0
  0
LINE
  5
693
330
669
100
AcDbEntity
  8
LC-002-100-D00-0
 62
     7
370
    25
100
AcDbLine
 10
413.041905
 20
263.135267
 30
0.0
 11
415.570651
 21
265.664013
 31
0.0
  0
LINE
  5
694
330
669
100
AcDbEntity
  8
LC-002-100-D00-0
 62
     7
370
    25
100
AcDbLine
 10
443.04207
 20
293.135432
 30
0.0
 11
446.042076
 21
296.135439
 31
0.0
  0
LINE
  5
695
330
669
100
AcDbEntity
  8
LC-002-100-D00-0
 62
     7
370
    25
100
AcDbLine
 10
500.935452
 20
351.028814
 30
0.0
 11
504.405322
 21
354.498685
 31
0.0
  0
LINE
  5
696
330
669
100
AcDbEntity
  8
LC-002-100-D00-0
 62
     7
370
    25
100
AcDbLine
 10
413.041905
 20
265.963695
 30
0.0
 11
415.541932
 21
268.463722
 31
0.0
  0
LINE
  5
697
330
669
100
AcDbEntity
  8
LC-002-100-D00-0
 62
     7
370
    25
100
AcDbLine
 10
443.04207
 20
295.96386
 30
0.0
 11
446.042076
 21
298.963866
 31
0.0
  0
LINE
  5
698
330
669
100
AcDbEntity
  8
LC-002-100-D00-0
 62
     7
370
    25
100
AcDbLine
 10
498.006092
 20
350.927881
 30
0.0
 11
501.688383
 21
354.610172
 31
0.0
  0
LINE
  5
699
330
669
100
AcDbEntity
  8
LC-002-100-D00-0
 62
     7
370
    25
100
AcDbLine
 10
413.041905
 20
268.792122
 30
0.0
 11
415.541932
 21
271.292149
 31
0.0
  0
LINE
  5
69A
330
669
100
AcDbEntity
  8
LC-002-100-D00-0
 62
     7
370
    25
100
AcDbLine
 10
443.04207
 20
298.792287
 30
0.0
 11
446.042076
 21
301.792293
 31
0.0
  0
LINE
  5
69B
330
669
100
AcDbEntity
  8
LC-002-100-D00-0
 62
     7
370
    25
100
AcDbLine
 10
494.49713
 20
350.247347
 30
0.0
 11
498.762994
 21
354.513211
 31
0.0
  0
LINE
  5
69C
330
669
100
AcDbEntity
  8
LC-002-100-D00-0
 62
     7
370
    25
100
AcDbLine
 10
413.041905
 20
271.620549
 30
0.0
 11
415.541932
 21
274.120576
 31
0.0
  0
LINE
  5
69D
330
669
100
AcDbEntity
  8
LC-002-100-D00-0
 62
     7
370
    25
100
AcDbLine
 10
443.04207
 20
301.620714
 30
0.0
 11
446.042076
 21
304.62072
 31
0.0
  0
LINE
  5
69E
330
669
100
AcDbEntity
  8
LC-002-100-D00-0
 62
     7
370
    25
100
AcDbLine
 10
490.423169
 20
349.001813
 30
0.0
 11
495.694783
 21
354.273426
 31
0.0
  0
LINE
  5
69F
330
669
100
AcDbEntity
  8
LC-002-100-D00-0
 62
     7
370
    25
100
AcDbLine
 10
413.041905
 20
274.448976
 30
0.0
 11
415.541932
 21
276.949003
 31
0.0
  0
LINE
  5
6A0
330
669
100
AcDbEntity
  8
LC-002-100-D00-0
 62
     7
370
    25
100
AcDbLine
 10
443.04207
 20
304.449141
 30
0.0
 11
446.042076
 21
307.449147
 31
0.0
  0
LINE
  5
6A1
330
669
100
AcDbEntity
  8
LC-002-100-D00-0
 62
     7
370
    25
100
AcDbLine
 10
486.349208
 20
347.756279
 30
0.0
 11
491.620822
 21
353.027892
 31
0.0
  0
LINE
  5
6A2
330
669
100
AcDbEntity
  8
LC-002-100-D00-0
 62
     7
370
    25
100
AcDbLine
 10
413.041905
 20
277.277403
 30
0.0
 11
415.541932
 21
279.77743
 31
0.0
  0
LINE
  5
6A3
330
669
100
AcDbEntity
  8
LC-002-100-D00-0
 62
     7
370
    25
100
AcDbLine
 10
443.04207
 20
307.277568
 30
0.0
 11
446.042076
 21
310.277574
 31
0.0
  0
LINE
  5
6A4
330
669
100
AcDbEntity
  8
LC-002-100-D00-0
 62
     7
370
    25
100
AcDbLine
 10
482.275247
 20
346.510745
 30
0.0
 11
487.546861
 21
351.782359
 31
0.0
  0
LINE
  5
6A5
330
669
100
AcDbEntity
  8
LC-002-100-D00-0
 62
     7
370
    25
100
AcDbLine
 10
413.041905
 20
280.10583
 30
0.0
 11
415.541932
 21
282.605858
 31
0.0
  0
LINE
  5
6A6
330
669
100
AcDbEntity
  8
LC-002-100-D00-0
 62
     7
370
    25
100
AcDbLine
 10
443.04207
 20
310.105995
 30
0.0
 11
446.042076
 21
313.106001
 31
0.0
  0
LINE
  5
6A7
330
669
100
AcDbEntity
  8
LC-002-100-D00-0
 62
     7
370
    25
100
AcDbLine
 10
452.117222
 20
319.181147
 30
0.0
 11
453.862421
 21
320.926346
 31
0.0
  0
LINE
  5
6A8
330
669
100
AcDbEntity
  8
LC-002-100-D00-0
 62
     7
370
    25
100
AcDbLine
 10
465.861535
 20
332.92546
 30
0.0
 11
467.041143
 21
334.105068
 31
0.0
  0
LINE
  5
6A9
330
669
100
AcDbEntity
  8
LC-002-100-D00-0
 62
     7
370
    25
100
AcDbLine
 10
478.201286
 20
345.265211
 30
0.0
 11
483.4729
 21
350.536825
 31
0.0
  0
LINE
  5
6AA
330
669
100
AcDbEntity
  8
LC-002-100-D00-0
 62
     7
370
    25
100
AcDbLine
 10
413.041905
 20
282.934257
 30
0.0
 11
415.541932
 21
285.434285
 31
0.0
  0
LINE
  5
6AB
330
669
100
AcDbEntity
  8
LC-002-100-D00-0
 62
     7
370
    25
100
AcDbLine
 10
443.04207
 20
312.934422
 30
0.0
 11
446.042076
 21
315.934428
 31
0.0
  0
LINE
  5
6AC
330
669
100
AcDbEntity
  8
LC-002-100-D00-0
 62
     7
370
    25
100
AcDbLine
 10
449.107651
 20
319.000003
 30
0.0
 11
454.042092
 21
323.934445
 31
0.0
  0
LINE
  5
6AD
330
669
100
AcDbEntity
  8
LC-002-100-D00-0
 62
     7
370
    25
100
AcDbLine
 10
462.259358
 20
332.15171
 30
0.0
 11
467.041143
 21
336.933495
 31
0.0
  0
LINE
  5
6AE
330
669
100
AcDbEntity
  8
LC-002-100-D00-0
 62
     7
370
    25
100
AcDbLine
 10
472.533108
 20
342.425461
 30
0.0
 11
479.398939
 21
349.291291
 31
0.0
  0
LINE
  5
6AF
330
669
100
AcDbEntity
  8
LC-002-100-D00-0
 62
     7
370
    25
100
AcDbLine
 10
413.041905
 20
285.762684
 30
0.0
 11
415.541932
 21
288.262712
 31
0.0
  0
LINE
  5
6B0
330
669
100
AcDbEntity
  8
LC-002-100-D00-0
 62
     7
370
    25
100
AcDbLine
 10
443.04207
 20
315.762849
 30
0.0
 11
446.042076
 21
318.762856
 31
0.0
  0
LINE
  5
6B1
330
669
100
AcDbEntity
  8
LC-002-100-D00-0
 62
     7
370
    25
100
AcDbLine
 10
446.279224
 20
319.000003
 30
0.0
 11
449.279223
 21
322.000003
 31
0.0
  0
LINE
  5
6B2
330
669
100
AcDbEntity
  8
LC-002-100-D00-0
 62
     7
370
    25
100
AcDbLine
 10
451.042086
 20
323.762866
 30
0.0
 11
454.042092
 21
326.762872
 31
0.0
  0
LINE
  5
6B3
330
669
100
AcDbEntity
  8
LC-002-100-D00-0
 62
     7
370
    25
100
AcDbLine
 10
459.518394
 20
332.239174
 30
0.0
 11
462.544228
 21
335.265007
 31
0.0
  0
LINE
  5
6B4
330
669
100
AcDbEntity
  8
LC-002-100-D00-0
 62
     7
370
    25
100
AcDbLine
 10
463.539675
 20
336.260455
 30
0.0
 11
467.041143
 21
339.761922
 31
0.0
  0
LINE
  5
6B5
330
669
100
AcDbEntity
  8
LC-002-100-D00-0
 62
     7
370
    25
100
AcDbLine
 10
469.704681
 20
342.425461
 30
0.0
 11
472.044229
 21
344.765008
 31
0.0
  0
LINE
  5
6B6
330
669
100
AcDbEntity
  8
LC-002-100-D00-0
 62
     7
370
    25
100
AcDbLine
 10
474.042111
 20
346.76289
 30
0.0
 11
475.544228
 21
348.265008
 31
0.0
  0
LINE
  5
6B7
330
669
100
AcDbEntity
  8
LC-002-100-D00-0
 62
     7
370
    25
100
AcDbLine
 10
413.041905
 20
288.591112
 30
0.0
 11
415.541932
 21
291.091139
 31
0.0
  0
LINE
  5
6B8
330
669
100
AcDbEntity
  8
LC-002-100-D00-0
 62
     7
370
    25
100
AcDbLine
 10
443.04207
 20
318.591277
 30
0.0
 11
446.450796
 21
322.000003
 31
0.0
  0
LINE
  5
6B9
330
669
100
AcDbEntity
  8
LC-002-100-D00-0
 62
     7
370
    25
100
AcDbLine
 10
451.042086
 20
326.591293
 30
0.0
 11
454.042092
 21
329.591299
 31
0.0
  0
LINE
  5
6BA
330
669
100
AcDbEntity
  8
LC-002-100-D00-0
 62
     7
370
    25
100
AcDbLine
 10
457.376253
 20
332.92546
 30
0.0
 11
459.715801
 21
335.265007
 31
0.0
  0
LINE
  5
6BB
330
669
100
AcDbEntity
  8
LC-002-100-D00-0
 62
     7
370
    25
100
AcDbLine
 10
463.539675
 20
339.088882
 30
0.0
 11
469.215802
 21
344.765008
 31
0.0
  0
LINE
  5
6BC
330
669
100
AcDbEntity
  8
LC-002-100-D00-0
 62
     7
370
    25
100
AcDbLine
 10
413.041905
 20
291.419539
 30
0.0
 11
415.541932
 21
293.919566
 31
0.0
  0
LINE
  5
6BD
330
669
100
AcDbEntity
  8
LC-002-100-D00-0
 62
     7
370
    25
100
AcDbLine
 10
443.04207
 20
321.419704
 30
0.0
 11
443.622369
 21
322.000003
 31
0.0
  0
LINE
  5
6BE
330
669
100
AcDbEntity
  8
LC-002-100-D00-0
 62
     7
370
    25
100
AcDbLine
 10
451.042086
 20
329.41972
 30
0.0
 11
454.042092
 21
332.419726
 31
0.0
  0
LINE
  5
6BF
330
669
100
AcDbEntity
  8
LC-002-100-D00-0
 62
     7
370
    25
100
AcDbLine
 10
454.547826
 20
332.92546
 30
0.0
 11
458.544702
 21
336.922335
 31
0.0
  0
LINE
  5
6C0
330
669
100
AcDbEntity
  8
LC-002-100-D00-0
 62
     7
370
    25
100
AcDbLine
 10
463.539675
 20
341.917309
 30
0.0
 11
467.042104
 21
345.419737
 31
0.0
  0
LINE
  5
6C1
330
669
100
AcDbEntity
  8
LC-002-100-D00-0
 62
     7
370
    25
100
AcDbLine
 10
413.041905
 20
294.247966
 30
0.0
 11
415.541932
 21
296.747993
 31
0.0
  0
LINE
  5
6C2
330
669
100
AcDbEntity
  8
LC-002-100-D00-0
 62
     7
370
    25
100
AcDbLine
 10
451.042086
 20
332.248147
 30
0.0
 11
458.544702
 21
339.750763
 31
0.0
  0
LINE
  5
6C3
330
669
100
AcDbEntity
  8
LC-002-100-D00-0
 62
     7
370
    25
100
AcDbLine
 10
463.539675
 20
344.745736
 30
0.0
 11
467.042104
 21
348.248165
 31
0.0
  0
LINE
  5
6C4
330
669
100
AcDbEntity
  8
LC-002-100-D00-0
 62
     7
370
    25
100
AcDbLine
 10
413.041905
 20
297.076393
 30
0.0
 11
415.541932
 21
299.57642
 31
0.0
  0
LINE
  5
6C5
330
669
100
AcDbEntity
  8
LC-002-100-D00-0
 62
     7
370
    25
100
AcDbLine
 10
451.042086
 20
335.076574
 30
0.0
 11
458.544702
 21
342.57919
 31
0.0
  0
LINE
  5
6C6
330
669
100
AcDbEntity
  8
LC-002-100-D00-0
 62
     7
370
    25
100
AcDbLine
 10
463.539675
 20
347.574163
 30
0.0
 11
464.730519
 21
348.765007
 31
0.0
  0
LINE
  5
6C7
330
669
100
AcDbEntity
  8
LC-002-100-D00-0
 62
     7
370
    25
100
AcDbLine
 10
413.041905
 20
299.90482
 30
0.0
 11
415.541932
 21
302.404847
 31
0.0
  0
LINE
  5
6C8
330
669
100
AcDbEntity
  8
LC-002-100-D00-0
 62
     7
370
    25
100
AcDbLine
 10
451.042086
 20
337.905001
 30
0.0
 11
458.544702
 21
345.407617
 31
0.0
  0
LINE
  5
6C9
330
669
100
AcDbEntity
  8
LC-002-100-D00-0
 62
     7
370
    25
100
AcDbLine
 10
413.041905
 20
302.733247
 30
0.0
 11
415.541932
 21
305.233275
 31
0.0
  0
LINE
  5
6CA
330
669
100
AcDbEntity
  8
LC-002-100-D00-0
 62
     7
370
    25
100
AcDbLine
 10
451.042086
 20
340.733428
 30
0.0
 11
458.544702
 21
348.236044
 31
0.0
  0
LINE
  5
6CB
330
669
100
AcDbEntity
  8
LC-002-100-D00-0
 62
     7
370
    25
100
AcDbLine
 10
413.041905
 20
305.561674
 30
0.0
 11
415.541932
 21
308.061702
 31
0.0
  0
LINE
  5
6CC
330
669
100
AcDbEntity
  8
LC-002-100-D00-0
 62
     7
370
    25
100
AcDbLine
 10
451.042086
 20
343.561856
 30
0.0
 11
455.745238
 21
348.265008
 31
0.0
  0
LINE
  5
6CD
330
669
100
AcDbEntity
  8
LC-002-100-D00-0
 62
     7
370
    25
100
AcDbLine
 10
455.76434
 20
348.28411
 30
0.0
 11
456.043445
 21
348.563214
 31
0.0
  0
LINE
  5
6CE
330
669
100
AcDbEntity
  8
LC-002-100-D00-0
 62
     7
370
    25
100
AcDbLine
 10
456.112977
 20
348.632747
 30
0.0
 11
456.245238
 21
348.765007
 31
0.0
  0
LINE
  5
6CF
330
669
100
AcDbEntity
  8
LC-002-100-D00-0
 62
     7
370
    25
100
AcDbLine
 10
413.041905
 20
308.390101
 30
0.0
 11
415.541932
 21
310.890129
 31
0.0
  0
LINE
  5
6D0
330
669
100
AcDbEntity
  8
LC-002-100-D00-0
 62
     7
370
    25
100
AcDbLine
 10
451.042086
 20
346.390283
 30
0.0
 11
454.416883
 21
349.76508
 31
0.0
  0
LINE
  5
6D1
330
669
100
AcDbEntity
  8
LC-002-100-D00-0
 62
     7
370
    25
100
AcDbLine
 10
413.041905
 20
311.218529
 30
0.0
 11
415.541932
 21
313.718556
 31
0.0
  0
LINE
  5
6D2
330
669
100
AcDbEntity
  8
LC-002-100-D00-0
 62
     7
370
    25
100
AcDbLine
 10
452.042088
 20
350.218712
 30
0.0
 11
454.040096
 21
352.216719
 31
0.0
  0
LINE
  5
6D3
330
669
100
AcDbEntity
  8
LC-002-100-D00-0
 62
     7
370
    25
100
AcDbLine
 10
413.041905
 20
314.046956
 30
0.0
 11
415.541932
 21
316.546983
 31
0.0
  0
LINE
  5
6D4
330
669
100
AcDbEntity
  8
LC-002-100-D00-0
 62
     7
370
    25
100
AcDbLine
 10
413.041905
 20
316.875383
 30
0.0
 11
415.541932
 21
319.37541
 31
0.0
  0
LINE
  5
6D5
330
669
100
AcDbEntity
  8
LC-002-100-D00-0
 62
     7
370
    25
100
AcDbLine
 10
413.041905
 20
319.70381
 30
0.0
 11
415.541932
 21
322.203837
 31
0.0
  0
LINE
  5
6D6
330
669
100
AcDbEntity
  8
LC-002-100-D00-0
 62
     7
370
    25
100
AcDbLine
 10
413.041905
 20
322.532237
 30
0.0
 11
415.541932
 21
325.032264
 31
0.0
  0
LINE
  5
6D7
330
669
100
AcDbEntity
  8
LC-002-100-D00-0
 62
     7
370
    25
100
AcDbLine
 10
413.041905
 20
325.360664
 30
0.0
 11
414.181244
 21
326.500003
 31
0.0
  0
ENDBLK
  5
66B
330
669
100
AcDbEntity
  8
0
100
AcDbBlockEnd
  0
BLOCK
  5
6DA
330
6D9
100
AcDbEntity
  8
0
100
AcDbBlockBegin
  2
*X361
 70
     1
 71
     0
 10
0.0
 20
0.0
 30
0.0
  3
*X361
  1

  4
*X3
  0
LINE
  5
6DC
330
6D9
100
AcDbEntity
  8
LC-002-100-D00-0
 62
     7
370
    25
100
AcDbLine
 10
446.04208
 20
425.113475
 30
0.0
 11
436.655554
 21
434.5
 31
0.0
  0
LINE
  5
6DD
330
6D9
100
AcDbEntity
  8
LC-002-100-D00-0
 62
     7
370
    25
100
AcDbLine
 10
446.04208
 20
422.285047
 30
0.0
 11
443.042074
 21
425.285053
 31
0.0
  0
LINE
  5
6DE
330
6D9
100
AcDbEntity
  8
LC-002-100-D00-0
 62
     7
370
    25
100
AcDbLine
 10
437.577273
 20
430.749854
 30
0.0
 11
435.042052
 21
433.285075
 31
0.0
  0
LINE
  5
6DF
330
6D9
100
AcDbEntity
  8
LC-002-100-D00-0
 62
     7
370
    25
100
AcDbLine
 10
446.04208
 20
419.45662
 30
0.0
 11
443.042074
 21
422.456626
 31
0.0
  0
LINE
  5
6E0
330
6D9
100
AcDbEntity
  8
LC-002-100-D00-0
 62
     7
370
    25
100
AcDbLine
 10
435.998695
 20
429.500005
 30
0.0
 11
435.042052
 21
430.456648
 31
0.0
  0
LINE
  5
6E1
330
6D9
100
AcDbEntity
  8
LC-002-100-D00-0
 62
     7
370
    25
100
AcDbLine
 10
446.04208
 20
416.628193
 30
0.0
 11
443.042074
 21
419.628199
 31
0.0
  0
LINE
  5
6E2
330
6D9
100
AcDbEntity
  8
LC-002-100-D00-0
 62
     7
370
    25
100
AcDbLine
 10
446.04208
 20
413.799766
 30
0.0
 11
443.042074
 21
416.799772
 31
0.0
  0
LINE
  5
6E3
330
6D9
100
AcDbEntity
  8
LC-002-100-D00-0
 62
     7
370
    25
100
AcDbLine
 10
446.04208
 20
410.971339
 30
0.0
 11
443.042074
 21
413.971345
 31
0.0
  0
LINE
  5
6E4
330
6D9
100
AcDbEntity
  8
LC-002-100-D00-0
 62
     7
370
    25
100
AcDbLine
 10
446.04208
 20
408.142912
 30
0.0
 11
443.042074
 21
411.142918
 31
0.0
  0
LINE
  5
6E5
330
6D9
100
AcDbEntity
  8
LC-002-100-D00-0
 62
     7
370
    25
100
AcDbLine
 10
446.04208
 20
405.314485
 30
0.0
 11
443.042074
 21
408.314491
 31
0.0
  0
LINE
  5
6E6
330
6D9
100
AcDbEntity
  8
LC-002-100-D00-0
 62
     7
370
    25
100
AcDbLine
 10
446.04208
 20
402.486058
 30
0.0
 11
443.042074
 21
405.486064
 31
0.0
  0
LINE
  5
6E7
330
6D9
100
AcDbEntity
  8
LC-002-100-D00-0
 62
     7
370
    25
100
AcDbLine
 10
446.04208
 20
399.65763
 30
0.0
 11
443.042074
 21
402.657636
 31
0.0
  0
LINE
  5
6E8
330
6D9
100
AcDbEntity
  8
LC-002-100-D00-0
 62
     7
370
    25
100
AcDbLine
 10
446.04208
 20
396.829203
 30
0.0
 11
443.042074
 21
399.829209
 31
0.0
  0
LINE
  5
6E9
330
6D9
100
AcDbEntity
  8
LC-002-100-D00-0
 62
     7
370
    25
100
AcDbLine
 10
446.04208
 20
394.000776
 30
0.0
 11
443.042074
 21
397.000782
 31
0.0
  0
LINE
  5
6EA
330
6D9
100
AcDbEntity
  8
LC-002-100-D00-0
 62
     7
370
    25
100
AcDbLine
 10
446.04208
 20
391.172349
 30
0.0
 11
443.042074
 21
394.172355
 31
0.0
  0
LINE
  5
6EB
330
6D9
100
AcDbEntity
  8
LC-002-100-D00-0
 62
     7
370
    25
100
AcDbLine
 10
446.04208
 20
388.343922
 30
0.0
 11
443.042074
 21
391.343928
 31
0.0
  0
LINE
  5
6EC
330
6D9
100
AcDbEntity
  8
LC-002-100-D00-0
 62
     7
370
    25
100
AcDbLine
 10
446.04208
 20
385.515495
 30
0.0
 11
443.042074
 21
388.515501
 31
0.0
  0
LINE
  5
6ED
330
6D9
100
AcDbEntity
  8
LC-002-100-D00-0
 62
     7
370
    25
100
AcDbLine
 10
446.04208
 20
382.687068
 30
0.0
 11
443.042074
 21
385.687074
 31
0.0
  0
LINE
  5
6EE
330
6D9
100
AcDbEntity
  8
LC-002-100-D00-0
 62
     7
370
    25
100
AcDbLine
 10
446.04208
 20
379.858641
 30
0.0
 11
443.042074
 21
382.858647
 31
0.0
  0
LINE
  5
6EF
330
6D9
100
AcDbEntity
  8
LC-002-100-D00-0
 62
     7
370
    25
100
AcDbLine
 10
446.04208
 20
377.030213
 30
0.0
 11
443.042074
 21
380.030219
 31
0.0
  0
LINE
  5
6F0
330
6D9
100
AcDbEntity
  8
LC-002-100-D00-0
 62
     7
370
    25
100
AcDbLine
 10
446.04208
 20
374.201786
 30
0.0
 11
443.042074
 21
377.201792
 31
0.0
  0
LINE
  5
6F1
330
6D9
100
AcDbEntity
  8
LC-002-100-D00-0
 62
     7
370
    25
100
AcDbLine
 10
446.04208
 20
371.373359
 30
0.0
 11
443.042074
 21
374.373365
 31
0.0
  0
LINE
  5
6F2
330
6D9
100
AcDbEntity
  8
LC-002-100-D00-0
 62
     7
370
    25
100
AcDbLine
 10
446.04208
 20
368.544932
 30
0.0
 11
443.042074
 21
371.544938
 31
0.0
  0
LINE
  5
6F3
330
6D9
100
AcDbEntity
  8
LC-002-100-D00-0
 62
     7
370
    25
100
AcDbLine
 10
446.04208
 20
365.716505
 30
0.0
 11
443.042074
 21
368.716511
 31
0.0
  0
LINE
  5
6F4
330
6D9
100
AcDbEntity
  8
LC-002-100-D00-0
 62
     7
370
    25
100
AcDbLine
 10
446.04208
 20
362.888078
 30
0.0
 11
443.042074
 21
365.888084
 31
0.0
  0
LINE
  5
6F5
330
6D9
100
AcDbEntity
  8
LC-002-100-D00-0
 62
     7
370
    25
100
AcDbLine
 10
446.04208
 20
360.059651
 30
0.0
 11
443.042074
 21
363.059657
 31
0.0
  0
LINE
  5
6F6
330
6D9
100
AcDbEntity
  8
LC-002-100-D00-0
 62
     7
370
    25
100
AcDbLine
 10
446.04208
 20
357.231224
 30
0.0
 11
443.042074
 21
360.23123
 31
0.0
  0
LINE
  5
6F7
330
6D9
100
AcDbEntity
  8
LC-002-100-D00-0
 62
     7
370
    25
100
AcDbLine
 10
446.04208
 20
354.402796
 30
0.0
 11
443.042074
 21
357.402802
 31
0.0
  0
LINE
  5
6F8
330
6D9
100
AcDbEntity
  8
LC-002-100-D00-0
 62
     7
370
    25
100
AcDbLine
 10
446.04208
 20
351.574369
 30
0.0
 11
443.042074
 21
354.574375
 31
0.0
  0
LINE
  5
6F9
330
6D9
100
AcDbEntity
  8
LC-002-100-D00-0
 62
     7
370
    25
100
AcDbLine
 10
446.04208
 20
348.745942
 30
0.0
 11
443.042074
 21
351.745948
 31
0.0
  0
LINE
  5
6FA
330
6D9
100
AcDbEntity
  8
LC-002-100-D00-0
 62
     7
370
    25
100
AcDbLine
 10
446.04208
 20
345.917515
 30
0.0
 11
443.042074
 21
348.917521
 31
0.0
  0
LINE
  5
6FB
330
6D9
100
AcDbEntity
  8
LC-002-100-D00-0
 62
     7
370
    25
100
AcDbLine
 10
446.04208
 20
343.089088
 30
0.0
 11
443.042074
 21
346.089094
 31
0.0
  0
LINE
  5
6FC
330
6D9
100
AcDbEntity
  8
LC-002-100-D00-0
 62
     7
370
    25
100
AcDbLine
 10
446.04208
 20
340.260661
 30
0.0
 11
443.042074
 21
343.260667
 31
0.0
  0
LINE
  5
6FD
330
6D9
100
AcDbEntity
  8
LC-002-100-D00-0
 62
     7
370
    25
100
AcDbLine
 10
446.04208
 20
337.432234
 30
0.0
 11
443.042074
 21
340.43224
 31
0.0
  0
LINE
  5
6FE
330
6D9
100
AcDbEntity
  8
LC-002-100-D00-0
 62
     7
370
    25
100
AcDbLine
 10
446.04208
 20
334.603807
 30
0.0
 11
443.042074
 21
337.603813
 31
0.0
  0
LINE
  5
6FF
330
6D9
100
AcDbEntity
  8
LC-002-100-D00-0
 62
     7
370
    25
100
AcDbLine
 10
446.04208
 20
331.775379
 30
0.0
 11
443.042074
 21
334.775385
 31
0.0
  0
LINE
  5
700
330
6D9
100
AcDbEntity
  8
LC-002-100-D00-0
 62
     7
370
    25
100
AcDbLine
 10
446.04208
 20
328.946952
 30
0.0
 11
443.042074
 21
331.946958
 31
0.0
  0
LINE
  5
701
330
6D9
100
AcDbEntity
  8
LC-002-100-D00-0
 62
     7
370
    25
100
AcDbLine
 10
446.04208
 20
326.118525
 30
0.0
 11
443.042074
 21
329.118531
 31
0.0
  0
LINE
  5
702
330
6D9
100
AcDbEntity
  8
LC-002-100-D00-0
 62
     7
370
    25
100
AcDbLine
 10
444.332175
 20
325.000003
 30
0.0
 11
443.042074
 21
326.290104
 31
0.0
  0
ENDBLK
  5
6DB
330
6D9
100
AcDbEntity
  8
0
100
AcDbBlockEnd
  0
BLOCK
  5
705
330
704
100
AcDbEntity
  8
0
100
AcDbBlockBegin
  2
*X462
 70
     1
 71
     0
 10
0.0
 20
0.0
 30
0.0
  3
*X462
  1

  4
*X4
  0
LINE
  5
707
330
704
100
AcDbEntity
  8
LC-002-100-D00-0
 62
     7
370
    25
100
AcDbLine
 10
347.042332
 20
433.603555
 30
0.0
 11
346.145886
 21
434.5
 31
0.0
  0
LINE
  5
708
330
704
100
AcDbEntity
  8
LC-002-100-D00-0
 62
     7
370
    25
100
AcDbLine
 10
347.042332
 20
430.775127
 30
0.0
 11
343.317459
 21
434.5
 31
0.0
  0
LINE
  5
709
330
704
100
AcDbEntity
  8
LC-002-100-D00-0
 62
     7
370
    25
100
AcDbLine
 10
345.489027
 20
429.500005
 30
0.0
 11
345.035491
 21
429.953542
 31
0.0
  0
LINE
  5
70A
330
704
100
AcDbEntity
  8
LC-002-100-D00-0
 62
     7
370
    25
100
AcDbLine
 10
344.137356
 20
430.851676
 30
0.0
 11
341.765674
 21
433.223358
 31
0.0
  0
LINE
  5
70B
330
704
100
AcDbEntity
  8
LC-002-100-D00-0
 62
     7
370
    25
100
AcDbLine
 10
342.472782
 20
429.687823
 30
0.0
 11
340.351459
 21
431.809146
 31
0.0
  0
LINE
  5
70C
330
704
100
AcDbEntity
  8
LC-002-100-D00-0
 62
     7
370
    25
100
AcDbLine
 10
341.058566
 20
428.273612
 30
0.0
 11
338.937244
 21
430.394934
 31
0.0
  0
LINE
  5
70D
330
704
100
AcDbEntity
  8
LC-002-100-D00-0
 62
     7
370
    25
100
AcDbLine
 10
339.64435
 20
426.859401
 30
0.0
 11
337.523029
 21
428.980722
 31
0.0
  0
LINE
  5
70E
330
704
100
AcDbEntity
  8
LC-002-100-D00-0
 62
     7
370
    25
100
AcDbLine
 10
339.04231
 20
424.633014
 30
0.0
 11
336.108814
 21
427.56651
 31
0.0
  0
LINE
  5
70F
330
704
100
AcDbEntity
  8
LC-002-100-D00-0
 62
     7
370
    25
100
AcDbLine
 10
339.04231
 20
421.804586
 30
0.0
 11
336.042304
 21
424.804593
 31
0.0
  0
LINE
  5
710
330
704
100
AcDbEntity
  8
LC-002-100-D00-0
 62
     7
370
    25
100
AcDbLine
 10
339.04231
 20
418.976159
 30
0.0
 11
336.042304
 21
421.976165
 31
0.0
  0
LINE
  5
711
330
704
100
AcDbEntity
  8
LC-002-100-D00-0
 62
     7
370
    25
100
AcDbLine
 10
339.04231
 20
416.147732
 30
0.0
 11
336.042304
 21
419.147738
 31
0.0
  0
LINE
  5
712
330
704
100
AcDbEntity
  8
LC-002-100-D00-0
 62
     7
370
    25
100
AcDbLine
 10
339.04231
 20
413.319305
 30
0.0
 11
336.042304
 21
416.319311
 31
0.0
  0
LINE
  5
713
330
704
100
AcDbEntity
  8
LC-002-100-D00-0
 62
     7
370
    25
100
AcDbLine
 10
339.04231
 20
410.490878
 30
0.0
 11
336.042304
 21
413.490884
 31
0.0
  0
LINE
  5
714
330
704
100
AcDbEntity
  8
LC-002-100-D00-0
 62
     7
370
    25
100
AcDbLine
 10
339.04231
 20
407.662451
 30
0.0
 11
336.042304
 21
410.662457
 31
0.0
  0
LINE
  5
715
330
704
100
AcDbEntity
  8
LC-002-100-D00-0
 62
     7
370
    25
100
AcDbLine
 10
339.04231
 20
404.834024
 30
0.0
 11
336.042304
 21
407.83403
 31
0.0
  0
LINE
  5
716
330
704
100
AcDbEntity
  8
LC-002-100-D00-0
 62
     7
370
    25
100
AcDbLine
 10
339.04231
 20
402.005597
 30
0.0
 11
336.042304
 21
405.005603
 31
0.0
  0
LINE
  5
717
330
704
100
AcDbEntity
  8
LC-002-100-D00-0
 62
     7
370
    25
100
AcDbLine
 10
339.04231
 20
399.177169
 30
0.0
 11
336.042304
 21
402.177176
 31
0.0
  0
LINE
  5
718
330
704
100
AcDbEntity
  8
LC-002-100-D00-0
 62
     7
370
    25
100
AcDbLine
 10
339.04231
 20
396.348742
 30
0.0
 11
336.042304
 21
399.348748
 31
0.0
  0
LINE
  5
719
330
704
100
AcDbEntity
  8
LC-002-100-D00-0
 62
     7
370
    25
100
AcDbLine
 10
339.04231
 20
393.520315
 30
0.0
 11
336.042304
 21
396.520321
 31
0.0
  0
LINE
  5
71A
330
704
100
AcDbEntity
  8
LC-002-100-D00-0
 62
     7
370
    25
100
AcDbLine
 10
339.04231
 20
390.691888
 30
0.0
 11
336.042304
 21
393.691894
 31
0.0
  0
LINE
  5
71B
330
704
100
AcDbEntity
  8
LC-002-100-D00-0
 62
     7
370
    25
100
AcDbLine
 10
339.04231
 20
387.863461
 30
0.0
 11
336.042304
 21
390.863467
 31
0.0
  0
LINE
  5
71C
330
704
100
AcDbEntity
  8
LC-002-100-D00-0
 62
     7
370
    25
100
AcDbLine
 10
339.04231
 20
385.035034
 30
0.0
 11
336.042304
 21
388.03504
 31
0.0
  0
LINE
  5
71D
330
704
100
AcDbEntity
  8
LC-002-100-D00-0
 62
     7
370
    25
100
AcDbLine
 10
339.04231
 20
382.206607
 30
0.0
 11
336.042304
 21
385.206613
 31
0.0
  0
LINE
  5
71E
330
704
100
AcDbEntity
  8
LC-002-100-D00-0
 62
     7
370
    25
100
AcDbLine
 10
339.04231
 20
379.37818
 30
0.0
 11
336.042304
 21
382.378186
 31
0.0
  0
LINE
  5
71F
330
704
100
AcDbEntity
  8
LC-002-100-D00-0
 62
     7
370
    25
100
AcDbLine
 10
339.04231
 20
376.549752
 30
0.0
 11
336.042304
 21
379.549759
 31
0.0
  0
LINE
  5
720
330
704
100
AcDbEntity
  8
LC-002-100-D00-0
 62
     7
370
    25
100
AcDbLine
 10
339.04231
 20
373.721325
 30
0.0
 11
336.042304
 21
376.721331
 31
0.0
  0
LINE
  5
721
330
704
100
AcDbEntity
  8
LC-002-100-D00-0
 62
     7
370
    25
100
AcDbLine
 10
339.04231
 20
370.892898
 30
0.0
 11
336.042304
 21
373.892904
 31
0.0
  0
LINE
  5
722
330
704
100
AcDbEntity
  8
LC-002-100-D00-0
 62
     7
370
    25
100
AcDbLine
 10
339.04231
 20
368.064471
 30
0.0
 11
336.042304
 21
371.064477
 31
0.0
  0
LINE
  5
723
330
704
100
AcDbEntity
  8
LC-002-100-D00-0
 62
     7
370
    25
100
AcDbLine
 10
339.04231
 20
365.236044
 30
0.0
 11
336.042304
 21
368.23605
 31
0.0
  0
LINE
  5
724
330
704
100
AcDbEntity
  8
LC-002-100-D00-0
 62
     7
370
    25
100
AcDbLine
 10
339.04231
 20
362.407617
 30
0.0
 11
336.042304
 21
365.407623
 31
0.0
  0
LINE
  5
725
330
704
100
AcDbEntity
  8
LC-002-100-D00-0
 62
     7
370
    25
100
AcDbLine
 10
339.04231
 20
359.57919
 30
0.0
 11
336.042304
 21
362.579196
 31
0.0
  0
LINE
  5
726
330
704
100
AcDbEntity
  8
LC-002-100-D00-0
 62
     7
370
    25
100
AcDbLine
 10
339.04231
 20
356.750763
 30
0.0
 11
336.042304
 21
359.750769
 31
0.0
  0
LINE
  5
727
330
704
100
AcDbEntity
  8
LC-002-100-D00-0
 62
     7
370
    25
100
AcDbLine
 10
339.04231
 20
353.922335
 30
0.0
 11
336.042304
 21
356.922342
 31
0.0
  0
LINE
  5
728
330
704
100
AcDbEntity
  8
LC-002-100-D00-0
 62
     7
370
    25
100
AcDbLine
 10
339.04231
 20
351.093908
 30
0.0
 11
336.042304
 21
354.093914
 31
0.0
  0
LINE
  5
729
330
704
100
AcDbEntity
  8
LC-002-100-D00-0
 62
     7
370
    25
100
AcDbLine
 10
339.04231
 20
348.265481
 30
0.0
 11
336.042304
 21
351.265487
 31
0.0
  0
LINE
  5
72A
330
704
100
AcDbEntity
  8
LC-002-100-D00-0
 62
     7
370
    25
100
AcDbLine
 10
339.04231
 20
345.437054
 30
0.0
 11
336.042304
 21
348.43706
 31
0.0
  0
LINE
  5
72B
330
704
100
AcDbEntity
  8
LC-002-100-D00-0
 62
     7
370
    25
100
AcDbLine
 10
339.04231
 20
342.608627
 30
0.0
 11
336.042304
 21
345.608633
 31
0.0
  0
LINE
  5
72C
330
704
100
AcDbEntity
  8
LC-002-100-D00-0
 62
     7
370
    25
100
AcDbLine
 10
339.04231
 20
339.7802
 30
0.0
 11
336.042304
 21
342.780206
 31
0.0
  0
LINE
  5
72D
330
704
100
AcDbEntity
  8
LC-002-100-D00-0
 62
     7
370
    25
100
AcDbLine
 10
339.04231
 20
336.951773
 30
0.0
 11
336.042304
 21
339.951779
 31
0.0
  0
LINE
  5
72E
330
704
100
AcDbEntity
  8
LC-002-100-D00-0
 62
     7
370
    25
100
AcDbLine
 10
339.04231
 20
334.123346
 30
0.0
 11
336.042304
 21
337.123352
 31
0.0
  0
LINE
  5
72F
330
704
100
AcDbEntity
  8
LC-002-100-D00-0
 62
     7
370
    25
100
AcDbLine
 10
339.04231
 20
331.294918
 30
0.0
 11
336.042304
 21
334.294925
 31
0.0
  0
LINE
  5
730
330
704
100
AcDbEntity
  8
LC-002-100-D00-0
 62
     7
370
    25
100
AcDbLine
 10
339.04231
 20
328.466491
 30
0.0
 11
336.042304
 21
331.466497
 31
0.0
  0
LINE
  5
731
330
704
100
AcDbEntity
  8
LC-002-100-D00-0
 62
     7
370
    25
100
AcDbLine
 10
339.04231
 20
325.638064
 30
0.0
 11
336.042304
 21
328.63807
 31
0.0
  0
ENDBLK
  5
706
330
704
100
AcDbEntity
  8
0
100
AcDbBlockEnd
  0
BLOCK
  5
73F
330
735
100
AcDbEntity
  8
0
100
AcDbBlockBegin
  2
*D63
 70
     1
 71
     0
 10
0.0
 20
0.0
 30
0.0
  3
*D63
  1

  0
LINE
  5
736
330
735
100
AcDbEntity
  8
LC-004-003-----0
 62
     2
370
    -2
100
AcDbLine
 10
503.542193
 20
354.670518
 30
0.0
 11
557.929376
 21
354.670518
 31
0.0
  0
LINE
  5
737
330
735
100
AcDbEntity
  8
LC-004-003-----0
 62
     2
370
    -2
100
AcDbLine
 10
438.042195
 20
446.000003
 30
0.0
 11
557.929376
 21
446.000003
 31
0.0
  0
LINE
  5
738
330
735
100
AcDbEntity
  8
LC-004-003-----0
 62
     2
370
    -2
100
AcDbLine
 10
554.329376
 20
382.670518
 30
0.0
 11
554.329376
 21
418.000003
 31
0.0
  0
SOLID
  5
739
330
735
100
AcDbEntity
  8
LC-004-003-----0
 62
     2
100
AcDbTrace
 10
549.662709
 20
382.670518
 30
0.0
 11
558.996043
 21
382.670518
 31
0.0
 12
554.329376
 22
354.670518
 32
0.0
 13
554.329376
 23
354.670518
 33
0.0
  0
SOLID
  5
73A
330
735
100
AcDbEntity
  8
LC-004-003-----0
 62
     2
100
AcDbTrace
 10
558.996043
 20
418.000003
 30
0.0
 11
549.662709
 21
418.000003
 31
0.0
 12
554.329376
 22
446.000003
 32
0.0
 13
554.329376
 23
446.000003
 33
0.0
  0
MTEXT
  5
73B
330
735
100
AcDbEntity
  8
LC-004-003-----0
 62
     2
100
AcDbMText
 10
523.529376
 20
393.822
 30
0.0
 40
28.0
 41
0.0
 71
     5
 72
     1
  1
\A1;15-91
  7
LCTX15-400-0-0pDIN-Schrift
 11
6.123031769111886E-17
 21
1.0
 31
0.0
 73
     1
 44
1.0
  0
POINT
  5
73C
330
735
100
AcDbEntity
  8
Defpoints
 62
     0
100
AcDbPoint
 10
503.542193
 20
354.670518
 30
0.0
  0
POINT
  5
73D
330
735
100
AcDbEntity
  8
Defpoints
 62
     0
100
AcDbPoint
 10
438.042195
 20
446.000003
 30
0.0
  0
POINT
  5
73E
330
735
100
AcDbEntity
  8
Defpoints
 62
     0
100
AcDbPoint
 10
554.329376
 20
446.000003
 30
0.0
  0
ENDBLK
  5
740
330
735
100
AcDbEntity
  8
0
100
AcDbBlockEnd
  0
BLOCK
  5
74C
330
742
100
AcDbEntity
  8
0
100
AcDbBlockBegin
  2
*D64
 70
     1
 71
     0
 10
0.0
 20
0.0
 30
0.0
  3
*D64
  1

  0
LINE
  5
743
330
742
100
AcDbEntity
  8
LC-004-003-----0
 62
     2
370
    -2
100
AcDbLine
 10
341.542196
 20
445.5
 30
0.0
 11
341.542196
 21
462.762
 31
0.0
  0
LINE
  5
744
330
742
100
AcDbEntity
  8
LC-004-003-----0
 62
     2
370
    -2
100
AcDbLine
 10
440.542195
 20
445.5
 30
0.0
 11
440.542195
 21
462.762
 31
0.0
  0
LINE
  5
745
330
742
100
AcDbEntity
  8
LC-004-003-----0
 62
     2
370
    -2
100
AcDbLine
 10
369.542196
 20
459.162
 30
0.0
 11
412.542195
 21
459.162
 31
0.0
  0
SOLID
  5
746
330
742
100
AcDbEntity
  8
LC-004-003-----0
 62
     2
100
AcDbTrace
 10
369.542196
 20
463.828667
 30
0.0
 11
369.542196
 21
454.495333
 31
0.0
 12
341.542196
 22
459.162
 32
0.0
 13
341.542196
 23
459.162
 33
0.0
  0
SOLID
  5
747
330
742
100
AcDbEntity
  8
LC-004-003-----0
 62
     2
100
AcDbTrace
 10
412.542195
 20
454.495333
 30
0.0
 11
412.542195
 21
463.828667
 31
0.0
 12
440.542195
 22
459.162
 32
0.0
 13
440.542195
 23
459.162
 33
0.0
  0
MTEXT
  5
748
330
742
100
AcDbEntity
  8
LC-004-003-----0
 62
     2
100
AcDbMText
 10
397.918459
 20
489.962
 30
0.0
 40
28.0
 41
0.0
 71
     5
 72
     1
  1
\A1;100
  7
LCTX15-400-0-0pDIN-Schrift
 73
     1
 44
1.0
  0
POINT
  5
749
330
742
100
AcDbEntity
  8
Defpoints
 62
     0
100
AcDbPoint
 10
341.542196
 20
445.5
 30
0.0
  0
POINT
  5
74A
330
742
100
AcDbEntity
  8
Defpoints
 62
     0
100
AcDbPoint
 10
440.542195
 20
445.5
 30
0.0
  0
POINT
  5
74B
330
742
100
AcDbEntity
  8
Defpoints
 62
     0
100
AcDbPoint
 10
440.542195
 20
459.162
 30
0.0
  0
ENDBLK
  5
74D
330
742
100
AcDbEntity
  8
0
100
AcDbBlockEnd
  0
BLOCK
  5
759
330
74F
100
AcDbEntity
  8
0
100
AcDbBlockBegin
  2
*D65
 70
     1
 71
     0
 10
0.0
 20
0.0
 30
0.0
  3
*D65
  1

  0
LINE
  5
750
330
74F
100
AcDbEntity
  8
LC-004-003-----0
 62
     2
370
    -2
100
AcDbLine
 10
336.042308
 20
276.696271
 30
0.0
 11
336.042308
 21
126.486
 31
0.0
  0
LINE
  5
751
330
74F
100
AcDbEntity
  8
LC-004-003-----0
 62
     2
370
    -2
100
AcDbLine
 10
446.04208
 20
276.696271
 30
0.0
 11
446.04208
 21
126.486
 31
0.0
  0
LINE
  5
752
330
74F
100
AcDbEntity
  8
LC-004-003-----0
 62
     2
370
    -2
100
AcDbLine
 10
364.042308
 20
130.086
 30
0.0
 11
418.04208
 21
130.086
 31
0.0
  0
SOLID
  5
753
330
74F
100
AcDbEntity
  8
LC-004-003-----0
 62
     2
100
AcDbTrace
 10
364.042308
 20
134.752667
 30
0.0
 11
364.042308
 21
125.419333
 31
0.0
 12
336.042308
 22
130.086
 32
0.0
 13
336.042308
 23
130.086
 33
0.0
  0
SOLID
  5
754
330
74F
100
AcDbEntity
  8
LC-004-003-----0
 62
     2
100
AcDbTrace
 10
418.04208
 20
125.419333
 30
0.0
 11
418.04208
 21
134.752667
 31
0.0
 12
446.04208
 22
130.086
 32
0.0
 13
446.04208
 23
130.086
 33
0.0
  0
MTEXT
  5
755
330
74F
100
AcDbEntity
  8
LC-004-003-----0
 62
     2
100
AcDbMText
 10
385.03756
 20
160.886
 30
0.0
 40
28.0
 41
0.0
 71
     5
 72
     1
  1
%%c\A1;110
  7
LCTX15-400-0-0pDIN-Schrift
 73
     1
 44
1.0
  0
POINT
  5
756
330
74F
100
AcDbEntity
  8
Defpoints
 62
     0
100
AcDbPoint
 10
336.042308
 20
276.696271
 30
0.0
  0
POINT
  5
757
330
74F
100
AcDbEntity
  8
Defpoints
 62
     0
100
AcDbPoint
 10
446.04208
 20
276.696271
 30
0.0
  0
POINT
  5
758
330
74F
100
AcDbEntity
  8
Defpoints
 62
     0
100
AcDbPoint
 10
446.04208
 20
130.086
 30
0.0
  0
ENDBLK
  5
75A
330
74F
100
AcDbEntity
  8
0
100
AcDbBlockEnd
  0
BLOCK
  5
766
330
75C
100
AcDbEntity
  8
0
100
AcDbBlockBegin
  2
*D66
 70
     1
 71
     0
 10
0.0
 20
0.0
 30
0.0
  3
*D66
  1

  0
LINE
  5
75D
330
75C
100
AcDbEntity
  8
LC-004-003-----0
 62
     2
370
    -2
100
AcDbLine
 10
328.075645
 20
321.333159
 30
0.0
 11
328.075645
 21
71.838
 31
0.0
  0
LINE
  5
75E
330
75C
100
AcDbEntity
  8
LC-004-003-----0
 62
     2
370
    -2
100
AcDbLine
 10
454.042096
 20
322.000003
 30
0.0
 11
454.042096
 21
71.838
 31
0.0
  0
LINE
  5
75F
330
75C
100
AcDbEntity
  8
LC-004-003-----0
 62
     2
370
    -2
100
AcDbLine
 10
356.075645
 20
75.438
 30
0.0
 11
426.042096
 21
75.438
 31
0.0
  0
SOLID
  5
760
330
75C
100
AcDbEntity
  8
LC-004-003-----0
 62
     2
100
AcDbTrace
 10
356.075645
 20
80.104667
 30
0.0
 11
356.075645
 21
70.771333
 31
0.0
 12
328.075645
 22
75.438
 32
0.0
 13
328.075645
 23
75.438
 33
0.0
  0
SOLID
  5
761
330
75C
100
AcDbEntity
  8
LC-004-003-----0
 62
     2
100
AcDbTrace
 10
426.042096
 20
70.771333
 30
0.0
 11
426.042096
 21
80.104667
 31
0.0
 12
454.042096
 22
75.438
 32
0.0
 13
454.042096
 23
75.438
 33
0.0
  0
MTEXT
  5
762
330
75C
100
AcDbEntity
  8
LC-004-003-----0
 62
     2
100
AcDbMText
 10
385.03756
 20
106.238
 30
0.0
 40
28.0
 41
0.0
 71
     5
 72
     1
  1
\A1;%%c126
  7
LCTX15-400-0-0pDIN-Schrift
 73
     1
 44
1.0
  0
POINT
  5
763
330
75C
100
AcDbEntity
  8
Defpoints
 62
     0
100
AcDbPoint
 10
328.075645
 20
321.333159
 30
0.0
  0
POINT
  5
764
330
75C
100
AcDbEntity
  8
Defpoints
 62
     0
100
AcDbPoint
 10
454.042096
 20
322.000003
 30
0.0
  0
POINT
  5
765
330
75C
100
AcDbEntity
  8
Defpoints
 62
     0
100
AcDbPoint
 10
454.042096
 20
75.438
 30
0.0
  0
ENDBLK
  5
767
330
75C
100
AcDbEntity
  8
0
100
AcDbBlockEnd
  0
BLOCK
  5
773
330
769
100
AcDbEntity
  8
0
100
AcDbBlockBegin
  2
*D67
 70
     1
 71
     0
 10
0.0
 20
0.0
 30
0.0
  3
*D67
  1

  0
LINE
  5
76A
330
769
100
AcDbEntity
  8
LC-004-003-----0
 62
     2
370
    -2
100
AcDbLine
 10
276.542247
 20
351.187541
 30
0.0
 11
276.542247
 21
515.034
 31
0.0
  0
LINE
  5
76B
330
769
100
AcDbEntity
  8
LC-004-003-----0
 62
     2
370
    -2
100
AcDbLine
 10
505.542137
 20
351.187541
 30
0.0
 11
505.542137
 21
515.034
 31
0.0
  0
LINE
  5
76C
330
769
100
AcDbEntity
  8
LC-004-003-----0
 62
     2
370
    -2
100
AcDbLine
 10
304.542247
 20
511.434
 30
0.0
 11
477.542137
 21
511.434
 31
0.0
  0
SOLID
  5
76D
330
769
100
AcDbEntity
  8
LC-004-003-----0
 62
     2
100
AcDbTrace
 10
304.542247
 20
516.100667
 30
0.0
 11
304.542247
 21
506.767333
 31
0.0
 12
276.542247
 22
511.434
 32
0.0
 13
276.542247
 23
511.434
 33
0.0
  0
SOLID
  5
76E
330
769
100
AcDbEntity
  8
LC-004-003-----0
 62
     2
100
AcDbTrace
 10
477.542137
 20
506.767333
 30
0.0
 11
477.542137
 21
516.100667
 31
0.0
 12
505.542137
 22
511.434
 32
0.0
 13
505.542137
 23
511.434
 33
0.0
  0
MTEXT
  5
76F
330
769
100
AcDbEntity
  8
LC-004-003-----0
 62
     2
100
AcDbMText
 10
390.557945
 20
542.234
 30
0.0
 40
28.0
 41
0.0
 71
     5
 72
     1
  1
\A1;%%c230
  7
LCTX15-400-0-0pDIN-Schrift
 73
     1
 44
1.0
  0
POINT
  5
770
330
769
100
AcDbEntity
  8
Defpoints
 62
     0
100
AcDbPoint
 10
276.542247
 20
351.187541
 30
0.0
  0
POINT
  5
771
330
769
100
AcDbEntity
  8
Defpoints
 62
     0
100
AcDbPoint
 10
505.542137
 20
351.187541
 30
0.0
  0
POINT
  5
772
330
769
100
AcDbEntity
  8
Defpoints
 62
     0
100
AcDbPoint
 10
505.542137
 20
511.434
 30
0.0
  0
ENDBLK
  5
774
330
769
100
AcDbEntity
  8
0
100
AcDbBlockEnd
  0
BLOCK
  5
780
330
776
100
AcDbEntity
  8
0
100
AcDbBlockBegin
  2
*D68
 70
     1
 71
     0
 10
0.0
 20
0.0
 30
0.0
  3
*D68
  1

  0
LINE
  5
777
330
776
100
AcDbEntity
  8
LC-004-003-----0
 62
     2
370
    -2
100
AcDbLine
 10
276.542247
 20
351.187541
 30
0.0
 11
226.627324
 21
351.187541
 31
0.0
  0
LINE
  5
778
330
776
100
AcDbEntity
  8
LC-004-003-----0
 62
     2
370
    -2
100
AcDbLine
 10
341.994025
 20
262.02426
 30
0.0
 11
226.627324
 21
262.02426
 31
0.0
  0
LINE
  5
779
330
776
100
AcDbEntity
  8
LC-004-003-----0
 62
     2
370
    -2
100
AcDbLine
 10
230.227324
 20
323.187541
 30
0.0
 11
230.227324
 21
290.02426
 31
0.0
  0
SOLID
  5
77A
330
776
100
AcDbEntity
  8
LC-004-003-----0
 62
     2
100
AcDbTrace
 10
234.89399
 20
323.187541
 30
0.0
 11
225.560657
 21
323.187541
 31
0.0
 12
230.227324
 22
351.187541
 32
0.0
 13
230.227324
 23
351.187541
 33
0.0
  0
SOLID
  5
77B
330
776
100
AcDbEntity
  8
LC-004-003-----0
 62
     2
100
AcDbTrace
 10
225.560657
 20
290.02426
 30
0.0
 11
234.89399
 21
290.02426
 31
0.0
 12
230.227324
 22
262.02426
 32
0.0
 13
230.227324
 23
262.02426
 33
0.0
  0
MTEXT
  5
77C
330
776
100
AcDbEntity
  8
LC-004-003-----0
 62
     2
100
AcDbMText
 10
199.427324
 20
314.009344
 30
0.0
 40
28.0
 41
0.0
 71
     5
 72
     1
  1
\A1;90
  7
LCTX15-400-0-0pDIN-Schrift
 11
6.123031769111886E-17
 21
1.0
 31
0.0
 73
     1
 44
1.0
  0
POINT
  5
77D
330
776
100
AcDbEntity
  8
Defpoints
 62
     0
100
AcDbPoint
 10
276.542247
 20
351.187541
 30
0.0
  0
POINT
  5
77E
330
776
100
AcDbEntity
  8
Defpoints
 62
     0
100
AcDbPoint
 10
341.994025
 20
262.02426
 30
0.0
  0
POINT
  5
77F
330
776
100
AcDbEntity
  8
Defpoints
 62
     0
100
AcDbPoint
 10
230.227324
 20
262.02426
 30
0.0
  0
ENDBLK
  5
781
330
776
100
AcDbEntity
  8
0
100
AcDbBlockEnd
  0
ENDSEC
  0
SECTION
  2
ENTITIES
  0
LINE
  5
32
330
1F
100
AcDbEntity
  8
LC-001-002-----0
 62
     7
370
    25
100
AcDbLine
 10
391.042192
 20
446.000001
 30
0.0
 11
391.042192
 21
204.000002
 31
0.0
  0
LINE
  5
34
330
1F
100
AcDbEntity
  8
LC-002-100-D00-0
 62
     7
370
    50
100
AcDbLine
 10
375.291342
 20
341.600003
 30
0.0
 11
375.291342
 21
341.500003
 31
0.0
  0
LINE
  5
35
330
1F
100
AcDbEntity
  8
LC-002-100-D00-0
 62
     7
370
    50
100
AcDbLine
 10
503.542193
 20
354.670518
 30
0.0
 11
446.04208
 21
354.670518
 31
0.0
  0
LINE
  5
36
330
1F
100
AcDbEntity
  8
LC-002-100-D00-0
 62
     7
370
    50
100
AcDbLine
 10
336.042308
 20
354.670518
 30
0.0
 11
278.542191
 21
354.670518
 31
0.0
  0
ARC
  5
37
330
1F
100
AcDbEntity
  8
LC-002-100-D00-0
 62
     7
370
    50
100
AcDbCircle
 10
395.792195
 20
342.500003
 30
0.0
 40
5.003141544572827
100
AcDbArc
 50
0.0
 51
90.0
  0
LINE
  5
38
330
1F
100
AcDbEntity
  8
LC-002-100-D00-0
 62
     7
370
    50
100
AcDbLine
 10
395.792195
 20
347.503145
 30
0.0
 11
386.292195
 21
347.503145
 31
0.0
  0
ARC
  5
39
330
1F
100
AcDbEntity
  8
LC-002-100-D00-0
 62
     7
370
    50
100
AcDbCircle
 10
386.292195
 20
342.500003
 30
0.0
 40
5.003141544572827
100
AcDbArc
 50
90.0
 51
180.0
  0
LINE
  5
3A
330
1F
100
AcDbEntity
  8
LC-002-100-D00-0
 62
     7
370
    50
100
AcDbLine
 10
381.289054
 20
341.500003
 30
0.0
 11
381.289054
 21
342.500004
 31
0.0
  0
LINE
  5
3B
330
1F
100
AcDbEntity
  8
LC-002-100-D00-0
 62
     7
370
    50
100
AcDbLine
 10
400.795336
 20
341.500003
 30
0.0
 11
381.289054
 21
341.500003
 31
0.0
  0
LINE
  5
3C
330
1F
100
AcDbEntity
  8
LC-002-100-D00-0
 62
     7
370
    50
100
AcDbLine
 10
400.795336
 20
341.500003
 30
0.0
 11
400.795336
 21
342.500004
 31
0.0
  0
LINE
  5
3D
330
1F
100
AcDbEntity
  8
LC-002-100-D00-0
 62
     7
370
    50
100
AcDbLine
 10
429.042031
 20
329.500003
 30
0.0
 11
429.042031
 21
276.500004
 31
0.0
  0
INSERT
  5
4F
330
1F
100
AcDbEntity
  8
LC-002-100-D00-0
 62
     7
370
    50
100
AcDbBlockReference
  2
POLY1
 10
0.0
 20
0.0
 30
0.0
  0
LINE
  5
50
330
1F
100
AcDbEntity
  8
LC-002-100-D00-0
 62
     7
370
    50
100
AcDbLine
 10
373.042195
 20
339.500003
 30
0.0
 11
419.04197
 21
339.500003
 31
0.0
  0
LINE
  5
51
330
1F
100
AcDbEntity
  8
LC-002-100-D00-0
 62
     7
370
    50
100
AcDbLine
 10
373.042195
 20
322.000003
 30
0.0
 11
373.042195
 21
339.500003
 31
0.0
  0
LINE
  5
52
330
1F
100
AcDbEntity
  8
LC-002-100-D00-0
 62
     7
370
    50
100
AcDbLine
 10
373.042195
 20
322.000003
 30
0.0
 11
369.578094
 21
322.000003
 31
0.0
  0
LINE
  5
53
330
1F
100
AcDbEntity
  8
LC-002-100-D00-0
 62
     7
370
    50
100
AcDbLine
 10
369.578094
 20
322.000003
 30
0.0
 11
369.042196
 21
324.000003
 31
0.0
  0
LINE
  5
54
330
1F
100
AcDbEntity
  8
LC-002-100-D00-0
 62
     7
370
    50
100
AcDbLine
 10
369.042196
 20
324.000003
 30
0.0
 11
369.042196
 21
326.500003
 31
0.0
  0
LINE
  5
55
330
1F
100
AcDbEntity
  8
LC-002-100-D00-0
 62
     7
370
    50
100
AcDbLine
 10
366.542194
 20
326.500003
 30
0.0
 11
369.042196
 21
326.500003
 31
0.0
  0
LINE
  5
56
330
1F
100
AcDbEntity
  8
LC-002-100-D00-0
 62
     7
370
    50
100
AcDbLine
 10
366.542194
 20
317.000003
 30
0.0
 11
366.542194
 21
326.500003
 31
0.0
  0
LINE
  5
57
330
1F
100
AcDbEntity
  8
LC-002-100-D00-0
 62
     7
370
    50
100
AcDbLine
 10
365.068473
 20
311.500003
 30
0.0
 11
366.542194
 21
317.000003
 31
0.0
  0
LINE
  5
58
330
1F
100
AcDbEntity
  8
LC-002-100-D00-0
 62
     7
370
    50
100
AcDbLine
 10
353.042361
 20
311.500003
 30
0.0
 11
365.068473
 21
311.500003
 31
0.0
  0
LINE
  5
59
330
1F
100
AcDbEntity
  8
LC-002-100-D00-0
 62
     7
370
    50
100
AcDbLine
 10
353.042361
 20
276.500004
 30
0.0
 11
353.042361
 21
311.500003
 31
0.0
  0
INSERT
  5
6D
330
1F
100
AcDbEntity
  8
LC-002-100-D00-0
 62
     7
370
    50
100
AcDbBlockReference
  2
POLY2
 10
0.0
 20
0.0
 30
0.0
  0
LINE
  5
6E
330
1F
100
AcDbEntity
  8
LC-002-100-D00-0
 62
     7
370
    50
100
AcDbLine
 10
377.295336
 20
341.500003
 30
0.0
 11
363.542423
 21
341.500003
 31
0.0
  0
LINE
  5
6F
330
1F
100
AcDbEntity
  8
LC-002-100-D00-0
 62
     7
370
    50
100
AcDbLine
 10
377.295336
 20
342.500004
 30
0.0
 11
377.295336
 21
341.500003
 31
0.0
  0
ARC
  5
70
330
1F
100
AcDbEntity
  8
LC-002-100-D00-0
 62
     7
370
    50
100
AcDbCircle
 10
386.292195
 20
342.500003
 30
0.0
 40
8.996858455427173
100
AcDbArc
 50
90.0
 51
180.0
  0
LINE
  5
71
330
1F
100
AcDbEntity
  8
LC-002-100-D00-0
 62
     7
370
    50
100
AcDbLine
 10
386.292195
 20
351.496861
 30
0.0
 11
395.792195
 21
351.496861
 31
0.0
  0
ARC
  5
72
330
1F
100
AcDbEntity
  8
LC-002-100-D00-0
 62
     7
370
    50
100
AcDbCircle
 10
395.792195
 20
342.500003
 30
0.0
 40
8.996858455427173
100
AcDbArc
 50
0.0
 51
90.0
  0
LINE
  5
73
330
1F
100
AcDbEntity
  8
LC-002-100-D00-0
 62
     7
370
    50
100
AcDbLine
 10
404.789053
 20
342.500004
 30
0.0
 11
404.789053
 21
341.500003
 31
0.0
  0
LINE
  5
74
330
1F
100
AcDbEntity
  8
LC-002-100-D00-0
 62
     7
370
    50
100
AcDbLine
 10
418.541966
 20
341.500003
 30
0.0
 11
404.789053
 21
341.500003
 31
0.0
  0
INSERT
  5
86
330
1F
100
AcDbEntity
  8
LC-002-100-D00-0
 62
     7
370
    50
100
AcDbBlockReference
  2
POLY3
 10
0.0
 20
0.0
 30
0.0
  0
LINE
  5
87
330
1F
100
AcDbEntity
  8
LC-002-100-D00-0
 62
     7
370
    50
100
AcDbLine
 10
429.042031
 20
276.500004
 30
0.0
 11
430.542035
 21
276.500004
 31
0.0
  0
LINE
  5
88
330
1F
100
AcDbEntity
  8
LC-002-100-D00-0
 62
     7
370
    50
100
AcDbLine
 10
351.542354
 20
276.500004
 30
0.0
 11
353.042361
 21
276.500004
 31
0.0
  0
LINE
  5
89
330
1F
100
AcDbEntity
  8
LC-002-100-D00-0
 62
     7
370
    50
100
AcDbLine
 10
430.542035
 20
276.500004
 30
0.0
 11
430.542035
 21
329.500003
 31
0.0
  0
LINE
  5
8A
330
1F
100
AcDbEntity
  8
LC-002-100-D00-0
 62
     7
370
    50
100
AcDbLine
 10
351.542354
 20
329.500003
 30
0.0
 11
351.542354
 21
276.500004
 31
0.0
  0
LINE
  5
8B
330
1F
100
AcDbEntity
  8
LC-002-100-D00-0
 62
     7
370
    50
100
AcDbLine
 10
410.827162
 20
329.500003
 30
0.0
 11
429.042031
 21
329.500003
 31
0.0
  0
LINE
  5
8C
330
1F
100
AcDbEntity
  8
LC-002-100-D00-0
 62
     7
370
    50
100
AcDbLine
 10
353.042361
 20
276.500004
 30
0.0
 11
366.542452
 21
276.500004
 31
0.0
  0
LINE
  5
8D
330
1F
100
AcDbEntity
  8
LC-002-100-D00-0
 62
     7
370
    50
100
AcDbLine
 10
415.541939
 20
276.500004
 30
0.0
 11
429.042031
 21
276.500004
 31
0.0
  0
INSERT
  5
A1
330
1F
100
AcDbEntity
  8
LC-002-100-D00-0
 62
     7
370
    50
100
AcDbBlockReference
  2
POLY4
 10
0.0
 20
0.0
 30
0.0
  0
LINE
  5
A2
330
1F
100
AcDbEntity
  8
LC-002-100-D00-0
 62
     7
370
    50
100
AcDbLine
 10
404.940339
 20
341.600003
 30
0.0
 11
404.940339
 21
341.500003
 31
0.0
  0
INSERT
  5
AE
330
1F
100
AcDbEntity
  8
LC-002-100-D00-0
 62
     7
370
    50
100
AcDbBlockReference
  2
POLY5
 10
0.0
 20
0.0
 30
0.0
  0
LINE
  5
AF
330
1F
100
AcDbEntity
  8
LC-002-100-D00-0
 62
     7
370
    50
100
AcDbLine
 10
405.613699
 20
341.600003
 30
0.0
 11
405.613699
 21
341.500003
 31
0.0
  0
LINE
  5
B0
330
1F
100
AcDbEntity
  8
LC-002-100-D00-0
 62
     7
370
    50
100
AcDbLine
 10
405.613699
 20
341.600003
 30
0.0
 11
404.940339
 21
341.600003
 31
0.0
  0
LINE
  5
B1
330
1F
100
AcDbEntity
  8
LC-002-100-D00-0
 62
     7
370
    50
100
AcDbLine
 10
392.054294
 20
341.600003
 30
0.0
 11
392.054294
 21
341.500003
 31
0.0
  0
INSERT
  5
BD
330
1F
100
AcDbEntity
  8
LC-002-100-D00-0
 62
     7
370
    50
100
AcDbBlockReference
  2
POLY6
 10
0.0
 20
0.0
 30
0.0
  0
LINE
  5
BE
330
1F
100
AcDbEntity
  8
LC-002-100-D00-0
 62
     7
370
    50
100
AcDbLine
 10
393.162704
 20
341.600003
 30
0.0
 11
393.162704
 21
341.500003
 31
0.0
  0
LINE
  5
BF
330
1F
100
AcDbEntity
  8
LC-002-100-D00-0
 62
     7
370
    50
100
AcDbLine
 10
384.60617
 20
341.600003
 30
0.0
 11
384.60617
 21
341.500003
 31
0.0
  0
INSERT
  5
CD
330
1F
100
AcDbEntity
  8
LC-002-100-D00-0
 62
     7
370
    50
100
AcDbBlockReference
  2
POLY7
 10
0.0
 20
0.0
 30
0.0
  0
LINE
  5
CE
330
1F
100
AcDbEntity
  8
LC-002-100-D00-0
 62
     7
370
    50
100
AcDbLine
 10
385.46104
 20
341.600003
 30
0.0
 11
385.46104
 21
341.500003
 31
0.0
  0
LINE
  5
CF
330
1F
100
AcDbEntity
  8
LC-002-100-D00-0
 62
     7
370
    50
100
AcDbLine
 10
390.686581
 20
341.600003
 30
0.0
 11
390.686581
 21
341.500003
 31
0.0
  0
LINE
  5
D0
330
1F
100
AcDbEntity
  8
LC-002-100-D00-0
 62
     7
370
    50
100
AcDbLine
 10
383.679681
 20
341.600003
 30
0.0
 11
383.679681
 21
341.500003
 31
0.0
  0
LINE
  5
D1
330
1F
100
AcDbEntity
  8
LC-002-100-D00-0
 62
     7
370
    50
100
AcDbLine
 10
394.457977
 20
341.600003
 30
0.0
 11
394.457977
 21
341.500003
 31
0.0
  0
INSERT
  5
DF
330
1F
100
AcDbEntity
  8
LC-002-100-D00-0
 62
     7
370
    50
100
AcDbBlockReference
  2
POLY8
 10
0.0
 20
0.0
 30
0.0
  0
LINE
  5
E0
330
1F
100
AcDbEntity
  8
LC-002-100-D00-0
 62
     7
370
    50
100
AcDbLine
 10
395.312848
 20
341.600003
 30
0.0
 11
395.312848
 21
341.500003
 31
0.0
  0
LINE
  5
E1
330
1F
100
AcDbEntity
  8
LC-002-100-D00-0
 62
     7
370
    50
100
AcDbLine
 10
382.43915
 20
341.600003
 30
0.0
 11
382.43915
 21
341.500003
 31
0.0
  0
INSERT
  5
EF
330
1F
100
AcDbEntity
  8
LC-002-100-D00-0
 62
     7
370
    50
100
AcDbBlockReference
  2
POLY9
 10
0.0
 20
0.0
 30
0.0
  0
LINE
  5
F0
330
1F
100
AcDbEntity
  8
LC-002-100-D00-0
 62
     7
370
    50
100
AcDbLine
 10
399.932529
 20
341.600003
 30
0.0
 11
399.932529
 21
341.500003
 31
0.0
  0
LINE
  5
F1
330
1F
100
AcDbEntity
  8
LC-002-100-D00-0
 62
     7
370
    50
100
AcDbLine
 10
400.563907
 20
341.600003
 30
0.0
 11
400.563907
 21
341.500003
 31
0.0
  0
INSERT
  5
101
330
1F
100
AcDbEntity
  8
LC-002-100-D00-0
 62
     7
370
    50
100
AcDbBlockReference
  2
POLY10
 10
0.0
 20
0.0
 30
0.0
  0
LINE
  5
102
330
1F
100
AcDbEntity
  8
LC-002-100-D00-0
 62
     7
370
    50
100
AcDbLine
 10
381.625027
 20
341.600003
 30
0.0
 11
381.625027
 21
341.500003
 31
0.0
  0
LINE
  5
103
330
1F
100
AcDbEntity
  8
LC-002-100-D00-0
 62
     7
370
    50
100
AcDbLine
 10
393.531489
 20
341.600003
 30
0.0
 11
393.531489
 21
341.500003
 31
0.0
  0
LINE
  5
104
330
1F
100
AcDbEntity
  8
LC-002-100-D00-0
 62
     7
370
    50
100
AcDbLine
 10
400.780403
 20
341.600003
 30
0.0
 11
400.563907
 21
341.600003
 31
0.0
  0
LINE
  5
105
330
1F
100
AcDbEntity
  8
LC-002-100-D00-0
 62
     7
370
    50
100
AcDbLine
 10
396.935746
 20
341.600003
 30
0.0
 11
396.935746
 21
341.500003
 31
0.0
  0
LINE
  5
106
330
1F
100
AcDbEntity
  8
LC-002-100-D00-0
 62
     7
370
    50
100
AcDbLine
 10
397.251846
 20
341.600003
 30
0.0
 11
396.935746
 21
341.600003
 31
0.0
  0
LINE
  5
107
330
1F
100
AcDbEntity
  8
LC-002-100-D00-0
 62
     7
370
    50
100
AcDbLine
 10
397.251846
 20
341.600003
 30
0.0
 11
397.251846
 21
341.500003
 31
0.0
  0
LINE
  5
108
330
1F
100
AcDbEntity
  8
LC-002-100-D00-0
 62
     7
370
    50
100
AcDbLine
 10
386.893372
 20
341.600003
 30
0.0
 11
386.893372
 21
341.500003
 31
0.0
  0
LINE
  5
109
330
1F
100
AcDbEntity
  8
LC-002-100-D00-0
 62
     7
370
    50
100
AcDbLine
 10
387.209474
 20
341.600003
 30
0.0
 11
386.893372
 21
341.600003
 31
0.0
  0
LINE
  5
10A
330
1F
100
AcDbEntity
  8
LC-002-100-D00-0
 62
     7
370
    50
100
AcDbLine
 10
387.209474
 20
341.600003
 30
0.0
 11
387.209474
 21
341.500003
 31
0.0
  0
LINE
  5
10B
330
1F
100
AcDbEntity
  8
LC-002-100-D00-0
 62
     7
370
    50
100
AcDbLine
 10
377.295336
 20
341.600003
 30
0.0
 11
376.962539
 21
341.600003
 31
0.0
  0
LINE
  5
10C
330
1F
100
AcDbEntity
  8
LC-002-100-D00-0
 62
     7
370
    50
100
AcDbLine
 10
388.921686
 20
341.600003
 30
0.0
 11
388.921686
 21
341.500003
 31
0.0
  0
LINE
  5
10D
330
1F
100
AcDbEntity
  8
LC-002-100-D00-0
 62
     7
370
    50
100
AcDbLine
 10
389.237786
 20
341.600003
 30
0.0
 11
388.921686
 21
341.600003
 31
0.0
  0
LINE
  5
10E
330
1F
100
AcDbEntity
  8
LC-002-100-D00-0
 62
     7
370
    50
100
AcDbLine
 10
389.237786
 20
341.600003
 30
0.0
 11
389.237786
 21
341.500003
 31
0.0
  0
LINE
  5
10F
330
1F
100
AcDbEntity
  8
LC-002-100-D00-0
 62
     7
370
    50
100
AcDbLine
 10
376.620098
 20
341.600003
 30
0.0
 11
376.620098
 21
341.500003
 31
0.0
  0
LINE
  5
110
330
1F
100
AcDbEntity
  8
LC-002-100-D00-0
 62
     7
370
    50
100
AcDbLine
 10
376.962539
 20
341.600003
 30
0.0
 11
376.620098
 21
341.600003
 31
0.0
  0
LINE
  5
111
330
1F
100
AcDbEntity
  8
LC-002-100-D00-0
 62
     7
370
    50
100
AcDbLine
 10
376.962539
 20
341.600003
 30
0.0
 11
376.962539
 21
341.500003
 31
0.0
  0
LINE
  5
112
330
1F
100
AcDbEntity
  8
LC-002-100-D00-0
 62
     7
370
    50
100
AcDbLine
 10
387.709966
 20
341.600003
 30
0.0
 11
387.709966
 21
341.500003
 31
0.0
  0
LINE
  5
113
330
1F
100
AcDbEntity
  8
LC-002-100-D00-0
 62
     7
370
    50
100
AcDbLine
 10
388.026067
 20
341.600003
 30
0.0
 11
387.709966
 21
341.600003
 31
0.0
  0
LINE
  5
114
330
1F
100
AcDbEntity
  8
LC-002-100-D00-0
 62
     7
370
    50
100
AcDbLine
 10
388.026067
 20
341.600003
 30
0.0
 11
388.026067
 21
341.500003
 31
0.0
  0
LINE
  5
115
330
1F
100
AcDbEntity
  8
LC-002-100-D00-0
 62
     7
370
    50
100
AcDbLine
 10
399.201134
 20
341.600003
 30
0.0
 11
399.201134
 21
341.500003
 31
0.0
  0
LINE
  5
116
330
1F
100
AcDbEntity
  8
LC-002-100-D00-0
 62
     7
370
    50
100
AcDbLine
 10
399.517235
 20
341.600003
 30
0.0
 11
399.517235
 21
341.500003
 31
0.0
  0
LINE
  5
117
330
1F
100
AcDbEntity
  8
LC-002-100-D00-0
 62
     7
370
    50
100
AcDbLine
 10
399.517235
 20
341.600003
 30
0.0
 11
399.201134
 21
341.600003
 31
0.0
  0
LINE
  5
118
330
1F
100
AcDbEntity
  8
LC-002-100-D00-0
 62
     7
370
    50
100
AcDbLine
 10
398.06844
 20
341.600003
 30
0.0
 11
398.06844
 21
341.500003
 31
0.0
  0
LINE
  5
119
330
1F
100
AcDbEntity
  8
LC-002-100-D00-0
 62
     7
370
    50
100
AcDbLine
 10
398.384541
 20
341.600003
 30
0.0
 11
398.384541
 21
341.500003
 31
0.0
  0
LINE
  5
11A
330
1F
100
AcDbEntity
  8
LC-002-100-D00-0
 62
     7
370
    50
100
AcDbLine
 10
398.384541
 20
341.600003
 30
0.0
 11
398.06844
 21
341.600003
 31
0.0
  0
LINE
  5
11B
330
1F
100
AcDbEntity
  8
LC-002-100-D00-0
 62
     7
370
    50
100
AcDbLine
 10
381.335268
 20
341.600003
 30
0.0
 11
381.335268
 21
341.500003
 31
0.0
  0
LINE
  5
11C
330
1F
100
AcDbEntity
  8
LC-002-100-D00-0
 62
     7
370
    50
100
AcDbLine
 10
381.335268
 20
341.600003
 30
0.0
 11
381.289054
 21
341.600003
 31
0.0
  0
LINE
  5
11D
330
1F
100
AcDbEntity
  8
LC-002-100-D00-0
 62
     7
370
    50
100
AcDbLine
 10
396.033952
 20
341.600003
 30
0.0
 11
396.033952
 21
341.500003
 31
0.0
  0
LINE
  5
11E
330
1F
100
AcDbEntity
  8
LC-002-100-D00-0
 62
     7
370
    50
100
AcDbLine
 10
396.033952
 20
341.600003
 30
0.0
 11
395.717852
 21
341.600003
 31
0.0
  0
LINE
  5
11F
330
1F
100
AcDbEntity
  8
LC-002-100-D00-0
 62
     7
370
    50
100
AcDbLine
 10
395.717852
 20
341.600003
 30
0.0
 11
395.717852
 21
341.500003
 31
0.0
  0
LINE
  5
120
330
1F
100
AcDbEntity
  8
LC-002-100-D00-0
 62
     7
370
    50
100
AcDbLine
 10
383.284556
 20
341.600003
 30
0.0
 11
383.284556
 21
341.500003
 31
0.0
  0
LINE
  5
121
330
1F
100
AcDbEntity
  8
LC-002-100-D00-0
 62
     7
370
    50
100
AcDbLine
 10
382.968454
 20
341.600003
 30
0.0
 11
382.968454
 21
341.500003
 31
0.0
  0
LINE
  5
122
330
1F
100
AcDbEntity
  8
LC-002-100-D00-0
 62
     7
370
    50
100
AcDbLine
 10
383.284556
 20
341.600003
 30
0.0
 11
382.968454
 21
341.600003
 31
0.0
  0
LINE
  5
123
330
1F
100
AcDbEntity
  8
LC-002-100-D00-0
 62
     7
370
    50
100
AcDbLine
 10
385.469273
 20
341.600003
 30
0.0
 11
385.469273
 21
341.500003
 31
0.0
  0
LINE
  5
124
330
1F
100
AcDbEntity
  8
LC-002-100-D00-0
 62
     7
370
    50
100
AcDbLine
 10
385.47092
 20
341.600003
 30
0.0
 11
385.47092
 21
341.500003
 31
0.0
  0
LINE
  5
125
330
1F
100
AcDbEntity
  8
LC-002-100-D00-0
 62
     7
370
    50
100
AcDbLine
 10
395.32108
 20
341.600003
 30
0.0
 11
395.32108
 21
341.500003
 31
0.0
  0
LINE
  5
126
330
1F
100
AcDbEntity
  8
LC-002-100-D00-0
 62
     7
370
    50
100
AcDbLine
 10
395.322726
 20
341.600003
 30
0.0
 11
395.322726
 21
341.500003
 31
0.0
  0
LINE
  5
127
330
1F
100
AcDbEntity
  8
LC-002-100-D00-0
 62
     7
370
    50
100
AcDbLine
 10
397.728055
 20
341.600003
 30
0.0
 11
397.728055
 21
341.500003
 31
0.0
  0
INSERT
  5
137
330
1F
100
AcDbEntity
  8
LC-002-100-D00-0
 62
     7
370
    50
100
AcDbBlockReference
  2
POLY11
 10
0.0
 20
0.0
 30
0.0
  0
LINE
  5
138
330
1F
100
AcDbEntity
  8
LC-002-100-D00-0
 62
     7
370
    50
100
AcDbLine
 10
396.087459
 20
341.600003
 30
0.0
 11
396.087459
 21
341.500003
 31
0.0
  0
INSERT
  5
144
330
1F
100
AcDbEntity
  8
LC-002-100-D00-0
 62
     7
370
    50
100
AcDbBlockReference
  2
POLY12
 10
0.0
 20
0.0
 30
0.0
  0
LINE
  5
145
330
1F
100
AcDbEntity
  8
LC-002-100-D00-0
 62
     7
370
    50
100
AcDbLine
 10
388.528206
 20
341.600003
 30
0.0
 11
388.528206
 21
341.500003
 31
0.0
  0
INSERT
  5
155
330
1F
100
AcDbEntity
  8
LC-002-100-D00-0
 62
     7
370
    50
100
AcDbBlockReference
  2
POLY13
 10
0.0
 20
0.0
 30
0.0
  0
LINE
  5
156
330
1F
100
AcDbEntity
  8
LC-002-100-D00-0
 62
     7
370
    50
100
AcDbLine
 10
398.857457
 20
341.600003
 30
0.0
 11
398.857457
 21
341.500003
 31
0.0
  0
INSERT
  5
166
330
1F
100
AcDbEntity
  8
LC-002-100-D00-0
 62
     7
370
    50
100
AcDbBlockReference
  2
POLY14
 10
0.0
 20
0.0
 30
0.0
  0
INSERT
  5
176
330
1F
100
AcDbEntity
  8
LC-002-100-D00-0
 62
     7
370
    50
100
AcDbBlockReference
  2
POLY15
 10
0.0
 20
0.0
 30
0.0
  0
INSERT
  5
186
330
1F
100
AcDbEntity
  8
LC-002-100-D00-0
 62
     7
370
    50
100
AcDbBlockReference
  2
POLY16
 10
0.0
 20
0.0
 30
0.0
  0
INSERT
  5
196
330
1F
100
AcDbEntity
  8
LC-002-100-D00-0
 62
     7
370
    50
100
AcDbBlockReference
  2
POLY17
 10
0.0
 20
0.0
 30
0.0
  0
LINE
  5
197
330
1F
100
AcDbEntity
  8
LC-002-100-D00-0
 62
     7
370
    50
100
AcDbLine
 10
396.396563
 20
341.600003
 30
0.0
 11
396.396563
 21
341.500003
 31
0.0
  0
INSERT
  5
1A7
330
1F
100
AcDbEntity
  8
LC-002-100-D00-0
 62
     7
370
    50
100
AcDbBlockReference
  2
POLY18
 10
0.0
 20
0.0
 30
0.0
  0
LINE
  5
1A8
330
1F
100
AcDbEntity
  8
LC-002-100-D00-0
 62
     7
370
    50
100
AcDbLine
 10
396.631992
 20
341.600003
 30
0.0
 11
396.631992
 21
341.500003
 31
0.0
  0
LINE
  5
1A9
330
1F
100
AcDbEntity
  8
LC-002-100-D00-0
 62
     7
370
    50
100
AcDbLine
 10
396.745179
 20
341.600003
 30
0.0
 11
396.745179
 21
341.500003
 31
0.0
  0
LINE
  5
1AA
330
1F
100
AcDbEntity
  8
LC-002-100-D00-0
 62
     7
370
    50
100
AcDbLine
 10
396.745179
 20
341.600003
 30
0.0
 11
396.631992
 21
341.600003
 31
0.0
  0
INSERT
  5
1B6
330
1F
100
AcDbEntity
  8
LC-002-100-D00-0
 62
     7
370
    50
100
AcDbBlockReference
  2
POLY19
 10
0.0
 20
0.0
 30
0.0
  0
LINE
  5
1B7
330
1F
100
AcDbEntity
  8
LC-002-100-D00-0
 62
     7
370
    50
100
AcDbLine
 10
375.302501
 20
341.600003
 30
0.0
 11
375.302501
 21
341.500003
 31
0.0
  0
LINE
  5
1B8
330
1F
100
AcDbEntity
  8
LC-002-100-D00-0
 62
     7
370
    50
100
AcDbLine
 10
376.620098
 20
341.600003
 30
0.0
 11
375.302501
 21
341.600003
 31
0.0
  0
LINE
  5
1B9
330
1F
100
AcDbEntity
  8
LC-002-100-D00-0
 62
     7
370
    50
100
AcDbLine
 10
383.284556
 20
341.600003
 30
0.0
 11
383.696171
 21
341.600003
 31
0.0
  0
LINE
  5
1BA
330
1F
100
AcDbEntity
  8
LC-002-100-D00-0
 62
     7
370
    50
100
AcDbLine
 10
386.044754
 20
341.600003
 30
0.0
 11
386.044754
 21
341.500003
 31
0.0
  0
LINE
  5
1BB
330
1F
100
AcDbEntity
  8
LC-002-100-D00-0
 62
     7
370
    50
100
AcDbLine
 10
385.535164
 20
341.600003
 30
0.0
 11
386.044754
 21
341.600003
 31
0.0
  0
LINE
  5
1BC
330
1F
100
AcDbEntity
  8
LC-002-100-D00-0
 62
     7
370
    50
100
AcDbLine
 10
387.209474
 20
341.600003
 30
0.0
 11
387.709966
 21
341.600003
 31
0.0
  0
LINE
  5
1BD
330
1F
100
AcDbEntity
  8
LC-002-100-D00-0
 62
     7
370
    50
100
AcDbLine
 10
388.026067
 20
341.600003
 30
0.0
 11
388.131652
 21
341.600003
 31
0.0
  0
LINE
  5
1BE
330
1F
100
AcDbEntity
  8
LC-002-100-D00-0
 62
     7
370
    50
100
AcDbLine
 10
389.237786
 20
341.600003
 30
0.0
 11
391.030121
 21
341.600003
 31
0.0
  0
LINE
  5
1BF
330
1F
100
AcDbEntity
  8
LC-002-100-D00-0
 62
     7
370
    50
100
AcDbLine
 10
393.522805
 20
341.600003
 30
0.0
 11
393.522805
 21
341.500003
 31
0.0
  0
LINE
  5
1C0
330
1F
100
AcDbEntity
  8
LC-002-100-D00-0
 62
     7
370
    50
100
AcDbLine
 10
393.248184
 20
341.600003
 30
0.0
 11
393.522805
 21
341.600003
 31
0.0
  0
LINE
  5
1C1
330
1F
100
AcDbEntity
  8
LC-002-100-D00-0
 62
     7
370
    50
100
AcDbLine
 10
395.493765
 20
341.600003
 30
0.0
 11
395.717852
 21
341.600003
 31
0.0
  0
LINE
  5
1C2
330
1F
100
AcDbEntity
  8
LC-002-100-D00-0
 62
     7
370
    50
100
AcDbLine
 10
395.493765
 20
341.600003
 30
0.0
 11
395.493765
 21
341.500003
 31
0.0
  0
LINE
  5
1C3
330
1F
100
AcDbEntity
  8
LC-002-100-D00-0
 62
     7
370
    50
100
AcDbLine
 10
399.517235
 20
341.600003
 30
0.0
 11
399.877144
 21
341.600003
 31
0.0
  0
LINE
  5
1C4
330
1F
100
AcDbEntity
  8
LC-002-100-D00-0
 62
     7
370
    50
100
AcDbLine
 10
398.384541
 20
341.600003
 30
0.0
 11
398.392233
 21
341.600003
 31
0.0
  0
LINE
  5
1C5
330
1F
100
AcDbEntity
  8
LC-002-100-D00-0
 62
     7
370
    50
100
AcDbLine
 10
386.044754
 20
341.600003
 30
0.0
 11
386.893372
 21
341.600003
 31
0.0
  0
LINE
  5
1C6
330
1F
100
AcDbEntity
  8
LC-002-100-D00-0
 62
     7
370
    50
100
AcDbLine
 10
400.775961
 20
322.000003
 30
0.0
 11
400.90822
 21
339.500003
 31
0.0
  0
LINE
  5
1C7
330
1F
100
AcDbEntity
  8
LC-002-100-D00-0
 62
     7
370
    50
100
AcDbLine
 10
399.308429
 20
322.000003
 30
0.0
 11
400.775961
 21
322.000003
 31
0.0
  0
LINE
  5
1C8
330
1F
100
AcDbEntity
  8
LC-002-100-D00-0
 62
     7
370
    50
100
AcDbLine
 10
399.308429
 20
322.000003
 30
0.0
 11
399.17617
 21
339.500003
 31
0.0
  0
LINE
  5
1C9
330
1F
100
AcDbEntity
  8
LC-002-100-D00-0
 62
     7
370
    50
100
AcDbLine
 10
402.508012
 20
322.000003
 30
0.0
 11
402.782107
 21
323.936635
 31
0.0
  0
LINE
  5
1CA
330
1F
100
AcDbEntity
  8
LC-002-100-D00-0
 62
     7
370
    50
100
AcDbLine
 10
402.508012
 20
322.000003
 30
0.0
 11
400.775961
 21
322.000003
 31
0.0
  0
LINE
  5
1CB
330
1F
100
AcDbEntity
  8
LC-002-100-D00-0
 62
     7
370
    50
100
AcDbLine
 10
375.291342
 20
341.600003
 30
0.0
 11
375.302501
 21
341.600003
 31
0.0
  0
LINE
  5
1CC
330
1F
100
AcDbEntity
  8
LC-002-100-D00-0
 62
     7
370
    50
100
AcDbLine
 10
396.631992
 20
341.600003
 30
0.0
 11
396.595182
 21
341.600003
 31
0.0
  0
LINE
  5
1CD
330
1F
100
AcDbEntity
  8
LC-002-100-D00-0
 62
     7
370
    50
100
AcDbLine
 10
395.377825
 20
341.600003
 30
0.0
 11
395.377825
 21
341.500003
 31
0.0
  0
LINE
  5
1CE
330
1F
100
AcDbEntity
  8
LC-002-100-D00-0
 62
     7
370
    50
100
AcDbLine
 10
395.493765
 20
341.600003
 30
0.0
 11
395.377825
 21
341.600003
 31
0.0
  0
LINE
  5
1CF
330
1F
100
AcDbEntity
  8
LC-002-100-D00-0
 62
     7
370
    50
100
AcDbLine
 10
396.745179
 20
341.600003
 30
0.0
 11
396.935746
 21
341.600003
 31
0.0
  0
LINE
  5
1D0
330
1F
100
AcDbEntity
  8
LC-002-100-D00-0
 62
     7
370
    50
100
AcDbLine
 10
443.042074
 20
325.000003
 30
0.0
 11
443.042074
 21
426.257363
 31
0.0
  0
LINE
  5
1D1
330
1F
100
AcDbEntity
  8
LC-002-100-D00-0
 62
     7
370
    50
100
AcDbLine
 10
339.042314
 20
426.257363
 30
0.0
 11
339.042314
 21
325.000003
 31
0.0
  0
LINE
  5
1D2
330
1F
100
AcDbEntity
  8
LC-002-100-D00-0
 62
     7
370
    50
100
AcDbLine
 10
339.042314
 20
426.257363
 30
0.0
 11
347.761274
 21
426.257363
 31
0.0
  0
LINE
  5
1D3
330
1F
100
AcDbEntity
  8
LC-002-100-D00-0
 62
     7
370
    50
100
AcDbLine
 10
434.323127
 20
426.257363
 30
0.0
 11
443.042074
 21
426.257363
 31
0.0
  0
LINE
  5
1D4
330
1F
100
AcDbEntity
  8
LC-002-100-D00-0
 62
     7
370
    50
100
AcDbLine
 10
339.042314
 20
325.000003
 30
0.0
 11
351.542354
 21
325.000003
 31
0.0
  0
LINE
  5
1D5
330
1F
100
AcDbEntity
  8
LC-002-100-D00-0
 62
     7
370
    50
100
AcDbLine
 10
430.542035
 20
325.000003
 30
0.0
 11
443.042074
 21
325.000003
 31
0.0
  0
LINE
  5
1D6
330
1F
100
AcDbEntity
  8
LC-002-100-D00-0
 62
     7
370
    50
100
AcDbLine
 10
343.335219
 20
430.550254
 30
0.0
 11
339.042314
 21
426.257363
 31
0.0
  0
LINE
  5
1D7
330
1F
100
AcDbEntity
  8
LC-002-100-D00-0
 62
     7
370
    50
100
AcDbLine
 10
443.042074
 20
426.257363
 30
0.0
 11
438.749168
 21
430.550254
 31
0.0
  0
INSERT
  5
1EF
330
1F
100
AcDbEntity
  8
LC-002-100-D00-0
 62
     7
370
    50
100
AcDbBlockReference
  2
POLY20
 10
0.0
 20
0.0
 30
0.0
  0
INSERT
  5
209
330
1F
100
AcDbEntity
  8
LC-002-100-D00-0
 62
     7
370
    50
100
AcDbBlockReference
  2
POLY21
 10
0.0
 20
0.0
 30
0.0
  0
LINE
  5
20A
330
1F
100
AcDbEntity
  8
LC-002-100-D00-0
 62
     7
370
    50
100
AcDbLine
 10
347.042337
 20
429.500005
 30
0.0
 11
347.042337
 21
434.5
 31
0.0
  0
LINE
  5
20B
330
1F
100
AcDbEntity
  8
LC-002-100-D00-0
 62
     7
370
    50
100
AcDbLine
 10
347.042337
 20
429.500005
 30
0.0
 11
345.04233
 21
429.500005
 31
0.0
  0
LINE
  5
20C
330
1F
100
AcDbEntity
  8
LC-002-100-D00-0
 62
     7
370
    50
100
AcDbLine
 10
345.04233
 20
429.500005
 30
0.0
 11
345.04233
 21
429.843149
 31
0.0
  0
LINE
  5
20D
330
1F
100
AcDbEntity
  8
LC-002-100-D00-0
 62
     7
370
    50
100
AcDbLine
 10
343.042326
 20
434.5
 30
0.0
 11
347.042337
 21
434.5
 31
0.0
  0
LINE
  5
20E
330
1F
100
AcDbEntity
  8
LC-002-100-D00-0
 62
     7
370
    50
100
AcDbLine
 10
339.042314
 20
325.000003
 30
0.0
 11
337.04231
 21
325.000003
 31
0.0
  0
LINE
  5
20F
330
1F
100
AcDbEntity
  8
LC-002-100-D00-0
 62
     7
370
    50
100
AcDbLine
 10
336.042308
 20
427.500001
 30
0.0
 11
343.042326
 21
434.5
 31
0.0
  0
LINE
  5
210
330
1F
100
AcDbEntity
  8
LC-002-100-D00-0
 62
     7
370
    50
100
AcDbLine
 10
337.04231
 20
325.000003
 30
0.0
 11
336.042308
 21
326.000003
 31
0.0
  0
LINE
  5
211
330
1F
100
AcDbEntity
  8
LC-002-100-D00-0
 62
     7
370
    50
100
AcDbLine
 10
336.042308
 20
326.000003
 30
0.0
 11
336.042308
 21
427.500001
 31
0.0
  0
LINE
  5
212
330
1F
100
AcDbEntity
  8
LC-002-100-D00-0
 62
     7
370
    50
100
AcDbLine
 10
435.042052
 20
434.5
 30
0.0
 11
435.042052
 21
429.500005
 31
0.0
  0
LINE
  5
213
330
1F
100
AcDbEntity
  8
LC-002-100-D00-0
 62
     7
370
    50
100
AcDbLine
 10
437.042058
 20
429.500005
 30
0.0
 11
435.042052
 21
429.500005
 31
0.0
  0
LINE
  5
214
330
1F
100
AcDbEntity
  8
LC-002-100-D00-0
 62
     7
370
    50
100
AcDbLine
 10
437.042058
 20
429.843149
 30
0.0
 11
437.042058
 21
429.500005
 31
0.0
  0
LINE
  5
215
330
1F
100
AcDbEntity
  8
LC-002-100-D00-0
 62
     7
370
    50
100
AcDbLine
 10
435.042052
 20
434.5
 30
0.0
 11
439.042066
 21
434.5
 31
0.0
  0
LINE
  5
216
330
1F
100
AcDbEntity
  8
LC-002-100-D00-0
 62
     7
370
    50
100
AcDbLine
 10
445.042078
 20
325.000003
 30
0.0
 11
443.042074
 21
325.000003
 31
0.0
  0
LINE
  5
217
330
1F
100
AcDbEntity
  8
LC-002-100-D00-0
 62
     7
370
    50
100
AcDbLine
 10
439.042066
 20
434.5
 30
0.0
 11
446.04208
 21
427.500001
 31
0.0
  0
LINE
  5
218
330
1F
100
AcDbEntity
  8
LC-002-100-D00-0
 62
     7
370
    50
100
AcDbLine
 10
446.04208
 20
326.000003
 30
0.0
 11
445.042078
 21
325.000003
 31
0.0
  0
LINE
  5
219
330
1F
100
AcDbEntity
  8
LC-002-100-D00-0
 62
     7
370
    50
100
AcDbLine
 10
446.04208
 20
427.500001
 30
0.0
 11
446.04208
 21
326.000003
 31
0.0
  0
LINE
  5
21A
330
1F
100
AcDbEntity
  8
LC-002-100-D00-0
 62
     7
370
    50
100
AcDbLine
 10
347.042337
 20
429.500005
 30
0.0
 11
347.277835
 21
429.500005
 31
0.0
  0
LINE
  5
21B
330
1F
100
AcDbEntity
  8
LC-002-100-D00-0
 62
     7
370
    50
100
AcDbLine
 10
347.277835
 20
434.5
 30
0.0
 11
347.042337
 21
434.5
 31
0.0
  0
LINE
  5
21C
330
1F
100
AcDbEntity
  8
LC-002-100-D00-0
 62
     7
370
    50
100
AcDbLine
 10
434.542986
 20
429.500005
 30
0.0
 11
435.042052
 21
429.500005
 31
0.0
  0
LINE
  5
21D
330
1F
100
AcDbEntity
  8
LC-002-100-D00-0
 62
     7
370
    50
100
AcDbLine
 10
435.042052
 20
434.5
 30
0.0
 11
434.24205
 21
434.5
 31
0.0
  0
INSERT
  5
223
330
1F
100
AcDbEntity
  8
LC-002-100-D00-0
 62
     7
370
    50
100
AcDbBlockReference
  2
KLON1
 10
0.0
 20
0.0
 30
0.0
  0
LINE
  5
224
330
1F
100
AcDbEntity
  8
LC-002-100-D00-0
 62
     7
370
    50
100
AcDbLine
 10
347.277835
 20
429.500005
 30
0.0
 11
347.689446
 21
429.500005
 31
0.0
  0
LINE
  5
225
330
1F
100
AcDbEntity
  8
LC-002-100-D00-0
 62
     7
370
    50
100
AcDbLine
 10
347.48007
 20
434.5
 30
0.0
 11
347.84234
 21
434.5
 31
0.0
  0
LINE
  5
226
330
1F
100
AcDbEntity
  8
LC-002-100-D00-0
 62
     7
370
    50
100
AcDbLine
 10
347.48007
 20
434.5
 30
0.0
 11
347.277835
 21
434.5
 31
0.0
  0
INSERT
  5
23A
330
1F
100
AcDbEntity
  8
LC-002-100-D00-0
 62
     7
370
    50
100
AcDbBlockReference
  2
POLY22
 10
0.0
 20
0.0
 30
0.0
  0
INSERT
  5
24E
330
1F
100
AcDbEntity
  8
LC-002-100-D00-0
 62
     7
370
    50
100
AcDbBlockReference
  2
POLY23
 10
0.0
 20
0.0
 30
0.0
  0
INSERT
  5
26A
330
1F
100
AcDbEntity
  8
LC-002-100-D00-0
 62
     7
370
    50
100
AcDbBlockReference
  2
POLY24
 10
0.0
 20
0.0
 30
0.0
  0
LINE
  5
26B
330
1F
100
AcDbEntity
  8
LC-002-100-D00-0
 62
     7
370
    50
100
AcDbLine
 10
349.042345
 20
437.500006
 30
0.0
 11
433.042046
 21
437.500006
 31
0.0
  0
INSERT
  5
287
330
1F
100
AcDbEntity
  8
LC-002-100-D00-0
 62
     7
370
    50
100
AcDbBlockReference
  2
POLY25
 10
0.0
 20
0.0
 30
0.0
  0
INSERT
  5
2BF
330
1F
100
AcDbEntity
  8
LC-002-100-D00-0
 62
     7
370
    50
100
AcDbBlockReference
  2
POLY26
 10
0.0
 20
0.0
 30
0.0
  0
LINE
  5
2C0
330
1F
100
AcDbEntity
  8
LC-002-100-D00-0
 62
     7
370
    50
100
AcDbLine
 10
433.042046
 20
437.500006
 30
0.0
 11
433.042046
 21
425.000003
 31
0.0
  0
LINE
  5
2C1
330
1F
100
AcDbEntity
  8
LC-002-100-D00-0
 62
     7
370
    50
100
AcDbLine
 10
437.542059
 20
440.500005
 30
0.0
 11
437.542059
 21
438.500001
 31
0.0
  0
LINE
  5
2C2
330
1F
100
AcDbEntity
  8
LC-002-100-D00-0
 62
     7
370
    50
100
AcDbLine
 10
437.542193
 20
445.5
 30
0.0
 11
437.542193
 21
440.500005
 31
0.0
  0
ARC
  5
2C3
330
1F
100
AcDbEntity
  8
LC-002-100-D00-0
 62
     7
370
    50
100
AcDbCircle
 10
438.042195
 20
445.500003
 30
0.0
 40
0.5
100
AcDbArc
 50
90.0
 51
180.0
  0
LINE
  5
2C4
330
1F
100
AcDbEntity
  8
LC-002-100-D00-0
 62
     7
370
    50
100
AcDbLine
 10
440.042194
 20
446.000001
 30
0.0
 11
438.042194
 21
446.000001
 31
0.0
  0
ARC
  5
2C5
330
1F
100
AcDbEntity
  8
LC-002-100-D00-0
 62
     7
370
    50
100
AcDbCircle
 10
440.042195
 20
445.500003
 30
0.0
 40
0.4999999999998863
100
AcDbArc
 50
360.0
 51
90.0
  0
LINE
  5
2C6
330
1F
100
AcDbEntity
  8
LC-002-100-D00-0
 62
     7
370
    50
100
AcDbLine
 10
440.542195
 20
439.500003
 30
0.0
 11
440.542195
 21
445.5
 31
0.0
  0
LINE
  5
2C7
330
1F
100
AcDbEntity
  8
LC-002-100-D00-0
 62
     7
370
    50
100
AcDbLine
 10
440.542195
 20
439.500003
 30
0.0
 11
441.542194
 21
439.500003
 31
0.0
  0
LINE
  5
2C8
330
1F
100
AcDbEntity
  8
LC-002-100-D00-0
 62
     7
370
    50
100
AcDbLine
 10
441.542194
 20
439.500003
 30
0.0
 11
441.542194
 21
438.500001
 31
0.0
  0
LINE
  5
2C9
330
1F
100
AcDbEntity
  8
LC-002-100-D00-0
 62
     7
370
    50
100
AcDbLine
 10
439.042066
 20
438.500001
 30
0.0
 11
441.542194
 21
438.500001
 31
0.0
  0
LINE
  5
2CA
330
1F
100
AcDbEntity
  8
LC-002-100-D00-0
 62
     7
370
    50
100
AcDbLine
 10
439.042066
 20
436.500004
 30
0.0
 11
439.042066
 21
438.500001
 31
0.0
  0
LINE
  5
2CB
330
1F
100
AcDbEntity
  8
LC-002-100-D00-0
 62
     7
370
    50
100
AcDbLine
 10
439.042066
 20
436.500004
 30
0.0
 11
434.24205
 21
436.500004
 31
0.0
  0
LINE
  5
2CC
330
1F
100
AcDbEntity
  8
LC-002-100-D00-0
 62
     7
370
    50
100
AcDbLine
 10
434.24205
 20
436.500004
 30
0.0
 11
434.24205
 21
429.49961
 31
0.0
  0
LINE
  5
2CD
330
1F
100
AcDbEntity
  8
LC-002-100-D00-0
 62
     7
370
    50
100
AcDbLine
 10
434.968805
 20
428.426384
 30
0.0
 11
433.721699
 21
425.000003
 31
0.0
  0
LINE
  5
2CE
330
1F
100
AcDbEntity
  8
LC-002-100-D00-0
 62
     7
370
    50
100
AcDbLine
 10
433.721699
 20
425.000003
 30
0.0
 11
433.042046
 21
425.000003
 31
0.0
  0
LINE
  5
2CF
330
1F
100
AcDbEntity
  8
LC-002-100-D00-0
 62
     7
370
    50
100
AcDbLine
 10
437.542059
 20
438.500001
 30
0.0
 11
433.042046
 21
438.500001
 31
0.0
  0
LINE
  5
2D0
330
1F
100
AcDbEntity
  8
LC-002-100-D00-0
 62
     7
370
    50
100
AcDbLine
 10
348.362688
 20
425.000003
 30
0.0
 11
347.115584
 21
428.426384
 31
0.0
  0
LINE
  5
2D1
330
1F
100
AcDbEntity
  8
LC-002-100-D00-0
 62
     7
370
    50
100
AcDbLine
 10
347.84234
 20
429.49961
 30
0.0
 11
347.84234
 21
436.500004
 31
0.0
  0
LINE
  5
2D2
330
1F
100
AcDbEntity
  8
LC-002-100-D00-0
 62
     7
370
    50
100
AcDbLine
 10
343.042326
 20
436.500004
 30
0.0
 11
347.84234
 21
436.500004
 31
0.0
  0
LINE
  5
2D3
330
1F
100
AcDbEntity
  8
LC-002-100-D00-0
 62
     7
370
    50
100
AcDbLine
 10
343.042326
 20
436.500004
 30
0.0
 11
343.042326
 21
438.500001
 31
0.0
  0
LINE
  5
2D4
330
1F
100
AcDbEntity
  8
LC-002-100-D00-0
 62
     7
370
    50
100
AcDbLine
 10
340.542198
 20
438.500001
 30
0.0
 11
343.042326
 21
438.500001
 31
0.0
  0
LINE
  5
2D5
330
1F
100
AcDbEntity
  8
LC-002-100-D00-0
 62
     7
370
    50
100
AcDbLine
 10
340.542198
 20
438.500001
 30
0.0
 11
340.542198
 21
439.500003
 31
0.0
  0
LINE
  5
2D6
330
1F
100
AcDbEntity
  8
LC-002-100-D00-0
 62
     7
370
    50
100
AcDbLine
 10
340.542198
 20
439.500003
 30
0.0
 11
341.542196
 21
439.500003
 31
0.0
  0
LINE
  5
2D7
330
1F
100
AcDbEntity
  8
LC-002-100-D00-0
 62
     7
370
    50
100
AcDbLine
 10
341.542196
 20
445.5
 30
0.0
 11
341.542196
 21
439.500003
 31
0.0
  0
ARC
  5
2D8
330
1F
100
AcDbEntity
  8
LC-002-100-D00-0
 62
     7
370
    50
100
AcDbCircle
 10
342.042195
 20
445.500003
 30
0.0
 40
0.5
100
AcDbArc
 50
90.0
 51
180.0
  0
LINE
  5
2D9
330
1F
100
AcDbEntity
  8
LC-002-100-D00-0
 62
     7
370
    50
100
AcDbLine
 10
344.042194
 20
446.000001
 30
0.0
 11
342.042193
 21
446.000001
 31
0.0
  0
ARC
  5
2DA
330
1F
100
AcDbEntity
  8
LC-002-100-D00-0
 62
     7
370
    50
100
AcDbCircle
 10
344.042195
 20
445.500003
 30
0.0
 40
0.5
100
AcDbArc
 50
0.0
 51
90.0
  0
LINE
  5
2DB
330
1F
100
AcDbEntity
  8
LC-002-100-D00-0
 62
     7
370
    50
100
AcDbLine
 10
344.542195
 20
440.500005
 30
0.0
 11
344.542195
 21
445.5
 31
0.0
  0
LINE
  5
2DC
330
1F
100
AcDbEntity
  8
LC-002-100-D00-0
 62
     7
370
    50
100
AcDbLine
 10
344.542329
 20
438.500001
 30
0.0
 11
344.542329
 21
440.500005
 31
0.0
  0
LINE
  5
2DD
330
1F
100
AcDbEntity
  8
LC-002-100-D00-0
 62
     7
370
    50
100
AcDbLine
 10
349.042345
 20
425.000003
 30
0.0
 11
349.042345
 21
437.500006
 31
0.0
  0
LINE
  5
2DE
330
1F
100
AcDbEntity
  8
LC-002-100-D00-0
 62
     7
370
    50
100
AcDbLine
 10
349.042345
 20
425.000003
 30
0.0
 11
348.362688
 21
425.000003
 31
0.0
  0
LINE
  5
2DF
330
1F
100
AcDbEntity
  8
LC-002-100-D00-0
 62
     7
370
    50
100
AcDbLine
 10
349.042345
 20
438.500001
 30
0.0
 11
344.542329
 21
438.500001
 31
0.0
  0
LINE
  5
2E0
330
1F
100
AcDbEntity
  8
LC-002-100-D00-0
 62
     7
370
    50
100
AcDbLine
 10
437.542059
 20
440.500005
 30
0.0
 11
436.542195
 21
440.500005
 31
0.0
  0
LINE
  5
2E1
330
1F
100
AcDbEntity
  8
LC-002-100-D00-0
 62
     7
370
    50
100
AcDbLine
 10
435.042195
 20
440.500005
 30
0.0
 11
406.083804
 21
440.500005
 31
0.0
  0
LINE
  5
2E2
330
1F
100
AcDbEntity
  8
LC-002-100-D00-0
 62
     7
370
    50
100
AcDbLine
 10
376.000585
 20
440.500005
 30
0.0
 11
347.042196
 21
440.500005
 31
0.0
  0
LINE
  5
2E3
330
1F
100
AcDbEntity
  8
LC-002-100-D00-0
 62
     7
370
    50
100
AcDbLine
 10
345.542197
 20
440.500005
 30
0.0
 11
344.542329
 21
440.500005
 31
0.0
  0
LINE
  5
2E4
330
1F
100
AcDbEntity
  8
LC-002-100-D00-0
 62
     7
370
    50
100
AcDbLine
 10
349.042345
 20
425.000003
 30
0.0
 11
433.042046
 21
425.000003
 31
0.0
  0
LINE
  5
2E5
330
1F
100
AcDbEntity
  8
LC-002-100-D00-0
 62
     7
370
    50
100
AcDbLine
 10
440.542195
 20
434.5
 30
0.0
 11
440.542195
 21
438.500001
 31
0.0
  0
LINE
  5
2E6
330
1F
100
AcDbEntity
  8
LC-002-100-D00-0
 62
     7
370
    50
100
AcDbLine
 10
440.542195
 20
434.5
 30
0.0
 11
439.042066
 21
434.5
 31
0.0
  0
LINE
  5
2E7
330
1F
100
AcDbEntity
  8
LC-002-100-D00-0
 62
     7
370
    50
100
AcDbLine
 10
341.542196
 20
434.5
 30
0.0
 11
341.542196
 21
438.500001
 31
0.0
  0
LINE
  5
2E8
330
1F
100
AcDbEntity
  8
LC-002-100-D00-0
 62
     7
370
    50
100
AcDbLine
 10
341.542196
 20
434.5
 30
0.0
 11
343.042326
 21
434.5
 31
0.0
  0
LINE
  5
2E9
330
1F
100
AcDbEntity
  8
LC-002-100-D00-0
 62
     7
370
    50
100
AcDbLine
 10
344.042194
 20
446.000001
 30
0.0
 11
347.542193
 21
446.000001
 31
0.0
  0
LINE
  5
2EA
330
1F
100
AcDbEntity
  8
LC-002-100-D00-0
 62
     7
370
    50
100
AcDbLine
 10
434.542194
 20
446.000001
 30
0.0
 11
438.042194
 21
446.000001
 31
0.0
  0
LINE
  5
2EB
330
1F
100
AcDbEntity
  8
LC-002-100-D00-0
 62
     7
370
    50
100
AcDbLine
 10
347.542193
 20
446.000001
 30
0.0
 11
434.542194
 21
446.000001
 31
0.0
  0
LINE
  5
2EC
330
1F
100
AcDbEntity
  8
LC-002-100-D00-0
 62
     7
370
    50
100
AcDbLine
 10
390.458862
 20
444.100006
 30
0.0
 11
390.458862
 21
444.000004
 31
0.0
  0
LINE
  5
2ED
330
1F
100
AcDbEntity
  8
LC-002-100-D00-0
 62
     7
370
    50
100
AcDbLine
 10
390.901332
 20
444.000004
 30
0.0
 11
390.901332
 21
444.100006
 31
0.0
  0
INSERT
  5
2F9
330
1F
100
AcDbEntity
  8
LC-002-100-D00-0
 62
     7
370
    50
100
AcDbBlockReference
  2
POLY27
 10
0.0
 20
0.0
 30
0.0
  0
ARC
  5
2FA
330
1F
100
AcDbEntity
  8
LC-002-100-D00-0
 62
     7
370
    50
100
AcDbCircle
 10
434.042195
 20
443.000003
 30
0.0
 40
1.0
100
AcDbArc
 50
0.0
 51
90.0
  0
ARC
  5
2FB
330
1F
100
AcDbEntity
  8
LC-002-100-D00-0
 62
     7
370
    50
100
AcDbCircle
 10
432.542195
 20
443.000003
 30
0.0
 40
1.0
100
AcDbArc
 50
90.0
 51
180.0
  0
LINE
  5
2FC
330
1F
100
AcDbEntity
  8
LC-002-100-D00-0
 62
     7
370
    50
100
AcDbLine
 10
431.542194
 20
441.499999
 30
0.0
 11
431.542194
 21
443.000002
 31
0.0
  0
LINE
  5
2FD
330
1F
100
AcDbEntity
  8
LC-002-100-D00-0
 62
     7
370
    50
100
AcDbLine
 10
430.042195
 20
441.499999
 30
0.0
 11
430.042195
 21
443.000002
 31
0.0
  0
ARC
  5
2FE
330
1F
100
AcDbEntity
  8
LC-002-100-D00-0
 62
     7
370
    50
100
AcDbCircle
 10
432.542195
 20
443.000003
 30
0.0
 40
2.5
100
AcDbArc
 50
90.0
 51
180.0
  0
LINE
  5
2FF
330
1F
100
AcDbEntity
  8
LC-002-100-D00-0
 62
     7
370
    50
100
AcDbLine
 10
432.542194
 20
445.5
 30
0.0
 11
434.042195
 21
445.5
 31
0.0
  0
ARC
  5
300
330
1F
100
AcDbEntity
  8
LC-002-100-D00-0
 62
     7
370
    50
100
AcDbCircle
 10
434.042195
 20
443.000003
 30
0.0
 40
2.500000000000227
100
AcDbArc
 50
0.0
 51
90.0
  0
LINE
  5
301
330
1F
100
AcDbEntity
  8
LC-002-100-D00-0
 62
     7
370
    50
100
AcDbLine
 10
436.542195
 20
440.500005
 30
0.0
 11
436.542195
 21
443.000002
 31
0.0
  0
LINE
  5
302
330
1F
100
AcDbEntity
  8
LC-002-100-D00-0
 62
     7
370
    50
100
AcDbLine
 10
435.042195
 20
440.500005
 30
0.0
 11
436.542195
 21
440.500005
 31
0.0
  0
LINE
  5
303
330
1F
100
AcDbEntity
  8
LC-002-100-D00-0
 62
     7
370
    50
100
AcDbLine
 10
435.042195
 20
440.500005
 30
0.0
 11
435.042195
 21
443.000002
 31
0.0
  0
LINE
  5
304
330
1F
100
AcDbEntity
  8
LC-002-100-D00-0
 62
     7
370
    50
100
AcDbLine
 10
431.542194
 20
441.499999
 30
0.0
 11
430.042195
 21
441.499999
 31
0.0
  0
LINE
  5
305
330
1F
100
AcDbEntity
  8
LC-002-100-D00-0
 62
     7
370
    50
100
AcDbLine
 10
432.542194
 20
444.000004
 30
0.0
 11
434.042195
 21
444.000004
 31
0.0
  0
LINE
  5
306
330
1F
100
AcDbEntity
  8
LC-002-100-D00-0
 62
     7
370
    50
100
AcDbLine
 10
391.042195
 20
445.400006
 30
0.0
 11
391.042195
 21
445.5
 31
0.0
  0
LINE
  5
307
330
1F
100
AcDbEntity
  8
LC-002-100-D00-0
 62
     7
370
    50
100
AcDbLine
 10
391.042195
 20
445.400006
 30
0.0
 11
391.327904
 21
445.400006
 31
0.0
  0
LINE
  5
308
330
1F
100
AcDbEntity
  8
LC-002-100-D00-0
 62
     7
370
    50
100
AcDbLine
 10
391.327904
 20
445.400006
 30
0.0
 11
391.327904
 21
445.5
 31
0.0
  0
LINE
  5
309
330
1F
100
AcDbEntity
  8
LC-002-100-D00-0
 62
     7
370
    50
100
AcDbLine
 10
391.327904
 20
445.5
 30
0.0
 11
392.060806
 21
445.5
 31
0.0
  0
LINE
  5
30A
330
1F
100
AcDbEntity
  8
LC-002-100-D00-0
 62
     7
370
    50
100
AcDbLine
 10
392.060806
 20
445.5
 30
0.0
 11
392.060806
 21
445.400006
 31
0.0
  0
LINE
  5
30B
330
1F
100
AcDbEntity
  8
LC-002-100-D00-0
 62
     7
370
    50
100
AcDbLine
 10
392.060806
 20
445.400006
 30
0.0
 11
392.346515
 21
445.400006
 31
0.0
  0
LINE
  5
30C
330
1F
100
AcDbEntity
  8
LC-002-100-D00-0
 62
     7
370
    50
100
AcDbLine
 10
392.346515
 20
445.400006
 30
0.0
 11
392.346515
 21
445.5
 31
0.0
  0
LINE
  5
30D
330
1F
100
AcDbEntity
  8
LC-002-100-D00-0
 62
     7
370
    50
100
AcDbLine
 10
392.346515
 20
445.5
 30
0.0
 11
393.288522
 21
445.5
 31
0.0
  0
LINE
  5
30E
330
1F
100
AcDbEntity
  8
LC-002-100-D00-0
 62
     7
370
    50
100
AcDbLine
 10
393.288522
 20
445.400006
 30
0.0
 11
393.288522
 21
445.5
 31
0.0
  0
LINE
  5
30F
330
1F
100
AcDbEntity
  8
LC-002-100-D00-0
 62
     7
370
    50
100
AcDbLine
 10
393.288522
 20
445.400006
 30
0.0
 11
393.574232
 21
445.400006
 31
0.0
  0
LINE
  5
310
330
1F
100
AcDbEntity
  8
LC-002-100-D00-0
 62
     7
370
    50
100
AcDbLine
 10
393.574232
 20
445.400006
 30
0.0
 11
393.574232
 21
445.5
 31
0.0
  0
LINE
  5
311
330
1F
100
AcDbEntity
  8
LC-002-100-D00-0
 62
     7
370
    50
100
AcDbLine
 10
393.574232
 20
445.5
 30
0.0
 11
394.379597
 21
445.5
 31
0.0
  0
LINE
  5
312
330
1F
100
AcDbEntity
  8
LC-002-100-D00-0
 62
     7
370
    50
100
AcDbLine
 10
394.379597
 20
445.5
 30
0.0
 11
394.379597
 21
445.400006
 31
0.0
  0
LINE
  5
313
330
1F
100
AcDbEntity
  8
LC-002-100-D00-0
 62
     7
370
    50
100
AcDbLine
 10
394.379597
 20
445.400006
 30
0.0
 11
394.665305
 21
445.400006
 31
0.0
  0
LINE
  5
314
330
1F
100
AcDbEntity
  8
LC-002-100-D00-0
 62
     7
370
    50
100
AcDbLine
 10
394.665305
 20
445.400006
 30
0.0
 11
394.665305
 21
445.5
 31
0.0
  0
LINE
  5
315
330
1F
100
AcDbEntity
  8
LC-002-100-D00-0
 62
     7
370
    50
100
AcDbLine
 10
394.665305
 20
445.5
 30
0.0
 11
395.607314
 21
445.5
 31
0.0
  0
LINE
  5
316
330
1F
100
AcDbEntity
  8
LC-002-100-D00-0
 62
     7
370
    50
100
AcDbLine
 10
395.607314
 20
445.400006
 30
0.0
 11
395.607314
 21
445.5
 31
0.0
  0
LINE
  5
317
330
1F
100
AcDbEntity
  8
LC-002-100-D00-0
 62
     7
370
    50
100
AcDbLine
 10
395.607314
 20
445.400006
 30
0.0
 11
395.893023
 21
445.400006
 31
0.0
  0
LINE
  5
318
330
1F
100
AcDbEntity
  8
LC-002-100-D00-0
 62
     7
370
    50
100
AcDbLine
 10
395.893023
 20
445.400006
 30
0.0
 11
395.893023
 21
445.5
 31
0.0
  0
LINE
  5
319
330
1F
100
AcDbEntity
  8
LC-002-100-D00-0
 62
     7
370
    50
100
AcDbLine
 10
395.893023
 20
445.5
 30
0.0
 11
396.625925
 21
445.5
 31
0.0
  0
LINE
  5
31A
330
1F
100
AcDbEntity
  8
LC-002-100-D00-0
 62
     7
370
    50
100
AcDbLine
 10
396.625925
 20
445.5
 30
0.0
 11
396.625925
 21
445.400006
 31
0.0
  0
LINE
  5
31B
330
1F
100
AcDbEntity
  8
LC-002-100-D00-0
 62
     7
370
    50
100
AcDbLine
 10
396.625925
 20
445.400006
 30
0.0
 11
396.911634
 21
445.400006
 31
0.0
  0
LINE
  5
31C
330
1F
100
AcDbEntity
  8
LC-002-100-D00-0
 62
     7
370
    50
100
AcDbLine
 10
396.911634
 20
445.400006
 30
0.0
 11
396.911634
 21
445.5
 31
0.0
  0
LINE
  5
31D
330
1F
100
AcDbEntity
  8
LC-002-100-D00-0
 62
     7
370
    50
100
AcDbLine
 10
397.491331
 20
445.400006
 30
0.0
 11
397.491331
 21
445.5
 31
0.0
  0
LINE
  5
31E
330
1F
100
AcDbEntity
  8
LC-002-100-D00-0
 62
     7
370
    50
100
AcDbLine
 10
397.491331
 20
445.400006
 30
0.0
 11
397.77704
 21
445.400006
 31
0.0
  0
LINE
  5
31F
330
1F
100
AcDbEntity
  8
LC-002-100-D00-0
 62
     7
370
    50
100
AcDbLine
 10
397.77704
 20
445.400006
 30
0.0
 11
397.77704
 21
445.5
 31
0.0
  0
LINE
  5
320
330
1F
100
AcDbEntity
  8
LC-002-100-D00-0
 62
     7
370
    50
100
AcDbLine
 10
397.77704
 20
445.5
 30
0.0
 11
398.509941
 21
445.5
 31
0.0
  0
LINE
  5
321
330
1F
100
AcDbEntity
  8
LC-002-100-D00-0
 62
     7
370
    50
100
AcDbLine
 10
398.509941
 20
445.5
 30
0.0
 11
398.509941
 21
445.400006
 31
0.0
  0
LINE
  5
322
330
1F
100
AcDbEntity
  8
LC-002-100-D00-0
 62
     7
370
    50
100
AcDbLine
 10
398.509941
 20
445.400006
 30
0.0
 11
400.679668
 21
445.400006
 31
0.0
  0
LINE
  5
323
330
1F
100
AcDbEntity
  8
LC-002-100-D00-0
 62
     7
370
    50
100
AcDbLine
 10
400.679668
 20
445.400006
 30
0.0
 11
400.679668
 21
445.5
 31
0.0
  0
LINE
  5
324
330
1F
100
AcDbEntity
  8
LC-002-100-D00-0
 62
     7
370
    50
100
AcDbLine
 10
401.476753
 20
445.400006
 30
0.0
 11
401.476753
 21
445.5
 31
0.0
  0
LINE
  5
325
330
1F
100
AcDbEntity
  8
LC-002-100-D00-0
 62
     7
370
    50
100
AcDbLine
 10
401.476753
 20
445.400006
 30
0.0
 11
401.762461
 21
445.400006
 31
0.0
  0
LINE
  5
326
330
1F
100
AcDbEntity
  8
LC-002-100-D00-0
 62
     7
370
    50
100
AcDbLine
 10
401.762461
 20
445.400006
 30
0.0
 11
401.762461
 21
445.5
 31
0.0
  0
LINE
  5
327
330
1F
100
AcDbEntity
  8
LC-002-100-D00-0
 62
     7
370
    50
100
AcDbLine
 10
401.762461
 20
445.5
 30
0.0
 11
404.689225
 21
445.5
 31
0.0
  0
LINE
  5
328
330
1F
100
AcDbEntity
  8
LC-002-100-D00-0
 62
     7
370
    50
100
AcDbLine
 10
404.689225
 20
445.5
 30
0.0
 11
404.689225
 21
445.400006
 31
0.0
  0
LINE
  5
329
330
1F
100
AcDbEntity
  8
LC-002-100-D00-0
 62
     7
370
    50
100
AcDbLine
 10
404.689225
 20
445.400006
 30
0.0
 11
405.150962
 21
445.400006
 31
0.0
  0
LINE
  5
32A
330
1F
100
AcDbEntity
  8
LC-002-100-D00-0
 62
     7
370
    50
100
AcDbLine
 10
405.150962
 20
445.5
 30
0.0
 11
405.150962
 21
445.400006
 31
0.0
  0
ARC
  5
32B
330
1F
100
AcDbEntity
  8
LC-002-100-D00-0
 62
     7
370
    50
100
AcDbCircle
 10
409.542195
 20
443.000003
 30
0.0
 40
2.500000000000057
100
AcDbArc
 50
0.0
 51
90.0
  0
LINE
  5
32C
330
1F
100
AcDbEntity
  8
LC-002-100-D00-0
 62
     7
370
    50
100
AcDbLine
 10
412.042194
 20
443.000002
 30
0.0
 11
412.042194
 21
441.499999
 31
0.0
  0
LINE
  5
32D
330
1F
100
AcDbEntity
  8
LC-002-100-D00-0
 62
     7
370
    50
100
AcDbLine
 10
412.042194
 20
441.499999
 30
0.0
 11
410.542195
 21
441.499999
 31
0.0
  0
LINE
  5
32E
330
1F
100
AcDbEntity
  8
LC-002-100-D00-0
 62
     7
370
    50
100
AcDbLine
 10
410.542195
 20
443.000002
 30
0.0
 11
410.542195
 21
441.499999
 31
0.0
  0
ARC
  5
32F
330
1F
100
AcDbEntity
  8
LC-002-100-D00-0
 62
     7
370
    50
100
AcDbCircle
 10
409.542195
 20
443.000003
 30
0.0
 40
1.000000000000114
100
AcDbArc
 50
0.0
 51
90.0
  0
LINE
  5
330
330
1F
100
AcDbEntity
  8
LC-002-100-D00-0
 62
     7
370
    50
100
AcDbLine
 10
390.305425
 20
444.100006
 30
0.0
 11
390.305425
 21
444.000004
 31
0.0
  0
ARC
  5
331
330
1F
100
AcDbEntity
  8
LC-002-100-D00-0
 62
     7
370
    50
100
AcDbCircle
 10
372.542195
 20
443.000003
 30
0.0
 40
1.0
100
AcDbArc
 50
90.0
 51
180.0
  0
LINE
  5
332
330
1F
100
AcDbEntity
  8
LC-002-100-D00-0
 62
     7
370
    50
100
AcDbLine
 10
371.542193
 20
441.499999
 30
0.0
 11
371.542193
 21
443.000002
 31
0.0
  0
LINE
  5
333
330
1F
100
AcDbEntity
  8
LC-002-100-D00-0
 62
     7
370
    50
100
AcDbLine
 10
371.542193
 20
441.499999
 30
0.0
 11
370.042194
 21
441.499999
 31
0.0
  0
LINE
  5
334
330
1F
100
AcDbEntity
  8
LC-002-100-D00-0
 62
     7
370
    50
100
AcDbLine
 10
370.042194
 20
441.499999
 30
0.0
 11
370.042194
 21
443.000002
 31
0.0
  0
ARC
  5
335
330
1F
100
AcDbEntity
  8
LC-002-100-D00-0
 62
     7
370
    50
100
AcDbCircle
 10
372.542195
 20
443.000003
 30
0.0
 40
2.500000000000114
100
AcDbArc
 50
90.0
 51
180.0
  0
LINE
  5
336
330
1F
100
AcDbEntity
  8
LC-002-100-D00-0
 62
     7
370
    50
100
AcDbLine
 10
375.970057
 20
445.400006
 30
0.0
 11
375.970057
 21
445.5
 31
0.0
  0
LINE
  5
337
330
1F
100
AcDbEntity
  8
LC-002-100-D00-0
 62
     7
370
    50
100
AcDbLine
 10
375.970057
 20
445.400006
 30
0.0
 11
376.255764
 21
445.400006
 31
0.0
  0
LINE
  5
338
330
1F
100
AcDbEntity
  8
LC-002-100-D00-0
 62
     7
370
    50
100
AcDbLine
 10
376.255764
 20
445.400006
 30
0.0
 11
376.255764
 21
445.5
 31
0.0
  0
LINE
  5
339
330
1F
100
AcDbEntity
  8
LC-002-100-D00-0
 62
     7
370
    50
100
AcDbLine
 10
376.255764
 20
445.5
 30
0.0
 11
377.061129
 21
445.5
 31
0.0
  0
LINE
  5
33A
330
1F
100
AcDbEntity
  8
LC-002-100-D00-0
 62
     7
370
    50
100
AcDbLine
 10
377.061129
 20
445.5
 30
0.0
 11
377.061129
 21
445.400006
 31
0.0
  0
LINE
  5
33B
330
1F
100
AcDbEntity
  8
LC-002-100-D00-0
 62
     7
370
    50
100
AcDbLine
 10
377.061129
 20
445.400006
 30
0.0
 11
377.346838
 21
445.400006
 31
0.0
  0
LINE
  5
33C
330
1F
100
AcDbEntity
  8
LC-002-100-D00-0
 62
     7
370
    50
100
AcDbLine
 10
377.346838
 20
445.400006
 30
0.0
 11
377.346838
 21
445.5
 31
0.0
  0
LINE
  5
33D
330
1F
100
AcDbEntity
  8
LC-002-100-D00-0
 62
     7
370
    50
100
AcDbLine
 10
377.346838
 20
445.5
 30
0.0
 11
378.309558
 21
445.5
 31
0.0
  0
LINE
  5
33E
330
1F
100
AcDbEntity
  8
LC-002-100-D00-0
 62
     7
370
    50
100
AcDbLine
 10
378.309558
 20
445.400006
 30
0.0
 11
378.309558
 21
445.5
 31
0.0
  0
LINE
  5
33F
330
1F
100
AcDbEntity
  8
LC-002-100-D00-0
 62
     7
370
    50
100
AcDbLine
 10
378.309558
 20
445.400006
 30
0.0
 11
378.595267
 21
445.400006
 31
0.0
  0
LINE
  5
340
330
1F
100
AcDbEntity
  8
LC-002-100-D00-0
 62
     7
370
    50
100
AcDbLine
 10
378.595267
 20
445.400006
 30
0.0
 11
378.595267
 21
445.5
 31
0.0
  0
LINE
  5
341
330
1F
100
AcDbEntity
  8
LC-002-100-D00-0
 62
     7
370
    50
100
AcDbLine
 10
378.595267
 20
445.5
 30
0.0
 11
379.255707
 21
445.5
 31
0.0
  0
LINE
  5
342
330
1F
100
AcDbEntity
  8
LC-002-100-D00-0
 62
     7
370
    50
100
AcDbLine
 10
379.255707
 20
445.5
 30
0.0
 11
379.255707
 21
445.400006
 31
0.0
  0
LINE
  5
343
330
1F
100
AcDbEntity
  8
LC-002-100-D00-0
 62
     7
370
    50
100
AcDbLine
 10
379.255707
 20
445.400006
 30
0.0
 11
379.541416
 21
445.400006
 31
0.0
  0
LINE
  5
344
330
1F
100
AcDbEntity
  8
LC-002-100-D00-0
 62
     7
370
    50
100
AcDbLine
 10
379.541416
 20
445.400006
 30
0.0
 11
379.541416
 21
445.5
 31
0.0
  0
LINE
  5
345
330
1F
100
AcDbEntity
  8
LC-002-100-D00-0
 62
     7
370
    50
100
AcDbLine
 10
380.172864
 20
445.400006
 30
0.0
 11
380.172864
 21
445.5
 31
0.0
  0
LINE
  5
346
330
1F
100
AcDbEntity
  8
LC-002-100-D00-0
 62
     7
370
    50
100
AcDbLine
 10
380.172864
 20
445.400006
 30
0.0
 11
380.458573
 21
445.400006
 31
0.0
  0
LINE
  5
347
330
1F
100
AcDbEntity
  8
LC-002-100-D00-0
 62
     7
370
    50
100
AcDbLine
 10
380.458573
 20
445.400006
 30
0.0
 11
380.458573
 21
445.5
 31
0.0
  0
LINE
  5
348
330
1F
100
AcDbEntity
  8
LC-002-100-D00-0
 62
     7
370
    50
100
AcDbLine
 10
380.458573
 20
445.5
 30
0.0
 11
383.800114
 21
445.5
 31
0.0
  0
LINE
  5
349
330
1F
100
AcDbEntity
  8
LC-002-100-D00-0
 62
     7
370
    50
100
AcDbLine
 10
383.800114
 20
445.5
 30
0.0
 11
383.800114
 21
445.400006
 31
0.0
  0
LINE
  5
34A
330
1F
100
AcDbEntity
  8
LC-002-100-D00-0
 62
     7
370
    50
100
AcDbLine
 10
383.800114
 20
445.400006
 30
0.0
 11
384.085823
 21
445.400006
 31
0.0
  0
LINE
  5
34B
330
1F
100
AcDbEntity
  8
LC-002-100-D00-0
 62
     7
370
    50
100
AcDbLine
 10
384.085823
 20
445.400006
 30
0.0
 11
384.085823
 21
445.5
 31
0.0
  0
LINE
  5
34C
330
1F
100
AcDbEntity
  8
LC-002-100-D00-0
 62
     7
370
    50
100
AcDbLine
 10
384.810446
 20
445.400006
 30
0.0
 11
384.810446
 21
445.5
 31
0.0
  0
LINE
  5
34D
330
1F
100
AcDbEntity
  8
LC-002-100-D00-0
 62
     7
370
    50
100
AcDbLine
 10
384.810446
 20
445.400006
 30
0.0
 11
385.096154
 21
445.400006
 31
0.0
  0
LINE
  5
34E
330
1F
100
AcDbEntity
  8
LC-002-100-D00-0
 62
     7
370
    50
100
AcDbLine
 10
385.096154
 20
445.400006
 30
0.0
 11
385.096154
 21
445.5
 31
0.0
  0
LINE
  5
34F
330
1F
100
AcDbEntity
  8
LC-002-100-D00-0
 62
     7
370
    50
100
AcDbLine
 10
385.096154
 20
445.5
 30
0.0
 11
385.829056
 21
445.5
 31
0.0
  0
LINE
  5
350
330
1F
100
AcDbEntity
  8
LC-002-100-D00-0
 62
     7
370
    50
100
AcDbLine
 10
385.829056
 20
445.5
 30
0.0
 11
385.829056
 21
445.400006
 31
0.0
  0
LINE
  5
351
330
1F
100
AcDbEntity
  8
LC-002-100-D00-0
 62
     7
370
    50
100
AcDbLine
 10
385.829056
 20
445.400006
 30
0.0
 11
386.114765
 21
445.400006
 31
0.0
  0
LINE
  5
352
330
1F
100
AcDbEntity
  8
LC-002-100-D00-0
 62
     7
370
    50
100
AcDbLine
 10
386.114765
 20
445.400006
 30
0.0
 11
386.114765
 21
445.5
 31
0.0
  0
LINE
  5
353
330
1F
100
AcDbEntity
  8
LC-002-100-D00-0
 62
     7
370
    50
100
AcDbLine
 10
387.92632
 20
445.400006
 30
0.0
 11
387.92632
 21
445.5
 31
0.0
  0
LINE
  5
354
330
1F
100
AcDbEntity
  8
LC-002-100-D00-0
 62
     7
370
    50
100
AcDbLine
 10
387.92632
 20
445.400006
 30
0.0
 11
388.212029
 21
445.400006
 31
0.0
  0
LINE
  5
355
330
1F
100
AcDbEntity
  8
LC-002-100-D00-0
 62
     7
370
    50
100
AcDbLine
 10
388.212029
 20
445.400006
 30
0.0
 11
388.212029
 21
445.5
 31
0.0
  0
LINE
  5
356
330
1F
100
AcDbEntity
  8
LC-002-100-D00-0
 62
     7
370
    50
100
AcDbLine
 10
388.212029
 20
445.5
 30
0.0
 11
388.944931
 21
445.5
 31
0.0
  0
LINE
  5
357
330
1F
100
AcDbEntity
  8
LC-002-100-D00-0
 62
     7
370
    50
100
AcDbLine
 10
388.944931
 20
445.5
 30
0.0
 11
388.944931
 21
445.400006
 31
0.0
  0
LINE
  5
358
330
1F
100
AcDbEntity
  8
LC-002-100-D00-0
 62
     7
370
    50
100
AcDbLine
 10
388.944931
 20
445.400006
 30
0.0
 11
389.23064
 21
445.400006
 31
0.0
  0
LINE
  5
359
330
1F
100
AcDbEntity
  8
LC-002-100-D00-0
 62
     7
370
    50
100
AcDbLine
 10
389.23064
 20
445.400006
 30
0.0
 11
389.23064
 21
445.5
 31
0.0
  0
LINE
  5
35A
330
1F
100
AcDbEntity
  8
LC-002-100-D00-0
 62
     7
370
    50
100
AcDbLine
 10
405.150962
 20
445.5
 30
0.0
 11
409.542195
 21
445.5
 31
0.0
  0
LINE
  5
35B
330
1F
100
AcDbEntity
  8
LC-002-100-D00-0
 62
     7
370
    50
100
AcDbLine
 10
400.679668
 20
445.5
 30
0.0
 11
401.476753
 21
445.5
 31
0.0
  0
LINE
  5
35C
330
1F
100
AcDbEntity
  8
LC-002-100-D00-0
 62
     7
370
    50
100
AcDbLine
 10
396.911634
 20
445.5
 30
0.0
 11
397.491331
 21
445.5
 31
0.0
  0
LINE
  5
35D
330
1F
100
AcDbEntity
  8
LC-002-100-D00-0
 62
     7
370
    50
100
AcDbLine
 10
389.23064
 20
445.5
 30
0.0
 11
391.042195
 21
445.5
 31
0.0
  0
LINE
  5
35E
330
1F
100
AcDbEntity
  8
LC-002-100-D00-0
 62
     7
370
    50
100
AcDbLine
 10
386.114765
 20
445.5
 30
0.0
 11
387.92632
 21
445.5
 31
0.0
  0
LINE
  5
35F
330
1F
100
AcDbEntity
  8
LC-002-100-D00-0
 62
     7
370
    50
100
AcDbLine
 10
384.085823
 20
445.5
 30
0.0
 11
384.810446
 21
445.5
 31
0.0
  0
LINE
  5
360
330
1F
100
AcDbEntity
  8
LC-002-100-D00-0
 62
     7
370
    50
100
AcDbLine
 10
379.541416
 20
445.5
 30
0.0
 11
380.172864
 21
445.5
 31
0.0
  0
LINE
  5
361
330
1F
100
AcDbEntity
  8
LC-002-100-D00-0
 62
     7
370
    50
100
AcDbLine
 10
372.542195
 20
445.5
 30
0.0
 11
375.970057
 21
445.5
 31
0.0
  0
LINE
  5
362
330
1F
100
AcDbEntity
  8
LC-002-100-D00-0
 62
     7
370
    50
100
AcDbLine
 10
372.542195
 20
444.000004
 30
0.0
 11
390.305425
 21
444.000004
 31
0.0
  0
LINE
  5
363
330
1F
100
AcDbEntity
  8
LC-002-100-D00-0
 62
     7
370
    50
100
AcDbLine
 10
390.901332
 20
444.000004
 30
0.0
 11
409.542195
 21
444.000004
 31
0.0
  0
LINE
  5
364
330
1F
100
AcDbEntity
  8
LC-002-100-D00-0
 62
     7
370
    50
100
AcDbLine
 10
390.901332
 20
444.100006
 30
0.0
 11
390.305425
 21
444.100006
 31
0.0
  0
ARC
  5
365
330
1F
100
AcDbEntity
  8
LC-002-100-D00-0
 62
     7
370
    50
100
AcDbCircle
 10
348.042195
 20
443.000003
 30
0.0
 40
2.500000000000227
100
AcDbArc
 50
90.0
 51
180.0
  0
ARC
  5
366
330
1F
100
AcDbEntity
  8
LC-002-100-D00-0
 62
     7
370
    50
100
AcDbCircle
 10
349.542195
 20
443.000003
 30
0.0
 40
2.500000000000114
100
AcDbArc
 50
0.0
 51
90.0
  0
LINE
  5
367
330
1F
100
AcDbEntity
  8
LC-002-100-D00-0
 62
     7
370
    50
100
AcDbLine
 10
352.042195
 20
443.000002
 30
0.0
 11
352.042195
 21
441.499999
 31
0.0
  0
LINE
  5
368
330
1F
100
AcDbEntity
  8
LC-002-100-D00-0
 62
     7
370
    50
100
AcDbLine
 10
350.542196
 20
443.000002
 30
0.0
 11
350.542196
 21
441.499999
 31
0.0
  0
ARC
  5
369
330
1F
100
AcDbEntity
  8
LC-002-100-D00-0
 62
     7
370
    50
100
AcDbCircle
 10
349.542195
 20
443.000003
 30
0.0
 40
1.000000000000057
100
AcDbArc
 50
0.0
 51
90.0
  0
ARC
  5
36A
330
1F
100
AcDbEntity
  8
LC-002-100-D00-0
 62
     7
370
    50
100
AcDbCircle
 10
348.042195
 20
443.000003
 30
0.0
 40
1.0
100
AcDbArc
 50
90.0
 51
180.0
  0
LINE
  5
36B
330
1F
100
AcDbEntity
  8
LC-002-100-D00-0
 62
     7
370
    50
100
AcDbLine
 10
347.042196
 20
443.000002
 30
0.0
 11
347.042196
 21
440.500005
 31
0.0
  0
LINE
  5
36C
330
1F
100
AcDbEntity
  8
LC-002-100-D00-0
 62
     7
370
    50
100
AcDbLine
 10
345.542197
 20
443.000002
 30
0.0
 11
345.542197
 21
440.500005
 31
0.0
  0
LINE
  5
36D
330
1F
100
AcDbEntity
  8
LC-002-100-D00-0
 62
     7
370
    50
100
AcDbLine
 10
352.042195
 20
441.499999
 30
0.0
 11
350.542196
 21
441.499999
 31
0.0
  0
LINE
  5
36E
330
1F
100
AcDbEntity
  8
LC-002-100-D00-0
 62
     7
370
    50
100
AcDbLine
 10
348.042194
 20
445.5
 30
0.0
 11
349.542194
 21
445.5
 31
0.0
  0
LINE
  5
36F
330
1F
100
AcDbEntity
  8
LC-002-100-D00-0
 62
     7
370
    50
100
AcDbLine
 10
345.542197
 20
440.500005
 30
0.0
 11
347.042196
 21
440.500005
 31
0.0
  0
LINE
  5
370
330
1F
100
AcDbEntity
  8
LC-002-100-D00-0
 62
     7
370
    50
100
AcDbLine
 10
348.042194
 20
444.000004
 30
0.0
 11
349.542194
 21
444.000004
 31
0.0
  0
LINE
  5
371
330
1F
100
AcDbEntity
  8
LC-002-100-D00-0
 62
     7
370
    50
100
AcDbLine
 10
362.542194
 20
443.000002
 30
0.0
 11
362.542194
 21
441.499999
 31
0.0
  0
ARC
  5
372
330
1F
100
AcDbEntity
  8
LC-002-100-D00-0
 62
     7
370
    50
100
AcDbCircle
 10
361.542195
 20
443.000003
 30
0.0
 40
1.000000000000114
100
AcDbArc
 50
0.0
 51
90.0
  0
ARC
  5
373
330
1F
100
AcDbEntity
  8
LC-002-100-D00-0
 62
     7
370
    50
100
AcDbCircle
 10
360.542195
 20
443.000003
 30
0.0
 40
1.0
100
AcDbArc
 50
90.0
 51
180.0
  0
LINE
  5
374
330
1F
100
AcDbEntity
  8
LC-002-100-D00-0
 62
     7
370
    50
100
AcDbLine
 10
359.542195
 20
441.499999
 30
0.0
 11
359.542195
 21
443.000002
 31
0.0
  0
LINE
  5
375
330
1F
100
AcDbEntity
  8
LC-002-100-D00-0
 62
     7
370
    50
100
AcDbLine
 10
358.042196
 20
441.499999
 30
0.0
 11
358.042196
 21
443.000002
 31
0.0
  0
ARC
  5
376
330
1F
100
AcDbEntity
  8
LC-002-100-D00-0
 62
     7
370
    50
100
AcDbCircle
 10
360.542195
 20
443.000003
 30
0.0
 40
2.500000000000114
100
AcDbArc
 50
90.0
 51
180.0
  0
ARC
  5
377
330
1F
100
AcDbEntity
  8
LC-002-100-D00-0
 62
     7
370
    50
100
AcDbCircle
 10
361.542195
 20
443.000003
 30
0.0
 40
2.500000000000341
100
AcDbArc
 50
0.0
 51
90.0
  0
LINE
  5
378
330
1F
100
AcDbEntity
  8
LC-002-100-D00-0
 62
     7
370
    50
100
AcDbLine
 10
364.042193
 20
443.000002
 30
0.0
 11
364.042193
 21
441.499999
 31
0.0
  0
LINE
  5
379
330
1F
100
AcDbEntity
  8
LC-002-100-D00-0
 62
     7
370
    50
100
AcDbLine
 10
364.042193
 20
441.499999
 30
0.0
 11
362.542194
 21
441.499999
 31
0.0
  0
LINE
  5
37A
330
1F
100
AcDbEntity
  8
LC-002-100-D00-0
 62
     7
370
    50
100
AcDbLine
 10
359.542195
 20
441.499999
 30
0.0
 11
358.042196
 21
441.499999
 31
0.0
  0
LINE
  5
37B
330
1F
100
AcDbEntity
  8
LC-002-100-D00-0
 62
     7
370
    50
100
AcDbLine
 10
360.542193
 20
445.5
 30
0.0
 11
361.542196
 21
445.5
 31
0.0
  0
LINE
  5
37C
330
1F
100
AcDbEntity
  8
LC-002-100-D00-0
 62
     7
370
    50
100
AcDbLine
 10
360.542193
 20
444.000004
 30
0.0
 11
361.542196
 21
444.000004
 31
0.0
  0
LINE
  5
37D
330
1F
100
AcDbEntity
  8
LC-002-100-D00-0
 62
     7
370
    50
100
AcDbLine
 10
422.542194
 20
443.000002
 30
0.0
 11
422.542194
 21
441.499999
 31
0.0
  0
ARC
  5
37E
330
1F
100
AcDbEntity
  8
LC-002-100-D00-0
 62
     7
370
    50
100
AcDbCircle
 10
421.542195
 20
443.000003
 30
0.0
 40
1.0
100
AcDbArc
 50
0.0
 51
90.0
  0
ARC
  5
37F
330
1F
100
AcDbEntity
  8
LC-002-100-D00-0
 62
     7
370
    50
100
AcDbCircle
 10
420.542195
 20
443.000003
 30
0.0
 40
1.0
100
AcDbArc
 50
90.0
 51
180.0
  0
LINE
  5
380
330
1F
100
AcDbEntity
  8
LC-002-100-D00-0
 62
     7
370
    50
100
AcDbLine
 10
419.542196
 20
441.499999
 30
0.0
 11
419.542196
 21
443.000002
 31
0.0
  0
LINE
  5
381
330
1F
100
AcDbEntity
  8
LC-002-100-D00-0
 62
     7
370
    50
100
AcDbLine
 10
418.042195
 20
441.499999
 30
0.0
 11
418.042195
 21
443.000002
 31
0.0
  0
ARC
  5
382
330
1F
100
AcDbEntity
  8
LC-002-100-D00-0
 62
     7
370
    50
100
AcDbCircle
 10
420.542195
 20
443.000003
 30
0.0
 40
2.5
100
AcDbArc
 50
90.0
 51
180.0
  0
ARC
  5
383
330
1F
100
AcDbEntity
  8
LC-002-100-D00-0
 62
     7
370
    50
100
AcDbCircle
 10
421.542195
 20
443.000003
 30
0.0
 40
2.500000000000227
100
AcDbArc
 50
0.0
 51
90.0
  0
LINE
  5
384
330
1F
100
AcDbEntity
  8
LC-002-100-D00-0
 62
     7
370
    50
100
AcDbLine
 10
424.042196
 20
443.000002
 30
0.0
 11
424.042196
 21
441.499999
 31
0.0
  0
LINE
  5
385
330
1F
100
AcDbEntity
  8
LC-002-100-D00-0
 62
     7
370
    50
100
AcDbLine
 10
419.542196
 20
441.499999
 30
0.0
 11
418.042195
 21
441.499999
 31
0.0
  0
LINE
  5
386
330
1F
100
AcDbEntity
  8
LC-002-100-D00-0
 62
     7
370
    50
100
AcDbLine
 10
420.542194
 20
445.5
 30
0.0
 11
421.542194
 21
445.5
 31
0.0
  0
LINE
  5
387
330
1F
100
AcDbEntity
  8
LC-002-100-D00-0
 62
     7
370
    50
100
AcDbLine
 10
424.042196
 20
441.499999
 30
0.0
 11
422.542194
 21
441.499999
 31
0.0
  0
LINE
  5
388
330
1F
100
AcDbEntity
  8
LC-002-100-D00-0
 62
     7
370
    50
100
AcDbLine
 10
420.542194
 20
444.000004
 30
0.0
 11
421.542194
 21
444.000004
 31
0.0
  0
LINE
  5
389
330
1F
100
AcDbEntity
  8
LC-002-100-D00-0
 62
     7
370
    50
100
AcDbLine
 10
392.346514
 20
445.400006
 30
0.0
 11
392.346514
 21
445.5
 31
0.0
  0
LINE
  5
38A
330
1F
100
AcDbEntity
  8
LC-002-100-D00-0
 62
     7
370
    50
100
AcDbLine
 10
392.346514
 20
445.5
 30
0.0
 11
392.346514
 21
445.5
 31
0.0
  0
LINE
  5
38B
330
1F
100
AcDbEntity
  8
LC-002-100-D00-0
 62
     7
370
    50
100
AcDbLine
 10
393.288523
 20
445.400006
 30
0.0
 11
393.288523
 21
445.5
 31
0.0
  0
LINE
  5
38C
330
1F
100
AcDbEntity
  8
LC-002-100-D00-0
 62
     7
370
    50
100
AcDbLine
 10
393.288523
 20
445.5
 30
0.0
 11
393.288523
 21
445.5
 31
0.0
  0
LINE
  5
38D
330
1F
100
AcDbEntity
  8
LC-002-100-D00-0
 62
     7
370
    50
100
AcDbLine
 10
405.104003
 20
445.400006
 30
0.0
 11
405.104003
 21
445.5
 31
0.0
  0
LINE
  5
38E
330
1F
100
AcDbEntity
  8
LC-002-100-D00-0
 62
     7
370
    50
100
AcDbLine
 10
404.689225
 20
445.5
 30
0.0
 11
405.104003
 21
445.5
 31
0.0
  0
LINE
  5
38F
330
1F
100
AcDbEntity
  8
LC-002-100-D00-0
 62
     7
370
    50
100
AcDbLine
 10
400.39396
 20
445.400006
 30
0.0
 11
400.39396
 21
445.5
 31
0.0
  0
LINE
  5
390
330
1F
100
AcDbEntity
  8
LC-002-100-D00-0
 62
     7
370
    50
100
AcDbLine
 10
398.509941
 20
445.5
 30
0.0
 11
400.39396
 21
445.5
 31
0.0
  0
LINE
  5
391
330
1F
100
AcDbEntity
  8
LC-002-100-D00-0
 62
     7
370
    50
100
AcDbLine
 10
405.104003
 20
445.400006
 30
0.0
 11
405.104003
 21
445.5
 31
0.0
  0
LINE
  5
392
330
1F
100
AcDbEntity
  8
LC-002-100-D00-0
 62
     7
370
    50
100
AcDbLine
 10
400.679668
 20
445.5
 30
0.0
 11
400.39396
 21
445.5
 31
0.0
  0
LINE
  5
393
330
1F
100
AcDbEntity
  8
LC-002-100-D00-0
 62
     7
370
    50
100
AcDbLine
 10
378.595267
 20
445.5
 30
0.0
 11
378.309558
 21
445.5
 31
0.0
  0
LINE
  5
394
330
1F
100
AcDbEntity
  8
LC-002-100-D00-0
 62
     7
370
    50
100
AcDbLine
 10
395.893023
 20
445.5
 30
0.0
 11
395.607314
 21
445.5
 31
0.0
  0
LINE
  5
395
330
1F
100
AcDbEntity
  8
LC-002-100-D00-0
 62
     7
370
    50
100
AcDbLine
 10
393.574232
 20
445.5
 30
0.0
 11
393.288523
 21
445.5
 31
0.0
  0
LINE
  5
396
330
1F
100
AcDbEntity
  8
LC-002-100-D00-0
 62
     7
370
    50
100
AcDbLine
 10
394.665305
 20
445.5
 30
0.0
 11
394.379597
 21
445.5
 31
0.0
  0
LINE
  5
397
330
1F
100
AcDbEntity
  8
LC-002-100-D00-0
 62
     7
370
    50
100
AcDbLine
 10
392.346514
 20
445.5
 30
0.0
 11
392.060806
 21
445.5
 31
0.0
  0
LINE
  5
398
330
1F
100
AcDbEntity
  8
LC-002-100-D00-0
 62
     7
370
    50
100
AcDbLine
 10
377.061129
 20
445.5
 30
0.0
 11
377.346838
 21
445.5
 31
0.0
  0
LINE
  5
399
330
1F
100
AcDbEntity
  8
LC-002-100-D00-0
 62
     7
370
    50
100
AcDbLine
 10
384.085823
 20
445.5
 30
0.0
 11
383.800114
 21
445.5
 31
0.0
  0
LINE
  5
39A
330
1F
100
AcDbEntity
  8
LC-002-100-D00-0
 62
     7
370
    50
100
AcDbLine
 10
380.458573
 20
445.5
 30
0.0
 11
380.172864
 21
445.5
 31
0.0
  0
LINE
  5
39B
330
1F
100
AcDbEntity
  8
LC-002-100-D00-0
 62
     7
370
    50
100
AcDbLine
 10
396.911634
 20
445.5
 30
0.0
 11
396.625925
 21
445.5
 31
0.0
  0
LINE
  5
39C
330
1F
100
AcDbEntity
  8
LC-002-100-D00-0
 62
     7
370
    50
100
AcDbLine
 10
405.150962
 20
445.5
 30
0.0
 11
405.104003
 21
445.5
 31
0.0
  0
LINE
  5
39D
330
1F
100
AcDbEntity
  8
LC-002-100-D00-0
 62
     7
370
    50
100
AcDbLine
 10
379.541416
 20
445.5
 30
0.0
 11
379.255707
 21
445.5
 31
0.0
  0
LINE
  5
39E
330
1F
100
AcDbEntity
  8
LC-002-100-D00-0
 62
     7
370
    50
100
AcDbLine
 10
391.327904
 20
445.5
 30
0.0
 11
391.042195
 21
445.5
 31
0.0
  0
LINE
  5
39F
330
1F
100
AcDbEntity
  8
LC-002-100-D00-0
 62
     7
370
    50
100
AcDbLine
 10
401.476753
 20
445.5
 30
0.0
 11
401.762461
 21
445.5
 31
0.0
  0
LINE
  5
3A0
330
1F
100
AcDbEntity
  8
LC-002-100-D00-0
 62
     7
370
    50
100
AcDbLine
 10
375.970057
 20
445.5
 30
0.0
 11
376.255764
 21
445.5
 31
0.0
  0
LINE
  5
3A1
330
1F
100
AcDbEntity
  8
LC-002-100-D00-0
 62
     7
370
    50
100
AcDbLine
 10
397.491331
 20
445.5
 30
0.0
 11
397.77704
 21
445.5
 31
0.0
  0
LINE
  5
3A2
330
1F
100
AcDbEntity
  8
LC-002-100-D00-0
 62
     7
370
    50
100
AcDbLine
 10
384.810446
 20
445.5
 30
0.0
 11
385.096154
 21
445.5
 31
0.0
  0
LINE
  5
3A3
330
1F
100
AcDbEntity
  8
LC-002-100-D00-0
 62
     7
370
    50
100
AcDbLine
 10
385.829056
 20
445.5
 30
0.0
 11
386.114765
 21
445.5
 31
0.0
  0
LINE
  5
3A4
330
1F
100
AcDbEntity
  8
LC-002-100-D00-0
 62
     7
370
    50
100
AcDbLine
 10
387.92632
 20
445.5
 30
0.0
 11
388.212029
 21
445.5
 31
0.0
  0
LINE
  5
3A5
330
1F
100
AcDbEntity
  8
LC-002-100-D00-0
 62
     7
370
    50
100
AcDbLine
 10
388.944931
 20
445.5
 30
0.0
 11
389.23064
 21
445.5
 31
0.0
  0
LINE
  5
3A6
330
1F
100
AcDbEntity
  8
LC-002-100-D00-0
 62
     7
370
    50
100
AcDbLine
 10
394.542194
 20
441.499999
 30
0.0
 11
387.542194
 21
441.499999
 31
0.0
  0
LINE
  5
3A7
330
1F
100
AcDbEntity
  8
LC-002-100-D00-0
 62
     7
370
    50
100
AcDbLine
 10
399.042195
 20
441.499999
 30
0.0
 11
394.542194
 21
441.499999
 31
0.0
  0
LINE
  5
3A8
330
1F
100
AcDbEntity
  8
LC-002-100-D00-0
 62
     7
370
    50
100
AcDbLine
 10
387.542194
 20
441.499999
 30
0.0
 11
383.042194
 21
441.499999
 31
0.0
  0
LINE
  5
3A9
330
1F
100
AcDbEntity
  8
LC-002-100-D00-0
 62
     7
370
    50
100
AcDbLine
 10
412.042194
 20
441.499999
 30
0.0
 11
418.042195
 21
441.499999
 31
0.0
  0
LINE
  5
3AA
330
1F
100
AcDbEntity
  8
LC-002-100-D00-0
 62
     7
370
    50
100
AcDbLine
 10
361.542196
 20
445.5
 30
0.0
 11
372.542195
 21
445.5
 31
0.0
  0
LINE
  5
3AB
330
1F
100
AcDbEntity
  8
LC-002-100-D00-0
 62
     7
370
    50
100
AcDbLine
 10
364.042193
 20
441.499999
 30
0.0
 11
370.042194
 21
441.499999
 31
0.0
  0
LINE
  5
3AC
330
1F
100
AcDbEntity
  8
LC-002-100-D00-0
 62
     7
370
    50
100
AcDbLine
 10
409.542195
 20
445.5
 30
0.0
 11
420.542194
 21
445.5
 31
0.0
  0
LINE
  5
3AD
330
1F
100
AcDbEntity
  8
LC-002-100-D00-0
 62
     7
370
    50
100
AcDbLine
 10
376.042195
 20
441.499999
 30
0.0
 11
371.542193
 21
441.499999
 31
0.0
  0
LINE
  5
3AE
330
1F
100
AcDbEntity
  8
LC-002-100-D00-0
 62
     7
370
    50
100
AcDbLine
 10
406.042195
 20
441.499999
 30
0.0
 11
399.042195
 21
441.499999
 31
0.0
  0
LINE
  5
3AF
330
1F
100
AcDbEntity
  8
LC-002-100-D00-0
 62
     7
370
    50
100
AcDbLine
 10
383.042194
 20
441.499999
 30
0.0
 11
376.042195
 21
441.499999
 31
0.0
  0
LINE
  5
3B0
330
1F
100
AcDbEntity
  8
LC-002-100-D00-0
 62
     7
370
    50
100
AcDbLine
 10
410.542195
 20
441.499999
 30
0.0
 11
406.042195
 21
441.499999
 31
0.0
  0
LINE
  5
3B1
330
1F
100
AcDbEntity
  8
LC-002-100-D00-0
 62
     7
370
    50
100
AcDbLine
 10
352.042195
 20
441.499999
 30
0.0
 11
358.042196
 21
441.499999
 31
0.0
  0
LINE
  5
3B2
330
1F
100
AcDbEntity
  8
LC-002-100-D00-0
 62
     7
370
    50
100
AcDbLine
 10
349.542194
 20
445.5
 30
0.0
 11
360.542193
 21
445.5
 31
0.0
  0
LINE
  5
3B3
330
1F
100
AcDbEntity
  8
LC-002-100-D00-0
 62
     7
370
    50
100
AcDbLine
 10
424.042196
 20
441.499999
 30
0.0
 11
430.042195
 21
441.499999
 31
0.0
  0
LINE
  5
3B4
330
1F
100
AcDbEntity
  8
LC-002-100-D00-0
 62
     7
370
    50
100
AcDbLine
 10
421.542194
 20
445.5
 30
0.0
 11
432.542194
 21
445.5
 31
0.0
  0
LINE
  5
3B5
330
1F
100
AcDbEntity
  8
LC-002-100-D00-0
 62
     7
370
    50
100
AcDbLine
 10
406.083804
 20
440.500005
 30
0.0
 11
376.000585
 21
440.500005
 31
0.0
  0
LINE
  5
3B6
330
1F
100
AcDbEntity
  8
LC-002-100-D00-0
 62
     7
370
    50
100
AcDbLine
 10
332.542301
 20
322.000003
 30
0.0
 11
339.042195
 21
322.000003
 31
0.0
  0
LINE
  5
3B7
330
1F
100
AcDbEntity
  8
LC-002-100-D00-0
 62
     7
370
    50
100
AcDbLine
 10
331.046388
 20
323.500003
 30
0.0
 11
331.046388
 21
332.000003
 31
0.0
  0
LINE
  5
3B8
330
1F
100
AcDbEntity
  8
LC-002-100-D00-0
 62
     7
370
    50
100
AcDbLine
 10
333.792195
 20
332.000003
 30
0.0
 11
331.046388
 21
332.000003
 31
0.0
  0
LINE
  5
3B9
330
1F
100
AcDbEntity
  8
LC-002-100-D00-0
 62
     7
370
    50
100
AcDbLine
 10
333.792195
 20
342.000003
 30
0.0
 11
333.792195
 21
332.000003
 31
0.0
  0
LINE
  5
3BA
330
1F
100
AcDbEntity
  8
LC-002-100-D00-0
 62
     7
370
    50
100
AcDbLine
 10
335.792192
 20
340.000003
 30
0.0
 11
333.792195
 21
342.000003
 31
0.0
  0
LINE
  5
3BB
330
1F
100
AcDbEntity
  8
LC-002-100-D00-0
 62
     7
370
    50
100
AcDbLine
 10
335.792192
 20
325.000003
 30
0.0
 11
335.792192
 21
340.000003
 31
0.0
  0
LINE
  5
3BC
330
1F
100
AcDbEntity
  8
LC-002-100-D00-0
 62
     7
370
    50
100
AcDbLine
 10
339.042195
 20
325.000003
 30
0.0
 11
335.792192
 21
325.000003
 31
0.0
  0
LINE
  5
3BD
330
1F
100
AcDbEntity
  8
LC-002-100-D00-0
 62
     7
370
    50
100
AcDbLine
 10
339.042195
 20
322.000003
 30
0.0
 11
339.042195
 21
325.000003
 31
0.0
  0
LINE
  5
3BE
330
1F
100
AcDbEntity
  8
LC-002-100-D00-0
 62
     7
370
    50
100
AcDbLine
 10
332.542301
 20
322.004194
 30
0.0
 11
332.542301
 21
322.000003
 31
0.0
  0
ARC
  5
3BF
330
1F
100
AcDbEntity
  8
LC-002-100-D00-0
 62
     7
370
    50
100
AcDbCircle
 10
332.542195
 20
323.500003
 30
0.0
 40
1.495808708027539
100
AcDbArc
 50
180.0
 51
270.004111
  0
LINE
  5
3C0
330
1F
100
AcDbEntity
  8
LC-002-100-D00-0
 62
     7
370
    50
100
AcDbLine
 10
448.292196
 20
342.000003
 30
0.0
 11
446.292196
 21
340.000003
 31
0.0
  0
LINE
  5
3C1
330
1F
100
AcDbEntity
  8
LC-002-100-D00-0
 62
     7
370
    50
100
AcDbLine
 10
448.292196
 20
332.000003
 30
0.0
 11
448.292196
 21
342.000003
 31
0.0
  0
LINE
  5
3C2
330
1F
100
AcDbEntity
  8
LC-002-100-D00-0
 62
     7
370
    50
100
AcDbLine
 10
451.038003
 20
332.000003
 30
0.0
 11
451.038003
 21
323.500003
 31
0.0
  0
LINE
  5
3C3
330
1F
100
AcDbEntity
  8
LC-002-100-D00-0
 62
     7
370
    50
100
AcDbLine
 10
443.042193
 20
325.000003
 30
0.0
 11
443.042193
 21
322.000003
 31
0.0
  0
LINE
  5
3C4
330
1F
100
AcDbEntity
  8
LC-002-100-D00-0
 62
     7
370
    50
100
AcDbLine
 10
446.292196
 20
325.000003
 30
0.0
 11
443.042193
 21
325.000003
 31
0.0
  0
LINE
  5
3C5
330
1F
100
AcDbEntity
  8
LC-002-100-D00-0
 62
     7
370
    50
100
AcDbLine
 10
446.292196
 20
340.000003
 30
0.0
 11
446.292196
 21
325.000003
 31
0.0
  0
LINE
  5
3C6
330
1F
100
AcDbEntity
  8
LC-002-100-D00-0
 62
     7
370
    50
100
AcDbLine
 10
443.042193
 20
322.000003
 30
0.0
 11
449.542087
 21
322.000003
 31
0.0
  0
LINE
  5
3C7
330
1F
100
AcDbEntity
  8
LC-002-100-D00-0
 62
     7
370
    50
100
AcDbLine
 10
451.038003
 20
332.000003
 30
0.0
 11
448.292196
 21
332.000003
 31
0.0
  0
ARC
  5
3C8
330
1F
100
AcDbEntity
  8
LC-002-100-D00-0
 62
     7
370
    50
100
AcDbCircle
 10
449.542195
 20
323.500003
 30
0.0
 40
1.495808708027754
100
AcDbArc
 50
269.995889
 51
0.0
  0
LINE
  5
3C9
330
1F
100
AcDbEntity
  8
LC-002-100-D00-0
 62
     7
370
    50
100
AcDbLine
 10
449.542087
 20
322.000003
 30
0.0
 11
449.542087
 21
322.004194
 31
0.0
  0
LINE
  5
3CA
330
1F
100
AcDbEntity
  8
LC-002-100-D00-0
 62
     7
370
    50
100
AcDbLine
 10
349.513568
 20
322.000003
 30
0.0
 11
349.513568
 21
325.000003
 31
0.0
  0
LINE
  5
3CB
330
1F
100
AcDbEntity
  8
LC-002-100-D00-0
 62
     7
370
    50
100
AcDbLine
 10
335.792192
 20
332.000003
 30
0.0
 11
336.042308
 21
332.000003
 31
0.0
  0
LINE
  5
3CC
330
1F
100
AcDbEntity
  8
LC-002-100-D00-0
 62
     7
370
    50
100
AcDbLine
 10
432.570821
 20
322.000003
 30
0.0
 11
432.570821
 21
325.000003
 31
0.0
  0
LINE
  5
3CD
330
1F
100
AcDbEntity
  8
LC-002-100-D00-0
 62
     7
370
    50
100
AcDbLine
 10
446.04208
 20
332.000003
 30
0.0
 11
446.292196
 21
332.000003
 31
0.0
  0
INSERT
  5
3D9
330
1F
100
AcDbEntity
  8
LC-002-100-D00-0
 62
     7
370
    50
100
AcDbBlockReference
  2
POLY28
 10
0.0
 20
0.0
 30
0.0
  0
INSERT
  5
3DF
330
1F
100
AcDbEntity
  8
LC-002-100-D00-0
 62
     7
370
    50
100
AcDbBlockReference
  2
KLON2
 10
0.0
 20
0.0
 30
0.0
  0
INSERT
  5
3F1
330
1F
100
AcDbEntity
  8
LC-002-100-D00-0
 62
     7
370
    50
100
AcDbBlockReference
  2
POLY29
 10
0.0
 20
0.0
 30
0.0
  0
LINE
  5
3F2
330
1F
100
AcDbEntity
  8
LC-002-100-D00-0
 62
     7
370
    50
100
AcDbLine
 10
344.612349
 20
264.500002
 30
0.0
 11
365.042437
 21
264.500002
 31
0.0
  0
INSERT
  5
408
330
1F
100
AcDbEntity
  8
LC-002-100-D00-0
 62
     7
370
    50
100
AcDbBlockReference
  2
POLY30
 10
0.0
 20
0.0
 30
0.0
  0
LINE
  5
409
330
1F
100
AcDbEntity
  8
LC-002-100-D00-0
 62
     7
370
    50
100
AcDbLine
 10
366.542452
 20
326.500003
 30
0.0
 11
366.542452
 21
266.000001
 31
0.0
  0
LINE
  5
40A
330
1F
100
AcDbEntity
  8
LC-002-100-D00-0
 62
     7
370
    50
100
AcDbLine
 10
369.042479
 20
326.500003
 30
0.0
 11
366.542452
 21
326.500003
 31
0.0
  0
LINE
  5
40B
330
1F
100
AcDbEntity
  8
LC-002-100-D00-0
 62
     7
370
    50
100
AcDbLine
 10
369.042479
 20
204.000002
 30
0.0
 11
369.042479
 21
326.500003
 31
0.0
  0
LINE
  5
40C
330
1F
100
AcDbEntity
  8
LC-002-100-D00-0
 62
     7
370
    50
100
AcDbLine
 10
369.042479
 20
204.000002
 30
0.0
 11
366.980277
 21
204.000002
 31
0.0
  0
INSERT
  5
412
330
1F
100
AcDbEntity
  8
LC-002-100-D00-0
 62
     7
370
    50
100
AcDbBlockReference
  2
KLON3
 10
0.0
 20
0.0
 30
0.0
  0
LINE
  5
413
330
1F
100
AcDbEntity
  8
LC-002-100-D00-0
 62
     7
370
    50
100
AcDbLine
 10
366.042447
 20
262.000001
 30
0.0
 11
366.042447
 21
207.500002
 31
0.0
  0
LINE
  5
414
330
1F
100
AcDbEntity
  8
LC-002-100-D00-0
 62
     7
370
    50
100
AcDbLine
 10
342.282184
 20
262.000001
 30
0.0
 11
366.042447
 21
262.000001
 31
0.0
  0
INSERT
  5
426
330
1F
100
AcDbEntity
  8
LC-002-100-D00-0
 62
     7
370
    50
100
AcDbBlockReference
  2
POLY31
 10
0.0
 20
0.0
 30
0.0
  0
INSERT
  5
42C
330
1F
100
AcDbEntity
  8
LC-002-100-D00-0
 62
     7
370
    50
100
AcDbBlockReference
  2
KLON4
 10
0.0
 20
0.0
 30
0.0
  0
LINE
  5
42D
330
1F
100
AcDbEntity
  8
LC-002-100-D00-0
 62
     7
370
    50
100
AcDbLine
 10
336.042308
 20
319.000003
 30
0.0
 11
336.042308
 21
276.696271
 31
0.0
  0
LINE
  5
42E
330
1F
100
AcDbEntity
  8
LC-002-100-D00-0
 62
     7
370
    50
100
AcDbLine
 10
331.042298
 20
319.000003
 30
0.0
 11
336.042308
 21
319.000003
 31
0.0
  0
INSERT
  5
442
330
1F
100
AcDbEntity
  8
LC-002-100-D00-0
 62
     7
370
    50
100
AcDbBlockReference
  2
POLY32
 10
0.0
 20
0.0
 30
0.0
  0
LINE
  5
443
330
1F
100
AcDbEntity
  8
LC-002-100-D00-0
 62
     7
370
    50
100
AcDbLine
 10
328.042292
 20
322.000003
 30
0.0
 11
328.042292
 21
332.92546
 31
0.0
  0
LINE
  5
444
330
1F
100
AcDbEntity
  8
LC-002-100-D00-0
 62
     7
370
    50
100
AcDbLine
 10
328.042292
 20
332.92546
 30
0.0
 11
323.937975
 21
332.92546
 31
0.0
  0
ARC
  5
445
330
1F
100
AcDbEntity
  8
LC-002-100-D00-0
 62
     7
370
    50
100
AcDbCircle
 10
321.042195
 20
337.000003
 30
0.0
 40
4.998744211400578
100
AcDbArc
 50
234.598565
 51
305.401435
  0
LINE
  5
446
330
1F
100
AcDbEntity
  8
LC-002-100-D00-0
 62
     7
370
    50
100
AcDbLine
 10
318.146415
 20
332.92546
 30
0.0
 11
315.043241
 21
332.92546
 31
0.0
  0
LINE
  5
447
330
1F
100
AcDbEntity
  8
LC-002-100-D00-0
 62
     7
370
    50
100
AcDbLine
 10
315.043241
 20
342.425461
 30
0.0
 11
315.043241
 21
332.92546
 31
0.0
  0
LINE
  5
448
330
1F
100
AcDbEntity
  8
LC-002-100-D00-0
 62
     7
370
    50
100
AcDbLine
 10
315.043241
 20
342.425461
 30
0.0
 11
308.069401
 21
342.425461
 31
0.0
  0
LINE
  5
449
330
1F
100
AcDbEntity
  8
LC-002-100-D00-0
 62
     7
370
    50
100
AcDbLine
 10
308.069401
 20
342.425461
 30
0.0
 11
305.390999
 21
344.8042
 31
0.0
  0
LINE
  5
44A
330
1F
100
AcDbEntity
  8
LC-002-100-D00-0
 62
     7
370
    50
100
AcDbLine
 10
305.390999
 20
344.8042
 30
0.0
 11
285.524287
 21
350.878059
 31
0.0
  0
LINE
  5
44B
330
1F
100
AcDbEntity
  8
LC-002-100-D00-0
 62
     7
370
    50
100
AcDbLine
 10
285.524287
 20
350.878059
 30
0.0
 11
276.542247
 21
351.187541
 31
0.0
  0
INSERT
  5
45F
330
1F
100
AcDbEntity
  8
LC-002-100-D00-0
 62
     7
370
    50
100
AcDbBlockReference
  2
POLY33
 10
0.0
 20
0.0
 30
0.0
  0
LINE
  5
460
330
1F
100
AcDbEntity
  8
LC-002-100-D00-0
 62
     7
370
    50
100
AcDbLine
 10
285.88301
 20
354.428307
 30
0.0
 11
278.608501
 21
354.669419
 31
0.0
  0
LINE
  5
461
330
1F
100
AcDbEntity
  8
LC-002-100-D00-0
 62
     7
370
    50
100
AcDbLine
 10
306.042269
 20
348.265008
 30
0.0
 11
285.88301
 21
354.428307
 31
0.0
  0
LINE
  5
462
330
1F
100
AcDbEntity
  8
LC-002-100-D00-0
 62
     7
370
    50
100
AcDbLine
 10
308.042273
 20
348.265008
 30
0.0
 11
306.042269
 21
348.265008
 31
0.0
  0
LINE
  5
463
330
1F
100
AcDbEntity
  8
LC-002-100-D00-0
 62
     7
370
    50
100
AcDbLine
 10
308.042273
 20
344.765008
 30
0.0
 11
308.042273
 21
348.265008
 31
0.0
  0
LINE
  5
464
330
1F
100
AcDbEntity
  8
LC-002-100-D00-0
 62
     7
370
    50
100
AcDbLine
 10
315.04228
 20
344.765008
 30
0.0
 11
308.042273
 21
344.765008
 31
0.0
  0
LINE
  5
465
330
1F
100
AcDbEntity
  8
LC-002-100-D00-0
 62
     7
370
    50
100
AcDbLine
 10
315.04228
 20
348.265008
 30
0.0
 11
315.04228
 21
344.765008
 31
0.0
  0
LINE
  5
466
330
1F
100
AcDbEntity
  8
LC-002-100-D00-0
 62
     7
370
    50
100
AcDbLine
 10
315.753602
 20
348.265008
 30
0.0
 11
315.04228
 21
348.265008
 31
0.0
  0
LINE
  5
467
330
1F
100
AcDbEntity
  8
LC-002-100-D00-0
 62
     7
370
    50
100
AcDbLine
 10
316.042282
 20
348.765007
 30
0.0
 11
315.753602
 21
348.265008
 31
0.0
  0
LINE
  5
468
330
1F
100
AcDbEntity
  8
LC-002-100-D00-0
 62
     7
370
    50
100
AcDbLine
 10
316.043452
 20
348.762977
 30
0.0
 11
316.042282
 21
348.765007
 31
0.0
  0
LINE
  5
469
330
1F
100
AcDbEntity
  8
LC-002-100-D00-0
 62
     7
370
    50
100
AcDbLine
 10
316.043452
 20
348.762977
 30
0.0
 11
316.043452
 21
348.265008
 31
0.0
  0
LINE
  5
46A
330
1F
100
AcDbEntity
  8
LC-002-100-D00-0
 62
     7
370
    50
100
AcDbLine
 10
318.544709
 20
348.265008
 30
0.0
 11
316.043452
 21
348.265008
 31
0.0
  0
LINE
  5
46B
330
1F
100
AcDbEntity
  8
LC-002-100-D00-0
 62
     7
370
    50
100
AcDbLine
 10
318.544709
 20
335.765008
 30
0.0
 11
318.544709
 21
348.265008
 31
0.0
  0
LINE
  5
46C
330
1F
100
AcDbEntity
  8
LC-002-100-D00-0
 62
     7
370
    50
100
AcDbLine
 10
319.045335
 20
335.265007
 30
0.0
 11
318.544709
 21
335.765008
 31
0.0
  0
LINE
  5
46D
330
1F
100
AcDbEntity
  8
LC-002-100-D00-0
 62
     7
370
    50
100
AcDbLine
 10
319.045335
 20
335.265007
 30
0.0
 11
323.039055
 21
335.265007
 31
0.0
  0
LINE
  5
46E
330
1F
100
AcDbEntity
  8
LC-002-100-D00-0
 62
     7
370
    50
100
AcDbLine
 10
323.539682
 20
335.765008
 30
0.0
 11
323.039055
 21
335.265007
 31
0.0
  0
LINE
  5
46F
330
1F
100
AcDbEntity
  8
LC-002-100-D00-0
 62
     7
370
    50
100
AcDbLine
 10
323.539682
 20
348.265008
 30
0.0
 11
323.539682
 21
335.765008
 31
0.0
  0
LINE
  5
470
330
1F
100
AcDbEntity
  8
LC-002-100-D00-0
 62
     7
370
    50
100
AcDbLine
 10
326.040939
 20
348.265008
 30
0.0
 11
323.539682
 21
348.265008
 31
0.0
  0
LINE
  5
471
330
1F
100
AcDbEntity
  8
LC-002-100-D00-0
 62
     7
370
    50
100
AcDbLine
 10
326.040939
 20
348.265008
 30
0.0
 11
326.040939
 21
348.762477
 31
0.0
  0
LINE
  5
472
330
1F
100
AcDbEntity
  8
LC-002-100-D00-0
 62
     7
370
    50
100
AcDbLine
 10
326.042399
 20
348.765007
 30
0.0
 11
326.040939
 21
348.762477
 31
0.0
  0
LINE
  5
473
330
1F
100
AcDbEntity
  8
LC-002-100-D00-0
 62
     7
370
    50
100
AcDbLine
 10
326.331072
 20
348.265008
 30
0.0
 11
326.042399
 21
348.765007
 31
0.0
  0
LINE
  5
474
330
1F
100
AcDbEntity
  8
LC-002-100-D00-0
 62
     7
370
    50
100
AcDbLine
 10
327.04229
 20
348.265008
 30
0.0
 11
326.331072
 21
348.265008
 31
0.0
  0
LINE
  5
475
330
1F
100
AcDbEntity
  8
LC-002-100-D00-0
 62
     7
370
    50
100
AcDbLine
 10
327.04229
 20
349.76508
 30
0.0
 11
327.04229
 21
348.265008
 31
0.0
  0
LINE
  5
476
330
1F
100
AcDbEntity
  8
LC-002-100-D00-0
 62
     7
370
    50
100
AcDbLine
 10
327.04229
 20
349.76508
 30
0.0
 11
328.044288
 21
349.76508
 31
0.0
  0
LINE
  5
477
330
1F
100
AcDbEntity
  8
LC-002-100-D00-0
 62
     7
370
    50
100
AcDbLine
 10
328.044288
 20
352.76508
 30
0.0
 11
328.044288
 21
349.76508
 31
0.0
  0
LINE
  5
478
330
1F
100
AcDbEntity
  8
LC-002-100-D00-0
 62
     7
370
    50
100
AcDbLine
 10
328.044288
 20
352.76508
 30
0.0
 11
330.042296
 21
352.76508
 31
0.0
  0
LINE
  5
479
330
1F
100
AcDbEntity
  8
LC-002-100-D00-0
 62
     7
370
    50
100
AcDbLine
 10
330.042296
 20
349.76508
 30
0.0
 11
330.042296
 21
352.76508
 31
0.0
  0
LINE
  5
47A
330
1F
100
AcDbEntity
  8
LC-002-100-D00-0
 62
     7
370
    50
100
AcDbLine
 10
330.042191
 20
349.76508
 30
0.0
 11
330.042296
 21
349.76508
 31
0.0
  0
LINE
  5
47B
330
1F
100
AcDbEntity
  8
LC-002-100-D00-0
 62
     7
370
    50
100
AcDbLine
 10
331.042298
 20
348.765007
 30
0.0
 11
330.042191
 21
349.76508
 31
0.0
  0
LINE
  5
47C
330
1F
100
AcDbEntity
  8
LC-002-100-D00-0
 62
     7
370
    50
100
AcDbLine
 10
331.042298
 20
322.000003
 30
0.0
 11
331.042298
 21
348.765007
 31
0.0
  0
LINE
  5
47D
330
1F
100
AcDbEntity
  8
LC-002-100-D00-0
 62
     7
370
    50
100
AcDbLine
 10
339.042314
 20
322.000003
 30
0.0
 11
331.042298
 21
322.000003
 31
0.0
  0
LINE
  5
47E
330
1F
100
AcDbEntity
  8
LC-002-100-D00-0
 62
     7
370
    50
100
AcDbLine
 10
339.042314
 20
322.000003
 30
0.0
 11
339.042314
 21
276.893752
 31
0.0
  0
LINE
  5
47F
330
1F
100
AcDbEntity
  8
LC-002-100-D00-0
 62
     7
370
    50
100
AcDbLine
 10
276.542247
 20
352.670517
 30
0.0
 11
276.542247
 21
351.187541
 31
0.0
  0
INSERT
  5
493
330
1F
100
AcDbEntity
  8
LC-002-100-D00-0
 62
     7
370
    50
100
AcDbBlockReference
  2
POLY34
 10
0.0
 20
0.0
 30
0.0
  0
LINE
  5
494
330
1F
100
AcDbEntity
  8
LC-002-100-D00-0
 62
     7
370
    50
100
AcDbLine
 10
308.042273
 20
348.265008
 30
0.0
 11
315.04228
 21
348.265008
 31
0.0
  0
LINE
  5
495
330
1F
100
AcDbEntity
  8
LC-002-100-D00-0
 62
     7
370
    50
100
AcDbLine
 10
467.042111
 20
348.265008
 30
0.0
 11
474.042118
 21
348.265008
 31
0.0
  0
LINE
  5
496
330
1F
100
AcDbEntity
  8
LC-002-100-D00-0
 62
     7
370
    50
100
AcDbLine
 10
474.042118
 20
348.265008
 30
0.0
 11
474.042118
 21
344.765008
 31
0.0
  0
LINE
  5
497
330
1F
100
AcDbEntity
  8
LC-002-100-D00-0
 62
     7
370
    50
100
AcDbLine
 10
331.042298
 20
348.765007
 30
0.0
 11
336.042308
 21
348.765007
 31
0.0
  0
LINE
  5
498
330
1F
100
AcDbEntity
  8
LC-002-100-D00-0
 62
     7
370
    50
100
AcDbLine
 10
446.04208
 20
348.765007
 30
0.0
 11
451.04209
 21
348.765007
 31
0.0
  0
LINE
  5
499
330
1F
100
AcDbEntity
  8
LC-002-100-D00-0
 62
     7
370
    50
100
AcDbLine
 10
451.04209
 20
348.765007
 30
0.0
 11
451.04209
 21
322.000003
 31
0.0
  0
INSERT
  5
4AD
330
1F
100
AcDbEntity
  8
LC-002-100-D00-0
 62
     7
370
    50
100
AcDbBlockReference
  2
POLY35
 10
0.0
 20
0.0
 30
0.0
  0
LINE
  5
4AE
330
1F
100
AcDbEntity
  8
LC-002-100-D00-0
 62
     7
370
    50
100
AcDbLine
 10
413.04191
 20
326.500003
 30
0.0
 11
413.04191
 21
204.000002
 31
0.0
  0
LINE
  5
4AF
330
1F
100
AcDbEntity
  8
LC-002-100-D00-0
 62
     7
370
    50
100
AcDbLine
 10
373.042195
 20
326.500003
 30
0.0
 11
399.274419
 21
326.500003
 31
0.0
  0
LINE
  5
4B0
330
1F
100
AcDbEntity
  8
LC-002-100-D00-0
 62
     7
370
    50
100
AcDbLine
 10
402.80997
 20
326.500003
 30
0.0
 11
413.04191
 21
326.500003
 31
0.0
  0
LINE
  5
4B1
330
1F
100
AcDbEntity
  8
LC-002-100-D00-0
 62
     7
370
    50
100
AcDbLine
 10
369.042479
 20
204.000002
 30
0.0
 11
413.04191
 21
204.000002
 31
0.0
  0
LINE
  5
4B2
330
1F
100
AcDbEntity
  8
LC-002-100-D00-0
 62
     7
370
    50
100
AcDbLine
 10
452.042196
 20
349.76508
 30
0.0
 11
451.04209
 21
348.765007
 31
0.0
  0
LINE
  5
4B3
330
1F
100
AcDbEntity
  8
LC-002-100-D00-0
 62
     7
370
    50
100
AcDbLine
 10
455.753316
 20
348.265008
 30
0.0
 11
455.042098
 21
348.265008
 31
0.0
  0
LINE
  5
4B4
330
1F
100
AcDbEntity
  8
LC-002-100-D00-0
 62
     7
370
    50
100
AcDbLine
 10
456.041988
 20
348.765007
 30
0.0
 11
455.753316
 21
348.265008
 31
0.0
  0
LINE
  5
4B5
330
1F
100
AcDbEntity
  8
LC-002-100-D00-0
 62
     7
370
    50
100
AcDbLine
 10
456.043452
 20
348.762477
 30
0.0
 11
456.041988
 21
348.765007
 31
0.0
  0
LINE
  5
4B6
330
1F
100
AcDbEntity
  8
LC-002-100-D00-0
 62
     7
370
    50
100
AcDbLine
 10
456.043452
 20
348.762477
 30
0.0
 11
456.043452
 21
348.265008
 31
0.0
  0
LINE
  5
4B7
330
1F
100
AcDbEntity
  8
LC-002-100-D00-0
 62
     7
370
    50
100
AcDbLine
 10
458.544709
 20
348.265008
 30
0.0
 11
456.043452
 21
348.265008
 31
0.0
  0
LINE
  5
4B8
330
1F
100
AcDbEntity
  8
LC-002-100-D00-0
 62
     7
370
    50
100
AcDbLine
 10
458.544709
 20
335.765008
 30
0.0
 11
458.544709
 21
348.265008
 31
0.0
  0
LINE
  5
4B9
330
1F
100
AcDbEntity
  8
LC-002-100-D00-0
 62
     7
370
    50
100
AcDbLine
 10
459.045336
 20
335.265007
 30
0.0
 11
458.544709
 21
335.765008
 31
0.0
  0
LINE
  5
4BA
330
1F
100
AcDbEntity
  8
LC-002-100-D00-0
 62
     7
370
    50
100
AcDbLine
 10
459.045336
 20
335.265007
 30
0.0
 11
463.039052
 21
335.265007
 31
0.0
  0
LINE
  5
4BB
330
1F
100
AcDbEntity
  8
LC-002-100-D00-0
 62
     7
370
    50
100
AcDbLine
 10
463.539683
 20
335.765008
 30
0.0
 11
463.039052
 21
335.265007
 31
0.0
  0
LINE
  5
4BC
330
1F
100
AcDbEntity
  8
LC-002-100-D00-0
 62
     7
370
    50
100
AcDbLine
 10
463.539683
 20
348.265008
 30
0.0
 11
463.539683
 21
335.765008
 31
0.0
  0
LINE
  5
4BD
330
1F
100
AcDbEntity
  8
LC-002-100-D00-0
 62
     7
370
    50
100
AcDbLine
 10
466.04094
 20
348.265008
 30
0.0
 11
463.539683
 21
348.265008
 31
0.0
  0
LINE
  5
4BE
330
1F
100
AcDbEntity
  8
LC-002-100-D00-0
 62
     7
370
    50
100
AcDbLine
 10
466.04094
 20
348.265008
 30
0.0
 11
466.04094
 21
348.762977
 31
0.0
  0
LINE
  5
4BF
330
1F
100
AcDbEntity
  8
LC-002-100-D00-0
 62
     7
370
    50
100
AcDbLine
 10
466.042113
 20
348.765007
 30
0.0
 11
466.04094
 21
348.762977
 31
0.0
  0
LINE
  5
4C0
330
1F
100
AcDbEntity
  8
LC-002-100-D00-0
 62
     7
370
    50
100
AcDbLine
 10
466.330786
 20
348.265008
 30
0.0
 11
466.042113
 21
348.765007
 31
0.0
  0
LINE
  5
4C1
330
1F
100
AcDbEntity
  8
LC-002-100-D00-0
 62
     7
370
    50
100
AcDbLine
 10
476.042122
 20
348.265008
 30
0.0
 11
474.042118
 21
348.265008
 31
0.0
  0
LINE
  5
4C2
330
1F
100
AcDbEntity
  8
LC-002-100-D00-0
 62
     7
370
    50
100
AcDbLine
 10
496.201382
 20
354.428307
 30
0.0
 11
476.042122
 21
348.265008
 31
0.0
  0
LINE
  5
4C3
330
1F
100
AcDbEntity
  8
LC-002-100-D00-0
 62
     7
370
    50
100
AcDbLine
 10
505.542137
 20
351.187541
 30
0.0
 11
496.560105
 21
350.878059
 31
0.0
  0
LINE
  5
4C4
330
1F
100
AcDbEntity
  8
LC-002-100-D00-0
 62
     7
370
    50
100
AcDbLine
 10
496.560105
 20
350.878059
 30
0.0
 11
476.693392
 21
344.8042
 31
0.0
  0
LINE
  5
4C5
330
1F
100
AcDbEntity
  8
LC-002-100-D00-0
 62
     7
370
    50
100
AcDbLine
 10
476.693392
 20
344.8042
 30
0.0
 11
474.01499
 21
342.425461
 31
0.0
  0
LINE
  5
4C6
330
1F
100
AcDbEntity
  8
LC-002-100-D00-0
 62
     7
370
    50
100
AcDbLine
 10
474.01499
 20
342.425461
 30
0.0
 11
467.04115
 21
342.425461
 31
0.0
  0
LINE
  5
4C7
330
1F
100
AcDbEntity
  8
LC-002-100-D00-0
 62
     7
370
    50
100
AcDbLine
 10
467.04115
 20
332.92546
 30
0.0
 11
467.04115
 21
342.425461
 31
0.0
  0
LINE
  5
4C8
330
1F
100
AcDbEntity
  8
LC-002-100-D00-0
 62
     7
370
    50
100
AcDbLine
 10
467.04115
 20
332.92546
 30
0.0
 11
463.937976
 21
332.92546
 31
0.0
  0
ARC
  5
4C9
330
1F
100
AcDbEntity
  8
LC-002-100-D00-0
 62
     7
370
    50
100
AcDbCircle
 10
461.042195
 20
337.000003
 30
0.0
 40
4.998744211400578
100
AcDbArc
 50
234.598565
 51
305.401435
  0
LINE
  5
4CA
330
1F
100
AcDbEntity
  8
LC-002-100-D00-0
 62
     7
370
    50
100
AcDbLine
 10
458.146416
 20
332.92546
 30
0.0
 11
454.042096
 21
332.92546
 31
0.0
  0
INSERT
  5
4DE
330
1F
100
AcDbEntity
  8
LC-002-100-D00-0
 62
     7
370
    50
100
AcDbBlockReference
  2
POLY36
 10
0.0
 20
0.0
 30
0.0
  0
LINE
  5
4DF
330
1F
100
AcDbEntity
  8
LC-002-100-D00-0
 62
     7
370
    50
100
AcDbLine
 10
446.04208
 20
319.000003
 30
0.0
 11
451.04209
 21
319.000003
 31
0.0
  0
INSERT
  5
4F1
330
1F
100
AcDbEntity
  8
LC-002-100-D00-0
 62
     7
370
    50
100
AcDbBlockReference
  2
POLY37
 10
0.0
 20
0.0
 30
0.0
  0
LINE
  5
4F2
330
1F
100
AcDbEntity
  8
LC-002-100-D00-0
 62
     7
370
    50
100
AcDbLine
 10
416.041944
 20
262.000001
 30
0.0
 11
439.802207
 21
262.000001
 31
0.0
  0
LINE
  5
4F3
330
1F
100
AcDbEntity
  8
LC-002-100-D00-0
 62
     7
370
    50
100
AcDbLine
 10
417.041953
 20
264.500002
 30
0.0
 11
437.472042
 21
264.500002
 31
0.0
  0
INSERT
  5
505
330
1F
100
AcDbEntity
  8
LC-002-100-D00-0
 62
     7
370
    50
100
AcDbBlockReference
  2
POLY38
 10
0.0
 20
0.0
 30
0.0
  0
INSERT
  5
50B
330
1F
100
AcDbEntity
  8
LC-002-100-D00-0
 62
     7
370
    50
100
AcDbBlockReference
  2
KLON5
 10
0.0
 20
0.0
 30
0.0
  0
INSERT
  5
517
330
1F
100
AcDbEntity
  8
LC-002-100-D00-0
 62
     7
370
    50
100
AcDbBlockReference
  2
POLY39
 10
0.0
 20
0.0
 30
0.0
  0
LINE
  5
518
330
1F
100
AcDbEntity
  8
LC-002-100-D00-0
 62
     7
370
    50
100
AcDbLine
 10
443.042074
 20
276.893752
 30
0.0
 11
443.042074
 21
322.000003
 31
0.0
  0
LINE
  5
519
330
1F
100
AcDbEntity
  8
LC-002-100-D00-0
 62
     7
370
    50
100
AcDbLine
 10
415.541939
 20
326.500003
 30
0.0
 11
413.04191
 21
326.500003
 31
0.0
  0
LINE
  5
51A
330
1F
100
AcDbEntity
  8
LC-002-100-D00-0
 62
     7
370
    50
100
AcDbLine
 10
415.104112
 20
204.000002
 30
0.0
 11
413.04191
 21
204.000002
 31
0.0
  0
LINE
  5
51B
330
1F
100
AcDbEntity
  8
LC-002-100-D00-0
 62
     7
370
    50
100
AcDbLine
 10
415.541939
 20
266.000001
 30
0.0
 11
415.541939
 21
326.500003
 31
0.0
  0
LINE
  5
51C
330
1F
100
AcDbEntity
  8
LC-002-100-D00-0
 62
     7
370
    50
100
AcDbLine
 10
416.041944
 20
207.500002
 30
0.0
 11
416.041944
 21
262.000001
 31
0.0
  0
INSERT
  5
522
330
1F
100
AcDbEntity
  8
LC-002-100-D00-0
 62
     7
370
    50
100
AcDbBlockReference
  2
KLON6
 10
0.0
 20
0.0
 30
0.0
  0
INSERT
  5
528
330
1F
100
AcDbEntity
  8
LC-002-100-D00-0
 62
     7
370
    50
100
AcDbBlockReference
  2
KLON7
 10
0.0
 20
0.0
 30
0.0
  0
LINE
  5
529
330
1F
100
AcDbEntity
  8
LC-002-100-D00-0
 62
     7
370
    50
100
AcDbLine
 10
446.04208
 20
276.696271
 30
0.0
 11
446.04208
 21
319.000003
 31
0.0
  0
LINE
  5
52A
330
1F
100
AcDbEntity
  8
LC-002-100-D00-0
 62
     7
370
    50
100
AcDbLine
 10
451.04209
 20
322.000003
 30
0.0
 11
443.042074
 21
322.000003
 31
0.0
  0
LINE
  5
52B
330
1F
100
AcDbEntity
  8
LC-002-100-D00-0
 62
     7
370
    50
100
AcDbLine
 10
454.042096
 20
332.92546
 30
0.0
 11
454.042096
 21
322.000003
 31
0.0
  0
LINE
  5
52C
330
1F
100
AcDbEntity
  8
LC-002-100-D00-0
 62
     7
370
    50
100
AcDbLine
 10
455.042098
 20
348.265008
 30
0.0
 11
455.042098
 21
349.76508
 31
0.0
  0
LINE
  5
52D
330
1F
100
AcDbEntity
  8
LC-002-100-D00-0
 62
     7
370
    50
100
AcDbLine
 10
452.042196
 20
349.76508
 30
0.0
 11
455.042098
 21
349.76508
 31
0.0
  0
LINE
  5
52E
330
1F
100
AcDbEntity
  8
LC-002-100-D00-0
 62
     7
370
    50
100
AcDbLine
 10
467.042111
 20
344.765008
 30
0.0
 11
467.042111
 21
348.265008
 31
0.0
  0
LINE
  5
52F
330
1F
100
AcDbEntity
  8
LC-002-100-D00-0
 62
     7
370
    50
100
AcDbLine
 10
467.042111
 20
348.265008
 30
0.0
 11
466.330786
 21
348.265008
 31
0.0
  0
LINE
  5
530
330
1F
100
AcDbEntity
  8
LC-002-100-D00-0
 62
     7
370
    50
100
AcDbLine
 10
474.042118
 20
344.765008
 30
0.0
 11
467.042111
 21
344.765008
 31
0.0
  0
LINE
  5
531
330
1F
100
AcDbEntity
  8
LC-002-100-D00-0
 62
     7
370
    50
100
AcDbLine
 10
505.542137
 20
351.187541
 30
0.0
 11
505.542137
 21
352.670517
 31
0.0
  0
LINE
  5
532
330
1F
100
AcDbEntity
  8
LC-002-100-D00-0
 62
     7
370
    50
100
AcDbLine
 10
339.042314
 20
322.000003
 30
0.0
 11
351.542354
 21
322.000003
 31
0.0
  0
LINE
  5
533
330
1F
100
AcDbEntity
  8
LC-002-100-D00-0
 62
     7
370
    50
100
AcDbLine
 10
430.542035
 20
322.000003
 30
0.0
 11
443.042074
 21
322.000003
 31
0.0
  0
LINE
  5
534
330
1F
100
AcDbEntity
  8
LC-002-100-D00-0
 62
     7
370
    50
100
AcDbLine
 10
318.544709
 20
335.765008
 30
0.0
 11
323.539682
 21
335.765008
 31
0.0
  0
LINE
  5
535
330
1F
100
AcDbEntity
  8
LC-002-100-D00-0
 62
     7
370
    50
100
AcDbLine
 10
323.539682
 20
348.265008
 30
0.0
 11
318.544709
 21
348.265008
 31
0.0
  0
LINE
  5
536
330
1F
100
AcDbEntity
  8
LC-002-100-D00-0
 62
     7
370
    50
100
AcDbLine
 10
458.544709
 20
335.765008
 30
0.0
 11
463.539683
 21
335.765008
 31
0.0
  0
LINE
  5
537
330
1F
100
AcDbEntity
  8
LC-002-100-D00-0
 62
     7
370
    50
100
AcDbLine
 10
463.539683
 20
348.265008
 30
0.0
 11
458.544709
 21
348.265008
 31
0.0
  0
LINE
  5
538
330
1F
100
AcDbEntity
  8
LC-002-100-D00-0
 62
     7
370
    15
100
AcDbLine
 10
1112.332224
 20
570.134914
 30
0.0
 11
1212.650827
 21
570.134914
 31
0.0
  0
INSERT
  5
546
330
1F
100
AcDbEntity
  8
LC-002-100-D00-0
 62
     7
370
    50
100
AcDbBlockReference
  2
POLY40
 10
0.0
 20
0.0
 30
0.0
  0
LINE
  5
547
330
1F
100
AcDbEntity
  8
LC-002-100-D00-0
 62
     7
370
    50
100
AcDbLine
 10
326.042399
 20
348.765007
 30
0.0
 11
327.04229
 21
348.765007
 31
0.0
  0
LINE
  5
548
330
1F
100
AcDbEntity
  8
LC-002-100-D00-0
 62
     7
370
    50
100
AcDbLine
 10
455.042098
 20
348.765007
 30
0.0
 11
456.041988
 21
348.765007
 31
0.0
  0
INSERT
  5
554
330
1F
100
AcDbEntity
  8
LC-002-100-D00-0
 62
     7
370
    50
100
AcDbBlockReference
  2
POLY41
 10
0.0
 20
0.0
 30
0.0
  0
LINE
  5
555
330
1F
100
AcDbEntity
  8
LC-002-100-D00-0
 62
     7
370
    50
100
AcDbLine
 10
316.042282
 20
348.765007
 30
0.0
 11
318.156481
 21
348.765007
 31
0.0
  0
LINE
  5
556
330
1F
100
AcDbEntity
  8
LC-002-100-D00-0
 62
     7
370
    50
100
AcDbLine
 10
446.04208
 20
349.76508
 30
0.0
 11
452.042196
 21
349.76508
 31
0.0
  0
LINE
  5
557
330
1F
100
AcDbEntity
  8
LC-002-100-D00-0
 62
     7
370
    50
100
AcDbLine
 10
330.108755
 20
349.76508
 30
0.0
 11
336.042308
 21
349.76508
 31
0.0
  0
INSERT
  5
563
330
1F
100
AcDbEntity
  8
LC-002-100-D00-0
 62
     7
370
    50
100
AcDbBlockReference
  2
POLY42
 10
0.0
 20
0.0
 30
0.0
  0
LINE
  5
564
330
1F
100
AcDbEntity
  8
LC-002-100-D00-0
 62
     7
370
    50
100
AcDbLine
 10
330.042296
 20
352.76508
 30
0.0
 11
330.108859
 21
352.76508
 31
0.0
  0
LINE
  5
565
330
1F
100
AcDbEntity
  8
LC-002-100-D00-0
 62
     7
370
    50
100
AcDbLine
 10
330.042296
 20
349.76508
 30
0.0
 11
330.108859
 21
349.76508
 31
0.0
  0
LINE
  5
566
330
1F
100
AcDbEntity
  8
LC-002-100-D00-0
 62
     7
370
    50
100
AcDbLine
 10
330.108859
 20
352.76508
 30
0.0
 11
330.108859
 21
349.76508
 31
0.0
  0
INSERT
  5
574
330
1F
100
AcDbEntity
  8
LC-002-100-D00-0
 62
     7
370
    50
100
AcDbBlockReference
  2
POLY43
 10
0.0
 20
0.0
 30
0.0
  0
LINE
  5
575
330
1F
100
AcDbEntity
  8
LC-002-100-D00-0
 62
     7
370
    50
100
AcDbLine
 10
463.92791
 20
348.765007
 30
0.0
 11
466.042113
 21
348.765007
 31
0.0
  0
LINE
  5
576
330
1F
100
AcDbEntity
  8
LC-002-100-D00-0
 62
     7
370
    50
100
AcDbLine
 10
324.156583
 20
348.765007
 30
0.0
 11
323.879689
 21
348.265008
 31
0.0
  0
LINE
  5
577
330
1F
100
AcDbEntity
  8
LC-002-100-D00-0
 62
     7
370
    50
100
AcDbLine
 10
324.432292
 20
348.265008
 30
0.0
 11
324.156583
 21
348.765007
 31
0.0
  0
LINE
  5
578
330
1F
100
AcDbEntity
  8
LC-002-100-D00-0
 62
     7
370
    50
100
AcDbLine
 10
324.156583
 20
348.765007
 30
0.0
 11
326.042399
 21
348.765007
 31
0.0
  0
LINE
  5
579
330
1F
100
AcDbEntity
  8
LC-002-100-D00-0
 62
     7
370
    50
100
AcDbLine
 10
456.041988
 20
348.765007
 30
0.0
 11
457.927805
 21
348.765007
 31
0.0
  0
LINE
  5
57A
330
1F
100
AcDbEntity
  8
LC-002-100-D00-0
 62
     7
370
    50
100
AcDbLine
 10
457.927805
 20
348.765007
 30
0.0
 11
457.6521
 21
348.265008
 31
0.0
  0
LINE
  5
57B
330
1F
100
AcDbEntity
  8
LC-002-100-D00-0
 62
     7
370
    50
100
AcDbLine
 10
458.204702
 20
348.265008
 30
0.0
 11
457.927805
 21
348.765007
 31
0.0
  0
LINE
  5
57C
330
1F
100
AcDbEntity
  8
LC-002-100-D00-0
 62
     7
370
    50
100
AcDbLine
 10
318.456933
 20
348.265008
 30
0.0
 11
318.156481
 21
348.765007
 31
0.0
  0
LINE
  5
57D
330
1F
100
AcDbEntity
  8
LC-002-100-D00-0
 62
     7
370
    50
100
AcDbLine
 10
318.156481
 20
348.765007
 30
0.0
 11
317.854837
 21
348.265008
 31
0.0
  0
LINE
  5
57E
330
1F
100
AcDbEntity
  8
LC-002-100-D00-0
 62
     7
370
    50
100
AcDbLine
 10
463.92791
 20
348.765007
 30
0.0
 11
463.627458
 21
348.265008
 31
0.0
  0
LINE
  5
57F
330
1F
100
AcDbEntity
  8
LC-002-100-D00-0
 62
     7
370
    50
100
AcDbLine
 10
464.229551
 20
348.265008
 30
0.0
 11
463.92791
 21
348.765007
 31
0.0
  0
LINE
  5
580
330
1F
100
AcDbEntity
  8
LC-002-100-D00-0
 62
     7
370
    50
100
AcDbLine
 10
318.156481
 20
348.765007
 30
0.0
 11
320.213624
 21
348.765007
 31
0.0
  0
LINE
  5
581
330
1F
100
AcDbEntity
  8
LC-002-100-D00-0
 62
     7
370
    50
100
AcDbLine
 10
461.870768
 20
348.765007
 30
0.0
 11
463.92791
 21
348.765007
 31
0.0
  0
LINE
  5
582
330
1F
100
AcDbEntity
  8
LC-002-100-D00-0
 62
     7
370
    50
100
AcDbLine
 10
322.497577
 20
348.265008
 30
0.0
 11
322.21362
 21
348.765007
 31
0.0
  0
LINE
  5
583
330
1F
100
AcDbEntity
  8
LC-002-100-D00-0
 62
     7
370
    50
100
AcDbLine
 10
322.21362
 20
348.765007
 30
0.0
 11
324.156583
 21
348.765007
 31
0.0
  0
LINE
  5
584
330
1F
100
AcDbEntity
  8
LC-002-100-D00-0
 62
     7
370
    50
100
AcDbLine
 10
322.21362
 20
348.765007
 30
0.0
 11
321.928479
 21
348.265008
 31
0.0
  0
LINE
  5
585
330
1F
100
AcDbEntity
  8
LC-002-100-D00-0
 62
     7
370
    50
100
AcDbLine
 10
460.155912
 20
348.265008
 30
0.0
 11
459.870771
 21
348.765007
 31
0.0
  0
LINE
  5
586
330
1F
100
AcDbEntity
  8
LC-002-100-D00-0
 62
     7
370
    50
100
AcDbLine
 10
459.870771
 20
348.765007
 30
0.0
 11
459.586811
 21
348.265008
 31
0.0
  0
LINE
  5
587
330
1F
100
AcDbEntity
  8
LC-002-100-D00-0
 62
     7
370
    50
100
AcDbLine
 10
457.927805
 20
348.765007
 30
0.0
 11
459.870771
 21
348.765007
 31
0.0
  0
LINE
  5
588
330
1F
100
AcDbEntity
  8
LC-002-100-D00-0
 62
     7
370
    50
100
AcDbLine
 10
320.213624
 20
348.765007
 30
0.0
 11
319.920227
 21
348.265008
 31
0.0
  0
LINE
  5
589
330
1F
100
AcDbEntity
  8
LC-002-100-D00-0
 62
     7
370
    50
100
AcDbLine
 10
320.505828
 20
348.265008
 30
0.0
 11
320.213624
 21
348.765007
 31
0.0
  0
LINE
  5
58A
330
1F
100
AcDbEntity
  8
LC-002-100-D00-0
 62
     7
370
    50
100
AcDbLine
 10
461.870768
 20
348.765007
 30
0.0
 11
461.578563
 21
348.265008
 31
0.0
  0
LINE
  5
58B
330
1F
100
AcDbEntity
  8
LC-002-100-D00-0
 62
     7
370
    50
100
AcDbLine
 10
462.16416
 20
348.265008
 30
0.0
 11
461.870768
 21
348.765007
 31
0.0
  0
LINE
  5
58C
330
1F
100
AcDbEntity
  8
LC-002-100-D00-0
 62
     7
370
    50
100
AcDbLine
 10
320.213624
 20
348.765007
 30
0.0
 11
322.21362
 21
348.765007
 31
0.0
  0
LINE
  5
58D
330
1F
100
AcDbEntity
  8
LC-002-100-D00-0
 62
     7
370
    50
100
AcDbLine
 10
459.870771
 20
348.765007
 30
0.0
 11
461.870768
 21
348.765007
 31
0.0
  0
LINE
  5
58E
330
1F
100
AcDbEntity
  8
LC-002-100-D00-0
 62
     7
370
    50
100
AcDbLine
 10
373.042195
 20
329.500003
 30
0.0
 11
399.251746
 21
329.500003
 31
0.0
  0
LINE
  5
58F
330
1F
100
AcDbEntity
  8
LC-002-100-D00-0
 62
     7
370
    50
100
AcDbLine
 10
347.542193
 20
445.5
 30
0.0
 11
347.542193
 21
445.449493
 31
0.0
  0
LINE
  5
590
330
1F
100
AcDbEntity
  8
LC-002-100-D00-0
 62
     7
370
    50
100
AcDbLine
 10
434.542194
 20
445.449493
 30
0.0
 11
434.542194
 21
445.5
 31
0.0
  0
LINE
  5
591
330
1F
100
AcDbEntity
  8
LC-002-100-D00-0
 62
     7
370
    50
100
AcDbLine
 10
434.542194
 20
445.5
 30
0.0
 11
434.042195
 21
445.5
 31
0.0
  0
LINE
  5
592
330
1F
100
AcDbEntity
  8
LC-002-100-D00-0
 62
     7
370
    50
100
AcDbLine
 10
278.608501
 20
354.669419
 30
0.0
 11
336.042308
 21
354.669419
 31
0.0
  0
LINE
  5
593
330
1F
100
AcDbEntity
  8
LC-002-100-D00-0
 62
     7
370
    50
100
AcDbLine
 10
446.04208
 20
354.669419
 30
0.0
 11
503.475883
 21
354.669419
 31
0.0
  0
LINE
  5
594
330
1F
100
AcDbEntity
  8
LC-002-100-D00-0
 62
     7
370
    50
100
AcDbLine
 10
339.042314
 20
276.893752
 30
0.0
 11
351.542354
 21
276.893752
 31
0.0
  0
LINE
  5
595
330
1F
100
AcDbEntity
  8
LC-002-100-D00-0
 62
     7
370
    50
100
AcDbLine
 10
430.542035
 20
276.893752
 30
0.0
 11
443.042074
 21
276.893752
 31
0.0
  0
LINE
  5
596
330
1F
100
AcDbEntity
  8
LC-002-100-D00-0
 62
     7
370
    50
100
AcDbLine
 10
442.990959
 20
276.505517
 30
0.0
 11
430.542035
 21
276.505517
 31
0.0
  0
LINE
  5
597
330
1F
100
AcDbEntity
  8
LC-002-100-D00-0
 62
     7
370
    50
100
AcDbLine
 10
351.542354
 20
276.505517
 30
0.0
 11
339.093432
 21
276.505517
 31
0.0
  0
INSERT
  5
59E
330
1F
100
AcDbEntity
  8
LC-002-100-D00-0
 62
     7
370
    50
100
AcDbBlockReference
  2
KLON8
 10
0.0
 20
0.0
 30
0.0
  0
INSERT
  5
5A5
330
1F
100
AcDbEntity
  8
LC-002-100-D00-0
 62
     7
370
    50
100
AcDbBlockReference
  2
KLON9
 10
0.0
 20
0.0
 30
0.0
  0
LINE
  5
5A6
330
1F
100
AcDbEntity
  8
LC-002-100-D00-0
 62
     7
370
    25
100
AcDbLine
 10
434.230347
 20
443.982143
 30
0.0
 11
435.367814
 21
445.11961
 31
0.0
  0
INSERT
  5
5AF
330
1F
100
AcDbEntity
  8
LC-002-100-D00-0
 62
     7
370
    25
100
AcDbBlockReference
  2
KLON10
 10
0.0
 20
0.0
 30
0.0
  0
LINE
  5
5B0
330
1F
100
AcDbEntity
  8
LC-002-100-D00-0
 62
     7
370
    25
100
AcDbLine
 10
350.925902
 20
441.500003
 30
0.0
 11
352.042195
 21
442.616296
 31
0.0
  0
LINE
  5
5B1
330
1F
100
AcDbEntity
  8
LC-002-100-D00-0
 62
     7
370
    25
100
AcDbLine
 10
362.178004
 20
443.771849
 30
0.0
 11
363.240634
 21
444.834479
 31
0.0
  0
LINE
  5
5B2
330
1F
100
AcDbEntity
  8
LC-002-100-D00-0
 62
     7
370
    25
100
AcDbLine
 10
422.767951
 20
441.500003
 30
0.0
 11
424.042195
 21
442.774247
 31
0.0
  0
INSERT
  5
5B9
330
1F
100
AcDbEntity
  8
LC-002-100-D00-0
 62
     7
370
    25
100
AcDbBlockReference
  2
KLON11
 10
0.0
 20
0.0
 30
0.0
  0
INSERT
  5
5C0
330
1F
100
AcDbEntity
  8
LC-002-100-D00-0
 62
     7
370
    25
100
AcDbBlockReference
  2
KLON12
 10
0.0
 20
0.0
 30
0.0
  0
DIMENSION
  5
5C4
330
1F
100
AcDbEntity
  8
LC-003-101-D00-0
 62
     7
370
    25
100
AcDbDimension
  2
*D56
 10
416.041944
 20
188.731916
 30
0.0
 11
391.042198
 21
219.531916
 31
0.0
 70
   160
  1
DN50
 71
     5
 42
49.999498
  3
LC-DIM-L-0140-02-02
100
AcDbAlignedDimension
 13
366.042446
 23
207.500003
 33
0.0
 14
416.041944
 24
207.500003
 34
0.0
100
AcDbRotatedDimension
  0
DIMENSION
  5
5D4
330
1F
100
AcDbEntity
  8
LC-003-101-D00-0
 62
     7
370
    25
100
AcDbDimension
  2
*D57
 10
265.429211
 20
204.000003
 30
0.0
 11
234.629211
 21
222.75
 31
0.0
 70
   160
  1
58
 71
     5
 42
58.0
 53
90.0
  3
LC-DIM-L-0140-02-02
100
AcDbAlignedDimension
 13
342.282183
 23
262.000003
 33
0.0
 14
366.980278
 24
204.000003
 34
0.0
 50
90.0
100
AcDbRotatedDimension
  0
DIMENSION
  5
5E3
330
1F
100
AcDbEntity
  8
LC-003-101-D00-0
 62
     7
370
    25
100
AcDbDimension
  2
*D58
 10
304.991972
 20
326.500003
 30
0.0
 11
274.191972
 21
283.338
 31
0.0
 70
   160
  1
50
 71
     5
 42
50.0
 53
90.0
  3
LC-DIM-L-0140-02-02
100
AcDbAlignedDimension
 13
351.542348
 23
276.500003
 33
0.0
 14
366.542445
 24
326.500003
 34
0.0
 50
90.0
100
AcDbRotatedDimension
  0
INSERT
  5
668
330
1F
100
AcDbEntity
  8
LC-002-100-D00-0
 62
     7
370
    25
100
AcDbBlockReference
  2
*X159
 10
0.0
 20
0.0
 30
0.0
  0
INSERT
  5
6D8
330
1F
100
AcDbEntity
  8
LC-002-100-D00-0
 62
     7
370
    25
100
AcDbBlockReference
  2
*X260
 10
0.0
 20
0.0
 30
0.0
  0
INSERT
  5
703
330
1F
100
AcDbEntity
  8
LC-002-100-D00-0
 62
     7
370
    25
100
AcDbBlockReference
  2
*X361
 10
0.0
 20
0.0
 30
0.0
  0
INSERT
  5
732
330
1F
100
AcDbEntity
  8
LC-002-100-D00-0
 62
     7
370
    25
100
AcDbBlockReference
  2
*X462
 10
0.0
 20
0.0
 30
0.0
  0
DIMENSION
  5
734
330
1F
100
AcDbEntity
  8
LC-004-003-----0
 62
     7
370
    25
100
AcDbDimension
  2
*D63
 10
554.329376
 20
446.000003
 30
0.0
 11
523.529376
 21
393.822
 31
0.0
 70
   160
  1
15-91
 71
     5
 42
91.329485
 53
90.0
  3
LC-DIM-L-0140-02-02
100
AcDbAlignedDimension
 13
503.542193
 23
354.670518
 33
0.0
 14
438.042195
 24
446.000003
 34
0.0
 50
90.0
100
AcDbRotatedDimension
  0
DIMENSION
  5
741
330
1F
100
AcDbEntity
  8
LC-004-003-----0
 62
     7
370
    25
100
AcDbDimension
  2
*D64
 10
440.542195
 20
459.162
 30
0.0
 11
397.918459
 21
489.962
 31
0.0
 70
   160
  1
100
 71
     5
 42
98.999999
  3
LC-DIM-L-0140-02-02
100
AcDbAlignedDimension
 13
341.542196
 23
445.5
 33
0.0
 14
440.542195
 24
445.5
 34
0.0
100
AcDbRotatedDimension
  0
DIMENSION
  5
74E
330
1F
100
AcDbEntity
  8
LC-004-003-----0
 62
     7
370
    25
100
AcDbDimension
  2
*D65
 10
446.04208
 20
130.086
 30
0.0
 11
385.03756
 21
160.886
 31
0.0
 70
   160
  1
%%c<>
 71
     5
 42
109.999772
  3
LC-DIM-L-0140-02-02
100
AcDbAlignedDimension
 13
336.042308
 23
276.696271
 33
0.0
 14
446.04208
 24
276.696271
 34
0.0
100
AcDbRotatedDimension
  0
DIMENSION
  5
75B
330
1F
100
AcDbEntity
  8
LC-004-003-----0
 62
     7
370
    25
100
AcDbDimension
  2
*D66
 10
454.042096
 20
75.438
 30
0.0
 11
385.03756
 21
106.238
 31
0.0
 70
   160
  1
%%c126
 71
     5
 42
125.966451
  3
LC-DIM-L-0140-02-02
100
AcDbAlignedDimension
 13
328.075645
 23
321.333159
 33
0.0
 14
454.042096
 24
322.000003
 34
0.0
100
AcDbRotatedDimension
  0
DIMENSION
  5
768
330
1F
100
AcDbEntity
  8
LC-004-003-----0
 62
     7
370
    25
100
AcDbDimension
  2
*D67
 10
505.542137
 20
511.434
 30
0.0
 11
390.557945
 21
542.234
 31
0.0
 70
   160
  1
%%c230
 71
     5
 42
228.99989
  3
LC-DIM-L-0140-02-02
100
AcDbAlignedDimension
 13
276.542247
 23
351.187541
 33
0.0
 14
505.542137
 24
351.187541
 34
0.0
100
AcDbRotatedDimension
  0
DIMENSION
  5
775
330
1F
100
AcDbEntity
  8
LC-004-003-----0
 62
     7
370
    25
100
AcDbDimension
  2
*D68
 10
230.227324
 20
262.02426
 30
0.0
 11
199.427324
 21
314.009344
 31
0.0
 70
   160
  1
90
 71
     5
 42
89.163281
 53
90.0
  3
LC-DIM-L-0140-02-02
100
AcDbAlignedDimension
 13
276.542247
 23
351.187541
 33
0.0
 14
341.994025
 24
262.02426
 34
0.0
 50
90.0
100
AcDbRotatedDimension
  0
ENDSEC
  0
SECTION
  2
OBJECTS
  0
DICTIONARY
  5
C
330
0
100
AcDbDictionary
281
     1
  3
ACAD_GROUP
350
D
  3
ACAD_LAYOUT
350
1A
  3
ACAD_MLINESTYLE
350
17
  3
ACAD_PLOTSETTINGS
350
19
  3
ACAD_PLOTSTYLENAME
350
E
  0
DICTIONARY
  5
D
102
{ACAD_REACTORS
330
C
102
}
330
C
100
AcDbDictionary
281
     1
  0
DICTIONARY
  5
1A
102
{ACAD_REACTORS
330
C
102
}
330
C
100
AcDbDictionary
281
     1
  3
Layout1
350
1E
  3
Layout2
350
26
  3
Model
350
22
  0
DICTIONARY
  5
17
102
{ACAD_REACTORS
330
C
102
}
330
C
100
AcDbDictionary
281
     1
  3
Standard
350
18
  0
DICTIONARY
  5
19
102
{ACAD_REACTORS
330
C
102
}
330
C
100
AcDbDictionary
281
     1
  0
ACDBDICTIONARYWDFLT
  5
E
102
{ACAD_REACTORS
330
C
102
}
330
C
100
AcDbDictionary
281
     1
  3
Normal
350
F
100
AcDbDictionaryWithDefault
340
F
  0
LAYOUT
  5
1E
102
{ACAD_REACTORS
330
1A
102
}
330
1A
100
AcDbPlotSettings
  1

  2

  4

  6

 40
0.0
 41
0.0
 42
0.0
 43
0.0
 44
0.0
 45
0.0
 46
0.0
 47
0.0
 48
0.0
 49
0.0
140
0.0
141
0.0
142
1.0
143
1.0
 70
   688
 72
     0
 73
     0
 74
     5
  7

 75
    16
147
1.0
148
0.0
149
0.0
100
AcDbLayout
  1
Layout1
 70
     1
 71
     1
 10
0.0
 20
0.0
 11
840.0
 21
594.0
 12
0.0
 22
0.0
 32
0.0
 14
0.0
 24
0.0
 34
0.0
 15
840.0
 25
594.0
 35
0.0
146
0.0
 13
0.0
 23
0.0
 33
0.0
 16
1.0
 26
0.0
 36
0.0
 17
0.0
 27
1.0
 37
0.0
 76
     0
330
1B
  0
LAYOUT
  5
26
102
{ACAD_REACTORS
330
1A
102
}
330
1A
100
AcDbPlotSettings
  1

  2

  4

  6

 40
0.0
 41
0.0
 42
0.0
 43
0.0
 44
0.0
 45
0.0
 46
0.0
 47
0.0
 48
0.0
 49
0.0
140
0.0
141
0.0
142
1.0
143
1.0
 70
   688
 72
     0
 73
     0
 74
     5
  7

 75
    16
147
1.0
148
0.0
149
0.0
100
AcDbLayout
  1
Layout2
 70
     1
 71
     2
 10
0.0
 20
0.0
 11
0.0
 21
0.0
 12
0.0
 22
0.0
 32
0.0
 14
0.0
 24
0.0
 34
0.0
 15
0.0
 25
0.0
 35
0.0
146
0.0
 13
0.0
 23
0.0
 33
0.0
 16
1.0
 26
0.0
 36
0.0
 17
0.0
 27
1.0
 37
0.0
 76
     0
330
23
  0
LAYOUT
  5
22
102
{ACAD_REACTORS
330
1A
102
}
330
1A
100
AcDbPlotSettings
  1

  2

  4

  6

 40
0.0
 41
0.0
 42
0.0
 43
0.0
 44
0.0
 45
0.0
 46
0.0
 47
0.0
 48
0.0
 49
0.0
140
0.0
141
0.0
142
1.0
143
1.0
 70
  1776
 72
     0
 73
     0
 74
     0
  7

 75
     0
147
1.0
148
0.0
149
0.0
100
AcDbLayout
  1
Model
 70
     1
 71
     0
 10
0.0
 20
0.0
 11
840.0
 21
594.0
 12
0.0
 22
0.0
 32
0.0
 14
0.0
 24
0.0
 34
0.0
 15
840.0
 25
594.0
 35
0.0
146
0.0
 13
0.0
 23
0.0
 33
0.0
 16
1.0
 26
0.0
 36
0.0
 17
0.0
 27
1.0
 37
0.0
 76
     0
330
1F
  0
MLINESTYLE
  5
18
102
{ACAD_REACTORS
330
17
102
}
330
17
100
AcDbMlineStyle
  2
Standard
 70
     0
  3

 62
   256
 51
90.0
 52
90.0
 71
     2
 49
0.5
 62
   256
  6
BYLAYER
 49
-0.5
 62
   256
  6
BYLAYER
  0
ACDBPLACEHOLDER
  5
F
102
{ACAD_REACTORS
330
E
102
}
330
E
  0
ENDSEC
  0
EOF
