  0
SECTION
  2
HEADER
  9
$ACADVER
  1
AC1009
  9
$INSBASE
 10
0.0
 20
0.0
 30
0.0
  9
$EXTMIN
 10
0.0
 20
0.0
 30
0.0
  9
$EXTMAX
 10
840.0
 20
594.0
 30
0.0
  9
$LIMMIN
 10
0.0
 20
0.0
  9
$LIMMAX
 10
840.0
 20
594.0
  9
$ORTHOMODE
 70
     0
  9
$REGENMODE
 70
     1
  9
$FILLMODE
 70
     1
  9
$QTEXTMODE
 70
     0
  9
$MIRRTEXT
 70
     1
  9
$DRAGMODE
 70
     2
  9
$LTSCALE
 40
2.0
  9
$OSMODE
 70
     0
  9
$ATTMODE
 70
     1
  9
$TEXTSIZE
 40
0.2
  9
$TRACEWID
 40
0.05
  9
$TEXTSTYLE
  7
STANDARD
  9
$CLAYER
  8
0
  9
$CELTYPE
  6
BYLAYER
  9
$CECOLOR
 62
     7
  9
$DIMSCALE
 40
2.0
  9
$DIMASZ
 40
3.5
  9
$DIMEXO
 40
0.0625
  9
$DIMDLI
 40
0.38
  9
$DIMRND
 40
0.0
  9
$DIMDLE
 40
0.0
  9
$DIMEXE
 40
0.18
  9
$DIMTP
 40
0.0
  9
$DIMTM
 40
0.0
  9
$DIMTXT
 40
3.5
  9
$DIMCEN
 40
0.09
  9
$DIMTSZ
 40
0.0
  9
$DIMTOL
 70
     0
  9
$DIMLIM
 70
     0
  9
$DIMTIH
 70
     1
  9
$DIMTOH
 70
     1
  9
$DIMSE1
 70
     0
  9
$DIMSE2
 70
     0
  9
$DIMTAD
 70
     1
  9
$DIMZIN
 70
     0
  9
$DIMBLK
  1

  9
$DIMASO
 70
     1
  9
$DIMSHO
 70
     1
  9
$DIMPOST
  1

  9
$DIMAPOST
  1

  9
$DIMALT
 70
     0
  9
$DIMALTD
 70
     2
  9
$DIMALTF
 40
25.4
  9
$DIMLFAC
 40
1.0
  9
$DIMTOFL
 70
     0
  9
$DIMTVP
 40
0.0
  9
$DIMTIX
 70
     0
  9
$DIMSOXD
 70
     0
  9
$DIMSAH
 70
     0
  9
$DIMBLK1
  1

  9
$DIMBLK2
  1

  9
$DIMSTYLE
  2
STANDARD
  9
$DIMCLRD
 70
     0
  9
$DIMCLRE
 70
     0
  9
$DIMCLRT
 70
     0
  9
$DIMTFAC
 40
1.0
  9
$DIMGAP
 40
0.09
  9
$LUNITS
 70
     2
  9
$LUPREC
 70
     2
  9
$AXISMODE
 70
     0
  9
$AXISUNIT
 10
0.0
 20
0.0
  9
$SKETCHINC
 40
0.1
  9
$FILLETRAD
 40
0.0
  9
$AUNITS
 70
     0
  9
$AUPREC
 70
     0
  9
$MENU
  1
acad
  9
$ELEVATION
 40
0.0
  9
$PELEVATION
 40
0.0
  9
$THICKNESS
 40
0.0
  9
$LIMCHECK
 70
     0
  9
$BLIPMODE
 70
     1
  9
$CHAMFERA
 40
0.0
  9
$CHAMFERB
 40
0.0
  9
$SKPOLY
 70
     0
  9
$TDCREATE
 40
0.000000000
  9
$TDUPDATE
 40
0.000000000
  9
$TDINDWG
 40
0.0000000000
  9
$TDUSRTIMER
 40
0.0000000000
  9
$USRTIMER
 70
     1
  9
$ANGBASE
 50
0.0
  9
$ANGDIR
 70
     0
  9
$PDMODE
 70
     0
  9
$PDSIZE
 40
0.0
  9
$PLINEWID
 40
0.0
  9
$COORDS
 70
     0
  9
$SPLFRAME
 70
     0
  9
$SPLINETYPE
 70
     6
  9
$SPLINESEGS
 70
     8
  9
$ATTDIA
 70
     0
  9
$ATTREQ
 70
     1
  9
$HANDLING
 70
     1
  9
$HANDSEED
  5
255
  9
$SURFTAB1
 70
     6
  9
$SURFTAB2
 70
     6
  9
$SURFTYPE
 70
     6
  9
$SURFU
 70
     6
  9
$SURFV
 70
     6
  9
$UCSNAME
  2

  9
$UCSORG
 10
0.0
 20
0.0
 30
0.0
  9
$UCSXDIR
 10
1.0
 20
0.0
 30
0.0
  9
$UCSYDIR
 10
0.0
 20
1.0
 30
0.0
  9
$PUCSNAME
  2

  9
$PUCSORG
 10
0.0
 20
0.0
 30
0.0
  9
$PUCSXDIR
 10
1.0
 20
0.0
 30
0.0
  9
$PUCSYDIR
 10
0.0
 20
1.0
 30
0.0
  9
$USERI1
 70
     0
  9
$USERI2
 70
     0
  9
$USERI3
 70
     0
  9
$USERI4
 70
     0
  9
$USERI5
 70
     0
  9
$USERR1
 40
0.0
  9
$USERR2
 40
0.0
  9
$USERR3
 40
0.0
  9
$USERR4
 40
0.0
  9
$USERR5
 40
0.0
  9
$WORLDVIEW
 70
     1
  9
$SHADEDGE
 70
     3
  9
$SHADEDIF
 70
    70
  9
$TILEMODE
 70
     1
  9
$MAXACTVP
 70
    16
  9
$PINSBASE
 10
0.0
 20
0.0
 30
0.0
  9
$PLIMCHECK
 70
     0
  9
$PEXTMIN
 10
1.000000E+20
 20
1.000000E+20
 30
1.000000E+20
  9
$PEXTMAX
 10
-1.000000E+20
 20
-1.000000E+20
 30
-1.000000E+20
  9
$PLIMMIN
 10
0.0
 20
0.0
  9
$PLIMMAX
 10
840.0
 20
594.0
  9
$UNITMODE
 70
     0
  9
$VISRETAIN
 70
     0
  9
$PLINEGEN
 70
     1
  9
$PSLTSCALE
 70
     0
  9
$TREEDEPTH
 70
  3020
  9
$DWGCODEPAGE
  3
dos850
  0
ENDSEC
  0
SECTION
  2
TABLES
  0
TABLE
  2
VPORT
 70
     1
  0
VPORT
  2
*ACTIVE
 70
     0
 10
0.0
 20
0.0
 11
1.0
 21
1.0
 12
420.0
 22
297.0
 13
0.0
 23
0.0
 14
1.0
 24
1.0
 15
0.0
 25
0.0
 16
0.0
 26
0.0
 36
1.0
 17
0.0
 27
0.0
 37
0.0
 40
594.0
 41
1.604229
 42
50.0
 43
0.0
 44
0.0
 50
0.0
 51
0.0
 71
     0
 72
   100
 73
     1
 74
     1
 75
     0
 76
     0
 77
     0
 78
     0
  0
ENDTAB
  0
TABLE
  2
LTYPE
 70
     2
  0
LTYPE
  2
CONTINUOUS
 70
    64
  3
Solid line
 72
    65
 73
     0
 40
0.0
  0
LTYPE
  2
DASHDOT
 70
    64
  3
__ . __ . __ . __ . __
 72
    65
 73
     4
 40
7.5
 49
5.0
 49
-1.25
 49
0.0
 49
-1.25
  0
ENDTAB
  0
TABLE
  2
LAYER
 70
     9
  0
LAYER
  2
0
 70
     0
 62
     7
  6
CONTINUOUS
  0
LAYER
  2
LC-INFO-1-2-MM-A3-0
 70
     1
 62
    -1
  6
CONTINUOUS
  0
LAYER
  2
LC-002-005-----0
 70
     0
 62
     2
  6
CONTINUOUS
  0
LAYER
  2
LC-004-003-MTH-0
 70
     0
 62
     2
  6
CONTINUOUS
  0
LAYER
  2
LC-005-003-MTG-0
 70
     0
 62
     2
  6
CONTINUOUS
  0
LAYER
  2
LC-003-003-----0
 70
     0
 62
     2
  6
CONTINUOUS
  0
LAYER
  2
LC-006-000-----0
 70
     0
 62
     7
  6
CONTINUOUS
  0
LAYER
  2
LC-001-002-----0
 70
     0
 62
     1
  6
CONTINUOUS
  0
LAYER
  2
LC-000
 70
     0
 62
     7
  6
CONTINUOUS
  0
ENDTAB
  0
TABLE
  2
STYLE
 70
     4
  0
STYLE
  2
STANDARD
 70
     0
 40
0.0
 41
1.0
 50
0.0
 71
     0
 42
0.0
  3
txt
  4

  0
STYLE
  2
LC-STANDARD
 70
    64
 40
0.0
 41
1.0
 50
0.0
 71
     0
 42
3.5
  3
MONOTXT
  4

  0
STYLE
  2
LC-TXTSTYLE-150-400-0-0-A2
 70
    64
 40
0.0
 41
1.0
 50
15.0
 71
     0
 42
3.5
  3
MONOTXT
  4

  0
STYLE
  2
LC-TXTSTYLE-150-400-0-0-D3
 70
    64
 40
0.0
 41
1.0
 50
15.0
 71
     0
 42
3.5
  3
LC-STANDARD
  4

  0
ENDTAB
  0
TABLE
  2
VIEW
 70
     0
  0
ENDTAB
  0
TABLE
  2
UCS
 70
     0
  0
ENDTAB
  0
TABLE
  2
APPID
 70
     1
  0
APPID
  2
ACAD
 70
     0
  0
ENDTAB
  0
TABLE
  2
DIMSTYLE
 70
     3
  0
DIMSTYLE
  2
STANDARD
 70
     0
  3

  4

  5

  6

  7

 40
1.0
 41
0.18
 42
0.0625
 43
0.38
 44
0.18
 45
0.0
 46
0.0
 47
0.0
 48
0.0
 71
     0
 72
     0
 73
     1
 74
     1
 75
     0
 76
     0
 77
     0
 78
     0
140
0.18
141
0.09
142
0.0
143
25.4
144
1.0
145
0.0
146
1.0
147
0.09
170
     0
171
     2
172
     0
173
     0
174
     0
175
     0
176
     0
177
     0
178
     0
  0
DIMSTYLE
  2
LC-STANDARD
 70
     0
  3

  4

  5

  6

  7

 40
1.0
 41
3.5
 42
0.0
 43
7.5
 44
1.8
 45
0.0
 46
0.0
 47
0.0
 48
0.0
 71
     0
 72
     0
 73
     0
 74
     0
 75
     0
 76
     0
 77
     1
 78
     8
140
3.5
141
0.0
142
0.0
143
25.4
144
1.0
145
0.0
146
0.71
147
1.5
170
     0
171
     2
172
     1
173
     0
174
     0
175
     0
176
     0
177
     0
178
     3
  0
DIMSTYLE
  2
LC-DIM-L-0140-02-02
 70
     0
  3

  4

  5

  6

  7

 40
2.0
 41
3.5
 42
0.0
 43
7.5
 44
1.8
 45
0.0
 46
0.0
 47
0.0
 48
0.0
 71
     0
 72
     0
 73
     0
 74
     0
 75
     0
 76
     0
 77
     1
 78
     8
140
14.0
141
0.0
142
0.0
143
25.4
144
1.0
145
0.0
146
0.71
147
1.5
170
     0
171
     2
172
     0
173
     0
174
     0
175
     0
176
     2
177
     2
178
     8
  0
ENDTAB
  0
ENDSEC
  0
SECTION
  2
BLOCKS
  0
BLOCK
  8
0
  5
23
  2
*X0
 70
    65
 10
324.364625
 20
187.090968
 30
0.0
  3
*X0
  0
LINE
  8
LC-002-005-----0
  6
CONTINUOUS
  5
25
 10
324.364625
 20
188.600123
 30
0.0
 11
326.545734
 21
190.781232
 31
0.0
  0
LINE
  8
LC-002-005-----0
  6
CONTINUOUS
  5
26
 10
324.364625
 20
191.428551
 30
0.0
 11
327.164625
 21
194.228551
 31
0.0
  0
LINE
  8
LC-002-005-----0
  6
CONTINUOUS
  5
27
 10
324.364625
 20
194.256978
 30
0.0
 11
327.164625
 21
197.056978
 31
0.0
  0
LINE
  8
LC-002-005-----0
  6
CONTINUOUS
  5
28
 10
324.364625
 20
197.085405
 30
0.0
 11
327.164625
 21
199.885405
 31
0.0
  0
LINE
  8
LC-002-005-----0
  6
CONTINUOUS
  5
29
 10
324.364625
 20
199.913832
 30
0.0
 11
327.164625
 21
202.713832
 31
0.0
  0
LINE
  8
LC-002-005-----0
  6
CONTINUOUS
  5
2A
 10
324.364625
 20
202.742259
 30
0.0
 11
327.164625
 21
205.542259
 31
0.0
  0
LINE
  8
LC-002-005-----0
  6
CONTINUOUS
  5
2B
 10
324.364625
 20
205.570686
 30
0.0
 11
327.164625
 21
208.370686
 31
0.0
  0
LINE
  8
LC-002-005-----0
  6
CONTINUOUS
  5
2C
 10
324.364625
 20
208.399113
 30
0.0
 11
327.164625
 21
211.199113
 31
0.0
  0
LINE
  8
LC-002-005-----0
  6
CONTINUOUS
  5
2D
 10
324.364625
 20
211.22754
 30
0.0
 11
327.164625
 21
214.02754
 31
0.0
  0
LINE
  8
LC-002-005-----0
  6
CONTINUOUS
  5
2E
 10
324.364625
 20
214.055968
 30
0.0
 11
327.164625
 21
216.855968
 31
0.0
  0
LINE
  8
LC-002-005-----0
  6
CONTINUOUS
  5
2F
 10
324.364625
 20
216.884395
 30
0.0
 11
327.164625
 21
219.684395
 31
0.0
  0
LINE
  8
LC-002-005-----0
  6
CONTINUOUS
  5
30
 10
324.364625
 20
219.712822
 30
0.0
 11
327.164625
 21
222.512822
 31
0.0
  0
LINE
  8
LC-002-005-----0
  6
CONTINUOUS
  5
31
 10
324.364625
 20
222.541249
 30
0.0
 11
327.164625
 21
225.341249
 31
0.0
  0
LINE
  8
LC-002-005-----0
  6
CONTINUOUS
  5
32
 10
324.364625
 20
225.369676
 30
0.0
 11
327.164625
 21
228.169676
 31
0.0
  0
LINE
  8
LC-002-005-----0
  6
CONTINUOUS
  5
33
 10
324.364625
 20
228.198103
 30
0.0
 11
327.164625
 21
230.998103
 31
0.0
  0
LINE
  8
LC-002-005-----0
  6
CONTINUOUS
  5
34
 10
324.364625
 20
231.02653
 30
0.0
 11
327.164625
 21
233.82653
 31
0.0
  0
LINE
  8
LC-002-005-----0
  6
CONTINUOUS
  5
35
 10
324.364625
 20
233.854957
 30
0.0
 11
327.164625
 21
236.654957
 31
0.0
  0
LINE
  8
LC-002-005-----0
  6
CONTINUOUS
  5
36
 10
324.364625
 20
236.683385
 30
0.0
 11
327.164625
 21
239.483385
 31
0.0
  0
LINE
  8
LC-002-005-----0
  6
CONTINUOUS
  5
37
 10
324.364625
 20
239.511812
 30
0.0
 11
327.164625
 21
242.311812
 31
0.0
  0
LINE
  8
LC-002-005-----0
  6
CONTINUOUS
  5
38
 10
324.364625
 20
242.340239
 30
0.0
 11
327.164625
 21
245.140239
 31
0.0
  0
LINE
  8
LC-002-005-----0
  6
CONTINUOUS
  5
39
 10
324.364625
 20
245.168666
 30
0.0
 11
327.164625
 21
247.968666
 31
0.0
  0
LINE
  8
LC-002-005-----0
  6
CONTINUOUS
  5
3A
 10
324.364625
 20
247.997093
 30
0.0
 11
327.164625
 21
250.797093
 31
0.0
  0
LINE
  8
LC-002-005-----0
  6
CONTINUOUS
  5
3B
 10
324.364625
 20
250.82552
 30
0.0
 11
327.164625
 21
253.62552
 31
0.0
  0
LINE
  8
LC-002-005-----0
  6
CONTINUOUS
  5
3C
 10
324.364625
 20
253.653947
 30
0.0
 11
327.164625
 21
256.453947
 31
0.0
  0
LINE
  8
LC-002-005-----0
  6
CONTINUOUS
  5
3D
 10
324.364625
 20
256.482374
 30
0.0
 11
327.164625
 21
259.282374
 31
0.0
  0
LINE
  8
LC-002-005-----0
  6
CONTINUOUS
  5
3E
 10
324.364625
 20
259.310802
 30
0.0
 11
327.164625
 21
262.110802
 31
0.0
  0
LINE
  8
LC-002-005-----0
  6
CONTINUOUS
  5
3F
 10
324.364625
 20
262.139229
 30
0.0
 11
327.164625
 21
264.939229
 31
0.0
  0
LINE
  8
LC-002-005-----0
  6
CONTINUOUS
  5
40
 10
324.364625
 20
264.967656
 30
0.0
 11
327.164625
 21
267.767656
 31
0.0
  0
LINE
  8
LC-002-005-----0
  6
CONTINUOUS
  5
41
 10
324.364625
 20
267.796083
 30
0.0
 11
327.164625
 21
270.596083
 31
0.0
  0
LINE
  8
LC-002-005-----0
  6
CONTINUOUS
  5
42
 10
324.364625
 20
270.62451
 30
0.0
 11
327.164625
 21
273.42451
 31
0.0
  0
LINE
  8
LC-002-005-----0
  6
CONTINUOUS
  5
43
 10
324.364625
 20
273.452937
 30
0.0
 11
327.164625
 21
276.252937
 31
0.0
  0
LINE
  8
LC-002-005-----0
  6
CONTINUOUS
  5
44
 10
324.364625
 20
276.281364
 30
0.0
 11
327.164625
 21
279.081364
 31
0.0
  0
LINE
  8
LC-002-005-----0
  6
CONTINUOUS
  5
45
 10
324.364625
 20
279.109791
 30
0.0
 11
327.164625
 21
281.909791
 31
0.0
  0
LINE
  8
LC-002-005-----0
  6
CONTINUOUS
  5
46
 10
324.364625
 20
281.938219
 30
0.0
 11
327.164625
 21
284.738219
 31
0.0
  0
LINE
  8
LC-002-005-----0
  6
CONTINUOUS
  5
47
 10
324.364625
 20
284.766646
 30
0.0
 11
327.164625
 21
287.566646
 31
0.0
  0
LINE
  8
LC-002-005-----0
  6
CONTINUOUS
  5
48
 10
324.364625
 20
287.595073
 30
0.0
 11
327.164625
 21
290.395073
 31
0.0
  0
LINE
  8
LC-002-005-----0
  6
CONTINUOUS
  5
49
 10
324.364625
 20
290.4235
 30
0.0
 11
327.164625
 21
293.2235
 31
0.0
  0
LINE
  8
LC-002-005-----0
  6
CONTINUOUS
  5
4A
 10
324.364625
 20
293.251927
 30
0.0
 11
327.164625
 21
296.051927
 31
0.0
  0
LINE
  8
LC-002-005-----0
  6
CONTINUOUS
  5
4B
 10
324.364625
 20
296.080354
 30
0.0
 11
327.164625
 21
298.880354
 31
0.0
  0
LINE
  8
LC-002-005-----0
  6
CONTINUOUS
  5
4C
 10
324.364625
 20
298.908781
 30
0.0
 11
327.164625
 21
301.708781
 31
0.0
  0
LINE
  8
LC-002-005-----0
  6
CONTINUOUS
  5
4D
 10
324.364625
 20
301.737208
 30
0.0
 11
327.164625
 21
304.537208
 31
0.0
  0
LINE
  8
LC-002-005-----0
  6
CONTINUOUS
  5
4E
 10
324.364625
 20
304.565636
 30
0.0
 11
327.164625
 21
307.365636
 31
0.0
  0
LINE
  8
LC-002-005-----0
  6
CONTINUOUS
  5
4F
 10
324.364625
 20
307.394063
 30
0.0
 11
327.164625
 21
310.194063
 31
0.0
  0
LINE
  8
LC-002-005-----0
  6
CONTINUOUS
  5
50
 10
324.364625
 20
310.22249
 30
0.0
 11
327.164625
 21
313.02249
 31
0.0
  0
LINE
  8
LC-002-005-----0
  6
CONTINUOUS
  5
51
 10
324.364625
 20
313.050917
 30
0.0
 11
327.164625
 21
315.850917
 31
0.0
  0
LINE
  8
LC-002-005-----0
  6
CONTINUOUS
  5
52
 10
324.364625
 20
315.879344
 30
0.0
 11
327.164625
 21
318.679344
 31
0.0
  0
LINE
  8
LC-002-005-----0
  6
CONTINUOUS
  5
53
 10
324.364625
 20
318.707771
 30
0.0
 11
327.164625
 21
321.507771
 31
0.0
  0
LINE
  8
LC-002-005-----0
  6
CONTINUOUS
  5
54
 10
324.364625
 20
321.536198
 30
0.0
 11
327.164625
 21
324.336198
 31
0.0
  0
LINE
  8
LC-002-005-----0
  6
CONTINUOUS
  5
55
 10
324.364625
 20
324.364625
 30
0.0
 11
327.164625
 21
327.164625
 31
0.0
  0
LINE
  8
LC-002-005-----0
  6
CONTINUOUS
  5
56
 10
324.364625
 20
327.193053
 30
0.0
 11
327.164625
 21
329.993053
 31
0.0
  0
LINE
  8
LC-002-005-----0
  6
CONTINUOUS
  5
57
 10
324.364625
 20
330.02148
 30
0.0
 11
327.164625
 21
332.82148
 31
0.0
  0
LINE
  8
LC-002-005-----0
  6
CONTINUOUS
  5
58
 10
324.364625
 20
332.849907
 30
0.0
 11
327.164625
 21
335.649907
 31
0.0
  0
LINE
  8
LC-002-005-----0
  6
CONTINUOUS
  5
59
 10
324.364625
 20
335.678334
 30
0.0
 11
327.164625
 21
338.478334
 31
0.0
  0
LINE
  8
LC-002-005-----0
  6
CONTINUOUS
  5
5A
 10
324.364625
 20
338.506761
 30
0.0
 11
327.164625
 21
341.306761
 31
0.0
  0
LINE
  8
LC-002-005-----0
  6
CONTINUOUS
  5
5B
 10
324.364625
 20
341.335188
 30
0.0
 11
327.164625
 21
344.135188
 31
0.0
  0
LINE
  8
LC-002-005-----0
  6
CONTINUOUS
  5
5C
 10
324.364625
 20
344.163615
 30
0.0
 11
327.164625
 21
346.963615
 31
0.0
  0
LINE
  8
LC-002-005-----0
  6
CONTINUOUS
  5
5D
 10
324.364625
 20
346.992042
 30
0.0
 11
327.164625
 21
349.792042
 31
0.0
  0
LINE
  8
LC-002-005-----0
  6
CONTINUOUS
  5
5E
 10
324.364625
 20
349.82047
 30
0.0
 11
327.164625
 21
352.62047
 31
0.0
  0
LINE
  8
LC-002-005-----0
  6
CONTINUOUS
  5
5F
 10
353.135123
 20
378.590968
 30
0.0
 11
354.664625
 21
380.12047
 31
0.0
  0
LINE
  8
LC-002-005-----0
  6
CONTINUOUS
  5
60
 10
324.364625
 20
352.648897
 30
0.0
 11
327.164625
 21
355.448897
 31
0.0
  0
LINE
  8
LC-002-005-----0
  6
CONTINUOUS
  5
61
 10
350.306696
 20
378.590968
 30
0.0
 11
354.664625
 21
382.948897
 31
0.0
  0
LINE
  8
LC-002-005-----0
  6
CONTINUOUS
  5
62
 10
324.364625
 20
355.477324
 30
0.0
 11
327.164625
 21
358.277324
 31
0.0
  0
LINE
  8
LC-002-005-----0
  6
CONTINUOUS
  5
63
 10
347.478269
 20
378.590968
 30
0.0
 11
354.664625
 21
385.777324
 31
0.0
  0
LINE
  8
LC-002-005-----0
  6
CONTINUOUS
  5
64
 10
324.364625
 20
358.305751
 30
0.0
 11
327.164625
 21
361.105751
 31
0.0
  0
LINE
  8
LC-002-005-----0
  6
CONTINUOUS
  5
65
 10
344.649842
 20
378.590968
 30
0.0
 11
354.664625
 21
388.605751
 31
0.0
  0
LINE
  8
LC-002-005-----0
  6
CONTINUOUS
  5
66
 10
324.364625
 20
361.134178
 30
0.0
 11
327.164625
 21
363.934178
 31
0.0
  0
LINE
  8
LC-002-005-----0
  6
CONTINUOUS
  5
67
 10
341.821415
 20
378.590968
 30
0.0
 11
354.664625
 21
391.434178
 31
0.0
  0
LINE
  8
LC-002-005-----0
  6
CONTINUOUS
  5
68
 10
324.364625
 20
363.962605
 30
0.0
 11
327.164625
 21
366.762605
 31
0.0
  0
LINE
  8
LC-002-005-----0
  6
CONTINUOUS
  5
69
 10
338.992988
 20
378.590968
 30
0.0
 11
347.492988
 21
387.090968
 31
0.0
  0
LINE
  8
LC-002-005-----0
  6
CONTINUOUS
  5
6A
 10
349.664625
 20
389.262605
 30
0.0
 11
352.492988
 21
392.090968
 31
0.0
  0
LINE
  8
LC-002-005-----0
  6
CONTINUOUS
  5
6B
 10
324.364625
 20
366.791032
 30
0.0
 11
327.164625
 21
369.591032
 31
0.0
  0
LINE
  8
LC-002-005-----0
  6
CONTINUOUS
  5
6C
 10
336.164561
 20
378.590968
 30
0.0
 11
344.664561
 21
387.090968
 31
0.0
  0
LINE
  8
LC-002-005-----0
  6
CONTINUOUS
  5
6D
 10
324.364625
 20
369.619459
 30
0.0
 11
327.164625
 21
372.419459
 31
0.0
  0
LINE
  8
LC-002-005-----0
  6
CONTINUOUS
  5
6E
 10
328.836134
 20
374.090968
 30
0.0
 11
329.664625
 21
374.919459
 31
0.0
  0
LINE
  8
LC-002-005-----0
  6
CONTINUOUS
  5
6F
 10
333.336134
 20
378.590968
 30
0.0
 11
341.836134
 21
387.090968
 31
0.0
  0
LINE
  8
LC-002-005-----0
  6
CONTINUOUS
  5
70
 10
324.364625
 20
372.447887
 30
0.0
 11
329.664625
 21
377.747887
 31
0.0
  0
LINE
  8
LC-002-005-----0
  6
CONTINUOUS
  5
71
 10
330.507706
 20
378.590968
 30
0.0
 11
338.110334
 21
386.193595
 31
0.0
  0
LINE
  8
LC-002-005-----0
  6
CONTINUOUS
  5
72
 10
324.364625
 20
375.276314
 30
0.0
 11
331.418185
 21
382.329873
 31
0.0
  0
LINE
  8
LC-002-005-----0
  6
CONTINUOUS
  5
73
 10
324.364625
 20
378.104741
 30
0.0
 11
327.350852
 21
381.090968
 31
0.0
  0
LINE
  8
LC-002-005-----0
  6
CONTINUOUS
  5
74
 10
324.364625
 20
380.933168
 30
0.0
 11
324.522425
 21
381.090968
 31
0.0
  0
ENDBLK
  8
0
  5
75
  0
BLOCK
  8
0
  5
77
  2
*X1
 70
    65
 10
154.664625
 20
187.090968
 30
0.0
  3
*X1
  0
LINE
  8
LC-002-005-----0
  6
CONTINUOUS
  5
78
 10
184.26254
 20
187.090968
 30
0.0
 11
184.964625
 21
187.793053
 31
0.0
  0
LINE
  8
LC-002-005-----0
  6
CONTINUOUS
  5
79
 10
183.066874
 20
188.723729
 30
0.0
 11
184.964625
 21
190.62148
 31
0.0
  0
LINE
  8
LC-002-005-----0
  6
CONTINUOUS
  5
7A
 10
182.469157
 20
190.954439
 30
0.0
 11
184.964625
 21
193.449907
 31
0.0
  0
LINE
  8
LC-002-005-----0
  6
CONTINUOUS
  5
7B
 10
182.164625
 20
193.478334
 30
0.0
 11
184.964625
 21
196.278334
 31
0.0
  0
LINE
  8
LC-002-005-----0
  6
CONTINUOUS
  5
7C
 10
182.164625
 20
196.306761
 30
0.0
 11
184.964625
 21
199.106761
 31
0.0
  0
LINE
  8
LC-002-005-----0
  6
CONTINUOUS
  5
7D
 10
182.164625
 20
199.135188
 30
0.0
 11
184.964625
 21
201.935188
 31
0.0
  0
LINE
  8
LC-002-005-----0
  6
CONTINUOUS
  5
7E
 10
182.164625
 20
201.963615
 30
0.0
 11
184.964625
 21
204.763615
 31
0.0
  0
LINE
  8
LC-002-005-----0
  6
CONTINUOUS
  5
7F
 10
182.164625
 20
204.792042
 30
0.0
 11
184.964625
 21
207.592042
 31
0.0
  0
LINE
  8
LC-002-005-----0
  6
CONTINUOUS
  5
80
 10
182.164625
 20
207.62047
 30
0.0
 11
184.964625
 21
210.42047
 31
0.0
  0
LINE
  8
LC-002-005-----0
  6
CONTINUOUS
  5
81
 10
182.164625
 20
210.448897
 30
0.0
 11
184.964625
 21
213.248897
 31
0.0
  0
LINE
  8
LC-002-005-----0
  6
CONTINUOUS
  5
82
 10
182.164625
 20
213.277324
 30
0.0
 11
184.964625
 21
216.077324
 31
0.0
  0
LINE
  8
LC-002-005-----0
  6
CONTINUOUS
  5
83
 10
182.164625
 20
216.105751
 30
0.0
 11
184.964625
 21
218.905751
 31
0.0
  0
LINE
  8
LC-002-005-----0
  6
CONTINUOUS
  5
84
 10
182.164625
 20
218.934178
 30
0.0
 11
184.964625
 21
221.734178
 31
0.0
  0
LINE
  8
LC-002-005-----0
  6
CONTINUOUS
  5
85
 10
182.164625
 20
221.762605
 30
0.0
 11
184.964625
 21
224.562605
 31
0.0
  0
LINE
  8
LC-002-005-----0
  6
CONTINUOUS
  5
86
 10
182.164625
 20
224.591032
 30
0.0
 11
184.964625
 21
227.391032
 31
0.0
  0
LINE
  8
LC-002-005-----0
  6
CONTINUOUS
  5
87
 10
182.164625
 20
227.419459
 30
0.0
 11
184.964625
 21
230.219459
 31
0.0
  0
LINE
  8
LC-002-005-----0
  6
CONTINUOUS
  5
88
 10
182.164625
 20
230.247887
 30
0.0
 11
184.964625
 21
233.047887
 31
0.0
  0
LINE
  8
LC-002-005-----0
  6
CONTINUOUS
  5
89
 10
182.164625
 20
233.076314
 30
0.0
 11
184.964625
 21
235.876314
 31
0.0
  0
LINE
  8
LC-002-005-----0
  6
CONTINUOUS
  5
8A
 10
182.164625
 20
235.904741
 30
0.0
 11
184.964625
 21
238.704741
 31
0.0
  0
LINE
  8
LC-002-005-----0
  6
CONTINUOUS
  5
8B
 10
182.164625
 20
238.733168
 30
0.0
 11
184.964625
 21
241.533168
 31
0.0
  0
LINE
  8
LC-002-005-----0
  6
CONTINUOUS
  5
8C
 10
182.164625
 20
241.561595
 30
0.0
 11
184.964625
 21
244.361595
 31
0.0
  0
LINE
  8
LC-002-005-----0
  6
CONTINUOUS
  5
8D
 10
182.164625
 20
244.390022
 30
0.0
 11
184.964625
 21
247.190022
 31
0.0
  0
LINE
  8
LC-002-005-----0
  6
CONTINUOUS
  5
8E
 10
182.164625
 20
247.218449
 30
0.0
 11
184.964625
 21
250.018449
 31
0.0
  0
LINE
  8
LC-002-005-----0
  6
CONTINUOUS
  5
8F
 10
182.164625
 20
250.046876
 30
0.0
 11
184.964625
 21
252.846876
 31
0.0
  0
LINE
  8
LC-002-005-----0
  6
CONTINUOUS
  5
90
 10
182.164625
 20
252.875304
 30
0.0
 11
184.964625
 21
255.675304
 31
0.0
  0
LINE
  8
LC-002-005-----0
  6
CONTINUOUS
  5
91
 10
182.164625
 20
255.703731
 30
0.0
 11
184.964625
 21
258.503731
 31
0.0
  0
LINE
  8
LC-002-005-----0
  6
CONTINUOUS
  5
92
 10
182.164625
 20
258.532158
 30
0.0
 11
184.964625
 21
261.332158
 31
0.0
  0
LINE
  8
LC-002-005-----0
  6
CONTINUOUS
  5
93
 10
182.164625
 20
261.360585
 30
0.0
 11
184.964625
 21
264.160585
 31
0.0
  0
LINE
  8
LC-002-005-----0
  6
CONTINUOUS
  5
94
 10
182.164625
 20
264.189012
 30
0.0
 11
184.964625
 21
266.989012
 31
0.0
  0
LINE
  8
LC-002-005-----0
  6
CONTINUOUS
  5
95
 10
182.164625
 20
267.017439
 30
0.0
 11
184.964625
 21
269.817439
 31
0.0
  0
LINE
  8
LC-002-005-----0
  6
CONTINUOUS
  5
96
 10
182.164625
 20
269.845866
 30
0.0
 11
184.964625
 21
272.645866
 31
0.0
  0
LINE
  8
LC-002-005-----0
  6
CONTINUOUS
  5
97
 10
182.164625
 20
272.674293
 30
0.0
 11
184.964625
 21
275.474293
 31
0.0
  0
LINE
  8
LC-002-005-----0
  6
CONTINUOUS
  5
98
 10
182.164625
 20
275.502721
 30
0.0
 11
184.964625
 21
278.302721
 31
0.0
  0
LINE
  8
LC-002-005-----0
  6
CONTINUOUS
  5
99
 10
182.164625
 20
278.331148
 30
0.0
 11
184.964625
 21
281.131148
 31
0.0
  0
LINE
  8
LC-002-005-----0
  6
CONTINUOUS
  5
9A
 10
182.164625
 20
281.159575
 30
0.0
 11
184.964625
 21
283.959575
 31
0.0
  0
LINE
  8
LC-002-005-----0
  6
CONTINUOUS
  5
9B
 10
182.164625
 20
283.988002
 30
0.0
 11
184.964625
 21
286.788002
 31
0.0
  0
LINE
  8
LC-002-005-----0
  6
CONTINUOUS
  5
9C
 10
182.164625
 20
286.816429
 30
0.0
 11
184.964625
 21
289.616429
 31
0.0
  0
LINE
  8
LC-002-005-----0
  6
CONTINUOUS
  5
9D
 10
182.164625
 20
289.644856
 30
0.0
 11
184.964625
 21
292.444856
 31
0.0
  0
LINE
  8
LC-002-005-----0
  6
CONTINUOUS
  5
9E
 10
182.164625
 20
292.473283
 30
0.0
 11
184.964625
 21
295.273283
 31
0.0
  0
LINE
  8
LC-002-005-----0
  6
CONTINUOUS
  5
9F
 10
182.164625
 20
295.30171
 30
0.0
 11
184.964625
 21
298.10171
 31
0.0
  0
LINE
  8
LC-002-005-----0
  6
CONTINUOUS
  5
A0
 10
182.164625
 20
298.130138
 30
0.0
 11
184.964625
 21
300.930138
 31
0.0
  0
LINE
  8
LC-002-005-----0
  6
CONTINUOUS
  5
A1
 10
182.164625
 20
300.958565
 30
0.0
 11
184.964625
 21
303.758565
 31
0.0
  0
LINE
  8
LC-002-005-----0
  6
CONTINUOUS
  5
A2
 10
182.164625
 20
303.786992
 30
0.0
 11
184.964625
 21
306.586992
 31
0.0
  0
LINE
  8
LC-002-005-----0
  6
CONTINUOUS
  5
A3
 10
182.164625
 20
306.615419
 30
0.0
 11
184.964625
 21
309.415419
 31
0.0
  0
LINE
  8
LC-002-005-----0
  6
CONTINUOUS
  5
A4
 10
182.164625
 20
309.443846
 30
0.0
 11
184.964625
 21
312.243846
 31
0.0
  0
LINE
  8
LC-002-005-----0
  6
CONTINUOUS
  5
A5
 10
182.164625
 20
312.272273
 30
0.0
 11
184.964625
 21
315.072273
 31
0.0
  0
LINE
  8
LC-002-005-----0
  6
CONTINUOUS
  5
A6
 10
182.164625
 20
315.1007
 30
0.0
 11
184.964625
 21
317.9007
 31
0.0
  0
LINE
  8
LC-002-005-----0
  6
CONTINUOUS
  5
A7
 10
182.164625
 20
317.929127
 30
0.0
 11
184.964625
 21
320.729127
 31
0.0
  0
LINE
  8
LC-002-005-----0
  6
CONTINUOUS
  5
A8
 10
182.164625
 20
320.757555
 30
0.0
 11
184.964625
 21
323.557555
 31
0.0
  0
LINE
  8
LC-002-005-----0
  6
CONTINUOUS
  5
A9
 10
182.164625
 20
323.585982
 30
0.0
 11
184.964625
 21
326.385982
 31
0.0
  0
LINE
  8
LC-002-005-----0
  6
CONTINUOUS
  5
AA
 10
182.164625
 20
326.414409
 30
0.0
 11
184.964625
 21
329.214409
 31
0.0
  0
LINE
  8
LC-002-005-----0
  6
CONTINUOUS
  5
AB
 10
182.164625
 20
329.242836
 30
0.0
 11
184.964625
 21
332.042836
 31
0.0
  0
LINE
  8
LC-002-005-----0
  6
CONTINUOUS
  5
AC
 10
182.164625
 20
332.071263
 30
0.0
 11
184.964625
 21
334.871263
 31
0.0
  0
LINE
  8
LC-002-005-----0
  6
CONTINUOUS
  5
AD
 10
182.164625
 20
334.89969
 30
0.0
 11
184.964625
 21
337.69969
 31
0.0
  0
LINE
  8
LC-002-005-----0
  6
CONTINUOUS
  5
AE
 10
182.164625
 20
337.728117
 30
0.0
 11
184.964625
 21
340.528117
 31
0.0
  0
LINE
  8
LC-002-005-----0
  6
CONTINUOUS
  5
AF
 10
182.164625
 20
340.556544
 30
0.0
 11
184.964625
 21
343.356544
 31
0.0
  0
LINE
  8
LC-002-005-----0
  6
CONTINUOUS
  5
B0
 10
182.164625
 20
343.384972
 30
0.0
 11
184.964625
 21
346.184972
 31
0.0
  0
LINE
  8
LC-002-005-----0
  6
CONTINUOUS
  5
B1
 10
182.164625
 20
346.213399
 30
0.0
 11
184.964625
 21
349.013399
 31
0.0
  0
LINE
  8
LC-002-005-----0
  6
CONTINUOUS
  5
B2
 10
182.164625
 20
349.041826
 30
0.0
 11
184.964625
 21
351.841826
 31
0.0
  0
LINE
  8
LC-002-005-----0
  6
CONTINUOUS
  5
B3
 10
182.164625
 20
351.870253
 30
0.0
 11
184.964625
 21
354.670253
 31
0.0
  0
LINE
  8
LC-002-005-----0
  6
CONTINUOUS
  5
B4
 10
182.164625
 20
354.69868
 30
0.0
 11
184.964625
 21
357.49868
 31
0.0
  0
LINE
  8
LC-002-005-----0
  6
CONTINUOUS
  5
B5
 10
182.164625
 20
357.527107
 30
0.0
 11
184.964625
 21
360.327107
 31
0.0
  0
LINE
  8
LC-002-005-----0
  6
CONTINUOUS
  5
B6
 10
182.164625
 20
360.355534
 30
0.0
 11
184.964625
 21
363.155534
 31
0.0
  0
LINE
  8
LC-002-005-----0
  6
CONTINUOUS
  5
B7
 10
182.164625
 20
363.183961
 30
0.0
 11
184.964625
 21
365.983961
 31
0.0
  0
LINE
  8
LC-002-005-----0
  6
CONTINUOUS
  5
B8
 10
182.164625
 20
366.012389
 30
0.0
 11
184.964625
 21
368.812389
 31
0.0
  0
LINE
  8
LC-002-005-----0
  6
CONTINUOUS
  5
B9
 10
182.164625
 20
368.840816
 30
0.0
 11
184.964625
 21
371.640816
 31
0.0
  0
LINE
  8
LC-002-005-----0
  6
CONTINUOUS
  5
BA
 10
182.164625
 20
371.669243
 30
0.0
 11
184.964625
 21
374.469243
 31
0.0
  0
LINE
  8
LC-002-005-----0
  6
CONTINUOUS
  5
BB
 10
181.757923
 20
374.090968
 30
0.0
 11
184.964625
 21
377.29767
 31
0.0
  0
LINE
  8
LC-002-005-----0
  6
CONTINUOUS
  5
BC
 10
179.664625
 20
374.826097
 30
0.0
 11
184.964625
 21
380.126097
 31
0.0
  0
LINE
  8
LC-002-005-----0
  6
CONTINUOUS
  5
BD
 10
179.664625
 20
377.654524
 30
0.0
 11
183.101069
 21
381.090968
 31
0.0
  0
LINE
  8
LC-002-005-----0
  6
CONTINUOUS
  5
BE
 10
177.772642
 20
378.590968
 30
0.0
 11
180.272642
 21
381.090968
 31
0.0
  0
LINE
  8
LC-002-005-----0
  6
CONTINUOUS
  5
BF
 10
174.944215
 20
378.590968
 30
0.0
 11
178.400528
 21
382.047281
 31
0.0
  0
LINE
  8
LC-002-005-----0
  6
CONTINUOUS
  5
C0
 10
172.115787
 20
378.590968
 30
0.0
 11
176.607379
 21
383.082559
 31
0.0
  0
LINE
  8
LC-002-005-----0
  6
CONTINUOUS
  5
C1
 10
169.28736
 20
378.590968
 30
0.0
 11
174.814229
 21
384.117836
 31
0.0
  0
LINE
  8
LC-002-005-----0
  6
CONTINUOUS
  5
C2
 10
166.458933
 20
378.590968
 30
0.0
 11
173.02108
 21
385.153114
 31
0.0
  0
LINE
  8
LC-002-005-----0
  6
CONTINUOUS
  5
C3
 10
163.630506
 20
378.590968
 30
0.0
 11
171.22793
 21
386.188391
 31
0.0
  0
LINE
  8
LC-002-005-----0
  6
CONTINUOUS
  5
C4
 10
160.802079
 20
378.590968
 30
0.0
 11
169.302079
 21
387.090968
 31
0.0
  0
LINE
  8
LC-002-005-----0
  6
CONTINUOUS
  5
C5
 10
157.973652
 20
378.590968
 30
0.0
 11
166.473652
 21
387.090968
 31
0.0
  0
LINE
  8
LC-002-005-----0
  6
CONTINUOUS
  5
C6
 10
155.145225
 20
378.590968
 30
0.0
 11
163.645225
 21
387.090968
 31
0.0
  0
LINE
  8
LC-002-005-----0
  6
CONTINUOUS
  5
C7
 10
154.664625
 20
380.938795
 30
0.0
 11
160.816798
 21
387.090968
 31
0.0
  0
LINE
  8
LC-002-005-----0
  6
CONTINUOUS
  5
C8
 10
154.664625
 20
383.767223
 30
0.0
 11
159.664625
 21
388.767223
 31
0.0
  0
LINE
  8
LC-002-005-----0
  6
CONTINUOUS
  5
C9
 10
154.664625
 20
386.59565
 30
0.0
 11
159.664625
 21
391.59565
 31
0.0
  0
LINE
  8
LC-002-005-----0
  6
CONTINUOUS
  5
CA
 10
154.664625
 20
389.424077
 30
0.0
 11
157.331516
 21
392.090968
 31
0.0
  0
ENDBLK
  8
0
  5
CB
  0
BLOCK
  8
0
  5
CD
  2
*D2
 70
    65
 10
0.0
 20
0.0
 30
0.0
  3
*D2
  0
LINE
  8
LC-004-003-MTH-0
  6
CONTINUOUS
  5
CF
 10
182.164625
 20
192.090968
 30
0.0
 11
182.164625
 21
100.8
 31
0.0
  0
LINE
  8
LC-004-003-MTH-0
  6
CONTINUOUS
  5
D0
 10
327.164625
 20
193.090968
 30
0.0
 11
327.164625
 21
100.8
 31
0.0
  0
LINE
  8
LC-005-003-MTG-0
  6
CONTINUOUS
  5
D2
 10
182.164625
 20
117.6
 30
0.0
 11
327.164625
 21
117.6
 31
0.0
  0
LINE
  8
LC-003-003-----0
  6
CONTINUOUS
  5
D4
 10
209.925082
 20
121.254733
 30
0.0
 11
182.164625
 21
117.6
 31
0.0
  0
LINE
  8
LC-003-003-----0
  6
CONTINUOUS
  5
D5
 10
182.164625
 20
117.6
 30
0.0
 11
209.925082
 21
113.945267
 31
0.0
  0
LINE
  8
LC-003-003-----0
  6
CONTINUOUS
  5
D6
 10
209.925082
 20
113.945267
 30
0.0
 11
209.925082
 21
121.254733
 31
0.0
  0
LINE
  8
LC-003-003-----0
  6
CONTINUOUS
  5
D7
 10
209.987363
 20
120.304503
 30
0.0
 11
189.444625
 21
117.6
 31
0.0
  0
LINE
  8
LC-003-003-----0
  6
CONTINUOUS
  5
D8
 10
189.444625
 20
117.6
 30
0.0
 11
209.987363
 21
114.895497
 31
0.0
  0
LINE
  8
LC-003-003-----0
  6
CONTINUOUS
  5
D9
 10
210.049644
 20
119.354272
 30
0.0
 11
196.724625
 21
117.6
 31
0.0
  0
LINE
  8
LC-003-003-----0
  6
CONTINUOUS
  5
DA
 10
196.724625
 20
117.6
 30
0.0
 11
210.049644
 21
115.845728
 31
0.0
  0
LINE
  8
LC-003-003-----0
  6
CONTINUOUS
  5
DB
 10
210.111926
 20
118.404041
 30
0.0
 11
204.004625
 21
117.6
 31
0.0
  0
LINE
  8
LC-003-003-----0
  6
CONTINUOUS
  5
DC
 10
204.004625
 20
117.6
 30
0.0
 11
210.111926
 21
116.795959
 31
0.0
  0
LINE
  8
LC-003-003-----0
  6
CONTINUOUS
  5
DD
 10
299.404169
 20
113.945267
 30
0.0
 11
327.164625
 21
117.6
 31
0.0
  0
LINE
  8
LC-003-003-----0
  6
CONTINUOUS
  5
DE
 10
327.164625
 20
117.6
 30
0.0
 11
299.404169
 21
121.254733
 31
0.0
  0
LINE
  8
LC-003-003-----0
  6
CONTINUOUS
  5
DF
 10
299.404169
 20
121.254733
 30
0.0
 11
299.404169
 21
113.945267
 31
0.0
  0
LINE
  8
LC-003-003-----0
  6
CONTINUOUS
  5
E0
 10
299.341888
 20
114.895497
 30
0.0
 11
319.884625
 21
117.6
 31
0.0
  0
LINE
  8
LC-003-003-----0
  6
CONTINUOUS
  5
E1
 10
319.884625
 20
117.6
 30
0.0
 11
299.341888
 21
120.304503
 31
0.0
  0
LINE
  8
LC-003-003-----0
  6
CONTINUOUS
  5
E2
 10
299.279607
 20
115.845728
 30
0.0
 11
312.604625
 21
117.6
 31
0.0
  0
LINE
  8
LC-003-003-----0
  6
CONTINUOUS
  5
E3
 10
312.604625
 20
117.6
 30
0.0
 11
299.279607
 21
119.354272
 31
0.0
  0
LINE
  8
LC-003-003-----0
  6
CONTINUOUS
  5
E4
 10
299.217325
 20
116.795959
 30
0.0
 11
305.324625
 21
117.6
 31
0.0
  0
LINE
  8
LC-003-003-----0
  6
CONTINUOUS
  5
E5
 10
305.324625
 20
117.6
 30
0.0
 11
299.217325
 21
118.404041
 31
0.0
  0
TEXT
  8
LC-003-003-----0
  6
CONTINUOUS
 62
     8
  5
E7
 10
220.915148
 20
125.427554
 30
0.0
 40
28.0
  1
Ø145
 41
0.9
 51
15.0
  7
LC-TXTSTYLE-150-400-0-0-D0
 72
     1
 11
259.012785
 21
125.427554
 31
0.0
  0
ENDBLK
  8
0
  5
E8
  0
BLOCK
  8
0
  5
EA
  2
BLK1
 70
    64
 10
0.0
 20
0.0
 30
0.0
  3
BLK1
  0
ENDBLK
  8
0
  5
EB
  0
BLOCK
  8
0
  5
ED
  2
BLK2
 70
    64
 10
0.0
 20
0.0
 30
0.0
  3
BLK2
  0
ENDBLK
  8
0
  5
EE
  0
BLOCK
  8
0
  5
F0
  2
BLK3
 70
    64
 10
0.0
 20
0.0
 30
0.0
  3
BLK3
  0
ENDBLK
  8
0
  5
F1
  0
BLOCK
  8
0
  5
F3
  2
BLK4
 70
    64
 10
0.0
 20
0.0
 30
0.0
  3
BLK4
  0
ENDBLK
  8
0
  5
F4
  0
BLOCK
  8
0
  5
F6
  2
BLK5
 70
    64
 10
0.0
 20
0.0
 30
0.0
  3
BLK5
  0
ENDBLK
  8
0
  5
F7
  0
BLOCK
  8
0
  5
F9
  2
BLK6
 70
    64
 10
0.0
 20
0.0
 30
0.0
  3
BLK6
  0
ENDBLK
  8
0
  5
FA
  0
BLOCK
  8
0
  5
FC
  2
BLK7
 70
    64
 10
0.0
 20
0.0
 30
0.0
  3
BLK7
  0
ENDBLK
  8
0
  5
FD
  0
BLOCK
  8
0
  5
FF
  2
BLK8
 70
    64
 10
0.0
 20
0.0
 30
0.0
  3
BLK8
  0
ENDBLK
  8
0
  5
100
  0
BLOCK
  8
0
  5
102
  2
BLK9
 70
    64
 10
0.0
 20
0.0
 30
0.0
  3
BLK9
  0
ENDBLK
  8
0
  5
103
  0
BLOCK
  8
0
  5
105
  2
BLK10
 70
    64
 10
0.0
 20
0.0
 30
0.0
  3
BLK10
  0
ENDBLK
  8
0
  5
106
  0
BLOCK
  8
0
  5
108
  2
BLK11
 70
    64
 10
0.0
 20
0.0
 30
0.0
  3
BLK11
  0
ENDBLK
  8
0
  5
109
  0
BLOCK
  8
0
  5
10B
  2
BLK12
 70
    64
 10
0.0
 20
0.0
 30
0.0
  3
BLK12
  0
ENDBLK
  8
0
  5
10C
  0
BLOCK
  8
0
  5
10E
  2
BLK13
 70
    64
 10
0.0
 20
0.0
 30
0.0
  3
BLK13
  0
ENDBLK
  8
0
  5
10F
  0
BLOCK
  8
0
  5
111
  2
BLK14
 70
    64
 10
0.0
 20
0.0
 30
0.0
  3
BLK14
  0
ENDBLK
  8
0
  5
112
  0
BLOCK
  8
0
  5
114
  2
BLK15
 70
    64
 10
0.0
 20
0.0
 30
0.0
  3
BLK15
  0
ENDBLK
  8
0
  5
115
  0
BLOCK
  8
0
  5
117
  2
BLK16
 70
    64
 10
0.0
 20
0.0
 30
0.0
  3
BLK16
  0
ENDBLK
  8
0
  5
118
  0
BLOCK
  8
0
  5
11A
  2
BLK17
 70
    64
 10
0.0
 20
0.0
 30
0.0
  3
BLK17
  0
ENDBLK
  8
0
  5
11B
  0
BLOCK
  8
0
  5
11D
  2
BLK18
 70
    64
 10
0.0
 20
0.0
 30
0.0
  3
BLK18
  0
ENDBLK
  8
0
  5
11E
  0
BLOCK
  8
0
  5
120
  2
BLK19
 70
    64
 10
0.0
 20
0.0
 30
0.0
  3
BLK19
  0
ENDBLK
  8
0
  5
121
  0
BLOCK
  8
0
  5
123
  2
BLK20
 70
    64
 10
0.0
 20
0.0
 30
0.0
  3
BLK20
  0
ENDBLK
  8
0
  5
124
  0
BLOCK
  8
0
  5
126
  2
BLK21
 70
    64
 10
0.0
 20
0.0
 30
0.0
  3
BLK21
  0
ENDBLK
  8
0
  5
127
  0
BLOCK
  8
0
  5
129
  2
*D24
 70
    65
 10
0.0
 20
0.0
 30
0.0
  3
*D24
  0
LINE
  8
LC-004-003-MTH-0
  6
CONTINUOUS
  5
12A
 10
154.664625
 20
378.590968
 30
0.0
 11
100.8
 21
378.590968
 31
0.0
  0
LINE
  8
LC-004-003-MTH-0
  6
CONTINUOUS
  5
12B
 10
154.664625
 20
392.090968
 30
0.0
 11
100.8
 21
392.090968
 31
0.0
  0
LINE
  8
LC-003-003-----0
  6
CONTINUOUS
  5
12C
 10
121.254733
 20
350.830511
 30
0.0
 11
117.6
 21
378.590968
 31
0.0
  0
LINE
  8
LC-003-003-----0
  6
CONTINUOUS
  5
12D
 10
117.6
 20
378.590968
 30
0.0
 11
113.945267
 21
350.830511
 31
0.0
  0
LINE
  8
LC-003-003-----0
  6
CONTINUOUS
  5
12E
 10
113.945267
 20
350.830511
 30
0.0
 11
121.254733
 21
350.830511
 31
0.0
  0
LINE
  8
LC-003-003-----0
  6
CONTINUOUS
  5
12F
 10
120.304503
 20
350.76823
 30
0.0
 11
117.6
 21
371.310968
 31
0.0
  0
LINE
  8
LC-003-003-----0
  6
CONTINUOUS
  5
130
 10
117.6
 20
371.310968
 30
0.0
 11
114.895497
 21
350.76823
 31
0.0
  0
LINE
  8
LC-003-003-----0
  6
CONTINUOUS
  5
131
 10
119.354272
 20
350.705949
 30
0.0
 11
117.6
 21
364.030968
 31
0.0
  0
LINE
  8
LC-003-003-----0
  6
CONTINUOUS
  5
132
 10
117.6
 20
364.030968
 30
0.0
 11
115.845728
 21
350.705949
 31
0.0
  0
LINE
  8
LC-003-003-----0
  6
CONTINUOUS
  5
133
 10
118.404041
 20
350.643667
 30
0.0
 11
117.6
 21
356.750968
 31
0.0
  0
LINE
  8
LC-003-003-----0
  6
CONTINUOUS
  5
134
 10
117.6
 20
356.750968
 30
0.0
 11
116.795959
 21
350.643667
 31
0.0
  0
LINE
  8
LC-003-003-----0
  6
CONTINUOUS
  5
135
 10
113.945267
 20
419.851424
 30
0.0
 11
117.6
 21
392.090968
 31
0.0
  0
LINE
  8
LC-003-003-----0
  6
CONTINUOUS
  5
136
 10
117.6
 20
392.090968
 30
0.0
 11
121.254733
 21
419.851424
 31
0.0
  0
LINE
  8
LC-003-003-----0
  6
CONTINUOUS
  5
137
 10
121.254733
 20
419.851424
 30
0.0
 11
113.945267
 21
419.851424
 31
0.0
  0
LINE
  8
LC-003-003-----0
  6
CONTINUOUS
  5
138
 10
114.895497
 20
419.913705
 30
0.0
 11
117.6
 21
399.370968
 31
0.0
  0
LINE
  8
LC-003-003-----0
  6
CONTINUOUS
  5
139
 10
117.6
 20
399.370968
 30
0.0
 11
120.304503
 21
419.913705
 31
0.0
  0
LINE
  8
LC-003-003-----0
  6
CONTINUOUS
  5
13A
 10
115.845728
 20
419.975986
 30
0.0
 11
117.6
 21
406.650968
 31
0.0
  0
LINE
  8
LC-003-003-----0
  6
CONTINUOUS
  5
13B
 10
117.6
 20
406.650968
 30
0.0
 11
119.354272
 21
419.975986
 31
0.0
  0
LINE
  8
LC-003-003-----0
  6
CONTINUOUS
  5
13C
 10
116.795959
 20
420.038268
 30
0.0
 11
117.6
 21
413.930968
 31
0.0
  0
LINE
  8
LC-003-003-----0
  6
CONTINUOUS
  5
13D
 10
117.6
 20
413.930968
 30
0.0
 11
118.404041
 21
420.038268
 31
0.0
  0
LINE
  8
LC-005-003-MTG-0
  6
CONTINUOUS
  5
13E
 10
117.6
 20
295.226568
 30
0.0
 11
117.6
 21
431.290968
 31
0.0
  0
TEXT
  8
LC-003-003-----0
  6
CONTINUOUS
 62
     8
  5
13F
 10
109.772446
 20
307.952041
 30
0.0
 40
28.0
  1
14
 50
90.0
 51
15.0
  7
LC-TXTSTYLE-150-400-0-0-D0
 72
     2
 11
109.772446
 21
344.859127
 31
0.0
  0
ENDBLK
  8
0
  5
140
  0
BLOCK
  8
0
  5
142
  2
*D25
 70
    65
 10
0.0
 20
0.0
 30
0.0
  3
*D25
  0
LINE
  8
LC-004-003-MTH-0
  6
CONTINUOUS
  5
143
 10
154.664625
 20
392.090968
 30
0.0
 11
154.664625
 21
436.8
 31
0.0
  0
LINE
  8
LC-004-003-MTH-0
  6
CONTINUOUS
  5
144
 10
354.664625
 20
392.090968
 30
0.0
 11
354.664625
 21
436.8
 31
0.0
  0
LINE
  8
LC-005-003-MTG-0
  6
CONTINUOUS
  5
145
 10
154.664625
 20
420.0
 30
0.0
 11
354.664625
 21
420.0
 31
0.0
  0
LINE
  8
LC-003-003-----0
  6
CONTINUOUS
  5
146
 10
182.425082
 20
423.654733
 30
0.0
 11
154.664625
 21
420.0
 31
0.0
  0
LINE
  8
LC-003-003-----0
  6
CONTINUOUS
  5
147
 10
154.664625
 20
420.0
 30
0.0
 11
182.425082
 21
416.345267
 31
0.0
  0
LINE
  8
LC-003-003-----0
  6
CONTINUOUS
  5
148
 10
182.425082
 20
416.345267
 30
0.0
 11
182.425082
 21
423.654733
 31
0.0
  0
LINE
  8
LC-003-003-----0
  6
CONTINUOUS
  5
149
 10
182.487363
 20
422.704503
 30
0.0
 11
161.944625
 21
420.0
 31
0.0
  0
LINE
  8
LC-003-003-----0
  6
CONTINUOUS
  5
14A
 10
161.944625
 20
420.0
 30
0.0
 11
182.487363
 21
417.295497
 31
0.0
  0
LINE
  8
LC-003-003-----0
  6
CONTINUOUS
  5
14B
 10
182.549644
 20
421.754272
 30
0.0
 11
169.224625
 21
420.0
 31
0.0
  0
LINE
  8
LC-003-003-----0
  6
CONTINUOUS
  5
14C
 10
169.224625
 20
420.0
 30
0.0
 11
182.549644
 21
418.245728
 31
0.0
  0
LINE
  8
LC-003-003-----0
  6
CONTINUOUS
  5
14D
 10
182.611926
 20
420.804041
 30
0.0
 11
176.504625
 21
420.0
 31
0.0
  0
LINE
  8
LC-003-003-----0
  6
CONTINUOUS
  5
14E
 10
176.504625
 20
420.0
 30
0.0
 11
182.611926
 21
419.195959
 31
0.0
  0
LINE
  8
LC-003-003-----0
  6
CONTINUOUS
  5
14F
 10
326.904169
 20
416.345267
 30
0.0
 11
354.664625
 21
420.0
 31
0.0
  0
LINE
  8
LC-003-003-----0
  6
CONTINUOUS
  5
150
 10
354.664625
 20
420.0
 30
0.0
 11
326.904169
 21
423.654733
 31
0.0
  0
LINE
  8
LC-003-003-----0
  6
CONTINUOUS
  5
151
 10
326.904169
 20
423.654733
 30
0.0
 11
326.904169
 21
416.345267
 31
0.0
  0
LINE
  8
LC-003-003-----0
  6
CONTINUOUS
  5
152
 10
326.841888
 20
417.295497
 30
0.0
 11
347.384625
 21
420.0
 31
0.0
  0
LINE
  8
LC-003-003-----0
  6
CONTINUOUS
  5
153
 10
347.384625
 20
420.0
 30
0.0
 11
326.841888
 21
422.704503
 31
0.0
  0
LINE
  8
LC-003-003-----0
  6
CONTINUOUS
  5
154
 10
326.779607
 20
418.245728
 30
0.0
 11
340.104625
 21
420.0
 31
0.0
  0
LINE
  8
LC-003-003-----0
  6
CONTINUOUS
  5
155
 10
340.104625
 20
420.0
 30
0.0
 11
326.779607
 21
421.754272
 31
0.0
  0
LINE
  8
LC-003-003-----0
  6
CONTINUOUS
  5
156
 10
326.717325
 20
419.195959
 30
0.0
 11
332.824625
 21
420.0
 31
0.0
  0
LINE
  8
LC-003-003-----0
  6
CONTINUOUS
  5
157
 10
332.824625
 20
420.0
 30
0.0
 11
326.717325
 21
420.804041
 31
0.0
  0
TEXT
  8
LC-003-003-----0
  6
CONTINUOUS
 62
     8
  5
158
 10
235.210908
 20
427.827554
 30
0.0
 40
28.0
  1
200
 51
15.0
  7
LC-TXTSTYLE-150-400-0-0-D0
 72
     1
 11
264.974687
 21
427.827554
 31
0.0
  0
ENDBLK
  8
0
  5
159
  0
BLOCK
  8
0
  5
15B
  2
*X26
 70
    65
 10
184.830651
 20
187.090968
 30
0.0
  3
*X26
  0
LINE
  8
LC-002-005-----0
  6
CONTINUOUS
  5
15C
 10
249.316364
 20
187.090968
 30
0.0
 11
254.530651
 21
192.305254
 31
0.0
  0
LINE
  8
LC-002-005-----0
  6
CONTINUOUS
  5
15D
 10
243.65951
 20
187.090968
 30
0.0
 11
254.530651
 21
197.962108
 31
0.0
  0
LINE
  8
LC-002-005-----0
  6
CONTINUOUS
  5
15E
 10
238.002656
 20
187.090968
 30
0.0
 11
254.530651
 21
203.618963
 31
0.0
  0
LINE
  8
LC-002-005-----0
  6
CONTINUOUS
  5
15F
 10
232.345802
 20
187.090968
 30
0.0
 11
254.530651
 21
209.275817
 31
0.0
  0
LINE
  8
LC-002-005-----0
  6
CONTINUOUS
  5
160
 10
226.688947
 20
187.090968
 30
0.0
 11
249.688947
 21
210.090968
 31
0.0
  0
LINE
  8
LC-002-005-----0
  6
CONTINUOUS
  5
161
 10
221.032093
 20
187.090968
 30
0.0
 11
244.032093
 21
210.090968
 31
0.0
  0
LINE
  8
LC-002-005-----0
  6
CONTINUOUS
  5
162
 10
215.375239
 20
187.090968
 30
0.0
 11
238.375239
 21
210.090968
 31
0.0
  0
LINE
  8
LC-002-005-----0
  6
CONTINUOUS
  5
163
 10
209.718385
 20
187.090968
 30
0.0
 11
232.718385
 21
210.090968
 31
0.0
  0
LINE
  8
LC-002-005-----0
  6
CONTINUOUS
  5
164
 10
204.06153
 20
187.090968
 30
0.0
 11
227.06153
 21
210.090968
 31
0.0
  0
LINE
  8
LC-002-005-----0
  6
CONTINUOUS
  5
165
 10
198.404676
 20
187.090968
 30
0.0
 11
221.404676
 21
210.090968
 31
0.0
  0
LINE
  8
LC-002-005-----0
  6
CONTINUOUS
  5
166
 10
192.747822
 20
187.090968
 30
0.0
 11
215.747822
 21
210.090968
 31
0.0
  0
LINE
  8
LC-002-005-----0
  6
CONTINUOUS
  5
167
 10
187.090968
 20
187.090968
 30
0.0
 11
210.090968
 21
210.090968
 31
0.0
  0
LINE
  8
LC-002-005-----0
  6
CONTINUOUS
  5
168
 10
184.830651
 20
190.487505
 30
0.0
 11
204.434113
 21
210.090968
 31
0.0
  0
LINE
  8
LC-002-005-----0
  6
CONTINUOUS
  5
169
 10
184.830651
 20
196.144359
 30
0.0
 11
198.777259
 21
210.090968
 31
0.0
  0
LINE
  8
LC-002-005-----0
  6
CONTINUOUS
  5
16A
 10
184.830651
 20
201.801214
 30
0.0
 11
193.120405
 21
210.090968
 31
0.0
  0
LINE
  8
LC-002-005-----0
  6
CONTINUOUS
  5
16B
 10
184.830651
 20
207.458068
 30
0.0
 11
187.463551
 21
210.090968
 31
0.0
  0
LINE
  8
LC-002-005-----0
  6
CONTINUOUS
  5
16C
 10
254.530651
 20
209.331398
 30
0.0
 11
253.771081
 21
210.090968
 31
0.0
  0
LINE
  8
LC-002-005-----0
  6
CONTINUOUS
  5
16D
 10
254.530651
 20
203.674543
 30
0.0
 11
248.114227
 21
210.090968
 31
0.0
  0
LINE
  8
LC-002-005-----0
  6
CONTINUOUS
  5
16E
 10
254.530651
 20
198.017689
 30
0.0
 11
242.457372
 21
210.090968
 31
0.0
  0
LINE
  8
LC-002-005-----0
  6
CONTINUOUS
  5
16F
 10
254.530651
 20
192.360835
 30
0.0
 11
236.800518
 21
210.090968
 31
0.0
  0
LINE
  8
LC-002-005-----0
  6
CONTINUOUS
  5
170
 10
254.143664
 20
187.090968
 30
0.0
 11
231.143664
 21
210.090968
 31
0.0
  0
LINE
  8
LC-002-005-----0
  6
CONTINUOUS
  5
171
 10
248.48681
 20
187.090968
 30
0.0
 11
225.48681
 21
210.090968
 31
0.0
  0
LINE
  8
LC-002-005-----0
  6
CONTINUOUS
  5
172
 10
242.829955
 20
187.090968
 30
0.0
 11
219.829955
 21
210.090968
 31
0.0
  0
LINE
  8
LC-002-005-----0
  6
CONTINUOUS
  5
173
 10
237.173101
 20
187.090968
 30
0.0
 11
214.173101
 21
210.090968
 31
0.0
  0
LINE
  8
LC-002-005-----0
  6
CONTINUOUS
  5
174
 10
231.516247
 20
187.090968
 30
0.0
 11
208.516247
 21
210.090968
 31
0.0
  0
LINE
  8
LC-002-005-----0
  6
CONTINUOUS
  5
175
 10
225.859393
 20
187.090968
 30
0.0
 11
202.859393
 21
210.090968
 31
0.0
  0
LINE
  8
LC-002-005-----0
  6
CONTINUOUS
  5
176
 10
220.202538
 20
187.090968
 30
0.0
 11
197.202538
 21
210.090968
 31
0.0
  0
LINE
  8
LC-002-005-----0
  6
CONTINUOUS
  5
177
 10
214.545684
 20
187.090968
 30
0.0
 11
191.545684
 21
210.090968
 31
0.0
  0
LINE
  8
LC-002-005-----0
  6
CONTINUOUS
  5
178
 10
208.88883
 20
187.090968
 30
0.0
 11
185.88883
 21
210.090968
 31
0.0
  0
LINE
  8
LC-002-005-----0
  6
CONTINUOUS
  5
179
 10
203.231976
 20
187.090968
 30
0.0
 11
184.830651
 21
205.492292
 31
0.0
  0
LINE
  8
LC-002-005-----0
  6
CONTINUOUS
  5
17A
 10
197.575121
 20
187.090968
 30
0.0
 11
184.830651
 21
199.835438
 31
0.0
  0
LINE
  8
LC-002-005-----0
  6
CONTINUOUS
  5
17B
 10
191.918267
 20
187.090968
 30
0.0
 11
184.830651
 21
194.178584
 31
0.0
  0
LINE
  8
LC-002-005-----0
  6
CONTINUOUS
  5
17C
 10
186.261413
 20
187.090968
 30
0.0
 11
184.830651
 21
188.52173
 31
0.0
  0
ENDBLK
  8
0
  5
17D
  0
BLOCK
  8
0
  5
17F
  2
*X27
 70
    65
 10
254.530651
 20
187.090968
 30
0.0
  3
*X27
  0
LINE
  8
LC-002-005-----0
  6
CONTINUOUS
  5
180
 10
322.85547
 20
187.090968
 30
0.0
 11
324.230651
 21
188.466149
 31
0.0
  0
LINE
  8
LC-002-005-----0
  6
CONTINUOUS
  5
181
 10
317.198615
 20
187.090968
 30
0.0
 11
324.230651
 21
194.123003
 31
0.0
  0
LINE
  8
LC-002-005-----0
  6
CONTINUOUS
  5
182
 10
311.541761
 20
187.090968
 30
0.0
 11
324.230651
 21
199.779857
 31
0.0
  0
LINE
  8
LC-002-005-----0
  6
CONTINUOUS
  5
183
 10
305.884907
 20
187.090968
 30
0.0
 11
324.230651
 21
205.436712
 31
0.0
  0
LINE
  8
LC-002-005-----0
  6
CONTINUOUS
  5
184
 10
300.228053
 20
187.090968
 30
0.0
 11
323.228053
 21
210.090968
 31
0.0
  0
LINE
  8
LC-002-005-----0
  6
CONTINUOUS
  5
185
 10
294.571198
 20
187.090968
 30
0.0
 11
317.571198
 21
210.090968
 31
0.0
  0
LINE
  8
LC-002-005-----0
  6
CONTINUOUS
  5
186
 10
288.914344
 20
187.090968
 30
0.0
 11
311.914344
 21
210.090968
 31
0.0
  0
LINE
  8
LC-002-005-----0
  6
CONTINUOUS
  5
187
 10
283.25749
 20
187.090968
 30
0.0
 11
306.25749
 21
210.090968
 31
0.0
  0
LINE
  8
LC-002-005-----0
  6
CONTINUOUS
  5
188
 10
277.600636
 20
187.090968
 30
0.0
 11
300.600636
 21
210.090968
 31
0.0
  0
LINE
  8
LC-002-005-----0
  6
CONTINUOUS
  5
189
 10
271.943781
 20
187.090968
 30
0.0
 11
294.943781
 21
210.090968
 31
0.0
  0
LINE
  8
LC-002-005-----0
  6
CONTINUOUS
  5
18A
 10
266.286927
 20
187.090968
 30
0.0
 11
289.286927
 21
210.090968
 31
0.0
  0
LINE
  8
LC-002-005-----0
  6
CONTINUOUS
  5
18B
 10
260.630073
 20
187.090968
 30
0.0
 11
283.630073
 21
210.090968
 31
0.0
  0
LINE
  8
LC-002-005-----0
  6
CONTINUOUS
  5
18C
 10
254.973219
 20
187.090968
 30
0.0
 11
277.973219
 21
210.090968
 31
0.0
  0
LINE
  8
LC-002-005-----0
  6
CONTINUOUS
  5
18D
 10
254.530651
 20
192.305254
 30
0.0
 11
272.316364
 21
210.090968
 31
0.0
  0
LINE
  8
LC-002-005-----0
  6
CONTINUOUS
  5
18E
 10
254.530651
 20
197.962108
 30
0.0
 11
266.65951
 21
210.090968
 31
0.0
  0
LINE
  8
LC-002-005-----0
  6
CONTINUOUS
  5
18F
 10
254.530651
 20
203.618963
 30
0.0
 11
261.002656
 21
210.090968
 31
0.0
  0
LINE
  8
LC-002-005-----0
  6
CONTINUOUS
  5
190
 10
254.530651
 20
209.275817
 30
0.0
 11
255.345802
 21
210.090968
 31
0.0
  0
LINE
  8
LC-002-005-----0
  6
CONTINUOUS
  5
191
 10
324.230651
 20
207.513649
 30
0.0
 11
321.653332
 21
210.090968
 31
0.0
  0
LINE
  8
LC-002-005-----0
  6
CONTINUOUS
  5
192
 10
324.230651
 20
201.856794
 30
0.0
 11
315.996478
 21
210.090968
 31
0.0
  0
LINE
  8
LC-002-005-----0
  6
CONTINUOUS
  5
193
 10
324.230651
 20
196.19994
 30
0.0
 11
310.339623
 21
210.090968
 31
0.0
  0
LINE
  8
LC-002-005-----0
  6
CONTINUOUS
  5
194
 10
324.230651
 20
190.543086
 30
0.0
 11
304.682769
 21
210.090968
 31
0.0
  0
LINE
  8
LC-002-005-----0
  6
CONTINUOUS
  5
195
 10
322.025915
 20
187.090968
 30
0.0
 11
299.025915
 21
210.090968
 31
0.0
  0
LINE
  8
LC-002-005-----0
  6
CONTINUOUS
  5
196
 10
316.369061
 20
187.090968
 30
0.0
 11
293.369061
 21
210.090968
 31
0.0
  0
LINE
  8
LC-002-005-----0
  6
CONTINUOUS
  5
197
 10
310.712206
 20
187.090968
 30
0.0
 11
287.712206
 21
210.090968
 31
0.0
  0
LINE
  8
LC-002-005-----0
  6
CONTINUOUS
  5
198
 10
305.055352
 20
187.090968
 30
0.0
 11
282.055352
 21
210.090968
 31
0.0
  0
LINE
  8
LC-002-005-----0
  6
CONTINUOUS
  5
199
 10
299.398498
 20
187.090968
 30
0.0
 11
276.398498
 21
210.090968
 31
0.0
  0
LINE
  8
LC-002-005-----0
  6
CONTINUOUS
  5
19A
 10
293.741644
 20
187.090968
 30
0.0
 11
270.741644
 21
210.090968
 31
0.0
  0
LINE
  8
LC-002-005-----0
  6
CONTINUOUS
  5
19B
 10
288.084789
 20
187.090968
 30
0.0
 11
265.084789
 21
210.090968
 31
0.0
  0
LINE
  8
LC-002-005-----0
  6
CONTINUOUS
  5
19C
 10
282.427935
 20
187.090968
 30
0.0
 11
259.427935
 21
210.090968
 31
0.0
  0
LINE
  8
LC-002-005-----0
  6
CONTINUOUS
  5
19D
 10
276.771081
 20
187.090968
 30
0.0
 11
254.530651
 21
209.331398
 31
0.0
  0
LINE
  8
LC-002-005-----0
  6
CONTINUOUS
  5
19E
 10
271.114227
 20
187.090968
 30
0.0
 11
254.530651
 21
203.674543
 31
0.0
  0
LINE
  8
LC-002-005-----0
  6
CONTINUOUS
  5
19F
 10
265.457372
 20
187.090968
 30
0.0
 11
254.530651
 21
198.017689
 31
0.0
  0
LINE
  8
LC-002-005-----0
  6
CONTINUOUS
  5
1A0
 10
259.800518
 20
187.090968
 30
0.0
 11
254.530651
 21
192.360835
 31
0.0
  0
ENDBLK
  8
0
  5
1A1
  0
BLOCK
  8
0
  5
1A3
  2
*D28
 70
    65
 10
0.0
 20
0.0
 30
0.0
  3
*D28
  0
LINE
  8
LC-004-003-MTH-0
  6
CONTINUOUS
  5
1A4
 10
324.230651
 20
187.090968
 30
0.0
 11
369.6
 21
187.090968
 31
0.0
  0
LINE
  8
LC-004-003-MTH-0
  6
CONTINUOUS
  5
1A5
 10
324.230651
 20
210.090968
 30
0.0
 11
369.6
 21
210.090968
 31
0.0
  0
LINE
  8
LC-003-003-----0
  6
CONTINUOUS
  5
1A6
 10
356.454733
 20
159.330511
 30
0.0
 11
352.8
 21
187.090968
 31
0.0
  0
LINE
  8
LC-003-003-----0
  6
CONTINUOUS
  5
1A7
 10
352.8
 20
187.090968
 30
0.0
 11
349.145267
 21
159.330511
 31
0.0
  0
LINE
  8
LC-003-003-----0
  6
CONTINUOUS
  5
1A8
 10
349.145267
 20
159.330511
 30
0.0
 11
356.454733
 21
159.330511
 31
0.0
  0
LINE
  8
LC-003-003-----0
  6
CONTINUOUS
  5
1A9
 10
355.504503
 20
159.26823
 30
0.0
 11
352.8
 21
179.810968
 31
0.0
  0
LINE
  8
LC-003-003-----0
  6
CONTINUOUS
  5
1AA
 10
352.8
 20
179.810968
 30
0.0
 11
350.095497
 21
159.26823
 31
0.0
  0
LINE
  8
LC-003-003-----0
  6
CONTINUOUS
  5
1AB
 10
354.554272
 20
159.205949
 30
0.0
 11
352.8
 21
172.530968
 31
0.0
  0
LINE
  8
LC-003-003-----0
  6
CONTINUOUS
  5
1AC
 10
352.8
 20
172.530968
 30
0.0
 11
351.045728
 21
159.205949
 31
0.0
  0
LINE
  8
LC-003-003-----0
  6
CONTINUOUS
  5
1AD
 10
353.604041
 20
159.143667
 30
0.0
 11
352.8
 21
165.250968
 31
0.0
  0
LINE
  8
LC-003-003-----0
  6
CONTINUOUS
  5
1AE
 10
352.8
 20
165.250968
 30
0.0
 11
351.995959
 21
159.143667
 31
0.0
  0
LINE
  8
LC-003-003-----0
  6
CONTINUOUS
  5
1AF
 10
349.145267
 20
237.851424
 30
0.0
 11
352.8
 21
210.090968
 31
0.0
  0
LINE
  8
LC-003-003-----0
  6
CONTINUOUS
  5
1B0
 10
352.8
 20
210.090968
 30
0.0
 11
356.454733
 21
237.851424
 31
0.0
  0
LINE
  8
LC-003-003-----0
  6
CONTINUOUS
  5
1B1
 10
356.454733
 20
237.851424
 30
0.0
 11
349.145267
 21
237.851424
 31
0.0
  0
LINE
  8
LC-003-003-----0
  6
CONTINUOUS
  5
1B2
 10
350.095497
 20
237.913705
 30
0.0
 11
352.8
 21
217.370968
 31
0.0
  0
LINE
  8
LC-003-003-----0
  6
CONTINUOUS
  5
1B3
 10
352.8
 20
217.370968
 30
0.0
 11
355.504503
 21
237.913705
 31
0.0
  0
LINE
  8
LC-003-003-----0
  6
CONTINUOUS
  5
1B4
 10
351.045728
 20
237.975986
 30
0.0
 11
352.8
 21
224.650968
 31
0.0
  0
LINE
  8
LC-003-003-----0
  6
CONTINUOUS
  5
1B5
 10
352.8
 20
224.650968
 30
0.0
 11
354.554272
 21
237.975986
 31
0.0
  0
LINE
  8
LC-003-003-----0
  6
CONTINUOUS
  5
1B6
 10
351.995959
 20
238.038268
 30
0.0
 11
352.8
 21
231.930968
 31
0.0
  0
LINE
  8
LC-003-003-----0
  6
CONTINUOUS
  5
1B7
 10
352.8
 20
231.930968
 30
0.0
 11
353.604041
 21
238.038268
 31
0.0
  0
LINE
  8
LC-005-003-MTG-0
  6
CONTINUOUS
  5
1B8
 10
352.8
 20
147.890968
 30
0.0
 11
352.8
 21
293.455368
 31
0.0
  0
TEXT
  8
LC-003-003-----0
  6
CONTINUOUS
 62
     8
  5
1B9
 10
344.972446
 20
252.519127
 30
0.0
 40
28.0
  1
23
 50
90.0
 51
15.0
  7
LC-TXTSTYLE-150-400-0-0-D0
  0
ENDBLK
  8
0
  5
1BA
  0
BLOCK
  8
0
  5
1BC
  2
*D29
 70
    65
 10
0.0
 20
0.0
 30
0.0
  3
*D29
  0
LINE
  8
LC-004-003-MTH-0
  6
CONTINUOUS
  5
1BD
 10
324.230651
 20
210.090968
 30
0.0
 11
408.8
 21
210.090968
 31
0.0
  0
LINE
  8
LC-004-003-MTH-0
  6
CONTINUOUS
  5
1BE
 10
354.530651
 20
392.090968
 30
0.0
 11
408.8
 21
392.090968
 31
0.0
  0
LINE
  8
LC-005-003-MTG-0
  6
CONTINUOUS
  5
1BF
 10
392.0
 20
210.090968
 30
0.0
 11
392.0
 21
392.090968
 31
0.0
  0
LINE
  8
LC-003-003-----0
  6
CONTINUOUS
  5
1C0
 10
388.345267
 20
237.851424
 30
0.0
 11
392.0
 21
210.090968
 31
0.0
  0
LINE
  8
LC-003-003-----0
  6
CONTINUOUS
  5
1C1
 10
392.0
 20
210.090968
 30
0.0
 11
395.654733
 21
237.851424
 31
0.0
  0
LINE
  8
LC-003-003-----0
  6
CONTINUOUS
  5
1C2
 10
395.654733
 20
237.851424
 30
0.0
 11
388.345267
 21
237.851424
 31
0.0
  0
LINE
  8
LC-003-003-----0
  6
CONTINUOUS
  5
1C3
 10
389.295497
 20
237.913705
 30
0.0
 11
392.0
 21
217.370968
 31
0.0
  0
LINE
  8
LC-003-003-----0
  6
CONTINUOUS
  5
1C4
 10
392.0
 20
217.370968
 30
0.0
 11
394.704503
 21
237.913705
 31
0.0
  0
LINE
  8
LC-003-003-----0
  6
CONTINUOUS
  5
1C5
 10
390.245728
 20
237.975986
 30
0.0
 11
392.0
 21
224.650968
 31
0.0
  0
LINE
  8
LC-003-003-----0
  6
CONTINUOUS
  5
1C6
 10
392.0
 20
224.650968
 30
0.0
 11
393.754272
 21
237.975986
 31
0.0
  0
LINE
  8
LC-003-003-----0
  6
CONTINUOUS
  5
1C7
 10
391.195959
 20
238.038268
 30
0.0
 11
392.0
 21
231.930968
 31
0.0
  0
LINE
  8
LC-003-003-----0
  6
CONTINUOUS
  5
1C8
 10
392.0
 20
231.930968
 30
0.0
 11
392.804041
 21
238.038268
 31
0.0
  0
LINE
  8
LC-003-003-----0
  6
CONTINUOUS
  5
1C9
 10
395.654733
 20
364.330511
 30
0.0
 11
392.0
 21
392.090968
 31
0.0
  0
LINE
  8
LC-003-003-----0
  6
CONTINUOUS
  5
1CA
 10
392.0
 20
392.090968
 30
0.0
 11
388.345267
 21
364.330511
 31
0.0
  0
LINE
  8
LC-003-003-----0
  6
CONTINUOUS
  5
1CB
 10
388.345267
 20
364.330511
 30
0.0
 11
395.654733
 21
364.330511
 31
0.0
  0
LINE
  8
LC-003-003-----0
  6
CONTINUOUS
  5
1CC
 10
394.704503
 20
364.26823
 30
0.0
 11
392.0
 21
384.810968
 31
0.0
  0
LINE
  8
LC-003-003-----0
  6
CONTINUOUS
  5
1CD
 10
392.0
 20
384.810968
 30
0.0
 11
389.295497
 21
364.26823
 31
0.0
  0
LINE
  8
LC-003-003-----0
  6
CONTINUOUS
  5
1CE
 10
393.754272
 20
364.205949
 30
0.0
 11
392.0
 21
377.530968
 31
0.0
  0
LINE
  8
LC-003-003-----0
  6
CONTINUOUS
  5
1CF
 10
392.0
 20
377.530968
 30
0.0
 11
390.245728
 21
364.205949
 31
0.0
  0
LINE
  8
LC-003-003-----0
  6
CONTINUOUS
  5
1D0
 10
392.804041
 20
364.143667
 30
0.0
 11
392.0
 21
370.250968
 31
0.0
  0
LINE
  8
LC-003-003-----0
  6
CONTINUOUS
  5
1D1
 10
392.0
 20
370.250968
 30
0.0
 11
391.195959
 21
364.143667
 31
0.0
  0
TEXT
  8
LC-003-003-----0
  6
CONTINUOUS
 62
     8
  5
1D2
 10
384.172446
 20
240.454876
 30
0.0
 40
28.0
  1
13-182
 50
90.0
 51
15.0
  7
LC-TXTSTYLE-150-400-0-0-D0
 72
     1
 11
384.172446
 21
305.439127
 31
0.0
  0
ENDBLK
  8
0
  5
1D3
  0
ENDSEC
  0
SECTION
  2
ENTITIES
  0
VIEWPORT
  8
LC-000
  5
23C
 67
     1
 68
     1
 10
420.0
 20
297.0
 30
0.0
 40
840.0
 41
594.0
 69
     1
1001
ACAD
1000
MVIEW
1002
{
1070
    16
1010
0.0
1020
0.0
1030
0.0
1010
0.0
1020
0.0
1030
1.0
1040
0.0
1040
594.0
1040
420.0
1040
297.0
1040
50.0
1040
0.0
1040
0.0
1070
     0
1070
   100
1070
     1
1070
     1
1070
     0
1070
     0
1070
     0
1070
     0
1040
0.0
1040
0.0
1040
0.0
1040
1.0
1040
1.0
1040
0.0
1040
0.0
1070
     0
1002
{
1002
}
1002
}
  0
VIEWPORT
  8
0
  5
23D
 67
     1
 68
     1
 10
0.0
 20
0.0
 30
0.0
 40
0.0
 41
0.0
 69
     1
1001
ACAD
1000
MVIEW
1002
{
1070
    16
1010
0.0
1020
0.0
1030
0.0
1010
0.0
1020
0.0
1030
1.0
1040
0.0
1040
594.0
1040
0.0
1040
0.0
1040
50.0
1040
0.0
1040
0.0
1070
     0
1070
   100
1070
     0
1070
     1
1070
     0
1070
     0
1070
     0
1070
     0
1040
0.0
1040
0.0
1040
0.0
1040
0.5
1040
0.5
1040
0.5
1040
0.5
1070
     0
1002
{
1002
}
1002
}
  0
INSERT
  8
0
  5
1D4
  2
*X0
 10
324.364625
 20
187.090968
 30
0.0
  0
INSERT
  8
0
  5
1D5
  2
*X1
 10
154.664625
 20
187.090968
 30
0.0
  0
DIMENSION
  8
0
  5
1D6
  2
*D2
 10
254.664625
 20
117.6
 30
0.0
 11
254.664625
 21
117.6
 31
0.0
  1
%%c<>
 13
182.164625
 23
192.090968
 33
0.0
 14
327.164625
 24
193.090968
 34
0.0
  3
LC-DIM-L-0140-02-02
  0
INSERT
  8
0
  5
1D8
  2
BLK1
 10
0.0
 20
0.0
 30
0.0
  0
INSERT
  8
0
  5
1D9
  2
BLK2
 10
0.0
 20
0.0
 30
0.0
  0
INSERT
  8
0
  5
1DA
  2
BLK3
 10
0.0
 20
0.0
 30
0.0
  0
INSERT
  8
0
  5
1DB
  2
BLK4
 10
0.0
 20
0.0
 30
0.0
  0
INSERT
  8
0
  5
1DC
  2
BLK5
 10
0.0
 20
0.0
 30
0.0
  0
INSERT
  8
0
  5
1DD
  2
BLK6
 10
0.0
 20
0.0
 30
0.0
  0
INSERT
  8
0
  5
1DE
  2
BLK7
 10
0.0
 20
0.0
 30
0.0
  0
INSERT
  8
0
  5
1DF
  2
BLK8
 10
0.0
 20
0.0
 30
0.0
  0
INSERT
  8
0
  5
1E0
  2
BLK9
 10
0.0
 20
0.0
 30
0.0
  0
INSERT
  8
0
  5
1E1
  2
BLK10
 10
0.0
 20
0.0
 30
0.0
  0
INSERT
  8
0
  5
1E2
  2
BLK11
 10
0.0
 20
0.0
 30
0.0
  0
INSERT
  8
0
  5
1E3
  2
BLK12
 10
0.0
 20
0.0
 30
0.0
  0
INSERT
  8
0
  5
1E4
  2
BLK13
 10
0.0
 20
0.0
 30
0.0
  0
INSERT
  8
0
  5
1E5
  2
BLK14
 10
0.0
 20
0.0
 30
0.0
  0
INSERT
  8
0
  5
1E6
  2
BLK15
 10
0.0
 20
0.0
 30
0.0
  0
INSERT
  8
0
  5
1E7
  2
BLK16
 10
0.0
 20
0.0
 30
0.0
  0
INSERT
  8
0
  5
1E8
  2
BLK17
 10
0.0
 20
0.0
 30
0.0
  0
INSERT
  8
0
  5
1E9
  2
BLK18
 10
0.0
 20
0.0
 30
0.0
  0
INSERT
  8
0
  5
1EA
  2
BLK19
 10
0.0
 20
0.0
 30
0.0
  0
INSERT
  8
0
  5
1EB
  2
BLK20
 10
0.0
 20
0.0
 30
0.0
  0
INSERT
  8
0
  5
1EC
  2
BLK21
 10
0.0
 20
0.0
 30
0.0
  0
DIMENSION
  8
0
  5
1ED
  2
*D24
 10
117.6
 20
330.858
 30
0.0
 11
117.6
 21
330.858
 31
0.0
  1
14
 13
154.664625
 23
392.090968
 33
0.0
 14
154.664625
 24
378.590968
 34
0.0
 50
90.0
  3
LC-DIM-L-0140-02-02
  0
DIMENSION
  8
0
  5
1EE
  2
*D25
 10
260.626527
 20
420.0
 30
0.0
 11
260.626527
 21
420.0
 31
0.0
 13
154.664625
 23
392.090968
 33
0.0
 14
354.664625
 24
392.090968
 34
0.0
  3
LC-DIM-L-0140-02-02
  0
INSERT
  8
0
  5
1EF
  2
*X26
 10
184.830651
 20
187.090968
 30
0.0
  0
INSERT
  8
0
  5
1F0
  2
*X27
 10
254.530651
 20
187.090968
 30
0.0
  0
DIMENSION
  8
0
  5
1F1
  2
*D28
 10
352.8
 20
226.908
 30
0.0
 11
352.8
 21
226.908
 31
0.0
 13
324.230651
 23
187.090968
 33
0.0
 14
324.230651
 24
210.090968
 34
0.0
 50
90.0
  3
LC-DIM-L-0140-02-02
  0
DIMENSION
  8
0
  5
1F2
  2
*D29
 10
392.0
 20
301.090968
 30
0.0
 11
392.0
 21
301.090968
 31
0.0
  1
13-182
 13
324.230651
 23
210.090968
 33
0.0
 14
354.530651
 24
392.090968
 34
0.0
 50
90.0
  3
LC-DIM-L-0140-02-02
  0
LINE
  8
LC-001-002-----0
  6
CONTINUOUS
  5
1F4
 10
324.364625
 20
381.090968
 30
0.0
 11
324.364625
 21
187.090968
 31
0.0
  0
LINE
  8
LC-001-002-----0
  6
CONTINUOUS
  5
1F5
 10
182.164625
 20
374.090968
 30
0.0
 11
182.164625
 21
192.090968
 31
0.0
  0
LINE
  8
LC-001-002-----0
  6
CONTINUOUS
  5
1F6
 10
182.169486
 20
192.072828
 30
0.0
 11
183.504371
 21
187.090968
 31
0.0
  0
LINE
  8
LC-001-002-----0
  6
CONTINUOUS
  5
1F7
 10
184.964625
 20
381.090968
 30
0.0
 11
184.964625
 21
187.090968
 31
0.0
  0
LINE
  8
LC-001-002-----0
  6
CONTINUOUS
  5
1F8
 10
327.164625
 20
374.090968
 30
0.0
 11
327.164625
 21
193.090968
 31
0.0
  0
LINE
  8
LC-001-002-----0
  6
CONTINUOUS
  5
1F9
 10
159.664625
 20
387.090968
 30
0.0
 11
349.664625
 21
387.090968
 31
0.0
  0
LINE
  8
LC-001-002-----0
  6
CONTINUOUS
  5
1FA
 10
327.164625
 20
193.090968
 30
0.0
 11
325.55693
 21
187.090968
 31
0.0
  0
LINE
  8
LC-001-002-----0
  6
CONTINUOUS
  5
1FB
 10
349.664625
 20
387.090968
 30
0.0
 11
349.664625
 21
390.090968
 31
0.0
  0
LINE
  8
LC-001-002-----0
  6
DASHDOT
 62
     2
  5
1FD
 10
254.664625
 20
187.090968
 30
0.0
 11
254.664625
 21
392.090968
 31
0.0
  0
LINE
  8
LC-001-002-----0
  6
CONTINUOUS
  5
1FE
 10
354.664625
 20
390.090968
 30
0.0
 11
354.664625
 21
378.590968
 31
0.0
  0
LINE
  8
LC-001-002-----0
  6
CONTINUOUS
  5
1FF
 10
354.664625
 20
378.590968
 30
0.0
 11
329.664625
 21
378.590968
 31
0.0
  0
LINE
  8
LC-001-002-----0
  6
CONTINUOUS
  5
200
 10
329.664625
 20
378.590968
 30
0.0
 11
329.664625
 21
374.090968
 31
0.0
  0
LINE
  8
LC-001-002-----0
  6
CONTINUOUS
  5
201
 10
329.664625
 20
374.090968
 30
0.0
 11
327.164625
 21
374.090968
 31
0.0
  0
LINE
  8
LC-001-002-----0
  6
CONTINUOUS
  5
202
 10
329.272342
 20
381.090968
 30
0.0
 11
324.364625
 21
381.090968
 31
0.0
  0
LINE
  8
LC-001-002-----0
  6
CONTINUOUS
  5
203
 10
339.664625
 20
387.090968
 30
0.0
 11
329.272342
 21
381.090968
 31
0.0
  0
LINE
  8
LC-001-002-----0
  6
CONTINUOUS
  5
204
 10
427.164625
 20
287.090968
 30
0.0
 11
427.164625
 21
387.090968
 31
0.0
  0
LINE
  8
LC-001-002-----0
  6
CONTINUOUS
  5
205
 10
354.664625
 20
390.090968
 30
0.0
 11
354.664625
 21
392.090968
 31
0.0
  0
LINE
  8
LC-001-002-----0
  6
CONTINUOUS
  5
206
 10
349.664625
 20
392.090968
 30
0.0
 11
349.664625
 21
390.090968
 31
0.0
  0
LINE
  8
LC-001-002-----0
  6
CONTINUOUS
  5
207
 10
354.664625
 20
392.090968
 30
0.0
 11
349.664625
 21
392.090968
 31
0.0
  0
LINE
  8
LC-001-002-----0
  6
CONTINUOUS
  5
208
 10
427.164625
 20
387.090968
 30
0.0
 11
627.164625
 21
387.090968
 31
0.0
  0
LINE
  8
LC-001-002-----0
  6
CONTINUOUS
  5
209
 10
627.164625
 20
387.090968
 30
0.0
 11
627.164625
 21
187.090968
 31
0.0
  0
LINE
  8
LC-001-002-----0
  6
CONTINUOUS
  5
20A
 10
627.164625
 20
187.090968
 30
0.0
 11
427.164625
 21
187.090968
 31
0.0
  0
LINE
  8
LC-001-002-----0
  6
CONTINUOUS
  5
20B
 10
427.164625
 20
187.090968
 30
0.0
 11
427.164625
 21
287.090968
 31
0.0
  0
LINE
  8
LC-001-002-----0
  6
CONTINUOUS
  5
20C
 10
432.164625
 20
287.090968
 30
0.0
 11
432.164625
 21
382.090968
 31
0.0
  0
LINE
  8
LC-001-002-----0
  6
CONTINUOUS
  5
20D
 10
432.164625
 20
382.090968
 30
0.0
 11
622.164625
 21
382.090968
 31
0.0
  0
LINE
  8
LC-001-002-----0
  6
CONTINUOUS
  5
20E
 10
622.164625
 20
382.090968
 30
0.0
 11
622.164625
 21
192.090968
 31
0.0
  0
LINE
  8
LC-001-002-----0
  6
CONTINUOUS
  5
20F
 10
622.164625
 20
192.090968
 30
0.0
 11
432.164625
 21
192.090968
 31
0.0
  0
LINE
  8
LC-001-002-----0
  6
CONTINUOUS
  5
210
 10
432.164625
 20
192.090968
 30
0.0
 11
432.164625
 21
287.090968
 31
0.0
  0
CIRCLE
  8
LC-001-002-----0
  6
CONTINUOUS
  5
211
 10
527.164625
 20
287.090968
 30
0.0
 40
69.7
  0
LINE
  8
LC-001-002-----0
  6
CONTINUOUS
  5
212
 10
612.164625
 20
360.977818
 30
0.0
 11
612.164625
 21
213.204117
 31
0.0
  0
LINE
  8
LC-001-002-----0
  6
CONTINUOUS
  5
213
 10
442.164625
 20
360.977818
 30
0.0
 11
442.164625
 21
213.204117
 31
0.0
  0
LINE
  8
LC-001-002-----0
  6
CONTINUOUS
  5
214
 10
453.277775
 20
372.090968
 30
0.0
 11
601.051476
 21
372.090968
 31
0.0
  0
LINE
  8
LC-001-002-----0
  6
CONTINUOUS
  5
215
 10
453.277775
 20
202.090968
 30
0.0
 11
601.051476
 21
202.090968
 31
0.0
  0
CIRCLE
  8
LC-001-002-----0
  6
CONTINUOUS
  5
216
 10
444.043559
 20
370.21271
 30
0.0
 40
3.0
  0
CIRCLE
  8
LC-001-002-----0
  6
CONTINUOUS
  5
217
 10
610.285946
 20
370.212288
 30
0.0
 40
3.0
  0
LINE
  8
LC-001-002-----0
  6
CONTINUOUS
  5
218
 10
324.364625
 20
381.090968
 30
0.0
 11
184.964625
 21
381.090968
 31
0.0
  0
LINE
  8
LC-001-002-----0
  6
CONTINUOUS
  5
219
 10
159.664625
 20
387.090968
 30
0.0
 11
159.664625
 21
390.090968
 31
0.0
  0
LINE
  8
LC-001-002-----0
  6
CONTINUOUS
  5
21A
 10
154.664625
 20
390.090968
 30
0.0
 11
154.664625
 21
378.590968
 31
0.0
  0
LINE
  8
LC-001-002-----0
  6
CONTINUOUS
  5
21B
 10
154.664625
 20
378.590968
 30
0.0
 11
179.664625
 21
378.590968
 31
0.0
  0
LINE
  8
LC-001-002-----0
  6
CONTINUOUS
  5
21C
 10
179.664625
 20
378.590968
 30
0.0
 11
179.664625
 21
374.090968
 31
0.0
  0
LINE
  8
LC-001-002-----0
  6
CONTINUOUS
  5
21D
 10
179.664625
 20
374.090968
 30
0.0
 11
182.164625
 21
374.090968
 31
0.0
  0
LINE
  8
LC-001-002-----0
  6
CONTINUOUS
  5
21E
 10
180.056909
 20
381.090968
 30
0.0
 11
184.964625
 21
381.090968
 31
0.0
  0
CIRCLE
  8
LC-001-002-----0
  6
CONTINUOUS
  5
21F
 10
610.283882
 20
203.966221
 30
0.0
 40
3.0
  0
LINE
  8
LC-001-002-----0
  6
CONTINUOUS
  5
220
 10
169.664625
 20
387.090968
 30
0.0
 11
180.056909
 21
381.090968
 31
0.0
  0
LINE
  8
LC-001-002-----0
  6
CONTINUOUS
  5
221
 10
154.664625
 20
390.090968
 30
0.0
 11
154.664625
 21
392.090968
 31
0.0
  0
LINE
  8
LC-001-002-----0
  6
CONTINUOUS
  5
222
 10
159.664625
 20
392.090968
 30
0.0
 11
159.664625
 21
390.090968
 31
0.0
  0
LINE
  8
LC-001-002-----0
  6
CONTINUOUS
  5
223
 10
154.664625
 20
392.090968
 30
0.0
 11
349.664625
 21
392.090968
 31
0.0
  0
LINE
  8
LC-001-002-----0
  6
CONTINUOUS
 62
     2
  5
224
 10
210.099855
 20
442.68
 30
0.0
 11
225.177663
 21
442.68
 31
0.0
  0
CIRCLE
  8
LC-001-002-----0
  6
CONTINUOUS
  5
225
 10
444.041496
 20
203.966659
 30
0.0
 40
3.0
  0
LINE
  8
LC-001-002-----0
  6
CONTINUOUS
  5
226
 10
601.774625
 20
361.700968
 30
0.0
 11
601.774625
 21
212.480968
 31
0.0
  0
LINE
  8
LC-001-002-----0
  6
CONTINUOUS
  5
227
 10
452.554625
 20
361.700968
 30
0.0
 11
452.554625
 21
212.480968
 31
0.0
  0
LINE
  8
LC-001-002-----0
  6
CONTINUOUS
  5
228
 10
452.554625
 20
361.700968
 30
0.0
 11
601.774625
 21
361.700968
 31
0.0
  0
LINE
  8
LC-001-002-----0
  6
CONTINUOUS
  5
229
 10
601.051476
 20
372.090968
 30
0.0
 11
612.164625
 21
360.977818
 31
0.0
  0
LINE
  8
LC-001-002-----0
  6
CONTINUOUS
  5
22A
 10
612.164625
 20
360.977818
 30
0.0
 11
622.164625
 21
360.977818
 31
0.0
  0
LINE
  8
LC-001-002-----0
  6
CONTINUOUS
  5
22B
 10
601.051476
 20
372.090968
 30
0.0
 11
601.051476
 21
382.090968
 31
0.0
  0
LINE
  8
LC-001-002-----0
  6
CONTINUOUS
  5
22C
 10
452.554625
 20
212.480968
 30
0.0
 11
601.774625
 21
212.480968
 31
0.0
  0
LINE
  8
LC-001-002-----0
  6
CONTINUOUS
  5
22D
 10
453.277775
 20
372.090968
 30
0.0
 11
442.164625
 21
360.977818
 31
0.0
  0
LINE
  8
LC-001-002-----0
  6
CONTINUOUS
  5
22E
 10
442.164625
 20
360.977818
 30
0.0
 11
432.164625
 21
360.977818
 31
0.0
  0
LINE
  8
LC-001-002-----0
  6
CONTINUOUS
  5
22F
 10
453.277775
 20
372.090968
 30
0.0
 11
453.277775
 21
382.090968
 31
0.0
  0
LINE
  8
LC-001-002-----0
  6
CONTINUOUS
  5
230
 10
612.164625
 20
213.204117
 30
0.0
 11
622.164625
 21
213.204117
 31
0.0
  0
LINE
  8
LC-001-002-----0
  6
CONTINUOUS
  5
231
 10
601.051476
 20
202.090968
 30
0.0
 11
612.164625
 21
213.204117
 31
0.0
  0
LINE
  8
LC-001-002-----0
  6
CONTINUOUS
  5
232
 10
601.051476
 20
202.090968
 30
0.0
 11
601.051476
 21
192.090968
 31
0.0
  0
LINE
  8
LC-001-002-----0
  6
CONTINUOUS
  5
233
 10
453.277775
 20
202.090968
 30
0.0
 11
442.164625
 21
213.204117
 31
0.0
  0
LINE
  8
LC-001-002-----0
  6
CONTINUOUS
  5
234
 10
453.277775
 20
202.090968
 30
0.0
 11
453.277775
 21
192.090968
 31
0.0
  0
LINE
  8
LC-001-002-----0
  6
CONTINUOUS
  5
235
 10
442.164625
 20
213.204117
 30
0.0
 11
432.164625
 21
213.204117
 31
0.0
  0
LINE
  8
LC-001-002-----0
  6
CONTINUOUS
  5
236
 10
183.504371
 20
187.090968
 30
0.0
 11
325.55693
 21
187.090968
 31
0.0
  0
LINE
  8
LC-001-002-----0
  6
CONTINUOUS
 62
     2
  5
237
 10
210.099855
 20
427.68
 30
0.0
 11
225.177663
 21
427.68
 31
0.0
  0
LINE
  8
LC-001-002-----0
  6
CONTINUOUS
 62
     2
  5
238
 10
225.177663
 20
427.68
 30
0.0
 11
225.177663
 21
442.68
 31
0.0
  0
LINE
  8
LC-001-002-----0
  6
CONTINUOUS
 62
     2
  5
239
 10
210.099855
 20
442.68
 30
0.0
 11
210.099855
 21
427.68
 31
0.0
  0
LINE
  8
LC-001-002-----0
  6
CONTINUOUS
 62
     2
  5
23A
 10
184.830651
 20
210.090968
 30
0.0
 11
324.230651
 21
210.090968
 31
0.0
  0
ENDSEC
  0
EOF
