  0
SECTION
  2
HEADER
  9
$ACADVER
  1
AC1009
  9
$INSBASE
 10
565.273216
 20
7181.045
 30
0.0
  9
$EXTMIN
 10
565.273216
 20
7181.045
 30
0.0
  9
$EXTMAX
 10
1405.273216
 20
7775.045
 30
0.0
  9
$LIMMIN
 10
565.273216
 20
7181.045
  9
$LIMMAX
 10
1405.273216
 20
7775.045
  9
$ORTHOMODE
 70
     0
  9
$REGENMODE
 70
     1
  9
$FILLMODE
 70
     1
  9
$QTEXTMODE
 70
     0
  9
$MIRRTEXT
 70
     1
  9
$DRAGMODE
 70
     2
  9
$LTSCALE
 40
2.0
  9
$OSMODE
 70
     0
  9
$ATTMODE
 70
     1
  9
$TEXTSIZE
 40
0.2
  9
$TRACEWID
 40
0.05
  9
$TEXTSTYLE
  7
STANDARD
  9
$CLAYER
  8
0
  9
$CELTYPE
  6
BYLAYER
  9
$CECOLOR
 62
     7
  9
$DIMSCALE
 40
2.0
  9
$DIMASZ
 40
3.5
  9
$DIMEXO
 40
0.0625
  9
$DIMDLI
 40
0.38
  9
$DIMRND
 40
0.0
  9
$DIMDLE
 40
0.0
  9
$DIMEXE
 40
0.18
  9
$DIMTP
 40
0.0
  9
$DIMTM
 40
0.0
  9
$DIMTXT
 40
3.5
  9
$DIMCEN
 40
0.09
  9
$DIMTSZ
 40
0.0
  9
$DIMTOL
 70
     0
  9
$DIMLIM
 70
     0
  9
$DIMTIH
 70
     1
  9
$DIMTOH
 70
     1
  9
$DIMSE1
 70
     0
  9
$DIMSE2
 70
     0
  9
$DIMTAD
 70
     1
  9
$DIMZIN
 70
     0
  9
$DIMBLK
  1

  9
$DIMASO
 70
     1
  9
$DIMSHO
 70
     1
  9
$DIMPOST
  1

  9
$DIMAPOST
  1

  9
$DIMALT
 70
     0
  9
$DIMALTD
 70
     2
  9
$DIMALTF
 40
25.4
  9
$DIMLFAC
 40
1.0
  9
$DIMTOFL
 70
     0
  9
$DIMTVP
 40
0.0
  9
$DIMTIX
 70
     0
  9
$DIMSOXD
 70
     0
  9
$DIMSAH
 70
     0
  9
$DIMBLK1
  1

  9
$DIMBLK2
  1

  9
$DIMSTYLE
  2
STANDARD
  9
$DIMCLRD
 70
     0
  9
$DIMCLRE
 70
     0
  9
$DIMCLRT
 70
     0
  9
$DIMTFAC
 40
1.0
  9
$DIMGAP
 40
0.09
  9
$LUNITS
 70
     2
  9
$LUPREC
 70
     2
  9
$AXISMODE
 70
     0
  9
$AXISUNIT
 10
0.0
 20
0.0
  9
$SKETCHINC
 40
0.1
  9
$FILLETRAD
 40
0.0
  9
$AUNITS
 70
     0
  9
$AUPREC
 70
     0
  9
$MENU
  1
acad
  9
$ELEVATION
 40
0.0
  9
$PELEVATION
 40
0.0
  9
$THICKNESS
 40
0.0
  9
$LIMCHECK
 70
     0
  9
$BLIPMODE
 70
     1
  9
$CHAMFERA
 40
0.0
  9
$CHAMFERB
 40
0.0
  9
$SKPOLY
 70
     0
  9
$TDCREATE
 40
0.000000000
  9
$TDUPDATE
 40
0.000000000
  9
$TDINDWG
 40
0.0000000000
  9
$TDUSRTIMER
 40
0.0000000000
  9
$USRTIMER
 70
     1
  9
$ANGBASE
 50
0.0
  9
$ANGDIR
 70
     0
  9
$PDMODE
 70
     0
  9
$PDSIZE
 40
0.0
  9
$PLINEWID
 40
0.0
  9
$COORDS
 70
     0
  9
$SPLFRAME
 70
     0
  9
$SPLINETYPE
 70
     6
  9
$SPLINESEGS
 70
     8
  9
$ATTDIA
 70
     0
  9
$ATTREQ
 70
     1
  9
$HANDLING
 70
     1
  9
$HANDSEED
  5
35E
  9
$SURFTAB1
 70
     6
  9
$SURFTAB2
 70
     6
  9
$SURFTYPE
 70
     6
  9
$SURFU
 70
     6
  9
$SURFV
 70
     6
  9
$UCSNAME
  2

  9
$UCSORG
 10
0.0
 20
0.0
 30
0.0
  9
$UCSXDIR
 10
1.0
 20
0.0
 30
0.0
  9
$UCSYDIR
 10
0.0
 20
1.0
 30
0.0
  9
$PUCSNAME
  2

  9
$PUCSORG
 10
0.0
 20
0.0
 30
0.0
  9
$PUCSXDIR
 10
1.0
 20
0.0
 30
0.0
  9
$PUCSYDIR
 10
0.0
 20
1.0
 30
0.0
  9
$USERI1
 70
     0
  9
$USERI2
 70
     0
  9
$USERI3
 70
     0
  9
$USERI4
 70
     0
  9
$USERI5
 70
     0
  9
$USERR1
 40
0.0
  9
$USERR2
 40
0.0
  9
$USERR3
 40
0.0
  9
$USERR4
 40
0.0
  9
$USERR5
 40
0.0
  9
$WORLDVIEW
 70
     1
  9
$SHADEDGE
 70
     3
  9
$SHADEDIF
 70
    70
  9
$TILEMODE
 70
     1
  9
$MAXACTVP
 70
    16
  9
$PINSBASE
 10
0.0
 20
0.0
 30
0.0
  9
$PLIMCHECK
 70
     0
  9
$PEXTMIN
 10
1.000000E+20
 20
1.000000E+20
 30
1.000000E+20
  9
$PEXTMAX
 10
-1.000000E+20
 20
-1.000000E+20
 30
-1.000000E+20
  9
$PLIMMIN
 10
565.273216
 20
7181.045
  9
$PLIMMAX
 10
1405.273216
 20
7775.045
  9
$UNITMODE
 70
     0
  9
$VISRETAIN
 70
     0
  9
$PLINEGEN
 70
     1
  9
$PSLTSCALE
 70
     0
  9
$TREEDEPTH
 70
  3020
  9
$DWGCODEPAGE
  3
dos850
  0
ENDSEC
  0
SECTION
  2
TABLES
  0
TABLE
  2
VPORT
 70
     1
  0
VPORT
  2
*ACTIVE
 70
     0
 10
0.0
 20
0.0
 11
1.0
 21
1.0
 12
420.0
 22
297.0
 13
0.0
 23
0.0
 14
1.0
 24
1.0
 15
0.0
 25
0.0
 16
0.0
 26
0.0
 36
1.0
 17
565.273216
 27
7181.045
 37
0.0
 40
594.0
 41
1.604229
 42
50.0
 43
0.0
 44
0.0
 50
0.0
 51
0.0
 71
     0
 72
   100
 73
     1
 74
     1
 75
     0
 76
     0
 77
     0
 78
     0
  0
ENDTAB
  0
TABLE
  2
LTYPE
 70
     2
  0
LTYPE
  2
CONTINUOUS
 70
    64
  3
Solid line
 72
    65
 73
     0
 40
0.0
  0
LTYPE
  2
DASHDOT
 70
    64
  3
__ . __ . __ . __ . __
 72
    65
 73
     4
 40
7.5
 49
5.0
 49
-1.25
 49
0.0
 49
-1.25
  0
ENDTAB
  0
TABLE
  2
LAYER
 70
    11
  0
LAYER
  2
0
 70
     0
 62
     7
  6
CONTINUOUS
  0
LAYER
  2
LC-INFO-1-2-MM-A3-0
 70
     1
 62
    -1
  6
CONTINUOUS
  0
LAYER
  2
LC-003-003-MTH-0
 70
     0
 62
     2
  6
CONTINUOUS
  0
LAYER
  2
LC-004-003-MTG-0
 70
     0
 62
     2
  6
CONTINUOUS
  0
LAYER
  2
LC-002-003-----0
 70
     0
 62
     2
  6
CONTINUOUS
  0
LAYER
  2
LC-007-005-----0
 70
     0
 62
     2
  6
CONTINUOUS
  0
LAYER
  2
LC-006-000-----0
 70
     0
 62
     7
  6
CONTINUOUS
  0
LAYER
  2
LC-008-000-----0
 70
     0
 62
     7
  6
CONTINUOUS
  0
LAYER
  2
LC-001-002-----0
 70
     0
 62
     2
  6
CONTINUOUS
  0
LAYER
  2
LC-005-002-RND-0
 70
     0
 62
     1
  6
CONTINUOUS
  0
LAYER
  2
LC-000
 70
     0
 62
     7
  6
CONTINUOUS
  0
ENDTAB
  0
TABLE
  2
STYLE
 70
     4
  0
STYLE
  2
STANDARD
 70
     0
 40
0.0
 41
1.0
 50
0.0
 71
     0
 42
0.0
  3
txt
  4

  0
STYLE
  2
LC-STANDARD
 70
    64
 40
0.0
 41
1.0
 50
0.0
 71
     0
 42
3.5
  3
MONOTXT
  4

  0
STYLE
  2
LC-TXTSTYLE-150-400-0-0-A2
 70
    64
 40
0.0
 41
1.0
 50
15.0
 71
     0
 42
3.5
  3
MONOTXT
  4

  0
STYLE
  2
LC-TXTSTYLE-150-400-0-0-D3
 70
    64
 40
0.0
 41
1.0
 50
15.0
 71
     0
 42
3.5
  3
LC-STANDARD
  4

  0
ENDTAB
  0
TABLE
  2
VIEW
 70
     0
  0
ENDTAB
  0
TABLE
  2
UCS
 70
     0
  0
ENDTAB
  0
TABLE
  2
APPID
 70
     1
  0
APPID
  2
ACAD
 70
     0
  0
ENDTAB
  0
TABLE
  2
DIMSTYLE
 70
     3
  0
DIMSTYLE
  2
STANDARD
 70
     0
  3

  4

  5

  6

  7

 40
1.0
 41
0.18
 42
0.0625
 43
0.38
 44
0.18
 45
0.0
 46
0.0
 47
0.0
 48
0.0
 71
     0
 72
     0
 73
     1
 74
     1
 75
     0
 76
     0
 77
     0
 78
     0
140
0.18
141
0.09
142
0.0
143
25.4
144
1.0
145
0.0
146
1.0
147
0.09
170
     0
171
     2
172
     0
173
     0
174
     0
175
     0
176
     0
177
     0
178
     0
  0
DIMSTYLE
  2
LC-STANDARD
 70
     0
  3

  4

  5

  6

  7

 40
1.0
 41
3.5
 42
0.0
 43
7.5
 44
1.8
 45
0.0
 46
0.0
 47
0.0
 48
0.0
 71
     0
 72
     0
 73
     0
 74
     0
 75
     0
 76
     0
 77
     1
 78
     8
140
3.5
141
0.0
142
0.0
143
25.4
144
1.0
145
0.0
146
0.71
147
1.5
170
     0
171
     2
172
     1
173
     0
174
     0
175
     0
176
     0
177
     0
178
     3
  0
DIMSTYLE
  2
LC-DIM-L-0140-02-02
 70
     0
  3

  4

  5

  6

  7

 40
2.0
 41
3.5
 42
0.0
 43
7.5
 44
1.8
 45
0.0
 46
0.0
 47
0.0
 48
0.0
 71
     0
 72
     0
 73
     0
 74
     0
 75
     0
 76
     0
 77
     1
 78
     8
140
14.0
141
0.0
142
0.0
143
25.4
144
1.0
145
0.0
146
0.71
147
1.5
170
     0
171
     2
172
     0
173
     0
174
     0
175
     0
176
     2
177
     2
178
     8
  0
ENDTAB
  0
ENDSEC
  0
SECTION
  2
BLOCKS
  0
BLOCK
  8
0
  5
23
  2
*D0
 70
    65
 10
0.0
 20
0.0
 30
0.0
  3
*D0
  0
LINE
  8
LC-003-003-MTH-0
  6
CONTINUOUS
  5
25
 10
782.819462
 20
7359.61517
 30
0.0
 11
782.819462
 21
7291.2
 31
0.0
  0
LINE
  8
LC-003-003-MTH-0
  6
CONTINUOUS
  5
26
 10
892.818977
 20
7365.615111
 30
0.0
 11
892.818977
 21
7291.2
 31
0.0
  0
LINE
  8
LC-004-003-MTG-0
  6
CONTINUOUS
  5
28
 10
782.819462
 20
7308.0
 30
0.0
 11
892.818977
 21
7308.0
 31
0.0
  0
LINE
  8
LC-002-003-----0
  6
CONTINUOUS
  5
2A
 10
810.579918
 20
7311.654733
 30
0.0
 11
782.819462
 21
7308.0
 31
0.0
  0
LINE
  8
LC-002-003-----0
  6
CONTINUOUS
  5
2B
 10
782.819462
 20
7308.0
 30
0.0
 11
810.579918
 21
7304.345267
 31
0.0
  0
LINE
  8
LC-002-003-----0
  6
CONTINUOUS
  5
2C
 10
810.579918
 20
7304.345267
 30
0.0
 11
810.579918
 21
7311.654733
 31
0.0
  0
LINE
  8
LC-002-003-----0
  6
CONTINUOUS
  5
2D
 10
810.642199
 20
7310.704503
 30
0.0
 11
790.099462
 21
7308.0
 31
0.0
  0
LINE
  8
LC-002-003-----0
  6
CONTINUOUS
  5
2E
 10
790.099462
 20
7308.0
 30
0.0
 11
810.642199
 21
7305.295497
 31
0.0
  0
LINE
  8
LC-002-003-----0
  6
CONTINUOUS
  5
2F
 10
810.704481
 20
7309.754272
 30
0.0
 11
797.379462
 21
7308.0
 31
0.0
  0
LINE
  8
LC-002-003-----0
  6
CONTINUOUS
  5
30
 10
797.379462
 20
7308.0
 30
0.0
 11
810.704481
 21
7306.245728
 31
0.0
  0
LINE
  8
LC-002-003-----0
  6
CONTINUOUS
  5
31
 10
810.766762
 20
7308.804041
 30
0.0
 11
804.659462
 21
7308.0
 31
0.0
  0
LINE
  8
LC-002-003-----0
  6
CONTINUOUS
  5
32
 10
804.659462
 20
7308.0
 30
0.0
 11
810.766762
 21
7307.195959
 31
0.0
  0
LINE
  8
LC-002-003-----0
  6
CONTINUOUS
  5
33
 10
865.058521
 20
7304.345267
 30
0.0
 11
892.818977
 21
7308.0
 31
0.0
  0
LINE
  8
LC-002-003-----0
  6
CONTINUOUS
  5
34
 10
892.818977
 20
7308.0
 30
0.0
 11
865.058521
 21
7311.654733
 31
0.0
  0
LINE
  8
LC-002-003-----0
  6
CONTINUOUS
  5
35
 10
865.058521
 20
7311.654733
 30
0.0
 11
865.058521
 21
7304.345267
 31
0.0
  0
LINE
  8
LC-002-003-----0
  6
CONTINUOUS
  5
36
 10
864.99624
 20
7305.295497
 30
0.0
 11
885.538977
 21
7308.0
 31
0.0
  0
LINE
  8
LC-002-003-----0
  6
CONTINUOUS
  5
37
 10
885.538977
 20
7308.0
 30
0.0
 11
864.99624
 21
7310.704503
 31
0.0
  0
LINE
  8
LC-002-003-----0
  6
CONTINUOUS
  5
38
 10
864.933958
 20
7306.245728
 30
0.0
 11
878.258977
 21
7308.0
 31
0.0
  0
LINE
  8
LC-002-003-----0
  6
CONTINUOUS
  5
39
 10
878.258977
 20
7308.0
 30
0.0
 11
864.933958
 21
7309.754272
 31
0.0
  0
LINE
  8
LC-002-003-----0
  6
CONTINUOUS
  5
3A
 10
864.871677
 20
7307.195959
 30
0.0
 11
870.978977
 21
7308.0
 31
0.0
  0
LINE
  8
LC-002-003-----0
  6
CONTINUOUS
  5
3B
 10
870.978977
 20
7308.0
 30
0.0
 11
864.871677
 21
7308.804041
 31
0.0
  0
TEXT
  8
LC-002-003-----0
  6
CONTINUOUS
 62
     8
  5
3D
 10
804.069742
 20
7315.827554
 30
0.0
 40
28.0
  1
Ø110
 41
0.9
 51
15.0
  7
LC-TXTSTYLE-150-400-0-0-D0
 72
     1
 11
842.16738
 21
7315.827554
 31
0.0
  0
ENDBLK
  8
0
  5
3E
  0
BLOCK
  8
0
  5
40
  2
BLK1
 70
    64
 10
0.0
 20
0.0
 30
0.0
  3
BLK1
  0
ENDBLK
  8
0
  5
41
  0
BLOCK
  8
0
  5
43
  2
BLK2
 70
    64
 10
0.0
 20
0.0
 30
0.0
  3
BLK2
  0
ENDBLK
  8
0
  5
44
  0
BLOCK
  8
0
  5
46
  2
BLK3
 70
    64
 10
0.0
 20
0.0
 30
0.0
  3
BLK3
  0
ENDBLK
  8
0
  5
47
  0
BLOCK
  8
0
  5
49
  2
BLK4
 70
    64
 10
0.0
 20
0.0
 30
0.0
  3
BLK4
  0
ENDBLK
  8
0
  5
4A
  0
BLOCK
  8
0
  5
4C
  2
BLK5
 70
    64
 10
0.0
 20
0.0
 30
0.0
  3
BLK5
  0
ENDBLK
  8
0
  5
4D
  0
BLOCK
  8
0
  5
4F
  2
*X6
 70
    65
 10
777.819855
 20
7355.615195
 30
0.0
  3
*X6
  0
LINE
  8
LC-007-005-----0
  6
CONTINUOUS
  5
51
 10
785.178984
 20
7355.615195
 30
0.0
 11
785.8199
 21
7356.25611
 31
0.0
  0
LINE
  8
LC-007-005-----0
  6
CONTINUOUS
  5
52
 10
782.350557
 20
7355.615195
 30
0.0
 11
785.350532
 21
7358.61517
 31
0.0
  0
LINE
  8
LC-007-005-----0
  6
CONTINUOUS
  5
53
 10
779.52213
 20
7355.615195
 30
0.0
 11
782.819926
 21
7358.912991
 31
0.0
  0
LINE
  8
LC-007-005-----0
  6
CONTINUOUS
  5
54
 10
777.819855
 20
7356.741347
 30
0.0
 11
782.819934
 21
7361.741427
 31
0.0
  0
LINE
  8
LC-007-005-----0
  6
CONTINUOUS
  5
55
 10
777.819855
 20
7359.569774
 30
0.0
 11
782.819943
 21
7364.569862
 31
0.0
  0
LINE
  8
LC-007-005-----0
  6
CONTINUOUS
  5
56
 10
777.819855
 20
7362.398201
 30
0.0
 11
782.819952
 21
7367.398298
 31
0.0
  0
LINE
  8
LC-007-005-----0
  6
CONTINUOUS
  5
57
 10
777.819855
 20
7365.226628
 30
0.0
 11
778.208337
 21
7365.615111
 31
0.0
  0
LINE
  8
LC-007-005-----0
  6
CONTINUOUS
  5
58
 10
780.819949
 20
7368.226722
 30
0.0
 11
782.81996
 21
7370.226734
 31
0.0
  0
LINE
  8
LC-007-005-----0
  6
CONTINUOUS
  5
59
 10
780.819949
 20
7371.055149
 30
0.0
 11
782.819969
 21
7373.05517
 31
0.0
  0
LINE
  8
LC-007-005-----0
  6
CONTINUOUS
  5
5A
 10
780.819949
 20
7373.883576
 30
0.0
 11
781.685674
 21
7374.749302
 31
0.0
  0
ENDBLK
  8
0
  5
5B
  0
BLOCK
  8
0
  5
5D
  2
*X7
 70
    65
 10
889.819024
 20
7355.615195
 30
0.0
  3
*X7
  0
LINE
  8
LC-007-005-----0
  6
CONTINUOUS
  5
5E
 10
895.487642
 20
7355.615195
 30
0.0
 11
897.819069
 21
7357.946622
 31
0.0
  0
LINE
  8
LC-007-005-----0
  6
CONTINUOUS
  5
5F
 10
892.659215
 20
7355.615195
 30
0.0
 11
897.819069
 21
7360.775049
 31
0.0
  0
LINE
  8
LC-007-005-----0
  6
CONTINUOUS
  5
60
 10
889.830788
 20
7355.615195
 30
0.0
 11
897.819069
 21
7363.603476
 31
0.0
  0
LINE
  8
LC-007-005-----0
  6
CONTINUOUS
  5
61
 10
889.819024
 20
7358.431858
 30
0.0
 11
890.002336
 21
7358.61517
 31
0.0
  0
LINE
  8
LC-007-005-----0
  6
CONTINUOUS
  5
62
 10
892.81899
 20
7361.431824
 30
0.0
 11
897.002277
 21
7365.615111
 31
0.0
  0
LINE
  8
LC-007-005-----0
  6
CONTINUOUS
  5
63
 10
892.818981
 20
7364.260243
 30
0.0
 11
894.818975
 21
7366.260236
 31
0.0
  0
LINE
  8
LC-007-005-----0
  6
CONTINUOUS
  5
64
 10
892.818973
 20
7367.088661
 30
0.0
 11
894.818975
 21
7369.088664
 31
0.0
  0
LINE
  8
LC-007-005-----0
  6
CONTINUOUS
  5
65
 10
892.818964
 20
7369.91708
 30
0.0
 11
894.818975
 21
7371.917091
 31
0.0
  0
LINE
  8
LC-007-005-----0
  6
CONTINUOUS
  5
66
 10
892.818955
 20
7372.745498
 30
0.0
 11
894.818975
 21
7374.745518
 31
0.0
  0
ENDBLK
  8
0
  5
67
  0
BLOCK
  8
0
  5
69
  2
BLK6
 70
    64
 10
0.0
 20
0.0
 30
0.0
  3
BLK6
  0
ENDBLK
  8
0
  5
6A
  0
BLOCK
  8
0
  5
6C
  2
*D9
 70
    65
 10
0.0
 20
0.0
 30
0.0
  3
*D9
  0
LINE
  8
LC-003-003-MTH-0
  6
CONTINUOUS
  5
6D
 10
889.819024
 20
7358.61517
 30
0.0
 11
957.6
 21
7358.61517
 31
0.0
  0
LINE
  8
LC-003-003-MTH-0
  6
CONTINUOUS
  5
6E
 10
890.319462
 20
7372.61517
 30
0.0
 11
957.6
 21
7372.61517
 31
0.0
  0
LINE
  8
LC-002-003-----0
  6
CONTINUOUS
  5
6F
 10
944.454733
 20
7330.854714
 30
0.0
 11
940.8
 21
7358.61517
 31
0.0
  0
LINE
  8
LC-002-003-----0
  6
CONTINUOUS
  5
70
 10
940.8
 20
7358.61517
 30
0.0
 11
937.145267
 21
7330.854714
 31
0.0
  0
LINE
  8
LC-002-003-----0
  6
CONTINUOUS
  5
71
 10
937.145267
 20
7330.854714
 30
0.0
 11
944.454733
 21
7330.854714
 31
0.0
  0
LINE
  8
LC-002-003-----0
  6
CONTINUOUS
  5
72
 10
943.504503
 20
7330.792432
 30
0.0
 11
940.8
 21
7351.33517
 31
0.0
  0
LINE
  8
LC-002-003-----0
  6
CONTINUOUS
  5
73
 10
940.8
 20
7351.33517
 30
0.0
 11
938.095497
 21
7330.792432
 31
0.0
  0
LINE
  8
LC-002-003-----0
  6
CONTINUOUS
  5
74
 10
942.554272
 20
7330.730151
 30
0.0
 11
940.8
 21
7344.05517
 31
0.0
  0
LINE
  8
LC-002-003-----0
  6
CONTINUOUS
  5
75
 10
940.8
 20
7344.05517
 30
0.0
 11
939.045728
 21
7330.730151
 31
0.0
  0
LINE
  8
LC-002-003-----0
  6
CONTINUOUS
  5
76
 10
941.604041
 20
7330.66787
 30
0.0
 11
940.8
 21
7336.77517
 31
0.0
  0
LINE
  8
LC-002-003-----0
  6
CONTINUOUS
  5
77
 10
940.8
 20
7336.77517
 30
0.0
 11
939.995959
 21
7330.66787
 31
0.0
  0
LINE
  8
LC-002-003-----0
  6
CONTINUOUS
  5
78
 10
937.145267
 20
7400.375626
 30
0.0
 11
940.8
 21
7372.61517
 31
0.0
  0
LINE
  8
LC-002-003-----0
  6
CONTINUOUS
  5
79
 10
940.8
 20
7372.61517
 30
0.0
 11
944.454733
 21
7400.375626
 31
0.0
  0
LINE
  8
LC-002-003-----0
  6
CONTINUOUS
  5
7A
 10
944.454733
 20
7400.375626
 30
0.0
 11
937.145267
 21
7400.375626
 31
0.0
  0
LINE
  8
LC-002-003-----0
  6
CONTINUOUS
  5
7B
 10
938.095497
 20
7400.437907
 30
0.0
 11
940.8
 21
7379.89517
 31
0.0
  0
LINE
  8
LC-002-003-----0
  6
CONTINUOUS
  5
7C
 10
940.8
 20
7379.89517
 30
0.0
 11
943.504503
 21
7400.437907
 31
0.0
  0
LINE
  8
LC-002-003-----0
  6
CONTINUOUS
  5
7D
 10
939.045728
 20
7400.500189
 30
0.0
 11
940.8
 21
7387.17517
 31
0.0
  0
LINE
  8
LC-002-003-----0
  6
CONTINUOUS
  5
7E
 10
940.8
 20
7387.17517
 30
0.0
 11
942.554272
 21
7400.500189
 31
0.0
  0
LINE
  8
LC-002-003-----0
  6
CONTINUOUS
  5
7F
 10
939.995959
 20
7400.56247
 30
0.0
 11
940.8
 21
7394.45517
 31
0.0
  0
LINE
  8
LC-002-003-----0
  6
CONTINUOUS
  5
80
 10
940.8
 20
7394.45517
 30
0.0
 11
941.604041
 21
7400.56247
 31
0.0
  0
LINE
  8
LC-004-003-MTG-0
  6
CONTINUOUS
  5
81
 10
940.8
 20
7319.41517
 30
0.0
 11
940.8
 21
7455.97957
 31
0.0
  0
TEXT
  8
LC-002-003-----0
  6
CONTINUOUS
 62
     8
  5
82
 10
932.972446
 20
7415.04333
 30
0.0
 40
28.0
  1
14
 50
90.0
 51
15.0
  7
LC-TXTSTYLE-150-400-0-0-D0
  0
ENDBLK
  8
0
  5
83
  0
BLOCK
  8
0
  5
85
  2
*D10
 70
    65
 10
0.0
 20
0.0
 30
0.0
  3
*D10
  0
LINE
  8
LC-003-003-MTH-0
  6
CONTINUOUS
  5
86
 10
890.319462
 20
7372.61517
 30
0.0
 11
996.8
 21
7372.61517
 31
0.0
  0
LINE
  8
LC-003-003-MTH-0
  6
CONTINUOUS
  5
87
 10
910.319462
 20
7484.115066
 30
0.0
 11
996.8
 21
7484.115066
 31
0.0
  0
LINE
  8
LC-004-003-MTG-0
  6
CONTINUOUS
  5
88
 10
980.0
 20
7372.61517
 30
0.0
 11
980.0
 21
7484.115066
 31
0.0
  0
LINE
  8
LC-002-003-----0
  6
CONTINUOUS
  5
89
 10
976.345267
 20
7400.375626
 30
0.0
 11
980.0
 21
7372.61517
 31
0.0
  0
LINE
  8
LC-002-003-----0
  6
CONTINUOUS
  5
8A
 10
980.0
 20
7372.61517
 30
0.0
 11
983.654733
 21
7400.375626
 31
0.0
  0
LINE
  8
LC-002-003-----0
  6
CONTINUOUS
  5
8B
 10
983.654733
 20
7400.375626
 30
0.0
 11
976.345267
 21
7400.375626
 31
0.0
  0
LINE
  8
LC-002-003-----0
  6
CONTINUOUS
  5
8C
 10
977.295497
 20
7400.437907
 30
0.0
 11
980.0
 21
7379.89517
 31
0.0
  0
LINE
  8
LC-002-003-----0
  6
CONTINUOUS
  5
8D
 10
980.0
 20
7379.89517
 30
0.0
 11
982.704503
 21
7400.437907
 31
0.0
  0
LINE
  8
LC-002-003-----0
  6
CONTINUOUS
  5
8E
 10
978.245728
 20
7400.500189
 30
0.0
 11
980.0
 21
7387.17517
 31
0.0
  0
LINE
  8
LC-002-003-----0
  6
CONTINUOUS
  5
8F
 10
980.0
 20
7387.17517
 30
0.0
 11
981.754272
 21
7400.500189
 31
0.0
  0
LINE
  8
LC-002-003-----0
  6
CONTINUOUS
  5
90
 10
979.195959
 20
7400.56247
 30
0.0
 11
980.0
 21
7394.45517
 31
0.0
  0
LINE
  8
LC-002-003-----0
  6
CONTINUOUS
  5
91
 10
980.0
 20
7394.45517
 30
0.0
 11
980.804041
 21
7400.56247
 31
0.0
  0
LINE
  8
LC-002-003-----0
  6
CONTINUOUS
  5
92
 10
983.654733
 20
7456.35461
 30
0.0
 11
980.0
 21
7484.115066
 31
0.0
  0
LINE
  8
LC-002-003-----0
  6
CONTINUOUS
  5
93
 10
980.0
 20
7484.115066
 30
0.0
 11
976.345267
 21
7456.35461
 31
0.0
  0
LINE
  8
LC-002-003-----0
  6
CONTINUOUS
  5
94
 10
976.345267
 20
7456.35461
 30
0.0
 11
983.654733
 21
7456.35461
 31
0.0
  0
LINE
  8
LC-002-003-----0
  6
CONTINUOUS
  5
95
 10
982.704503
 20
7456.292328
 30
0.0
 11
980.0
 21
7476.835066
 31
0.0
  0
LINE
  8
LC-002-003-----0
  6
CONTINUOUS
  5
96
 10
980.0
 20
7476.835066
 30
0.0
 11
977.295497
 21
7456.292328
 31
0.0
  0
LINE
  8
LC-002-003-----0
  6
CONTINUOUS
  5
97
 10
981.754272
 20
7456.230047
 30
0.0
 11
980.0
 21
7469.555066
 31
0.0
  0
LINE
  8
LC-002-003-----0
  6
CONTINUOUS
  5
98
 10
980.0
 20
7469.555066
 30
0.0
 11
978.245728
 21
7456.230047
 31
0.0
  0
LINE
  8
LC-002-003-----0
  6
CONTINUOUS
  5
99
 10
980.804041
 20
7456.167765
 30
0.0
 11
980.0
 21
7462.275066
 31
0.0
  0
LINE
  8
LC-002-003-----0
  6
CONTINUOUS
  5
9A
 10
980.0
 20
7462.275066
 30
0.0
 11
979.195959
 21
7456.167765
 31
0.0
  0
TEXT
  8
LC-002-003-----0
  6
CONTINUOUS
 62
     8
  5
9B
 10
972.172446
 20
7378.559734
 30
0.0
 40
28.0
  1
14-111
 50
90.0
 51
15.0
  7
LC-TXTSTYLE-150-400-0-0-D0
 72
     1
 11
972.172446
 21
7432.713278
 31
0.0
  0
ENDBLK
  8
0
  5
9C
  0
BLOCK
  8
0
  5
9E
  2
*D11
 70
    65
 10
0.0
 20
0.0
 30
0.0
  3
*D11
  0
LINE
  8
LC-003-003-MTH-0
  6
CONTINUOUS
  5
9F
 10
761.328738
 20
7475.115066
 30
0.0
 11
728.0
 21
7475.115066
 31
0.0
  0
LINE
  8
LC-003-003-MTH-0
  6
CONTINUOUS
  5
A0
 10
765.319462
 20
7484.115066
 30
0.0
 11
728.0
 21
7484.115066
 31
0.0
  0
LINE
  8
LC-002-003-----0
  6
CONTINUOUS
  5
A1
 10
748.454733
 20
7447.35461
 30
0.0
 11
744.8
 21
7475.115066
 31
0.0
  0
LINE
  8
LC-002-003-----0
  6
CONTINUOUS
  5
A2
 10
744.8
 20
7475.115066
 30
0.0
 11
741.145267
 21
7447.35461
 31
0.0
  0
LINE
  8
LC-002-003-----0
  6
CONTINUOUS
  5
A3
 10
741.145267
 20
7447.35461
 30
0.0
 11
748.454733
 21
7447.35461
 31
0.0
  0
LINE
  8
LC-002-003-----0
  6
CONTINUOUS
  5
A4
 10
747.504503
 20
7447.292328
 30
0.0
 11
744.8
 21
7467.835066
 31
0.0
  0
LINE
  8
LC-002-003-----0
  6
CONTINUOUS
  5
A5
 10
744.8
 20
7467.835066
 30
0.0
 11
742.095497
 21
7447.292328
 31
0.0
  0
LINE
  8
LC-002-003-----0
  6
CONTINUOUS
  5
A6
 10
746.554272
 20
7447.230047
 30
0.0
 11
744.8
 21
7460.555066
 31
0.0
  0
LINE
  8
LC-002-003-----0
  6
CONTINUOUS
  5
A7
 10
744.8
 20
7460.555066
 30
0.0
 11
743.045728
 21
7447.230047
 31
0.0
  0
LINE
  8
LC-002-003-----0
  6
CONTINUOUS
  5
A8
 10
745.604041
 20
7447.167765
 30
0.0
 11
744.8
 21
7453.275066
 31
0.0
  0
LINE
  8
LC-002-003-----0
  6
CONTINUOUS
  5
A9
 10
744.8
 20
7453.275066
 30
0.0
 11
743.995959
 21
7447.167765
 31
0.0
  0
LINE
  8
LC-002-003-----0
  6
CONTINUOUS
  5
AA
 10
741.145267
 20
7511.875522
 30
0.0
 11
744.8
 21
7484.115066
 31
0.0
  0
LINE
  8
LC-002-003-----0
  6
CONTINUOUS
  5
AB
 10
744.8
 20
7484.115066
 30
0.0
 11
748.454733
 21
7511.875522
 31
0.0
  0
LINE
  8
LC-002-003-----0
  6
CONTINUOUS
  5
AC
 10
748.454733
 20
7511.875522
 30
0.0
 11
741.145267
 21
7511.875522
 31
0.0
  0
LINE
  8
LC-002-003-----0
  6
CONTINUOUS
  5
AD
 10
742.095497
 20
7511.937803
 30
0.0
 11
744.8
 21
7491.395066
 31
0.0
  0
LINE
  8
LC-002-003-----0
  6
CONTINUOUS
  5
AE
 10
744.8
 20
7491.395066
 30
0.0
 11
747.504503
 21
7511.937803
 31
0.0
  0
LINE
  8
LC-002-003-----0
  6
CONTINUOUS
  5
AF
 10
743.045728
 20
7512.000085
 30
0.0
 11
744.8
 21
7498.675066
 31
0.0
  0
LINE
  8
LC-002-003-----0
  6
CONTINUOUS
  5
B0
 10
744.8
 20
7498.675066
 30
0.0
 11
746.554272
 21
7512.000085
 31
0.0
  0
LINE
  8
LC-002-003-----0
  6
CONTINUOUS
  5
B1
 10
743.995959
 20
7512.062366
 30
0.0
 11
744.8
 21
7505.955066
 31
0.0
  0
LINE
  8
LC-002-003-----0
  6
CONTINUOUS
  5
B2
 10
744.8
 20
7505.955066
 30
0.0
 11
745.604041
 21
7512.062366
 31
0.0
  0
LINE
  8
LC-004-003-MTG-0
  6
CONTINUOUS
  5
B3
 10
744.8
 20
7409.352866
 30
0.0
 11
744.8
 21
7523.315066
 31
0.0
  0
TEXT
  8
LC-002-003-----0
  6
CONTINUOUS
 62
     8
  5
B4
 10
736.972446
 20
7427.096612
 30
0.0
 40
28.0
  1
9
 50
90.0
 51
15.0
  7
LC-TXTSTYLE-150-400-0-0-D0
 72
     2
 11
736.972446
 21
7441.383226
 31
0.0
  0
ENDBLK
  8
0
  5
B5
  0
BLOCK
  8
0
  5
B7
  2
*D12
 70
    65
 10
0.0
 20
0.0
 30
0.0
  3
*D12
  0
LINE
  8
LC-003-003-MTH-0
  6
CONTINUOUS
  5
B8
 10
762.324673
 20
7481.291809
 30
0.0
 11
762.324673
 21
7534.8
 31
0.0
  0
LINE
  8
LC-003-003-MTH-0
  6
CONTINUOUS
  5
B9
 10
913.314251
 20
7480.296995
 30
0.0
 11
913.314251
 21
7534.8
 31
0.0
  0
LINE
  8
LC-004-003-MTG-0
  6
CONTINUOUS
  5
BA
 10
762.324673
 20
7518.0
 30
0.0
 11
913.314251
 21
7518.0
 31
0.0
  0
LINE
  8
LC-002-003-----0
  6
CONTINUOUS
  5
BB
 10
790.085129
 20
7521.654733
 30
0.0
 11
762.324673
 21
7518.0
 31
0.0
  0
LINE
  8
LC-002-003-----0
  6
CONTINUOUS
  5
BC
 10
762.324673
 20
7518.0
 30
0.0
 11
790.085129
 21
7514.345267
 31
0.0
  0
LINE
  8
LC-002-003-----0
  6
CONTINUOUS
  5
BD
 10
790.085129
 20
7514.345267
 30
0.0
 11
790.085129
 21
7521.654733
 31
0.0
  0
LINE
  8
LC-002-003-----0
  6
CONTINUOUS
  5
BE
 10
790.14741
 20
7520.704503
 30
0.0
 11
769.604673
 21
7518.0
 31
0.0
  0
LINE
  8
LC-002-003-----0
  6
CONTINUOUS
  5
BF
 10
769.604673
 20
7518.0
 30
0.0
 11
790.14741
 21
7515.295497
 31
0.0
  0
LINE
  8
LC-002-003-----0
  6
CONTINUOUS
  5
C0
 10
790.209692
 20
7519.754272
 30
0.0
 11
776.884673
 21
7518.0
 31
0.0
  0
LINE
  8
LC-002-003-----0
  6
CONTINUOUS
  5
C1
 10
776.884673
 20
7518.0
 30
0.0
 11
790.209692
 21
7516.245728
 31
0.0
  0
LINE
  8
LC-002-003-----0
  6
CONTINUOUS
  5
C2
 10
790.271973
 20
7518.804041
 30
0.0
 11
784.164673
 21
7518.0
 31
0.0
  0
LINE
  8
LC-002-003-----0
  6
CONTINUOUS
  5
C3
 10
784.164673
 20
7518.0
 30
0.0
 11
790.271973
 21
7517.195959
 31
0.0
  0
LINE
  8
LC-002-003-----0
  6
CONTINUOUS
  5
C4
 10
885.553795
 20
7514.345267
 30
0.0
 11
913.314251
 21
7518.0
 31
0.0
  0
LINE
  8
LC-002-003-----0
  6
CONTINUOUS
  5
C5
 10
913.314251
 20
7518.0
 30
0.0
 11
885.553795
 21
7521.654733
 31
0.0
  0
LINE
  8
LC-002-003-----0
  6
CONTINUOUS
  5
C6
 10
885.553795
 20
7521.654733
 30
0.0
 11
885.553795
 21
7514.345267
 31
0.0
  0
LINE
  8
LC-002-003-----0
  6
CONTINUOUS
  5
C7
 10
885.491513
 20
7515.295497
 30
0.0
 11
906.034251
 21
7518.0
 31
0.0
  0
LINE
  8
LC-002-003-----0
  6
CONTINUOUS
  5
C8
 10
906.034251
 20
7518.0
 30
0.0
 11
885.491513
 21
7520.704503
 31
0.0
  0
LINE
  8
LC-002-003-----0
  6
CONTINUOUS
  5
C9
 10
885.429232
 20
7516.245728
 30
0.0
 11
898.754251
 21
7518.0
 31
0.0
  0
LINE
  8
LC-002-003-----0
  6
CONTINUOUS
  5
CA
 10
898.754251
 20
7518.0
 30
0.0
 11
885.429232
 21
7519.754272
 31
0.0
  0
LINE
  8
LC-002-003-----0
  6
CONTINUOUS
  5
CB
 10
885.366951
 20
7517.195959
 30
0.0
 11
891.474251
 21
7518.0
 31
0.0
  0
LINE
  8
LC-002-003-----0
  6
CONTINUOUS
  5
CC
 10
891.474251
 20
7518.0
 30
0.0
 11
885.366951
 21
7518.804041
 31
0.0
  0
TEXT
  8
LC-002-003-----0
  6
CONTINUOUS
 62
     8
  5
CD
 10
812.403842
 20
7525.827554
 30
0.0
 40
28.0
  1
150
 51
15.0
  7
LC-TXTSTYLE-150-400-0-0-D0
 72
     1
 11
842.167622
 21
7525.827554
 31
0.0
  0
ENDBLK
  8
0
  5
CE
  0
BLOCK
  8
0
  5
D0
  2
*X13
 70
    65
 10
768.841462
 20
7479.115066
 30
0.0
  3
*X13
  0
LINE
  8
LC-007-005-----0
  6
CONTINUOUS
  5
D1
 10
905.850428
 20
7479.115066
 30
0.0
 11
906.797462
 21
7480.0621
 31
0.0
  0
LINE
  8
LC-007-005-----0
  6
CONTINUOUS
  5
D2
 10
905.297462
 20
7481.390527
 30
0.0
 11
906.568082
 21
7482.661147
 31
0.0
  0
LINE
  8
LC-007-005-----0
  6
CONTINUOUS
  5
D3
 10
903.693574
 20
7482.615066
 30
0.0
 11
905.070918
 21
7483.99241
 31
0.0
  0
LINE
  8
LC-007-005-----0
  6
CONTINUOUS
  5
D4
 10
898.365146
 20
7480.115066
 30
0.0
 11
898.797462
 21
7480.547381
 31
0.0
  0
LINE
  8
LC-007-005-----0
  6
CONTINUOUS
  5
D5
 10
900.865146
 20
7482.615066
 30
0.0
 11
902.365146
 21
7484.115066
 31
0.0
  0
LINE
  8
LC-007-005-----0
  6
CONTINUOUS
  5
D6
 10
897.312747
 20
7481.891093
 30
0.0
 11
899.521434
 21
7484.099781
 31
0.0
  0
LINE
  8
LC-007-005-----0
  6
CONTINUOUS
  5
D7
 10
889.879865
 20
7480.115066
 30
0.0
 11
890.297462
 21
7480.532662
 31
0.0
  0
LINE
  8
LC-007-005-----0
  6
CONTINUOUS
  5
D8
 10
888.772681
 20
7481.836308
 30
0.0
 11
889.901551
 21
7482.965179
 31
0.0
  0
LINE
  8
LC-007-005-----0
  6
CONTINUOUS
  5
D9
 10
886.723011
 20
7482.615066
 30
0.0
 11
888.191726
 21
7484.083781
 31
0.0
  0
LINE
  8
LC-007-005-----0
  6
CONTINUOUS
  5
DA
 10
881.394584
 20
7480.115066
 30
0.0
 11
882.797462
 21
7481.517944
 31
0.0
  0
LINE
  8
LC-007-005-----0
  6
CONTINUOUS
  5
DB
 10
883.894584
 20
7482.615066
 30
0.0
 11
885.394584
 21
7484.115066
 31
0.0
  0
LINE
  8
LC-007-005-----0
  6
CONTINUOUS
  5
DC
 10
872.909302
 20
7480.115066
 30
0.0
 11
874.297462
 21
7481.503225
 31
0.0
  0
LINE
  8
LC-007-005-----0
  6
CONTINUOUS
  5
DD
 10
872.387934
 20
7482.422124
 30
0.0
 11
873.453615
 21
7483.487806
 31
0.0
  0
LINE
  8
LC-007-005-----0
  6
CONTINUOUS
  5
DE
 10
869.752448
 20
7482.615066
 30
0.0
 11
871.252448
 21
7484.115066
 31
0.0
  0
LINE
  8
LC-007-005-----0
  6
CONTINUOUS
  5
DF
 10
865.297462
 20
7480.988507
 30
0.0
 11
868.424021
 21
7484.115066
 31
0.0
  0
LINE
  8
LC-007-005-----0
  6
CONTINUOUS
  5
E0
 10
856.797462
 20
7480.973788
 30
0.0
 11
858.183844
 21
7482.36017
 31
0.0
  0
LINE
  8
LC-007-005-----0
  6
CONTINUOUS
  5
E1
 10
855.610312
 20
7482.615066
 30
0.0
 11
856.86902
 21
7483.873774
 31
0.0
  0
LINE
  8
LC-007-005-----0
  6
CONTINUOUS
  5
E2
 10
852.781885
 20
7482.615066
 30
0.0
 11
854.281885
 21
7484.115066
 31
0.0
  0
LINE
  8
LC-007-005-----0
  6
CONTINUOUS
  5
E3
 10
849.953458
 20
7482.615066
 30
0.0
 11
851.453458
 21
7484.115066
 31
0.0
  0
LINE
  8
LC-007-005-----0
  6
CONTINUOUS
  5
E4
 10
847.125031
 20
7482.615066
 30
0.0
 11
848.625031
 21
7484.115066
 31
0.0
  0
LINE
  8
LC-007-005-----0
  6
CONTINUOUS
  5
E5
 10
844.296604
 20
7482.615066
 30
0.0
 11
845.796604
 21
7484.115066
 31
0.0
  0
LINE
  8
LC-007-005-----0
  6
CONTINUOUS
  5
E6
 10
841.468177
 20
7482.615066
 30
0.0
 11
842.968177
 21
7484.115066
 31
0.0
  0
LINE
  8
LC-007-005-----0
  6
CONTINUOUS
  5
E7
 10
838.63975
 20
7482.615066
 30
0.0
 11
840.13975
 21
7484.115066
 31
0.0
  0
LINE
  8
LC-007-005-----0
  6
CONTINUOUS
  5
E8
 10
835.811323
 20
7482.615066
 30
0.0
 11
837.311323
 21
7484.115066
 31
0.0
  0
LINE
  8
LC-007-005-----0
  6
CONTINUOUS
  5
E9
 10
832.982895
 20
7482.615066
 30
0.0
 11
834.482895
 21
7484.115066
 31
0.0
  0
LINE
  8
LC-007-005-----0
  6
CONTINUOUS
  5
EA
 10
830.154468
 20
7482.615066
 30
0.0
 11
831.654468
 21
7484.115066
 31
0.0
  0
LINE
  8
LC-007-005-----0
  6
CONTINUOUS
  5
EB
 10
827.326041
 20
7482.615066
 30
0.0
 11
828.826041
 21
7484.115066
 31
0.0
  0
LINE
  8
LC-007-005-----0
  6
CONTINUOUS
  5
EC
 10
824.497614
 20
7482.615066
 30
0.0
 11
825.997614
 21
7484.115066
 31
0.0
  0
LINE
  8
LC-007-005-----0
  6
CONTINUOUS
  5
ED
 10
821.669187
 20
7482.615066
 30
0.0
 11
823.169187
 21
7484.115066
 31
0.0
  0
LINE
  8
LC-007-005-----0
  6
CONTINUOUS
  5
EE
 10
817.341462
 20
7481.115768
 30
0.0
 11
820.34076
 21
7484.115066
 31
0.0
  0
LINE
  8
LC-007-005-----0
  6
CONTINUOUS
  5
EF
 10
808.841462
 20
7481.101049
 30
0.0
 11
810.195949
 21
7482.455536
 31
0.0
  0
LINE
  8
LC-007-005-----0
  6
CONTINUOUS
  5
F0
 10
807.527051
 20
7482.615066
 30
0.0
 11
808.825318
 21
7483.913332
 31
0.0
  0
LINE
  8
LC-007-005-----0
  6
CONTINUOUS
  5
F1
 10
802.198624
 20
7480.115066
 30
0.0
 11
802.841462
 21
7480.757903
 31
0.0
  0
LINE
  8
LC-007-005-----0
  6
CONTINUOUS
  5
F2
 10
804.698624
 20
7482.615066
 30
0.0
 11
806.198624
 21
7484.115066
 31
0.0
  0
LINE
  8
LC-007-005-----0
  6
CONTINUOUS
  5
F3
 10
801.39776
 20
7482.142629
 30
0.0
 11
803.313899
 21
7484.058767
 31
0.0
  0
LINE
  8
LC-007-005-----0
  6
CONTINUOUS
  5
F4
 10
793.713343
 20
7480.115066
 30
0.0
 11
794.341462
 21
7480.743185
 31
0.0
  0
LINE
  8
LC-007-005-----0
  6
CONTINUOUS
  5
F5
 10
792.766001
 20
7481.996152
 30
0.0
 11
793.859947
 21
7483.090097
 31
0.0
  0
LINE
  8
LC-007-005-----0
  6
CONTINUOUS
  5
F6
 10
790.556489
 20
7482.615066
 30
0.0
 11
792.047947
 21
7484.106524
 31
0.0
  0
LINE
  8
LC-007-005-----0
  6
CONTINUOUS
  5
F7
 10
785.341462
 20
7480.228466
 30
0.0
 11
786.848774
 21
7481.735779
 31
0.0
  0
LINE
  8
LC-007-005-----0
  6
CONTINUOUS
  5
F8
 10
787.720749
 20
7482.607753
 30
0.0
 11
789.228061
 21
7484.115066
 31
0.0
  0
LINE
  8
LC-007-005-----0
  6
CONTINUOUS
  5
F9
 10
776.841462
 20
7480.213747
 30
0.0
 11
778.339587
 21
7481.711872
 31
0.0
  0
LINE
  8
LC-007-005-----0
  6
CONTINUOUS
  5
FA
 10
776.301995
 20
7482.502708
 30
0.0
 11
777.382728
 21
7483.583441
 31
0.0
  0
LINE
  8
LC-007-005-----0
  6
CONTINUOUS
  5
FB
 10
770.085926
 20
7479.115066
 30
0.0
 11
770.341462
 21
7479.370602
 31
0.0
  0
LINE
  8
LC-007-005-----0
  6
CONTINUOUS
  5
FC
 10
773.585926
 20
7482.615066
 30
0.0
 11
775.085926
 21
7484.115066
 31
0.0
  0
LINE
  8
LC-007-005-----0
  6
CONTINUOUS
  5
FD
 10
768.841462
 20
7480.699029
 30
0.0
 11
772.257499
 21
7484.115066
 31
0.0
  0
ENDBLK
  8
0
  5
FE
  0
BLOCK
  8
0
  5
100
  2
BLK7
 70
    64
 10
0.0
 20
0.0
 30
0.0
  3
BLK7
  0
ENDBLK
  8
0
  5
101
  0
BLOCK
  8
0
  5
103
  2
BLK8
 70
    64
 10
0.0
 20
0.0
 30
0.0
  3
BLK8
  0
ENDBLK
  8
0
  5
104
  0
BLOCK
  8
0
  5
106
  2
*X16
 70
    65
 10
889.819462
 20
7358.61517
 30
0.0
  3
*X16
  0
LINE
  8
LC-007-005-----0
  6
CONTINUOUS
  5
107
 10
890.319462
 20
7358.932296
 30
0.0
 11
892.819462
 21
7361.432296
 31
0.0
  0
LINE
  8
LC-007-005-----0
  6
CONTINUOUS
  5
108
 10
890.319462
 20
7361.760723
 30
0.0
 11
892.819462
 21
7364.260723
 31
0.0
  0
LINE
  8
LC-007-005-----0
  6
CONTINUOUS
  5
109
 10
890.319462
 20
7364.58915
 30
0.0
 11
892.819462
 21
7367.08915
 31
0.0
  0
LINE
  8
LC-007-005-----0
  6
CONTINUOUS
  5
10A
 10
890.319462
 20
7367.417577
 30
0.0
 11
892.819462
 21
7369.917577
 31
0.0
  0
LINE
  8
LC-007-005-----0
  6
CONTINUOUS
  5
10B
 10
890.319462
 20
7370.246005
 30
0.0
 11
892.819462
 21
7372.746005
 31
0.0
  0
LINE
  8
LC-007-005-----0
  6
CONTINUOUS
  5
10C
 10
890.319462
 20
7373.074432
 30
0.0
 11
892.819462
 21
7375.574432
 31
0.0
  0
LINE
  8
LC-007-005-----0
  6
CONTINUOUS
  5
10D
 10
890.319462
 20
7375.902859
 30
0.0
 11
892.819462
 21
7378.402859
 31
0.0
  0
LINE
  8
LC-007-005-----0
  6
CONTINUOUS
  5
10E
 10
890.319462
 20
7378.731286
 30
0.0
 11
892.819462
 21
7381.231286
 31
0.0
  0
LINE
  8
LC-007-005-----0
  6
CONTINUOUS
  5
10F
 10
890.319462
 20
7381.559713
 30
0.0
 11
892.819462
 21
7384.059713
 31
0.0
  0
LINE
  8
LC-007-005-----0
  6
CONTINUOUS
  5
110
 10
890.319462
 20
7384.38814
 30
0.0
 11
892.819462
 21
7386.88814
 31
0.0
  0
LINE
  8
LC-007-005-----0
  6
CONTINUOUS
  5
111
 10
890.319462
 20
7387.216567
 30
0.0
 11
892.819462
 21
7389.716567
 31
0.0
  0
LINE
  8
LC-007-005-----0
  6
CONTINUOUS
  5
112
 10
890.319462
 20
7390.044994
 30
0.0
 11
892.819462
 21
7392.544994
 31
0.0
  0
LINE
  8
LC-007-005-----0
  6
CONTINUOUS
  5
113
 10
890.319462
 20
7392.873422
 30
0.0
 11
892.819462
 21
7395.373422
 31
0.0
  0
LINE
  8
LC-007-005-----0
  6
CONTINUOUS
  5
114
 10
890.319462
 20
7395.701849
 30
0.0
 11
892.819462
 21
7398.201849
 31
0.0
  0
LINE
  8
LC-007-005-----0
  6
CONTINUOUS
  5
115
 10
890.319462
 20
7398.530276
 30
0.0
 11
892.819462
 21
7401.030276
 31
0.0
  0
LINE
  8
LC-007-005-----0
  6
CONTINUOUS
  5
116
 10
890.319462
 20
7401.358703
 30
0.0
 11
892.819462
 21
7403.858703
 31
0.0
  0
LINE
  8
LC-007-005-----0
  6
CONTINUOUS
  5
117
 10
890.319462
 20
7404.18713
 30
0.0
 11
892.819462
 21
7406.68713
 31
0.0
  0
LINE
  8
LC-007-005-----0
  6
CONTINUOUS
  5
118
 10
890.319462
 20
7407.015557
 30
0.0
 11
892.819462
 21
7409.515557
 31
0.0
  0
LINE
  8
LC-007-005-----0
  6
CONTINUOUS
  5
119
 10
890.319462
 20
7409.843984
 30
0.0
 11
892.819462
 21
7412.343984
 31
0.0
  0
LINE
  8
LC-007-005-----0
  6
CONTINUOUS
  5
11A
 10
890.319462
 20
7412.672411
 30
0.0
 11
892.819462
 21
7415.172411
 31
0.0
  0
LINE
  8
LC-007-005-----0
  6
CONTINUOUS
  5
11B
 10
890.319462
 20
7415.500839
 30
0.0
 11
892.819462
 21
7418.000839
 31
0.0
  0
LINE
  8
LC-007-005-----0
  6
CONTINUOUS
  5
11C
 10
890.319462
 20
7418.329266
 30
0.0
 11
892.819462
 21
7420.829266
 31
0.0
  0
LINE
  8
LC-007-005-----0
  6
CONTINUOUS
  5
11D
 10
890.319462
 20
7421.157693
 30
0.0
 11
892.819462
 21
7423.657693
 31
0.0
  0
LINE
  8
LC-007-005-----0
  6
CONTINUOUS
  5
11E
 10
890.319462
 20
7423.98612
 30
0.0
 11
892.819462
 21
7426.48612
 31
0.0
  0
LINE
  8
LC-007-005-----0
  6
CONTINUOUS
  5
11F
 10
890.319462
 20
7426.814547
 30
0.0
 11
892.819462
 21
7429.314547
 31
0.0
  0
LINE
  8
LC-007-005-----0
  6
CONTINUOUS
  5
120
 10
890.319462
 20
7429.642974
 30
0.0
 11
892.819462
 21
7432.142974
 31
0.0
  0
LINE
  8
LC-007-005-----0
  6
CONTINUOUS
  5
121
 10
890.319462
 20
7432.471401
 30
0.0
 11
892.819462
 21
7434.971401
 31
0.0
  0
LINE
  8
LC-007-005-----0
  6
CONTINUOUS
  5
122
 10
890.319462
 20
7435.299828
 30
0.0
 11
892.819462
 21
7437.799828
 31
0.0
  0
LINE
  8
LC-007-005-----0
  6
CONTINUOUS
  5
123
 10
890.319462
 20
7438.128256
 30
0.0
 11
892.819462
 21
7440.628256
 31
0.0
  0
LINE
  8
LC-007-005-----0
  6
CONTINUOUS
  5
124
 10
890.319462
 20
7440.956683
 30
0.0
 11
892.819462
 21
7443.456683
 31
0.0
  0
LINE
  8
LC-007-005-----0
  6
CONTINUOUS
  5
125
 10
890.319462
 20
7443.78511
 30
0.0
 11
892.819462
 21
7446.28511
 31
0.0
  0
LINE
  8
LC-007-005-----0
  6
CONTINUOUS
  5
126
 10
890.319462
 20
7446.613537
 30
0.0
 11
892.819462
 21
7449.113537
 31
0.0
  0
LINE
  8
LC-007-005-----0
  6
CONTINUOUS
  5
127
 10
890.319462
 20
7449.441964
 30
0.0
 11
892.819462
 21
7451.941964
 31
0.0
  0
LINE
  8
LC-007-005-----0
  6
CONTINUOUS
  5
128
 10
890.319462
 20
7452.270391
 30
0.0
 11
892.819462
 21
7454.770391
 31
0.0
  0
LINE
  8
LC-007-005-----0
  6
CONTINUOUS
  5
129
 10
890.319462
 20
7455.098818
 30
0.0
 11
892.819462
 21
7457.598818
 31
0.0
  0
LINE
  8
LC-007-005-----0
  6
CONTINUOUS
  5
12A
 10
890.319462
 20
7457.927245
 30
0.0
 11
892.819462
 21
7460.427245
 31
0.0
  0
LINE
  8
LC-007-005-----0
  6
CONTINUOUS
  5
12B
 10
890.319462
 20
7460.755673
 30
0.0
 11
892.819462
 21
7463.255673
 31
0.0
  0
LINE
  8
LC-007-005-----0
  6
CONTINUOUS
  5
12C
 10
890.319462
 20
7463.5841
 30
0.0
 11
892.819462
 21
7466.0841
 31
0.0
  0
LINE
  8
LC-007-005-----0
  6
CONTINUOUS
  5
12D
 10
889.819462
 20
7465.912527
 30
0.0
 11
890.522105
 21
7466.61517
 31
0.0
  0
LINE
  8
LC-007-005-----0
  6
CONTINUOUS
  5
12E
 10
891.569462
 20
7467.662527
 30
0.0
 11
892.522105
 21
7468.61517
 31
0.0
  0
ENDBLK
  8
0
  5
12F
  0
BLOCK
  8
0
  5
131
  2
*X17
 70
    65
 10
782.819462
 20
7358.61517
 30
0.0
  3
*X17
  0
LINE
  8
LC-007-005-----0
  6
CONTINUOUS
  5
132
 10
783.179273
 20
7359.272338
 30
0.0
 11
785.319462
 21
7361.412527
 31
0.0
  0
LINE
  8
LC-007-005-----0
  6
CONTINUOUS
  5
133
 10
782.819462
 20
7361.740954
 30
0.0
 11
785.319462
 21
7364.240954
 31
0.0
  0
LINE
  8
LC-007-005-----0
  6
CONTINUOUS
  5
134
 10
782.819462
 20
7364.569381
 30
0.0
 11
785.319462
 21
7367.069381
 31
0.0
  0
LINE
  8
LC-007-005-----0
  6
CONTINUOUS
  5
135
 10
782.819462
 20
7367.397808
 30
0.0
 11
785.319462
 21
7369.897808
 31
0.0
  0
LINE
  8
LC-007-005-----0
  6
CONTINUOUS
  5
136
 10
782.819462
 20
7370.226235
 30
0.0
 11
785.319462
 21
7372.726235
 31
0.0
  0
LINE
  8
LC-007-005-----0
  6
CONTINUOUS
  5
137
 10
782.819462
 20
7373.054662
 30
0.0
 11
785.319462
 21
7375.554662
 31
0.0
  0
LINE
  8
LC-007-005-----0
  6
CONTINUOUS
  5
138
 10
782.819462
 20
7375.88309
 30
0.0
 11
785.319462
 21
7378.38309
 31
0.0
  0
LINE
  8
LC-007-005-----0
  6
CONTINUOUS
  5
139
 10
782.819462
 20
7378.711517
 30
0.0
 11
785.319462
 21
7381.211517
 31
0.0
  0
LINE
  8
LC-007-005-----0
  6
CONTINUOUS
  5
13A
 10
782.819462
 20
7381.539944
 30
0.0
 11
785.319462
 21
7384.039944
 31
0.0
  0
LINE
  8
LC-007-005-----0
  6
CONTINUOUS
  5
13B
 10
782.819462
 20
7384.368371
 30
0.0
 11
785.319462
 21
7386.868371
 31
0.0
  0
LINE
  8
LC-007-005-----0
  6
CONTINUOUS
  5
13C
 10
782.819462
 20
7387.196798
 30
0.0
 11
785.319462
 21
7389.696798
 31
0.0
  0
LINE
  8
LC-007-005-----0
  6
CONTINUOUS
  5
13D
 10
782.819462
 20
7390.025225
 30
0.0
 11
785.319462
 21
7392.525225
 31
0.0
  0
LINE
  8
LC-007-005-----0
  6
CONTINUOUS
  5
13E
 10
782.819462
 20
7392.853652
 30
0.0
 11
785.319462
 21
7395.353652
 31
0.0
  0
LINE
  8
LC-007-005-----0
  6
CONTINUOUS
  5
13F
 10
782.819462
 20
7395.682079
 30
0.0
 11
785.319462
 21
7398.182079
 31
0.0
  0
LINE
  8
LC-007-005-----0
  6
CONTINUOUS
  5
140
 10
782.819462
 20
7398.510507
 30
0.0
 11
785.319462
 21
7401.010507
 31
0.0
  0
LINE
  8
LC-007-005-----0
  6
CONTINUOUS
  5
141
 10
782.819462
 20
7401.338934
 30
0.0
 11
785.319462
 21
7403.838934
 31
0.0
  0
LINE
  8
LC-007-005-----0
  6
CONTINUOUS
  5
142
 10
782.819462
 20
7404.167361
 30
0.0
 11
785.319462
 21
7406.667361
 31
0.0
  0
LINE
  8
LC-007-005-----0
  6
CONTINUOUS
  5
143
 10
782.819462
 20
7406.995788
 30
0.0
 11
785.319462
 21
7409.495788
 31
0.0
  0
LINE
  8
LC-007-005-----0
  6
CONTINUOUS
  5
144
 10
782.819462
 20
7409.824215
 30
0.0
 11
785.319462
 21
7412.324215
 31
0.0
  0
LINE
  8
LC-007-005-----0
  6
CONTINUOUS
  5
145
 10
782.819462
 20
7412.652642
 30
0.0
 11
785.319462
 21
7415.152642
 31
0.0
  0
LINE
  8
LC-007-005-----0
  6
CONTINUOUS
  5
146
 10
782.819462
 20
7415.481069
 30
0.0
 11
785.319462
 21
7417.981069
 31
0.0
  0
LINE
  8
LC-007-005-----0
  6
CONTINUOUS
  5
147
 10
782.819462
 20
7418.309496
 30
0.0
 11
785.319462
 21
7420.809496
 31
0.0
  0
LINE
  8
LC-007-005-----0
  6
CONTINUOUS
  5
148
 10
782.819462
 20
7421.137924
 30
0.0
 11
785.319462
 21
7423.637924
 31
0.0
  0
LINE
  8
LC-007-005-----0
  6
CONTINUOUS
  5
149
 10
782.819462
 20
7423.966351
 30
0.0
 11
785.319462
 21
7426.466351
 31
0.0
  0
LINE
  8
LC-007-005-----0
  6
CONTINUOUS
  5
14A
 10
782.819462
 20
7426.794778
 30
0.0
 11
785.319462
 21
7429.294778
 31
0.0
  0
LINE
  8
LC-007-005-----0
  6
CONTINUOUS
  5
14B
 10
782.819462
 20
7429.623205
 30
0.0
 11
785.319462
 21
7432.123205
 31
0.0
  0
LINE
  8
LC-007-005-----0
  6
CONTINUOUS
  5
14C
 10
782.819462
 20
7432.451632
 30
0.0
 11
785.319462
 21
7434.951632
 31
0.0
  0
LINE
  8
LC-007-005-----0
  6
CONTINUOUS
  5
14D
 10
782.819462
 20
7435.280059
 30
0.0
 11
785.319462
 21
7437.780059
 31
0.0
  0
LINE
  8
LC-007-005-----0
  6
CONTINUOUS
  5
14E
 10
782.819462
 20
7438.108486
 30
0.0
 11
785.319462
 21
7440.608486
 31
0.0
  0
LINE
  8
LC-007-005-----0
  6
CONTINUOUS
  5
14F
 10
782.819462
 20
7440.936913
 30
0.0
 11
785.319462
 21
7443.436913
 31
0.0
  0
LINE
  8
LC-007-005-----0
  6
CONTINUOUS
  5
150
 10
782.819462
 20
7443.765341
 30
0.0
 11
785.319462
 21
7446.265341
 31
0.0
  0
LINE
  8
LC-007-005-----0
  6
CONTINUOUS
  5
151
 10
782.819462
 20
7446.593768
 30
0.0
 11
785.319462
 21
7449.093768
 31
0.0
  0
LINE
  8
LC-007-005-----0
  6
CONTINUOUS
  5
152
 10
782.819462
 20
7449.422195
 30
0.0
 11
785.319462
 21
7451.922195
 31
0.0
  0
LINE
  8
LC-007-005-----0
  6
CONTINUOUS
  5
153
 10
782.819462
 20
7452.250622
 30
0.0
 11
785.319462
 21
7454.750622
 31
0.0
  0
LINE
  8
LC-007-005-----0
  6
CONTINUOUS
  5
154
 10
782.819462
 20
7455.079049
 30
0.0
 11
785.319462
 21
7457.579049
 31
0.0
  0
LINE
  8
LC-007-005-----0
  6
CONTINUOUS
  5
155
 10
782.819462
 20
7457.907476
 30
0.0
 11
785.319462
 21
7460.407476
 31
0.0
  0
LINE
  8
LC-007-005-----0
  6
CONTINUOUS
  5
156
 10
782.819462
 20
7460.735903
 30
0.0
 11
785.319462
 21
7463.235903
 31
0.0
  0
LINE
  8
LC-007-005-----0
  6
CONTINUOUS
  5
157
 10
785.698728
 20
7463.61517
 30
0.0
 11
785.819462
 21
7463.735903
 31
0.0
  0
LINE
  8
LC-007-005-----0
  6
CONTINUOUS
  5
158
 10
782.819462
 20
7463.56433
 30
0.0
 11
785.594882
 21
7466.33975
 31
0.0
  0
LINE
  8
LC-007-005-----0
  6
CONTINUOUS
  5
159
 10
782.819462
 20
7466.392758
 30
0.0
 11
784.069462
 21
7467.642758
 31
0.0
  0
ENDBLK
  8
0
  5
15A
  0
BLOCK
  8
0
  5
15C
  2
*X18
 70
    65
 10
751.305548
 20
7459.615066
 30
0.0
  3
*X18
  0
LINE
  8
LC-007-005-----0
  6
CONTINUOUS
  5
15D
 10
787.419462
 20
7468.759315
 30
0.0
 11
786.563607
 21
7469.61517
 31
0.0
  0
LINE
  8
LC-007-005-----0
  6
CONTINUOUS
  5
15E
 10
783.511139
 20
7472.667638
 30
0.0
 11
782.88634
 21
7473.292437
 31
0.0
  0
LINE
  8
LC-007-005-----0
  6
CONTINUOUS
  5
15F
 10
787.419462
 20
7465.930888
 30
0.0
 11
786.419462
 21
7466.930888
 31
0.0
  0
LINE
  8
LC-007-005-----0
  6
CONTINUOUS
  5
160
 10
784.73518
 20
7468.61517
 30
0.0
 11
782.819462
 21
7470.530888
 31
0.0
  0
LINE
  8
LC-007-005-----0
  6
CONTINUOUS
  5
161
 10
780.309801
 20
7473.040549
 30
0.0
 11
778.895588
 21
7474.454762
 31
0.0
  0
LINE
  8
LC-007-005-----0
  6
CONTINUOUS
  5
162
 10
787.419462
 20
7463.102461
 30
0.0
 11
786.419462
 21
7464.102461
 31
0.0
  0
LINE
  8
LC-007-005-----0
  6
CONTINUOUS
  5
163
 10
776.446098
 20
7474.075825
 30
0.0
 11
775.031884
 21
7475.490038
 31
0.0
  0
LINE
  8
LC-007-005-----0
  6
CONTINUOUS
  5
164
 10
767.931754
 20
7482.590169
 30
0.0
 11
766.794565
 21
7483.727358
 31
0.0
  0
LINE
  8
LC-007-005-----0
  6
CONTINUOUS
  5
165
 10
787.748825
 20
7459.94467
 30
0.0
 11
786.136405
 21
7461.557091
 31
0.0
  0
LINE
  8
LC-007-005-----0
  6
CONTINUOUS
  5
166
 10
772.582395
 20
7475.111101
 30
0.0
 11
771.168181
 21
7476.525315
 31
0.0
  0
LINE
  8
LC-007-005-----0
  6
CONTINUOUS
  5
167
 10
768.319462
 20
7479.374034
 30
0.0
 11
767.319562
 21
7480.373934
 31
0.0
  0
LINE
  8
LC-007-005-----0
  6
CONTINUOUS
  5
168
 10
764.682532
 20
7483.010963
 30
0.0
 11
763.923175
 21
7483.770321
 31
0.0
  0
LINE
  8
LC-007-005-----0
  6
CONTINUOUS
  5
169
 10
768.715848
 20
7476.14922
 30
0.0
 11
767.412855
 21
7477.452213
 31
0.0
  0
LINE
  8
LC-007-005-----0
  6
CONTINUOUS
  5
16A
 10
763.358197
 20
7481.506871
 30
0.0
 11
762.563895
 21
7482.301174
 31
0.0
  0
LINE
  8
LC-007-005-----0
  6
CONTINUOUS
  5
16B
 10
763.274996
 20
7478.761645
 30
0.0
 11
762.324673
 21
7479.711969
 31
0.0
  0
LINE
  8
LC-007-005-----0
  6
CONTINUOUS
  5
16C
 10
762.560318
 20
7476.647896
 30
0.0
 11
761.820245
 21
7477.38797
 31
0.0
  0
ENDBLK
  8
0
  5
16D
  0
BLOCK
  8
0
  5
16F
  2
*X19
 70
    65
 10
887.678795
 20
7459.615066
 30
0.0
  3
*X19
  0
LINE
  8
LC-007-005-----0
  6
CONTINUOUS
  5
170
 10
913.29794
 20
7481.473766
 30
0.0
 11
910.678162
 21
7484.093544
 31
0.0
  0
LINE
  8
LC-007-005-----0
  6
CONTINUOUS
  5
171
 10
913.422543
 20
7478.520736
 30
0.0
 11
912.315989
 21
7479.62729
 31
0.0
  0
LINE
  8
LC-007-005-----0
  6
CONTINUOUS
  5
172
 10
909.182743
 20
7482.760536
 30
0.0
 11
908.467824
 21
7483.475455
 31
0.0
  0
LINE
  8
LC-007-005-----0
  6
CONTINUOUS
  5
173
 10
908.319362
 20
7480.79549
 30
0.0
 11
907.383455
 21
7481.731397
 31
0.0
  0
LINE
  8
LC-007-005-----0
  6
CONTINUOUS
  5
174
 10
908.31747
 20
7477.968955
 30
0.0
 11
907.319462
 21
7478.966963
 31
0.0
  0
LINE
  8
LC-007-005-----0
  6
CONTINUOUS
  5
175
 10
907.198492
 20
7476.259506
 30
0.0
 11
906.412414
 21
7477.045584
 31
0.0
  0
LINE
  8
LC-007-005-----0
  6
CONTINUOUS
  5
176
 10
904.9982
 20
7475.63137
 30
0.0
 11
904.181704
 21
7476.447867
 31
0.0
  0
LINE
  8
LC-007-005-----0
  6
CONTINUOUS
  5
177
 10
902.76749
 20
7475.033653
 30
0.0
 11
901.950994
 21
7475.85015
 31
0.0
  0
LINE
  8
LC-007-005-----0
  6
CONTINUOUS
  5
178
 10
900.53678
 20
7474.435936
 30
0.0
 11
899.720283
 21
7475.252433
 31
0.0
  0
LINE
  8
LC-007-005-----0
  6
CONTINUOUS
  5
179
 10
898.30607
 20
7473.838219
 30
0.0
 11
897.489573
 21
7474.654716
 31
0.0
  0
LINE
  8
LC-007-005-----0
  6
CONTINUOUS
  5
17A
 10
896.07536
 20
7473.240502
 30
0.0
 11
895.258863
 21
7474.056999
 31
0.0
  0
LINE
  8
LC-007-005-----0
  6
CONTINUOUS
  5
17B
 10
893.84465
 20
7472.642785
 30
0.0
 11
893.043387
 21
7473.444048
 31
0.0
  0
LINE
  8
LC-007-005-----0
  6
CONTINUOUS
  5
17C
 10
892.819462
 20
7470.839546
 30
0.0
 11
891.832269
 21
7471.826739
 31
0.0
  0
LINE
  8
LC-007-005-----0
  6
CONTINUOUS
  5
17D
 10
892.215411
 20
7468.61517
 30
0.0
 11
891.215411
 21
7469.61517
 31
0.0
  0
LINE
  8
LC-007-005-----0
  6
CONTINUOUS
  5
17E
 10
889.386984
 20
7468.61517
 30
0.0
 11
888.459735
 21
7469.542419
 31
0.0
  0
LINE
  8
LC-007-005-----0
  6
CONTINUOUS
  5
17F
 10
889.219462
 20
7465.954265
 30
0.0
 11
888.219462
 21
7466.954265
 31
0.0
  0
LINE
  8
LC-007-005-----0
  6
CONTINUOUS
  5
180
 10
889.842118
 20
7462.503181
 30
0.0
 11
888.219462
 21
7464.125838
 31
0.0
  0
LINE
  8
LC-007-005-----0
  6
CONTINUOUS
  5
181
 10
889.090845
 20
7460.426027
 30
0.0
 11
888.310639
 21
7461.206233
 31
0.0
  0
ENDBLK
  8
0
  5
182
  0
BLOCK
  8
0
  5
184
  2
BLK9
 70
    64
 10
0.0
 20
0.0
 30
0.0
  3
BLK9
  0
ENDBLK
  8
0
  5
185
  0
BLOCK
  8
0
  5
187
  2
*X21
 70
    65
 10
785.344462
 20
7358.61517
 30
0.0
  3
*X21
  0
LINE
  8
LC-007-005-----0
  6
CONTINUOUS
  5
188
 10
836.26222
 20
7358.61517
 30
0.0
 11
837.844462
 21
7360.197411
 31
0.0
  0
LINE
  8
LC-007-005-----0
  6
CONTINUOUS
  5
189
 10
830.605366
 20
7358.61517
 30
0.0
 11
837.844462
 21
7365.854266
 31
0.0
  0
LINE
  8
LC-007-005-----0
  6
CONTINUOUS
  5
18A
 10
824.948512
 20
7358.61517
 30
0.0
 11
837.844462
 21
7371.51112
 31
0.0
  0
LINE
  8
LC-007-005-----0
  6
CONTINUOUS
  5
18B
 10
819.291657
 20
7358.61517
 30
0.0
 11
833.291657
 21
7372.61517
 31
0.0
  0
LINE
  8
LC-007-005-----0
  6
CONTINUOUS
  5
18C
 10
813.634803
 20
7358.61517
 30
0.0
 11
827.634803
 21
7372.61517
 31
0.0
  0
LINE
  8
LC-007-005-----0
  6
CONTINUOUS
  5
18D
 10
807.977949
 20
7358.61517
 30
0.0
 11
821.977949
 21
7372.61517
 31
0.0
  0
LINE
  8
LC-007-005-----0
  6
CONTINUOUS
  5
18E
 10
802.321095
 20
7358.61517
 30
0.0
 11
816.321095
 21
7372.61517
 31
0.0
  0
LINE
  8
LC-007-005-----0
  6
CONTINUOUS
  5
18F
 10
796.66424
 20
7358.61517
 30
0.0
 11
810.66424
 21
7372.61517
 31
0.0
  0
LINE
  8
LC-007-005-----0
  6
CONTINUOUS
  5
190
 10
791.007386
 20
7358.61517
 30
0.0
 11
805.007386
 21
7372.61517
 31
0.0
  0
LINE
  8
LC-007-005-----0
  6
CONTINUOUS
  5
191
 10
785.350532
 20
7358.61517
 30
0.0
 11
799.350532
 21
7372.61517
 31
0.0
  0
LINE
  8
LC-007-005-----0
  6
CONTINUOUS
  5
192
 10
785.344462
 20
7364.265954
 30
0.0
 11
793.693678
 21
7372.61517
 31
0.0
  0
LINE
  8
LC-007-005-----0
  6
CONTINUOUS
  5
193
 10
785.344462
 20
7369.922808
 30
0.0
 11
788.036823
 21
7372.61517
 31
0.0
  0
LINE
  8
LC-007-005-----0
  6
CONTINUOUS
  5
194
 10
837.844462
 20
7370.251054
 30
0.0
 11
835.480346
 21
7372.61517
 31
0.0
  0
LINE
  8
LC-007-005-----0
  6
CONTINUOUS
  5
195
 10
837.844462
 20
7364.5942
 30
0.0
 11
829.823492
 21
7372.61517
 31
0.0
  0
LINE
  8
LC-007-005-----0
  6
CONTINUOUS
  5
196
 10
837.844462
 20
7358.937346
 30
0.0
 11
824.166638
 21
7372.61517
 31
0.0
  0
LINE
  8
LC-007-005-----0
  6
CONTINUOUS
  5
197
 10
832.509783
 20
7358.61517
 30
0.0
 11
818.509783
 21
7372.61517
 31
0.0
  0
LINE
  8
LC-007-005-----0
  6
CONTINUOUS
  5
198
 10
826.852929
 20
7358.61517
 30
0.0
 11
812.852929
 21
7372.61517
 31
0.0
  0
LINE
  8
LC-007-005-----0
  6
CONTINUOUS
  5
199
 10
821.196075
 20
7358.61517
 30
0.0
 11
807.196075
 21
7372.61517
 31
0.0
  0
LINE
  8
LC-007-005-----0
  6
CONTINUOUS
  5
19A
 10
815.539221
 20
7358.61517
 30
0.0
 11
801.539221
 21
7372.61517
 31
0.0
  0
LINE
  8
LC-007-005-----0
  6
CONTINUOUS
  5
19B
 10
809.882366
 20
7358.61517
 30
0.0
 11
795.882366
 21
7372.61517
 31
0.0
  0
LINE
  8
LC-007-005-----0
  6
CONTINUOUS
  5
19C
 10
804.225512
 20
7358.61517
 30
0.0
 11
790.225512
 21
7372.61517
 31
0.0
  0
LINE
  8
LC-007-005-----0
  6
CONTINUOUS
  5
19D
 10
798.568658
 20
7358.61517
 30
0.0
 11
785.344462
 21
7371.839366
 31
0.0
  0
LINE
  8
LC-007-005-----0
  6
CONTINUOUS
  5
19E
 10
792.911804
 20
7358.61517
 30
0.0
 11
785.344462
 21
7366.182512
 31
0.0
  0
LINE
  8
LC-007-005-----0
  6
CONTINUOUS
  5
19F
 10
787.254949
 20
7358.61517
 30
0.0
 11
785.344462
 21
7360.525657
 31
0.0
  0
ENDBLK
  8
0
  5
1A0
  0
BLOCK
  8
0
  5
1A2
  2
*X22
 70
    65
 10
837.844462
 20
7358.61517
 30
0.0
  3
*X22
  0
LINE
  8
LC-007-005-----0
  6
CONTINUOUS
  5
1A3
 10
887.173908
 20
7358.61517
 30
0.0
 11
890.344462
 21
7361.785723
 31
0.0
  0
LINE
  8
LC-007-005-----0
  6
CONTINUOUS
  5
1A4
 10
881.517054
 20
7358.61517
 30
0.0
 11
890.344462
 21
7367.442577
 31
0.0
  0
LINE
  8
LC-007-005-----0
  6
CONTINUOUS
  5
1A5
 10
875.8602
 20
7358.61517
 30
0.0
 11
889.8602
 21
7372.61517
 31
0.0
  0
LINE
  8
LC-007-005-----0
  6
CONTINUOUS
  5
1A6
 10
870.203346
 20
7358.61517
 30
0.0
 11
884.203346
 21
7372.61517
 31
0.0
  0
LINE
  8
LC-007-005-----0
  6
CONTINUOUS
  5
1A7
 10
864.546491
 20
7358.61517
 30
0.0
 11
878.546491
 21
7372.61517
 31
0.0
  0
LINE
  8
LC-007-005-----0
  6
CONTINUOUS
  5
1A8
 10
858.889637
 20
7358.61517
 30
0.0
 11
872.889637
 21
7372.61517
 31
0.0
  0
LINE
  8
LC-007-005-----0
  6
CONTINUOUS
  5
1A9
 10
853.232783
 20
7358.61517
 30
0.0
 11
867.232783
 21
7372.61517
 31
0.0
  0
LINE
  8
LC-007-005-----0
  6
CONTINUOUS
  5
1AA
 10
847.575929
 20
7358.61517
 30
0.0
 11
861.575929
 21
7372.61517
 31
0.0
  0
LINE
  8
LC-007-005-----0
  6
CONTINUOUS
  5
1AB
 10
841.919074
 20
7358.61517
 30
0.0
 11
855.919074
 21
7372.61517
 31
0.0
  0
LINE
  8
LC-007-005-----0
  6
CONTINUOUS
  5
1AC
 10
837.844462
 20
7360.197411
 30
0.0
 11
850.26222
 21
7372.61517
 31
0.0
  0
LINE
  8
LC-007-005-----0
  6
CONTINUOUS
  5
1AD
 10
837.844462
 20
7365.854266
 30
0.0
 11
844.605366
 21
7372.61517
 31
0.0
  0
LINE
  8
LC-007-005-----0
  6
CONTINUOUS
  5
1AE
 10
837.844462
 20
7371.51112
 30
0.0
 11
838.948512
 21
7372.61517
 31
0.0
  0
LINE
  8
LC-007-005-----0
  6
CONTINUOUS
  5
1AF
 10
890.344462
 20
7368.662742
 30
0.0
 11
886.392034
 21
7372.61517
 31
0.0
  0
LINE
  8
LC-007-005-----0
  6
CONTINUOUS
  5
1B0
 10
890.344462
 20
7363.005888
 30
0.0
 11
880.73518
 21
7372.61517
 31
0.0
  0
LINE
  8
LC-007-005-----0
  6
CONTINUOUS
  5
1B1
 10
889.078326
 20
7358.61517
 30
0.0
 11
875.078326
 21
7372.61517
 31
0.0
  0
LINE
  8
LC-007-005-----0
  6
CONTINUOUS
  5
1B2
 10
883.421472
 20
7358.61517
 30
0.0
 11
869.421472
 21
7372.61517
 31
0.0
  0
LINE
  8
LC-007-005-----0
  6
CONTINUOUS
  5
1B3
 10
877.764617
 20
7358.61517
 30
0.0
 11
863.764617
 21
7372.61517
 31
0.0
  0
LINE
  8
LC-007-005-----0
  6
CONTINUOUS
  5
1B4
 10
872.107763
 20
7358.61517
 30
0.0
 11
858.107763
 21
7372.61517
 31
0.0
  0
LINE
  8
LC-007-005-----0
  6
CONTINUOUS
  5
1B5
 10
866.450909
 20
7358.61517
 30
0.0
 11
852.450909
 21
7372.61517
 31
0.0
  0
LINE
  8
LC-007-005-----0
  6
CONTINUOUS
  5
1B6
 10
860.794055
 20
7358.61517
 30
0.0
 11
846.794055
 21
7372.61517
 31
0.0
  0
LINE
  8
LC-007-005-----0
  6
CONTINUOUS
  5
1B7
 10
855.1372
 20
7358.61517
 30
0.0
 11
841.1372
 21
7372.61517
 31
0.0
  0
LINE
  8
LC-007-005-----0
  6
CONTINUOUS
  5
1B8
 10
849.480346
 20
7358.61517
 30
0.0
 11
837.844462
 21
7370.251054
 31
0.0
  0
LINE
  8
LC-007-005-----0
  6
CONTINUOUS
  5
1B9
 10
843.823492
 20
7358.61517
 30
0.0
 11
837.844462
 21
7364.5942
 31
0.0
  0
LINE
  8
LC-007-005-----0
  6
CONTINUOUS
  5
1BA
 10
838.166638
 20
7358.61517
 30
0.0
 11
837.844462
 21
7358.937346
 31
0.0
  0
ENDBLK
  8
0
  5
1BB
  0
BLOCK
  8
0
  5
1BD
  2
BLK10
 70
    64
 10
0.0
 20
0.0
 30
0.0
  3
BLK10
  0
ENDBLK
  8
0
  5
1BE
  0
BLOCK
  8
0
  5
1C0
  2
BLK11
 70
    64
 10
0.0
 20
0.0
 30
0.0
  3
BLK11
  0
ENDBLK
  8
0
  5
1C1
  0
BLOCK
  8
0
  5
1C3
  2
BLK12
 70
    64
 10
0.0
 20
0.0
 30
0.0
  3
BLK12
  0
ENDBLK
  8
0
  5
1C4
  0
BLOCK
  8
0
  5
1C6
  2
BLK13
 70
    64
 10
0.0
 20
0.0
 30
0.0
  3
BLK13
  0
ENDBLK
  8
0
  5
1C7
  0
ENDSEC
  0
SECTION
  2
ENTITIES
  0
VIEWPORT
  8
LC-000
  5
350
 67
     1
 68
     1
 10
420.0
 20
297.0
 30
0.0
 40
840.0
 41
594.0
 69
     1
1001
ACAD
1000
MVIEW
1002
{
1070
    16
1010
0.0
1020
0.0
1030
0.0
1010
0.0
1020
0.0
1030
1.0
1040
0.0
1040
594.0
1040
420.0
1040
297.0
1040
50.0
1040
0.0
1040
0.0
1070
     0
1070
   100
1070
     1
1070
     1
1070
     0
1070
     0
1070
     0
1070
     0
1040
0.0
1040
0.0
1040
0.0
1040
1.0
1040
1.0
1040
0.0
1040
0.0
1070
     0
1002
{
1002
}
1002
}
  0
VIEWPORT
  8
0
  5
351
 67
     1
 68
     1
 10
0.0
 20
0.0
 30
0.0
 40
0.0
 41
0.0
 69
     1
1001
ACAD
1000
MVIEW
1002
{
1070
    16
1010
0.0
1020
0.0
1030
0.0
1010
0.0
1020
0.0
1030
1.0
1040
0.0
1040
594.0
1040
0.0
1040
0.0
1040
50.0
1040
0.0
1040
0.0
1070
     0
1070
   100
1070
     0
1070
     1
1070
     0
1070
     0
1070
     0
1070
     0
1040
0.0
1040
0.0
1040
0.0
1040
0.5
1040
0.5
1040
0.5
1040
0.5
1070
     0
1002
{
1002
}
1002
}
  0
DIMENSION
  8
0
  5
1C8
  2
*D0
 10
837.81922
 20
7308.0
 30
0.0
 11
837.81922
 21
7308.0
 31
0.0
  1
%%c110
 13
782.819462
 23
7359.61517
 33
0.0
 14
892.818977
 24
7365.615111
 34
0.0
  3
LC-DIM-L-0140-02-02
  0
INSERT
  8
0
  5
1CA
  2
BLK1
 10
0.0
 20
0.0
 30
0.0
  0
INSERT
  8
0
  5
1CB
  2
BLK2
 10
0.0
 20
0.0
 30
0.0
  0
INSERT
  8
0
  5
1CC
  2
BLK3
 10
0.0
 20
0.0
 30
0.0
  0
INSERT
  8
0
  5
1CD
  2
BLK4
 10
0.0
 20
0.0
 30
0.0
  0
INSERT
  8
0
  5
1CE
  2
BLK5
 10
0.0
 20
0.0
 30
0.0
  0
INSERT
  8
0
  5
1CF
  2
*X6
 10
777.819855
 20
7355.615195
 30
0.0
  0
INSERT
  8
0
  5
1D0
  2
*X7
 10
889.819024
 20
7355.615195
 30
0.0
  0
INSERT
  8
0
  5
1D1
  2
BLK6
 10
0.0
 20
0.0
 30
0.0
  0
DIMENSION
  8
0
  5
1D2
  2
*D9
 10
940.8
 20
7365.61517
 30
0.0
 11
940.8
 21
7365.61517
 31
0.0
 13
889.819024
 23
7358.61517
 33
0.0
 14
890.319462
 24
7372.61517
 34
0.0
 50
90.0
  3
LC-DIM-L-0140-02-02
  0
DIMENSION
  8
0
  5
1D3
  2
*D10
 10
980.0
 20
7428.365118
 30
0.0
 11
980.0
 21
7428.365118
 31
0.0
  1
14-111
 13
890.319462
 23
7372.61517
 33
0.0
 14
910.319462
 24
7484.115066
 34
0.0
 50
90.0
  3
LC-DIM-L-0140-02-02
  0
DIMENSION
  8
0
  5
1D4
  2
*D11
 10
744.8
 20
7435.871
 30
0.0
 11
744.8
 21
7435.871
 31
0.0
 13
765.319462
 23
7484.115066
 33
0.0
 14
761.328738
 24
7475.115066
 34
0.0
 50
90.0
  3
LC-DIM-L-0140-02-02
  0
DIMENSION
  8
0
  5
1D5
  2
*D12
 10
837.819462
 20
7518.0
 30
0.0
 11
837.819462
 21
7518.0
 31
0.0
  1
150
 13
762.324673
 23
7481.291809
 33
0.0
 14
913.314251
 24
7480.296995
 34
0.0
  3
LC-DIM-L-0140-02-02
  0
INSERT
  8
0
  5
1D6
  2
*X13
 10
768.841462
 20
7479.115066
 30
0.0
  0
INSERT
  8
0
  5
1D7
  2
BLK7
 10
0.0
 20
0.0
 30
0.0
  0
INSERT
  8
0
  5
1D8
  2
BLK8
 10
0.0
 20
0.0
 30
0.0
  0
INSERT
  8
0
  5
1D9
  2
*X16
 10
889.819462
 20
7358.61517
 30
0.0
  0
INSERT
  8
0
  5
1DA
  2
*X17
 10
782.819462
 20
7358.61517
 30
0.0
  0
INSERT
  8
0
  5
1DB
  2
*X18
 10
751.305548
 20
7459.615066
 30
0.0
  0
INSERT
  8
0
  5
1DC
  2
*X19
 10
887.678795
 20
7459.615066
 30
0.0
  0
INSERT
  8
0
  5
1DD
  2
BLK9
 10
0.0
 20
0.0
 30
0.0
  0
INSERT
  8
0
  5
1DE
  2
*X21
 10
785.344462
 20
7358.61517
 30
0.0
  0
INSERT
  8
0
  5
1DF
  2
*X22
 10
837.844462
 20
7358.61517
 30
0.0
  0
INSERT
  8
0
  5
1E1
  2
BLK10
 10
0.0
 20
0.0
 30
0.0
  0
INSERT
  8
0
  5
1E2
  2
BLK11
 10
0.0
 20
0.0
 30
0.0
  0
INSERT
  8
0
  5
1E3
  2
BLK12
 10
0.0
 20
0.0
 30
0.0
  0
INSERT
  8
0
  5
1E4
  2
BLK13
 10
0.0
 20
0.0
 30
0.0
  0
LINE
  8
LC-001-002-----0
  6
CONTINUOUS
  5
1E6
 10
813.022408
 20
7542.347
 30
0.0
 11
813.022408
 21
7527.347
 31
0.0
  0
LINE
  8
LC-001-002-----0
  6
CONTINUOUS
  5
1E7
 10
798.022408
 20
7542.347
 30
0.0
 11
813.022408
 21
7542.347
 31
0.0
  0
LINE
  8
LC-001-002-----0
  6
DASHDOT
  5
1E9
 10
837.819462
 20
7355.615195
 30
0.0
 11
837.819462
 21
7479.115066
 31
0.0
  0
LINE
  8
LC-001-002-----0
  6
CONTINUOUS
  5
1EA
 10
798.022408
 20
7527.347
 30
0.0
 11
813.022408
 21
7527.347
 31
0.0
  0
LINE
  8
LC-001-002-----0
  6
CONTINUOUS
 62
     1
  5
1EB
 10
1089.797462
 20
7428.265183
 30
0.0
 11
1089.797462
 21
7411.265183
 31
0.0
  0
ARC
  8
LC-005-002-RND-0
  6
CONTINUOUS
  5
1ED
 10
1134.507462
 20
7484.953183
 30
0.0
 40
3.79
 50
0.0
 51
90.0
  0
ARC
  8
LC-005-002-RND-0
  6
CONTINUOUS
  5
1EE
 10
1004.131462
 20
7484.953183
 30
0.0
 40
3.79
 50
90.0
 51
180.0
  0
ARC
  8
LC-005-002-RND-0
  6
CONTINUOUS
  5
1EF
 10
1004.131462
 20
7354.577183
 30
0.0
 40
3.79
 50
180.0
 51
270.0
  0
ARC
  8
LC-005-002-RND-0
  6
CONTINUOUS
  5
1F0
 10
1134.507462
 20
7354.577183
 30
0.0
 40
3.79
 50
270.0
 51
0.0
  0
ARC
  8
LC-001-002-----0
  6
CONTINUOUS
 62
     1
  5
1F1
 10
1013.341462
 20
7379.265183
 30
0.0
 40
3.5
 50
180.0
 51
0.0
  0
ARC
  8
LC-001-002-----0
  6
CONTINUOUS
 62
     1
  5
1F2
 10
1013.341462
 20
7460.265183
 30
0.0
 40
3.5
 50
0.0
 51
180.0
  0
LINE
  8
LC-001-002-----0
  6
CONTINUOUS
 62
     1
  5
1F3
 10
1009.841462
 20
7379.265183
 30
0.0
 11
1009.841462
 21
7460.265183
 31
0.0
  0
LINE
  8
LC-001-002-----0
  6
CONTINUOUS
 62
     1
  5
1F4
 10
1016.841462
 20
7379.265183
 30
0.0
 11
1016.841462
 21
7460.265183
 31
0.0
  0
ARC
  8
LC-001-002-----0
  6
CONTINUOUS
 62
     1
  5
1F5
 10
1029.341462
 20
7395.265183
 30
0.0
 40
3.5
 50
180.0
 51
0.0
  0
ARC
  8
LC-001-002-----0
  6
CONTINUOUS
 62
     1
  5
1F6
 10
1029.341462
 20
7444.265183
 30
0.0
 40
3.5
 50
0.0
 51
180.0
  0
LINE
  8
LC-001-002-----0
  6
CONTINUOUS
 62
     1
  5
1F7
 10
1025.841462
 20
7395.265183
 30
0.0
 11
1025.841462
 21
7444.265183
 31
0.0
  0
LINE
  8
LC-001-002-----0
  6
CONTINUOUS
 62
     1
  5
1F8
 10
1032.841462
 20
7395.265183
 30
0.0
 11
1032.841462
 21
7444.265183
 31
0.0
  0
ARC
  8
LC-001-002-----0
  6
CONTINUOUS
 62
     1
  5
1F9
 10
1045.341462
 20
7411.265183
 30
0.0
 40
3.5
 50
180.0
 51
0.0
  0
ARC
  8
LC-001-002-----0
  6
CONTINUOUS
 62
     1
  5
1FA
 10
1045.341462
 20
7428.265183
 30
0.0
 40
3.5
 50
0.0
 51
180.0
  0
LINE
  8
LC-001-002-----0
  6
CONTINUOUS
 62
     1
  5
1FB
 10
1041.841462
 20
7411.265183
 30
0.0
 11
1041.841462
 21
7428.265183
 31
0.0
  0
LINE
  8
LC-001-002-----0
  6
CONTINUOUS
 62
     1
  5
1FC
 10
1048.841462
 20
7411.265183
 30
0.0
 11
1048.841462
 21
7428.265183
 31
0.0
  0
ARC
  8
LC-001-002-----0
  6
CONTINUOUS
 62
     1
  5
1FD
 10
1109.819462
 20
7363.787183
 30
0.0
 40
3.5
 50
270.0
 51
90.0
  0
ARC
  8
LC-001-002-----0
  6
CONTINUOUS
 62
     1
  5
1FE
 10
1028.819462
 20
7363.787183
 30
0.0
 40
3.5
 50
90.0
 51
270.0
  0
ARC
  8
LC-001-002-----0
  6
CONTINUOUS
 62
     1
  5
1FF
 10
1028.819462
 20
7475.743183
 30
0.0
 40
3.5
 50
90.0
 51
270.0
  0
ARC
  8
LC-001-002-----0
  6
CONTINUOUS
 62
     1
  5
200
 10
1109.819462
 20
7475.743183
 30
0.0
 40
3.5
 50
270.0
 51
90.0
  0
LINE
  8
LC-001-002-----0
  6
CONTINUOUS
 62
     1
  5
201
 10
1028.819462
 20
7479.243183
 30
0.0
 11
1109.819462
 21
7479.243183
 31
0.0
  0
LINE
  8
LC-001-002-----0
  6
CONTINUOUS
 62
     1
  5
202
 10
1028.819462
 20
7472.243183
 30
0.0
 11
1109.819462
 21
7472.243183
 31
0.0
  0
LINE
  8
LC-001-002-----0
  6
CONTINUOUS
 62
     1
  5
203
 10
1109.819462
 20
7360.287183
 30
0.0
 11
1028.819462
 21
7360.287183
 31
0.0
  0
LINE
  8
LC-001-002-----0
  6
CONTINUOUS
 62
     1
  5
204
 10
1109.819462
 20
7367.287183
 30
0.0
 11
1028.819462
 21
7367.287183
 31
0.0
  0
ARC
  8
LC-001-002-----0
  6
CONTINUOUS
 62
     1
  5
205
 10
1044.819462
 20
7459.743183
 30
0.0
 40
3.5
 50
90.0
 51
270.0
  0
ARC
  8
LC-001-002-----0
  6
CONTINUOUS
 62
     1
  5
206
 10
1093.819462
 20
7459.743183
 30
0.0
 40
3.5
 50
270.0
 51
90.0
  0
LINE
  8
LC-001-002-----0
  6
CONTINUOUS
 62
     1
  5
207
 10
1044.819462
 20
7463.243183
 30
0.0
 11
1093.819462
 21
7463.243183
 31
0.0
  0
LINE
  8
LC-001-002-----0
  6
CONTINUOUS
 62
     1
  5
208
 10
1044.819462
 20
7456.243183
 30
0.0
 11
1093.819462
 21
7456.243183
 31
0.0
  0
ARC
  8
LC-001-002-----0
  6
CONTINUOUS
 62
     1
  5
209
 10
1093.819462
 20
7379.787183
 30
0.0
 40
3.5
 50
270.0
 51
90.0
  0
ARC
  8
LC-001-002-----0
  6
CONTINUOUS
 62
     1
  5
20A
 10
1044.819462
 20
7379.787183
 30
0.0
 40
3.5
 50
90.0
 51
270.0
  0
LINE
  8
LC-001-002-----0
  6
CONTINUOUS
 62
     1
  5
20B
 10
1093.819462
 20
7376.287183
 30
0.0
 11
1044.819462
 21
7376.287183
 31
0.0
  0
LINE
  8
LC-001-002-----0
  6
CONTINUOUS
 62
     1
  5
20C
 10
1093.819462
 20
7383.287183
 30
0.0
 11
1044.819462
 21
7383.287183
 31
0.0
  0
ARC
  8
LC-001-002-----0
  6
CONTINUOUS
 62
     1
  5
20D
 10
1060.819462
 20
7443.743183
 30
0.0
 40
3.5
 50
90.0
 51
270.0
  0
ARC
  8
LC-001-002-----0
  6
CONTINUOUS
 62
     1
  5
20E
 10
1077.819462
 20
7443.743183
 30
0.0
 40
3.5
 50
270.0
 51
90.0
  0
LINE
  8
LC-001-002-----0
  6
CONTINUOUS
 62
     1
  5
20F
 10
1060.819462
 20
7447.243183
 30
0.0
 11
1077.819462
 21
7447.243183
 31
0.0
  0
LINE
  8
LC-001-002-----0
  6
CONTINUOUS
 62
     1
  5
210
 10
1000.341462
 20
7354.577183
 30
0.0
 11
1000.341462
 21
7484.953183
 31
0.0
  0
LINE
  8
LC-001-002-----0
  6
CONTINUOUS
 62
     1
  5
211
 10
1004.131462
 20
7488.743183
 30
0.0
 11
1134.507462
 21
7488.743183
 31
0.0
  0
LINE
  8
LC-001-002-----0
  6
CONTINUOUS
 62
     1
  5
212
 10
1138.297462
 20
7484.953183
 30
0.0
 11
1138.297462
 21
7354.577183
 31
0.0
  0
LINE
  8
LC-001-002-----0
  6
CONTINUOUS
 62
     1
  5
213
 10
1134.507462
 20
7350.787183
 30
0.0
 11
1004.131462
 21
7350.787183
 31
0.0
  0
LINE
  8
LC-001-002-----0
  6
CONTINUOUS
 62
     1
  5
214
 10
1060.819462
 20
7440.243183
 30
0.0
 11
1077.819462
 21
7440.243183
 31
0.0
  0
ARC
  8
LC-001-002-----0
  6
CONTINUOUS
 62
     1
  5
215
 10
1077.819462
 20
7395.787183
 30
0.0
 40
3.5
 50
270.0
 51
90.0
  0
ARC
  8
LC-001-002-----0
  6
CONTINUOUS
 62
     1
  5
216
 10
1060.819462
 20
7395.787183
 30
0.0
 40
3.5
 50
90.0
 51
270.0
  0
LINE
  8
LC-001-002-----0
  6
CONTINUOUS
 62
     1
  5
217
 10
1077.819462
 20
7392.287183
 30
0.0
 11
1060.819462
 21
7392.287183
 31
0.0
  0
LINE
  8
LC-001-002-----0
  6
CONTINUOUS
 62
     1
  5
218
 10
1077.819462
 20
7399.287183
 30
0.0
 11
1060.819462
 21
7399.287183
 31
0.0
  0
ARC
  8
LC-001-002-----0
  6
CONTINUOUS
 62
     1
  5
219
 10
1125.297462
 20
7460.265183
 30
0.0
 40
3.5
 50
0.0
 51
180.0
  0
ARC
  8
LC-001-002-----0
  6
CONTINUOUS
 62
     1
  5
21A
 10
1125.297462
 20
7379.265183
 30
0.0
 40
3.5
 50
180.0
 51
0.0
  0
LINE
  8
LC-001-002-----0
  6
CONTINUOUS
 62
     1
  5
21B
 10
1128.797462
 20
7460.265183
 30
0.0
 11
1128.797462
 21
7379.265183
 31
0.0
  0
LINE
  8
LC-001-002-----0
  6
CONTINUOUS
 62
     1
  5
21C
 10
1121.797462
 20
7460.265183
 30
0.0
 11
1121.797462
 21
7379.265183
 31
0.0
  0
ARC
  8
LC-001-002-----0
  6
CONTINUOUS
 62
     1
  5
21D
 10
1109.297462
 20
7444.265183
 30
0.0
 40
3.5
 50
0.0
 51
180.0
  0
ARC
  8
LC-001-002-----0
  6
CONTINUOUS
 62
     1
  5
21E
 10
1109.297462
 20
7395.265183
 30
0.0
 40
3.5
 50
180.0
 51
0.0
  0
LINE
  8
LC-001-002-----0
  6
CONTINUOUS
 62
     1
  5
21F
 10
1112.797462
 20
7444.265183
 30
0.0
 11
1112.797462
 21
7395.265183
 31
0.0
  0
LINE
  8
LC-001-002-----0
  6
CONTINUOUS
 62
     1
  5
220
 10
1105.797462
 20
7444.265183
 30
0.0
 11
1105.797462
 21
7395.265183
 31
0.0
  0
ARC
  8
LC-001-002-----0
  6
CONTINUOUS
 62
     1
  5
221
 10
1093.297462
 20
7428.265183
 30
0.0
 40
3.5
 50
0.0
 51
180.0
  0
ARC
  8
LC-001-002-----0
  6
CONTINUOUS
 62
     1
  5
222
 10
1093.297462
 20
7411.265183
 30
0.0
 40
3.5
 50
180.0
 51
0.0
  0
LINE
  8
LC-001-002-----0
  6
CONTINUOUS
 62
     1
  5
223
 10
1096.797462
 20
7428.265183
 30
0.0
 11
1096.797462
 21
7411.265183
 31
0.0
  0
ARC
  8
LC-005-002-RND-0
  6
CONTINUOUS
  5
224
 10
1002.819462
 20
7486.265183
 30
0.0
 40
3.0
 50
90.0
 51
180.0
  0
ARC
  8
LC-005-002-RND-0
  6
CONTINUOUS
  5
225
 10
1135.819462
 20
7486.265183
 30
0.0
 40
3.0
 50
0.0
 51
90.0
  0
LINE
  8
LC-001-002-----0
  6
CONTINUOUS
 62
     1
  5
226
 10
1138.819462
 20
7486.265183
 30
0.0
 11
1138.819462
 21
7353.265183
 31
0.0
  0
LINE
  8
LC-001-002-----0
  6
CONTINUOUS
 62
     1
  5
227
 10
1002.819462
 20
7489.265183
 30
0.0
 11
1135.819462
 21
7489.265183
 31
0.0
  0
LINE
  8
LC-001-002-----0
  6
CONTINUOUS
 62
     1
  5
228
 10
999.819462
 20
7353.265183
 30
0.0
 11
999.819462
 21
7486.265183
 31
0.0
  0
LINE
  8
LC-001-002-----0
  6
CONTINUOUS
 62
     1
  5
229
 10
1135.819462
 20
7350.265183
 30
0.0
 11
1002.819462
 21
7350.265183
 31
0.0
  0
ARC
  8
LC-005-002-RND-0
  6
CONTINUOUS
  5
22A
 10
1135.819462
 20
7353.265183
 30
0.0
 40
3.0
 50
270.0
 51
0.0
  0
ARC
  8
LC-005-002-RND-0
  6
CONTINUOUS
  5
22B
 10
1002.819462
 20
7353.265183
 30
0.0
 40
3.0
 50
180.0
 51
270.0
  0
ARC
  8
LC-001-002-----0
  6
CONTINUOUS
 62
     1
  5
22C
 10
1002.819462
 20
7353.265183
 30
0.0
 40
7.0
 50
180.0
 51
270.0
  0
ARC
  8
LC-001-002-----0
  6
CONTINUOUS
 62
     1
  5
22D
 10
1135.819462
 20
7486.265183
 30
0.0
 40
7.0
 50
0.0
 51
90.0
  0
ARC
  8
LC-001-002-----0
  6
CONTINUOUS
 62
     1
  5
22E
 10
1135.819462
 20
7353.265183
 30
0.0
 40
7.0
 50
270.0
 51
0.0
  0
ARC
  8
LC-001-002-----0
  6
CONTINUOUS
 62
     1
  5
22F
 10
1002.819462
 20
7486.265183
 30
0.0
 40
7.0
 50
90.0
 51
180.0
  0
LINE
  8
LC-001-002-----0
  6
CONTINUOUS
 62
     1
  5
230
 10
1002.819462
 20
7493.265183
 30
0.0
 11
1135.819462
 21
7493.265183
 31
0.0
  0
LINE
  8
LC-001-002-----0
  6
CONTINUOUS
 62
     1
  5
231
 10
1002.819462
 20
7346.265183
 30
0.0
 11
1135.819462
 21
7346.265183
 31
0.0
  0
LINE
  8
LC-001-002-----0
  6
CONTINUOUS
 62
     1
  5
232
 10
1142.819462
 20
7486.265183
 30
0.0
 11
1142.819462
 21
7353.265183
 31
0.0
  0
LINE
  8
LC-001-002-----0
  6
CONTINUOUS
 62
     1
  5
233
 10
995.819462
 20
7486.265183
 30
0.0
 11
995.819462
 21
7353.265183
 31
0.0
  0
LINE
  8
LC-001-002-----0
  6
CONTINUOUS
 62
     1
  5
234
 10
892.818953
 20
7373.615005
 30
0.0
 11
892.818977
 21
7365.615111
 31
0.0
  0
LINE
  8
LC-001-002-----0
  6
CONTINUOUS
 62
     1
  5
235
 10
889.819024
 20
7355.615195
 30
0.0
 11
897.819069
 21
7355.615195
 31
0.0
  0
LINE
  8
LC-001-002-----0
  6
CONTINUOUS
 62
     1
  5
236
 10
802.126171
 20
7355.615195
 30
0.0
 11
802.126171
 21
7358.61517
 31
0.0
  0
LINE
  8
LC-001-002-----0
  6
CONTINUOUS
 62
     1
  5
237
 10
800.004869
 20
7355.615195
 30
0.0
 11
800.004869
 21
7358.61517
 31
0.0
  0
LINE
  8
LC-001-002-----0
  6
CONTINUOUS
 62
     1
  5
238
 10
897.819069
 20
7355.615195
 30
0.0
 11
897.819069
 21
7365.614421
 31
0.0
  0
LINE
  8
LC-001-002-----0
  6
CONTINUOUS
 62
     1
  5
239
 10
894.818975
 20
7375.615027
 30
0.0
 11
894.818975
 21
7365.615111
 31
0.0
  0
LINE
  8
LC-001-002-----0
  6
CONTINUOUS
 62
     1
  5
23A
 10
896.319081
 20
7365.615111
 30
0.0
 11
897.819069
 21
7365.615111
 31
0.0
  0
LINE
  8
LC-001-002-----0
  6
CONTINUOUS
 62
     1
  5
23B
 10
894.818975
 20
7375.615027
 30
0.0
 11
892.818953
 21
7373.615005
 31
0.0
  0
LINE
  8
LC-001-002-----0
  6
CONTINUOUS
 62
     1
  5
23C
 10
896.319081
 20
7365.615111
 30
0.0
 11
894.818975
 21
7365.615111
 31
0.0
  0
LINE
  8
LC-001-002-----0
  6
CONTINUOUS
 62
     1
  5
23D
 10
836.319474
 20
7358.61517
 30
0.0
 11
839.319449
 21
7358.61517
 31
0.0
  0
LINE
  8
LC-001-002-----0
  6
CONTINUOUS
 62
     1
  5
23E
 10
839.319449
 20
7355.615195
 30
0.0
 11
839.319449
 21
7358.61517
 31
0.0
  0
LINE
  8
LC-001-002-----0
  6
CONTINUOUS
 62
     1
  5
23F
 10
795.404999
 20
7355.615195
 30
0.0
 11
795.404999
 21
7358.61517
 31
0.0
  0
LINE
  8
LC-001-002-----0
  6
CONTINUOUS
 62
     1
  5
240
 10
795.404999
 20
7358.61517
 30
0.0
 11
802.126171
 21
7358.61517
 31
0.0
  0
LINE
  8
LC-001-002-----0
  6
CONTINUOUS
 62
     1
  5
241
 10
785.8199
 20
7355.615195
 30
0.0
 11
839.319449
 21
7355.615195
 31
0.0
  0
LINE
  8
LC-001-002-----0
  6
CONTINUOUS
 62
     1
  5
242
 10
839.319449
 20
7355.615195
 30
0.0
 11
873.512753
 21
7355.615195
 31
0.0
  0
LINE
  8
LC-001-002-----0
  6
CONTINUOUS
 62
     1
  5
243
 10
873.512753
 20
7355.615195
 30
0.0
 11
889.797385
 21
7355.615195
 31
0.0
  0
LINE
  8
LC-001-002-----0
  6
CONTINUOUS
 62
     1
  5
244
 10
836.319474
 20
7355.615195
 30
0.0
 11
836.319474
 21
7358.61517
 31
0.0
  0
LINE
  8
LC-001-002-----0
  6
CONTINUOUS
 62
     1
  5
245
 10
782.819971
 20
7373.615005
 30
0.0
 11
782.819925
 21
7358.61517
 31
0.0
  0
LINE
  8
LC-001-002-----0
  6
CONTINUOUS
 62
     1
  5
246
 10
785.8199
 20
7355.615195
 30
0.0
 11
777.819855
 21
7355.615195
 31
0.0
  0
LINE
  8
LC-001-002-----0
  6
CONTINUOUS
 62
     1
  5
247
 10
777.819855
 20
7355.615195
 30
0.0
 11
777.819855
 21
7365.614421
 31
0.0
  0
LINE
  8
LC-001-002-----0
  6
CONTINUOUS
 62
     1
  5
248
 10
780.819949
 20
7375.615027
 30
0.0
 11
780.819949
 21
7365.615111
 31
0.0
  0
LINE
  8
LC-001-002-----0
  6
CONTINUOUS
 62
     1
  5
249
 10
779.319842
 20
7365.615111
 30
0.0
 11
777.819855
 21
7365.615111
 31
0.0
  0
LINE
  8
LC-001-002-----0
  6
CONTINUOUS
 62
     1
  5
24A
 10
780.819949
 20
7375.615027
 30
0.0
 11
782.819971
 21
7373.615005
 31
0.0
  0
LINE
  8
LC-001-002-----0
  6
CONTINUOUS
 62
     1
  5
24B
 10
782.819925
 20
7358.61517
 30
0.0
 11
785.8199
 21
7358.61517
 31
0.0
  0
LINE
  8
LC-001-002-----0
  6
CONTINUOUS
 62
     1
  5
24C
 10
785.8199
 20
7358.61517
 30
0.0
 11
785.8199
 21
7355.615195
 31
0.0
  0
LINE
  8
LC-001-002-----0
  6
CONTINUOUS
 62
     1
  5
24D
 10
779.319842
 20
7365.615111
 30
0.0
 11
780.819949
 21
7365.615111
 31
0.0
  0
LINE
  8
LC-001-002-----0
  6
CONTINUOUS
 62
     1
  5
24E
 10
892.818999
 20
7358.61517
 30
0.0
 11
889.819024
 21
7358.61517
 31
0.0
  0
LINE
  8
LC-001-002-----0
  6
CONTINUOUS
 62
     1
  5
24F
 10
889.819024
 20
7358.61517
 30
0.0
 11
889.819024
 21
7355.615195
 31
0.0
  0
LINE
  8
LC-001-002-----0
  6
CONTINUOUS
 62
     1
  5
250
 10
892.818953
 20
7373.615005
 30
0.0
 11
892.818999
 21
7358.61517
 31
0.0
  0
LINE
  8
LC-001-002-----0
  6
CONTINUOUS
 62
     1
  5
251
 10
894.818975
 20
7375.615027
 30
0.0
 11
892.818953
 21
7373.615005
 31
0.0
  0
LINE
  8
LC-001-002-----0
  6
CONTINUOUS
 62
     1
  5
252
 10
894.818975
 20
7375.615027
 30
0.0
 11
894.818975
 21
7365.615111
 31
0.0
  0
LINE
  8
LC-001-002-----0
  6
CONTINUOUS
 62
     1
  5
253
 10
897.819069
 20
7355.615195
 30
0.0
 11
897.819069
 21
7365.614421
 31
0.0
  0
LINE
  8
LC-001-002-----0
  6
CONTINUOUS
 62
     1
  5
254
 10
889.819024
 20
7355.615195
 30
0.0
 11
897.819069
 21
7355.615195
 31
0.0
  0
LINE
  8
LC-001-002-----0
  6
CONTINUOUS
 62
     1
  5
255
 10
880.233924
 20
7355.615195
 30
0.0
 11
880.233924
 21
7358.61517
 31
0.0
  0
LINE
  8
LC-001-002-----0
  6
CONTINUOUS
 62
     1
  5
256
 10
880.233924
 20
7358.61517
 30
0.0
 11
873.512753
 21
7358.61517
 31
0.0
  0
LINE
  8
LC-001-002-----0
  6
CONTINUOUS
 62
     1
  5
257
 10
875.634055
 20
7355.615195
 30
0.0
 11
875.634055
 21
7358.61517
 31
0.0
  0
LINE
  8
LC-001-002-----0
  6
CONTINUOUS
 62
     1
  5
258
 10
873.512753
 20
7355.615195
 30
0.0
 11
873.512753
 21
7358.61517
 31
0.0
  0
LINE
  8
LC-001-002-----0
  6
CONTINUOUS
 62
     1
  5
259
 10
890.319462
 20
7466.61517
 30
0.0
 11
889.819462
 21
7466.11517
 31
0.0
  0
LINE
  8
LC-001-002-----0
  6
CONTINUOUS
  5
25A
 10
798.022408
 20
7527.347
 30
0.0
 11
798.022408
 21
7542.347
 31
0.0
  0
ARC
  8
LC-005-002-RND-0
  6
CONTINUOUS
  5
25B
 10
775.841462
 20
7481.615066
 30
0.0
 40
2.5
 50
0.0
 51
90.0
  0
ARC
  8
LC-005-002-RND-0
  6
CONTINUOUS
  5
25C
 10
775.841462
 20
7481.615066
 30
0.0
 40
2.5
 50
0.0
 51
90.0
  0
ARC
  8
LC-005-002-RND-0
  6
CONTINUOUS
  5
25D
 10
787.841462
 20
7481.615066
 30
0.0
 40
2.5
 50
90.0
 51
180.0
  0
ARC
  8
LC-005-002-RND-0
  6
CONTINUOUS
  5
25E
 10
791.841462
 20
7481.615066
 30
0.0
 40
2.5
 50
0.0
 51
90.0
  0
ARC
  8
LC-005-002-RND-0
  6
CONTINUOUS
  5
25F
 10
803.841462
 20
7481.615066
 30
0.0
 40
2.5
 50
90.0
 51
180.0
  0
ARC
  8
LC-005-002-RND-0
  6
CONTINUOUS
  5
260
 10
807.841462
 20
7481.615066
 30
0.0
 40
2.5
 50
0.0
 51
90.0
  0
ARC
  8
LC-005-002-RND-0
  6
CONTINUOUS
  5
261
 10
819.841462
 20
7481.615066
 30
0.0
 40
2.5
 50
90.0
 51
180.0
  0
ARC
  8
LC-005-002-RND-0
  6
CONTINUOUS
  5
262
 10
771.341462
 20
7481.615066
 30
0.0
 40
2.5
 50
90.0
 51
180.0
  0
ARC
  8
LC-005-002-RND-0
  6
CONTINUOUS
  5
263
 10
855.797462
 20
7481.615066
 30
0.0
 40
2.5
 50
0.0
 51
90.0
  0
ARC
  8
LC-005-002-RND-0
  6
CONTINUOUS
  5
264
 10
867.797462
 20
7481.615066
 30
0.0
 40
2.5
 50
90.0
 51
180.0
  0
ARC
  8
LC-005-002-RND-0
  6
CONTINUOUS
  5
265
 10
871.797462
 20
7481.615066
 30
0.0
 40
2.5
 50
0.0
 51
90.0
  0
ARC
  8
LC-005-002-RND-0
  6
CONTINUOUS
  5
266
 10
883.797462
 20
7481.615066
 30
0.0
 40
2.5
 50
90.0
 51
180.0
  0
ARC
  8
LC-005-002-RND-0
  6
CONTINUOUS
  5
267
 10
887.797462
 20
7481.615066
 30
0.0
 40
2.5
 50
0.0
 51
90.0
  0
ARC
  8
LC-005-002-RND-0
  6
CONTINUOUS
  5
268
 10
899.797462
 20
7481.615066
 30
0.0
 40
2.5
 50
90.0
 51
180.0
  0
ARC
  8
LC-005-002-RND-0
  6
CONTINUOUS
  5
269
 10
904.297462
 20
7481.615066
 30
0.0
 40
2.5
 50
0.0
 51
90.0
  0
LINE
  8
LC-001-002-----0
  6
CONTINUOUS
 62
     1
  5
26A
 10
775.841462
 20
7484.115066
 30
0.0
 11
787.841462
 21
7484.115066
 31
0.0
  0
LINE
  8
LC-001-002-----0
  6
CONTINUOUS
 62
     1
  5
26B
 10
791.841462
 20
7484.115066
 30
0.0
 11
803.841462
 21
7484.115066
 31
0.0
  0
LINE
  8
LC-001-002-----0
  6
CONTINUOUS
 62
     1
  5
26C
 10
905.297462
 20
7479.115066
 30
0.0
 11
905.297462
 21
7481.615066
 31
0.0
  0
ARC
  8
LC-001-002-----0
  6
CONTINUOUS
 62
     1
  5
26D
 10
904.297462
 20
7481.615066
 30
0.0
 40
1.0
 50
0.0
 51
90.0
  0
LINE
  8
LC-001-002-----0
  6
CONTINUOUS
 62
     1
  5
26E
 10
904.297462
 20
7482.615066
 30
0.0
 11
899.797462
 21
7482.615066
 31
0.0
  0
ARC
  8
LC-001-002-----0
  6
CONTINUOUS
 62
     1
  5
26F
 10
899.797462
 20
7481.615066
 30
0.0
 40
1.0
 50
90.0
 51
180.0
  0
LINE
  8
LC-001-002-----0
  6
CONTINUOUS
 62
     1
  5
270
 10
898.797462
 20
7481.615066
 30
0.0
 11
898.797462
 21
7480.115066
 31
0.0
  0
LINE
  8
LC-001-002-----0
  6
CONTINUOUS
 62
     1
  5
271
 10
768.841462
 20
7479.115066
 30
0.0
 11
768.841462
 21
7481.615066
 31
0.0
  0
LINE
  8
LC-001-002-----0
  6
CONTINUOUS
 62
     1
  5
272
 10
771.341462
 20
7484.115066
 30
0.0
 11
775.841462
 21
7484.115066
 31
0.0
  0
LINE
  8
LC-001-002-----0
  6
CONTINUOUS
 62
     1
  5
273
 10
778.341462
 20
7481.615066
 30
0.0
 11
778.341462
 21
7480.115066
 31
0.0
  0
LINE
  8
LC-001-002-----0
  6
CONTINUOUS
 62
     1
  5
274
 10
776.841462
 20
7480.115066
 30
0.0
 11
786.841462
 21
7480.115066
 31
0.0
  0
LINE
  8
LC-001-002-----0
  6
CONTINUOUS
 62
     1
  5
275
 10
785.341462
 20
7480.115066
 30
0.0
 11
785.341462
 21
7481.615066
 31
0.0
  0
LINE
  8
LC-001-002-----0
  6
CONTINUOUS
 62
     1
  5
276
 10
787.841462
 20
7484.115066
 30
0.0
 11
791.841462
 21
7484.115066
 31
0.0
  0
LINE
  8
LC-001-002-----0
  6
CONTINUOUS
 62
     1
  5
277
 10
794.341462
 20
7481.615066
 30
0.0
 11
794.341462
 21
7480.115066
 31
0.0
  0
LINE
  8
LC-001-002-----0
  6
CONTINUOUS
 62
     1
  5
278
 10
792.841462
 20
7480.115066
 30
0.0
 11
802.841462
 21
7480.115066
 31
0.0
  0
LINE
  8
LC-001-002-----0
  6
CONTINUOUS
 62
     1
  5
279
 10
801.341462
 20
7480.115066
 30
0.0
 11
801.341462
 21
7481.615066
 31
0.0
  0
LINE
  8
LC-001-002-----0
  6
CONTINUOUS
 62
     1
  5
27A
 10
803.841462
 20
7484.115066
 30
0.0
 11
807.841462
 21
7484.115066
 31
0.0
  0
LINE
  8
LC-001-002-----0
  6
CONTINUOUS
 62
     1
  5
27B
 10
810.341462
 20
7481.615066
 30
0.0
 11
810.341462
 21
7480.115066
 31
0.0
  0
LINE
  8
LC-001-002-----0
  6
CONTINUOUS
 62
     1
  5
27C
 10
808.841462
 20
7480.115066
 30
0.0
 11
818.841462
 21
7480.115066
 31
0.0
  0
LINE
  8
LC-001-002-----0
  6
CONTINUOUS
 62
     1
  5
27D
 10
817.341462
 20
7480.115066
 30
0.0
 11
817.341462
 21
7481.615066
 31
0.0
  0
LINE
  8
LC-001-002-----0
  6
CONTINUOUS
 62
     1
  5
27E
 10
819.841462
 20
7484.115066
 30
0.0
 11
837.819462
 21
7484.115066
 31
0.0
  0
LINE
  8
LC-001-002-----0
  6
CONTINUOUS
 62
     1
  5
27F
 10
770.341462
 20
7479.115066
 30
0.0
 11
905.297462
 21
7479.115066
 31
0.0
  0
LINE
  8
LC-001-002-----0
  6
CONTINUOUS
 62
     1
  5
280
 10
906.797462
 20
7479.115066
 30
0.0
 11
906.797462
 21
7481.615066
 31
0.0
  0
LINE
  8
LC-001-002-----0
  6
CONTINUOUS
 62
     1
  5
281
 10
904.297462
 20
7484.115066
 30
0.0
 11
899.797462
 21
7484.115066
 31
0.0
  0
LINE
  8
LC-001-002-----0
  6
CONTINUOUS
 62
     1
  5
282
 10
897.297462
 20
7481.615066
 30
0.0
 11
897.297462
 21
7480.115066
 31
0.0
  0
LINE
  8
LC-001-002-----0
  6
CONTINUOUS
 62
     1
  5
283
 10
898.797462
 20
7480.115066
 30
0.0
 11
888.797462
 21
7480.115066
 31
0.0
  0
LINE
  8
LC-001-002-----0
  6
CONTINUOUS
 62
     1
  5
284
 10
890.297462
 20
7480.115066
 30
0.0
 11
890.297462
 21
7481.615066
 31
0.0
  0
LINE
  8
LC-001-002-----0
  6
CONTINUOUS
 62
     1
  5
285
 10
887.797462
 20
7484.115066
 30
0.0
 11
883.797462
 21
7484.115066
 31
0.0
  0
LINE
  8
LC-001-002-----0
  6
CONTINUOUS
 62
     1
  5
286
 10
881.297462
 20
7481.615066
 30
0.0
 11
881.297462
 21
7480.115066
 31
0.0
  0
LINE
  8
LC-001-002-----0
  6
CONTINUOUS
 62
     1
  5
287
 10
882.797462
 20
7480.115066
 30
0.0
 11
872.797462
 21
7480.115066
 31
0.0
  0
LINE
  8
LC-001-002-----0
  6
CONTINUOUS
 62
     1
  5
288
 10
874.297462
 20
7480.115066
 30
0.0
 11
874.297462
 21
7481.615066
 31
0.0
  0
LINE
  8
LC-001-002-----0
  6
CONTINUOUS
 62
     1
  5
289
 10
871.797462
 20
7484.115066
 30
0.0
 11
867.797462
 21
7484.115066
 31
0.0
  0
LINE
  8
LC-001-002-----0
  6
CONTINUOUS
 62
     1
  5
28A
 10
865.297462
 20
7481.615066
 30
0.0
 11
865.297462
 21
7480.115066
 31
0.0
  0
LINE
  8
LC-001-002-----0
  6
CONTINUOUS
 62
     1
  5
28B
 10
866.797462
 20
7480.115066
 30
0.0
 11
856.797462
 21
7480.115066
 31
0.0
  0
LINE
  8
LC-001-002-----0
  6
CONTINUOUS
 62
     1
  5
28C
 10
858.297462
 20
7480.115066
 30
0.0
 11
858.297462
 21
7481.615066
 31
0.0
  0
LINE
  8
LC-001-002-----0
  6
CONTINUOUS
 62
     1
  5
28D
 10
855.797462
 20
7484.115066
 30
0.0
 11
837.819462
 21
7484.115066
 31
0.0
  0
LINE
  8
LC-001-002-----0
  6
CONTINUOUS
 62
     1
  5
28E
 10
855.797462
 20
7484.115066
 30
0.0
 11
867.797462
 21
7484.115066
 31
0.0
  0
LINE
  8
LC-001-002-----0
  6
CONTINUOUS
 62
     1
  5
28F
 10
888.797462
 20
7480.115066
 30
0.0
 11
888.797462
 21
7481.615066
 31
0.0
  0
ARC
  8
LC-001-002-----0
  6
CONTINUOUS
 62
     1
  5
290
 10
887.797462
 20
7481.615066
 30
0.0
 40
1.0
 50
0.0
 51
90.0
  0
LINE
  8
LC-001-002-----0
  6
CONTINUOUS
 62
     1
  5
291
 10
887.797462
 20
7482.615066
 30
0.0
 11
883.797462
 21
7482.615066
 31
0.0
  0
ARC
  8
LC-001-002-----0
  6
CONTINUOUS
 62
     1
  5
292
 10
883.797462
 20
7481.615066
 30
0.0
 40
1.0
 50
90.0
 51
180.0
  0
LINE
  8
LC-001-002-----0
  6
CONTINUOUS
 62
     1
  5
293
 10
882.797462
 20
7481.615066
 30
0.0
 11
882.797462
 21
7480.115066
 31
0.0
  0
LINE
  8
LC-001-002-----0
  6
CONTINUOUS
 62
     1
  5
294
 10
871.797462
 20
7484.115066
 30
0.0
 11
883.797462
 21
7484.115066
 31
0.0
  0
LINE
  8
LC-001-002-----0
  6
CONTINUOUS
 62
     1
  5
295
 10
872.797462
 20
7480.115066
 30
0.0
 11
872.797462
 21
7481.615066
 31
0.0
  0
ARC
  8
LC-001-002-----0
  6
CONTINUOUS
 62
     1
  5
296
 10
871.797462
 20
7481.615066
 30
0.0
 40
1.0
 50
0.0
 51
90.0
  0
LINE
  8
LC-001-002-----0
  6
CONTINUOUS
 62
     1
  5
297
 10
871.797462
 20
7482.615066
 30
0.0
 11
867.797462
 21
7482.615066
 31
0.0
  0
ARC
  8
LC-001-002-----0
  6
CONTINUOUS
 62
     1
  5
298
 10
867.797462
 20
7481.615066
 30
0.0
 40
1.0
 50
90.0
 51
180.0
  0
LINE
  8
LC-001-002-----0
  6
CONTINUOUS
 62
     1
  5
299
 10
866.797462
 20
7481.615066
 30
0.0
 11
866.797462
 21
7480.115066
 31
0.0
  0
LINE
  8
LC-001-002-----0
  6
CONTINUOUS
 62
     1
  5
29A
 10
887.797462
 20
7484.115066
 30
0.0
 11
899.797462
 21
7484.115066
 31
0.0
  0
LINE
  8
LC-001-002-----0
  6
CONTINUOUS
 62
     1
  5
29B
 10
856.797462
 20
7480.115066
 30
0.0
 11
856.797462
 21
7481.615066
 31
0.0
  0
ARC
  8
LC-001-002-----0
  6
CONTINUOUS
 62
     1
  5
29C
 10
855.797462
 20
7481.615066
 30
0.0
 40
1.0
 50
0.0
 51
90.0
  0
LINE
  8
LC-001-002-----0
  6
CONTINUOUS
 62
     1
  5
29D
 10
855.797462
 20
7482.615066
 30
0.0
 11
837.819462
 21
7482.615066
 31
0.0
  0
LINE
  8
LC-001-002-----0
  6
CONTINUOUS
 62
     1
  5
29E
 10
837.819462
 20
7482.615066
 30
0.0
 11
819.841462
 21
7482.615066
 31
0.0
  0
ARC
  8
LC-001-002-----0
  6
CONTINUOUS
 62
     1
  5
29F
 10
819.841462
 20
7481.615066
 30
0.0
 40
1.0
 50
90.0
 51
180.0
  0
LINE
  8
LC-001-002-----0
  6
CONTINUOUS
 62
     1
  5
2A0
 10
818.841462
 20
7481.615066
 30
0.0
 11
818.841462
 21
7480.115066
 31
0.0
  0
LINE
  8
LC-001-002-----0
  6
CONTINUOUS
 62
     1
  5
2A1
 10
768.841462
 20
7479.115066
 30
0.0
 11
770.341462
 21
7479.115066
 31
0.0
  0
LINE
  8
LC-001-002-----0
  6
CONTINUOUS
 62
     1
  5
2A2
 10
808.841462
 20
7480.115066
 30
0.0
 11
808.841462
 21
7481.615066
 31
0.0
  0
ARC
  8
LC-001-002-----0
  6
CONTINUOUS
 62
     1
  5
2A3
 10
807.841462
 20
7481.615066
 30
0.0
 40
1.0
 50
0.0
 51
90.0
  0
LINE
  8
LC-001-002-----0
  6
CONTINUOUS
 62
     1
  5
2A4
 10
807.841462
 20
7482.615066
 30
0.0
 11
803.841462
 21
7482.615066
 31
0.0
  0
ARC
  8
LC-001-002-----0
  6
CONTINUOUS
 62
     1
  5
2A5
 10
803.841462
 20
7481.615066
 30
0.0
 40
1.0
 50
90.0
 51
180.0
  0
LINE
  8
LC-001-002-----0
  6
CONTINUOUS
 62
     1
  5
2A6
 10
802.841462
 20
7481.615066
 30
0.0
 11
802.841462
 21
7480.115066
 31
0.0
  0
LINE
  8
LC-001-002-----0
  6
CONTINUOUS
 62
     1
  5
2A7
 10
905.297462
 20
7479.115066
 30
0.0
 11
906.797462
 21
7479.115066
 31
0.0
  0
LINE
  8
LC-001-002-----0
  6
CONTINUOUS
 62
     1
  5
2A8
 10
792.841462
 20
7480.115066
 30
0.0
 11
792.841462
 21
7481.615066
 31
0.0
  0
ARC
  8
LC-001-002-----0
  6
CONTINUOUS
 62
     1
  5
2A9
 10
791.841462
 20
7481.615066
 30
0.0
 40
1.0
 50
0.0
 51
90.0
  0
LINE
  8
LC-001-002-----0
  6
CONTINUOUS
 62
     1
  5
2AA
 10
791.841462
 20
7482.615066
 30
0.0
 11
787.841462
 21
7482.615066
 31
0.0
  0
ARC
  8
LC-001-002-----0
  6
CONTINUOUS
 62
     1
  5
2AB
 10
787.841462
 20
7481.615066
 30
0.0
 40
1.0
 50
90.0
 51
180.0
  0
LINE
  8
LC-001-002-----0
  6
CONTINUOUS
 62
     1
  5
2AC
 10
786.841462
 20
7481.615066
 30
0.0
 11
786.841462
 21
7480.115066
 31
0.0
  0
LINE
  8
LC-001-002-----0
  6
CONTINUOUS
 62
     1
  5
2AD
 10
776.841462
 20
7480.115066
 30
0.0
 11
776.841462
 21
7481.615066
 31
0.0
  0
ARC
  8
LC-001-002-----0
  6
CONTINUOUS
 62
     1
  5
2AE
 10
775.841462
 20
7481.615066
 30
0.0
 40
1.0
 50
0.0
 51
90.0
  0
LINE
  8
LC-001-002-----0
  6
CONTINUOUS
 62
     1
  5
2AF
 10
775.841462
 20
7482.615066
 30
0.0
 11
771.341462
 21
7482.615066
 31
0.0
  0
ARC
  8
LC-001-002-----0
  6
CONTINUOUS
 62
     1
  5
2B0
 10
771.341462
 20
7481.615066
 30
0.0
 40
1.0
 50
90.0
 51
180.0
  0
LINE
  8
LC-001-002-----0
  6
CONTINUOUS
 62
     1
  5
2B1
 10
770.341462
 20
7481.615066
 30
0.0
 11
770.341462
 21
7479.115066
 31
0.0
  0
LINE
  8
LC-001-002-----0
  6
CONTINUOUS
 62
     1
  5
2B2
 10
807.841462
 20
7484.115066
 30
0.0
 11
819.841462
 21
7484.115066
 31
0.0
  0
LINE
  8
LC-001-002-----0
  6
CONTINUOUS
 62
     1
  5
2B3
 10
890.319462
 20
7463.61517
 30
0.0
 11
890.319462
 21
7358.61517
 31
0.0
  0
LINE
  8
LC-001-002-----0
  6
CONTINUOUS
 62
     1
  5
2B4
 10
837.819462
 20
7358.61517
 30
0.0
 11
785.319462
 21
7358.61517
 31
0.0
  0
LINE
  8
LC-001-002-----0
  6
CONTINUOUS
 62
     1
  5
2B5
 10
892.819462
 20
7360.61517
 30
0.0
 11
892.283563
 21
7358.61517
 31
0.0
  0
LINE
  8
LC-001-002-----0
  6
CONTINUOUS
 62
     1
  5
2B6
 10
837.819462
 20
7358.61517
 30
0.0
 11
890.319462
 21
7358.61517
 31
0.0
  0
LINE
  8
LC-001-002-----0
  6
CONTINUOUS
 62
     1
  5
2B7
 10
891.569462
 20
7466.91517
 30
0.0
 11
891.569462
 21
7468.61517
 31
0.0
  0
LINE
  8
LC-001-002-----0
  6
CONTINUOUS
 62
     1
  5
2B8
 10
782.819462
 20
7360.61517
 30
0.0
 11
783.35536
 21
7358.61517
 31
0.0
  0
LINE
  8
LC-001-002-----0
  6
CONTINUOUS
 62
     1
  5
2B9
 10
785.319462
 20
7463.61517
 30
0.0
 11
785.319462
 21
7358.61517
 31
0.0
  0
LINE
  8
LC-001-002-----0
  6
CONTINUOUS
 62
     1
  5
2BA
 10
784.069462
 20
7466.91517
 30
0.0
 11
784.069462
 21
7468.61517
 31
0.0
  0
LINE
  8
LC-001-002-----0
  6
CONTINUOUS
 62
     1
  5
2BB
 10
890.319462
 20
7463.61517
 30
0.0
 11
889.569462
 21
7463.61517
 31
0.0
  0
LINE
  8
LC-001-002-----0
  6
CONTINUOUS
 62
     1
  5
2BC
 10
785.319462
 20
7463.61517
 30
0.0
 11
785.819462
 21
7463.61517
 31
0.0
  0
LINE
  8
LC-001-002-----0
  6
CONTINUOUS
 62
     1
  5
2BD
 10
783.35536
 20
7358.61517
 30
0.0
 11
785.319462
 21
7358.61517
 31
0.0
  0
LINE
  8
LC-001-002-----0
  6
CONTINUOUS
 62
     1
  5
2BE
 10
782.819462
 20
7468.61517
 30
0.0
 11
782.819462
 21
7360.61517
 31
0.0
  0
LINE
  8
LC-001-002-----0
  6
CONTINUOUS
 62
     1
  5
2BF
 10
890.319462
 20
7466.61517
 30
0.0
 11
889.819462
 21
7466.11517
 31
0.0
  0
LINE
  8
LC-001-002-----0
  6
CONTINUOUS
 62
     1
  5
2C0
 10
892.283563
 20
7358.61517
 30
0.0
 11
890.319462
 21
7358.61517
 31
0.0
  0
LINE
  8
LC-001-002-----0
  6
CONTINUOUS
 62
     1
  5
2C1
 10
892.819462
 20
7468.61517
 30
0.0
 11
892.819462
 21
7360.61517
 31
0.0
  0
LINE
  8
LC-001-002-----0
  6
CONTINUOUS
 62
     1
  5
2C2
 10
785.319462
 20
7466.61517
 30
0.0
 11
785.819462
 21
7466.11517
 31
0.0
  0
LINE
  8
LC-001-002-----0
  6
CONTINUOUS
 62
     1
  5
2C3
 10
890.319462
 20
7466.61517
 30
0.0
 11
891.269462
 21
7466.61517
 31
0.0
  0
LINE
  8
LC-001-002-----0
  6
CONTINUOUS
 62
     1
  5
2C4
 10
782.819462
 20
7468.61517
 30
0.0
 11
784.069462
 21
7468.61517
 31
0.0
  0
ARC
  8
LC-005-002-RND-0
  6
CONTINUOUS
  5
2C5
 10
891.269462
 20
7466.91517
 30
0.0
 40
0.3
 50
270.0
 51
0.0
  0
ARC
  8
LC-005-002-RND-0
  6
CONTINUOUS
  5
2C6
 10
784.369462
 20
7466.91517
 30
0.0
 40
0.3
 50
180.0
 51
270.0
  0
LINE
  8
LC-001-002-----0
  6
CONTINUOUS
 62
     1
  5
2C7
 10
785.819462
 20
7466.11517
 30
0.0
 11
785.819462
 21
7463.61517
 31
0.0
  0
LINE
  8
LC-001-002-----0
  6
CONTINUOUS
 62
     1
  5
2C8
 10
889.819462
 20
7466.11517
 30
0.0
 11
889.819462
 21
7463.61517
 31
0.0
  0
LINE
  8
LC-001-002-----0
  6
CONTINUOUS
 62
     1
  5
2C9
 10
890.319462
 20
7466.61517
 30
0.0
 11
889.819462
 21
7466.11517
 31
0.0
  0
LINE
  8
LC-001-002-----0
  6
CONTINUOUS
 62
     1
  5
2CA
 10
785.319462
 20
7466.61517
 30
0.0
 11
784.369462
 21
7466.61517
 31
0.0
  0
LINE
  8
LC-001-002-----0
  6
CONTINUOUS
 62
     1
  5
2CB
 10
891.569462
 20
7468.61517
 30
0.0
 11
892.819462
 21
7468.61517
 31
0.0
  0
ARC
  8
LC-001-002-----0
  6
CONTINUOUS
 62
     1
  5
2CC
 10
765.319362
 20
7481.115166
 30
0.0
 40
1.9999
 50
0.0
 51
183.376835
  0
LINE
  8
LC-001-002-----0
  6
CONTINUOUS
 62
     1
  5
2CD
 10
782.078281
 20
7472.566686
 30
0.0
 11
768.801924
 21
7476.124075
 31
0.0
  0
LINE
  8
LC-001-002-----0
  6
CONTINUOUS
 62
     1
  5
2CE
 10
782.3371
 20
7473.532612
 30
0.0
 11
769.060643
 21
7477.090028
 31
0.0
  0
ARC
  8
LC-005-002-RND-0
  6
CONTINUOUS
  5
2CF
 10
769.319562
 20
7478.055927
 30
0.0
 40
2.0
 50
180.0
 51
255.0
  0
ARC
  8
LC-005-002-RND-0
  6
CONTINUOUS
  5
2D0
 10
769.319462
 20
7478.055954
 30
0.0
 40
1.0
 50
180.0
 51
255.0
  0
LINE
  8
LC-001-002-----0
  6
CONTINUOUS
 62
     1
  5
2D1
 10
787.419462
 20
7462.912381
 30
0.0
 11
837.819462
 21
7462.912381
 31
0.0
  0
ARC
  8
LC-005-002-RND-0
  6
CONTINUOUS
  5
2D2
 10
768.819462
 20
7479.115066
 30
0.0
 40
0.5
 50
180.0
 51
270.0
  0
ARC
  8
LC-005-002-RND-0
  6
CONTINUOUS
  5
2D3
 10
781.819462
 20
7471.60076
 30
0.0
 40
1.0
 50
0.0
 51
75.0
  0
ARC
  8
LC-005-002-RND-0
  6
CONTINUOUS
  5
2D4
 10
781.819462
 20
7471.60076
 30
0.0
 40
2.0
 50
0.0
 51
75.0
  0
LINE
  8
LC-002-003-----0
  6
CONTINUOUS
  5
2D5
 10
783.819462
 20
7473.109862
 30
0.0
 11
837.819462
 21
7473.109862
 31
0.0
  0
ARC
  8
LC-001-002-----0
  6
CONTINUOUS
 62
     1
  5
2D6
 10
910.319562
 20
7481.115166
 30
0.0
 40
1.9999
 50
356.623165
 51
180.0
  0
LINE
  8
LC-001-002-----0
  6
CONTINUOUS
 62
     1
  5
2D7
 10
893.560643
 20
7472.566686
 30
0.0
 11
906.837
 21
7476.124075
 31
0.0
  0
LINE
  8
LC-001-002-----0
  6
CONTINUOUS
 62
     1
  5
2D8
 10
893.301824
 20
7473.532612
 30
0.0
 11
906.578281
 21
7477.090028
 31
0.0
  0
ARC
  8
LC-005-002-RND-0
  6
CONTINUOUS
  5
2D9
 10
906.319362
 20
7478.055927
 30
0.0
 40
2.0
 50
285.0
 51
0.0
  0
LINE
  8
LC-001-002-----0
  6
CONTINUOUS
 62
     1
  5
2DA
 10
787.782937
 20
7459.957086
 30
0.0
 11
837.819462
 21
7459.957086
 31
0.0
  0
ARC
  8
LC-005-002-RND-0
  6
CONTINUOUS
  5
2DB
 10
906.319462
 20
7478.055954
 30
0.0
 40
1.0
 50
285.0
 51
0.0
  0
LINE
  8
LC-001-002-----0
  6
CONTINUOUS
 62
     1
  5
2DC
 10
888.219462
 20
7462.912381
 30
0.0
 11
837.819462
 21
7462.912381
 31
0.0
  0
ARC
  8
LC-005-002-RND-0
  6
CONTINUOUS
  5
2DD
 10
906.819462
 20
7479.115066
 30
0.0
 40
0.5
 50
270.0
 51
0.0
  0
LINE
  8
LC-001-002-----0
  6
CONTINUOUS
 62
     1
  5
2DE
 10
786.843244
 20
7459.615066
 30
0.0
 11
837.819462
 21
7459.615066
 31
0.0
  0
ARC
  8
LC-005-002-RND-0
  6
CONTINUOUS
  5
2DF
 10
893.819462
 20
7471.60076
 30
0.0
 40
1.0
 50
105.0
 51
180.0
  0
LINE
  8
LC-001-002-----0
  6
CONTINUOUS
 62
     1
  5
2E0
 10
767.319462
 20
7479.115066
 30
0.0
 11
767.319462
 21
7481.115166
 31
0.0
  0
ARC
  8
LC-005-002-RND-0
  6
CONTINUOUS
  5
2E1
 10
893.819462
 20
7471.60076
 30
0.0
 40
2.0
 50
105.0
 51
180.0
  0
LINE
  8
LC-002-003-----0
  6
CONTINUOUS
  5
2E2
 10
891.819462
 20
7473.109862
 30
0.0
 11
837.819462
 21
7473.109862
 31
0.0
  0
ARC
  8
LC-005-002-RND-0
  6
CONTINUOUS
  5
2E3
 10
765.319462
 20
7481.115066
 30
0.0
 40
3.0
 50
0.0
 51
176.622493
  0
LINE
  8
LC-001-002-----0
  6
CONTINUOUS
 62
     1
  5
2E4
 10
763.322934
 20
7479.243336
 30
0.0
 11
763.322934
 21
7480.997366
 31
0.0
  0
LINE
  8
LC-001-002-----0
  6
CONTINUOUS
 62
     1
  5
2E5
 10
887.855987
 20
7459.957086
 30
0.0
 11
837.819462
 21
7459.957086
 31
0.0
  0
LINE
  8
LC-001-002-----0
  6
CONTINUOUS
 62
     1
  5
2E6
 10
888.79568
 20
7459.615066
 30
0.0
 11
837.819462
 21
7459.615066
 31
0.0
  0
LINE
  8
LC-001-002-----0
  6
CONTINUOUS
 62
     1
  5
2E7
 10
908.319462
 20
7479.115066
 30
0.0
 11
908.319462
 21
7481.115166
 31
0.0
  0
LINE
  8
LC-001-002-----0
  6
CONTINUOUS
 62
     1
  5
2E8
 10
837.819462
 20
7484.115066
 30
0.0
 11
765.319462
 21
7484.115066
 31
0.0
  0
ARC
  8
LC-005-002-RND-0
  6
CONTINUOUS
  5
2E9
 10
910.319462
 20
7481.115066
 30
0.0
 40
3.0
 50
3.377507
 51
180.0
  0
LINE
  8
LC-001-002-----0
  6
CONTINUOUS
 62
     1
  5
2EA
 10
912.315989
 20
7479.243336
 30
0.0
 11
912.315989
 21
7480.997366
 31
0.0
  0
LINE
  8
LC-001-002-----0
  6
CONTINUOUS
 62
     1
  5
2EB
 10
837.819462
 20
7484.115066
 30
0.0
 11
910.319462
 21
7484.115066
 31
0.0
  0
LINE
  8
LC-001-002-----0
  6
CONTINUOUS
 62
     1
  5
2EC
 10
906.819462
 20
7478.615066
 30
0.0
 11
905.819462
 21
7478.615066
 31
0.0
  0
LINE
  8
LC-001-002-----0
  6
CONTINUOUS
 62
     1
  5
2ED
 10
907.319462
 20
7479.115066
 30
0.0
 11
907.319462
 21
7481.115066
 31
0.0
  0
ARC
  8
LC-001-002-----0
  6
CONTINUOUS
 62
     1
  5
2EE
 10
918.319462
 20
7479.597573
 30
0.0
 40
6.013914
 50
183.376835
 51
228.189685
  0
LINE
  8
LC-001-002-----0
  6
CONTINUOUS
 62
     1
  5
2EF
 10
768.819462
 20
7478.615066
 30
0.0
 11
769.819462
 21
7478.615066
 31
0.0
  0
LINE
  8
LC-001-002-----0
  6
CONTINUOUS
 62
     1
  5
2F0
 10
907.215362
 20
7477.611698
 30
0.0
 11
837.819462
 21
7477.611698
 31
0.0
  0
LINE
  8
LC-001-002-----0
  6
CONTINUOUS
 62
     1
  5
2F1
 10
914.310186
 20
7475.115066
 30
0.0
 11
903.071325
 21
7475.115066
 31
0.0
  0
LINE
  8
LC-001-002-----0
  6
CONTINUOUS
 62
     1
  5
2F2
 10
908.319362
 20
7478.055927
 30
0.0
 11
908.319362
 21
7481.115166
 31
0.0
  0
LINE
  8
LC-001-002-----0
  6
CONTINUOUS
 62
     1
  5
2F3
 10
907.319462
 20
7478.055954
 30
0.0
 11
907.319462
 21
7479.115066
 31
0.0
  0
LINE
  8
LC-001-002-----0
  6
CONTINUOUS
 62
     1
  5
2F4
 10
905.819562
 20
7478.615066
 30
0.0
 11
891.319462
 21
7478.615066
 31
0.0
  0
LINE
  8
LC-001-002-----0
  6
CONTINUOUS
 62
     1
  5
2F5
 10
889.819462
 20
7478.615066
 30
0.0
 11
889.819462
 21
7478.815066
 31
0.0
  0
LINE
  8
LC-001-002-----0
  6
CONTINUOUS
 62
     1
  5
2F6
 10
768.319462
 20
7479.115066
 30
0.0
 11
768.319462
 21
7481.115066
 31
0.0
  0
LINE
  8
LC-001-002-----0
  6
CONTINUOUS
 62
     1
  5
2F7
 10
903.819462
 20
7478.615066
 30
0.0
 11
903.819462
 21
7478.815066
 31
0.0
  0
LINE
  8
LC-001-002-----0
  6
CONTINUOUS
 62
     1
  5
2F8
 10
903.519462
 20
7479.115066
 30
0.0
 11
890.119462
 21
7479.115066
 31
0.0
  0
ARC
  8
LC-005-002-RND-0
  6
CONTINUOUS
  5
2F9
 10
890.119462
 20
7478.815066
 30
0.0
 40
0.3
 50
90.0
 51
180.0
  0
ARC
  8
LC-005-002-RND-0
  6
CONTINUOUS
  5
2FA
 10
903.519462
 20
7478.815066
 30
0.0
 40
0.3
 50
0.0
 51
90.0
  0
LINE
  8
LC-001-002-----0
  6
CONTINUOUS
 62
     1
  5
2FB
 10
863.452697
 20
7478.615066
 30
0.0
 11
891.319462
 21
7478.615066
 31
0.0
  0
ARC
  8
LC-005-002-RND-0
  6
CONTINUOUS
  5
2FC
 10
858.53769
 20
7479.611698
 30
0.0
 40
2.0
 50
270.0
 51
282.646496
  0
ARC
  8
LC-005-002-RND-0
  6
CONTINUOUS
  5
2FD
 10
863.452697
 20
7476.615066
 30
0.0
 40
2.0
 50
90.0
 51
102.646496
  0
LINE
  8
LC-001-002-----0
  6
CONTINUOUS
 62
     1
  5
2FE
 10
863.014827
 20
7478.566545
 30
0.0
 11
858.97556
 21
7477.660219
 31
0.0
  0
LINE
  8
LC-001-002-----0
  6
CONTINUOUS
 62
     1
  5
2FF
 10
888.719462
 20
7469.61517
 30
0.0
 11
837.819462
 21
7469.61517
 31
0.0
  0
LINE
  8
LC-001-002-----0
  6
CONTINUOUS
 62
     1
  5
300
 10
891.819462
 20
7469.61517
 30
0.0
 11
888.719462
 21
7469.61517
 31
0.0
  0
LINE
  8
LC-001-002-----0
  6
CONTINUOUS
 62
     1
  5
301
 10
889.219462
 20
7468.61517
 30
0.0
 11
892.319462
 21
7468.61517
 31
0.0
  0
LINE
  8
LC-001-002-----0
  6
CONTINUOUS
 62
     1
  5
302
 10
891.819462
 20
7469.61517
 30
0.0
 11
891.819462
 21
7471.60076
 31
0.0
  0
LINE
  8
LC-001-002-----0
  6
CONTINUOUS
 62
     1
  5
303
 10
892.819462
 20
7469.11517
 30
0.0
 11
892.819462
 21
7471.60076
 31
0.0
  0
ARC
  8
LC-005-002-RND-0
  6
CONTINUOUS
  5
304
 10
892.319462
 20
7469.11517
 30
0.0
 40
0.5
 50
270.0
 51
0.0
  0
ARC
  8
LC-005-002-RND-0
  6
CONTINUOUS
  5
305
 10
888.719462
 20
7469.11517
 30
0.0
 40
0.5
 50
90.0
 51
180.0
  0
ARC
  8
LC-001-002-----0
  6
CONTINUOUS
 62
     1
  5
306
 10
918.319462
 20
7479.597573
 30
0.0
 40
5.01392
 50
183.377507
 51
217.081467
  0
LINE
  8
LC-001-002-----0
  6
CONTINUOUS
 62
     1
  5
307
 10
914.319462
 20
7476.57443
 30
0.0
 11
914.319462
 21
7475.125437
 31
0.0
  0
LINE
  8
LC-001-002-----0
  6
CONTINUOUS
 62
     1
  5
308
 10
913.314251
 20
7481.291809
 30
0.0
 11
913.314251
 21
7479.30218
 31
0.0
  0
LINE
  8
LC-001-002-----0
  6
CONTINUOUS
 62
     1
  5
309
 10
888.219462
 20
7462.912381
 30
0.0
 11
888.219462
 21
7469.11517
 31
0.0
  0
LINE
  8
LC-001-002-----0
  6
CONTINUOUS
 62
     1
  5
30A
 10
889.219462
 20
7463.792735
 30
0.0
 11
889.219462
 21
7468.61517
 31
0.0
  0
LINE
  8
LC-001-002-----0
  6
CONTINUOUS
 62
     1
  5
30B
 10
888.503182
 20
7462.912381
 30
0.0
 11
888.219462
 21
7462.912381
 31
0.0
  0
ARC
  8
LC-001-002-----0
  6
CONTINUOUS
 62
     1
  5
30C
 10
757.319462
 20
7479.597573
 30
0.0
 40
6.013914
 50
311.810315
 51
356.623165
  0
LINE
  8
LC-001-002-----0
  6
CONTINUOUS
 62
     1
  5
30D
 10
768.423562
 20
7477.611698
 30
0.0
 11
837.819462
 21
7477.611698
 31
0.0
  0
LINE
  8
LC-001-002-----0
  6
CONTINUOUS
 62
     1
  5
30E
 10
888.78509
 20
7462.509775
 30
0.0
 11
887.855987
 21
7459.957086
 31
0.0
  0
ARC
  8
LC-005-002-RND-0
  6
CONTINUOUS
  5
30F
 10
888.503182
 20
7462.612381
 30
0.0
 40
0.3
 50
340.0
 51
90.0
  0
LINE
  8
LC-001-002-----0
  6
CONTINUOUS
 62
     1
  5
310
 10
761.328738
 20
7475.115066
 30
0.0
 11
772.567598
 21
7475.115066
 31
0.0
  0
LINE
  8
LC-001-002-----0
  6
CONTINUOUS
 62
     1
  5
311
 10
887.855987
 20
7459.957086
 30
0.0
 11
888.79568
 21
7459.615066
 31
0.0
  0
LINE
  8
LC-001-002-----0
  6
CONTINUOUS
 62
     1
  5
312
 10
889.812457
 20
7462.408638
 30
0.0
 11
888.79568
 21
7459.615066
 31
0.0
  0
LINE
  8
LC-001-002-----0
  6
CONTINUOUS
 62
     1
  5
313
 10
767.319562
 20
7478.055927
 30
0.0
 11
767.319562
 21
7481.115166
 31
0.0
  0
LINE
  8
LC-001-002-----0
  6
CONTINUOUS
 62
     1
  5
314
 10
768.319462
 20
7478.055954
 30
0.0
 11
768.319462
 21
7479.115066
 31
0.0
  0
ARC
  8
LC-001-002-----0
  6
CONTINUOUS
 62
     1
  5
315
 10
888.778795
 20
7462.78486
 30
0.0
 40
1.1
 50
340.0
 51
66.383903
  0
LINE
  8
LC-001-002-----0
  6
CONTINUOUS
 62
     1
  5
316
 10
769.819362
 20
7478.615066
 30
0.0
 11
784.319462
 21
7478.615066
 31
0.0
  0
LINE
  8
LC-001-002-----0
  6
CONTINUOUS
 62
     1
  5
317
 10
785.819462
 20
7478.615066
 30
0.0
 11
785.819462
 21
7478.815066
 31
0.0
  0
LINE
  8
LC-001-002-----0
  6
CONTINUOUS
 62
     1
  5
318
 10
771.819462
 20
7478.615066
 30
0.0
 11
771.819462
 21
7478.815066
 31
0.0
  0
LINE
  8
LC-001-002-----0
  6
CONTINUOUS
 62
     1
  5
319
 10
772.119462
 20
7479.115066
 30
0.0
 11
785.519462
 21
7479.115066
 31
0.0
  0
ARC
  8
LC-005-002-RND-0
  6
CONTINUOUS
  5
31A
 10
785.519462
 20
7478.815066
 30
0.0
 40
0.3
 50
0.0
 51
90.0
  0
ARC
  8
LC-005-002-RND-0
  6
CONTINUOUS
  5
31B
 10
772.119462
 20
7478.815066
 30
0.0
 40
0.3
 50
90.0
 51
180.0
  0
LINE
  8
LC-001-002-----0
  6
CONTINUOUS
 62
     1
  5
31C
 10
812.186227
 20
7478.615066
 30
0.0
 11
784.319462
 21
7478.615066
 31
0.0
  0
ARC
  8
LC-005-002-RND-0
  6
CONTINUOUS
  5
31D
 10
817.101233
 20
7479.611698
 30
0.0
 40
2.0
 50
257.353504
 51
270.0
  0
ARC
  8
LC-005-002-RND-0
  6
CONTINUOUS
  5
31E
 10
812.186227
 20
7476.615066
 30
0.0
 40
2.0
 50
77.353504
 51
90.0
  0
LINE
  8
LC-001-002-----0
  6
CONTINUOUS
 62
     1
  5
31F
 10
812.624097
 20
7478.566545
 30
0.0
 11
816.663363
 21
7477.660219
 31
0.0
  0
LINE
  8
LC-001-002-----0
  6
CONTINUOUS
 62
     1
  5
320
 10
786.919462
 20
7469.61517
 30
0.0
 11
837.819462
 21
7469.61517
 31
0.0
  0
LINE
  8
LC-001-002-----0
  6
CONTINUOUS
 62
     1
  5
321
 10
783.819462
 20
7469.61517
 30
0.0
 11
786.919462
 21
7469.61517
 31
0.0
  0
LINE
  8
LC-001-002-----0
  6
CONTINUOUS
 62
     1
  5
322
 10
786.419462
 20
7468.61517
 30
0.0
 11
783.319462
 21
7468.61517
 31
0.0
  0
LINE
  8
LC-001-002-----0
  6
CONTINUOUS
 62
     1
  5
323
 10
783.819462
 20
7469.61517
 30
0.0
 11
783.819462
 21
7471.60076
 31
0.0
  0
LINE
  8
LC-001-002-----0
  6
CONTINUOUS
 62
     1
  5
324
 10
782.819462
 20
7469.11517
 30
0.0
 11
782.819462
 21
7471.60076
 31
0.0
  0
ARC
  8
LC-005-002-RND-0
  6
CONTINUOUS
  5
325
 10
783.319462
 20
7469.11517
 30
0.0
 40
0.5
 50
180.0
 51
270.0
  0
ARC
  8
LC-005-002-RND-0
  6
CONTINUOUS
  5
326
 10
786.919462
 20
7469.11517
 30
0.0
 40
0.5
 50
0.0
 51
90.0
  0
ARC
  8
LC-001-002-----0
  6
CONTINUOUS
 62
     1
  5
327
 10
757.319462
 20
7479.597573
 30
0.0
 40
5.01392
 50
322.918533
 51
356.622493
  0
LINE
  8
LC-001-002-----0
  6
CONTINUOUS
 62
     1
  5
328
 10
761.319462
 20
7476.57443
 30
0.0
 11
761.319462
 21
7475.125437
 31
0.0
  0
LINE
  8
LC-001-002-----0
  6
CONTINUOUS
 62
     1
  5
329
 10
762.324673
 20
7481.291809
 30
0.0
 11
762.324673
 21
7479.30218
 31
0.0
  0
LINE
  8
LC-001-002-----0
  6
CONTINUOUS
 62
     1
  5
32A
 10
787.419462
 20
7462.912381
 30
0.0
 11
787.419462
 21
7469.11517
 31
0.0
  0
LINE
  8
LC-001-002-----0
  6
CONTINUOUS
 62
     1
  5
32B
 10
786.419462
 20
7463.792735
 30
0.0
 11
786.419462
 21
7468.61517
 31
0.0
  0
LINE
  8
LC-001-002-----0
  6
CONTINUOUS
 62
     1
  5
32C
 10
787.135742
 20
7462.912381
 30
0.0
 11
787.419462
 21
7462.912381
 31
0.0
  0
LINE
  8
LC-001-002-----0
  6
CONTINUOUS
 62
     1
  5
32D
 10
786.853834
 20
7462.509775
 30
0.0
 11
787.782937
 21
7459.957086
 31
0.0
  0
ARC
  8
LC-005-002-RND-0
  6
CONTINUOUS
  5
32E
 10
787.135742
 20
7462.612381
 30
0.0
 40
0.3
 50
90.0
 51
200.0
  0
LINE
  8
LC-001-002-----0
  6
CONTINUOUS
 62
     1
  5
32F
 10
787.782937
 20
7459.957086
 30
0.0
 11
786.843244
 21
7459.615066
 31
0.0
  0
LINE
  8
LC-001-002-----0
  6
CONTINUOUS
 62
     1
  5
330
 10
785.826467
 20
7462.408638
 30
0.0
 11
786.843244
 21
7459.615066
 31
0.0
  0
ARC
  8
LC-001-002-----0
  6
CONTINUOUS
 62
     1
  5
331
 10
786.860129
 20
7462.78486
 30
0.0
 40
1.1
 50
113.616097
 51
200.0
  0
LINE
  8
LC-001-002-----0
  6
CONTINUOUS
  5
332
 10
890.344462
 20
7372.61517
 30
0.0
 11
785.344462
 21
7372.61517
 31
0.0
  0
CIRCLE
  8
LC-001-002-----0
  6
CONTINUOUS
 62
     1
  5
333
 10
1010.319462
 20
7360.765183
 30
0.0
 40
5.5
  0
LINE
  8
LC-001-002-----0
  6
CONTINUOUS
 62
     1
  5
334
 10
1012.819462
 20
7361.265183
 30
0.0
 11
1010.819462
 21
7361.265183
 31
0.0
  0
LINE
  8
LC-001-002-----0
  6
CONTINUOUS
 62
     1
  5
335
 10
1009.819462
 20
7361.265183
 30
0.0
 11
1007.819462
 21
7361.265183
 31
0.0
  0
LINE
  8
LC-001-002-----0
  6
CONTINUOUS
 62
     1
  5
336
 10
1009.819462
 20
7363.265183
 30
0.0
 11
1009.819462
 21
7361.265183
 31
0.0
  0
LINE
  8
LC-001-002-----0
  6
CONTINUOUS
 62
     1
  5
337
 10
1009.819462
 20
7360.265183
 30
0.0
 11
1009.819462
 21
7358.265183
 31
0.0
  0
LINE
  8
LC-001-002-----0
  6
CONTINUOUS
 62
     1
  5
338
 10
1012.819462
 20
7360.265183
 30
0.0
 11
1010.819462
 21
7360.265183
 31
0.0
  0
LINE
  8
LC-001-002-----0
  6
CONTINUOUS
 62
     1
  5
339
 10
1009.819462
 20
7360.265183
 30
0.0
 11
1007.819462
 21
7360.265183
 31
0.0
  0
LINE
  8
LC-001-002-----0
  6
CONTINUOUS
 62
     1
  5
33A
 10
1010.819462
 20
7363.265183
 30
0.0
 11
1010.819462
 21
7361.265183
 31
0.0
  0
LINE
  8
LC-001-002-----0
  6
CONTINUOUS
 62
     1
  5
33B
 10
1010.819462
 20
7360.265183
 30
0.0
 11
1010.819462
 21
7358.265183
 31
0.0
  0
CIRCLE
  8
LC-001-002-----0
  6
CONTINUOUS
 62
     1
  5
33C
 10
1010.319462
 20
7360.765183
 30
0.0
 40
5.5
  0
LINE
  8
LC-001-002-----0
  6
CONTINUOUS
 62
     1
  5
33D
 10
1012.819462
 20
7361.265183
 30
0.0
 11
1012.819462
 21
7360.265183
 31
0.0
  0
LINE
  8
LC-001-002-----0
  6
CONTINUOUS
 62
     1
  5
33E
 10
1007.819462
 20
7361.265183
 30
0.0
 11
1007.819462
 21
7360.265183
 31
0.0
  0
LINE
  8
LC-001-002-----0
  6
CONTINUOUS
 62
     1
  5
33F
 10
1010.819462
 20
7358.265183
 30
0.0
 11
1009.819462
 21
7358.265183
 31
0.0
  0
LINE
  8
LC-001-002-----0
  6
CONTINUOUS
 62
     1
  5
340
 10
1010.819462
 20
7363.265183
 30
0.0
 11
1009.819462
 21
7363.265183
 31
0.0
  0
CIRCLE
  8
LC-001-002-----0
  6
CONTINUOUS
 62
     1
  5
341
 10
1128.319462
 20
7478.765183
 30
0.0
 40
5.5
  0
LINE
  8
LC-001-002-----0
  6
CONTINUOUS
 62
     1
  5
342
 10
1130.819462
 20
7479.265183
 30
0.0
 11
1128.819462
 21
7479.265183
 31
0.0
  0
LINE
  8
LC-001-002-----0
  6
CONTINUOUS
 62
     1
  5
343
 10
1127.819462
 20
7479.265183
 30
0.0
 11
1125.819462
 21
7479.265183
 31
0.0
  0
LINE
  8
LC-001-002-----0
  6
CONTINUOUS
 62
     1
  5
344
 10
1127.819462
 20
7481.265183
 30
0.0
 11
1127.819462
 21
7479.265183
 31
0.0
  0
LINE
  8
LC-001-002-----0
  6
CONTINUOUS
 62
     1
  5
345
 10
1127.819462
 20
7478.265183
 30
0.0
 11
1127.819462
 21
7476.265183
 31
0.0
  0
LINE
  8
LC-001-002-----0
  6
CONTINUOUS
 62
     1
  5
346
 10
1130.819462
 20
7478.265183
 30
0.0
 11
1128.819462
 21
7478.265183
 31
0.0
  0
LINE
  8
LC-001-002-----0
  6
CONTINUOUS
 62
     1
  5
347
 10
1127.819462
 20
7478.265183
 30
0.0
 11
1125.819462
 21
7478.265183
 31
0.0
  0
LINE
  8
LC-001-002-----0
  6
CONTINUOUS
 62
     1
  5
348
 10
1128.819462
 20
7481.265183
 30
0.0
 11
1128.819462
 21
7479.265183
 31
0.0
  0
LINE
  8
LC-001-002-----0
  6
CONTINUOUS
 62
     1
  5
349
 10
1128.819462
 20
7478.265183
 30
0.0
 11
1128.819462
 21
7476.265183
 31
0.0
  0
CIRCLE
  8
LC-001-002-----0
  6
CONTINUOUS
 62
     1
  5
34A
 10
1128.319462
 20
7478.765183
 30
0.0
 40
5.5
  0
LINE
  8
LC-001-002-----0
  6
CONTINUOUS
 62
     1
  5
34B
 10
1130.819462
 20
7479.265183
 30
0.0
 11
1130.819462
 21
7478.265183
 31
0.0
  0
LINE
  8
LC-001-002-----0
  6
CONTINUOUS
 62
     1
  5
34C
 10
1125.819462
 20
7479.265183
 30
0.0
 11
1125.819462
 21
7478.265183
 31
0.0
  0
LINE
  8
LC-001-002-----0
  6
CONTINUOUS
 62
     1
  5
34D
 10
1128.819462
 20
7476.265183
 30
0.0
 11
1127.819462
 21
7476.265183
 31
0.0
  0
LINE
  8
LC-001-002-----0
  6
CONTINUOUS
 62
     1
  5
34E
 10
1128.819462
 20
7481.265183
 30
0.0
 11
1127.819462
 21
7481.265183
 31
0.0
  0
ENDSEC
  0
EOF
