  0
SECTION
  2
HEADER
  9
$ACADVER
  1
AC1027
  9
$ACADMAINTVER
 70
     8
  9
$DWGCODEPAGE
  3
ANSI_1252
  9
$REQUIREDVERSIONS
160
                 0
  9
$LASTSAVEDBY
  1
dpt1
  9
$INSBASE
 10
0.0
 20
0.0
 30
0.0
  9
$EXTMIN
 10
-220.3840341360939
 20
-69.51574048696915
 30
0.0
  9
$EXTMAX
 10
405.293002
 20
508.3361851360939
 30
0.0
  9
$LIMMIN
 10
-271.75
 20
-87.335738
  9
$LIMMAX
 10
568.25
 20
506.664262
  9
$ORTHOMODE
 70
     0
  9
$REGENMODE
 70
     1
  9
$FILLMODE
 70
     1
  9
$QTEXTMODE
 70
     0
  9
$MIRRTEXT
 70
     1
  9
$LTSCALE
 40
2.0
  9
$ATTMODE
 70
     1
  9
$TEXTSIZE
 40
2.5
  9
$TRACEWID
 40
1.0
  9
$TEXTSTYLE
  7
Standard
  9
$CLAYER
  8
0
  9
$CELTYPE
  6
ByLayer
  9
$CECOLOR
 62
     7
  9
$CELTSCALE
 40
1.0
  9
$DISPSILH
 70
     0
  9
$DIMSCALE
 40
2.0
  9
$DIMASZ
 40
3.5
  9
$DIMEXO
 40
0.625
  9
$DIMDLI
 40
3.75
  9
$DIMRND
 40
0.0
  9
$DIMDLE
 40
0.0
  9
$DIMEXE
 40
1.25
  9
$DIMTP
 40
0.0
  9
$DIMTM
 40
0.0
  9
$DIMTXT
 40
3.5
  9
$DIMCEN
 40
2.5
  9
$DIMTSZ
 40
0.0
  9
$DIMTOL
 70
     0
  9
$DIMLIM
 70
     0
  9
$DIMTIH
 70
     0
  9
$DIMTOH
 70
     0
  9
$DIMSE1
 70
     0
  9
$DIMSE2
 70
     0
  9
$DIMTAD
 70
     1
  9
$DIMZIN
 70
     8
  9
$DIMBLK
  1

  9
$DIMASO
 70
     1
  9
$DIMSHO
 70
     1
  9
$DIMPOST
  1

  9
$DIMAPOST
  1

  9
$DIMALT
 70
     0
  9
$DIMALTD
 70
     3
  9
$DIMALTF
 40
0.03937
  9
$DIMLFAC
 40
1.0
  9
$DIMTOFL
 70
     1
  9
$DIMTVP
 40
0.0
  9
$DIMTIX
 70
     0
  9
$DIMSOXD
 70
     0
  9
$DIMSAH
 70
     0
  9
$DIMBLK1
  1

  9
$DIMBLK2
  1

  9
$DIMSTYLE
  2
ISO-25
  9
$DIMCLRD
 70
     0
  9
$DIMCLRE
 70
     0
  9
$DIMCLRT
 70
     0
  9
$DIMTFAC
 40
1.0
  9
$DIMGAP
 40
0.625
  9
$DIMJUST
 70
     0
  9
$DIMSD1
 70
     0
  9
$DIMSD2
 70
     0
  9
$DIMTOLJ
 70
     0
  9
$DIMTZIN
 70
     8
  9
$DIMALTZ
 70
     0
  9
$DIMALTTZ
 70
     0
  9
$DIMUPT
 70
     0
  9
$DIMDEC
 70
     2
  9
$DIMTDEC
 70
     2
  9
$DIMALTU
 70
     2
  9
$DIMALTTD
 70
     3
  9
$DIMTXSTY
  7
Standard
  9
$DIMAUNIT
 70
     0
  9
$DIMADEC
 70
     0
  9
$DIMALTRND
 40
0.0
  9
$DIMAZIN
 70
     0
  9
$DIMDSEP
 70
    44
  9
$DIMATFIT
 70
     3
  9
$DIMFRAC
 70
     0
  9
$DIMLDRBLK
  1

  9
$DIMLUNIT
 70
     2
  9
$DIMLWD
 70
    -2
  9
$DIMLWE
 70
    -2
  9
$DIMTMOVE
 70
     0
  9
$DIMFXL
 40
1.0
  9
$DIMFXLON
 70
     0
  9
$DIMJOGANG
 40
0.7853981633974483
  9
$DIMTFILL
 70
     0
  9
$DIMTFILLCLR
 70
     0
  9
$DIMARCSYM
 70
     0
  9
$DIMLTYPE
  6

  9
$DIMLTEX1
  6

  9
$DIMLTEX2
  6

  9
$DIMTXTDIRECTION
 70
     0
  9
$LUNITS
 70
     2
  9
$LUPREC
 70
     4
  9
$SKETCHINC
 40
1.0
  9
$FILLETRAD
 40
10.0
  9
$AUNITS
 70
     0
  9
$AUPREC
 70
     0
  9
$MENU
  1
.
  9
$ELEVATION
 40
0.0
  9
$PELEVATION
 40
0.0
  9
$THICKNESS
 40
0.0
  9
$LIMCHECK
 70
     0
  9
$CHAMFERA
 40
10.0
  9
$CHAMFERB
 40
10.0
  9
$CHAMFERC
 40
20.0
  9
$CHAMFERD
 40
0.0
  9
$SKPOLY
 70
     0
  9
$TDCREATE
 40
2457067.540082257
  9
$TDUCREATE
 40
2457067.456748924
  9
$TDUPDATE
 40
2457196.555377002
  9
$TDUUPDATE
 40
2457196.472043669
  9
$TDINDWG
 40
0.0007371065
  9
$TDUSRTIMER
 40
2457196.47130669
  9
$USRTIMER
 70
     1
  9
$ANGBASE
 50
0.0
  9
$ANGDIR
 70
     0
  9
$PDMODE
 70
     0
  9
$PDSIZE
 40
0.0
  9
$PLINEWID
 40
0.0
  9
$SPLFRAME
 70
     0
  9
$SPLINETYPE
 70
     6
  9
$SPLINESEGS
 70
     8
  9
$HANDSEED
  5
65B
  9
$SURFTAB1
 70
     6
  9
$SURFTAB2
 70
     6
  9
$SURFTYPE
 70
     6
  9
$SURFU
 70
     6
  9
$SURFV
 70
     6
  9
$UCSBASE
  2

  9
$UCSNAME
  2

  9
$UCSORG
 10
0.0
 20
0.0
 30
0.0
  9
$UCSXDIR
 10
1.0
 20
0.0
 30
0.0
  9
$UCSYDIR
 10
0.0
 20
1.0
 30
0.0
  9
$UCSORTHOREF
  2

  9
$UCSORTHOVIEW
 70
     0
  9
$UCSORGTOP
 10
0.0
 20
0.0
 30
0.0
  9
$UCSORGBOTTOM
 10
0.0
 20
0.0
 30
0.0
  9
$UCSORGLEFT
 10
0.0
 20
0.0
 30
0.0
  9
$UCSORGRIGHT
 10
0.0
 20
0.0
 30
0.0
  9
$UCSORGFRONT
 10
0.0
 20
0.0
 30
0.0
  9
$UCSORGBACK
 10
0.0
 20
0.0
 30
0.0
  9
$PUCSBASE
  2

  9
$PUCSNAME
  2

  9
$PUCSORG
 10
0.0
 20
0.0
 30
0.0
  9
$PUCSXDIR
 10
1.0
 20
0.0
 30
0.0
  9
$PUCSYDIR
 10
0.0
 20
1.0
 30
0.0
  9
$PUCSORTHOREF
  2

  9
$PUCSORTHOVIEW
 70
     0
  9
$PUCSORGTOP
 10
0.0
 20
0.0
 30
0.0
  9
$PUCSORGBOTTOM
 10
0.0
 20
0.0
 30
0.0
  9
$PUCSORGLEFT
 10
0.0
 20
0.0
 30
0.0
  9
$PUCSORGRIGHT
 10
0.0
 20
0.0
 30
0.0
  9
$PUCSORGFRONT
 10
0.0
 20
0.0
 30
0.0
  9
$PUCSORGBACK
 10
0.0
 20
0.0
 30
0.0
  9
$USERI1
 70
     0
  9
$USERI2
 70
     0
  9
$USERI3
 70
     0
  9
$USERI4
 70
     0
  9
$USERI5
 70
     0
  9
$USERR1
 40
0.0
  9
$USERR2
 40
0.0
  9
$USERR3
 40
0.0
  9
$USERR4
 40
0.0
  9
$USERR5
 40
0.0
  9
$WORLDVIEW
 70
     1
  9
$SHADEDGE
 70
     3
  9
$SHADEDIF
 70
    70
  9
$TILEMODE
 70
     1
  9
$MAXACTVP
 70
    64
  9
$PINSBASE
 10
0.0
 20
0.0
 30
0.0
  9
$PLIMCHECK
 70
     0
  9
$PEXTMIN
 10
-271.75
 20
-87.335738
 30
0.0
  9
$PEXTMAX
 10
568.25
 20
506.664262
 30
0.0
  9
$PLIMMIN
 10
0.0
 20
0.0
  9
$PLIMMAX
 10
0.0
 20
0.0
  9
$UNITMODE
 70
     0
  9
$VISRETAIN
 70
     1
  9
$PLINEGEN
 70
     0
  9
$PSLTSCALE
 70
     1
  9
$TREEDEPTH
 70
  3020
  9
$CMLSTYLE
  2
Standard
  9
$CMLJUST
 70
     0
  9
$CMLSCALE
 40
20.0
  9
$PROXYGRAPHICS
 70
     1
  9
$MEASUREMENT
 70
     1
  9
$CELWEIGHT
370
    -1
  9
$ENDCAPS
280
     0
  9
$JOINSTYLE
280
     0
  9
$LWDISPLAY
290
     0
  9
$INSUNITS
 70
     4
  9
$HYPERLINKBASE
  1

  9
$STYLESHEET
  1

  9
$XEDIT
290
     1
  9
$CEPSNTYPE
380
     0
  9
$PSTYLEMODE
290
     1
  9
$FINGERPRINTGUID
  2
{FAEB1C30-E019-11D5-929B-00C0DF256EC4}
  9
$VERSIONGUID
  2
{FAEB1C32-E019-11D5-929B-00C0DF256EC4}
  9
$EXTNAMES
290
     1
  9
$PSVPSCALE
 40
0.0
  9
$OLESTARTUP
290
     0
  9
$SORTENTS
280
   127
  9
$INDEXCTL
280
     0
  9
$HIDETEXT
280
     1
  9
$XCLIPFRAME
280
     2
  9
$HALOGAP
280
     0
  9
$OBSCOLOR
 70
   257
  9
$OBSLTYPE
280
     0
  9
$INTERSECTIONDISPLAY
280
     0
  9
$INTERSECTIONCOLOR
 70
   257
  9
$DIMASSOC
280
     2
  9
$PROJECTNAME
  1

  9
$CAMERADISPLAY
290
     0
  9
$LENSLENGTH
 40
50.0
  9
$CAMERAHEIGHT
 40
0.0
  9
$STEPSPERSEC
 40
2.0
  9
$STEPSIZE
 40
6.0
  9
$3DDWFPREC
 40
2.0
  9
$PSOLWIDTH
 40
0.25
  9
$PSOLHEIGHT
 40
4.0
  9
$LOFTANG1
 40
1.570796326794897
  9
$LOFTANG2
 40
1.570796326794897
  9
$LOFTMAG1
 40
0.0
  9
$LOFTMAG2
 40
0.0
  9
$LOFTPARAM
 70
     7
  9
$LOFTNORMALS
280
     1
  9
$LATITUDE
 40
37.795
  9
$LONGITUDE
 40
-122.394
  9
$NORTHDIRECTION
 40
0.0
  9
$TIMEZONE
 70
 -8000
  9
$LIGHTGLYPHDISPLAY
280
     1
  9
$TILEMODELIGHTSYNCH
280
     1
  9
$SOLIDHIST
280
     0
  9
$SHOWHIST
280
     1
  9
$DWFFRAME
280
     2
  9
$DGNFRAME
280
     2
  9
$REALWORLDSCALE
290
     1
  9
$INTERFERECOLOR
 62
   256
  9
$CSHADOW
280
     0
  9
$SHADOWPLANELOCATION
 40
0.0
  0
ENDSEC
  0
SECTION
  2
CLASSES
  0
CLASS
  1
ACDBDICTIONARYWDFLT
  2
AcDbDictionaryWithDefault
  3
ObjectDBX Classes
 90
        0
 91
        6
280
     0
281
     0
  0
CLASS
  1
ACDBPLACEHOLDER
  2
AcDbPlaceHolder
  3
ObjectDBX Classes
 90
        0
 91
        1
280
     0
281
     0
  0
CLASS
  1
LAYOUT
  2
AcDbLayout
  3
ObjectDBX Classes
 90
        0
 91
        1
280
     0
281
     0
  0
CLASS
  1
SCALE
  2
AcDbScale
  3
ObjectDBX Classes
 90
     1153
 91
        6
280
     0
281
     0
  0
CLASS
  1
VISUALSTYLE
  2
AcDbVisualStyle
  3
ObjectDBX Classes
 90
     4095
 91
        6
280
     0
281
     0
  0
CLASS
  1
MATERIAL
  2
AcDbMaterial
  3
ObjectDBX Classes
 90
     1153
 91
        6
280
     0
281
     0
  0
CLASS
  1
TABLESTYLE
  2
AcDbTableStyle
  3
ObjectDBX Classes
 90
     4095
 91
        6
280
     0
281
     0
  0
CLASS
  1
MLEADERSTYLE
  2
AcDbMLeaderStyle
  3
ACDB_MLEADERSTYLE_CLASS
 90
     4095
 91
        6
280
     0
281
     0
  0
CLASS
  1
SUN
  2
AcDbSun
  3
SCENEOE
 90
     1153
 91
        6
280
     0
281
     0
  0
CLASS
  1
RASTERVARIABLES
  2
AcDbRasterVariables
  3
ISM
 90
        0
 91
        6
280
     0
281
     0
  0
CLASS
  1
DICTIONARYVAR
  2
AcDbDictionaryVar
  3
ObjectDBX Classes
 90
        0
 91
        5
280
     0
281
     0
  0
CLASS
  1
CELLSTYLEMAP
  2
AcDbCellStyleMap
  3
ObjectDBX Classes
 90
     1152
 91
        5
280
     0
281
     0
  0
ENDSEC
  0
SECTION
  2
TABLES
  0
TABLE
  2
VPORT
  5
8
330
0
100
AcDbSymbolTable
 70
     1
  0
VPORT
  5
29
330
8
100
AcDbSymbolTableRecord
100
AcDbViewportTableRecord
  2
*ACTIVE
 70
     0
 10
0.0
 20
0.0
 11
1.0
 21
1.0
 12
148.25
 22
209.664262
 13
0.0
 23
0.0
 14
1.0
 24
1.0
 15
0.0
 25
0.0
 16
0.0
 26
0.0
 36
1.0
 17
0.0
 27
0.0
 37
0.0
 40
594.0
 41
1.414141
 42
50.0
 43
0.0
 44
0.0
 50
0.0
 51
0.0
 71
    16
 72
   100
 73
     1
 74
     0
 75
     0
 76
     0
 77
     0
 78
     0
281
     0
 65
     0
110
0.0
120
0.0
130
0.0
111
1.0
121
0.0
131
0.0
112
0.0
122
1.0
132
0.0
 79
     0
146
0.0
348
632
 60
     3
 61
     5
292
     1
282
     1
141
0.0
142
0.0
 63
   256
361
64F
  0
ENDTAB
  0
TABLE
  2
LTYPE
  5
5
330
0
100
AcDbSymbolTable
 70
     3
  0
LTYPE
  5
14
330
5
100
AcDbSymbolTableRecord
100
AcDbLinetypeTableRecord
  2
ByBlock
 70
     0
  3

 72
    65
 73
     0
 40
0.0
  0
LTYPE
  5
15
330
5
100
AcDbSymbolTableRecord
100
AcDbLinetypeTableRecord
  2
ByLayer
 70
     0
  3

 72
    65
 73
     0
 40
0.0
  0
LTYPE
  5
16
330
5
100
AcDbSymbolTableRecord
100
AcDbLinetypeTableRecord
  2
Continuous
 70
     0
  3
Solid line
 72
    65
 73
     0
 40
0.0
  0
LTYPE
  5
2A
330
5
100
AcDbSymbolTableRecord
100
AcDbLinetypeTableRecord
  2
DASHED
 70
     0
  3
__ __ __ __ __
 72
    65
 73
     2
 40
6.25
 49
5.0
 74
     4
 75
     0
340
0
 46
1.0
 50
0.0
 44
0.0
 45
0.0
 49
-1.25
 74
     4
 75
     0
340
0
 46
1.0
 50
0.0
 44
0.0
 45
0.0
  0
LTYPE
  5
33
330
5
100
AcDbSymbolTableRecord
100
AcDbLinetypeTableRecord
  2
DASHDOT
 70
     0
  3
__ . __ . __ . __ . __
 72
    65
 73
     4
 40
7.5
 49
5.0
 74
     4
 75
     0
340
0
 46
1.0
 50
0.0
 44
0.0
 45
0.0
 49
-1.25
 74
     4
 75
     0
340
0
 46
1.0
 50
0.0
 44
0.0
 45
0.0
 49
0.0
 74
     4
 75
     0
340
0
 46
1.0
 50
0.0
 44
0.0
 45
0.0
 49
-1.25
 74
     4
 75
     0
340
0
 46
1.0
 50
0.0
 44
0.0
 45
0.0
  0
ENDTAB
  0
TABLE
  2
LAYER
  5
2
330
0
100
AcDbSymbolTable
 70
    10
  0
LAYER
  5
10
330
2
100
AcDbSymbolTableRecord
100
AcDbLayerTableRecord
  2
0
 70
     0
 62
     7
  6
Continuous
370
    -3
390
F
347
649
348
0
  0
LAYER
  5
2B
330
2
100
AcDbSymbolTableRecord
100
AcDbLayerTableRecord
  2
LC-INFO-1-2-mm-A3-0
 70
     1
 62
     7
  6
ByBlock
370
    -3
390
F
347
649
348
0
  0
LAYER
  5
2C
330
2
100
AcDbSymbolTableRecord
100
AcDbLayerTableRecord
  2
LC-CUT-HIDDEN
 70
     0
 62
     7
  6
DASHED
370
    -3
390
F
347
649
348
0
  0
LAYER
  5
2D
330
2
100
AcDbSymbolTableRecord
100
AcDbLayerTableRecord
  2
LC-VIEWPORT
 70
     0
 62
     7
  6
ByBlock
370
    -3
390
F
347
649
348
0
  0
LAYER
  5
2E
330
2
100
AcDbSymbolTableRecord
100
AcDbLayerTableRecord
  2
LC-3D-HIDDEN
 70
     0
 62
     9
  6
DASHED
370
    -3
390
F
347
649
348
0
  0
LAYER
  5
31
330
2
100
AcDbSymbolTableRecord
100
AcDbLayerTableRecord
  2
LC-001-100-D00-0
 70
     0
 62
     1
  6
ByBlock
370
    -3
390
F
347
649
348
0
  0
LAYER
  5
34
330
2
100
AcDbSymbolTableRecord
100
AcDbLayerTableRecord
  2
LC-002-002-----0
 70
     0
 62
     2
  6
DASHDOT
370
    -3
390
F
347
649
348
0
  0
LAYER
  5
11C
330
2
100
AcDbSymbolTableRecord
100
AcDbLayerTableRecord
  2
LC-003-105-D00-0
 70
     0
 62
     2
  6
DASHDOT
370
    -3
390
F
347
649
348
0
  0
LAYER
  5
57E
330
2
100
AcDbSymbolTableRecord
100
AcDbLayerTableRecord
  2
Defpoints
 70
     0
 62
     7
  6
Continuous
290
     0
370
    -3
390
F
347
649
348
0
  0
LAYER
  5
5C8
330
2
100
AcDbSymbolTableRecord
100
AcDbLayerTableRecord
  2
LC-004-003-----0
 70
     0
 62
     2
  6
ByBlock
370
    -3
390
F
347
649
348
0
  0
ENDTAB
  0
TABLE
  2
STYLE
  5
3
330
0
100
AcDbSymbolTable
 70
     4
  0
STYLE
  5
11
330
3
100
AcDbSymbolTableRecord
100
AcDbTextStyleTableRecord
  2
Standard
 70
     0
 40
0.0
 41
1.0
 50
0.0
 71
     0
 42
2.5
  3
txt
  4

  0
STYLE
  5
2F
330
3
100
AcDbSymbolTableRecord
100
AcDbTextStyleTableRecord
  2
LCTX0-400-0-0pDIN-Schrift
 70
     0
 40
0.0
 41
0.75
 50
0.0
 71
     0
 42
3.5
  3
TXT
  4

  0
STYLE
  5
30
330
3
100
AcDbSymbolTableRecord
100
AcDbTextStyleTableRecord
  2
LCTX15-400-0-0-Arial
 70
     0
 40
0.0
 41
0.8
 50
0.0
 71
     0
 42
3.5
  3

  4

1001
ACAD
1000
Arial
1071
 16777218
  0
STYLE
  5
57B
330
3
100
AcDbSymbolTableRecord
100
AcDbTextStyleTableRecord
  2
LCTX15-400-0-0pDIN-Schrift
 70
     0
 40
2.5
 41
0.8
 50
15.0
 71
     0
 42
3.5
  3
STANDARD
  4

  0
ENDTAB
  0
TABLE
  2
VIEW
  5
6
330
0
100
AcDbSymbolTable
 70
     0
  0
ENDTAB
  0
TABLE
  2
UCS
  5
7
330
0
100
AcDbSymbolTable
 70
     0
  0
ENDTAB
  0
TABLE
  2
APPID
  5
9
330
0
100
AcDbSymbolTable
 70
     1
  0
APPID
  5
12
330
9
100
AcDbSymbolTableRecord
100
AcDbRegAppTableRecord
  2
ACAD
 70
     0
  0
ENDTAB
  0
TABLE
  2
DIMSTYLE
  5
A
330
0
100
AcDbSymbolTable
 70
     3
100
AcDbDimStyleTable
  0
DIMSTYLE
105
27
330
A
100
AcDbSymbolTableRecord
100
AcDbDimStyleTableRecord
  2
ISO-25
 70
     0
 41
2.5
 42
0.625
 43
3.75
 44
1.25
 73
     0
 74
     0
 77
     1
 78
     8
140
2.5
141
2.5
143
0.03937
147
0.625
171
     3
172
     1
178
     0
271
     2
272
     2
274
     3
278
    44
283
     0
284
     8
340
11
  0
DIMSTYLE
105
57C
102
{ACAD_REACTORS
330
57D
330
59B
330
5A9
330
5B7
330
5C9
330
5D6
330
5E3
330
5F0
330
5FE
102
}
330
A
100
AcDbSymbolTableRecord
100
AcDbDimStyleTableRecord
  2
LC-DIM-L-0140-02-02
 70
     0
 40
2.0
 41
14.0
 42
0.0
 43
7.5
 44
1.8
 73
     0
 74
     0
 77
     1
 78
     8
 79
     2
140
14.0
141
0.0
146
0.71
147
1.5
176
     2
177
     2
271
     2
178
     2
179
     2
271
     2
278
    44
289
     1
340
57B
  0
DIMSTYLE
105
58C
102
{ACAD_REACTORS
330
58D
102
}
330
A
100
AcDbSymbolTableRecord
100
AcDbDimStyleTableRecord
  2
LC-DIM-L-0140-00-02
 70
     0
 40
2.0
 41
14.0
 42
0.0
 43
7.5
 44
1.8
 73
     0
 74
     0
 77
     1
 78
     8
140
14.0
141
0.0
146
0.71
147
1.5
176
     2
177
     2
271
     0
178
     2
271
     0
278
    44
289
     1
340
57B
  0
ENDTAB
  0
TABLE
  2
BLOCK_RECORD
  5
1
330
0
100
AcDbSymbolTable
 70
    43
  0
BLOCK_RECORD
  5
1F
330
1
100
AcDbSymbolTableRecord
100
AcDbBlockTableRecord
  2
*Model_Space
340
22
 70
     0
280
     1
281
     0
  0
BLOCK_RECORD
  5
1B
330
1
100
AcDbSymbolTableRecord
100
AcDbBlockTableRecord
  2
*Paper_Space
340
1E
 70
     0
280
     1
281
     0
  0
BLOCK_RECORD
  5
23
330
1
100
AcDbSymbolTableRecord
100
AcDbBlockTableRecord
  2
*Paper_Space0
340
26
 70
     0
280
     1
281
     0
  0
BLOCK_RECORD
  5
9A
330
1
100
AcDbSymbolTableRecord
100
AcDbBlockTableRecord
  2
KLON1
340
0
102
{BLKREFS
331
9F
102
}
 70
     0
280
     1
281
     0
  0
BLOCK_RECORD
  5
A0
330
1
100
AcDbSymbolTableRecord
100
AcDbBlockTableRecord
  2
KLON2
340
0
102
{BLKREFS
331
A5
102
}
 70
     0
280
     1
281
     0
  0
BLOCK_RECORD
  5
A6
330
1
100
AcDbSymbolTableRecord
100
AcDbBlockTableRecord
  2
KLON3
340
0
102
{BLKREFS
331
AB
102
}
 70
     0
280
     1
281
     0
  0
BLOCK_RECORD
  5
AC
330
1
100
AcDbSymbolTableRecord
100
AcDbBlockTableRecord
  2
KLON4
340
0
102
{BLKREFS
331
B1
102
}
 70
     0
280
     1
281
     0
  0
BLOCK_RECORD
  5
B2
330
1
100
AcDbSymbolTableRecord
100
AcDbBlockTableRecord
  2
KLON5
340
0
102
{BLKREFS
331
B7
102
}
 70
     0
280
     1
281
     0
  0
BLOCK_RECORD
  5
B8
330
1
100
AcDbSymbolTableRecord
100
AcDbBlockTableRecord
  2
KLON6
340
0
102
{BLKREFS
331
BD
102
}
 70
     0
280
     1
281
     0
  0
BLOCK_RECORD
  5
BE
330
1
100
AcDbSymbolTableRecord
100
AcDbBlockTableRecord
  2
KLON7
340
0
102
{BLKREFS
331
C3
102
}
 70
     0
280
     1
281
     0
  0
BLOCK_RECORD
  5
C4
330
1
100
AcDbSymbolTableRecord
100
AcDbBlockTableRecord
  2
KLON8
340
0
102
{BLKREFS
331
C9
102
}
 70
     0
280
     1
281
     0
  0
BLOCK_RECORD
  5
150
330
1
100
AcDbSymbolTableRecord
100
AcDbBlockTableRecord
  2
POLY1
340
0
102
{BLKREFS
331
16F
102
}
 70
     0
280
     1
281
     0
  0
BLOCK_RECORD
  5
171
330
1
100
AcDbSymbolTableRecord
100
AcDbBlockTableRecord
  2
POLY2
340
0
102
{BLKREFS
331
190
102
}
 70
     0
280
     1
281
     0
  0
BLOCK_RECORD
  5
20B
330
1
100
AcDbSymbolTableRecord
100
AcDbBlockTableRecord
  2
POLY3
340
0
102
{BLKREFS
331
216
102
}
 70
     0
280
     1
281
     0
  0
BLOCK_RECORD
  5
230
330
1
100
AcDbSymbolTableRecord
100
AcDbBlockTableRecord
  2
POLY4
340
0
102
{BLKREFS
331
257
102
}
 70
     0
280
     1
281
     0
  0
BLOCK_RECORD
  5
258
330
1
100
AcDbSymbolTableRecord
100
AcDbBlockTableRecord
  2
POLY5
340
0
102
{BLKREFS
331
263
102
}
 70
     0
280
     1
281
     0
  0
BLOCK_RECORD
  5
295
330
1
100
AcDbSymbolTableRecord
100
AcDbBlockTableRecord
  2
KLON9
340
0
102
{BLKREFS
331
29A
102
}
 70
     0
280
     1
281
     0
  0
BLOCK_RECORD
  5
29B
330
1
100
AcDbSymbolTableRecord
100
AcDbBlockTableRecord
  2
POLY6
340
0
102
{BLKREFS
331
2A6
102
}
 70
     0
280
     1
281
     0
  0
BLOCK_RECORD
  5
2DB
330
1
100
AcDbSymbolTableRecord
100
AcDbBlockTableRecord
  2
POLY7
340
0
102
{BLKREFS
331
2E8
102
}
 70
     0
280
     1
281
     0
  0
BLOCK_RECORD
  5
3FB
330
1
100
AcDbSymbolTableRecord
100
AcDbBlockTableRecord
  2
POLY8
340
0
102
{BLKREFS
331
41E
102
}
 70
     0
280
     1
281
     0
  0
BLOCK_RECORD
  5
41F
330
1
100
AcDbSymbolTableRecord
100
AcDbBlockTableRecord
  2
POLY9
340
0
102
{BLKREFS
331
436
102
}
 70
     0
280
     1
281
     0
  0
BLOCK_RECORD
  5
49A
330
1
100
AcDbSymbolTableRecord
100
AcDbBlockTableRecord
  2
KLON10
340
0
102
{BLKREFS
331
4A8
102
}
 70
     0
280
     1
281
     0
  0
BLOCK_RECORD
  5
4A9
330
1
100
AcDbSymbolTableRecord
100
AcDbBlockTableRecord
  2
KLON11
340
0
102
{BLKREFS
331
4B7
102
}
 70
     0
280
     1
281
     0
  0
BLOCK_RECORD
  5
4B8
330
1
100
AcDbSymbolTableRecord
100
AcDbBlockTableRecord
  2
KLON12
340
0
102
{BLKREFS
331
4C5
102
}
 70
     0
280
     1
281
     0
  0
BLOCK_RECORD
  5
4C6
330
1
100
AcDbSymbolTableRecord
100
AcDbBlockTableRecord
  2
KLON13
340
0
102
{BLKREFS
331
4E3
102
}
 70
     0
280
     1
281
     0
  0
BLOCK_RECORD
  5
4E4
330
1
100
AcDbSymbolTableRecord
100
AcDbBlockTableRecord
  2
KLON14
340
0
102
{BLKREFS
331
4EF
102
}
 70
     0
280
     1
281
     0
  0
BLOCK_RECORD
  5
4F0
330
1
100
AcDbSymbolTableRecord
100
AcDbBlockTableRecord
  2
KLON15
340
0
102
{BLKREFS
331
4FB
102
}
 70
     0
280
     1
281
     0
  0
BLOCK_RECORD
  5
503
330
1
100
AcDbSymbolTableRecord
100
AcDbBlockTableRecord
  2
KLON16
340
0
102
{BLKREFS
331
50C
102
}
 70
     0
280
     1
281
     0
  0
BLOCK_RECORD
  5
50D
330
1
100
AcDbSymbolTableRecord
100
AcDbBlockTableRecord
  2
KLON17
340
0
102
{BLKREFS
331
519
102
}
 70
     0
280
     1
281
     0
  0
BLOCK_RECORD
  5
51A
330
1
100
AcDbSymbolTableRecord
100
AcDbBlockTableRecord
  2
KLON18
340
0
102
{BLKREFS
331
525
102
}
 70
     0
280
     1
281
     0
  0
BLOCK_RECORD
  5
526
330
1
100
AcDbSymbolTableRecord
100
AcDbBlockTableRecord
  2
KLON19
340
0
102
{BLKREFS
331
53F
102
}
 70
     0
280
     1
281
     0
  0
BLOCK_RECORD
  5
540
330
1
100
AcDbSymbolTableRecord
100
AcDbBlockTableRecord
  2
KLON20
340
0
102
{BLKREFS
331
552
102
}
 70
     0
280
     1
281
     0
  0
BLOCK_RECORD
  5
553
330
1
100
AcDbSymbolTableRecord
100
AcDbBlockTableRecord
  2
KLON21
340
0
102
{BLKREFS
331
565
102
}
 70
     0
280
     1
281
     0
  0
BLOCK_RECORD
  5
567
330
1
100
AcDbSymbolTableRecord
100
AcDbBlockTableRecord
  2
KLON22
340
0
102
{BLKREFS
331
570
102
}
 70
     0
280
     1
281
     0
  0
BLOCK_RECORD
  5
571
330
1
100
AcDbSymbolTableRecord
100
AcDbBlockTableRecord
  2
KLON23
340
0
102
{BLKREFS
331
57A
102
}
 70
     0
280
     1
281
     0
  0
BLOCK_RECORD
  5
57F
330
1
100
AcDbSymbolTableRecord
100
AcDbBlockTableRecord
  2
*D33
340
0
 70
     0
280
     1
281
     0
  0
BLOCK_RECORD
  5
58E
330
1
100
AcDbSymbolTableRecord
100
AcDbBlockTableRecord
  2
*D34
340
0
 70
     0
280
     1
281
     0
  0
BLOCK_RECORD
  5
59C
330
1
100
AcDbSymbolTableRecord
100
AcDbBlockTableRecord
  2
*D35
340
0
 70
     0
280
     1
281
     0
  0
BLOCK_RECORD
  5
5AA
330
1
100
AcDbSymbolTableRecord
100
AcDbBlockTableRecord
  2
*D36
340
0
 70
     0
280
     1
281
     0
  0
BLOCK_RECORD
  5
5B8
330
1
100
AcDbSymbolTableRecord
100
AcDbBlockTableRecord
  2
*D37
340
0
 70
     0
280
     1
281
     0
  0
BLOCK_RECORD
  5
5CA
330
1
100
AcDbSymbolTableRecord
100
AcDbBlockTableRecord
  2
*D38
340
0
 70
     0
280
     1
281
     0
  0
BLOCK_RECORD
  5
5D7
330
1
100
AcDbSymbolTableRecord
100
AcDbBlockTableRecord
  2
*D39
340
0
 70
     0
280
     1
281
     0
  0
BLOCK_RECORD
  5
5E4
330
1
100
AcDbSymbolTableRecord
100
AcDbBlockTableRecord
  2
*D40
340
0
 70
     0
280
     1
281
     0
  0
BLOCK_RECORD
  5
5F1
330
1
100
AcDbSymbolTableRecord
100
AcDbBlockTableRecord
  2
*D41
340
0
 70
     0
280
     1
281
     0
  0
BLOCK_RECORD
  5
5FF
330
1
100
AcDbSymbolTableRecord
100
AcDbBlockTableRecord
  2
*D42
340
0
 70
     0
280
     1
281
     0
  0
ENDTAB
  0
ENDSEC
  0
SECTION
  2
BLOCKS
  0
BLOCK
  5
20
330
1F
100
AcDbEntity
  8
0
100
AcDbBlockBegin
  2
*Model_Space
 70
     0
 10
0.0
 20
0.0
 30
0.0
  3
*Model_Space
  1
*Model_Space
  0
ENDBLK
  5
21
330
1F
100
AcDbEntity
  8
0
100
AcDbBlockEnd
  0
BLOCK
  5
1C
330
1B
100
AcDbEntity
 67
     1
  8
0
100
AcDbBlockBegin
  2
*Paper_Space
 70
     0
 10
0.0
 20
0.0
 30
0.0
  3
*Paper_Space
  1
*Paper_Space
  0
ENDBLK
  5
1D
330
1B
100
AcDbEntity
 67
     1
  8
0
100
AcDbBlockEnd
  0
BLOCK
  5
24
330
23
100
AcDbEntity
  8
0
100
AcDbBlockBegin
  2
*Paper_Space0
 70
     0
 10
0.0
 20
0.0
 30
0.0
  3
*Paper_Space0
  1
*Paper_Space0
  0
ENDBLK
  5
25
330
23
100
AcDbEntity
  8
0
100
AcDbBlockEnd
  0
BLOCK
  5
9B
330
9A
100
AcDbEntity
  8
0
100
AcDbBlockBegin
  2
KLON1
 70
     0
 10
0.0
 20
0.0
 30
0.0
  3
KLON1
  1
KLON1
  4
KLON1
  0
LINE
  5
9D
330
9A
100
AcDbEntity
  8
LC-001-100-D00-0
 62
     7
370
    15
100
AcDbLine
 10
69.129712
 20
-23.515738
 30
0.0
 11
73.138877
 21
-23.690782
 31
0.0
  0
LINE
  5
9E
330
9A
100
AcDbEntity
  8
LC-001-100-D00-0
 62
     7
370
    15
100
AcDbLine
 10
73.138877
 20
-23.690782
 30
0.0
 11
75.893587
 21
-24.015739
 31
0.0
  0
ENDBLK
  5
9C
330
9A
100
AcDbEntity
  8
0
100
AcDbBlockEnd
  0
BLOCK
  5
A1
330
A0
100
AcDbEntity
  8
0
100
AcDbBlockBegin
  2
KLON2
 70
     0
 10
0.0
 20
0.0
 30
0.0
  3
KLON2
  1
KLON2
  4
KLON2
  0
LINE
  5
A3
330
A0
100
AcDbEntity
  8
LC-001-100-D00-0
 62
     7
370
    15
100
AcDbLine
 10
93.522339
 20
-30.515737
 30
0.0
 11
95.51423
 21
-31.834743
 31
0.0
  0
LINE
  5
A4
330
A0
100
AcDbEntity
  8
LC-001-100-D00-0
 62
     7
370
    15
100
AcDbLine
 10
95.51423
 20
-31.834743
 30
0.0
 11
98.116427
 21
-33.797807
 31
0.0
  0
ENDBLK
  5
A2
330
A0
100
AcDbEntity
  8
0
100
AcDbBlockEnd
  0
BLOCK
  5
A7
330
A6
100
AcDbEntity
  8
0
100
AcDbBlockBegin
  2
KLON3
 70
     0
 10
0.0
 20
0.0
 30
0.0
  3
KLON3
  1
KLON3
  4
KLON3
  0
LINE
  5
A9
330
A6
100
AcDbEntity
  8
LC-001-100-D00-0
 62
     7
370
    15
100
AcDbLine
 10
104.847646
 20
-40.529027
 30
0.0
 11
106.81071
 21
-43.131222
 31
0.0
  0
LINE
  5
AA
330
A6
100
AcDbEntity
  8
LC-001-100-D00-0
 62
     7
370
    15
100
AcDbLine
 10
106.81071
 20
-43.131222
 30
0.0
 11
108.129717
 21
-45.123116
 31
0.0
  0
ENDBLK
  5
A8
330
A6
100
AcDbEntity
  8
0
100
AcDbBlockEnd
  0
BLOCK
  5
AD
330
AC
100
AcDbEntity
  8
0
100
AcDbBlockBegin
  2
KLON4
 70
     0
 10
0.0
 20
0.0
 30
0.0
  3
KLON4
  1
KLON4
  4
KLON4
  0
LINE
  5
AF
330
AC
100
AcDbEntity
  8
LC-001-100-D00-0
 62
     7
370
    15
100
AcDbLine
 10
114.629715
 20
-62.751863
 30
0.0
 11
114.954672
 21
-65.506574
 31
0.0
  0
LINE
  5
B0
330
AC
100
AcDbEntity
  8
LC-001-100-D00-0
 62
     7
370
    15
100
AcDbLine
 10
114.954672
 20
-65.506574
 30
0.0
 11
115.129716
 21
-69.515738
 31
0.0
  0
ENDBLK
  5
AE
330
AC
100
AcDbEntity
  8
0
100
AcDbBlockEnd
  0
BLOCK
  5
B3
330
B2
100
AcDbEntity
  8
0
100
AcDbBlockBegin
  2
KLON5
 70
     0
 10
0.0
 20
0.0
 30
0.0
  3
KLON5
  1
KLON5
  4
KLON5
  0
LINE
  5
B5
330
B2
100
AcDbEntity
  8
LC-001-100-D00-0
 62
     7
370
    15
100
AcDbLine
 10
23.129714
 20
-69.515738
 30
0.0
 11
23.304758
 21
-65.506574
 31
0.0
  0
LINE
  5
B6
330
B2
100
AcDbEntity
  8
LC-001-100-D00-0
 62
     7
370
    15
100
AcDbLine
 10
23.304758
 20
-65.506574
 30
0.0
 11
23.629715
 21
-62.751863
 31
0.0
  0
ENDBLK
  5
B4
330
B2
100
AcDbEntity
  8
0
100
AcDbBlockEnd
  0
BLOCK
  5
B9
330
B8
100
AcDbEntity
  8
0
100
AcDbBlockBegin
  2
KLON6
 70
     0
 10
0.0
 20
0.0
 30
0.0
  3
KLON6
  1
KLON6
  4
KLON6
  0
LINE
  5
BB
330
B8
100
AcDbEntity
  8
LC-001-100-D00-0
 62
     7
370
    15
100
AcDbLine
 10
30.129715
 20
-45.123116
 30
0.0
 11
31.448719
 21
-43.131222
 31
0.0
  0
LINE
  5
BC
330
B8
100
AcDbEntity
  8
LC-001-100-D00-0
 62
     7
370
    15
100
AcDbLine
 10
31.448719
 20
-43.131222
 30
0.0
 11
33.411783
 21
-40.529027
 31
0.0
  0
ENDBLK
  5
BA
330
B8
100
AcDbEntity
  8
0
100
AcDbBlockEnd
  0
BLOCK
  5
BF
330
BE
100
AcDbEntity
  8
0
100
AcDbBlockBegin
  2
KLON7
 70
     0
 10
0.0
 20
0.0
 30
0.0
  3
KLON7
  1
KLON7
  4
KLON7
  0
LINE
  5
C1
330
BE
100
AcDbEntity
  8
LC-001-100-D00-0
 62
     7
370
    15
100
AcDbLine
 10
40.143005
 20
-33.797807
 30
0.0
 11
42.745198
 21
-31.834743
 31
0.0
  0
LINE
  5
C2
330
BE
100
AcDbEntity
  8
LC-001-100-D00-0
 62
     7
370
    15
100
AcDbLine
 10
42.745198
 20
-31.834743
 30
0.0
 11
44.737092
 21
-30.515737
 31
0.0
  0
ENDBLK
  5
C0
330
BE
100
AcDbEntity
  8
0
100
AcDbBlockEnd
  0
BLOCK
  5
C5
330
C4
100
AcDbEntity
  8
0
100
AcDbBlockBegin
  2
KLON8
 70
     0
 10
0.0
 20
0.0
 30
0.0
  3
KLON8
  1
KLON8
  4
KLON8
  0
LINE
  5
C7
330
C4
100
AcDbEntity
  8
LC-001-100-D00-0
 62
     7
370
    15
100
AcDbLine
 10
62.36584
 20
-24.015739
 30
0.0
 11
65.120551
 21
-23.690782
 31
0.0
  0
LINE
  5
C8
330
C4
100
AcDbEntity
  8
LC-001-100-D00-0
 62
     7
370
    15
100
AcDbLine
 10
65.120551
 20
-23.690782
 30
0.0
 11
69.129712
 21
-23.515738
 31
0.0
  0
ENDBLK
  5
C6
330
C4
100
AcDbEntity
  8
0
100
AcDbBlockEnd
  0
BLOCK
  5
151
330
150
100
AcDbEntity
  8
0
100
AcDbBlockBegin
  2
POLY1
 70
     0
 10
0.0
 20
0.0
 30
0.0
  3
POLY1
  1
POLY1
  4
POLY1
  0
LINE
  5
153
330
150
100
AcDbEntity
  8
LC-001-100-D00-0
 62
     7
370
    50
100
AcDbLine
 10
160.129718
 20
206.011654
 30
0.0
 11
160.129718
 21
206.011654
 31
0.0
  0
LINE
  5
154
330
150
100
AcDbEntity
  8
LC-001-100-D00-0
 62
     7
370
    50
100
AcDbLine
 10
160.129718
 20
206.011654
 30
0.0
 11
160.249935
 21
206.011654
 31
0.0
  0
LINE
  5
155
330
150
100
AcDbEntity
  8
LC-001-100-D00-0
 62
     7
370
    50
100
AcDbLine
 10
160.249935
 20
206.011654
 30
0.0
 11
160.249935
 21
206.011654
 31
0.0
  0
LINE
  5
156
330
150
100
AcDbEntity
  8
LC-001-100-D00-0
 62
     7
370
    50
100
AcDbLine
 10
160.249935
 20
206.011654
 30
0.0
 11
160.434868
 21
206.011654
 31
0.0
  0
LINE
  5
157
330
150
100
AcDbEntity
  8
LC-001-100-D00-0
 62
     7
370
    50
100
AcDbLine
 10
160.434868
 20
206.011654
 30
0.0
 11
160.434868
 21
206.011654
 31
0.0
  0
LINE
  5
158
330
150
100
AcDbEntity
  8
LC-001-100-D00-0
 62
     7
370
    50
100
AcDbLine
 10
160.434868
 20
206.011654
 30
0.0
 11
161.557156
 21
206.011654
 31
0.0
  0
LINE
  5
159
330
150
100
AcDbEntity
  8
LC-001-100-D00-0
 62
     7
370
    50
100
AcDbLine
 10
161.557156
 20
206.011654
 30
0.0
 11
161.557156
 21
206.011654
 31
0.0
  0
LINE
  5
15A
330
150
100
AcDbEntity
  8
LC-001-100-D00-0
 62
     7
370
    50
100
AcDbLine
 10
161.557156
 20
206.011654
 30
0.0
 11
162.718701
 21
206.011654
 31
0.0
  0
LINE
  5
15B
330
150
100
AcDbEntity
  8
LC-001-100-D00-0
 62
     7
370
    50
100
AcDbLine
 10
162.718701
 20
206.011654
 30
0.0
 11
162.718701
 21
206.011654
 31
0.0
  0
LINE
  5
15C
330
150
100
AcDbEntity
  8
LC-001-100-D00-0
 62
     7
370
    50
100
AcDbLine
 10
162.718701
 20
206.011654
 30
0.0
 11
164.160573
 21
206.011654
 31
0.0
  0
LINE
  5
15D
330
150
100
AcDbEntity
  8
LC-001-100-D00-0
 62
     7
370
    50
100
AcDbLine
 10
164.160573
 20
206.011654
 30
0.0
 11
164.160573
 21
206.011654
 31
0.0
  0
LINE
  5
15E
330
150
100
AcDbEntity
  8
LC-001-100-D00-0
 62
     7
370
    50
100
AcDbLine
 10
164.160573
 20
206.011654
 30
0.0
 11
166.255918
 21
206.011654
 31
0.0
  0
LINE
  5
15F
330
150
100
AcDbEntity
  8
LC-001-100-D00-0
 62
     7
370
    50
100
AcDbLine
 10
166.255918
 20
206.011654
 30
0.0
 11
166.255918
 21
206.011654
 31
0.0
  0
LINE
  5
160
330
150
100
AcDbEntity
  8
LC-001-100-D00-0
 62
     7
370
    50
100
AcDbLine
 10
166.255918
 20
206.011654
 30
0.0
 11
169.129716
 21
206.011654
 31
0.0
  0
LINE
  5
161
330
150
100
AcDbEntity
  8
LC-001-100-D00-0
 62
     7
370
    50
100
AcDbLine
 10
169.129716
 20
206.011654
 30
0.0
 11
169.129716
 21
206.011654
 31
0.0
  0
LINE
  5
162
330
150
100
AcDbEntity
  8
LC-001-100-D00-0
 62
     7
370
    50
100
AcDbLine
 10
169.129716
 20
206.011654
 30
0.0
 11
172.003513
 21
206.011654
 31
0.0
  0
LINE
  5
163
330
150
100
AcDbEntity
  8
LC-001-100-D00-0
 62
     7
370
    50
100
AcDbLine
 10
172.003513
 20
206.011654
 30
0.0
 11
172.003513
 21
206.011654
 31
0.0
  0
LINE
  5
164
330
150
100
AcDbEntity
  8
LC-001-100-D00-0
 62
     7
370
    50
100
AcDbLine
 10
172.003513
 20
206.011654
 30
0.0
 11
174.098854
 21
206.011654
 31
0.0
  0
LINE
  5
165
330
150
100
AcDbEntity
  8
LC-001-100-D00-0
 62
     7
370
    50
100
AcDbLine
 10
174.098854
 20
206.011654
 30
0.0
 11
174.098854
 21
206.011654
 31
0.0
  0
LINE
  5
166
330
150
100
AcDbEntity
  8
LC-001-100-D00-0
 62
     7
370
    50
100
AcDbLine
 10
174.098854
 20
206.011654
 30
0.0
 11
175.540726
 21
206.011654
 31
0.0
  0
LINE
  5
167
330
150
100
AcDbEntity
  8
LC-001-100-D00-0
 62
     7
370
    50
100
AcDbLine
 10
175.540726
 20
206.011654
 30
0.0
 11
175.540726
 21
206.011654
 31
0.0
  0
LINE
  5
168
330
150
100
AcDbEntity
  8
LC-001-100-D00-0
 62
     7
370
    50
100
AcDbLine
 10
175.540726
 20
206.011654
 30
0.0
 11
176.702271
 21
206.011654
 31
0.0
  0
LINE
  5
169
330
150
100
AcDbEntity
  8
LC-001-100-D00-0
 62
     7
370
    50
100
AcDbLine
 10
176.702271
 20
206.011654
 30
0.0
 11
176.702271
 21
206.011654
 31
0.0
  0
LINE
  5
16A
330
150
100
AcDbEntity
  8
LC-001-100-D00-0
 62
     7
370
    50
100
AcDbLine
 10
176.702271
 20
206.011654
 30
0.0
 11
177.824559
 21
206.011654
 31
0.0
  0
LINE
  5
16B
330
150
100
AcDbEntity
  8
LC-001-100-D00-0
 62
     7
370
    50
100
AcDbLine
 10
177.824559
 20
206.011654
 30
0.0
 11
177.824559
 21
206.011654
 31
0.0
  0
LINE
  5
16C
330
150
100
AcDbEntity
  8
LC-001-100-D00-0
 62
     7
370
    50
100
AcDbLine
 10
177.824559
 20
206.011654
 30
0.0
 11
178.009492
 21
206.011654
 31
0.0
  0
LINE
  5
16D
330
150
100
AcDbEntity
  8
LC-001-100-D00-0
 62
     7
370
    50
100
AcDbLine
 10
178.009492
 20
206.011654
 30
0.0
 11
178.009492
 21
206.011654
 31
0.0
  0
LINE
  5
16E
330
150
100
AcDbEntity
  8
LC-001-100-D00-0
 62
     7
370
    50
100
AcDbLine
 10
178.009492
 20
206.011654
 30
0.0
 11
178.129709
 21
206.011654
 31
0.0
  0
ENDBLK
  5
152
330
150
100
AcDbEntity
  8
0
100
AcDbBlockEnd
  0
BLOCK
  5
172
330
171
100
AcDbEntity
  8
0
100
AcDbBlockBegin
  2
POLY2
 70
     0
 10
0.0
 20
0.0
 30
0.0
  3
POLY2
  1
POLY2
  4
POLY2
  0
LINE
  5
174
330
171
100
AcDbEntity
  8
LC-001-100-D00-0
 62
     7
370
    50
100
AcDbLine
 10
-39.870285
 20
206.011654
 30
0.0
 11
-39.870285
 21
206.011654
 31
0.0
  0
LINE
  5
175
330
171
100
AcDbEntity
  8
LC-001-100-D00-0
 62
     7
370
    50
100
AcDbLine
 10
-39.870285
 20
206.011654
 30
0.0
 11
-39.750064
 21
206.011654
 31
0.0
  0
LINE
  5
176
330
171
100
AcDbEntity
  8
LC-001-100-D00-0
 62
     7
370
    50
100
AcDbLine
 10
-39.750064
 20
206.011654
 30
0.0
 11
-39.750064
 21
206.011654
 31
0.0
  0
LINE
  5
177
330
171
100
AcDbEntity
  8
LC-001-100-D00-0
 62
     7
370
    50
100
AcDbLine
 10
-39.750064
 20
206.011654
 30
0.0
 11
-39.565127
 21
206.011654
 31
0.0
  0
LINE
  5
178
330
171
100
AcDbEntity
  8
LC-001-100-D00-0
 62
     7
370
    50
100
AcDbLine
 10
-39.565127
 20
206.011654
 30
0.0
 11
-39.565127
 21
206.011654
 31
0.0
  0
LINE
  5
179
330
171
100
AcDbEntity
  8
LC-001-100-D00-0
 62
     7
370
    50
100
AcDbLine
 10
-39.565127
 20
206.011654
 30
0.0
 11
-38.44284
 21
206.011654
 31
0.0
  0
LINE
  5
17A
330
171
100
AcDbEntity
  8
LC-001-100-D00-0
 62
     7
370
    50
100
AcDbLine
 10
-38.44284
 20
206.011654
 30
0.0
 11
-38.44284
 21
206.011654
 31
0.0
  0
LINE
  5
17B
330
171
100
AcDbEntity
  8
LC-001-100-D00-0
 62
     7
370
    50
100
AcDbLine
 10
-38.44284
 20
206.011654
 30
0.0
 11
-37.281294
 21
206.011654
 31
0.0
  0
LINE
  5
17C
330
171
100
AcDbEntity
  8
LC-001-100-D00-0
 62
     7
370
    50
100
AcDbLine
 10
-37.281294
 20
206.011654
 30
0.0
 11
-37.281294
 21
206.011654
 31
0.0
  0
LINE
  5
17D
330
171
100
AcDbEntity
  8
LC-001-100-D00-0
 62
     7
370
    50
100
AcDbLine
 10
-37.281294
 20
206.011654
 30
0.0
 11
-35.83943
 21
206.011654
 31
0.0
  0
LINE
  5
17E
330
171
100
AcDbEntity
  8
LC-001-100-D00-0
 62
     7
370
    50
100
AcDbLine
 10
-35.83943
 20
206.011654
 30
0.0
 11
-35.83943
 21
206.011654
 31
0.0
  0
LINE
  5
17F
330
171
100
AcDbEntity
  8
LC-001-100-D00-0
 62
     7
370
    50
100
AcDbLine
 10
-35.83943
 20
206.011654
 30
0.0
 11
-33.744086
 21
206.011654
 31
0.0
  0
LINE
  5
180
330
171
100
AcDbEntity
  8
LC-001-100-D00-0
 62
     7
370
    50
100
AcDbLine
 10
-33.744086
 20
206.011654
 30
0.0
 11
-33.744086
 21
206.011654
 31
0.0
  0
LINE
  5
181
330
171
100
AcDbEntity
  8
LC-001-100-D00-0
 62
     7
370
    50
100
AcDbLine
 10
-33.744086
 20
206.011654
 30
0.0
 11
-30.870286
 21
206.011654
 31
0.0
  0
LINE
  5
182
330
171
100
AcDbEntity
  8
LC-001-100-D00-0
 62
     7
370
    50
100
AcDbLine
 10
-30.870286
 20
206.011654
 30
0.0
 11
-30.870286
 21
206.011654
 31
0.0
  0
LINE
  5
183
330
171
100
AcDbEntity
  8
LC-001-100-D00-0
 62
     7
370
    50
100
AcDbLine
 10
-30.870286
 20
206.011654
 30
0.0
 11
-27.996486
 21
206.011654
 31
0.0
  0
LINE
  5
184
330
171
100
AcDbEntity
  8
LC-001-100-D00-0
 62
     7
370
    50
100
AcDbLine
 10
-27.996486
 20
206.011654
 30
0.0
 11
-27.996486
 21
206.011654
 31
0.0
  0
LINE
  5
185
330
171
100
AcDbEntity
  8
LC-001-100-D00-0
 62
     7
370
    50
100
AcDbLine
 10
-27.996486
 20
206.011654
 30
0.0
 11
-25.901143
 21
206.011654
 31
0.0
  0
LINE
  5
186
330
171
100
AcDbEntity
  8
LC-001-100-D00-0
 62
     7
370
    50
100
AcDbLine
 10
-25.901143
 20
206.011654
 30
0.0
 11
-25.901143
 21
206.011654
 31
0.0
  0
LINE
  5
187
330
171
100
AcDbEntity
  8
LC-001-100-D00-0
 62
     7
370
    50
100
AcDbLine
 10
-25.901143
 20
206.011654
 30
0.0
 11
-24.459279
 21
206.011654
 31
0.0
  0
LINE
  5
188
330
171
100
AcDbEntity
  8
LC-001-100-D00-0
 62
     7
370
    50
100
AcDbLine
 10
-24.459279
 20
206.011654
 30
0.0
 11
-24.459279
 21
206.011654
 31
0.0
  0
LINE
  5
189
330
171
100
AcDbEntity
  8
LC-001-100-D00-0
 62
     7
370
    50
100
AcDbLine
 10
-24.459279
 20
206.011654
 30
0.0
 11
-23.297729
 21
206.011654
 31
0.0
  0
LINE
  5
18A
330
171
100
AcDbEntity
  8
LC-001-100-D00-0
 62
     7
370
    50
100
AcDbLine
 10
-23.297729
 20
206.011654
 30
0.0
 11
-23.297729
 21
206.011654
 31
0.0
  0
LINE
  5
18B
330
171
100
AcDbEntity
  8
LC-001-100-D00-0
 62
     7
370
    50
100
AcDbLine
 10
-23.297729
 20
206.011654
 30
0.0
 11
-22.175443
 21
206.011654
 31
0.0
  0
LINE
  5
18C
330
171
100
AcDbEntity
  8
LC-001-100-D00-0
 62
     7
370
    50
100
AcDbLine
 10
-22.175443
 20
206.011654
 30
0.0
 11
-22.175443
 21
206.011654
 31
0.0
  0
LINE
  5
18D
330
171
100
AcDbEntity
  8
LC-001-100-D00-0
 62
     7
370
    50
100
AcDbLine
 10
-22.175443
 20
206.011654
 30
0.0
 11
-21.990506
 21
206.011654
 31
0.0
  0
LINE
  5
18E
330
171
100
AcDbEntity
  8
LC-001-100-D00-0
 62
     7
370
    50
100
AcDbLine
 10
-21.990506
 20
206.011654
 30
0.0
 11
-21.990506
 21
206.011654
 31
0.0
  0
LINE
  5
18F
330
171
100
AcDbEntity
  8
LC-001-100-D00-0
 62
     7
370
    50
100
AcDbLine
 10
-21.990506
 20
206.011654
 30
0.0
 11
-21.870286
 21
206.011654
 31
0.0
  0
ENDBLK
  5
173
330
171
100
AcDbEntity
  8
0
100
AcDbBlockEnd
  0
BLOCK
  5
20C
330
20B
100
AcDbEntity
  8
0
100
AcDbBlockBegin
  2
POLY3
 70
     0
 10
0.0
 20
0.0
 30
0.0
  3
POLY3
  1
POLY3
  4
POLY3
  0
LINE
  5
20E
330
20B
100
AcDbEntity
  8
LC-001-100-D00-0
 62
     7
370
    50
100
AcDbLine
 10
233.588464
 20
292.085042
 30
0.0
 11
233.588464
 21
292.085042
 31
0.0
  0
LINE
  5
20F
330
20B
100
AcDbEntity
  8
LC-001-100-D00-0
 62
     7
370
    50
100
AcDbLine
 10
233.588464
 20
292.085042
 30
0.0
 11
233.973607
 21
292.756416
 31
0.0
  0
LINE
  5
210
330
20B
100
AcDbEntity
  8
LC-001-100-D00-0
 62
     7
370
    50
100
AcDbLine
 10
233.973607
 20
292.756416
 30
0.0
 11
233.973607
 21
292.756416
 31
0.0
  0
LINE
  5
211
330
20B
100
AcDbEntity
  8
LC-001-100-D00-0
 62
     7
370
    50
100
AcDbLine
 10
233.973607
 20
292.756416
 30
0.0
 11
235.80893
 21
295.955723
 31
0.0
  0
LINE
  5
212
330
20B
100
AcDbEntity
  8
LC-001-100-D00-0
 62
     7
370
    50
100
AcDbLine
 10
235.80893
 20
295.955723
 30
0.0
 11
235.80893
 21
295.955723
 31
0.0
  0
LINE
  5
213
330
20B
100
AcDbEntity
  8
LC-001-100-D00-0
 62
     7
370
    50
100
AcDbLine
 10
235.80893
 20
295.955723
 30
0.0
 11
237.649161
 21
299.15221
 31
0.0
  0
LINE
  5
214
330
20B
100
AcDbEntity
  8
LC-001-100-D00-0
 62
     7
370
    50
100
AcDbLine
 10
237.649161
 20
299.15221
 30
0.0
 11
237.649161
 21
299.15221
 31
0.0
  0
LINE
  5
215
330
20B
100
AcDbEntity
  8
LC-001-100-D00-0
 62
     7
370
    50
100
AcDbLine
 10
237.649161
 20
299.15221
 30
0.0
 11
239.103219
 21
301.677914
 31
0.0
  0
ENDBLK
  5
20D
330
20B
100
AcDbEntity
  8
0
100
AcDbBlockEnd
  0
BLOCK
  5
231
330
230
100
AcDbEntity
  8
0
100
AcDbBlockBegin
  2
POLY4
 70
     0
 10
0.0
 20
0.0
 30
0.0
  3
POLY4
  1
POLY4
  4
POLY4
  0
LINE
  5
233
330
230
100
AcDbEntity
  8
LC-001-100-D00-0
 62
     7
370
    50
100
AcDbLine
 10
240.810863
 20
255.90206
 30
0.0
 11
240.810863
 21
255.90206
 31
0.0
  0
LINE
  5
234
330
230
100
AcDbEntity
  8
LC-001-100-D00-0
 62
     7
370
    50
100
AcDbLine
 10
240.810863
 20
255.90206
 30
0.0
 11
240.739869
 21
256.110911
 31
0.0
  0
LINE
  5
235
330
230
100
AcDbEntity
  8
LC-001-100-D00-0
 62
     7
370
    50
100
AcDbLine
 10
240.739869
 20
256.110911
 30
0.0
 11
240.739869
 21
256.110911
 31
0.0
  0
LINE
  5
236
330
230
100
AcDbEntity
  8
LC-001-100-D00-0
 62
     7
370
    50
100
AcDbLine
 10
240.739869
 20
256.110911
 30
0.0
 11
240.595851
 21
256.534585
 31
0.0
  0
LINE
  5
237
330
230
100
AcDbEntity
  8
LC-001-100-D00-0
 62
     7
370
    50
100
AcDbLine
 10
240.595851
 20
256.534585
 30
0.0
 11
240.595851
 21
256.534585
 31
0.0
  0
LINE
  5
238
330
230
100
AcDbEntity
  8
LC-001-100-D00-0
 62
     7
370
    50
100
AcDbLine
 10
240.595851
 20
256.534585
 30
0.0
 11
240.312024
 21
257.719544
 31
0.0
  0
LINE
  5
239
330
230
100
AcDbEntity
  8
LC-001-100-D00-0
 62
     7
370
    50
100
AcDbLine
 10
240.312024
 20
257.719544
 30
0.0
 11
240.312024
 21
257.719544
 31
0.0
  0
LINE
  5
23A
330
230
100
AcDbEntity
  8
LC-001-100-D00-0
 62
     7
370
    50
100
AcDbLine
 10
240.312024
 20
257.719544
 30
0.0
 11
239.979502
 21
259.28716
 31
0.0
  0
LINE
  5
23B
330
230
100
AcDbEntity
  8
LC-001-100-D00-0
 62
     7
370
    50
100
AcDbLine
 10
239.979502
 20
259.28716
 30
0.0
 11
239.979502
 21
259.28716
 31
0.0
  0
LINE
  5
23C
330
230
100
AcDbEntity
  8
LC-001-100-D00-0
 62
     7
370
    50
100
AcDbLine
 10
239.979502
 20
259.28716
 30
0.0
 11
239.602919
 21
261.214161
 31
0.0
  0
LINE
  5
23D
330
230
100
AcDbEntity
  8
LC-001-100-D00-0
 62
     7
370
    50
100
AcDbLine
 10
239.602919
 20
261.214161
 30
0.0
 11
239.602919
 21
261.214161
 31
0.0
  0
LINE
  5
23E
330
230
100
AcDbEntity
  8
LC-001-100-D00-0
 62
     7
370
    50
100
AcDbLine
 10
239.602919
 20
261.214161
 30
0.0
 11
239.183796
 21
263.467975
 31
0.0
  0
LINE
  5
23F
330
230
100
AcDbEntity
  8
LC-001-100-D00-0
 62
     7
370
    50
100
AcDbLine
 10
239.183796
 20
263.467975
 30
0.0
 11
239.183796
 21
263.467975
 31
0.0
  0
LINE
  5
240
330
230
100
AcDbEntity
  8
LC-001-100-D00-0
 62
     7
370
    50
100
AcDbLine
 10
239.183796
 20
263.467975
 30
0.0
 11
238.735073
 21
265.958811
 31
0.0
  0
LINE
  5
241
330
230
100
AcDbEntity
  8
LC-001-100-D00-0
 62
     7
370
    50
100
AcDbLine
 10
238.735073
 20
265.958811
 30
0.0
 11
238.735073
 21
265.958811
 31
0.0
  0
LINE
  5
242
330
230
100
AcDbEntity
  8
LC-001-100-D00-0
 62
     7
370
    50
100
AcDbLine
 10
238.735073
 20
265.958811
 30
0.0
 11
238.259057
 21
268.654746
 31
0.0
  0
LINE
  5
243
330
230
100
AcDbEntity
  8
LC-001-100-D00-0
 62
     7
370
    50
100
AcDbLine
 10
238.259057
 20
268.654746
 30
0.0
 11
238.259057
 21
268.654746
 31
0.0
  0
LINE
  5
244
330
230
100
AcDbEntity
  8
LC-001-100-D00-0
 62
     7
370
    50
100
AcDbLine
 10
238.259057
 20
268.654746
 30
0.0
 11
237.773829
 21
271.440238
 31
0.0
  0
LINE
  5
245
330
230
100
AcDbEntity
  8
LC-001-100-D00-0
 62
     7
370
    50
100
AcDbLine
 10
237.773829
 20
271.440238
 30
0.0
 11
237.773829
 21
271.440238
 31
0.0
  0
LINE
  5
246
330
230
100
AcDbEntity
  8
LC-001-100-D00-0
 62
     7
370
    50
100
AcDbLine
 10
237.773829
 20
271.440238
 30
0.0
 11
237.285155
 21
274.278487
 31
0.0
  0
LINE
  5
247
330
230
100
AcDbEntity
  8
LC-001-100-D00-0
 62
     7
370
    50
100
AcDbLine
 10
237.285155
 20
274.278487
 30
0.0
 11
237.285155
 21
274.278487
 31
0.0
  0
LINE
  5
248
330
230
100
AcDbEntity
  8
LC-001-100-D00-0
 62
     7
370
    50
100
AcDbLine
 10
237.285155
 20
274.278487
 30
0.0
 11
236.817349
 21
277.037497
 31
0.0
  0
LINE
  5
249
330
230
100
AcDbEntity
  8
LC-001-100-D00-0
 62
     7
370
    50
100
AcDbLine
 10
236.817349
 20
277.037497
 30
0.0
 11
236.817349
 21
277.037497
 31
0.0
  0
LINE
  5
24A
330
230
100
AcDbEntity
  8
LC-001-100-D00-0
 62
     7
370
    50
100
AcDbLine
 10
236.817349
 20
277.037497
 30
0.0
 11
236.380951
 21
279.682751
 31
0.0
  0
LINE
  5
24B
330
230
100
AcDbEntity
  8
LC-001-100-D00-0
 62
     7
370
    50
100
AcDbLine
 10
236.380951
 20
279.682751
 30
0.0
 11
236.380951
 21
279.682751
 31
0.0
  0
LINE
  5
24C
330
230
100
AcDbEntity
  8
LC-001-100-D00-0
 62
     7
370
    50
100
AcDbLine
 10
236.380951
 20
279.682751
 30
0.0
 11
236.006031
 21
282.077621
 31
0.0
  0
LINE
  5
24D
330
230
100
AcDbEntity
  8
LC-001-100-D00-0
 62
     7
370
    50
100
AcDbLine
 10
236.006031
 20
282.077621
 30
0.0
 11
236.006031
 21
282.077621
 31
0.0
  0
LINE
  5
24E
330
230
100
AcDbEntity
  8
LC-001-100-D00-0
 62
     7
370
    50
100
AcDbLine
 10
236.006031
 20
282.077621
 30
0.0
 11
235.705521
 21
284.20256
 31
0.0
  0
LINE
  5
24F
330
230
100
AcDbEntity
  8
LC-001-100-D00-0
 62
     7
370
    50
100
AcDbLine
 10
235.705521
 20
284.20256
 30
0.0
 11
235.705521
 21
284.20256
 31
0.0
  0
LINE
  5
250
330
230
100
AcDbEntity
  8
LC-001-100-D00-0
 62
     7
370
    50
100
AcDbLine
 10
235.705521
 20
284.20256
 30
0.0
 11
235.489193
 21
286.097788
 31
0.0
  0
LINE
  5
251
330
230
100
AcDbEntity
  8
LC-001-100-D00-0
 62
     7
370
    50
100
AcDbLine
 10
235.489193
 20
286.097788
 30
0.0
 11
235.489193
 21
286.097788
 31
0.0
  0
LINE
  5
252
330
230
100
AcDbEntity
  8
LC-001-100-D00-0
 62
     7
370
    50
100
AcDbLine
 10
235.489193
 20
286.097788
 30
0.0
 11
235.401334
 21
287.527278
 31
0.0
  0
LINE
  5
253
330
230
100
AcDbEntity
  8
LC-001-100-D00-0
 62
     7
370
    50
100
AcDbLine
 10
235.401334
 20
287.527278
 30
0.0
 11
235.401334
 21
287.527278
 31
0.0
  0
LINE
  5
254
330
230
100
AcDbEntity
  8
LC-001-100-D00-0
 62
     7
370
    50
100
AcDbLine
 10
235.401334
 20
287.527278
 30
0.0
 11
235.458984
 21
288.05186
 31
0.0
  0
LINE
  5
255
330
230
100
AcDbEntity
  8
LC-001-100-D00-0
 62
     7
370
    50
100
AcDbLine
 10
235.458984
 20
288.05186
 30
0.0
 11
235.458984
 21
288.05186
 31
0.0
  0
LINE
  5
256
330
230
100
AcDbEntity
  8
LC-001-100-D00-0
 62
     7
370
    50
100
AcDbLine
 10
235.458984
 20
288.05186
 30
0.0
 11
235.483862
 21
288.278227
 31
0.0
  0
ENDBLK
  5
232
330
230
100
AcDbEntity
  8
0
100
AcDbBlockEnd
  0
BLOCK
  5
259
330
258
100
AcDbEntity
  8
0
100
AcDbBlockBegin
  2
POLY5
 70
     0
 10
0.0
 20
0.0
 30
0.0
  3
POLY5
  1
POLY5
  4
POLY5
  0
LINE
  5
25B
330
258
100
AcDbEntity
  8
LC-001-100-D00-0
 62
     7
370
    50
100
AcDbLine
 10
235.580928
 20
288.488088
 30
0.0
 11
235.580928
 21
288.488088
 31
0.0
  0
LINE
  5
25C
330
258
100
AcDbEntity
  8
LC-001-100-D00-0
 62
     7
370
    50
100
AcDbLine
 10
235.580928
 20
288.488088
 30
0.0
 11
235.599491
 21
288.544626
 31
0.0
  0
LINE
  5
25D
330
258
100
AcDbEntity
  8
LC-001-100-D00-0
 62
     7
370
    50
100
AcDbLine
 10
235.599491
 20
288.544626
 30
0.0
 11
235.599491
 21
288.544626
 31
0.0
  0
LINE
  5
25E
330
258
100
AcDbEntity
  8
LC-001-100-D00-0
 62
     7
370
    50
100
AcDbLine
 10
235.599491
 20
288.544626
 30
0.0
 11
235.630955
 21
288.640462
 31
0.0
  0
LINE
  5
25F
330
258
100
AcDbEntity
  8
LC-001-100-D00-0
 62
     7
370
    50
100
AcDbLine
 10
235.630955
 20
288.640462
 30
0.0
 11
235.630955
 21
288.640462
 31
0.0
  0
LINE
  5
260
330
258
100
AcDbEntity
  8
LC-001-100-D00-0
 62
     7
370
    50
100
AcDbLine
 10
235.630955
 20
288.640462
 30
0.0
 11
235.683348
 21
288.640159
 31
0.0
  0
LINE
  5
261
330
258
100
AcDbEntity
  8
LC-001-100-D00-0
 62
     7
370
    50
100
AcDbLine
 10
235.683348
 20
288.640159
 30
0.0
 11
235.683348
 21
288.640159
 31
0.0
  0
LINE
  5
262
330
258
100
AcDbEntity
  8
LC-001-100-D00-0
 62
     7
370
    50
100
AcDbLine
 10
235.683348
 20
288.640159
 30
0.0
 11
235.704831
 21
288.640035
 31
0.0
  0
ENDBLK
  5
25A
330
258
100
AcDbEntity
  8
0
100
AcDbBlockEnd
  0
BLOCK
  5
296
330
295
100
AcDbEntity
  8
0
100
AcDbBlockBegin
  2
KLON9
 70
     0
 10
0.0
 20
0.0
 30
0.0
  3
KLON9
  1
KLON9
  4
KLON9
  0
LINE
  5
298
330
295
100
AcDbEntity
  8
LC-001-100-D00-0
 62
     7
370
    15
100
AcDbLine
 10
106.910794
 20
307.585043
 30
0.0
 11
102.756246
 21
299.981118
 31
0.0
  0
LINE
  5
299
330
295
100
AcDbEntity
  8
LC-001-100-D00-0
 62
     7
370
    15
100
AcDbLine
 10
102.756246
 20
299.981118
 30
0.0
 11
101.993068
 21
298.58504
 31
0.0
  0
ENDBLK
  5
297
330
295
100
AcDbEntity
  8
0
100
AcDbBlockEnd
  0
BLOCK
  5
29C
330
29B
100
AcDbEntity
  8
0
100
AcDbBlockBegin
  2
POLY6
 70
     0
 10
0.0
 20
0.0
 30
0.0
  3
POLY6
  1
POLY6
  4
POLY6
  0
LINE
  5
29E
330
29B
100
AcDbEntity
  8
LC-001-100-D00-0
 62
     7
370
    50
100
AcDbLine
 10
36.26636
 20
298.58504
 30
0.0
 11
36.26636
 21
298.58504
 31
0.0
  0
LINE
  5
29F
330
29B
100
AcDbEntity
  8
LC-001-100-D00-0
 62
     7
370
    50
100
AcDbLine
 10
36.26636
 20
298.58504
 30
0.0
 11
36.011963
 21
299.05039
 31
0.0
  0
LINE
  5
2A0
330
29B
100
AcDbEntity
  8
LC-001-100-D00-0
 62
     7
370
    50
100
AcDbLine
 10
36.011963
 20
299.05039
 30
0.0
 11
36.011963
 21
299.05039
 31
0.0
  0
LINE
  5
2A1
330
29B
100
AcDbEntity
  8
LC-001-100-D00-0
 62
     7
370
    50
100
AcDbLine
 10
36.011963
 20
299.05039
 30
0.0
 11
34.37211
 21
302.050057
 31
0.0
  0
LINE
  5
2A2
330
29B
100
AcDbEntity
  8
LC-001-100-D00-0
 62
     7
370
    50
100
AcDbLine
 10
34.37211
 20
302.050057
 30
0.0
 11
34.37211
 21
302.050057
 31
0.0
  0
LINE
  5
2A3
330
29B
100
AcDbEntity
  8
LC-001-100-D00-0
 62
     7
370
    50
100
AcDbLine
 10
34.37211
 20
302.050057
 30
0.0
 11
32.73325
 21
305.050267
 31
0.0
  0
LINE
  5
2A4
330
29B
100
AcDbEntity
  8
LC-001-100-D00-0
 62
     7
370
    50
100
AcDbLine
 10
32.73325
 20
305.050267
 30
0.0
 11
32.73325
 21
305.050267
 31
0.0
  0
LINE
  5
2A5
330
29B
100
AcDbEntity
  8
LC-001-100-D00-0
 62
     7
370
    50
100
AcDbLine
 10
32.73325
 20
305.050267
 30
0.0
 11
31.348634
 21
307.585043
 31
0.0
  0
ENDBLK
  5
29D
330
29B
100
AcDbEntity
  8
0
100
AcDbBlockEnd
  0
BLOCK
  5
2DC
330
2DB
100
AcDbEntity
  8
0
100
AcDbBlockBegin
  2
POLY7
 70
     0
 10
0.0
 20
0.0
 30
0.0
  3
POLY7
  1
POLY7
  4
POLY7
  0
LINE
  5
2DE
330
2DB
100
AcDbEntity
  8
LC-001-100-D00-0
 62
     7
370
    50
100
AcDbLine
 10
69.154046
 20
351.38504
 30
0.0
 11
69.154046
 21
351.38504
 31
0.0
  0
LINE
  5
2DF
330
2DB
100
AcDbEntity
  8
LC-001-100-D00-0
 62
     7
370
    50
100
AcDbLine
 10
69.154046
 20
351.38504
 30
0.0
 11
69.300128
 21
351.38504
 31
0.0
  0
LINE
  5
2E0
330
2DB
100
AcDbEntity
  8
LC-001-100-D00-0
 62
     7
370
    50
100
AcDbLine
 10
69.300128
 20
351.38504
 30
0.0
 11
69.300128
 21
351.38504
 31
0.0
  0
LINE
  5
2E1
330
2DB
100
AcDbEntity
  8
LC-001-100-D00-0
 62
     7
370
    50
100
AcDbLine
 10
69.300128
 20
351.38504
 30
0.0
 11
69.503578
 21
351.38504
 31
0.0
  0
LINE
  5
2E2
330
2DB
100
AcDbEntity
  8
LC-001-100-D00-0
 62
     7
370
    50
100
AcDbLine
 10
69.503578
 20
351.38504
 30
0.0
 11
69.503578
 21
351.38504
 31
0.0
  0
LINE
  5
2E3
330
2DB
100
AcDbEntity
  8
LC-001-100-D00-0
 62
     7
370
    50
100
AcDbLine
 10
69.503578
 20
351.38504
 30
0.0
 11
69.684634
 21
351.38504
 31
0.0
  0
LINE
  5
2E4
330
2DB
100
AcDbEntity
  8
LC-001-100-D00-0
 62
     7
370
    50
100
AcDbLine
 10
69.684634
 20
351.38504
 30
0.0
 11
69.684634
 21
351.38504
 31
0.0
  0
LINE
  5
2E5
330
2DB
100
AcDbEntity
  8
LC-001-100-D00-0
 62
     7
370
    50
100
AcDbLine
 10
69.684634
 20
351.38504
 30
0.0
 11
69.703585
 21
351.38504
 31
0.0
  0
LINE
  5
2E6
330
2DB
100
AcDbEntity
  8
LC-001-100-D00-0
 62
     7
370
    50
100
AcDbLine
 10
69.703585
 20
351.38504
 30
0.0
 11
69.703585
 21
351.38504
 31
0.0
  0
LINE
  5
2E7
330
2DB
100
AcDbEntity
  8
LC-001-100-D00-0
 62
     7
370
    50
100
AcDbLine
 10
69.703585
 20
351.38504
 30
0.0
 11
69.713048
 21
351.38504
 31
0.0
  0
ENDBLK
  5
2DD
330
2DB
100
AcDbEntity
  8
0
100
AcDbBlockEnd
  0
BLOCK
  5
3FC
330
3FB
100
AcDbEntity
  8
0
100
AcDbBlockBegin
  2
POLY8
 70
     0
 10
0.0
 20
0.0
 30
0.0
  3
POLY8
  1
POLY8
  4
POLY8
  0
LINE
  5
3FE
330
3FB
100
AcDbEntity
  8
LC-001-100-D00-0
 62
     7
370
    50
100
AcDbLine
 10
122.483461
 20
260.08504
 30
0.0
 11
122.483461
 21
260.08504
 31
0.0
  0
LINE
  5
3FF
330
3FB
100
AcDbEntity
  8
LC-001-100-D00-0
 62
     7
370
    50
100
AcDbLine
 10
122.483461
 20
260.08504
 30
0.0
 11
122.306777
 21
260.914429
 31
0.0
  0
LINE
  5
400
330
3FB
100
AcDbEntity
  8
LC-001-100-D00-0
 62
     7
370
    50
100
AcDbLine
 10
122.306777
 20
260.914429
 30
0.0
 11
122.306777
 21
260.914429
 31
0.0
  0
LINE
  5
401
330
3FB
100
AcDbEntity
  8
LC-001-100-D00-0
 62
     7
370
    50
100
AcDbLine
 10
122.306777
 20
260.914429
 30
0.0
 11
121.948496
 21
262.59627
 31
0.0
  0
LINE
  5
402
330
3FB
100
AcDbEntity
  8
LC-001-100-D00-0
 62
     7
370
    50
100
AcDbLine
 10
121.948496
 20
262.59627
 30
0.0
 11
121.948496
 21
262.59627
 31
0.0
  0
LINE
  5
403
330
3FB
100
AcDbEntity
  8
LC-001-100-D00-0
 62
     7
370
    50
100
AcDbLine
 10
121.948496
 20
262.59627
 30
0.0
 11
121.509285
 21
265.465761
 31
0.0
  0
LINE
  5
404
330
3FB
100
AcDbEntity
  8
LC-001-100-D00-0
 62
     7
370
    50
100
AcDbLine
 10
121.509285
 20
265.465761
 30
0.0
 11
121.509285
 21
265.465761
 31
0.0
  0
LINE
  5
405
330
3FB
100
AcDbEntity
  8
LC-001-100-D00-0
 62
     7
370
    50
100
AcDbLine
 10
121.509285
 20
265.465761
 30
0.0
 11
121.205607
 21
268.540396
 31
0.0
  0
LINE
  5
406
330
3FB
100
AcDbEntity
  8
LC-001-100-D00-0
 62
     7
370
    50
100
AcDbLine
 10
121.205607
 20
268.540396
 30
0.0
 11
121.205607
 21
268.540396
 31
0.0
  0
LINE
  5
407
330
3FB
100
AcDbEntity
  8
LC-001-100-D00-0
 62
     7
370
    50
100
AcDbLine
 10
121.205607
 20
268.540396
 30
0.0
 11
121.0865
 21
271.665966
 31
0.0
  0
LINE
  5
408
330
3FB
100
AcDbEntity
  8
LC-001-100-D00-0
 62
     7
370
    50
100
AcDbLine
 10
121.0865
 20
271.665966
 30
0.0
 11
121.0865
 21
271.665966
 31
0.0
  0
LINE
  5
409
330
3FB
100
AcDbEntity
  8
LC-001-100-D00-0
 62
     7
370
    50
100
AcDbLine
 10
121.0865
 20
271.665966
 30
0.0
 11
121.157175
 21
274.788384
 31
0.0
  0
LINE
  5
40A
330
3FB
100
AcDbEntity
  8
LC-001-100-D00-0
 62
     7
370
    50
100
AcDbLine
 10
121.157175
 20
274.788384
 30
0.0
 11
121.157175
 21
274.788384
 31
0.0
  0
LINE
  5
40B
330
3FB
100
AcDbEntity
  8
LC-001-100-D00-0
 62
     7
370
    50
100
AcDbLine
 10
121.157175
 20
274.788384
 30
0.0
 11
121.39809
 21
277.754851
 31
0.0
  0
LINE
  5
40C
330
3FB
100
AcDbEntity
  8
LC-001-100-D00-0
 62
     7
370
    50
100
AcDbLine
 10
121.39809
 20
277.754851
 30
0.0
 11
121.39809
 21
277.754851
 31
0.0
  0
LINE
  5
40D
330
3FB
100
AcDbEntity
  8
LC-001-100-D00-0
 62
     7
370
    50
100
AcDbLine
 10
121.39809
 20
277.754851
 30
0.0
 11
121.7835
 21
280.580282
 31
0.0
  0
LINE
  5
40E
330
3FB
100
AcDbEntity
  8
LC-001-100-D00-0
 62
     7
370
    50
100
AcDbLine
 10
121.7835
 20
280.580282
 30
0.0
 11
121.7835
 21
280.580282
 31
0.0
  0
LINE
  5
40F
330
3FB
100
AcDbEntity
  8
LC-001-100-D00-0
 62
     7
370
    50
100
AcDbLine
 10
121.7835
 20
280.580282
 30
0.0
 11
122.316715
 21
283.437647
 31
0.0
  0
LINE
  5
410
330
3FB
100
AcDbEntity
  8
LC-001-100-D00-0
 62
     7
370
    50
100
AcDbLine
 10
122.316715
 20
283.437647
 30
0.0
 11
122.316715
 21
283.437647
 31
0.0
  0
LINE
  5
411
330
3FB
100
AcDbEntity
  8
LC-001-100-D00-0
 62
     7
370
    50
100
AcDbLine
 10
122.316715
 20
283.437647
 30
0.0
 11
122.923477
 21
285.974041
 31
0.0
  0
LINE
  5
412
330
3FB
100
AcDbEntity
  8
LC-001-100-D00-0
 62
     7
370
    50
100
AcDbLine
 10
122.923477
 20
285.974041
 30
0.0
 11
122.923477
 21
285.974041
 31
0.0
  0
LINE
  5
413
330
3FB
100
AcDbEntity
  8
LC-001-100-D00-0
 62
     7
370
    50
100
AcDbLine
 10
122.923477
 20
285.974041
 30
0.0
 11
123.513429
 21
288.081167
 31
0.0
  0
LINE
  5
414
330
3FB
100
AcDbEntity
  8
LC-001-100-D00-0
 62
     7
370
    50
100
AcDbLine
 10
123.513429
 20
288.081167
 30
0.0
 11
123.513429
 21
288.081167
 31
0.0
  0
LINE
  5
415
330
3FB
100
AcDbEntity
  8
LC-001-100-D00-0
 62
     7
370
    50
100
AcDbLine
 10
123.513429
 20
288.081167
 30
0.0
 11
123.978674
 21
289.585136
 31
0.0
  0
LINE
  5
416
330
3FB
100
AcDbEntity
  8
LC-001-100-D00-0
 62
     7
370
    50
100
AcDbLine
 10
123.978674
 20
289.585136
 30
0.0
 11
123.978674
 21
289.585136
 31
0.0
  0
LINE
  5
417
330
3FB
100
AcDbEntity
  8
LC-001-100-D00-0
 62
     7
370
    50
100
AcDbLine
 10
123.978674
 20
289.585136
 30
0.0
 11
124.317965
 21
290.613091
 31
0.0
  0
LINE
  5
418
330
3FB
100
AcDbEntity
  8
LC-001-100-D00-0
 62
     7
370
    50
100
AcDbLine
 10
124.317965
 20
290.613091
 30
0.0
 11
124.317965
 21
290.613091
 31
0.0
  0
LINE
  5
419
330
3FB
100
AcDbEntity
  8
LC-001-100-D00-0
 62
     7
370
    50
100
AcDbLine
 10
124.317965
 20
290.613091
 30
0.0
 11
124.464436
 21
291.040495
 31
0.0
  0
LINE
  5
41A
330
3FB
100
AcDbEntity
  8
LC-001-100-D00-0
 62
     7
370
    50
100
AcDbLine
 10
124.464436
 20
291.040495
 30
0.0
 11
124.464436
 21
291.040495
 31
0.0
  0
LINE
  5
41B
330
3FB
100
AcDbEntity
  8
LC-001-100-D00-0
 62
     7
370
    50
100
AcDbLine
 10
124.464436
 20
291.040495
 30
0.0
 11
124.476209
 21
291.074813
 31
0.0
  0
LINE
  5
41C
330
3FB
100
AcDbEntity
  8
LC-001-100-D00-0
 62
     7
370
    50
100
AcDbLine
 10
124.476209
 20
291.074813
 30
0.0
 11
124.476209
 21
291.074813
 31
0.0
  0
LINE
  5
41D
330
3FB
100
AcDbEntity
  8
LC-001-100-D00-0
 62
     7
370
    50
100
AcDbLine
 10
124.476209
 20
291.074813
 30
0.0
 11
124.479718
 21
291.08504
 31
0.0
  0
ENDBLK
  5
3FD
330
3FB
100
AcDbEntity
  8
0
100
AcDbBlockEnd
  0
BLOCK
  5
420
330
41F
100
AcDbEntity
  8
0
100
AcDbBlockBegin
  2
POLY9
 70
     0
 10
0.0
 20
0.0
 30
0.0
  3
POLY9
  1
POLY9
  4
POLY9
  0
LINE
  5
422
330
41F
100
AcDbEntity
  8
LC-001-100-D00-0
 62
     7
370
    50
100
AcDbLine
 10
117.479711
 20
253.085041
 30
0.0
 11
117.479711
 21
253.085041
 31
0.0
  0
LINE
  5
423
330
41F
100
AcDbEntity
  8
LC-001-100-D00-0
 62
     7
370
    50
100
AcDbLine
 10
117.479711
 20
253.085041
 30
0.0
 11
117.48448
 21
253.085044
 31
0.0
  0
LINE
  5
424
330
41F
100
AcDbEntity
  8
LC-001-100-D00-0
 62
     7
370
    50
100
AcDbLine
 10
117.48448
 20
253.085044
 30
0.0
 11
117.48448
 21
253.085044
 31
0.0
  0
LINE
  5
425
330
41F
100
AcDbEntity
  8
LC-001-100-D00-0
 62
     7
370
    50
100
AcDbLine
 10
117.48448
 20
253.085044
 30
0.0
 11
118.0963
 21
253.085472
 31
0.0
  0
LINE
  5
426
330
41F
100
AcDbEntity
  8
LC-001-100-D00-0
 62
     7
370
    50
100
AcDbLine
 10
118.0963
 20
253.085472
 30
0.0
 11
118.0963
 21
253.085472
 31
0.0
  0
LINE
  5
427
330
41F
100
AcDbEntity
  8
LC-001-100-D00-0
 62
     7
370
    50
100
AcDbLine
 10
118.0963
 20
253.085472
 30
0.0
 11
119.285722
 21
253.248777
 31
0.0
  0
LINE
  5
428
330
41F
100
AcDbEntity
  8
LC-001-100-D00-0
 62
     7
370
    50
100
AcDbLine
 10
119.285722
 20
253.248777
 30
0.0
 11
119.285722
 21
253.248777
 31
0.0
  0
LINE
  5
429
330
41F
100
AcDbEntity
  8
LC-001-100-D00-0
 62
     7
370
    50
100
AcDbLine
 10
119.285722
 20
253.248777
 30
0.0
 11
120.688663
 21
253.951144
 31
0.0
  0
LINE
  5
42A
330
41F
100
AcDbEntity
  8
LC-001-100-D00-0
 62
     7
370
    50
100
AcDbLine
 10
120.688663
 20
253.951144
 30
0.0
 11
120.688663
 21
253.951144
 31
0.0
  0
LINE
  5
42B
330
41F
100
AcDbEntity
  8
LC-001-100-D00-0
 62
     7
370
    50
100
AcDbLine
 10
120.688663
 20
253.951144
 30
0.0
 11
121.711985
 21
254.99678
 31
0.0
  0
LINE
  5
42C
330
41F
100
AcDbEntity
  8
LC-001-100-D00-0
 62
     7
370
    50
100
AcDbLine
 10
121.711985
 20
254.99678
 30
0.0
 11
121.711985
 21
254.99678
 31
0.0
  0
LINE
  5
42D
330
41F
100
AcDbEntity
  8
LC-001-100-D00-0
 62
     7
370
    50
100
AcDbLine
 10
121.711985
 20
254.99678
 30
0.0
 11
122.330692
 21
256.146885
 31
0.0
  0
LINE
  5
42E
330
41F
100
AcDbEntity
  8
LC-001-100-D00-0
 62
     7
370
    50
100
AcDbLine
 10
122.330692
 20
256.146885
 30
0.0
 11
122.330692
 21
256.146885
 31
0.0
  0
LINE
  5
42F
330
41F
100
AcDbEntity
  8
LC-001-100-D00-0
 62
     7
370
    50
100
AcDbLine
 10
122.330692
 20
256.146885
 30
0.0
 11
122.654848
 21
257.471297
 31
0.0
  0
LINE
  5
430
330
41F
100
AcDbEntity
  8
LC-001-100-D00-0
 62
     7
370
    50
100
AcDbLine
 10
122.654848
 20
257.471297
 30
0.0
 11
122.654848
 21
257.471297
 31
0.0
  0
LINE
  5
431
330
41F
100
AcDbEntity
  8
LC-001-100-D00-0
 62
     7
370
    50
100
AcDbLine
 10
122.654848
 20
257.471297
 30
0.0
 11
122.718066
 21
258.764787
 31
0.0
  0
LINE
  5
432
330
41F
100
AcDbEntity
  8
LC-001-100-D00-0
 62
     7
370
    50
100
AcDbLine
 10
122.718066
 20
258.764787
 30
0.0
 11
122.718066
 21
258.764787
 31
0.0
  0
LINE
  5
433
330
41F
100
AcDbEntity
  8
LC-001-100-D00-0
 62
     7
370
    50
100
AcDbLine
 10
122.718066
 20
258.764787
 30
0.0
 11
122.554391
 21
259.685877
 31
0.0
  0
LINE
  5
434
330
41F
100
AcDbEntity
  8
LC-001-100-D00-0
 62
     7
370
    50
100
AcDbLine
 10
122.554391
 20
259.685877
 30
0.0
 11
122.554391
 21
259.685877
 31
0.0
  0
LINE
  5
435
330
41F
100
AcDbEntity
  8
LC-001-100-D00-0
 62
     7
370
    50
100
AcDbLine
 10
122.554391
 20
259.685877
 30
0.0
 11
122.483461
 21
260.08504
 31
0.0
  0
ENDBLK
  5
421
330
41F
100
AcDbEntity
  8
0
100
AcDbBlockEnd
  0
BLOCK
  5
49B
330
49A
100
AcDbEntity
  8
0
100
AcDbBlockBegin
  2
KLON10
 70
     0
 10
0.0
 20
0.0
 30
0.0
  3
KLON10
  1
KLON10
  4
KLON10
  0
LINE
  5
49D
330
49A
100
AcDbEntity
  8
LC-001-100-D00-0
 62
     7
370
    25
100
AcDbLine
 10
-45.661285
 20
290.585041
 30
0.0
 11
-57.531722
 21
302.455478
 31
0.0
  0
LINE
  5
49E
330
49A
100
AcDbEntity
  8
LC-001-100-D00-0
 62
     7
370
    25
100
AcDbLine
 10
-36.681029
 20
290.585041
 30
0.0
 11
-56.95668
 21
310.860692
 31
0.0
  0
LINE
  5
49F
330
49A
100
AcDbEntity
  8
LC-001-100-D00-0
 62
     7
370
    25
100
AcDbLine
 10
-27.700773
 20
290.585041
 30
0.0
 11
-55.058928
 21
317.943196
 31
0.0
  0
LINE
  5
4A0
330
49A
100
AcDbEntity
  8
LC-001-100-D00-0
 62
     7
370
    25
100
AcDbLine
 10
-18.720517
 20
290.585041
 30
0.0
 11
-48.720517
 21
320.585041
 31
0.0
  0
LINE
  5
4A1
330
49A
100
AcDbEntity
  8
LC-001-100-D00-0
 62
     7
370
    25
100
AcDbLine
 10
-9.74026
 20
290.585041
 30
0.0
 11
-39.74026
 21
320.585041
 31
0.0
  0
LINE
  5
4A2
330
49A
100
AcDbEntity
  8
LC-001-100-D00-0
 62
     7
370
    25
100
AcDbLine
 10
-0.760004
 20
290.585041
 30
0.0
 11
-30.760004
 21
320.585041
 31
0.0
  0
LINE
  5
4A3
330
49A
100
AcDbEntity
  8
LC-001-100-D00-0
 62
     7
370
    25
100
AcDbLine
 10
8.220252
 20
290.585041
 30
0.0
 11
-21.779748
 21
320.585041
 31
0.0
  0
LINE
  5
4A4
330
49A
100
AcDbEntity
  8
LC-001-100-D00-0
 62
     7
370
    25
100
AcDbLine
 10
11.279714
 20
296.505835
 30
0.0
 11
4.700508
 21
303.085041
 31
0.0
  0
LINE
  5
4A5
330
49A
100
AcDbEntity
  8
LC-001-100-D00-0
 62
     7
370
    25
100
AcDbLine
 10
4.129714
 20
303.655835
 30
0.0
 11
-12.799492
 21
320.585041
 31
0.0
  0
LINE
  5
4A6
330
49A
100
AcDbEntity
  8
LC-001-100-D00-0
 62
     7
370
    25
100
AcDbLine
 10
11.180764
 20
305.585041
 30
0.0
 11
-3.819236
 21
320.585041
 31
0.0
  0
LINE
  5
4A7
330
49A
100
AcDbEntity
  8
LC-001-100-D00-0
 62
     7
370
    25
100
AcDbLine
 10
9.86102
 20
315.885041
 30
0.0
 11
5.16102
 21
320.585041
 31
0.0
  0
ENDBLK
  5
49C
330
49A
100
AcDbEntity
  8
0
100
AcDbBlockEnd
  0
BLOCK
  5
4AA
330
4A9
100
AcDbEntity
  8
0
100
AcDbBlockBegin
  2
KLON11
 70
     0
 10
0.0
 20
0.0
 30
0.0
  3
KLON11
  1
KLON11
  4
KLON11
  0
LINE
  5
4AC
330
4A9
100
AcDbEntity
  8
LC-001-100-D00-0
 62
     7
370
    25
100
AcDbLine
 10
130.943837
 20
293.585041
 30
0.0
 11
126.979714
 21
297.549164
 31
0.0
  0
LINE
  5
4AD
330
4A9
100
AcDbEntity
  8
LC-001-100-D00-0
 62
     7
370
    25
100
AcDbLine
 10
139.924094
 20
293.585041
 30
0.0
 11
130.424094
 21
303.085041
 31
0.0
  0
LINE
  5
4AE
330
4A9
100
AcDbEntity
  8
LC-001-100-D00-0
 62
     7
370
    25
100
AcDbLine
 10
127.924094
 20
305.585041
 30
0.0
 11
126.979714
 21
306.52942
 31
0.0
  0
LINE
  5
4AF
330
4A9
100
AcDbEntity
  8
LC-001-100-D00-0
 62
     7
370
    25
100
AcDbLine
 10
148.90435
 20
293.585041
 30
0.0
 11
128.90435
 21
313.585041
 31
0.0
  0
LINE
  5
4B0
330
4A9
100
AcDbEntity
  8
LC-001-100-D00-0
 62
     7
370
    25
100
AcDbLine
 10
149.884606
 20
301.585041
 30
0.0
 11
130.884606
 21
320.585041
 31
0.0
  0
LINE
  5
4B1
330
4A9
100
AcDbEntity
  8
LC-001-100-D00-0
 62
     7
370
    25
100
AcDbLine
 10
158.864862
 20
301.585041
 30
0.0
 11
139.864862
 21
320.585041
 31
0.0
  0
LINE
  5
4B2
330
4A9
100
AcDbEntity
  8
LC-001-100-D00-0
 62
     7
370
    25
100
AcDbLine
 10
167.845118
 20
301.585041
 30
0.0
 11
148.845118
 21
320.585041
 31
0.0
  0
LINE
  5
4B3
330
4A9
100
AcDbEntity
  8
LC-001-100-D00-0
 62
     7
370
    25
100
AcDbLine
 10
176.825374
 20
301.585041
 30
0.0
 11
157.825374
 21
320.585041
 31
0.0
  0
LINE
  5
4B4
330
4A9
100
AcDbEntity
  8
LC-001-100-D00-0
 62
     7
370
    25
100
AcDbLine
 10
185.80563
 20
301.585041
 30
0.0
 11
166.80563
 21
320.585041
 31
0.0
  0
LINE
  5
4B5
330
4A9
100
AcDbEntity
  8
LC-001-100-D00-0
 62
     7
370
    25
100
AcDbLine
 10
194.785886
 20
301.585041
 30
0.0
 11
175.785886
 21
320.585041
 31
0.0
  0
LINE
  5
4B6
330
4A9
100
AcDbEntity
  8
LC-001-100-D00-0
 62
     7
370
    25
100
AcDbLine
 10
195.481702
 20
309.869482
 30
0.0
 11
184.766143
 21
320.585041
 31
0.0
  0
ENDBLK
  5
4AB
330
4A9
100
AcDbEntity
  8
0
100
AcDbBlockEnd
  0
BLOCK
  5
4B9
330
4B8
100
AcDbEntity
  8
0
100
AcDbBlockBegin
  2
KLON12
 70
     0
 10
0.0
 20
0.0
 30
0.0
  3
KLON12
  1
KLON12
  4
KLON12
  0
LINE
  5
4BB
330
4B8
100
AcDbEntity
  8
LC-001-100-D00-0
 62
     7
370
    25
100
AcDbLine
 10
124.479714
 20
303.086911
 30
0.0
 11
126.977844
 21
305.585041
 31
0.0
  0
LINE
  5
4BC
330
4B8
100
AcDbEntity
  8
LC-001-100-D00-0
 62
     7
370
    25
100
AcDbLine
 10
124.479714
 20
294.106655
 30
0.0
 11
126.979714
 21
296.606655
 31
0.0
  0
LINE
  5
4BD
330
4B8
100
AcDbEntity
  8
LC-001-100-D00-0
 62
     7
370
    25
100
AcDbLine
 10
133.4581
 20
303.085041
 30
0.0
 11
134.129714
 21
303.756655
 31
0.0
  0
LINE
  5
4BE
330
4B8
100
AcDbEntity
  8
LC-001-100-D00-0
 62
     7
370
    25
100
AcDbLine
 10
130.438356
 20
291.085041
 30
0.0
 11
132.938356
 21
293.585041
 31
0.0
  0
LINE
  5
4BF
330
4B8
100
AcDbEntity
  8
LC-001-100-D00-0
 62
     7
370
    25
100
AcDbLine
 10
139.418612
 20
291.085041
 30
0.0
 11
141.918612
 21
293.585041
 31
0.0
  0
LINE
  5
4C0
330
4B8
100
AcDbEntity
  8
LC-001-100-D00-0
 62
     7
370
    25
100
AcDbLine
 10
148.398869
 20
291.085041
 30
0.0
 11
150.898869
 21
293.585041
 31
0.0
  0
LINE
  5
4C1
330
4B8
100
AcDbEntity
  8
LC-001-100-D00-0
 62
     7
370
    25
100
AcDbLine
 10
153.129714
 20
295.815886
 30
0.0
 11
153.398869
 21
296.085041
 31
0.0
  0
LINE
  5
4C2
330
4B8
100
AcDbEntity
  8
LC-001-100-D00-0
 62
     7
370
    25
100
AcDbLine
 10
157.379125
 20
291.085041
 30
0.0
 11
162.717878
 21
296.423795
 31
0.0
  0
LINE
  5
4C3
330
4B8
100
AcDbEntity
  8
LC-001-100-D00-0
 62
     7
370
    25
100
AcDbLine
 10
166.359381
 20
291.085041
 30
0.0
 11
172.033359
 21
296.759019
 31
0.0
  0
LINE
  5
4C4
330
4B8
100
AcDbEntity
  8
LC-001-100-D00-0
 62
     7
370
    25
100
AcDbLine
 10
175.339637
 20
291.085041
 30
0.0
 11
178.996644
 21
294.742048
 31
0.0
  0
ENDBLK
  5
4BA
330
4B8
100
AcDbEntity
  8
0
100
AcDbBlockEnd
  0
BLOCK
  5
4C7
330
4C6
100
AcDbEntity
  8
0
100
AcDbBlockBegin
  2
KLON13
 70
     0
 10
0.0
 20
0.0
 30
0.0
  3
KLON13
  1
KLON13
  4
KLON13
  0
LINE
  5
4C9
330
4C6
100
AcDbEntity
  8
LC-001-100-D00-0
 62
     7
370
    25
100
AcDbLine
 10
7.734514
 20
303.085041
 30
0.0
 11
10.234514
 21
305.585041
 31
0.0
  0
LINE
  5
4CA
330
4C6
100
AcDbEntity
  8
LC-001-100-D00-0
 62
     7
370
    25
100
AcDbLine
 10
11.279714
 20
297.649984
 30
0.0
 11
13.779714
 21
300.149984
 31
0.0
  0
LINE
  5
4CB
330
4C6
100
AcDbEntity
  8
LC-001-100-D00-0
 62
     7
370
    25
100
AcDbLine
 10
11.279714
 20
288.669728
 30
0.0
 11
13.779714
 21
291.169728
 31
0.0
  0
LINE
  5
4CC
330
4C6
100
AcDbEntity
  8
LC-001-100-D00-0
 62
     7
370
    25
100
AcDbLine
 10
11.279714
 20
279.689472
 30
0.0
 11
17.779714
 21
286.189472
 31
0.0
  0
LINE
  5
4CD
330
4C6
100
AcDbEntity
  8
LC-001-100-D00-0
 62
     7
370
    25
100
AcDbLine
 10
11.279714
 20
270.709216
 30
0.0
 11
17.779714
 21
277.209216
 31
0.0
  0
LINE
  5
4CE
330
4C6
100
AcDbEntity
  8
LC-001-100-D00-0
 62
     7
370
    25
100
AcDbLine
 10
11.279714
 20
261.72896
 30
0.0
 11
17.779714
 21
268.22896
 31
0.0
  0
LINE
  5
4CF
330
4C6
100
AcDbEntity
  8
LC-001-100-D00-0
 62
     7
370
    25
100
AcDbLine
 10
13.068053
 20
254.537043
 30
0.0
 11
17.779714
 21
259.248704
 31
0.0
  0
LINE
  5
4D0
330
4C6
100
AcDbEntity
  8
LC-001-100-D00-0
 62
     7
370
    25
100
AcDbLine
 10
18.399357
 20
250.88809
 30
0.0
 11
20.598649
 21
253.087383
 31
0.0
  0
LINE
  5
4D1
330
4C6
100
AcDbEntity
  8
LC-001-100-D00-0
 62
     7
370
    25
100
AcDbLine
 10
27.076563
 20
250.585041
 30
0.0
 11
29.576563
 21
253.085041
 31
0.0
  0
LINE
  5
4D2
330
4C6
100
AcDbEntity
  8
LC-001-100-D00-0
 62
     7
370
    25
100
AcDbLine
 10
33.592831
 20
248.121052
 30
0.0
 11
35.360823
 21
249.889044
 31
0.0
  0
LINE
  5
4D3
330
4C6
100
AcDbEntity
  8
LC-001-100-D00-0
 62
     7
370
    25
100
AcDbLine
 10
39.383264
 20
244.93123
 30
0.0
 11
41.564508
 21
247.112474
 31
0.0
  0
LINE
  5
4D4
330
4C6
100
AcDbEntity
  8
LC-001-100-D00-0
 62
     7
370
    25
100
AcDbLine
 10
48.017332
 20
244.585041
 30
0.0
 11
50.517332
 21
247.085041
 31
0.0
  0
LINE
  5
4D5
330
4C6
100
AcDbEntity
  8
LC-001-100-D00-0
 62
     7
370
    25
100
AcDbLine
 10
56.997588
 20
244.585041
 30
0.0
 11
59.497588
 21
247.085041
 31
0.0
  0
LINE
  5
4D6
330
4C6
100
AcDbEntity
  8
LC-001-100-D00-0
 62
     7
370
    25
100
AcDbLine
 10
65.977844
 20
244.585041
 30
0.0
 11
68.477844
 21
247.085041
 31
0.0
  0
LINE
  5
4D7
330
4C6
100
AcDbEntity
  8
LC-001-100-D00-0
 62
     7
370
    25
100
AcDbLine
 10
74.9581
 20
244.585041
 30
0.0
 11
77.4581
 21
247.085041
 31
0.0
  0
LINE
  5
4D8
330
4C6
100
AcDbEntity
  8
LC-001-100-D00-0
 62
     7
370
    25
100
AcDbLine
 10
83.938356
 20
244.585041
 30
0.0
 11
86.438356
 21
247.085041
 31
0.0
  0
LINE
  5
4D9
330
4C6
100
AcDbEntity
  8
LC-001-100-D00-0
 62
     7
370
    25
100
AcDbLine
 10
92.918612
 20
244.585041
 30
0.0
 11
95.418612
 21
247.085041
 31
0.0
  0
LINE
  5
4DA
330
4C6
100
AcDbEntity
  8
LC-001-100-D00-0
 62
     7
370
    25
100
AcDbLine
 10
107.898869
 20
250.585041
 30
0.0
 11
110.398869
 21
253.085041
 31
0.0
  0
LINE
  5
4DB
330
4C6
100
AcDbEntity
  8
LC-001-100-D00-0
 62
     7
370
    25
100
AcDbLine
 10
116.879125
 20
250.585041
 30
0.0
 11
119.379125
 21
253.085041
 31
0.0
  0
LINE
  5
4DC
330
4C6
100
AcDbEntity
  8
LC-001-100-D00-0
 62
     7
370
    25
100
AcDbLine
 10
125.859381
 20
250.585041
 30
0.0
 11
128.359381
 21
253.085041
 31
0.0
  0
LINE
  5
4DD
330
4C6
100
AcDbEntity
  8
LC-001-100-D00-0
 62
     7
370
    25
100
AcDbLine
 10
134.839637
 20
250.585041
 30
0.0
 11
137.339637
 21
253.085041
 31
0.0
  0
LINE
  5
4DE
330
4C6
100
AcDbEntity
  8
LC-001-100-D00-0
 62
     7
370
    25
100
AcDbLine
 10
143.819893
 20
250.585041
 30
0.0
 11
146.319893
 21
253.085041
 31
0.0
  0
LINE
  5
4DF
330
4C6
100
AcDbEntity
  8
LC-001-100-D00-0
 62
     7
370
    25
100
AcDbLine
 10
152.800149
 20
250.585041
 30
0.0
 11
155.300149
 21
253.085041
 31
0.0
  0
LINE
  5
4E0
330
4C6
100
AcDbEntity
  8
LC-001-100-D00-0
 62
     7
370
    25
100
AcDbLine
 10
159.812484
 20
248.617119
 30
0.0
 11
164.280405
 21
253.085041
 31
0.0
  0
LINE
  5
4E1
330
4C6
100
AcDbEntity
  8
LC-001-100-D00-0
 62
     7
370
    25
100
AcDbLine
 10
167.2868
 20
247.11118
 30
0.0
 11
173.260661
 21
253.085041
 31
0.0
  0
LINE
  5
4E2
330
4C6
100
AcDbEntity
  8
LC-001-100-D00-0
 62
     7
370
    25
100
AcDbLine
 10
178.250771
 20
249.094894
 30
0.0
 11
180.907203
 21
251.751327
 31
0.0
  0
ENDBLK
  5
4C8
330
4C6
100
AcDbEntity
  8
0
100
AcDbBlockEnd
  0
BLOCK
  5
4E5
330
4E4
100
AcDbEntity
  8
0
100
AcDbBlockBegin
  2
KLON14
 70
     0
 10
0.0
 20
0.0
 30
0.0
  3
KLON14
  1
KLON14
  4
KLON14
  0
LINE
  5
4E7
330
4E4
100
AcDbEntity
  8
LC-001-100-D00-0
 62
     7
370
    25
100
AcDbLine
 10
111.503069
 20
286.085041
 30
0.0
 11
110.129714
 21
287.458396
 31
0.0
  0
LINE
  5
4E8
330
4E4
100
AcDbEntity
  8
LC-001-100-D00-0
 62
     7
370
    25
100
AcDbLine
 10
112.129714
 20
294.438652
 30
0.0
 11
110.129714
 21
296.438652
 31
0.0
  0
LINE
  5
4E9
330
4E4
100
AcDbEntity
  8
LC-001-100-D00-0
 62
     7
370
    25
100
AcDbLine
 10
112.129714
 20
303.418908
 30
0.0
 11
110.129714
 21
305.418908
 31
0.0
  0
LINE
  5
4EA
330
4E4
100
AcDbEntity
  8
LC-001-100-D00-0
 62
     7
370
    25
100
AcDbLine
 10
124.379714
 20
300.149164
 30
0.0
 11
122.379714
 21
302.149164
 31
0.0
  0
LINE
  5
4EB
330
4E4
100
AcDbEntity
  8
LC-001-100-D00-0
 62
     7
370
    25
100
AcDbLine
 10
113.629714
 20
310.899164
 30
0.0
 11
111.629714
 21
312.899164
 31
0.0
  0
LINE
  5
4EC
330
4E4
100
AcDbEntity
  8
LC-001-100-D00-0
 62
     7
370
    25
100
AcDbLine
 10
127.629714
 20
305.87942
 30
0.0
 11
122.379714
 21
311.12942
 31
0.0
  0
LINE
  5
4ED
330
4E4
100
AcDbEntity
  8
LC-001-100-D00-0
 62
     7
370
    25
100
AcDbLine
 10
119.924094
 20
313.585041
 30
0.0
 11
117.624094
 21
315.885041
 31
0.0
  0
LINE
  5
4EE
330
4E4
100
AcDbEntity
  8
LC-001-100-D00-0
 62
     7
370
    25
100
AcDbLine
 10
128.90435
 20
313.585041
 30
0.0
 11
126.60435
 21
315.885041
 31
0.0
  0
ENDBLK
  5
4E6
330
4E4
100
AcDbEntity
  8
0
100
AcDbBlockEnd
  0
BLOCK
  5
4F1
330
4F0
100
AcDbEntity
  8
0
100
AcDbBlockBegin
  2
KLON15
 70
     0
 10
0.0
 20
0.0
 30
0.0
  3
KLON15
  1
KLON15
  4
KLON15
  0
LINE
  5
4F3
330
4F0
100
AcDbEntity
  8
LC-001-100-D00-0
 62
     7
370
    25
100
AcDbLine
 10
28.129714
 20
288.636091
 30
0.0
 11
26.129714
 21
290.636091
 31
0.0
  0
LINE
  5
4F4
330
4F0
100
AcDbEntity
  8
LC-001-100-D00-0
 62
     7
370
    25
100
AcDbLine
 10
15.879714
 20
300.886091
 30
0.0
 11
13.879714
 21
302.886091
 31
0.0
  0
LINE
  5
4F5
330
4F0
100
AcDbEntity
  8
LC-001-100-D00-0
 62
     7
370
    25
100
AcDbLine
 10
11.180764
 20
305.585041
 30
0.0
 11
10.629714
 21
306.136091
 31
0.0
  0
LINE
  5
4F6
330
4F0
100
AcDbEntity
  8
LC-001-100-D00-0
 62
     7
370
    25
100
AcDbLine
 10
28.129714
 20
297.616347
 30
0.0
 11
26.129714
 21
299.616347
 31
0.0
  0
LINE
  5
4F7
330
4F0
100
AcDbEntity
  8
LC-001-100-D00-0
 62
     7
370
    25
100
AcDbLine
 10
15.879714
 20
309.866347
 30
0.0
 11
9.86102
 21
315.885041
 31
0.0
  0
LINE
  5
4F8
330
4F0
100
AcDbEntity
  8
LC-001-100-D00-0
 62
     7
370
    25
100
AcDbLine
 10
28.129714
 20
306.596603
 30
0.0
 11
27.641276
 21
307.085041
 31
0.0
  0
LINE
  5
4F9
330
4F0
100
AcDbEntity
  8
LC-001-100-D00-0
 62
     7
370
    25
100
AcDbLine
 10
26.629714
 20
308.096603
 30
0.0
 11
24.629714
 21
310.096603
 31
0.0
  0
LINE
  5
4FA
330
4F0
100
AcDbEntity
  8
LC-001-100-D00-0
 62
     7
370
    25
100
AcDbLine
 10
21.141276
 20
313.585041
 30
0.0
 11
18.841276
 21
315.885041
 31
0.0
  0
ENDBLK
  5
4F2
330
4F0
100
AcDbEntity
  8
0
100
AcDbBlockEnd
  0
BLOCK
  5
504
330
503
100
AcDbEntity
  8
0
100
AcDbBlockBegin
  2
KLON16
 70
     0
 10
0.0
 20
0.0
 30
0.0
  3
KLON16
  1
KLON16
  4
KLON16
  0
LINE
  5
506
330
503
100
AcDbEntity
  8
LC-001-100-D00-0
 62
     7
370
    25
100
AcDbLine
 10
48.703069
 20
348.885041
 30
0.0
 11
48.129714
 21
349.458396
 31
0.0
  0
LINE
  5
507
330
503
100
AcDbEntity
  8
LC-001-100-D00-0
 62
     7
370
    25
100
AcDbLine
 10
55.183325
 20
351.385041
 30
0.0
 11
53.683325
 21
352.885041
 31
0.0
  0
LINE
  5
508
330
503
100
AcDbEntity
  8
LC-001-100-D00-0
 62
     7
370
    25
100
AcDbLine
 10
64.163581
 20
351.385041
 30
0.0
 11
62.680578
 21
352.868044
 31
0.0
  0
LINE
  5
509
330
503
100
AcDbEntity
  8
LC-001-100-D00-0
 62
     7
370
    25
100
AcDbLine
 10
73.143837
 20
351.385041
 30
0.0
 11
71.643837
 21
352.885041
 31
0.0
  0
LINE
  5
50A
330
503
100
AcDbEntity
  8
LC-001-100-D00-0
 62
     7
370
    25
100
AcDbLine
 10
82.124094
 20
351.385041
 30
0.0
 11
80.724094
 21
352.785041
 31
0.0
  0
LINE
  5
50B
330
503
100
AcDbEntity
  8
LC-001-100-D00-0
 62
     7
370
    25
100
AcDbLine
 10
80.630494
 20
352.878641
 30
0.0
 11
80.624094
 21
352.885041
 31
0.0
  0
ENDBLK
  5
505
330
503
100
AcDbEntity
  8
0
100
AcDbBlockEnd
  0
BLOCK
  5
50E
330
50D
100
AcDbEntity
  8
0
100
AcDbBlockBegin
  2
KLON17
 70
     0
 10
0.0
 20
0.0
 30
0.0
  3
KLON17
  1
KLON17
  4
KLON17
  0
LINE
  5
510
330
50D
100
AcDbEntity
  8
LC-001-100-D00-0
 62
     7
370
    25
100
AcDbLine
 10
90.129324
 20
262.557505
 30
0.0
 11
87.129324
 21
265.557505
 31
0.0
  0
LINE
  5
511
330
50D
100
AcDbEntity
  8
LC-001-100-D00-0
 62
     7
370
    25
100
AcDbLine
 10
90.129324
 20
271.537761
 30
0.0
 11
87.129324
 21
274.537761
 31
0.0
  0
LINE
  5
512
330
50D
100
AcDbEntity
  8
LC-001-100-D00-0
 62
     7
370
    25
100
AcDbLine
 10
90.129324
 20
280.518018
 30
0.0
 11
87.129324
 21
283.518018
 31
0.0
  0
LINE
  5
513
330
50D
100
AcDbEntity
  8
LC-001-100-D00-0
 62
     7
370
    25
100
AcDbLine
 10
90.129324
 20
289.498274
 30
0.0
 11
87.129324
 21
292.498274
 31
0.0
  0
LINE
  5
514
330
50D
100
AcDbEntity
  8
LC-001-100-D00-0
 62
     7
370
    25
100
AcDbLine
 10
90.129324
 20
298.47853
 30
0.0
 11
87.825596
 21
300.782258
 31
0.0
  0
LINE
  5
515
330
50D
100
AcDbEntity
  8
LC-001-100-D00-0
 62
     7
370
    25
100
AcDbLine
 10
92.517663
 20
305.070447
 30
0.0
 11
91.384297
 21
306.203813
 31
0.0
  0
LINE
  5
516
330
50D
100
AcDbEntity
  8
LC-001-100-D00-0
 62
     7
370
    25
100
AcDbLine
 10
98.176099
 20
308.392267
 30
0.0
 11
97.296028
 21
309.272338
 31
0.0
  0
LINE
  5
517
330
50D
100
AcDbEntity
  8
LC-001-100-D00-0
 62
     7
370
    25
100
AcDbLine
 10
106.884824
 20
308.663798
 30
0.0
 11
105.835228
 21
309.713394
 31
0.0
  0
LINE
  5
518
330
50D
100
AcDbEntity
  8
LC-001-100-D00-0
 62
     7
370
    25
100
AcDbLine
 10
110.939548
 20
313.58933
 30
0.0
 11
109.269753
 21
315.259125
 31
0.0
  0
ENDBLK
  5
50F
330
50D
100
AcDbEntity
  8
0
100
AcDbBlockEnd
  0
BLOCK
  5
51B
330
51A
100
AcDbEntity
  8
0
100
AcDbBlockBegin
  2
KLON18
 70
     0
 10
0.0
 20
0.0
 30
0.0
  3
KLON18
  1
KLON18
  4
KLON18
  0
LINE
  5
51D
330
51A
100
AcDbEntity
  8
LC-001-100-D00-0
 62
     7
370
    25
100
AcDbLine
 10
49.20109
 20
258.584459
 30
0.0
 11
48.130104
 21
259.655445
 31
0.0
  0
LINE
  5
51E
330
51A
100
AcDbEntity
  8
LC-001-100-D00-0
 62
     7
370
    25
100
AcDbLine
 10
51.130104
 20
265.635701
 30
0.0
 11
48.130104
 21
268.635701
 31
0.0
  0
LINE
  5
51F
330
51A
100
AcDbEntity
  8
LC-001-100-D00-0
 62
     7
370
    25
100
AcDbLine
 10
51.130104
 20
274.615957
 30
0.0
 11
48.130104
 21
277.615957
 31
0.0
  0
LINE
  5
520
330
51A
100
AcDbEntity
  8
LC-001-100-D00-0
 62
     7
370
    25
100
AcDbLine
 10
51.130104
 20
283.596213
 30
0.0
 11
48.130104
 21
286.596213
 31
0.0
  0
LINE
  5
521
330
51A
100
AcDbEntity
  8
LC-001-100-D00-0
 62
     7
370
    25
100
AcDbLine
 10
51.130104
 20
292.576469
 30
0.0
 11
48.130104
 21
295.576469
 31
0.0
  0
LINE
  5
522
330
51A
100
AcDbEntity
  8
LC-001-100-D00-0
 62
     7
370
    25
100
AcDbLine
 10
35.479405
 20
308.227169
 30
0.0
 11
34.121726
 21
309.584847
 31
0.0
  0
LINE
  5
523
330
51A
100
AcDbEntity
  8
LC-001-100-D00-0
 62
     7
370
    25
100
AcDbLine
 10
31.123082
 20
312.583491
 30
0.0
 11
28.328103
 21
315.37847
 31
0.0
  0
LINE
  5
524
330
51A
100
AcDbEntity
  8
LC-001-100-D00-0
 62
     7
370
    25
100
AcDbLine
 10
49.053283
 20
303.633547
 30
0.0
 11
45.178804
 21
307.508025
 31
0.0
  0
ENDBLK
  5
51C
330
51A
100
AcDbEntity
  8
0
100
AcDbBlockEnd
  0
BLOCK
  5
527
330
526
100
AcDbEntity
  8
0
100
AcDbBlockBegin
  2
KLON19
 70
     0
 10
0.0
 20
0.0
 30
0.0
  3
KLON19
  1
KLON19
  4
KLON19
  0
LINE
  5
529
330
526
100
AcDbEntity
  8
LC-001-100-D00-0
 62
     7
370
    25
100
AcDbLine
 10
29.828997
 20
307.219011
 30
0.0
 11
31.229714
 21
308.619728
 31
0.0
  0
LINE
  5
52A
330
526
100
AcDbEntity
  8
LC-001-100-D00-0
 62
     7
370
    25
100
AcDbLine
 10
32.994699
 20
301.404457
 30
0.0
 11
34.03067
 21
302.440428
 31
0.0
  0
LINE
  5
52B
330
526
100
AcDbEntity
  8
LC-001-100-D00-0
 62
     7
370
    25
100
AcDbLine
 10
36.129714
 20
295.559216
 30
0.0
 11
37.629714
 21
297.059216
 31
0.0
  0
LINE
  5
52C
330
526
100
AcDbEntity
  8
LC-001-100-D00-0
 62
     7
370
    25
100
AcDbLine
 10
36.129714
 20
286.57896
 30
0.0
 11
37.629714
 21
288.07896
 31
0.0
  0
LINE
  5
52D
330
526
100
AcDbEntity
  8
LC-001-100-D00-0
 62
     7
370
    25
100
AcDbLine
 10
36.129714
 20
277.598704
 30
0.0
 11
37.629714
 21
279.098704
 31
0.0
  0
LINE
  5
52E
330
526
100
AcDbEntity
  8
LC-001-100-D00-0
 62
     7
370
    25
100
AcDbLine
 10
36.129714
 20
268.618448
 30
0.0
 11
37.629714
 21
270.118448
 31
0.0
  0
LINE
  5
52F
330
526
100
AcDbEntity
  8
LC-001-100-D00-0
 62
     7
370
    25
100
AcDbLine
 10
36.129714
 20
259.638192
 30
0.0
 11
37.629714
 21
261.138192
 31
0.0
  0
LINE
  5
530
330
526
100
AcDbEntity
  8
LC-001-100-D00-0
 62
     7
370
    25
100
AcDbLine
 10
37.017409
 20
251.545631
 30
0.0
 11
38.138608
 21
252.666829
 31
0.0
  0
LINE
  5
531
330
526
100
AcDbEntity
  8
LC-001-100-D00-0
 62
     7
370
    25
100
AcDbLine
 10
42.178764
 20
247.72673
 30
0.0
 11
43.53778
 21
249.085745
 31
0.0
  0
LINE
  5
532
330
526
100
AcDbEntity
  8
LC-001-100-D00-0
 62
     7
370
    25
100
AcDbLine
 10
51.017332
 20
247.585041
 30
0.0
 11
52.517332
 21
249.085041
 31
0.0
  0
LINE
  5
533
330
526
100
AcDbEntity
  8
LC-001-100-D00-0
 62
     7
370
    25
100
AcDbLine
 10
100.629714
 20
297.197423
 30
0.0
 11
102.017332
 21
298.585041
 31
0.0
  0
LINE
  5
534
330
526
100
AcDbEntity
  8
LC-001-100-D00-0
 62
     7
370
    25
100
AcDbLine
 10
102.264025
 20
298.831734
 30
0.0
 11
105.77622
 21
302.343929
 31
0.0
  0
LINE
  5
535
330
526
100
AcDbEntity
  8
LC-001-100-D00-0
 62
     7
370
    25
100
AcDbLine
 10
111.017332
 20
307.585041
 30
0.0
 11
111.629714
 21
308.197423
 31
0.0
  0
LINE
  5
536
330
526
100
AcDbEntity
  8
LC-001-100-D00-0
 62
     7
370
    25
100
AcDbLine
 10
59.997588
 20
247.585041
 30
0.0
 11
61.497588
 21
249.085041
 31
0.0
  0
LINE
  5
537
330
526
100
AcDbEntity
  8
LC-001-100-D00-0
 62
     7
370
    25
100
AcDbLine
 10
100.629714
 20
288.217167
 30
0.0
 11
102.129714
 21
289.717167
 31
0.0
  0
LINE
  5
538
330
526
100
AcDbEntity
  8
LC-001-100-D00-0
 62
     7
370
    25
100
AcDbLine
 10
68.977844
 20
247.585041
 30
0.0
 11
70.477844
 21
249.085041
 31
0.0
  0
LINE
  5
539
330
526
100
AcDbEntity
  8
LC-001-100-D00-0
 62
     7
370
    25
100
AcDbLine
 10
100.629714
 20
279.236911
 30
0.0
 11
102.129714
 21
280.736911
 31
0.0
  0
LINE
  5
53A
330
526
100
AcDbEntity
  8
LC-001-100-D00-0
 62
     7
370
    25
100
AcDbLine
 10
77.9581
 20
247.585041
 30
0.0
 11
79.4581
 21
249.085041
 31
0.0
  0
LINE
  5
53B
330
526
100
AcDbEntity
  8
LC-001-100-D00-0
 62
     7
370
    25
100
AcDbLine
 10
100.629714
 20
270.256655
 30
0.0
 11
102.129714
 21
271.756655
 31
0.0
  0
LINE
  5
53C
330
526
100
AcDbEntity
  8
LC-001-100-D00-0
 62
     7
370
    25
100
AcDbLine
 10
86.938356
 20
247.585041
 30
0.0
 11
88.438356
 21
249.085041
 31
0.0
  0
LINE
  5
53D
330
526
100
AcDbEntity
  8
LC-001-100-D00-0
 62
     7
370
    25
100
AcDbLine
 10
100.629714
 20
261.276399
 30
0.0
 11
102.129714
 21
262.776399
 31
0.0
  0
LINE
  5
53E
330
526
100
AcDbEntity
  8
LC-001-100-D00-0
 62
     7
370
    25
100
AcDbLine
 10
96.055356
 20
247.721784
 30
0.0
 11
101.992971
 21
253.659399
 31
0.0
  0
ENDBLK
  5
528
330
526
100
AcDbEntity
  8
0
100
AcDbBlockEnd
  0
BLOCK
  5
541
330
540
100
AcDbEntity
  8
0
100
AcDbBlockBegin
  2
KLON20
 70
     0
 10
0.0
 20
0.0
 30
0.0
  3
KLON20
  1
KLON20
  4
KLON20
  0
LINE
  5
543
330
540
100
AcDbEntity
  8
LC-001-100-D00-0
 62
     7
370
    25
100
AcDbLine
 10
163.968623
 20
296.48128
 30
0.0
 11
162.329714
 21
298.120189
 31
0.0
  0
LINE
  5
544
330
540
100
AcDbEntity
  8
LC-001-100-D00-0
 62
     7
370
    25
100
AcDbLine
 10
172.539257
 20
296.890902
 30
0.0
 11
169.848304
 21
299.581855
 31
0.0
  0
LINE
  5
545
330
540
100
AcDbEntity
  8
LC-001-100-D00-0
 62
     7
370
    25
100
AcDbLine
 10
188.954347
 20
289.456068
 30
0.0
 11
181.729165
 21
296.68125
 31
0.0
  0
LINE
  5
546
330
540
100
AcDbEntity
  8
LC-001-100-D00-0
 62
     7
370
    25
100
AcDbLine
 10
198.094139
 20
289.296532
 30
0.0
 11
195.30563
 21
292.085041
 31
0.0
  0
LINE
  5
547
330
540
100
AcDbEntity
  8
LC-001-100-D00-0
 62
     7
370
    25
100
AcDbLine
 10
207.233931
 20
289.136996
 30
0.0
 11
204.285886
 21
292.085041
 31
0.0
  0
LINE
  5
548
330
540
100
AcDbEntity
  8
LC-001-100-D00-0
 62
     7
370
    25
100
AcDbLine
 10
216.373723
 20
288.977461
 30
0.0
 11
213.266143
 21
292.085041
 31
0.0
  0
LINE
  5
549
330
540
100
AcDbEntity
  8
LC-001-100-D00-0
 62
     7
370
    25
100
AcDbLine
 10
225.513515
 20
288.817925
 30
0.0
 11
222.246399
 21
292.085041
 31
0.0
  0
LINE
  5
54A
330
540
100
AcDbEntity
  8
LC-001-100-D00-0
 62
     7
370
    25
100
AcDbLine
 10
234.653306
 20
288.658389
 30
0.0
 11
231.226655
 21
292.085041
 31
0.0
  0
LINE
  5
54B
330
540
100
AcDbEntity
  8
LC-001-100-D00-0
 62
     7
370
    25
100
AcDbLine
 10
238.601825
 20
293.690127
 30
0.0
 11
236.004401
 21
296.287551
 31
0.0
  0
LINE
  5
54C
330
540
100
AcDbEntity
  8
LC-001-100-D00-0
 62
     7
370
    25
100
AcDbLine
 10
243.145217
 20
298.126991
 30
0.0
 11
239.594296
 21
301.677912
 31
0.0
  0
LINE
  5
54D
330
540
100
AcDbEntity
  8
LC-001-100-D00-0
 62
     7
370
    25
100
AcDbLine
 10
252.125473
 20
298.126991
 30
0.0
 11
248.574552
 21
301.677912
 31
0.0
  0
LINE
  5
54E
330
540
100
AcDbEntity
  8
LC-001-100-D00-0
 62
     7
370
    25
100
AcDbLine
 10
261.10573
 20
298.126991
 30
0.0
 11
257.554808
 21
301.677912
 31
0.0
  0
LINE
  5
54F
330
540
100
AcDbEntity
  8
LC-001-100-D00-0
 62
     7
370
    25
100
AcDbLine
 10
270.085986
 20
298.126991
 30
0.0
 11
266.535064
 21
301.677912
 31
0.0
  0
LINE
  5
550
330
540
100
AcDbEntity
  8
LC-001-100-D00-0
 62
     7
370
    25
100
AcDbLine
 10
279.066242
 20
298.126991
 30
0.0
 11
275.51532
 21
301.677912
 31
0.0
  0
LINE
  5
551
330
540
100
AcDbEntity
  8
LC-001-100-D00-0
 62
     7
370
    25
100
AcDbLine
 10
287.329714
 20
298.843774
 30
0.0
 11
284.556513
 21
301.616975
 31
0.0
  0
ENDBLK
  5
542
330
540
100
AcDbEntity
  8
0
100
AcDbBlockEnd
  0
BLOCK
  5
554
330
553
100
AcDbEntity
  8
0
100
AcDbBlockBegin
  2
KLON21
 70
     0
 10
0.0
 20
0.0
 30
0.0
  3
KLON21
  1
KLON21
  4
KLON21
  0
LINE
  5
556
330
553
100
AcDbEntity
  8
LC-001-100-D00-0
 62
     7
370
    25
100
AcDbLine
 10
170.923007
 20
244.625615
 30
0.0
 11
168.444147
 21
247.104475
 31
0.0
  0
LINE
  5
557
330
553
100
AcDbEntity
  8
LC-001-100-D00-0
 62
     7
370
    25
100
AcDbLine
 10
178.429489
 20
246.09939
 30
0.0
 11
176.440646
 21
248.088232
 31
0.0
  0
LINE
  5
558
330
553
100
AcDbEntity
  8
LC-001-100-D00-0
 62
     7
370
    25
100
AcDbLine
 10
184.455895
 20
249.053239
 30
0.0
 11
182.645426
 21
250.863708
 31
0.0
  0
LINE
  5
559
330
553
100
AcDbEntity
  8
LC-001-100-D00-0
 62
     7
370
    25
100
AcDbLine
 10
190.40435
 20
252.085041
 30
0.0
 11
188.051119
 21
254.438272
 31
0.0
  0
LINE
  5
55A
330
553
100
AcDbEntity
  8
LC-001-100-D00-0
 62
     7
370
    25
100
AcDbLine
 10
199.384606
 20
252.085041
 30
0.0
 11
196.621797
 21
254.84785
 31
0.0
  0
LINE
  5
55B
330
553
100
AcDbEntity
  8
LC-001-100-D00-0
 62
     7
370
    25
100
AcDbLine
 10
208.364862
 20
252.085041
 30
0.0
 11
205.447991
 21
255.001912
 31
0.0
  0
LINE
  5
55C
330
553
100
AcDbEntity
  8
LC-001-100-D00-0
 62
     7
370
    25
100
AcDbLine
 10
217.345118
 20
252.085041
 30
0.0
 11
214.274185
 21
255.155974
 31
0.0
  0
LINE
  5
55D
330
553
100
AcDbEntity
  8
LC-001-100-D00-0
 62
     7
370
    25
100
AcDbLine
 10
226.325374
 20
252.085041
 30
0.0
 11
223.10038
 21
255.310035
 31
0.0
  0
LINE
  5
55E
330
553
100
AcDbEntity
  8
LC-001-100-D00-0
 62
     7
370
    25
100
AcDbLine
 10
235.30563
 20
252.085041
 30
0.0
 11
231.926574
 21
255.464097
 31
0.0
  0
LINE
  5
55F
330
553
100
AcDbEntity
  8
LC-001-100-D00-0
 62
     7
370
    25
100
AcDbLine
 10
244.56104
 20
251.809888
 30
0.0
 11
240.752768
 21
255.618159
 31
0.0
  0
LINE
  5
560
330
553
100
AcDbEntity
  8
LC-001-100-D00-0
 62
     7
370
    25
100
AcDbLine
 10
253.541296
 20
251.809888
 30
0.0
 11
249.990374
 21
255.360809
 31
0.0
  0
LINE
  5
561
330
553
100
AcDbEntity
  8
LC-001-100-D00-0
 62
     7
370
    25
100
AcDbLine
 10
262.521552
 20
251.809888
 30
0.0
 11
258.97063
 21
255.360809
 31
0.0
  0
LINE
  5
562
330
553
100
AcDbEntity
  8
LC-001-100-D00-0
 62
     7
370
    25
100
AcDbLine
 10
271.501808
 20
251.809888
 30
0.0
 11
267.950886
 21
255.360809
 31
0.0
  0
LINE
  5
563
330
553
100
AcDbEntity
  8
LC-001-100-D00-0
 62
     7
370
    25
100
AcDbLine
 10
280.482064
 20
251.809888
 30
0.0
 11
276.931143
 21
255.360809
 31
0.0
  0
LINE
  5
564
330
553
100
AcDbEntity
  8
LC-001-100-D00-0
 62
     7
370
    25
100
AcDbLine
 10
287.329714
 20
253.942494
 30
0.0
 11
285.911399
 21
255.360809
 31
0.0
  0
ENDBLK
  5
555
330
553
100
AcDbEntity
  8
0
100
AcDbBlockEnd
  0
BLOCK
  5
568
330
567
100
AcDbEntity
  8
0
100
AcDbBlockBegin
  2
KLON22
 70
     0
 10
0.0
 20
0.0
 30
0.0
  3
KLON22
  1
KLON22
  4
KLON22
  0
LINE
  5
56A
330
567
100
AcDbEntity
  8
LC-001-100-D00-0
 62
     7
370
    25
100
AcDbLine
 10
21.629714
 20
322.076859
 30
0.0
 11
20.221532
 21
323.485041
 31
0.0
  0
LINE
  5
56B
330
567
100
AcDbEntity
  8
LC-001-100-D00-0
 62
     7
370
    25
100
AcDbLine
 10
21.629714
 20
331.057115
 30
0.0
 11
21.329714
 21
331.357115
 31
0.0
  0
LINE
  5
56C
330
567
100
AcDbEntity
  8
LC-001-100-D00-0
 62
     7
370
    25
100
AcDbLine
 10
20.801789
 20
331.885041
 30
0.0
 11
20.129714
 21
332.557115
 31
0.0
  0
LINE
  5
56D
330
567
100
AcDbEntity
  8
LC-001-100-D00-0
 62
     7
370
    25
100
AcDbLine
 10
21.629714
 20
340.037371
 30
0.0
 11
21.329714
 21
340.337371
 31
0.0
  0
LINE
  5
56E
330
567
100
AcDbEntity
  8
LC-001-100-D00-0
 62
     7
370
    25
100
AcDbLine
 10
20.182045
 20
341.485041
 30
0.0
 11
20.129714
 21
341.537371
 31
0.0
  0
LINE
  5
56F
330
567
100
AcDbEntity
  8
LC-001-100-D00-0
 62
     7
370
    25
100
AcDbLine
 10
23.129714
 20
347.517628
 30
0.0
 11
21.629714
 21
349.017628
 31
0.0
  0
ENDBLK
  5
569
330
567
100
AcDbEntity
  8
0
100
AcDbBlockEnd
  0
BLOCK
  5
572
330
571
100
AcDbEntity
  8
0
100
AcDbBlockBegin
  2
KLON23
 70
     0
 10
0.0
 20
0.0
 30
0.0
  3
KLON23
  1
KLON23
  4
KLON23
  0
LINE
  5
574
330
571
100
AcDbEntity
  8
LC-001-100-D00-0
 62
     7
370
    25
100
AcDbLine
 10
117.624094
 20
315.885041
 30
0.0
 11
116.629714
 21
316.87942
 31
0.0
  0
LINE
  5
575
330
571
100
AcDbEntity
  8
LC-001-100-D00-0
 62
     7
370
    25
100
AcDbLine
 10
117.00435
 20
325.485041
 30
0.0
 11
116.629714
 21
325.859677
 31
0.0
  0
LINE
  5
576
330
571
100
AcDbEntity
  8
LC-001-100-D00-0
 62
     7
370
    25
100
AcDbLine
 10
116.929714
 20
334.539933
 30
0.0
 11
116.629714
 21
334.839933
 31
0.0
  0
LINE
  5
577
330
571
100
AcDbEntity
  8
LC-001-100-D00-0
 62
     7
370
    25
100
AcDbLine
 10
118.129714
 20
342.320189
 30
0.0
 11
117.764862
 21
342.685041
 31
0.0
  0
LINE
  5
578
330
571
100
AcDbEntity
  8
LC-001-100-D00-0
 62
     7
370
    25
100
AcDbLine
 10
116.929714
 20
343.520189
 30
0.0
 11
116.629714
 21
343.820189
 31
0.0
  0
LINE
  5
579
330
571
100
AcDbEntity
  8
LC-001-100-D00-0
 62
     7
370
    25
100
AcDbLine
 10
116.629714
 20
352.800445
 30
0.0
 11
116.545118
 21
352.885041
 31
0.0
  0
ENDBLK
  5
573
330
571
100
AcDbEntity
  8
0
100
AcDbBlockEnd
  0
BLOCK
  5
58A
330
57F
100
AcDbEntity
  8
0
100
AcDbBlockBegin
  2
*D33
 70
     1
 10
0.0
 20
0.0
 30
0.0
  3
*D33
  1
*D33
  0
LINE
  5
580
330
57F
100
AcDbEntity
  8
LC-001-100-D00-0
 62
     2
370
    -2
100
AcDbLine
 10
233.588459
 20
292.085041
 30
0.0
 11
352.047262
 21
292.085041
 31
0.0
  0
LINE
  5
581
330
57F
100
AcDbEntity
  8
LC-001-100-D00-0
 62
     2
370
    -2
100
AcDbLine
 10
238.944781
 20
252.085041
 30
0.0
 11
352.047262
 21
252.085041
 31
0.0
  0
LINE
  5
582
330
57F
100
AcDbEntity
  8
LC-001-100-D00-0
 62
     2
370
    -2
100
AcDbLine
 10
348.447262
 20
224.085041
 30
0.0
 11
348.447262
 21
196.085041
 31
0.0
  0
LINE
  5
583
330
57F
100
AcDbEntity
  8
LC-001-100-D00-0
 62
     2
370
    -2
100
AcDbLine
 10
348.447262
 20
320.085041
 30
0.0
 11
348.447262
 21
375.095019
 31
0.0
  0
SOLID
  5
584
330
57F
100
AcDbEntity
  8
LC-001-100-D00-0
 62
     2
100
AcDbTrace
 10
343.780595
 20
320.085041
 30
0.0
 11
353.113929
 21
320.085041
 31
0.0
 12
348.447262
 22
292.085041
 32
0.0
 13
348.447262
 23
292.085041
 33
0.0
  0
SOLID
  5
585
330
57F
100
AcDbEntity
  8
LC-001-100-D00-0
 62
     2
100
AcDbTrace
 10
353.113929
 20
224.085041
 30
0.0
 11
343.780595
 21
224.085041
 31
0.0
 12
348.447262
 22
252.085041
 32
0.0
 13
348.447262
 23
252.085041
 33
0.0
  0
MTEXT
  5
586
330
57F
100
AcDbEntity
  8
LC-001-100-D00-0
 62
     2
100
AcDbMText
 10
317.647262
 20
329.058262
 30
0.0
 40
28.0
 41
0.0
 46
0.0
 71
     5
 72
     1
  1
\A1;DN40
  7
LCTX15-400-0-0pDIN-Schrift
 11
6.123031769111886E-17
 21
1.0
 31
0.0
 73
     1
 44
1.0
  0
POINT
  5
587
330
57F
100
AcDbEntity
  8
Defpoints
 62
     0
100
AcDbPoint
 10
233.588459
 20
292.085041
 30
0.0
  0
POINT
  5
588
330
57F
100
AcDbEntity
  8
Defpoints
 62
     0
100
AcDbPoint
 10
238.944781
 20
252.085041
 30
0.0
  0
POINT
  5
589
330
57F
100
AcDbEntity
  8
Defpoints
 62
     0
100
AcDbPoint
 10
348.447262
 20
252.085041
 30
0.0
  0
ENDBLK
  5
58B
330
57F
100
AcDbEntity
  8
0
100
AcDbBlockEnd
  0
BLOCK
  5
599
330
58E
100
AcDbEntity
  8
0
100
AcDbBlockBegin
  2
*D34
 70
     1
 10
0.0
 20
0.0
 30
0.0
  3
*D34
  1
*D34
  0
LINE
  5
58F
330
58E
100
AcDbEntity
  8
LC-001-100-D00-0
 62
     2
370
    -2
100
AcDbLine
 10
284.329714
 20
301.677912
 30
0.0
 11
404.226336
 21
301.677912
 31
0.0
  0
LINE
  5
590
330
58E
100
AcDbEntity
  8
LC-001-100-D00-0
 62
     2
370
    -2
100
AcDbLine
 10
284.329714
 20
251.809888
 30
0.0
 11
404.226336
 21
251.809888
 31
0.0
  0
LINE
  5
591
330
58E
100
AcDbEntity
  8
LC-001-100-D00-0
 62
     2
370
    -2
100
AcDbLine
 10
400.626336
 20
223.809888
 30
0.0
 11
400.626336
 21
195.809888
 31
0.0
  0
LINE
  5
592
330
58E
100
AcDbEntity
  8
LC-001-100-D00-0
 62
     2
370
    -2
100
AcDbLine
 10
400.626336
 20
329.677912
 30
0.0
 11
400.626336
 21
372.125019
 31
0.0
  0
SOLID
  5
593
330
58E
100
AcDbEntity
  8
LC-001-100-D00-0
 62
     2
100
AcDbTrace
 10
395.959669
 20
329.677912
 30
0.0
 11
405.293002
 21
329.677912
 31
0.0
 12
400.626336
 22
301.677912
 32
0.0
 13
400.626336
 23
301.677912
 33
0.0
  0
SOLID
  5
594
330
58E
100
AcDbEntity
  8
LC-001-100-D00-0
 62
     2
100
AcDbTrace
 10
405.293002
 20
223.809888
 30
0.0
 11
395.959669
 21
223.809888
 31
0.0
 12
400.626336
 22
251.809888
 32
0.0
 13
400.626336
 23
251.809888
 33
0.0
  0
MTEXT
  5
595
330
58E
100
AcDbEntity
  8
LC-001-100-D00-0
 62
     2
100
AcDbMText
 10
369.826336
 20
326.088262
 30
0.0
 40
28.0
 41
0.0
 46
0.0
 71
     5
 72
     1
  1
\A1;DN50
  7
LCTX15-400-0-0pDIN-Schrift
 11
6.123031769111886E-17
 21
1.0
 31
0.0
 73
     1
 44
1.0
  0
POINT
  5
596
330
58E
100
AcDbEntity
  8
Defpoints
 62
     0
100
AcDbPoint
 10
284.329714
 20
301.677912
 30
0.0
  0
POINT
  5
597
330
58E
100
AcDbEntity
  8
Defpoints
 62
     0
100
AcDbPoint
 10
284.329714
 20
251.809888
 30
0.0
  0
POINT
  5
598
330
58E
100
AcDbEntity
  8
Defpoints
 62
     0
100
AcDbPoint
 10
400.626336
 20
251.809888
 30
0.0
  0
ENDBLK
  5
59A
330
58E
100
AcDbEntity
  8
0
100
AcDbBlockEnd
  0
BLOCK
  5
5A7
330
59C
100
AcDbEntity
  8
0
100
AcDbBlockBegin
  2
*D35
 70
     1
 10
0.0
 20
0.0
 30
0.0
  3
*D35
  1
*D35
  0
LINE
  5
59D
330
59C
100
AcDbEntity
  8
LC-001-100-D00-0
 62
     2
370
    -2
100
AcDbLine
 10
48.130104
 20
258.584459
 30
0.0
 11
-86.428755
 21
258.584459
 31
0.0
  0
LINE
  5
59E
330
59C
100
AcDbEntity
  8
LC-001-100-D00-0
 62
     2
370
    -2
100
AcDbLine
 10
36.129714
 20
298.585041
 30
0.0
 11
-86.428755
 21
298.585041
 31
0.0
  0
LINE
  5
59F
330
59C
100
AcDbEntity
  8
LC-001-100-D00-0
 62
     2
370
    -2
100
AcDbLine
 10
-82.828755
 20
326.585041
 30
0.0
 11
-82.828755
 21
354.585041
 31
0.0
  0
LINE
  5
5A0
330
59C
100
AcDbEntity
  8
LC-001-100-D00-0
 62
     2
370
    -2
100
AcDbLine
 10
-82.828755
 20
230.584459
 30
0.0
 11
-82.828755
 21
206.879934
 31
0.0
  0
SOLID
  5
5A1
330
59C
100
AcDbEntity
  8
LC-001-100-D00-0
 62
     2
100
AcDbTrace
 10
-78.162088
 20
230.584459
 30
0.0
 11
-87.495421
 21
230.584459
 31
0.0
 12
-82.828755
 22
258.584459
 32
0.0
 13
-82.828755
 23
258.584459
 33
0.0
  0
SOLID
  5
5A2
330
59C
100
AcDbEntity
  8
LC-001-100-D00-0
 62
     2
100
AcDbTrace
 10
-87.495421
 20
326.585041
 30
0.0
 11
-78.162088
 21
326.585041
 31
0.0
 12
-82.828755
 22
298.585041
 32
0.0
 13
-82.828755
 23
298.585041
 33
0.0
  0
MTEXT
  5
5A3
330
59C
100
AcDbEntity
  8
LC-001-100-D00-0
 62
     2
100
AcDbMText
 10
-113.628755
 20
229.266262
 30
0.0
 40
28.0
 41
0.0
 46
0.0
 71
     5
 72
     1
  1
\A1;40
  7
LCTX15-400-0-0pDIN-Schrift
 11
6.123031769111886E-17
 21
1.0
 31
0.0
 73
     1
 44
1.0
  0
POINT
  5
5A4
330
59C
100
AcDbEntity
  8
Defpoints
 62
     0
100
AcDbPoint
 10
48.130104
 20
258.584459
 30
0.0
  0
POINT
  5
5A5
330
59C
100
AcDbEntity
  8
Defpoints
 62
     0
100
AcDbPoint
 10
36.129714
 20
298.585041
 30
0.0
  0
POINT
  5
5A6
330
59C
100
AcDbEntity
  8
Defpoints
 62
     0
100
AcDbPoint
 10
-82.828755
 20
298.585041
 30
0.0
  0
ENDBLK
  5
5A8
330
59C
100
AcDbEntity
  8
0
100
AcDbBlockEnd
  0
BLOCK
  5
5B5
330
5AA
100
AcDbEntity
  8
0
100
AcDbBlockBegin
  2
*D36
 70
     1
 10
0.0
 20
0.0
 30
0.0
  3
*D36
  1
*D36
  0
LINE
  5
5AB
330
5AA
100
AcDbEntity
  8
LC-001-100-D00-0
 62
     2
370
    -2
100
AcDbLine
 10
-53.583721
 20
320.585041
 30
0.0
 11
-111.985852
 21
320.585041
 31
0.0
  0
LINE
  5
5AC
330
5AA
100
AcDbEntity
  8
LC-001-100-D00-0
 62
     2
370
    -2
100
AcDbLine
 10
-53.583721
 20
290.585041
 30
0.0
 11
-111.985852
 21
290.585041
 31
0.0
  0
LINE
  5
5AD
330
5AA
100
AcDbEntity
  8
LC-001-100-D00-0
 62
     2
370
    -2
100
AcDbLine
 10
-108.385852
 20
262.585041
 30
0.0
 11
-108.385852
 21
234.585041
 31
0.0
  0
LINE
  5
5AE
330
5AA
100
AcDbEntity
  8
LC-001-100-D00-0
 62
     2
370
    -2
100
AcDbLine
 10
-108.385852
 20
348.585041
 30
0.0
 11
-108.385852
 21
363.860488
 31
0.0
  0
SOLID
  5
5AF
330
5AA
100
AcDbEntity
  8
LC-001-100-D00-0
 62
     2
100
AcDbTrace
 10
-113.052519
 20
348.585041
 30
0.0
 11
-103.719185
 21
348.585041
 31
0.0
 12
-108.385852
 22
320.585041
 32
0.0
 13
-108.385852
 23
320.585041
 33
0.0
  0
SOLID
  5
5B0
330
5AA
100
AcDbEntity
  8
LC-001-100-D00-0
 62
     2
100
AcDbTrace
 10
-103.719185
 20
262.585041
 30
0.0
 11
-113.052519
 21
262.585041
 31
0.0
 12
-108.385852
 22
290.585041
 32
0.0
 13
-108.385852
 23
290.585041
 33
0.0
  0
MTEXT
  5
5B1
330
5AA
100
AcDbEntity
  8
LC-001-100-D00-0
 62
     2
100
AcDbMText
 10
-139.185852
 20
340.938262
 30
0.0
 40
28.0
 41
0.0
 46
0.0
 71
     5
 72
     1
  1
\A1;30
  7
LCTX15-400-0-0pDIN-Schrift
 11
6.123031769111886E-17
 21
1.0
 31
0.0
 73
     1
 44
1.0
  0
POINT
  5
5B2
330
5AA
100
AcDbEntity
  8
Defpoints
 62
     0
100
AcDbPoint
 10
-53.583721
 20
320.585041
 30
0.0
  0
POINT
  5
5B3
330
5AA
100
AcDbEntity
  8
Defpoints
 62
     0
100
AcDbPoint
 10
-53.583721
 20
290.585041
 30
0.0
  0
POINT
  5
5B4
330
5AA
100
AcDbEntity
  8
Defpoints
 62
     0
100
AcDbPoint
 10
-108.385852
 20
290.585041
 30
0.0
  0
ENDBLK
  5
5B6
330
5AA
100
AcDbEntity
  8
0
100
AcDbBlockEnd
  0
BLOCK
  5
5C2
330
5B8
100
AcDbEntity
  8
0
100
AcDbBlockBegin
  2
*D37
 70
     1
 10
0.0
 20
0.0
 30
0.0
  3
*D37
  1
*D37
  0
LINE
  5
5B9
330
5B8
100
AcDbEntity
  8
LC-001-100-D00-0
 62
     2
370
    -2
100
AcDbLine
 10
-53.583721
 20
320.585041
 30
0.0
 11
-180.138111
 21
320.585041
 31
0.0
  0
LINE
  5
5BA
330
5B8
100
AcDbEntity
  8
LC-001-100-D00-0
 62
     2
370
    -2
100
AcDbLine
 10
42.304714
 20
244.585041
 30
0.0
 11
-180.138111
 21
244.585041
 31
0.0
  0
LINE
  5
5BB
330
5B8
100
AcDbEntity
  8
LC-001-100-D00-0
 62
     2
370
    -2
100
AcDbLine
 10
-176.538111
 20
292.585041
 30
0.0
 11
-176.538111
 21
272.585041
 31
0.0
  0
SOLID
  5
5BC
330
5B8
100
AcDbEntity
  8
LC-001-100-D00-0
 62
     2
100
AcDbTrace
 10
-171.871445
 20
292.585041
 30
0.0
 11
-181.204778
 21
292.585041
 31
0.0
 12
-176.538111
 22
320.585041
 32
0.0
 13
-176.538111
 23
320.585041
 33
0.0
  0
SOLID
  5
5BD
330
5B8
100
AcDbEntity
  8
LC-001-100-D00-0
 62
     2
100
AcDbTrace
 10
-181.204778
 20
272.585041
 30
0.0
 11
-171.871445
 21
272.585041
 31
0.0
 12
-176.538111
 22
244.585041
 32
0.0
 13
-176.538111
 23
244.585041
 33
0.0
  0
MTEXT
  5
5BE
330
5B8
100
AcDbEntity
  8
LC-001-100-D00-0
 62
     2
100
AcDbMText
 10
-207.338111
 20
280.350262
 30
0.0
 40
28.0
 41
0.0
 46
0.0
 71
     5
 72
     1
  1
\A1;76
  7
LCTX15-400-0-0pDIN-Schrift
 11
6.123031769111886E-17
 21
1.0
 31
0.0
 73
     1
 44
1.0
  0
POINT
  5
5BF
330
5B8
100
AcDbEntity
  8
Defpoints
 62
     0
100
AcDbPoint
 10
-53.583721
 20
320.585041
 30
0.0
  0
POINT
  5
5C0
330
5B8
100
AcDbEntity
  8
Defpoints
 62
     0
100
AcDbPoint
 10
42.304714
 20
244.585041
 30
0.0
  0
POINT
  5
5C1
330
5B8
100
AcDbEntity
  8
Defpoints
 62
     0
100
AcDbPoint
 10
-176.538111
 20
244.585041
 30
0.0
  0
ENDBLK
  5
5C3
330
5B8
100
AcDbEntity
  8
0
100
AcDbBlockEnd
  0
BLOCK
  5
5D4
330
5CA
100
AcDbEntity
  8
0
100
AcDbBlockBegin
  2
*D38
 70
     1
 10
0.0
 20
0.0
 30
0.0
  3
*D38
  1
*D38
  0
LINE
  5
5CB
330
5CA
100
AcDbEntity
  8
LC-004-003-----0
 62
     2
370
    -2
100
AcDbLine
 10
-157.370293
 20
308.485044
 30
0.0
 11
-157.370293
 21
468.090262
 31
0.0
  0
LINE
  5
5CC
330
5CA
100
AcDbEntity
  8
LC-004-003-----0
 62
     2
370
    -2
100
AcDbLine
 10
295.629717
 20
308.485044
 30
0.0
 11
295.629717
 21
468.090262
 31
0.0
  0
LINE
  5
5CD
330
5CA
100
AcDbEntity
  8
LC-004-003-----0
 62
     2
370
    -2
100
AcDbLine
 10
-129.370293
 20
464.490262
 30
0.0
 11
267.629717
 21
464.490262
 31
0.0
  0
SOLID
  5
5CE
330
5CA
100
AcDbEntity
  8
LC-004-003-----0
 62
     2
100
AcDbTrace
 10
-129.370293
 20
469.156929
 30
0.0
 11
-129.370293
 21
459.823595
 31
0.0
 12
-157.370293
 22
464.490262
 32
0.0
 13
-157.370293
 23
464.490262
 33
0.0
  0
SOLID
  5
5CF
330
5CA
100
AcDbEntity
  8
LC-004-003-----0
 62
     2
100
AcDbTrace
 10
267.629717
 20
459.823595
 30
0.0
 11
267.629717
 21
469.156929
 31
0.0
 12
295.629717
 22
464.490262
 32
0.0
 13
295.629717
 23
464.490262
 33
0.0
  0
MTEXT
  5
5D0
330
5CA
100
AcDbEntity
  8
LC-004-003-----0
 62
     2
100
AcDbMText
 10
86.487015
 20
495.290262
 30
0.0
 40
28.0
 41
0.0
 46
0.0
 71
     5
 72
     1
  1
\A1;453
  7
LCTX15-400-0-0pDIN-Schrift
 73
     1
 44
1.0
  0
POINT
  5
5D1
330
5CA
100
AcDbEntity
  8
Defpoints
 62
     0
100
AcDbPoint
 10
-157.370293
 20
308.485044
 30
0.0
  0
POINT
  5
5D2
330
5CA
100
AcDbEntity
  8
Defpoints
 62
     0
100
AcDbPoint
 10
295.629717
 20
308.485044
 30
0.0
  0
POINT
  5
5D3
330
5CA
100
AcDbEntity
  8
Defpoints
 62
     0
100
AcDbPoint
 10
295.629717
 20
464.490262
 30
0.0
  0
ENDBLK
  5
5D5
330
5CA
100
AcDbEntity
  8
0
100
AcDbBlockEnd
  0
BLOCK
  5
5E1
330
5D7
100
AcDbEntity
  8
0
100
AcDbBlockBegin
  2
*D39
 70
     1
 10
0.0
 20
0.0
 30
0.0
  3
*D39
  1
*D39
  0
LINE
  5
5D8
330
5D7
100
AcDbEntity
  8
LC-004-003-----0
 62
     2
370
    -2
100
AcDbLine
 10
-58.300936
 20
305.326221
 30
0.0
 11
-58.300936
 21
422.946262
 31
0.0
  0
LINE
  5
5D9
330
5D7
100
AcDbEntity
  8
LC-004-003-----0
 62
     2
370
    -2
100
AcDbLine
 10
196.589432
 20
305.485037
 30
0.0
 11
196.589432
 21
422.946262
 31
0.0
  0
LINE
  5
5DA
330
5D7
100
AcDbEntity
  8
LC-004-003-----0
 62
     2
370
    -2
100
AcDbLine
 10
-30.300936
 20
419.346262
 30
0.0
 11
168.589432
 21
419.346262
 31
0.0
  0
SOLID
  5
5DB
330
5D7
100
AcDbEntity
  8
LC-004-003-----0
 62
     2
100
AcDbTrace
 10
-30.300936
 20
424.012929
 30
0.0
 11
-30.300936
 21
414.679595
 31
0.0
 12
-58.300936
 22
419.346262
 32
0.0
 13
-58.300936
 23
419.346262
 33
0.0
  0
SOLID
  5
5DC
330
5D7
100
AcDbEntity
  8
LC-004-003-----0
 62
     2
100
AcDbTrace
 10
168.589432
 20
414.679595
 30
0.0
 11
168.589432
 21
424.012929
 31
0.0
 12
196.589432
 22
419.346262
 32
0.0
 13
196.589432
 23
419.346262
 33
0.0
  0
MTEXT
  5
5DD
330
5D7
100
AcDbEntity
  8
LC-004-003-----0
 62
     2
100
AcDbMText
 10
86.487015
 20
450.146262
 30
0.0
 40
28.0
 41
0.0
 46
0.0
 71
     5
 72
     1
  1
\A1;255
  7
LCTX15-400-0-0pDIN-Schrift
 73
     1
 44
1.0
  0
POINT
  5
5DE
330
5D7
100
AcDbEntity
  8
Defpoints
 62
     0
100
AcDbPoint
 10
-58.300936
 20
305.326221
 30
0.0
  0
POINT
  5
5DF
330
5D7
100
AcDbEntity
  8
Defpoints
 62
     0
100
AcDbPoint
 10
196.589432
 20
305.485037
 30
0.0
  0
POINT
  5
5E0
330
5D7
100
AcDbEntity
  8
Defpoints
 62
     0
100
AcDbPoint
 10
196.589432
 20
419.346262
 30
0.0
  0
ENDBLK
  5
5E2
330
5D7
100
AcDbEntity
  8
0
100
AcDbBlockEnd
  0
BLOCK
  5
5EE
330
5E4
100
AcDbEntity
  8
0
100
AcDbBlockBegin
  2
*D40
 70
     1
 10
0.0
 20
0.0
 30
0.0
  3
*D40
  1
*D40
  0
LINE
  5
5E5
330
5E4
100
AcDbEntity
  8
LC-004-003-----0
 62
     2
370
    -2
100
AcDbLine
 10
21.629714
 20
352.885043
 30
0.0
 11
21.629714
 21
378.396262
 31
0.0
  0
LINE
  5
5E6
330
5E4
100
AcDbEntity
  8
LC-004-003-----0
 62
     2
370
    -2
100
AcDbLine
 10
116.629711
 20
352.885043
 30
0.0
 11
116.629711
 21
378.396262
 31
0.0
  0
LINE
  5
5E7
330
5E4
100
AcDbEntity
  8
LC-004-003-----0
 62
     2
370
    -2
100
AcDbLine
 10
49.629714
 20
374.796262
 30
0.0
 11
88.629711
 21
374.796262
 31
0.0
  0
SOLID
  5
5E8
330
5E4
100
AcDbEntity
  8
LC-004-003-----0
 62
     2
100
AcDbTrace
 10
49.629714
 20
379.462929
 30
0.0
 11
49.629714
 21
370.129595
 31
0.0
 12
21.629714
 22
374.796262
 32
0.0
 13
21.629714
 23
374.796262
 33
0.0
  0
SOLID
  5
5E9
330
5E4
100
AcDbEntity
  8
LC-004-003-----0
 62
     2
100
AcDbTrace
 10
88.629711
 20
370.129595
 30
0.0
 11
88.629711
 21
379.462929
 31
0.0
 12
116.629711
 22
374.796262
 32
0.0
 13
116.629711
 23
374.796262
 33
0.0
  0
MTEXT
  5
5EA
330
5E4
100
AcDbEntity
  8
LC-004-003-----0
 62
     2
100
AcDbMText
 10
70.513829
 20
405.596262
 30
0.0
 40
28.0
 41
0.0
 46
0.0
 71
     5
 72
     1
  1
\A1;95
  7
LCTX15-400-0-0pDIN-Schrift
 73
     1
 44
1.0
  0
POINT
  5
5EB
330
5E4
100
AcDbEntity
  8
Defpoints
 62
     0
100
AcDbPoint
 10
21.629714
 20
352.885043
 30
0.0
  0
POINT
  5
5EC
330
5E4
100
AcDbEntity
  8
Defpoints
 62
     0
100
AcDbPoint
 10
116.629711
 20
352.885043
 30
0.0
  0
POINT
  5
5ED
330
5E4
100
AcDbEntity
  8
Defpoints
 62
     0
100
AcDbPoint
 10
116.629711
 20
374.796262
 30
0.0
  0
ENDBLK
  5
5EF
330
5E4
100
AcDbEntity
  8
0
100
AcDbBlockEnd
  0
BLOCK
  5
5FC
330
5F1
100
AcDbEntity
  8
0
100
AcDbBlockBegin
  2
*D41
 70
     1
 10
0.0
 20
0.0
 30
0.0
  3
*D41
  1
*D41
  0
LINE
  5
5F2
330
5F1
100
AcDbEntity
  8
LC-004-003-----0
 62
     2
370
    -2
100
AcDbLine
 10
116.629711
 20
352.885043
 30
0.0
 11
261.532543
 21
352.885043
 31
0.0
  0
LINE
  5
5F3
330
5F1
100
AcDbEntity
  8
LC-004-003-----0
 62
     2
370
    -2
100
AcDbLine
 10
184.766143
 20
320.585041
 30
0.0
 11
261.532543
 21
320.585041
 31
0.0
  0
LINE
  5
5F4
330
5F1
100
AcDbEntity
  8
LC-004-003-----0
 62
     2
370
    -2
100
AcDbLine
 10
257.932543
 20
292.585041
 30
0.0
 11
257.932543
 21
264.585041
 31
0.0
  0
LINE
  5
5F5
330
5F1
100
AcDbEntity
  8
LC-004-003-----0
 62
     2
370
    -2
100
AcDbLine
 10
257.932543
 20
380.885043
 30
0.0
 11
257.932543
 21
425.521788
 31
0.0
  0
SOLID
  5
5F6
330
5F1
100
AcDbEntity
  8
LC-004-003-----0
 62
     2
100
AcDbTrace
 10
253.265876
 20
380.885043
 30
0.0
 11
262.599209
 21
380.885043
 31
0.0
 12
257.932543
 22
352.885043
 32
0.0
 13
257.932543
 23
352.885043
 33
0.0
  0
SOLID
  5
5F7
330
5F1
100
AcDbEntity
  8
LC-004-003-----0
 62
     2
100
AcDbTrace
 10
262.599209
 20
292.585041
 30
0.0
 11
253.265876
 21
292.585041
 31
0.0
 12
257.932543
 22
320.585041
 32
0.0
 13
257.932543
 23
320.585041
 33
0.0
  0
MTEXT
  5
5F8
330
5F1
100
AcDbEntity
  8
LC-004-003-----0
 62
     2
100
AcDbMText
 10
227.132543
 20
378.954262
 30
0.0
 40
28.0
 41
0.0
 46
0.0
 71
     5
 72
     1
  1
\A1;6-32
  7
LCTX15-400-0-0pDIN-Schrift
 11
6.123031769111886E-17
 21
1.0
 31
0.0
 73
     1
 44
1.0
  0
POINT
  5
5F9
330
5F1
100
AcDbEntity
  8
Defpoints
 62
     0
100
AcDbPoint
 10
116.629711
 20
352.885043
 30
0.0
  0
POINT
  5
5FA
330
5F1
100
AcDbEntity
  8
Defpoints
 62
     0
100
AcDbPoint
 10
184.766143
 20
320.585041
 30
0.0
  0
POINT
  5
5FB
330
5F1
100
AcDbEntity
  8
Defpoints
 62
     0
100
AcDbPoint
 10
257.932543
 20
320.585041
 30
0.0
  0
ENDBLK
  5
5FD
330
5F1
100
AcDbEntity
  8
0
100
AcDbBlockEnd
  0
BLOCK
  5
609
330
5FF
100
AcDbEntity
  8
0
100
AcDbBlockBegin
  2
*D42
 70
     1
 10
0.0
 20
0.0
 30
0.0
  3
*D42
  1
*D42
  0
LINE
  5
600
330
5FF
100
AcDbEntity
  8
LC-004-003-----0
 62
     2
370
    -2
100
AcDbLine
 10
69.129714
 20
244.585041
 30
0.0
 11
69.129714
 21
176.958262
 31
0.0
  0
LINE
  5
601
330
5FF
100
AcDbEntity
  8
LC-004-003-----0
 62
     2
370
    -2
100
AcDbLine
 10
287.32971
 20
254.859052
 30
0.0
 11
287.32971
 21
176.958262
 31
0.0
  0
LINE
  5
602
330
5FF
100
AcDbEntity
  8
LC-004-003-----0
 62
     2
370
    -2
100
AcDbLine
 10
97.129714
 20
180.558262
 30
0.0
 11
259.32971
 21
180.558262
 31
0.0
  0
SOLID
  5
603
330
5FF
100
AcDbEntity
  8
LC-004-003-----0
 62
     2
100
AcDbTrace
 10
97.129714
 20
185.224929
 30
0.0
 11
97.129714
 21
175.891595
 31
0.0
 12
69.129714
 22
180.558262
 32
0.0
 13
69.129714
 23
180.558262
 33
0.0
  0
SOLID
  5
604
330
5FF
100
AcDbEntity
  8
LC-004-003-----0
 62
     2
100
AcDbTrace
 10
259.32971
 20
175.891595
 30
0.0
 11
259.32971
 21
185.224929
 31
0.0
 12
287.32971
 22
180.558262
 32
0.0
 13
287.32971
 23
180.558262
 33
0.0
  0
MTEXT
  5
605
330
5FF
100
AcDbEntity
  8
LC-004-003-----0
 62
     2
100
AcDbMText
 10
216.734249
 20
211.358262
 30
0.0
 40
28.0
 41
0.0
 46
0.0
 71
     5
 72
     1
  1
\A1;218
  7
LCTX15-400-0-0pDIN-Schrift
 73
     1
 44
1.0
  0
POINT
  5
606
330
5FF
100
AcDbEntity
  8
Defpoints
 62
     0
100
AcDbPoint
 10
69.129714
 20
244.585041
 30
0.0
  0
POINT
  5
607
330
5FF
100
AcDbEntity
  8
Defpoints
 62
     0
100
AcDbPoint
 10
287.32971
 20
254.859052
 30
0.0
  0
POINT
  5
608
330
5FF
100
AcDbEntity
  8
Defpoints
 62
     0
100
AcDbPoint
 10
287.32971
 20
180.558262
 30
0.0
  0
ENDBLK
  5
60A
330
5FF
100
AcDbEntity
  8
0
100
AcDbBlockEnd
  0
ENDSEC
  0
SECTION
  2
ENTITIES
  0
LINE
  5
32
330
1F
100
AcDbEntity
  8
LC-001-100-D00-0
 62
     7
370
    50
100
AcDbLine
 10
116.629711
 20
-22.015739
 30
0.0
 11
116.629711
 21
-69.515738
 31
0.0
  0
LINE
  5
35
330
1F
100
AcDbEntity
  8
LC-002-002-----0
 62
     7
370
    25
100
AcDbLine
 10
-30.870286
 20
198.011657
 30
0.0
 11
-30.870286
 21
290.585041
 31
0.0
  0
LINE
  5
36
330
1F
100
AcDbEntity
  8
LC-002-002-----0
 62
     7
370
    25
100
AcDbLine
 10
169.129713
 20
198.011657
 30
0.0
 11
169.129713
 21
244.625615
 31
0.0
  0
LINE
  5
37
330
1F
100
AcDbEntity
  8
LC-001-100-D00-0
 62
     7
370
    50
100
AcDbLine
 10
284.329719
 20
-42.700515
 30
0.0
 11
285.506136
 21
-43.015738
 31
0.0
  0
LINE
  5
38
330
1F
100
AcDbEntity
  8
LC-001-100-D00-0
 62
     7
370
    50
100
AcDbLine
 10
234.825737
 20
-50.109317
 30
0.0
 11
237.189165
 21
-46.015739
 31
0.0
  0
LINE
  5
39
330
1F
100
AcDbEntity
  8
LC-001-100-D00-0
 62
     7
370
    50
100
AcDbLine
 10
238.921217
 20
-43.015738
 30
0.0
 11
239.103219
 21
-42.700515
 31
0.0
  0
LINE
  5
3A
330
1F
100
AcDbEntity
  8
LC-001-100-D00-0
 62
     7
370
    50
100
AcDbLine
 10
239.103219
 20
-42.700515
 30
0.0
 11
242.629713
 21
-42.700515
 31
0.0
  0
LINE
  5
3B
330
1F
100
AcDbEntity
  8
LC-001-100-D00-0
 62
     7
370
    50
100
AcDbLine
 10
245.629719
 20
-42.700515
 30
0.0
 11
284.329719
 21
-42.700515
 31
0.0
  0
LINE
  5
3C
330
1F
100
AcDbEntity
  8
LC-001-100-D00-0
 62
     7
370
    50
100
AcDbLine
 10
196.594439
 20
-49.515738
 30
0.0
 11
235.168449
 21
-49.515738
 31
0.0
  0
LINE
  5
3D
330
1F
100
AcDbEntity
  8
LC-001-100-D00-0
 62
     7
370
    50
100
AcDbLine
 10
295.629717
 20
3.984262
 30
0.0
 11
196.254588
 21
3.984262
 31
0.0
  0
LINE
  5
3E
330
1F
100
AcDbEntity
  8
LC-001-100-D00-0
 62
     7
370
    50
100
AcDbLine
 10
196.254588
 20
6.984261
 30
0.0
 11
295.629717
 21
6.984261
 31
0.0
  0
LINE
  5
3F
330
1F
100
AcDbEntity
  8
LC-001-100-D00-0
 62
     7
370
    50
100
AcDbLine
 10
295.629717
 20
-46.015739
 30
0.0
 11
196.254588
 21
-46.015739
 31
0.0
  0
LINE
  5
40
330
1F
100
AcDbEntity
  8
LC-001-100-D00-0
 62
     7
370
    50
100
AcDbLine
 10
196.254588
 20
-43.015738
 30
0.0
 11
295.629717
 21
-43.015738
 31
0.0
  0
LINE
  5
41
330
1F
100
AcDbEntity
  8
LC-001-100-D00-0
 62
     7
370
    50
100
AcDbLine
 10
295.629717
 20
103.984263
 30
0.0
 11
-157.370293
 21
103.984263
 31
0.0
  0
LINE
  5
42
330
1F
100
AcDbEntity
  8
LC-001-100-D00-0
 62
     7
370
    50
100
AcDbLine
 10
-157.370293
 20
106.984255
 30
0.0
 11
295.629717
 21
106.984255
 31
0.0
  0
LINE
  5
43
330
1F
100
AcDbEntity
  8
LC-001-100-D00-0
 62
     7
370
    50
100
AcDbLine
 10
295.629717
 20
153.98426
 30
0.0
 11
-157.370293
 21
153.98426
 31
0.0
  0
LINE
  5
44
330
1F
100
AcDbEntity
  8
LC-001-100-D00-0
 62
     7
370
    50
100
AcDbLine
 10
-157.370293
 20
156.984267
 30
0.0
 11
295.629717
 21
156.984267
 31
0.0
  0
LINE
  5
45
330
1F
100
AcDbEntity
  8
LC-001-100-D00-0
 62
     7
370
    50
100
AcDbLine
 10
295.629717
 20
53.984259
 30
0.0
 11
196.254588
 21
53.984259
 31
0.0
  0
LINE
  5
46
330
1F
100
AcDbEntity
  8
LC-001-100-D00-0
 62
     7
370
    50
100
AcDbLine
 10
-57.995156
 20
53.984259
 30
0.0
 11
-157.370293
 21
53.984259
 31
0.0
  0
LINE
  5
47
330
1F
100
AcDbEntity
  8
LC-001-100-D00-0
 62
     7
370
    50
100
AcDbLine
 10
-157.370293
 20
56.984258
 30
0.0
 11
-57.935693
 21
56.984258
 31
0.0
  0
LINE
  5
48
330
1F
100
AcDbEntity
  8
LC-001-100-D00-0
 62
     7
370
    50
100
AcDbLine
 10
196.195117
 20
56.984258
 30
0.0
 11
295.629717
 21
56.984258
 31
0.0
  0
LINE
  5
49
330
1F
100
AcDbEntity
  8
LC-001-100-D00-0
 62
     7
370
    50
100
AcDbLine
 10
-57.995156
 20
3.984262
 30
0.0
 11
-157.370293
 21
3.984262
 31
0.0
  0
LINE
  5
4A
330
1F
100
AcDbEntity
  8
LC-001-100-D00-0
 62
     7
370
    50
100
AcDbLine
 10
-157.370293
 20
6.984261
 30
0.0
 11
-57.995156
 21
6.984261
 31
0.0
  0
LINE
  5
4B
330
1F
100
AcDbEntity
  8
LC-001-100-D00-0
 62
     7
370
    50
100
AcDbLine
 10
-57.995156
 20
-46.015739
 30
0.0
 11
-157.370293
 21
-46.015739
 31
0.0
  0
LINE
  5
4C
330
1F
100
AcDbEntity
  8
LC-001-100-D00-0
 62
     7
370
    50
100
AcDbLine
 10
-157.370293
 20
-43.015738
 30
0.0
 11
-57.995156
 21
-43.015738
 31
0.0
  0
LINE
  5
4D
330
1F
100
AcDbEntity
  8
LC-001-100-D00-0
 62
     7
370
    50
100
AcDbLine
 10
-104.370289
 20
153.98426
 30
0.0
 11
-104.370289
 21
106.984255
 31
0.0
  0
LINE
  5
4E
330
1F
100
AcDbEntity
  8
LC-001-100-D00-0
 62
     7
370
    50
100
AcDbLine
 10
-104.370289
 20
103.984263
 30
0.0
 11
-104.370289
 21
56.984258
 31
0.0
  0
LINE
  5
4F
330
1F
100
AcDbEntity
  8
LC-001-100-D00-0
 62
     7
370
    50
100
AcDbLine
 10
-104.370289
 20
53.984259
 30
0.0
 11
-104.370289
 21
6.984261
 31
0.0
  0
LINE
  5
50
330
1F
100
AcDbEntity
  8
LC-001-100-D00-0
 62
     7
370
    50
100
AcDbLine
 10
-104.370289
 20
3.984262
 30
0.0
 11
-104.370289
 21
-43.015738
 31
0.0
  0
LINE
  5
51
330
1F
100
AcDbEntity
  8
LC-001-100-D00-0
 62
     7
370
    50
100
AcDbLine
 10
-104.370289
 20
-46.015739
 30
0.0
 11
-104.370289
 21
-69.515738
 31
0.0
  0
LINE
  5
52
330
1F
100
AcDbEntity
  8
LC-001-100-D00-0
 62
     7
370
    50
100
AcDbLine
 10
-107.370288
 20
-69.515738
 30
0.0
 11
-107.370288
 21
-46.015739
 31
0.0
  0
LINE
  5
53
330
1F
100
AcDbEntity
  8
LC-001-100-D00-0
 62
     7
370
    50
100
AcDbLine
 10
-107.370288
 20
-43.015738
 30
0.0
 11
-107.370288
 21
3.984262
 31
0.0
  0
LINE
  5
54
330
1F
100
AcDbEntity
  8
LC-001-100-D00-0
 62
     7
370
    50
100
AcDbLine
 10
-107.370288
 20
6.984261
 30
0.0
 11
-107.370288
 21
53.984259
 31
0.0
  0
LINE
  5
55
330
1F
100
AcDbEntity
  8
LC-001-100-D00-0
 62
     7
370
    50
100
AcDbLine
 10
-107.370288
 20
56.984258
 30
0.0
 11
-107.370288
 21
103.984263
 31
0.0
  0
LINE
  5
56
330
1F
100
AcDbEntity
  8
LC-001-100-D00-0
 62
     7
370
    50
100
AcDbLine
 10
-107.370288
 20
106.984255
 30
0.0
 11
-107.370288
 21
153.98426
 31
0.0
  0
LINE
  5
57
330
1F
100
AcDbEntity
  8
LC-001-100-D00-0
 62
     7
370
    50
100
AcDbLine
 10
95.629714
 20
153.98426
 30
0.0
 11
95.629714
 21
106.984255
 31
0.0
  0
LINE
  5
58
330
1F
100
AcDbEntity
  8
LC-001-100-D00-0
 62
     7
370
    50
100
AcDbLine
 10
95.629714
 20
103.984263
 30
0.0
 11
95.629714
 21
57.948989
 31
0.0
  0
LINE
  5
59
330
1F
100
AcDbEntity
  8
LC-001-100-D00-0
 62
     7
370
    50
100
AcDbLine
 10
92.629715
 20
57.948989
 30
0.0
 11
92.629715
 21
103.984263
 31
0.0
  0
LINE
  5
5A
330
1F
100
AcDbEntity
  8
LC-001-100-D00-0
 62
     7
370
    50
100
AcDbLine
 10
92.629715
 20
106.984255
 30
0.0
 11
92.629715
 21
153.98426
 31
0.0
  0
LINE
  5
5B
330
1F
100
AcDbEntity
  8
LC-001-100-D00-0
 62
     7
370
    50
100
AcDbLine
 10
-154.370286
 20
153.98426
 30
0.0
 11
-154.370286
 21
106.984255
 31
0.0
  0
LINE
  5
5C
330
1F
100
AcDbEntity
  8
LC-001-100-D00-0
 62
     7
370
    50
100
AcDbLine
 10
-154.370286
 20
103.984263
 30
0.0
 11
-154.370286
 21
56.984258
 31
0.0
  0
LINE
  5
5D
330
1F
100
AcDbEntity
  8
LC-001-100-D00-0
 62
     7
370
    50
100
AcDbLine
 10
-154.370286
 20
53.984259
 30
0.0
 11
-154.370286
 21
6.984261
 31
0.0
  0
LINE
  5
5E
330
1F
100
AcDbEntity
  8
LC-001-100-D00-0
 62
     7
370
    50
100
AcDbLine
 10
-154.370286
 20
3.984262
 30
0.0
 11
-154.370286
 21
-43.015738
 31
0.0
  0
LINE
  5
5F
330
1F
100
AcDbEntity
  8
LC-001-100-D00-0
 62
     7
370
    50
100
AcDbLine
 10
-154.370286
 20
-46.015739
 30
0.0
 11
-154.370286
 21
-69.515738
 31
0.0
  0
LINE
  5
60
330
1F
100
AcDbEntity
  8
LC-001-100-D00-0
 62
     7
370
    50
100
AcDbLine
 10
-157.370293
 20
-69.515738
 30
0.0
 11
-157.370293
 21
-46.015739
 31
0.0
  0
LINE
  5
61
330
1F
100
AcDbEntity
  8
LC-001-100-D00-0
 62
     7
370
    50
100
AcDbLine
 10
-157.370293
 20
-43.015738
 30
0.0
 11
-157.370293
 21
3.984262
 31
0.0
  0
LINE
  5
62
330
1F
100
AcDbEntity
  8
LC-001-100-D00-0
 62
     7
370
    50
100
AcDbLine
 10
-157.370293
 20
6.984261
 30
0.0
 11
-157.370293
 21
53.984259
 31
0.0
  0
LINE
  5
63
330
1F
100
AcDbEntity
  8
LC-001-100-D00-0
 62
     7
370
    50
100
AcDbLine
 10
-157.370293
 20
56.984258
 30
0.0
 11
-157.370293
 21
103.984263
 31
0.0
  0
LINE
  5
64
330
1F
100
AcDbEntity
  8
LC-001-100-D00-0
 62
     7
370
    50
100
AcDbLine
 10
-157.370293
 20
106.984255
 30
0.0
 11
-157.370293
 21
153.98426
 31
0.0
  0
LINE
  5
65
330
1F
100
AcDbEntity
  8
LC-001-100-D00-0
 62
     7
370
    50
100
AcDbLine
 10
-4.370286
 20
153.98426
 30
0.0
 11
-4.370286
 21
106.984255
 31
0.0
  0
LINE
  5
66
330
1F
100
AcDbEntity
  8
LC-001-100-D00-0
 62
     7
370
    50
100
AcDbLine
 10
-4.370286
 20
103.984263
 30
0.0
 11
-4.370286
 21
57.948989
 31
0.0
  0
LINE
  5
67
330
1F
100
AcDbEntity
  8
LC-001-100-D00-0
 62
     7
370
    50
100
AcDbLine
 10
-7.370286
 20
57.948989
 30
0.0
 11
-7.370286
 21
103.984263
 31
0.0
  0
LINE
  5
68
330
1F
100
AcDbEntity
  8
LC-001-100-D00-0
 62
     7
370
    50
100
AcDbLine
 10
-7.370286
 20
106.984255
 30
0.0
 11
-7.370286
 21
153.98426
 31
0.0
  0
LINE
  5
69
330
1F
100
AcDbEntity
  8
LC-001-100-D00-0
 62
     7
370
    50
100
AcDbLine
 10
245.629719
 20
153.98426
 30
0.0
 11
245.629719
 21
106.984255
 31
0.0
  0
LINE
  5
6A
330
1F
100
AcDbEntity
  8
LC-001-100-D00-0
 62
     7
370
    50
100
AcDbLine
 10
245.629719
 20
103.984263
 30
0.0
 11
245.629719
 21
56.984258
 31
0.0
  0
LINE
  5
6B
330
1F
100
AcDbEntity
  8
LC-001-100-D00-0
 62
     7
370
    50
100
AcDbLine
 10
245.629719
 20
53.984259
 30
0.0
 11
245.629719
 21
6.984261
 31
0.0
  0
LINE
  5
6C
330
1F
100
AcDbEntity
  8
LC-001-100-D00-0
 62
     7
370
    50
100
AcDbLine
 10
245.629719
 20
3.984262
 30
0.0
 11
245.629719
 21
-43.015738
 31
0.0
  0
LINE
  5
6D
330
1F
100
AcDbEntity
  8
LC-001-100-D00-0
 62
     7
370
    50
100
AcDbLine
 10
245.629719
 20
-46.015739
 30
0.0
 11
245.629719
 21
-69.515738
 31
0.0
  0
LINE
  5
6E
330
1F
100
AcDbEntity
  8
LC-001-100-D00-0
 62
     7
370
    50
100
AcDbLine
 10
242.629713
 20
-69.515738
 30
0.0
 11
242.629713
 21
-46.015739
 31
0.0
  0
LINE
  5
6F
330
1F
100
AcDbEntity
  8
LC-001-100-D00-0
 62
     7
370
    50
100
AcDbLine
 10
242.629713
 20
-43.015738
 30
0.0
 11
242.629713
 21
3.984262
 31
0.0
  0
LINE
  5
70
330
1F
100
AcDbEntity
  8
LC-001-100-D00-0
 62
     7
370
    50
100
AcDbLine
 10
242.629713
 20
6.984261
 30
0.0
 11
242.629713
 21
53.984259
 31
0.0
  0
LINE
  5
71
330
1F
100
AcDbEntity
  8
LC-001-100-D00-0
 62
     7
370
    50
100
AcDbLine
 10
242.629713
 20
56.984258
 30
0.0
 11
242.629713
 21
103.984263
 31
0.0
  0
LINE
  5
72
330
1F
100
AcDbEntity
  8
LC-001-100-D00-0
 62
     7
370
    50
100
AcDbLine
 10
242.629713
 20
106.984255
 30
0.0
 11
242.629713
 21
153.98426
 31
0.0
  0
LINE
  5
73
330
1F
100
AcDbEntity
  8
LC-001-100-D00-0
 62
     7
370
    50
100
AcDbLine
 10
295.629717
 20
153.98426
 30
0.0
 11
295.629717
 21
106.984255
 31
0.0
  0
LINE
  5
74
330
1F
100
AcDbEntity
  8
LC-001-100-D00-0
 62
     7
370
    50
100
AcDbLine
 10
295.629717
 20
103.984263
 30
0.0
 11
295.629717
 21
56.984258
 31
0.0
  0
LINE
  5
75
330
1F
100
AcDbEntity
  8
LC-001-100-D00-0
 62
     7
370
    50
100
AcDbLine
 10
295.629717
 20
53.984259
 30
0.0
 11
295.629717
 21
6.984261
 31
0.0
  0
LINE
  5
76
330
1F
100
AcDbEntity
  8
LC-001-100-D00-0
 62
     7
370
    50
100
AcDbLine
 10
295.629717
 20
3.984262
 30
0.0
 11
295.629717
 21
-43.015738
 31
0.0
  0
LINE
  5
77
330
1F
100
AcDbEntity
  8
LC-001-100-D00-0
 62
     7
370
    50
100
AcDbLine
 10
295.629717
 20
-46.015739
 30
0.0
 11
295.629717
 21
-69.515738
 31
0.0
  0
LINE
  5
78
330
1F
100
AcDbEntity
  8
LC-001-100-D00-0
 62
     7
370
    50
100
AcDbLine
 10
292.629725
 20
-69.515738
 30
0.0
 11
292.629725
 21
-46.015739
 31
0.0
  0
LINE
  5
79
330
1F
100
AcDbEntity
  8
LC-001-100-D00-0
 62
     7
370
    50
100
AcDbLine
 10
292.629725
 20
-43.015738
 30
0.0
 11
292.629725
 21
3.984262
 31
0.0
  0
LINE
  5
7A
330
1F
100
AcDbEntity
  8
LC-001-100-D00-0
 62
     7
370
    50
100
AcDbLine
 10
292.629725
 20
6.984261
 30
0.0
 11
292.629725
 21
53.984259
 31
0.0
  0
LINE
  5
7B
330
1F
100
AcDbEntity
  8
LC-001-100-D00-0
 62
     7
370
    50
100
AcDbLine
 10
292.629725
 20
56.984258
 30
0.0
 11
292.629725
 21
103.984263
 31
0.0
  0
LINE
  5
7C
330
1F
100
AcDbEntity
  8
LC-001-100-D00-0
 62
     7
370
    50
100
AcDbLine
 10
292.629725
 20
106.984255
 30
0.0
 11
292.629725
 21
153.98426
 31
0.0
  0
LINE
  5
7D
330
1F
100
AcDbEntity
  8
LC-001-100-D00-0
 62
     7
370
    50
100
AcDbLine
 10
195.629708
 20
153.98426
 30
0.0
 11
195.629708
 21
106.984255
 31
0.0
  0
LINE
  5
7E
330
1F
100
AcDbEntity
  8
LC-001-100-D00-0
 62
     7
370
    50
100
AcDbLine
 10
195.629708
 20
103.984263
 30
0.0
 11
195.629708
 21
57.948363
 31
0.0
  0
LINE
  5
7F
330
1F
100
AcDbEntity
  8
LC-001-100-D00-0
 62
     7
370
    50
100
AcDbLine
 10
192.629716
 20
57.948989
 30
0.0
 11
192.629716
 21
103.984263
 31
0.0
  0
LINE
  5
80
330
1F
100
AcDbEntity
  8
LC-001-100-D00-0
 62
     7
370
    50
100
AcDbLine
 10
192.629716
 20
106.984255
 30
0.0
 11
192.629716
 21
153.98426
 31
0.0
  0
LINE
  5
81
330
1F
100
AcDbEntity
  8
LC-001-100-D00-0
 62
     7
370
    50
100
AcDbLine
 10
-54.370285
 20
153.98426
 30
0.0
 11
-54.370285
 21
106.984255
 31
0.0
  0
LINE
  5
82
330
1F
100
AcDbEntity
  8
LC-001-100-D00-0
 62
     7
370
    50
100
AcDbLine
 10
-54.370285
 20
103.984263
 30
0.0
 11
-54.370285
 21
57.948989
 31
0.0
  0
LINE
  5
83
330
1F
100
AcDbEntity
  8
LC-001-100-D00-0
 62
     7
370
    50
100
AcDbLine
 10
-57.370287
 20
57.948363
 30
0.0
 11
-57.370287
 21
103.984263
 31
0.0
  0
LINE
  5
84
330
1F
100
AcDbEntity
  8
LC-001-100-D00-0
 62
     7
370
    50
100
AcDbLine
 10
-57.370287
 20
106.984255
 30
0.0
 11
-57.370287
 21
153.98426
 31
0.0
  0
LINE
  5
85
330
1F
100
AcDbEntity
  8
LC-001-100-D00-0
 62
     7
370
    50
100
AcDbLine
 10
145.629711
 20
153.98426
 30
0.0
 11
145.629711
 21
106.984255
 31
0.0
  0
LINE
  5
86
330
1F
100
AcDbEntity
  8
LC-001-100-D00-0
 62
     7
370
    50
100
AcDbLine
 10
145.629711
 20
103.984263
 30
0.0
 11
145.629711
 21
57.948989
 31
0.0
  0
LINE
  5
87
330
1F
100
AcDbEntity
  8
LC-001-100-D00-0
 62
     7
370
    50
100
AcDbLine
 10
142.629719
 20
57.948989
 30
0.0
 11
142.629719
 21
103.984263
 31
0.0
  0
LINE
  5
88
330
1F
100
AcDbEntity
  8
LC-001-100-D00-0
 62
     7
370
    50
100
AcDbLine
 10
142.629719
 20
106.984255
 30
0.0
 11
142.629719
 21
153.98426
 31
0.0
  0
LINE
  5
89
330
1F
100
AcDbEntity
  8
LC-001-100-D00-0
 62
     7
370
    50
100
AcDbLine
 10
45.629713
 20
153.98426
 30
0.0
 11
45.629713
 21
106.984255
 31
0.0
  0
LINE
  5
8A
330
1F
100
AcDbEntity
  8
LC-001-100-D00-0
 62
     7
370
    50
100
AcDbLine
 10
45.629713
 20
103.984263
 30
0.0
 11
45.629713
 21
57.948989
 31
0.0
  0
LINE
  5
8B
330
1F
100
AcDbEntity
  8
LC-001-100-D00-0
 62
     7
370
    50
100
AcDbLine
 10
42.629714
 20
57.948989
 30
0.0
 11
42.629714
 21
103.984263
 31
0.0
  0
LINE
  5
8C
330
1F
100
AcDbEntity
  8
LC-001-100-D00-0
 62
     7
370
    50
100
AcDbLine
 10
42.629714
 20
106.984255
 30
0.0
 11
42.629714
 21
153.98426
 31
0.0
  0
ARC
  5
8D
330
1F
100
AcDbEntity
  8
LC-001-100-D00-0
 62
     7
370
    50
100
AcDbCircle
 10
195.594438
 20
56.948986
 30
0.0
 40
1.000000000000007
100
AcDbArc
 50
2.021596000000001
 51
90.0
  0
ARC
  5
8E
330
1F
100
AcDbEntity
  8
LC-001-100-D00-0
 62
     7
370
    50
100
AcDbCircle
 10
-57.33501
 20
56.948986
 30
0.0
 40
1.000000000000036
100
AcDbArc
 50
90.0
 51
177.978404
  0
LINE
  5
8F
330
1F
100
AcDbEntity
  8
LC-001-100-D00-0
 62
     7
370
    50
100
AcDbLine
 10
-58.335011
 20
-69.515738
 30
0.0
 11
-58.335011
 21
-46.015739
 31
0.0
  0
LINE
  5
90
330
1F
100
AcDbEntity
  8
LC-001-100-D00-0
 62
     7
370
    50
100
AcDbLine
 10
-58.335011
 20
-43.015738
 30
0.0
 11
-58.335011
 21
3.984262
 31
0.0
  0
LINE
  5
91
330
1F
100
AcDbEntity
  8
LC-001-100-D00-0
 62
     7
370
    50
100
AcDbLine
 10
-58.335011
 20
6.984261
 30
0.0
 11
-58.335011
 21
53.984259
 31
0.0
  0
LINE
  5
92
330
1F
100
AcDbEntity
  8
LC-001-100-D00-0
 62
     7
370
    50
100
AcDbLine
 10
-57.335009
 20
57.948989
 30
0.0
 11
195.594437
 21
57.948989
 31
0.0
  0
LINE
  5
93
330
1F
100
AcDbEntity
  8
LC-001-100-D00-0
 62
     7
370
    50
100
AcDbLine
 10
196.594439
 20
53.984259
 30
0.0
 11
196.594439
 21
6.984261
 31
0.0
  0
LINE
  5
94
330
1F
100
AcDbEntity
  8
LC-001-100-D00-0
 62
     7
370
    50
100
AcDbLine
 10
196.594439
 20
3.984262
 30
0.0
 11
196.594439
 21
-43.015738
 31
0.0
  0
LINE
  5
95
330
1F
100
AcDbEntity
  8
LC-001-100-D00-0
 62
     7
370
    50
100
AcDbLine
 10
196.594439
 20
-46.015739
 30
0.0
 11
196.594439
 21
-69.515738
 31
0.0
  0
LINE
  5
96
330
1F
100
AcDbEntity
  8
LC-001-100-D00-0
 62
     7
370
    50
100
AcDbLine
 10
23.129714
 20
-23.515738
 30
0.0
 11
115.129716
 21
-23.515738
 31
0.0
  0
LINE
  5
97
330
1F
100
AcDbEntity
  8
LC-001-100-D00-0
 62
     7
370
    50
100
AcDbLine
 10
115.129716
 20
-23.515738
 30
0.0
 11
115.129716
 21
-69.515738
 31
0.0
  0
LINE
  5
98
330
1F
100
AcDbEntity
  8
LC-001-100-D00-0
 62
     7
370
    50
100
AcDbLine
 10
23.129714
 20
-69.515738
 30
0.0
 11
23.129714
 21
-23.515738
 31
0.0
  0
LINE
  5
99
330
1F
100
AcDbEntity
  8
LC-001-100-D00-0
 62
     7
370
    50
100
AcDbLine
 10
21.629714
 20
-22.015739
 30
0.0
 11
116.629711
 21
-22.015739
 31
0.0
  0
INSERT
  5
9F
330
1F
100
AcDbEntity
  8
LC-001-100-D00-0
 62
     7
370
    50
100
AcDbBlockReference
  2
KLON1
 10
0.0
 20
0.0
 30
0.0
  0
INSERT
  5
A5
330
1F
100
AcDbEntity
  8
LC-001-100-D00-0
 62
     7
370
    50
100
AcDbBlockReference
  2
KLON2
 10
0.0
 20
0.0
 30
0.0
  0
INSERT
  5
AB
330
1F
100
AcDbEntity
  8
LC-001-100-D00-0
 62
     7
370
    50
100
AcDbBlockReference
  2
KLON3
 10
0.0
 20
0.0
 30
0.0
  0
INSERT
  5
B1
330
1F
100
AcDbEntity
  8
LC-001-100-D00-0
 62
     7
370
    50
100
AcDbBlockReference
  2
KLON4
 10
0.0
 20
0.0
 30
0.0
  0
INSERT
  5
B7
330
1F
100
AcDbEntity
  8
LC-001-100-D00-0
 62
     7
370
    50
100
AcDbBlockReference
  2
KLON5
 10
0.0
 20
0.0
 30
0.0
  0
INSERT
  5
BD
330
1F
100
AcDbEntity
  8
LC-001-100-D00-0
 62
     7
370
    50
100
AcDbBlockReference
  2
KLON6
 10
0.0
 20
0.0
 30
0.0
  0
INSERT
  5
C3
330
1F
100
AcDbEntity
  8
LC-001-100-D00-0
 62
     7
370
    50
100
AcDbBlockReference
  2
KLON7
 10
0.0
 20
0.0
 30
0.0
  0
INSERT
  5
C9
330
1F
100
AcDbEntity
  8
LC-001-100-D00-0
 62
     7
370
    50
100
AcDbBlockReference
  2
KLON8
 10
0.0
 20
0.0
 30
0.0
  0
ARC
  5
CA
330
1F
100
AcDbEntity
  8
LC-001-100-D00-0
 62
     7
370
    50
100
AcDbCircle
 10
-232.620286
 20
-69.51576
 30
0.0
 40
350.7499999999906
100
AcDbArc
 50
0.000004
 51
4.213624
  0
ARC
  5
CB
330
1F
100
AcDbEntity
  8
LC-001-100-D00-0
 62
     7
370
    50
100
AcDbCircle
 10
112.195164
 20
-44.111663
 30
0.0
 40
5.000000000000015
100
AcDbArc
 50
4.213624
 51
27.512501
  0
ARC
  5
CC
330
1F
100
AcDbEntity
  8
LC-001-100-D00-0
 62
     7
370
    50
100
AcDbCircle
 10
26.064261
 20
-44.111669
 30
0.0
 40
4.999999999999959
100
AcDbArc
 50
152.487407
 51
175.786385
  0
ARC
  5
CD
330
1F
100
AcDbEntity
  8
LC-001-100-D00-0
 62
     7
370
    50
100
AcDbCircle
 10
370.879714
 20
-69.515716
 30
0.0
 40
350.7499999999907
100
AcDbArc
 50
175.786385
 51
180.000004
  0
ARC
  5
CE
330
1F
100
AcDbEntity
  8
LC-001-100-D00-0
 62
     7
370
    50
100
AcDbCircle
 10
69.129736
 20
-371.265738
 30
0.0
 40
350.7499999999907
100
AcDbArc
 50
85.786385
 51
94.213624
  0
ARC
  5
CF
330
1F
100
AcDbEntity
  8
LC-001-100-D00-0
 62
     7
370
    50
100
AcDbCircle
 10
43.725639
 20
-26.450288
 30
0.0
 40
4.999999999999958
100
AcDbArc
 50
94.213624
 51
117.512501
  0
ARC
  5
D0
330
1F
100
AcDbEntity
  8
LC-001-100-D00-0
 62
     7
370
    50
100
AcDbCircle
 10
94.533783
 20
-26.450285
 30
0.0
 40
5.000000000000016
100
AcDbArc
 50
62.487407
 51
85.786385
  0
LINE
  5
D1
330
1F
100
AcDbEntity
  8
LC-001-100-D00-0
 62
     7
370
    50
100
AcDbLine
 10
168.171368
 20
25.47611
 30
0.0
 11
170.171297
 21
25.492754
 31
0.0
  0
LINE
  5
D2
330
1F
100
AcDbEntity
  8
LC-001-100-D00-0
 62
     7
370
    50
100
AcDbLine
 10
168.08813
 20
35.475765
 30
0.0
 11
168.171368
 21
25.47611
 31
0.0
  0
LINE
  5
D3
330
1F
100
AcDbEntity
  8
LC-001-100-D00-0
 62
     7
370
    50
100
AcDbLine
 10
170.088059
 20
35.49241
 30
0.0
 11
168.08813
 21
35.475765
 31
0.0
  0
LINE
  5
D4
330
1F
100
AcDbEntity
  8
LC-001-100-D00-0
 62
     7
370
    50
100
AcDbLine
 10
170.171297
 20
25.492754
 30
0.0
 11
170.088059
 21
35.49241
 31
0.0
  0
CIRCLE
  5
D5
330
1F
100
AcDbEntity
  8
LC-001-100-D00-0
 62
     7
370
    50
100
AcDbCircle
 10
169.129714
 20
30.484262
 30
0.0
 40
14.0
  0
LINE
  5
D6
330
1F
100
AcDbEntity
  8
LC-001-100-D00-0
 62
     7
370
    50
100
AcDbLine
 10
-25.870287
 20
29.484261
 30
0.0
 11
-25.870287
 21
31.484265
 31
0.0
  0
LINE
  5
D7
330
1F
100
AcDbEntity
  8
LC-001-100-D00-0
 62
     7
370
    50
100
AcDbLine
 10
-35.870285
 20
31.484265
 30
0.0
 11
-35.870285
 21
29.484261
 31
0.0
  0
LINE
  5
D8
330
1F
100
AcDbEntity
  8
LC-001-100-D00-0
 62
     7
370
    50
100
AcDbLine
 10
-25.870287
 20
31.484265
 30
0.0
 11
-35.870285
 21
31.484265
 31
0.0
  0
LINE
  5
D9
330
1F
100
AcDbEntity
  8
LC-001-100-D00-0
 62
     7
370
    50
100
AcDbLine
 10
-35.870285
 20
29.484261
 30
0.0
 11
-25.870287
 21
29.484261
 31
0.0
  0
CIRCLE
  5
DA
330
1F
100
AcDbEntity
  8
LC-001-100-D00-0
 62
     7
370
    50
100
AcDbCircle
 10
-30.870286
 20
30.484262
 30
0.0
 40
14.0
  0
LINE
  5
DB
330
1F
100
AcDbEntity
  8
LC-001-100-D00-0
 62
     7
370
    50
100
AcDbLine
 10
287.32971
 20
-69.515738
 30
0.0
 11
287.32971
 21
-46.015739
 31
0.0
  0
LINE
  5
DC
330
1F
100
AcDbEntity
  8
LC-001-100-D00-0
 62
     7
370
    50
100
AcDbLine
 10
284.329719
 20
-42.700515
 30
0.0
 11
284.329719
 21
-43.015738
 31
0.0
  0
LINE
  5
DD
330
1F
100
AcDbEntity
  8
LC-001-100-D00-0
 62
     7
370
    50
100
AcDbLine
 10
284.329719
 20
-46.015739
 30
0.0
 11
284.329719
 21
-69.515738
 31
0.0
  0
LINE
  5
DE
330
1F
100
AcDbEntity
  8
LC-001-100-D00-0
 62
     7
370
    50
100
AcDbLine
 10
239.103219
 20
-69.515738
 30
0.0
 11
239.103219
 21
-46.015739
 31
0.0
  0
LINE
  5
DF
330
1F
100
AcDbEntity
  8
LC-001-100-D00-0
 62
     7
370
    50
100
AcDbLine
 10
239.103219
 20
-43.015738
 30
0.0
 11
239.103219
 21
-42.700515
 31
0.0
  0
ARC
  5
E0
330
1F
100
AcDbEntity
  8
LC-001-100-D00-0
 62
     7
370
    50
100
AcDbCircle
 10
69.129714
 20
-69.515738
 30
0.0
 40
42.50000000000004
100
AcDbArc
 50
113.415514
 51
128.892145
  0
ARC
  5
E1
330
1F
100
AcDbEntity
  8
LC-001-100-D00-0
 62
     7
370
    50
100
AcDbCircle
 10
69.129714
 20
-69.515738
 30
0.0
 40
42.50000000000006
100
AcDbArc
 50
141.107855
 51
156.584486
  0
ARC
  5
E2
330
1F
100
AcDbEntity
  8
LC-001-100-D00-0
 62
     7
370
    50
100
AcDbCircle
 10
69.129714
 20
-69.515738
 30
0.0
 40
42.49999999999997
100
AcDbArc
 50
23.415514
 51
38.892145
  0
ARC
  5
E3
330
1F
100
AcDbEntity
  8
LC-001-100-D00-0
 62
     7
370
    50
100
AcDbCircle
 10
69.129714
 20
-69.515738
 30
0.0
 40
42.49999999999998
100
AcDbArc
 50
51.107855
 51
66.584486
  0
ARC
  5
E4
330
1F
100
AcDbEntity
  8
LC-001-100-D00-0
 62
     7
370
    50
100
AcDbCircle
 10
69.129714
 20
-69.515738
 30
0.0
 40
38.00006076
100
AcDbArc
 50
90.0
 51
119.72449
  0
ARC
  5
E5
330
1F
100
AcDbEntity
  8
LC-001-100-D00-0
 62
     7
370
    50
100
AcDbCircle
 10
69.129714
 20
-69.515738
 30
0.0
 40
38.00006075999983
100
AcDbArc
 50
150.27551
 51
180.0
  0
ARC
  5
E6
330
1F
100
AcDbEntity
  8
LC-001-100-D00-0
 62
     7
370
    50
100
AcDbCircle
 10
69.129714
 20
-69.515738
 30
0.0
 40
38.00006076
100
AcDbArc
 50
0.0
 51
29.72449
  0
ARC
  5
E7
330
1F
100
AcDbEntity
  8
LC-001-100-D00-0
 62
     7
370
    50
100
AcDbCircle
 10
69.129714
 20
-69.515738
 30
0.0
 40
38.00006076
100
AcDbArc
 50
60.27551
 51
90.0
  0
ARC
  5
E8
330
1F
100
AcDbEntity
  8
LC-001-100-D00-0
 62
     7
370
    50
100
AcDbCircle
 10
72.629714
 20
-57.515738
 30
0.0
 40
3.000000000000227
100
AcDbArc
 50
270.0
 51
90.0
  0
LINE
  5
E9
330
1F
100
AcDbEntity
  8
LC-001-100-D00-0
 62
     7
370
    50
100
AcDbLine
 10
72.629712
 20
-60.515738
 30
0.0
 11
65.629712
 21
-60.515738
 31
0.0
  0
LINE
  5
EA
330
1F
100
AcDbEntity
  8
LC-001-100-D00-0
 62
     7
370
    50
100
AcDbLine
 10
30.129715
 20
-69.515738
 30
0.0
 11
30.129715
 21
-43.515737
 31
0.0
  0
LINE
  5
EB
330
1F
100
AcDbEntity
  8
LC-001-100-D00-0
 62
     7
370
    50
100
AcDbLine
 10
108.129717
 20
-43.515737
 30
0.0
 11
108.129717
 21
-69.515738
 31
0.0
  0
ARC
  5
EC
330
1F
100
AcDbEntity
  8
LC-001-100-D00-0
 62
     7
370
    50
100
AcDbCircle
 10
105.129714
 20
-43.515738
 30
0.0
 40
3.000000000000114
100
AcDbArc
 50
0.0
 51
180.0
  0
LINE
  5
ED
330
1F
100
AcDbEntity
  8
LC-001-100-D00-0
 62
     7
370
    50
100
AcDbLine
 10
23.629715
 20
-26.515737
 30
0.0
 11
23.629715
 21
-69.515738
 31
0.0
  0
LINE
  5
EE
330
1F
100
AcDbEntity
  8
LC-001-100-D00-0
 62
     7
370
    50
100
AcDbLine
 10
42.129713
 20
-69.515738
 30
0.0
 11
42.129713
 21
-54.515738
 31
0.0
  0
LINE
  5
EF
330
1F
100
AcDbEntity
  8
LC-001-100-D00-0
 62
     7
370
    50
100
AcDbLine
 10
112.129717
 20
-24.015739
 30
0.0
 11
26.129714
 21
-24.015739
 31
0.0
  0
LINE
  5
F0
330
1F
100
AcDbEntity
  8
LC-001-100-D00-0
 62
     7
370
    50
100
AcDbLine
 10
95.129713
 20
-36.515738
 30
0.0
 11
43.129715
 21
-36.515738
 31
0.0
  0
ARC
  5
F1
330
1F
100
AcDbEntity
  8
LC-001-100-D00-0
 62
     7
370
    50
100
AcDbCircle
 10
43.129714
 20
-33.515738
 30
0.0
 40
3.000000000000057
100
AcDbArc
 50
90.0
 51
270.0
  0
ARC
  5
F2
330
1F
100
AcDbEntity
  8
LC-001-100-D00-0
 62
     7
370
    50
100
AcDbCircle
 10
84.129714
 20
-45.515738
 30
0.0
 40
3.000000000000171
100
AcDbArc
 50
270.0
 51
90.0
  0
ARC
  5
F3
330
1F
100
AcDbEntity
  8
LC-001-100-D00-0
 62
     7
370
    50
100
AcDbCircle
 10
33.129714
 20
-43.515738
 30
0.0
 40
3.000000000000057
100
AcDbArc
 50
0.0
 51
180.0
  0
LINE
  5
F4
330
1F
100
AcDbEntity
  8
LC-001-100-D00-0
 62
     7
370
    50
100
AcDbLine
 10
48.129714
 20
-54.515738
 30
0.0
 11
48.129714
 21
-69.515738
 31
0.0
  0
LINE
  5
F5
330
1F
100
AcDbEntity
  8
LC-001-100-D00-0
 62
     7
370
    50
100
AcDbLine
 10
65.629712
 20
-54.515738
 30
0.0
 11
72.629712
 21
-54.515738
 31
0.0
  0
ARC
  5
F6
330
1F
100
AcDbEntity
  8
LC-001-100-D00-0
 62
     7
370
    50
100
AcDbCircle
 10
65.629714
 20
-57.515738
 30
0.0
 40
3.000000000000057
100
AcDbArc
 50
90.0
 51
270.0
  0
LINE
  5
F7
330
1F
100
AcDbEntity
  8
LC-001-100-D00-0
 62
     7
370
    50
100
AcDbLine
 10
84.129713
 20
-48.515738
 30
0.0
 11
54.129715
 21
-48.515738
 31
0.0
  0
ARC
  5
F8
330
1F
100
AcDbEntity
  8
LC-001-100-D00-0
 62
     7
370
    50
100
AcDbCircle
 10
95.129714
 20
-33.515738
 30
0.0
 40
3.000000000000057
100
AcDbArc
 50
270.0
 51
90.0
  0
LINE
  5
F9
330
1F
100
AcDbEntity
  8
LC-001-100-D00-0
 62
     7
370
    50
100
AcDbLine
 10
36.129716
 20
-43.515737
 30
0.0
 11
36.129716
 21
-69.515738
 31
0.0
  0
LINE
  5
FA
330
1F
100
AcDbEntity
  8
LC-001-100-D00-0
 62
     7
370
    50
100
AcDbLine
 10
43.129715
 20
-30.515737
 30
0.0
 11
95.129713
 21
-30.515737
 31
0.0
  0
LINE
  5
FB
330
1F
100
AcDbEntity
  8
LC-001-100-D00-0
 62
     7
370
    50
100
AcDbLine
 10
102.129712
 20
-69.515738
 30
0.0
 11
102.129712
 21
-43.515737
 31
0.0
  0
LINE
  5
FC
330
1F
100
AcDbEntity
  8
LC-001-100-D00-0
 62
     7
370
    50
100
AcDbLine
 10
114.629715
 20
-69.515738
 30
0.0
 11
114.629715
 21
-26.515737
 31
0.0
  0
LINE
  5
FD
330
1F
100
AcDbEntity
  8
LC-001-100-D00-0
 62
     7
370
    50
100
AcDbLine
 10
90.129717
 20
-69.515738
 30
0.0
 11
90.129717
 21
-54.515738
 31
0.0
  0
ARC
  5
FE
330
1F
100
AcDbEntity
  8
LC-001-100-D00-0
 62
     7
370
    50
100
AcDbCircle
 10
54.129714
 20
-45.515738
 30
0.0
 40
3.000000000000114
100
AcDbArc
 50
90.0
 51
270.0
  0
LINE
  5
FF
330
1F
100
AcDbEntity
  8
LC-001-100-D00-0
 62
     7
370
    50
100
AcDbLine
 10
96.129715
 20
-54.515738
 30
0.0
 11
96.129715
 21
-69.515738
 31
0.0
  0
ARC
  5
100
330
1F
100
AcDbEntity
  8
LC-001-100-D00-0
 62
     7
370
    50
100
AcDbCircle
 10
93.129714
 20
-54.515738
 30
0.0
 40
3.0
100
AcDbArc
 50
0.0
 51
180.0
  0
ARC
  5
101
330
1F
100
AcDbEntity
  8
LC-001-100-D00-0
 62
     7
370
    50
100
AcDbCircle
 10
112.129714
 20
-26.515738
 30
0.0
 40
2.500000000000227
100
AcDbArc
 50
0.0
 51
90.0
  0
ARC
  5
102
330
1F
100
AcDbEntity
  8
LC-001-100-D00-0
 62
     7
370
    50
100
AcDbCircle
 10
26.129714
 20
-26.515738
 30
0.0
 40
2.500000000000057
100
AcDbArc
 50
90.0
 51
180.0
  0
ARC
  5
103
330
1F
100
AcDbEntity
  8
LC-001-100-D00-0
 62
     7
370
    50
100
AcDbCircle
 10
45.129714
 20
-54.515738
 30
0.0
 40
3.0
100
AcDbArc
 50
0.0
 51
180.0
  0
LINE
  5
104
330
1F
100
AcDbEntity
  8
LC-001-100-D00-0
 62
     7
370
    50
100
AcDbLine
 10
54.129715
 20
-42.515737
 30
0.0
 11
84.129713
 21
-42.515737
 31
0.0
  0
LINE
  5
105
330
1F
100
AcDbEntity
  8
LC-001-100-D00-0
 62
     7
370
    50
100
AcDbLine
 10
295.629717
 20
6.984261
 30
0.0
 11
295.629717
 21
3.984262
 31
0.0
  0
LINE
  5
106
330
1F
100
AcDbEntity
  8
LC-001-100-D00-0
 62
     7
370
    50
100
AcDbLine
 10
295.629717
 20
-43.015738
 30
0.0
 11
295.629717
 21
-46.015739
 31
0.0
  0
LINE
  5
107
330
1F
100
AcDbEntity
  8
LC-001-100-D00-0
 62
     7
370
    50
100
AcDbLine
 10
295.629717
 20
106.984255
 30
0.0
 11
295.629717
 21
103.984263
 31
0.0
  0
LINE
  5
108
330
1F
100
AcDbEntity
  8
LC-001-100-D00-0
 62
     7
370
    50
100
AcDbLine
 10
-157.370293
 20
106.984255
 30
0.0
 11
-157.370293
 21
103.984263
 31
0.0
  0
LINE
  5
109
330
1F
100
AcDbEntity
  8
LC-001-100-D00-0
 62
     7
370
    50
100
AcDbLine
 10
-157.370293
 20
156.984267
 30
0.0
 11
-157.370293
 21
153.98426
 31
0.0
  0
LINE
  5
10A
330
1F
100
AcDbEntity
  8
LC-001-100-D00-0
 62
     7
370
    50
100
AcDbLine
 10
295.629717
 20
156.984267
 30
0.0
 11
295.629717
 21
153.98426
 31
0.0
  0
LINE
  5
10B
330
1F
100
AcDbEntity
  8
LC-001-100-D00-0
 62
     7
370
    50
100
AcDbLine
 10
295.629717
 20
56.984258
 30
0.0
 11
295.629717
 21
53.984259
 31
0.0
  0
LINE
  5
10C
330
1F
100
AcDbEntity
  8
LC-001-100-D00-0
 62
     7
370
    50
100
AcDbLine
 10
-157.370293
 20
56.984258
 30
0.0
 11
-157.370293
 21
53.984259
 31
0.0
  0
LINE
  5
10D
330
1F
100
AcDbEntity
  8
LC-001-100-D00-0
 62
     7
370
    50
100
AcDbLine
 10
-157.370293
 20
6.984261
 30
0.0
 11
-157.370293
 21
3.984262
 31
0.0
  0
LINE
  5
10E
330
1F
100
AcDbEntity
  8
LC-001-100-D00-0
 62
     7
370
    50
100
AcDbLine
 10
-157.370293
 20
-43.015738
 30
0.0
 11
-157.370293
 21
-46.015739
 31
0.0
  0
LINE
  5
10F
330
1F
100
AcDbEntity
  8
LC-001-100-D00-0
 62
     7
370
    50
100
AcDbLine
 10
10.138189
 20
-68.515738
 30
0.0
 11
20.13114
 21
-68.515738
 31
0.0
  0
LINE
  5
110
330
1F
100
AcDbEntity
  8
LC-001-100-D00-0
 62
     7
370
    50
100
AcDbLine
 10
23.140584
 20
-68.515738
 30
0.0
 11
23.629715
 21
-68.515738
 31
0.0
  0
LINE
  5
111
330
1F
100
AcDbEntity
  8
LC-001-100-D00-0
 62
     7
370
    50
100
AcDbLine
 10
114.629715
 20
-68.515738
 30
0.0
 11
115.118845
 21
-68.515738
 31
0.0
  0
LINE
  5
112
330
1F
100
AcDbEntity
  8
LC-001-100-D00-0
 62
     7
370
    50
100
AcDbLine
 10
118.128291
 20
-68.515738
 30
0.0
 11
128.121241
 21
-68.515738
 31
0.0
  0
LINE
  5
113
330
1F
100
AcDbEntity
  8
LC-001-100-D00-0
 62
     7
370
    50
100
AcDbLine
 10
68.129717
 20
-24.015739
 30
0.0
 11
68.129717
 21
-23.526608
 31
0.0
  0
LINE
  5
114
330
1F
100
AcDbEntity
  8
LC-001-100-D00-0
 62
     7
370
    50
100
AcDbLine
 10
68.129717
 20
-20.517162
 30
0.0
 11
68.129717
 21
-10.524213
 31
0.0
  0
LINE
  5
115
330
1F
100
AcDbEntity
  8
LC-001-100-D00-0
 62
     7
370
    50
100
AcDbLine
 10
70.129714
 20
-10.524213
 30
0.0
 11
70.129714
 21
-20.517162
 31
0.0
  0
LINE
  5
116
330
1F
100
AcDbEntity
  8
LC-001-100-D00-0
 62
     7
370
    50
100
AcDbLine
 10
70.129714
 20
-23.526608
 30
0.0
 11
70.129714
 21
-24.015739
 31
0.0
  0
ARC
  5
117
330
1F
100
AcDbEntity
  8
LC-001-100-D00-0
 62
     7
370
    50
100
AcDbCircle
 10
69.129714
 20
-69.515738
 30
0.0
 40
58.99999999999989
100
AcDbArc
 50
143.61844
 51
180.0
  0
ARC
  5
118
330
1F
100
AcDbEntity
  8
LC-001-100-D00-0
 62
     7
370
    50
100
AcDbCircle
 10
69.129714
 20
-69.515738
 30
0.0
 40
59.00000000000002
100
AcDbArc
 50
53.61844
 51
126.38156
  0
ARC
  5
119
330
1F
100
AcDbEntity
  8
LC-001-100-D00-0
 62
     7
370
    50
100
AcDbCircle
 10
69.129714
 20
-69.515738
 30
0.0
 40
59.0
100
AcDbArc
 50
0.0
 51
36.38156
  0
CIRCLE
  5
11A
330
1F
100
AcDbEntity
  8
LC-001-100-D00-0
 62
     7
370
    50
100
AcDbCircle
 10
-30.870286
 20
30.484262
 30
0.0
 40
15.0
  0
CIRCLE
  5
11B
330
1F
100
AcDbEntity
  8
LC-001-100-D00-0
 62
     7
370
    50
100
AcDbCircle
 10
169.129714
 20
30.484262
 30
0.0
 40
15.00000000000006
  0
LINE
  5
11D
330
1F
100
AcDbEntity
  8
LC-003-105-D00-0
 62
     7
370
    25
100
AcDbLine
 10
295.629717
 20
-69.515738
 30
0.0
 11
-157.370293
 21
-69.515738
 31
0.0
  0
ARC
  5
11E
330
1F
100
AcDbEntity
  8
LC-001-100-D00-0
 62
     7
370
    50
100
AcDbCircle
 10
178.129714
 20
205.511655
 30
0.0
 40
0.5
100
AcDbArc
 50
0.0
 51
90.0
  0
ARC
  5
11F
330
1F
100
AcDbEntity
  8
LC-001-100-D00-0
 62
     7
370
    50
100
AcDbCircle
 10
160.129714
 20
205.511655
 30
0.0
 40
0.4999999999999432
100
AcDbArc
 50
90.0
 51
180.0
  0
LINE
  5
120
330
1F
100
AcDbEntity
  8
LC-001-100-D00-0
 62
     7
370
    50
100
AcDbLine
 10
178.629718
 20
205.511657
 30
0.0
 11
178.629718
 21
198.011657
 31
0.0
  0
LINE
  5
121
330
1F
100
AcDbEntity
  8
LC-001-100-D00-0
 62
     7
370
    50
100
AcDbLine
 10
159.629709
 20
198.011657
 30
0.0
 11
159.629709
 21
205.511657
 31
0.0
  0
ARC
  5
122
330
1F
100
AcDbEntity
  8
LC-001-100-D00-0
 62
     7
370
    50
100
AcDbCircle
 10
-21.870286
 20
205.511655
 30
0.0
 40
0.5
100
AcDbArc
 50
0.0
 51
90.0
  0
ARC
  5
123
330
1F
100
AcDbEntity
  8
LC-001-100-D00-0
 62
     7
370
    50
100
AcDbCircle
 10
-39.870286
 20
205.511655
 30
0.0
 40
0.4999999999999432
100
AcDbArc
 50
90.0
 51
180.0
  0
LINE
  5
124
330
1F
100
AcDbEntity
  8
LC-001-100-D00-0
 62
     7
370
    50
100
AcDbLine
 10
-21.370285
 20
205.511657
 30
0.0
 11
-21.370285
 21
198.011657
 31
0.0
  0
LINE
  5
125
330
1F
100
AcDbEntity
  8
LC-001-100-D00-0
 62
     7
370
    50
100
AcDbLine
 10
-40.370286
 20
198.011657
 30
0.0
 11
-40.370286
 21
205.511657
 31
0.0
  0
LINE
  5
126
330
1F
100
AcDbEntity
  8
LC-001-100-D00-0
 62
     7
370
    50
100
AcDbLine
 10
-20.870286
 20
217.511655
 30
0.0
 11
-20.870286
 21
207.011656
 31
0.0
  0
LINE
  5
127
330
1F
100
AcDbEntity
  8
LC-001-100-D00-0
 62
     7
370
    50
100
AcDbLine
 10
-40.870287
 20
207.011656
 30
0.0
 11
-40.870287
 21
217.511655
 31
0.0
  0
LINE
  5
128
330
1F
100
AcDbEntity
  8
LC-001-100-D00-0
 62
     7
370
    50
100
AcDbLine
 10
-20.870286
 20
207.011656
 30
0.0
 11
-21.870286
 21
206.011654
 31
0.0
  0
LINE
  5
129
330
1F
100
AcDbEntity
  8
LC-001-100-D00-0
 62
     7
370
    50
100
AcDbLine
 10
-39.870285
 20
206.011654
 30
0.0
 11
-40.870287
 21
207.011656
 31
0.0
  0
LINE
  5
12A
330
1F
100
AcDbEntity
  8
LC-001-100-D00-0
 62
     7
370
    50
100
AcDbLine
 10
-20.870286
 20
290.585042
 30
0.0
 11
-20.870286
 21
221.011655
 31
0.0
  0
LINE
  5
12B
330
1F
100
AcDbEntity
  8
LC-001-100-D00-0
 62
     7
370
    50
100
AcDbLine
 10
-40.870287
 20
221.011655
 30
0.0
 11
-40.870287
 21
290.585042
 31
0.0
  0
LINE
  5
12C
330
1F
100
AcDbEntity
  8
LC-001-100-D00-0
 62
     7
370
    50
100
AcDbLine
 10
-22.970286
 20
221.011655
 30
0.0
 11
-22.970286
 21
217.511655
 31
0.0
  0
LINE
  5
12D
330
1F
100
AcDbEntity
  8
LC-001-100-D00-0
 62
     7
370
    50
100
AcDbLine
 10
-38.770285
 20
217.511655
 30
0.0
 11
-38.770285
 21
221.011655
 31
0.0
  0
LINE
  5
12E
330
1F
100
AcDbEntity
  8
LC-001-100-D00-0
 62
     7
370
    50
100
AcDbLine
 10
179.129711
 20
207.011656
 30
0.0
 11
178.129709
 21
206.011654
 31
0.0
  0
LINE
  5
12F
330
1F
100
AcDbEntity
  8
LC-001-100-D00-0
 62
     7
370
    50
100
AcDbLine
 10
160.129718
 20
206.011654
 30
0.0
 11
159.129716
 21
207.011656
 31
0.0
  0
LINE
  5
130
330
1F
100
AcDbEntity
  8
LC-001-100-D00-0
 62
     7
370
    50
100
AcDbLine
 10
179.129711
 20
217.511655
 30
0.0
 11
179.129711
 21
207.011656
 31
0.0
  0
LINE
  5
131
330
1F
100
AcDbEntity
  8
LC-001-100-D00-0
 62
     7
370
    50
100
AcDbLine
 10
159.129716
 20
207.011656
 30
0.0
 11
159.129716
 21
217.511655
 31
0.0
  0
LINE
  5
132
330
1F
100
AcDbEntity
  8
LC-001-100-D00-0
 62
     7
370
    50
100
AcDbLine
 10
179.129711
 20
246.352571
 30
0.0
 11
179.129711
 21
221.011655
 31
0.0
  0
LINE
  5
133
330
1F
100
AcDbEntity
  8
LC-001-100-D00-0
 62
     7
370
    50
100
AcDbLine
 10
159.129716
 20
221.011655
 30
0.0
 11
159.129716
 21
248.879222
 31
0.0
  0
LINE
  5
134
330
1F
100
AcDbEntity
  8
LC-001-100-D00-0
 62
     7
370
    50
100
AcDbLine
 10
177.029721
 20
221.011655
 30
0.0
 11
177.029721
 21
217.511655
 31
0.0
  0
LINE
  5
135
330
1F
100
AcDbEntity
  8
LC-001-100-D00-0
 62
     7
370
    50
100
AcDbLine
 10
161.229721
 20
217.511655
 30
0.0
 11
161.229721
 21
221.011655
 31
0.0
  0
LINE
  5
136
330
1F
100
AcDbEntity
  8
LC-001-100-D00-0
 62
     7
370
    50
100
AcDbLine
 10
110.779717
 20
310.589333
 30
0.0
 11
109.279714
 21
310.589333
 31
0.0
  0
LINE
  5
137
330
1F
100
AcDbEntity
  8
LC-001-100-D00-0
 62
     7
370
    50
100
AcDbLine
 10
28.979714
 20
310.589333
 30
0.0
 11
27.479715
 21
310.589333
 31
0.0
  0
LINE
  5
138
330
1F
100
AcDbEntity
  8
LC-001-100-D00-0
 62
     7
370
    50
100
AcDbLine
 10
172.429717
 20
249.335041
 30
0.0
 11
172.429717
 21
251.235041
 31
0.0
  0
LINE
  5
139
330
1F
100
AcDbEntity
  8
LC-001-100-D00-0
 62
     7
370
    50
100
AcDbLine
 10
172.429717
 20
292.935041
 30
0.0
 11
172.429717
 21
294.83504
 31
0.0
  0
LINE
  5
13A
330
1F
100
AcDbEntity
  8
LC-001-100-D00-0
 62
     7
370
    50
100
AcDbLine
 10
239.103219
 20
251.7439
 30
0.0
 11
238.906256
 21
252.085041
 31
0.0
  0
LINE
  5
13B
330
1F
100
AcDbEntity
  8
LC-001-100-D00-0
 62
     7
370
    50
100
AcDbLine
 10
233.526669
 20
292.085042
 30
0.0
 11
239.103219
 21
301.7439
 31
0.0
  0
LINE
  5
13C
330
1F
100
AcDbEntity
  8
LC-001-100-D00-0
 62
     7
370
    50
100
AcDbLine
 10
284.329719
 20
251.7439
 30
0.0
 11
239.103219
 21
251.7439
 31
0.0
  0
LINE
  5
13D
330
1F
100
AcDbEntity
  8
LC-001-100-D00-0
 62
     7
370
    50
100
AcDbLine
 10
239.103219
 20
301.7439
 30
0.0
 11
284.329719
 21
301.7439
 31
0.0
  0
LINE
  5
13E
330
1F
100
AcDbEntity
  8
LC-001-100-D00-0
 62
     7
370
    50
100
AcDbLine
 10
284.329719
 20
301.7439
 30
0.0
 11
287.32971
 21
300.940053
 31
0.0
  0
LINE
  5
13F
330
1F
100
AcDbEntity
  8
LC-001-100-D00-0
 62
     7
370
    50
100
AcDbLine
 10
287.32971
 20
252.547748
 30
0.0
 11
284.329719
 21
251.7439
 31
0.0
  0
ARC
  5
140
330
1F
100
AcDbEntity
  8
LC-001-100-D00-0
 62
     7
370
    50
100
AcDbCircle
 10
78.129714
 20
350.385041
 30
0.0
 40
1.0
100
AcDbArc
 50
90.0
 51
180.0
  0
ARC
  5
141
330
1F
100
AcDbEntity
  8
LC-001-100-D00-0
 62
     7
370
    50
100
AcDbCircle
 10
60.129714
 20
350.385041
 30
0.0
 40
1.0
100
AcDbArc
 50
360.0
 51
90.0
  0
LINE
  5
142
330
1F
100
AcDbEntity
  8
LC-001-100-D00-0
 62
     7
370
    50
100
AcDbLine
 10
61.129714
 20
348.885042
 30
0.0
 11
61.129714
 21
350.385038
 31
0.0
  0
LINE
  5
143
330
1F
100
AcDbEntity
  8
LC-001-100-D00-0
 62
     7
370
    50
100
AcDbLine
 10
77.129713
 20
350.385038
 30
0.0
 11
77.129713
 21
348.885042
 31
0.0
  0
ARC
  5
144
330
1F
100
AcDbEntity
  8
LC-001-100-D00-0
 62
     7
370
    50
100
AcDbCircle
 10
100.629714
 20
350.385041
 30
0.0
 40
1.000000000000039
100
AcDbArc
 50
120.0
 51
180.0
  0
ARC
  5
145
330
1F
100
AcDbEntity
  8
LC-001-100-D00-0
 62
     7
370
    50
100
AcDbCircle
 10
37.629714
 20
350.385041
 30
0.0
 40
0.9999999999999858
100
AcDbArc
 50
0.0
 51
60.0
  0
LINE
  5
146
330
1F
100
AcDbEntity
  8
LC-001-100-D00-0
 62
     7
370
    50
100
AcDbLine
 10
38.629713
 20
348.885042
 30
0.0
 11
38.629713
 21
350.385038
 31
0.0
  0
LINE
  5
147
330
1F
100
AcDbEntity
  8
LC-001-100-D00-0
 62
     7
370
    50
100
AcDbLine
 10
99.629714
 20
350.385038
 30
0.0
 11
99.629714
 21
348.885042
 31
0.0
  0
LINE
  5
148
330
1F
100
AcDbEntity
  8
LC-001-100-D00-0
 62
     7
370
    50
100
AcDbLine
 10
243.591196
 20
305.485037
 30
0.0
 11
196.589432
 21
305.485037
 31
0.0
  0
LINE
  5
149
330
1F
100
AcDbEntity
  8
LC-001-100-D00-0
 62
     7
370
    50
100
AcDbLine
 10
293.591208
 20
305.485037
 30
0.0
 11
244.668237
 21
305.485037
 31
0.0
  0
LINE
  5
14A
330
1F
100
AcDbEntity
  8
LC-001-100-D00-0
 62
     7
370
    50
100
AcDbLine
 10
295.629717
 20
305.485037
 30
0.0
 11
294.668234
 21
305.485037
 31
0.0
  0
LINE
  5
14B
330
1F
100
AcDbEntity
  8
LC-001-100-D00-0
 62
     7
370
    50
100
AcDbLine
 10
195.852659
 20
308.485044
 30
0.0
 11
295.629717
 21
308.485044
 31
0.0
  0
LINE
  5
14C
330
1F
100
AcDbEntity
  8
LC-001-100-D00-0
 62
     7
370
    50
100
AcDbLine
 10
-156.408795
 20
305.485037
 30
0.0
 11
-157.370293
 21
305.485037
 31
0.0
  0
LINE
  5
14D
330
1F
100
AcDbEntity
  8
LC-001-100-D00-0
 62
     7
370
    50
100
AcDbLine
 10
-106.408806
 20
305.485037
 30
0.0
 11
-155.331769
 21
305.485037
 31
0.0
  0
LINE
  5
14E
330
1F
100
AcDbEntity
  8
LC-001-100-D00-0
 62
     7
370
    50
100
AcDbLine
 10
-58.329997
 20
305.485037
 30
0.0
 11
-105.331772
 21
305.485037
 31
0.0
  0
LINE
  5
14F
330
1F
100
AcDbEntity
  8
LC-001-100-D00-0
 62
     7
370
    50
100
AcDbLine
 10
-157.370293
 20
308.485044
 30
0.0
 11
-57.593235
 21
308.485044
 31
0.0
  0
INSERT
  5
16F
330
1F
100
AcDbEntity
  8
LC-001-100-D00-0
 62
     7
370
    50
100
AcDbBlockReference
  2
POLY1
 10
0.0
 20
0.0
 30
0.0
  0
LINE
  5
170
330
1F
100
AcDbEntity
  8
LC-001-100-D00-0
 62
     7
370
    50
100
AcDbLine
 10
159.629709
 20
198.011657
 30
0.0
 11
178.629718
 21
198.011657
 31
0.0
  0
INSERT
  5
190
330
1F
100
AcDbEntity
  8
LC-001-100-D00-0
 62
     7
370
    50
100
AcDbBlockReference
  2
POLY2
 10
0.0
 20
0.0
 30
0.0
  0
LINE
  5
191
330
1F
100
AcDbEntity
  8
LC-001-100-D00-0
 62
     7
370
    50
100
AcDbLine
 10
-40.370286
 20
198.011657
 30
0.0
 11
-21.370285
 21
198.011657
 31
0.0
  0
LINE
  5
192
330
1F
100
AcDbEntity
  8
LC-001-100-D00-0
 62
     7
370
    50
100
AcDbLine
 10
-20.870286
 20
217.511655
 30
0.0
 11
-40.870287
 21
217.511655
 31
0.0
  0
LINE
  5
193
330
1F
100
AcDbEntity
  8
LC-001-100-D00-0
 62
     7
370
    50
100
AcDbLine
 10
-20.870286
 20
207.011656
 30
0.0
 11
-40.870287
 21
207.011656
 31
0.0
  0
LINE
  5
194
330
1F
100
AcDbEntity
  8
LC-001-100-D00-0
 62
     7
370
    50
100
AcDbLine
 10
-39.870285
 20
206.011654
 30
0.0
 11
-21.870286
 21
206.011654
 31
0.0
  0
LINE
  5
195
330
1F
100
AcDbEntity
  8
LC-001-100-D00-0
 62
     7
370
    50
100
AcDbLine
 10
-20.870286
 20
221.011655
 30
0.0
 11
-40.870287
 21
221.011655
 31
0.0
  0
LINE
  5
196
330
1F
100
AcDbEntity
  8
LC-001-100-D00-0
 62
     7
370
    50
100
AcDbLine
 10
179.129711
 20
207.011656
 30
0.0
 11
159.129716
 21
207.011656
 31
0.0
  0
LINE
  5
197
330
1F
100
AcDbEntity
  8
LC-001-100-D00-0
 62
     7
370
    50
100
AcDbLine
 10
160.129718
 20
206.011654
 30
0.0
 11
178.129709
 21
206.011654
 31
0.0
  0
LINE
  5
198
330
1F
100
AcDbEntity
  8
LC-001-100-D00-0
 62
     7
370
    50
100
AcDbLine
 10
179.129711
 20
217.511655
 30
0.0
 11
159.129716
 21
217.511655
 31
0.0
  0
LINE
  5
199
330
1F
100
AcDbEntity
  8
LC-001-100-D00-0
 62
     7
370
    50
100
AcDbLine
 10
179.129711
 20
221.011655
 30
0.0
 11
159.129716
 21
221.011655
 31
0.0
  0
LINE
  5
19A
330
1F
100
AcDbEntity
  8
LC-001-100-D00-0
 62
     7
370
    50
100
AcDbLine
 10
116.629711
 20
315.885042
 30
0.0
 11
116.629711
 21
346.385044
 31
0.0
  0
LINE
  5
19B
330
1F
100
AcDbEntity
  8
LC-001-100-D00-0
 62
     7
370
    50
100
AcDbLine
 10
21.329715
 20
325.485041
 30
0.0
 11
21.329715
 21
323.485044
 31
0.0
  0
LINE
  5
19C
330
1F
100
AcDbEntity
  8
LC-001-100-D00-0
 62
     7
370
    50
100
AcDbLine
 10
21.329715
 20
344.685038
 30
0.0
 11
21.329715
 21
342.685041
 31
0.0
  0
LINE
  5
19D
330
1F
100
AcDbEntity
  8
LC-001-100-D00-0
 62
     7
370
    50
100
AcDbLine
 10
20.129713
 20
323.485044
 30
0.0
 11
20.129713
 21
322.285039
 31
0.0
  0
LINE
  5
19E
330
1F
100
AcDbEntity
  8
LC-001-100-D00-0
 62
     7
370
    50
100
AcDbLine
 10
21.329715
 20
322.285039
 30
0.0
 11
20.129713
 21
322.285039
 31
0.0
  0
LINE
  5
19F
330
1F
100
AcDbEntity
  8
LC-001-100-D00-0
 62
     7
370
    50
100
AcDbLine
 10
21.329715
 20
322.285039
 30
0.0
 11
21.329715
 21
320.285042
 31
0.0
  0
LINE
  5
1A0
330
1F
100
AcDbEntity
  8
LC-001-100-D00-0
 62
     7
370
    50
100
AcDbLine
 10
20.129713
 20
320.285042
 30
0.0
 11
21.329715
 21
320.285042
 31
0.0
  0
LINE
  5
1A1
330
1F
100
AcDbEntity
  8
LC-001-100-D00-0
 62
     7
370
    50
100
AcDbLine
 10
20.129713
 20
320.285042
 30
0.0
 11
20.129713
 21
319.085044
 31
0.0
  0
LINE
  5
1A2
330
1F
100
AcDbEntity
  8
LC-001-100-D00-0
 62
     7
370
    50
100
AcDbLine
 10
21.329715
 20
319.085044
 30
0.0
 11
20.129713
 21
319.085044
 31
0.0
  0
LINE
  5
1A3
330
1F
100
AcDbEntity
  8
LC-001-100-D00-0
 62
     7
370
    50
100
AcDbLine
 10
21.329715
 20
319.085044
 30
0.0
 11
21.329715
 21
317.08504
 31
0.0
  0
LINE
  5
1A4
330
1F
100
AcDbEntity
  8
LC-001-100-D00-0
 62
     7
370
    50
100
AcDbLine
 10
20.129713
 20
317.08504
 30
0.0
 11
20.129713
 21
315.885042
 31
0.0
  0
LINE
  5
1A5
330
1F
100
AcDbEntity
  8
LC-001-100-D00-0
 62
     7
370
    50
100
AcDbLine
 10
21.629714
 20
315.885042
 30
0.0
 11
20.129713
 21
315.885042
 31
0.0
  0
LINE
  5
1A6
330
1F
100
AcDbEntity
  8
LC-001-100-D00-0
 62
     7
370
    50
100
AcDbLine
 10
21.629714
 20
346.385044
 30
0.0
 11
21.629714
 21
315.885042
 31
0.0
  0
LINE
  5
1A7
330
1F
100
AcDbEntity
  8
LC-001-100-D00-0
 62
     7
370
    50
100
AcDbLine
 10
23.129714
 20
346.385044
 30
0.0
 11
21.629714
 21
346.385044
 31
0.0
  0
LINE
  5
1A8
330
1F
100
AcDbEntity
  8
LC-001-100-D00-0
 62
     7
370
    50
100
AcDbLine
 10
23.129714
 20
346.385044
 30
0.0
 11
23.129714
 21
347.88504
 31
0.0
  0
LINE
  5
1A9
330
1F
100
AcDbEntity
  8
LC-001-100-D00-0
 62
     7
370
    50
100
AcDbLine
 10
23.129714
 20
352.885043
 30
0.0
 11
23.129714
 21
347.88504
 31
0.0
  0
LINE
  5
1AA
330
1F
100
AcDbEntity
  8
LC-001-100-D00-0
 62
     7
370
    50
100
AcDbLine
 10
21.629714
 20
352.885043
 30
0.0
 11
23.129714
 21
352.885043
 31
0.0
  0
LINE
  5
1AB
330
1F
100
AcDbEntity
  8
LC-001-100-D00-0
 62
     7
370
    50
100
AcDbLine
 10
21.629714
 20
346.885038
 30
0.0
 11
20.129713
 21
346.885038
 31
0.0
  0
LINE
  5
1AC
330
1F
100
AcDbEntity
  8
LC-001-100-D00-0
 62
     7
370
    50
100
AcDbLine
 10
20.129713
 20
346.885038
 30
0.0
 11
20.129713
 21
344.685038
 31
0.0
  0
LINE
  5
1AD
330
1F
100
AcDbEntity
  8
LC-001-100-D00-0
 62
     7
370
    50
100
AcDbLine
 10
21.329715
 20
344.685038
 30
0.0
 11
20.129713
 21
344.685038
 31
0.0
  0
LINE
  5
1AE
330
1F
100
AcDbEntity
  8
LC-001-100-D00-0
 62
     7
370
    50
100
AcDbLine
 10
20.129713
 20
342.685041
 30
0.0
 11
20.129713
 21
341.485043
 31
0.0
  0
LINE
  5
1AF
330
1F
100
AcDbEntity
  8
LC-001-100-D00-0
 62
     7
370
    50
100
AcDbLine
 10
21.329715
 20
341.485043
 30
0.0
 11
20.129713
 21
341.485043
 31
0.0
  0
LINE
  5
1B0
330
1F
100
AcDbEntity
  8
LC-001-100-D00-0
 62
     7
370
    50
100
AcDbLine
 10
21.329715
 20
341.485043
 30
0.0
 11
21.329715
 21
339.485039
 31
0.0
  0
LINE
  5
1B1
330
1F
100
AcDbEntity
  8
LC-001-100-D00-0
 62
     7
370
    50
100
AcDbLine
 10
20.129713
 20
339.485039
 30
0.0
 11
21.329715
 21
339.485039
 31
0.0
  0
LINE
  5
1B2
330
1F
100
AcDbEntity
  8
LC-001-100-D00-0
 62
     7
370
    50
100
AcDbLine
 10
20.129713
 20
339.485039
 30
0.0
 11
20.129713
 21
338.285041
 31
0.0
  0
LINE
  5
1B3
330
1F
100
AcDbEntity
  8
LC-001-100-D00-0
 62
     7
370
    50
100
AcDbLine
 10
21.329715
 20
338.285041
 30
0.0
 11
20.129713
 21
338.285041
 31
0.0
  0
LINE
  5
1B4
330
1F
100
AcDbEntity
  8
LC-001-100-D00-0
 62
     7
370
    50
100
AcDbLine
 10
21.329715
 20
338.285041
 30
0.0
 11
21.329715
 21
336.285037
 31
0.0
  0
LINE
  5
1B5
330
1F
100
AcDbEntity
  8
LC-001-100-D00-0
 62
     7
370
    50
100
AcDbLine
 10
20.129713
 20
336.285037
 30
0.0
 11
21.329715
 21
336.285037
 31
0.0
  0
LINE
  5
1B6
330
1F
100
AcDbEntity
  8
LC-001-100-D00-0
 62
     7
370
    50
100
AcDbLine
 10
20.129713
 20
336.285037
 30
0.0
 11
20.129713
 21
335.085039
 31
0.0
  0
LINE
  5
1B7
330
1F
100
AcDbEntity
  8
LC-001-100-D00-0
 62
     7
370
    50
100
AcDbLine
 10
21.329715
 20
335.085039
 30
0.0
 11
21.329715
 21
333.085043
 31
0.0
  0
LINE
  5
1B8
330
1F
100
AcDbEntity
  8
LC-001-100-D00-0
 62
     7
370
    50
100
AcDbLine
 10
20.129713
 20
333.085043
 30
0.0
 11
21.329715
 21
333.085043
 31
0.0
  0
LINE
  5
1B9
330
1F
100
AcDbEntity
  8
LC-001-100-D00-0
 62
     7
370
    50
100
AcDbLine
 10
20.129713
 20
333.085043
 30
0.0
 11
20.129713
 21
331.885037
 31
0.0
  0
LINE
  5
1BA
330
1F
100
AcDbEntity
  8
LC-001-100-D00-0
 62
     7
370
    50
100
AcDbLine
 10
21.329715
 20
331.885037
 30
0.0
 11
20.129713
 21
331.885037
 31
0.0
  0
LINE
  5
1BB
330
1F
100
AcDbEntity
  8
LC-001-100-D00-0
 62
     7
370
    50
100
AcDbLine
 10
21.329715
 20
331.885037
 30
0.0
 11
21.329715
 21
329.885041
 31
0.0
  0
LINE
  5
1BC
330
1F
100
AcDbEntity
  8
LC-001-100-D00-0
 62
     7
370
    50
100
AcDbLine
 10
20.129713
 20
329.885041
 30
0.0
 11
21.329715
 21
329.885041
 31
0.0
  0
LINE
  5
1BD
330
1F
100
AcDbEntity
  8
LC-001-100-D00-0
 62
     7
370
    50
100
AcDbLine
 10
20.129713
 20
329.885041
 30
0.0
 11
20.129713
 21
328.685043
 31
0.0
  0
LINE
  5
1BE
330
1F
100
AcDbEntity
  8
LC-001-100-D00-0
 62
     7
370
    50
100
AcDbLine
 10
21.329715
 20
328.685043
 30
0.0
 11
20.129713
 21
328.685043
 31
0.0
  0
LINE
  5
1BF
330
1F
100
AcDbEntity
  8
LC-001-100-D00-0
 62
     7
370
    50
100
AcDbLine
 10
21.329715
 20
328.685043
 30
0.0
 11
21.329715
 21
326.685039
 31
0.0
  0
LINE
  5
1C0
330
1F
100
AcDbEntity
  8
LC-001-100-D00-0
 62
     7
370
    50
100
AcDbLine
 10
20.129713
 20
326.685039
 30
0.0
 11
21.329715
 21
326.685039
 31
0.0
  0
LINE
  5
1C1
330
1F
100
AcDbEntity
  8
LC-001-100-D00-0
 62
     7
370
    50
100
AcDbLine
 10
20.129713
 20
326.685039
 30
0.0
 11
20.129713
 21
325.485041
 31
0.0
  0
LINE
  5
1C2
330
1F
100
AcDbEntity
  8
LC-001-100-D00-0
 62
     7
370
    50
100
AcDbLine
 10
20.129713
 20
323.485044
 30
0.0
 11
21.329715
 21
323.485044
 31
0.0
  0
LINE
  5
1C3
330
1F
100
AcDbEntity
  8
LC-001-100-D00-0
 62
     7
370
    50
100
AcDbLine
 10
21.629714
 20
352.885043
 30
0.0
 11
21.629714
 21
346.885038
 31
0.0
  0
LINE
  5
1C4
330
1F
100
AcDbEntity
  8
LC-001-100-D00-0
 62
     7
370
    50
100
AcDbLine
 10
20.129713
 20
317.08504
 30
0.0
 11
21.329715
 21
317.08504
 31
0.0
  0
LINE
  5
1C5
330
1F
100
AcDbEntity
  8
LC-001-100-D00-0
 62
     7
370
    50
100
AcDbLine
 10
21.329715
 20
325.485041
 30
0.0
 11
20.129713
 21
325.485041
 31
0.0
  0
LINE
  5
1C6
330
1F
100
AcDbEntity
  8
LC-001-100-D00-0
 62
     7
370
    50
100
AcDbLine
 10
21.329715
 20
335.085039
 30
0.0
 11
20.129713
 21
335.085039
 31
0.0
  0
LINE
  5
1C7
330
1F
100
AcDbEntity
  8
LC-001-100-D00-0
 62
     7
370
    50
100
AcDbLine
 10
20.129713
 20
342.685041
 30
0.0
 11
21.329715
 21
342.685041
 31
0.0
  0
LINE
  5
1C8
330
1F
100
AcDbEntity
  8
LC-001-100-D00-0
 62
     7
370
    50
100
AcDbLine
 10
118.129714
 20
319.085044
 30
0.0
 11
118.129714
 21
320.285042
 31
0.0
  0
LINE
  5
1C9
330
1F
100
AcDbEntity
  8
LC-001-100-D00-0
 62
     7
370
    50
100
AcDbLine
 10
116.929716
 20
320.285042
 30
0.0
 11
118.129714
 21
320.285042
 31
0.0
  0
LINE
  5
1CA
330
1F
100
AcDbEntity
  8
LC-001-100-D00-0
 62
     7
370
    50
100
AcDbLine
 10
116.929716
 20
322.285039
 30
0.0
 11
116.929716
 21
320.285042
 31
0.0
  0
LINE
  5
1CB
330
1F
100
AcDbEntity
  8
LC-001-100-D00-0
 62
     7
370
    50
100
AcDbLine
 10
118.129714
 20
322.285039
 30
0.0
 11
116.929716
 21
322.285039
 31
0.0
  0
LINE
  5
1CC
330
1F
100
AcDbEntity
  8
LC-001-100-D00-0
 62
     7
370
    50
100
AcDbLine
 10
118.129714
 20
322.285039
 30
0.0
 11
118.129714
 21
323.485044
 31
0.0
  0
LINE
  5
1CD
330
1F
100
AcDbEntity
  8
LC-001-100-D00-0
 62
     7
370
    50
100
AcDbLine
 10
116.929716
 20
325.485041
 30
0.0
 11
116.929716
 21
323.485044
 31
0.0
  0
LINE
  5
1CE
330
1F
100
AcDbEntity
  8
LC-001-100-D00-0
 62
     7
370
    50
100
AcDbLine
 10
118.129714
 20
325.485041
 30
0.0
 11
118.129714
 21
326.685039
 31
0.0
  0
LINE
  5
1CF
330
1F
100
AcDbEntity
  8
LC-001-100-D00-0
 62
     7
370
    50
100
AcDbLine
 10
116.929716
 20
326.685039
 30
0.0
 11
118.129714
 21
326.685039
 31
0.0
  0
LINE
  5
1D0
330
1F
100
AcDbEntity
  8
LC-001-100-D00-0
 62
     7
370
    50
100
AcDbLine
 10
116.929716
 20
328.685043
 30
0.0
 11
116.929716
 21
326.685039
 31
0.0
  0
LINE
  5
1D1
330
1F
100
AcDbEntity
  8
LC-001-100-D00-0
 62
     7
370
    50
100
AcDbLine
 10
118.129714
 20
328.685043
 30
0.0
 11
116.929716
 21
328.685043
 31
0.0
  0
LINE
  5
1D2
330
1F
100
AcDbEntity
  8
LC-001-100-D00-0
 62
     7
370
    50
100
AcDbLine
 10
118.129714
 20
328.685043
 30
0.0
 11
118.129714
 21
329.885041
 31
0.0
  0
LINE
  5
1D3
330
1F
100
AcDbEntity
  8
LC-001-100-D00-0
 62
     7
370
    50
100
AcDbLine
 10
116.929716
 20
329.885041
 30
0.0
 11
118.129714
 21
329.885041
 31
0.0
  0
LINE
  5
1D4
330
1F
100
AcDbEntity
  8
LC-001-100-D00-0
 62
     7
370
    50
100
AcDbLine
 10
116.929716
 20
331.885037
 30
0.0
 11
116.929716
 21
329.885041
 31
0.0
  0
LINE
  5
1D5
330
1F
100
AcDbEntity
  8
LC-001-100-D00-0
 62
     7
370
    50
100
AcDbLine
 10
118.129714
 20
331.885037
 30
0.0
 11
116.929716
 21
331.885037
 31
0.0
  0
LINE
  5
1D6
330
1F
100
AcDbEntity
  8
LC-001-100-D00-0
 62
     7
370
    50
100
AcDbLine
 10
118.129714
 20
331.885037
 30
0.0
 11
118.129714
 21
333.085043
 31
0.0
  0
LINE
  5
1D7
330
1F
100
AcDbEntity
  8
LC-001-100-D00-0
 62
     7
370
    50
100
AcDbLine
 10
116.929716
 20
333.085043
 30
0.0
 11
118.129714
 21
333.085043
 31
0.0
  0
LINE
  5
1D8
330
1F
100
AcDbEntity
  8
LC-001-100-D00-0
 62
     7
370
    50
100
AcDbLine
 10
116.929716
 20
335.085039
 30
0.0
 11
116.929716
 21
333.085043
 31
0.0
  0
LINE
  5
1D9
330
1F
100
AcDbEntity
  8
LC-001-100-D00-0
 62
     7
370
    50
100
AcDbLine
 10
118.129714
 20
335.085039
 30
0.0
 11
118.129714
 21
336.285037
 31
0.0
  0
LINE
  5
1DA
330
1F
100
AcDbEntity
  8
LC-001-100-D00-0
 62
     7
370
    50
100
AcDbLine
 10
116.929716
 20
336.285037
 30
0.0
 11
118.129714
 21
336.285037
 31
0.0
  0
LINE
  5
1DB
330
1F
100
AcDbEntity
  8
LC-001-100-D00-0
 62
     7
370
    50
100
AcDbLine
 10
116.929716
 20
338.285041
 30
0.0
 11
116.929716
 21
336.285037
 31
0.0
  0
LINE
  5
1DC
330
1F
100
AcDbEntity
  8
LC-001-100-D00-0
 62
     7
370
    50
100
AcDbLine
 10
118.129714
 20
338.285041
 30
0.0
 11
116.929716
 21
338.285041
 31
0.0
  0
LINE
  5
1DD
330
1F
100
AcDbEntity
  8
LC-001-100-D00-0
 62
     7
370
    50
100
AcDbLine
 10
118.129714
 20
338.285041
 30
0.0
 11
118.129714
 21
339.485039
 31
0.0
  0
LINE
  5
1DE
330
1F
100
AcDbEntity
  8
LC-001-100-D00-0
 62
     7
370
    50
100
AcDbLine
 10
116.929716
 20
339.485039
 30
0.0
 11
118.129714
 21
339.485039
 31
0.0
  0
LINE
  5
1DF
330
1F
100
AcDbEntity
  8
LC-001-100-D00-0
 62
     7
370
    50
100
AcDbLine
 10
116.929716
 20
341.485043
 30
0.0
 11
116.929716
 21
339.485039
 31
0.0
  0
LINE
  5
1E0
330
1F
100
AcDbEntity
  8
LC-001-100-D00-0
 62
     7
370
    50
100
AcDbLine
 10
118.129714
 20
341.485043
 30
0.0
 11
116.929716
 21
341.485043
 31
0.0
  0
LINE
  5
1E1
330
1F
100
AcDbEntity
  8
LC-001-100-D00-0
 62
     7
370
    50
100
AcDbLine
 10
118.129714
 20
341.485043
 30
0.0
 11
118.129714
 21
342.685041
 31
0.0
  0
LINE
  5
1E2
330
1F
100
AcDbEntity
  8
LC-001-100-D00-0
 62
     7
370
    50
100
AcDbLine
 10
118.129714
 20
344.685038
 30
0.0
 11
118.129714
 21
346.885038
 31
0.0
  0
LINE
  5
1E3
330
1F
100
AcDbEntity
  8
LC-001-100-D00-0
 62
     7
370
    50
100
AcDbLine
 10
118.129714
 20
346.885038
 30
0.0
 11
116.629711
 21
346.885038
 31
0.0
  0
LINE
  5
1E4
330
1F
100
AcDbEntity
  8
LC-001-100-D00-0
 62
     7
370
    50
100
AcDbLine
 10
116.629711
 20
346.885038
 30
0.0
 11
116.629711
 21
352.885043
 31
0.0
  0
LINE
  5
1E5
330
1F
100
AcDbEntity
  8
LC-001-100-D00-0
 62
     7
370
    50
100
AcDbLine
 10
115.129716
 20
352.885043
 30
0.0
 11
116.629711
 21
352.885043
 31
0.0
  0
LINE
  5
1E6
330
1F
100
AcDbEntity
  8
LC-001-100-D00-0
 62
     7
370
    50
100
AcDbLine
 10
115.129716
 20
347.88504
 30
0.0
 11
115.129716
 21
352.885043
 31
0.0
  0
LINE
  5
1E7
330
1F
100
AcDbEntity
  8
LC-001-100-D00-0
 62
     7
370
    50
100
AcDbLine
 10
115.129716
 20
347.88504
 30
0.0
 11
115.129716
 21
346.385044
 31
0.0
  0
LINE
  5
1E8
330
1F
100
AcDbEntity
  8
LC-001-100-D00-0
 62
     7
370
    50
100
AcDbLine
 10
116.629711
 20
346.385044
 30
0.0
 11
115.129716
 21
346.385044
 31
0.0
  0
LINE
  5
1E9
330
1F
100
AcDbEntity
  8
LC-001-100-D00-0
 62
     7
370
    50
100
AcDbLine
 10
118.129714
 20
315.885042
 30
0.0
 11
116.629711
 21
315.885042
 31
0.0
  0
LINE
  5
1EA
330
1F
100
AcDbEntity
  8
LC-001-100-D00-0
 62
     7
370
    50
100
AcDbLine
 10
118.129714
 20
315.885042
 30
0.0
 11
118.129714
 21
317.08504
 31
0.0
  0
LINE
  5
1EB
330
1F
100
AcDbEntity
  8
LC-001-100-D00-0
 62
     7
370
    50
100
AcDbLine
 10
118.129714
 20
344.685038
 30
0.0
 11
116.929716
 21
344.685038
 31
0.0
  0
LINE
  5
1EC
330
1F
100
AcDbEntity
  8
LC-001-100-D00-0
 62
     7
370
    50
100
AcDbLine
 10
118.129714
 20
319.085044
 30
0.0
 11
116.929716
 21
319.085044
 31
0.0
  0
LINE
  5
1ED
330
1F
100
AcDbEntity
  8
LC-001-100-D00-0
 62
     7
370
    50
100
AcDbLine
 10
116.929716
 20
319.085044
 30
0.0
 11
116.929716
 21
317.08504
 31
0.0
  0
LINE
  5
1EE
330
1F
100
AcDbEntity
  8
LC-001-100-D00-0
 62
     7
370
    50
100
AcDbLine
 10
116.929716
 20
323.485044
 30
0.0
 11
118.129714
 21
323.485044
 31
0.0
  0
LINE
  5
1EF
330
1F
100
AcDbEntity
  8
LC-001-100-D00-0
 62
     7
370
    50
100
AcDbLine
 10
116.929716
 20
317.08504
 30
0.0
 11
118.129714
 21
317.08504
 31
0.0
  0
LINE
  5
1F0
330
1F
100
AcDbEntity
  8
LC-001-100-D00-0
 62
     7
370
    50
100
AcDbLine
 10
118.129714
 20
325.485041
 30
0.0
 11
116.929716
 21
325.485041
 31
0.0
  0
LINE
  5
1F1
330
1F
100
AcDbEntity
  8
LC-001-100-D00-0
 62
     7
370
    50
100
AcDbLine
 10
118.129714
 20
335.085039
 30
0.0
 11
116.929716
 21
335.085039
 31
0.0
  0
LINE
  5
1F2
330
1F
100
AcDbEntity
  8
LC-001-100-D00-0
 62
     7
370
    50
100
AcDbLine
 10
116.929716
 20
344.685038
 30
0.0
 11
116.929716
 21
342.685041
 31
0.0
  0
LINE
  5
1F3
330
1F
100
AcDbEntity
  8
LC-001-100-D00-0
 62
     7
370
    50
100
AcDbLine
 10
116.929716
 20
342.685041
 30
0.0
 11
118.129714
 21
342.685041
 31
0.0
  0
LINE
  5
1F4
330
1F
100
AcDbEntity
  8
LC-001-100-D00-0
 62
     7
370
    50
100
AcDbLine
 10
23.129714
 20
347.88504
 30
0.0
 11
23.629715
 21
347.88504
 31
0.0
  0
LINE
  5
1F5
330
1F
100
AcDbEntity
  8
LC-001-100-D00-0
 62
     7
370
    50
100
AcDbLine
 10
25.129714
 20
347.88504
 30
0.0
 11
55.713306
 21
347.88504
 31
0.0
  0
LINE
  5
1F6
330
1F
100
AcDbEntity
  8
LC-001-100-D00-0
 62
     7
370
    50
100
AcDbLine
 10
115.129716
 20
346.385044
 30
0.0
 11
23.129714
 21
346.385044
 31
0.0
  0
LINE
  5
1F7
330
1F
100
AcDbEntity
  8
LC-001-100-D00-0
 62
     7
370
    50
100
AcDbLine
 10
82.546121
 20
347.88504
 30
0.0
 11
113.129712
 21
347.88504
 31
0.0
  0
LINE
  5
1F8
330
1F
100
AcDbEntity
  8
LC-001-100-D00-0
 62
     7
370
    50
100
AcDbLine
 10
114.629715
 20
347.88504
 30
0.0
 11
115.129716
 21
347.88504
 31
0.0
  0
LINE
  5
1F9
330
1F
100
AcDbEntity
  8
LC-001-100-D00-0
 62
     7
370
    50
100
AcDbLine
 10
41.947353
 20
315.885042
 30
0.0
 11
39.439454
 21
315.885042
 31
0.0
  0
LINE
  5
1FA
330
1F
100
AcDbEntity
  8
LC-001-100-D00-0
 62
     7
370
    50
100
AcDbLine
 10
30.599003
 20
315.885042
 30
0.0
 11
26.141343
 21
315.885042
 31
0.0
  0
LINE
  5
1FB
330
1F
100
AcDbEntity
  8
LC-001-100-D00-0
 62
     7
370
    50
100
AcDbLine
 10
112.118087
 20
315.885042
 30
0.0
 11
107.660427
 21
315.885042
 31
0.0
  0
LINE
  5
1FC
330
1F
100
AcDbEntity
  8
LC-001-100-D00-0
 62
     7
370
    50
100
AcDbLine
 10
98.819978
 20
315.885042
 30
0.0
 11
96.312067
 21
315.885042
 31
0.0
  0
LINE
  5
1FD
330
1F
100
AcDbEntity
  8
LC-001-100-D00-0
 62
     7
370
    50
100
AcDbLine
 10
23.129714
 20
352.885043
 30
0.0
 11
26.129714
 21
352.885043
 31
0.0
  0
LINE
  5
1FE
330
1F
100
AcDbEntity
  8
LC-001-100-D00-0
 62
     7
370
    50
100
AcDbLine
 10
112.129717
 20
352.885043
 30
0.0
 11
115.129716
 21
352.885043
 31
0.0
  0
LINE
  5
1FF
330
1F
100
AcDbEntity
  8
LC-001-100-D00-0
 62
     7
370
    50
100
AcDbLine
 10
43.468474
 20
315.885042
 30
0.0
 11
41.947353
 21
315.885042
 31
0.0
  0
LINE
  5
200
330
1F
100
AcDbEntity
  8
LC-001-100-D00-0
 62
     7
370
    50
100
AcDbLine
 10
96.312067
 20
315.885042
 30
0.0
 11
94.79095
 21
315.885042
 31
0.0
  0
LINE
  5
201
330
1F
100
AcDbEntity
  8
LC-001-100-D00-0
 62
     7
370
    50
100
AcDbLine
 10
94.79095
 20
315.885042
 30
0.0
 11
70.129714
 21
315.885042
 31
0.0
  0
LINE
  5
202
330
1F
100
AcDbEntity
  8
LC-001-100-D00-0
 62
     7
370
    50
100
AcDbLine
 10
68.129717
 20
315.885042
 30
0.0
 11
43.468474
 21
315.885042
 31
0.0
  0
CIRCLE
  5
203
330
1F
100
AcDbEntity
  8
LC-001-100-D00-0
 62
     7
370
    50
100
AcDbCircle
 10
110.779714
 20
312.08933
 30
0.0
 40
1.499999999999943
  0
CIRCLE
  5
204
330
1F
100
AcDbEntity
  8
LC-001-100-D00-0
 62
     7
370
    50
100
AcDbCircle
 10
27.479714
 20
312.08933
 30
0.0
 40
1.5
  0
CIRCLE
  5
205
330
1F
100
AcDbEntity
  8
LC-001-100-D00-0
 62
     7
370
    50
100
AcDbCircle
 10
174.429714
 20
249.335041
 30
0.0
 40
2.0
  0
CIRCLE
  5
206
330
1F
100
AcDbEntity
  8
LC-001-100-D00-0
 62
     7
370
    50
100
AcDbCircle
 10
174.429714
 20
294.835041
 30
0.0
 40
2.000000000000114
  0
LINE
  5
207
330
1F
100
AcDbEntity
  8
LC-001-100-D00-0
 62
     7
370
    50
100
AcDbLine
 10
162.32971
 20
244.585041
 30
0.0
 11
169.429711
 21
244.585041
 31
0.0
  0
LINE
  5
208
330
1F
100
AcDbEntity
  8
LC-001-100-D00-0
 62
     7
370
    50
100
AcDbLine
 10
169.429711
 20
299.585042
 30
0.0
 11
162.32971
 21
299.585042
 31
0.0
  0
ARC
  5
209
330
1F
100
AcDbEntity
  8
LC-001-100-D00-0
 62
     7
370
    50
100
AcDbCircle
 10
169.429714
 20
272.085041
 30
0.0
 40
27.50000000000009
100
AcDbArc
 50
46.65824200000001
 51
90.0
  0
ARC
  5
20A
330
1F
100
AcDbEntity
  8
LC-001-100-D00-0
 62
     7
370
    50
100
AcDbCircle
 10
169.429714
 20
272.085041
 30
0.0
 40
27.50000000000003
100
AcDbArc
 50
270.0
 51
313.341758
  0
INSERT
  5
216
330
1F
100
AcDbEntity
  8
LC-001-100-D00-0
 62
     7
370
    50
100
AcDbBlockReference
  2
POLY3
 10
0.0
 20
0.0
 30
0.0
  0
LINE
  5
217
330
1F
100
AcDbEntity
  8
LC-001-100-D00-0
 62
     7
370
    50
100
AcDbLine
 10
239.103219
 20
301.677914
 30
0.0
 11
239.103219
 21
301.7439
 31
0.0
  0
LINE
  5
218
330
1F
100
AcDbEntity
  8
LC-001-100-D00-0
 62
     7
370
    50
100
AcDbLine
 10
239.103219
 20
251.7439
 30
0.0
 11
239.103219
 21
251.809888
 31
0.0
  0
LINE
  5
219
330
1F
100
AcDbEntity
  8
LC-001-100-D00-0
 62
     7
370
    50
100
AcDbLine
 10
239.103219
 20
251.809888
 30
0.0
 11
238.944775
 21
252.085041
 31
0.0
  0
ARC
  5
21A
330
1F
100
AcDbEntity
  8
LC-001-100-D00-0
 62
     7
370
    50
100
AcDbCircle
 10
163.129714
 20
297.104034
 30
0.0
 40
0.8000000000000398
100
AcDbArc
 50
180.0
 51
284.133737
  0
ARC
  5
21B
330
1F
100
AcDbEntity
  8
LC-001-100-D00-0
 62
     7
370
    50
100
AcDbCircle
 10
163.129714
 20
247.066048
 30
0.0
 40
0.8000000000000358
100
AcDbArc
 50
75.866263
 51
180.0
  0
LINE
  5
21C
330
1F
100
AcDbEntity
  8
LC-001-100-D00-0
 62
     7
370
    50
100
AcDbLine
 10
162.32971
 20
247.84066
 30
0.0
 11
162.32971
 21
247.066048
 31
0.0
  0
ARC
  5
21D
330
1F
100
AcDbEntity
  8
LC-001-100-D00-0
 62
     7
370
    50
100
AcDbCircle
 10
169.429714
 20
272.085041
 30
0.0
 40
24.99999999999993
100
AcDbArc
 50
255.866263
 51
312.916156
  0
LINE
  5
21E
330
1F
100
AcDbEntity
  8
LC-001-100-D00-0
 62
     7
370
    50
100
AcDbLine
 10
186.452902
 20
253.776267
 30
0.0
 11
186.452902
 21
290.393816
 31
0.0
  0
ARC
  5
21F
330
1F
100
AcDbEntity
  8
LC-001-100-D00-0
 62
     7
370
    50
100
AcDbCircle
 10
169.429714
 20
272.085041
 30
0.0
 40
25.00000000000011
100
AcDbArc
 50
47.083844
 51
104.133737
  0
LINE
  5
220
330
1F
100
AcDbEntity
  8
LC-001-100-D00-0
 62
     7
370
    50
100
AcDbLine
 10
239.103219
 20
301.677914
 30
0.0
 11
284.329719
 21
301.677914
 31
0.0
  0
LINE
  5
221
330
1F
100
AcDbEntity
  8
LC-001-100-D00-0
 62
     7
370
    50
100
AcDbLine
 10
284.329719
 20
251.809888
 30
0.0
 11
284.329719
 21
251.7439
 31
0.0
  0
LINE
  5
222
330
1F
100
AcDbEntity
  8
LC-001-100-D00-0
 62
     7
370
    50
100
AcDbLine
 10
284.329719
 20
301.7439
 30
0.0
 11
284.329719
 21
301.677914
 31
0.0
  0
LINE
  5
223
330
1F
100
AcDbEntity
  8
LC-001-100-D00-0
 62
     7
370
    50
100
AcDbLine
 10
284.329719
 20
251.809888
 30
0.0
 11
239.103219
 21
251.809888
 31
0.0
  0
LINE
  5
224
330
1F
100
AcDbEntity
  8
LC-001-100-D00-0
 62
     7
370
    50
100
AcDbLine
 10
284.329719
 20
301.677914
 30
0.0
 11
287.32971
 21
300.871865
 31
0.0
  0
LINE
  5
225
330
1F
100
AcDbEntity
  8
LC-001-100-D00-0
 62
     7
370
    50
100
AcDbLine
 10
287.32971
 20
300.871865
 30
0.0
 11
287.32971
 21
300.940053
 31
0.0
  0
LINE
  5
226
330
1F
100
AcDbEntity
  8
LC-001-100-D00-0
 62
     7
370
    50
100
AcDbLine
 10
287.32971
 20
252.547748
 30
0.0
 11
287.32971
 21
252.615934
 31
0.0
  0
LINE
  5
227
330
1F
100
AcDbEntity
  8
LC-001-100-D00-0
 62
     7
370
    50
100
AcDbLine
 10
287.32971
 20
252.615934
 30
0.0
 11
284.329719
 21
251.809888
 31
0.0
  0
LINE
  5
228
330
1F
100
AcDbEntity
  8
LC-001-100-D00-0
 62
     7
370
    50
100
AcDbLine
 10
188.304297
 20
252.085041
 30
0.0
 11
238.944775
 21
252.085041
 31
0.0
  0
LINE
  5
229
330
1F
100
AcDbEntity
  8
LC-001-100-D00-0
 62
     7
370
    50
100
AcDbLine
 10
233.588464
 20
292.085042
 30
0.0
 11
188.304297
 21
292.085042
 31
0.0
  0
LINE
  5
22A
330
1F
100
AcDbEntity
  8
LC-001-100-D00-0
 62
     7
370
    50
100
AcDbLine
 10
286.829717
 20
298.126989
 30
0.0
 11
286.829717
 21
255.360809
 31
0.0
  0
LINE
  5
22B
330
1F
100
AcDbEntity
  8
LC-001-100-D00-0
 62
     7
370
    50
100
AcDbLine
 10
286.829717
 20
255.360809
 30
0.0
 11
287.32971
 21
254.859052
 31
0.0
  0
LINE
  5
22C
330
1F
100
AcDbEntity
  8
LC-001-100-D00-0
 62
     7
370
    50
100
AcDbLine
 10
287.32971
 20
298.628749
 30
0.0
 11
286.829717
 21
298.126989
 31
0.0
  0
LINE
  5
22D
330
1F
100
AcDbEntity
  8
LC-001-100-D00-0
 62
     7
370
    50
100
AcDbLine
 10
287.32971
 20
254.859052
 30
0.0
 11
287.32971
 21
298.628749
 31
0.0
  0
LINE
  5
22E
330
1F
100
AcDbEntity
  8
LC-001-100-D00-0
 62
     7
370
    50
100
AcDbLine
 10
235.704831
 20
288.640035
 30
0.0
 11
241.147033
 21
298.126989
 31
0.0
  0
LINE
  5
22F
330
1F
100
AcDbEntity
  8
LC-001-100-D00-0
 62
     7
370
    50
100
AcDbLine
 10
240.996546
 20
255.622414
 30
0.0
 11
240.885637
 21
255.789462
 31
0.0
  0
INSERT
  5
257
330
1F
100
AcDbEntity
  8
LC-001-100-D00-0
 62
     7
370
    50
100
AcDbBlockReference
  2
POLY4
 10
0.0
 20
0.0
 30
0.0
  0
INSERT
  5
263
330
1F
100
AcDbEntity
  8
LC-001-100-D00-0
 62
     7
370
    50
100
AcDbBlockReference
  2
POLY5
 10
0.0
 20
0.0
 30
0.0
  0
LINE
  5
264
330
1F
100
AcDbEntity
  8
LC-001-100-D00-0
 62
     7
370
    50
100
AcDbLine
 10
241.147033
 20
255.360809
 30
0.0
 11
240.996546
 21
255.622414
 31
0.0
  0
LINE
  5
265
330
1F
100
AcDbEntity
  8
LC-001-100-D00-0
 62
     7
370
    50
100
AcDbLine
 10
241.147033
 20
298.126989
 30
0.0
 11
241.147033
 21
255.555254
 31
0.0
  0
LINE
  5
266
330
1F
100
AcDbEntity
  8
LC-001-100-D00-0
 62
     7
370
    50
100
AcDbLine
 10
241.147033
 20
298.126989
 30
0.0
 11
286.829717
 21
298.126989
 31
0.0
  0
LINE
  5
267
330
1F
100
AcDbEntity
  8
LC-001-100-D00-0
 62
     7
370
    50
100
AcDbLine
 10
286.829717
 20
255.360809
 30
0.0
 11
241.147033
 21
255.360809
 31
0.0
  0
LINE
  5
268
330
1F
100
AcDbEntity
  8
LC-001-100-D00-0
 62
     7
370
    50
100
AcDbLine
 10
240.996546
 20
255.622414
 30
0.0
 11
188.706375
 21
254.709685
 31
0.0
  0
LINE
  5
269
330
1F
100
AcDbEntity
  8
LC-001-100-D00-0
 62
     7
370
    50
100
AcDbLine
 10
188.706375
 20
289.460396
 30
0.0
 11
235.704831
 21
288.640035
 31
0.0
  0
LINE
  5
26A
330
1F
100
AcDbEntity
  8
LC-001-100-D00-0
 62
     7
370
    50
100
AcDbLine
 10
188.706375
 20
289.460396
 30
0.0
 11
188.706375
 21
254.709685
 31
0.0
  0
LINE
  5
26B
330
1F
100
AcDbEntity
  8
LC-001-100-D00-0
 62
     7
370
    50
100
AcDbLine
 10
186.452902
 20
253.776267
 30
0.0
 11
188.706375
 21
254.709685
 31
0.0
  0
LINE
  5
26C
330
1F
100
AcDbEntity
  8
LC-001-100-D00-0
 62
     7
370
    50
100
AcDbLine
 10
188.706375
 20
289.460396
 30
0.0
 11
186.452902
 21
290.393816
 31
0.0
  0
LINE
  5
26D
330
1F
100
AcDbEntity
  8
LC-001-100-D00-0
 62
     7
370
    50
100
AcDbLine
 10
287.32971
 20
300.871865
 30
0.0
 11
287.32971
 21
298.628749
 31
0.0
  0
LINE
  5
26E
330
1F
100
AcDbEntity
  8
LC-001-100-D00-0
 62
     7
370
    50
100
AcDbLine
 10
162.32971
 20
299.585042
 30
0.0
 11
162.32971
 21
297.104032
 31
0.0
  0
LINE
  5
26F
330
1F
100
AcDbEntity
  8
LC-001-100-D00-0
 62
     7
370
    50
100
AcDbLine
 10
287.32971
 20
254.859052
 30
0.0
 11
287.32971
 21
252.615934
 31
0.0
  0
LINE
  5
270
330
1F
100
AcDbEntity
  8
LC-001-100-D00-0
 62
     7
370
    50
100
AcDbLine
 10
162.32971
 20
247.066048
 30
0.0
 11
162.32971
 21
244.585041
 31
0.0
  0
LINE
  5
271
330
1F
100
AcDbEntity
  8
LC-001-100-D00-0
 62
     7
370
    50
100
AcDbLine
 10
185.955278
 20
250.104234
 30
0.0
 11
186.051018
 21
250.104234
 31
0.0
  0
LINE
  5
272
330
1F
100
AcDbEntity
  8
LC-001-100-D00-0
 62
     7
370
    50
100
AcDbLine
 10
183.581448
 20
248.505846
 30
0.0
 11
183.587841
 21
248.505846
 31
0.0
  0
ARC
  5
273
330
1F
100
AcDbEntity
  8
LC-001-100-D00-0
 62
     7
370
    50
100
AcDbCircle
 10
171.875912
 20
269.251494
 30
0.0
 40
23.82333250597185
100
AcDbArc
 50
299.446844
 51
306.513298
  0
LINE
  5
274
330
1F
100
AcDbEntity
  8
LC-001-100-D00-0
 62
     7
370
    50
100
AcDbLine
 10
186.022914
 20
250.155251
 30
0.0
 11
186.065904
 21
250.155251
 31
0.0
  0
ARC
  5
275
330
1F
100
AcDbEntity
  8
LC-001-100-D00-0
 62
     7
370
    50
100
AcDbCircle
 10
186.015049
 20
250.142409
 30
0.0
 40
0.0524507500565348
100
AcDbArc
 50
313.2948060000001
 51
14.171691
  0
LINE
  5
276
330
1F
100
AcDbEntity
  8
LC-001-100-D00-0
 62
     7
370
    50
100
AcDbLine
 10
186.646587
 20
250.641406
 30
0.0
 11
186.693615
 21
250.641406
 31
0.0
  0
ARC
  5
277
330
1F
100
AcDbEntity
  8
LC-001-100-D00-0
 62
     7
370
    50
100
AcDbCircle
 10
169.557133
 20
272.119289
 30
0.0
 40
27.47650833470205
100
AcDbArc
 50
306.929523
 51
308.585191
  0
LINE
  5
278
330
1F
100
AcDbEntity
  8
LC-001-100-D00-0
 62
     7
370
    50
100
AcDbLine
 10
186.6597
 20
250.651941
 30
0.0
 11
186.689085
 21
250.651941
 31
0.0
  0
ARC
  5
279
330
1F
100
AcDbEntity
  8
LC-001-100-D00-0
 62
     7
370
    50
100
AcDbCircle
 10
186.639497
 20
250.624377
 30
0.0
 40
0.0567343714344609
100
AcDbArc
 50
17.466505
 51
29.067537
  0
LINE
  5
27A
330
1F
100
AcDbEntity
  8
LC-001-100-D00-0
 62
     7
370
    50
100
AcDbLine
 10
108.629718
 20
307.585043
 30
0.0
 11
102.129712
 21
295.646266
 31
0.0
  0
LINE
  5
27B
330
1F
100
AcDbEntity
  8
LC-001-100-D00-0
 62
     7
370
    25
100
AcDbLine
 10
36.129716
 20
295.646266
 30
0.0
 11
29.629714
 21
307.585043
 31
0.0
  0
ARC
  5
27C
330
1F
100
AcDbEntity
  8
LC-001-100-D00-0
 62
     7
370
    50
100
AcDbCircle
 10
43.629714
 20
255.085041
 30
0.0
 40
6.0
100
AcDbArc
 50
180.0
 51
270.0
  0
ARC
  5
27D
330
1F
100
AcDbEntity
  8
LC-001-100-D00-0
 62
     7
370
    50
100
AcDbCircle
 10
94.629714
 20
255.085041
 30
0.0
 40
6.0
100
AcDbArc
 50
270.0
 51
0.0
  0
LINE
  5
27E
330
1F
100
AcDbEntity
  8
LC-001-100-D00-0
 62
     7
370
    50
100
AcDbLine
 10
36.129716
 20
295.646266
 30
0.0
 11
36.129716
 21
255.085041
 31
0.0
  0
ARC
  5
27F
330
1F
100
AcDbEntity
  8
LC-001-100-D00-0
 62
     7
370
    50
100
AcDbCircle
 10
43.629714
 20
255.085041
 30
0.0
 40
7.5
100
AcDbArc
 50
180.0
 51
270.0
  0
LINE
  5
280
330
1F
100
AcDbEntity
  8
LC-001-100-D00-0
 62
     7
370
    50
100
AcDbLine
 10
43.629712
 20
247.585041
 30
0.0
 11
94.629711
 21
247.585041
 31
0.0
  0
ARC
  5
281
330
1F
100
AcDbEntity
  8
LC-001-100-D00-0
 62
     7
370
    50
100
AcDbCircle
 10
94.629714
 20
255.085041
 30
0.0
 40
7.5
100
AcDbArc
 50
270.0
 51
0.0
  0
LINE
  5
282
330
1F
100
AcDbEntity
  8
LC-001-100-D00-0
 62
     7
370
    50
100
AcDbLine
 10
102.129712
 20
255.085041
 30
0.0
 11
102.129712
 21
295.646266
 31
0.0
  0
LINE
  5
283
330
1F
100
AcDbEntity
  8
LC-001-100-D00-0
 62
     7
370
    50
100
AcDbLine
 10
111.629716
 20
307.585043
 30
0.0
 11
111.629716
 21
309.085039
 31
0.0
  0
LINE
  5
284
330
1F
100
AcDbEntity
  8
LC-001-100-D00-0
 62
     7
370
    50
100
AcDbLine
 10
111.629716
 20
309.085039
 30
0.0
 11
107.029713
 21
309.085039
 31
0.0
  0
LINE
  5
285
330
1F
100
AcDbEntity
  8
LC-001-100-D00-0
 62
     7
370
    50
100
AcDbLine
 10
107.029713
 20
309.085039
 30
0.0
 11
107.029713
 21
307.585043
 31
0.0
  0
LINE
  5
286
330
1F
100
AcDbEntity
  8
LC-001-100-D00-0
 62
     7
370
    50
100
AcDbLine
 10
102.129712
 20
298.58504
 30
0.0
 11
107.029713
 21
307.585043
 31
0.0
  0
LINE
  5
287
330
1F
100
AcDbEntity
  8
LC-001-100-D00-0
 62
     7
370
    50
100
AcDbLine
 10
100.629716
 20
298.58504
 30
0.0
 11
100.629716
 21
255.085041
 31
0.0
  0
LINE
  5
288
330
1F
100
AcDbEntity
  8
LC-001-100-D00-0
 62
     7
370
    50
100
AcDbLine
 10
37.629715
 20
255.085041
 30
0.0
 11
37.629715
 21
298.58504
 31
0.0
  0
LINE
  5
289
330
1F
100
AcDbEntity
  8
LC-001-100-D00-0
 62
     7
370
    50
100
AcDbLine
 10
31.229715
 20
307.585043
 30
0.0
 11
36.129716
 21
298.58504
 31
0.0
  0
LINE
  5
28A
330
1F
100
AcDbEntity
  8
LC-001-100-D00-0
 62
     7
370
    50
100
AcDbLine
 10
31.229715
 20
307.585043
 30
0.0
 11
31.229715
 21
309.085039
 31
0.0
  0
LINE
  5
28B
330
1F
100
AcDbEntity
  8
LC-001-100-D00-0
 62
     7
370
    50
100
AcDbLine
 10
31.229715
 20
309.085039
 30
0.0
 11
26.629713
 21
309.085039
 31
0.0
  0
LINE
  5
28C
330
1F
100
AcDbEntity
  8
LC-001-100-D00-0
 62
     7
370
    50
100
AcDbLine
 10
26.629713
 20
309.085039
 30
0.0
 11
26.629713
 21
307.585043
 31
0.0
  0
LINE
  5
28D
330
1F
100
AcDbEntity
  8
LC-001-100-D00-0
 62
     7
370
    50
100
AcDbLine
 10
108.629718
 20
307.585043
 30
0.0
 11
111.629716
 21
307.585043
 31
0.0
  0
LINE
  5
28E
330
1F
100
AcDbEntity
  8
LC-001-100-D00-0
 62
     7
370
    50
100
AcDbLine
 10
26.629713
 20
307.585043
 30
0.0
 11
29.629714
 21
307.585043
 31
0.0
  0
LINE
  5
28F
330
1F
100
AcDbEntity
  8
LC-001-100-D00-0
 62
     7
370
    50
100
AcDbLine
 10
37.629715
 20
298.58504
 30
0.0
 11
36.129716
 21
298.58504
 31
0.0
  0
LINE
  5
290
330
1F
100
AcDbEntity
  8
LC-001-100-D00-0
 62
     7
370
    50
100
AcDbLine
 10
102.129712
 20
298.58504
 30
0.0
 11
100.629716
 21
298.58504
 31
0.0
  0
LINE
  5
291
330
1F
100
AcDbEntity
  8
LC-001-100-D00-0
 62
     7
370
    50
100
AcDbLine
 10
94.629711
 20
249.085041
 30
0.0
 11
43.629712
 21
249.085041
 31
0.0
  0
LINE
  5
292
330
1F
100
AcDbEntity
  8
LC-001-100-D00-0
 62
     7
370
    50
100
AcDbLine
 10
37.629715
 20
298.58504
 30
0.0
 11
48.130105
 21
298.58504
 31
0.0
  0
LINE
  5
293
330
1F
100
AcDbEntity
  8
LC-001-100-D00-0
 62
     7
370
    50
100
AcDbLine
 10
90.129322
 20
298.58504
 30
0.0
 11
100.629716
 21
298.58504
 31
0.0
  0
LINE
  5
294
330
1F
100
AcDbEntity
  8
LC-001-100-D00-0
 62
     7
370
    50
100
AcDbLine
 10
107.029713
 20
307.585043
 30
0.0
 11
106.910794
 21
307.585043
 31
0.0
  0
INSERT
  5
29A
330
1F
100
AcDbEntity
  8
LC-001-100-D00-0
 62
     7
370
    50
100
AcDbBlockReference
  2
KLON9
 10
0.0
 20
0.0
 30
0.0
  0
INSERT
  5
2A6
330
1F
100
AcDbEntity
  8
LC-001-100-D00-0
 62
     7
370
    50
100
AcDbBlockReference
  2
POLY6
 10
0.0
 20
0.0
 30
0.0
  0
LINE
  5
2A7
330
1F
100
AcDbEntity
  8
LC-001-100-D00-0
 62
     7
370
    50
100
AcDbLine
 10
31.348634
 20
307.585043
 30
0.0
 11
31.229715
 21
307.585043
 31
0.0
  0
LINE
  5
2A8
330
1F
100
AcDbEntity
  8
LC-001-100-D00-0
 62
     7
370
    50
100
AcDbLine
 10
106.910794
 20
307.585043
 30
0.0
 11
95.77076
 21
307.585043
 31
0.0
  0
LINE
  5
2A9
330
1F
100
AcDbEntity
  8
LC-001-100-D00-0
 62
     7
370
    50
100
AcDbLine
 10
42.488663
 20
307.585043
 30
0.0
 11
31.348634
 21
307.585043
 31
0.0
  0
LINE
  5
2AA
330
1F
100
AcDbEntity
  8
LC-001-100-D00-0
 62
     7
370
    50
100
AcDbLine
 10
87.129324
 20
296.584846
 30
0.0
 11
87.129324
 21
258.58446
 31
0.0
  0
LINE
  5
2AB
330
1F
100
AcDbEntity
  8
LC-001-100-D00-0
 62
     7
370
    50
100
AcDbLine
 10
51.130104
 20
258.58446
 30
0.0
 11
51.130104
 21
296.584846
 31
0.0
  0
LINE
  5
2AC
330
1F
100
AcDbEntity
  8
LC-001-100-D00-0
 62
     7
370
    50
100
AcDbLine
 10
87.129324
 20
258.58446
 30
0.0
 11
51.130104
 21
258.58446
 31
0.0
  0
LINE
  5
2AD
330
1F
100
AcDbEntity
  8
LC-001-100-D00-0
 62
     7
370
    50
100
AcDbLine
 10
111.382223
 20
309.085039
 30
0.0
 11
111.382223
 21
309.58504
 31
0.0
  0
LINE
  5
2AE
330
1F
100
AcDbEntity
  8
LC-001-100-D00-0
 62
     7
370
    50
100
AcDbLine
 10
26.877209
 20
309.58504
 30
0.0
 11
26.877209
 21
309.085039
 31
0.0
  0
LINE
  5
2AF
330
1F
100
AcDbEntity
  8
LC-001-100-D00-0
 62
     7
370
    50
100
AcDbLine
 10
107.129774
 20
312.385042
 30
0.0
 11
107.129774
 21
311.58485
 31
0.0
  0
LINE
  5
2B0
330
1F
100
AcDbEntity
  8
LC-001-100-D00-0
 62
     7
370
    50
100
AcDbLine
 10
31.129654
 20
311.58485
 30
0.0
 11
31.129654
 21
312.385042
 31
0.0
  0
ARC
  5
2B1
330
1F
100
AcDbEntity
  8
LC-001-100-D00-0
 62
     7
370
    50
100
AcDbCircle
 10
110.88222
 20
309.585041
 30
0.0
 40
0.5000000000001137
100
AcDbArc
 50
0.0
 51
90.0
  0
ARC
  5
2B2
330
1F
100
AcDbEntity
  8
LC-001-100-D00-0
 62
     7
370
    50
100
AcDbCircle
 10
27.377208
 20
309.585041
 30
0.0
 40
0.5000000000001137
100
AcDbArc
 50
90.0
 51
180.0
  0
ARC
  5
2B3
330
1F
100
AcDbEntity
  8
LC-001-100-D00-0
 62
     7
370
    50
100
AcDbCircle
 10
109.779714
 20
310.585041
 30
0.0
 40
0.5
100
AcDbArc
 50
180.0
 51
270.0
  0
ARC
  5
2B4
330
1F
100
AcDbEntity
  8
LC-001-100-D00-0
 62
     7
370
    50
100
AcDbCircle
 10
28.479714
 20
310.585041
 30
0.0
 40
0.5
100
AcDbArc
 50
270.0
 51
0.0
  0
LINE
  5
2B5
330
1F
100
AcDbEntity
  8
LC-001-100-D00-0
 62
     7
370
    50
100
AcDbLine
 10
106.884821
 20
309.085039
 30
0.0
 11
106.884821
 21
307.810028
 31
0.0
  0
LINE
  5
2B6
330
1F
100
AcDbEntity
  8
LC-001-100-D00-0
 62
     7
370
    50
100
AcDbLine
 10
31.374604
 20
307.810028
 30
0.0
 11
31.374604
 21
309.085039
 31
0.0
  0
ARC
  5
2B7
330
1F
100
AcDbEntity
  8
LC-001-100-D00-0
 62
     7
370
    50
100
AcDbCircle
 10
100.129324
 20
298.584877
 30
0.0
 40
10.00000000000007
100
AcDbArc
 50
67.296584
 51
180.0
  0
ARC
  5
2B8
330
1F
100
AcDbEntity
  8
LC-001-100-D00-0
 62
     7
370
    50
100
AcDbCircle
 10
38.130104
 20
298.584877
 30
0.0
 40
10.00000000000007
100
AcDbArc
 50
0.0
 51
112.703416
  0
LINE
  5
2B9
330
1F
100
AcDbEntity
  8
LC-001-100-D00-0
 62
     7
370
    50
100
AcDbLine
 10
103.988937
 20
307.810028
 30
0.0
 11
96.269711
 21
307.810028
 31
0.0
  0
LINE
  5
2BA
330
1F
100
AcDbEntity
  8
LC-001-100-D00-0
 62
     7
370
    50
100
AcDbLine
 10
41.989713
 20
307.810028
 30
0.0
 11
34.270494
 21
307.810028
 31
0.0
  0
LINE
  5
2BB
330
1F
100
AcDbEntity
  8
LC-001-100-D00-0
 62
     7
370
    50
100
AcDbLine
 10
90.129322
 20
298.584876
 30
0.0
 11
90.129322
 21
258.58446
 31
0.0
  0
LINE
  5
2BC
330
1F
100
AcDbEntity
  8
LC-001-100-D00-0
 62
     7
370
    50
100
AcDbLine
 10
48.130105
 20
258.58446
 30
0.0
 11
48.130105
 21
298.584876
 31
0.0
  0
ARC
  5
2BD
330
1F
100
AcDbEntity
  8
LC-001-100-D00-0
 62
     7
370
    50
100
AcDbCircle
 10
100.129324
 20
296.584847
 30
0.0
 40
12.99999999999998
100
AcDbArc
 50
89.999993
 51
180.0
  0
ARC
  5
2BE
330
1F
100
AcDbEntity
  8
LC-001-100-D00-0
 62
     7
370
    50
100
AcDbCircle
 10
38.130104
 20
296.584847
 30
0.0
 40
12.99999999999997
100
AcDbArc
 50
0.0
 51
90.000007
  0
LINE
  5
2BF
330
1F
100
AcDbEntity
  8
LC-001-100-D00-0
 62
     7
370
    50
100
AcDbLine
 10
100.129328
 20
309.584846
 30
0.0
 11
38.130104
 21
309.584846
 31
0.0
  0
ARC
  5
2C0
330
1F
100
AcDbEntity
  8
LC-001-100-D00-0
 62
     7
370
    50
100
AcDbCircle
 10
105.129775
 20
311.584847
 30
0.0
 40
1.999999999107217
100
AcDbArc
 50
270.0
 51
0.0
  0
ARC
  5
2C1
330
1F
100
AcDbEntity
  8
LC-001-100-D00-0
 62
     7
370
    50
100
AcDbCircle
 10
33.129653
 20
311.584847
 30
0.0
 40
1.999999999107217
100
AcDbArc
 50
180.0
 51
270.0
  0
ARC
  5
2C2
330
1F
100
AcDbEntity
  8
LC-001-100-D00-0
 62
     7
370
    50
100
AcDbCircle
 10
110.129775
 20
312.385041
 30
0.0
 40
3.0
100
AcDbArc
 50
90.0
 51
180.0
  0
ARC
  5
2C3
330
1F
100
AcDbEntity
  8
LC-001-100-D00-0
 62
     7
370
    50
100
AcDbCircle
 10
28.129653
 20
312.385041
 30
0.0
 40
3.0
100
AcDbArc
 50
0.0
 51
90.0
  0
LINE
  5
2C4
330
1F
100
AcDbEntity
  8
LC-001-100-D00-0
 62
     7
370
    50
100
AcDbLine
 10
110.129773
 20
315.385041
 30
0.0
 11
28.129653
 21
315.385041
 31
0.0
  0
LINE
  5
2C5
330
1F
100
AcDbEntity
  8
LC-001-100-D00-0
 62
     7
370
    50
100
AcDbLine
 10
27.129714
 20
313.589332
 30
0.0
 11
28.479715
 21
313.589332
 31
0.0
  0
ARC
  5
2C6
330
1F
100
AcDbEntity
  8
LC-001-100-D00-0
 62
     7
370
    50
100
AcDbCircle
 10
28.479714
 20
313.08933
 30
0.0
 40
0.5
100
AcDbArc
 50
0.0
 51
90.0
  0
LINE
  5
2C7
330
1F
100
AcDbEntity
  8
LC-001-100-D00-0
 62
     7
370
    50
100
AcDbLine
 10
28.979714
 20
313.089331
 30
0.0
 11
28.979714
 21
310.585042
 31
0.0
  0
LINE
  5
2C8
330
1F
100
AcDbEntity
  8
LC-001-100-D00-0
 62
     7
370
    50
100
AcDbLine
 10
27.377208
 20
310.085041
 30
0.0
 11
28.479715
 21
310.085041
 31
0.0
  0
LINE
  5
2C9
330
1F
100
AcDbEntity
  8
LC-001-100-D00-0
 62
     7
370
    50
100
AcDbLine
 10
26.629713
 20
314.089333
 30
0.0
 11
26.629713
 21
315.385041
 31
0.0
  0
ARC
  5
2CA
330
1F
100
AcDbEntity
  8
LC-001-100-D00-0
 62
     7
370
    50
100
AcDbCircle
 10
27.129714
 20
314.08933
 30
0.0
 40
0.5
100
AcDbArc
 50
180.0
 51
270.0
  0
LINE
  5
2CB
330
1F
100
AcDbEntity
  8
LC-001-100-D00-0
 62
     7
370
    50
100
AcDbLine
 10
34.270494
 20
307.810028
 30
0.0
 11
31.374604
 21
307.810028
 31
0.0
  0
LINE
  5
2CC
330
1F
100
AcDbEntity
  8
LC-001-100-D00-0
 62
     7
370
    50
100
AcDbLine
 10
26.877209
 20
309.085039
 30
0.0
 11
31.374604
 21
309.085039
 31
0.0
  0
LINE
  5
2CD
330
1F
100
AcDbEntity
  8
LC-001-100-D00-0
 62
     7
370
    50
100
AcDbLine
 10
38.130104
 20
309.584846
 30
0.0
 11
33.129654
 21
309.584846
 31
0.0
  0
LINE
  5
2CE
330
1F
100
AcDbEntity
  8
LC-001-100-D00-0
 62
     7
370
    50
100
AcDbLine
 10
26.629713
 20
315.385041
 30
0.0
 11
28.129653
 21
315.385041
 31
0.0
  0
LINE
  5
2CF
330
1F
100
AcDbEntity
  8
LC-001-100-D00-0
 62
     7
370
    50
100
AcDbLine
 10
48.130105
 20
258.58446
 30
0.0
 11
51.130104
 21
258.58446
 31
0.0
  0
LINE
  5
2D0
330
1F
100
AcDbEntity
  8
LC-001-100-D00-0
 62
     7
370
    50
100
AcDbLine
 10
109.279714
 20
310.585042
 30
0.0
 11
109.279714
 21
313.089331
 31
0.0
  0
LINE
  5
2D1
330
1F
100
AcDbEntity
  8
LC-001-100-D00-0
 62
     7
370
    50
100
AcDbLine
 10
111.629716
 20
315.385041
 30
0.0
 11
111.629716
 21
314.089333
 31
0.0
  0
ARC
  5
2D2
330
1F
100
AcDbEntity
  8
LC-001-100-D00-0
 62
     7
370
    50
100
AcDbCircle
 10
109.779714
 20
313.08933
 30
0.0
 40
0.5000000000000568
100
AcDbArc
 50
90.0
 51
180.0
  0
LINE
  5
2D3
330
1F
100
AcDbEntity
  8
LC-001-100-D00-0
 62
     7
370
    50
100
AcDbLine
 10
109.779715
 20
313.589332
 30
0.0
 11
111.129715
 21
313.589332
 31
0.0
  0
ARC
  5
2D4
330
1F
100
AcDbEntity
  8
LC-001-100-D00-0
 62
     7
370
    50
100
AcDbCircle
 10
111.129714
 20
314.08933
 30
0.0
 40
0.5000000000000568
100
AcDbArc
 50
270.0
 51
0.0
  0
LINE
  5
2D5
330
1F
100
AcDbEntity
  8
LC-001-100-D00-0
 62
     7
370
    50
100
AcDbLine
 10
109.779715
 20
310.085041
 30
0.0
 11
110.882222
 21
310.085041
 31
0.0
  0
LINE
  5
2D6
330
1F
100
AcDbEntity
  8
LC-001-100-D00-0
 62
     7
370
    50
100
AcDbLine
 10
106.884821
 20
307.810028
 30
0.0
 11
103.988937
 21
307.810028
 31
0.0
  0
LINE
  5
2D7
330
1F
100
AcDbEntity
  8
LC-001-100-D00-0
 62
     7
370
    50
100
AcDbLine
 10
106.884821
 20
309.085039
 30
0.0
 11
111.382223
 21
309.085039
 31
0.0
  0
LINE
  5
2D8
330
1F
100
AcDbEntity
  8
LC-001-100-D00-0
 62
     7
370
    50
100
AcDbLine
 10
105.129777
 20
309.584846
 30
0.0
 11
100.129328
 21
309.584846
 31
0.0
  0
LINE
  5
2D9
330
1F
100
AcDbEntity
  8
LC-001-100-D00-0
 62
     7
370
    50
100
AcDbLine
 10
110.129773
 20
315.385041
 30
0.0
 11
111.629716
 21
315.385041
 31
0.0
  0
LINE
  5
2DA
330
1F
100
AcDbEntity
  8
LC-001-100-D00-0
 62
     7
370
    50
100
AcDbLine
 10
87.129324
 20
258.58446
 30
0.0
 11
90.129322
 21
258.58446
 31
0.0
  0
INSERT
  5
2E8
330
1F
100
AcDbEntity
  8
LC-001-100-D00-0
 62
     7
370
    50
100
AcDbBlockReference
  2
POLY7
 10
0.0
 20
0.0
 30
0.0
  0
LINE
  5
2E9
330
1F
100
AcDbEntity
  8
LC-001-100-D00-0
 62
     7
370
    50
100
AcDbLine
 10
69.713048
 20
351.485041
 30
0.0
 11
69.713048
 21
351.38504
 31
0.0
  0
LINE
  5
2EA
330
1F
100
AcDbEntity
  8
LC-001-100-D00-0
 62
     7
370
    50
100
AcDbLine
 10
69.154046
 20
351.485041
 30
0.0
 11
69.154046
 21
351.38504
 31
0.0
  0
LINE
  5
2EB
330
1F
100
AcDbEntity
  8
LC-001-100-D00-0
 62
     7
370
    50
100
AcDbLine
 10
68.844005
 20
352.785041
 30
0.0
 11
69.129712
 21
352.785041
 31
0.0
  0
LINE
  5
2EC
330
1F
100
AcDbEntity
  8
LC-001-100-D00-0
 62
     7
370
    50
100
AcDbLine
 10
68.844005
 20
352.885043
 30
0.0
 11
68.844005
 21
352.785041
 31
0.0
  0
LINE
  5
2ED
330
1F
100
AcDbEntity
  8
LC-001-100-D00-0
 62
     7
370
    50
100
AcDbLine
 10
68.111106
 20
352.885043
 30
0.0
 11
68.844005
 21
352.885043
 31
0.0
  0
LINE
  5
2EE
330
1F
100
AcDbEntity
  8
LC-001-100-D00-0
 62
     7
370
    50
100
AcDbLine
 10
68.111106
 20
352.785041
 30
0.0
 11
68.111106
 21
352.885043
 31
0.0
  0
LINE
  5
2EF
330
1F
100
AcDbEntity
  8
LC-001-100-D00-0
 62
     7
370
    50
100
AcDbLine
 10
67.825391
 20
352.785041
 30
0.0
 11
68.111106
 21
352.785041
 31
0.0
  0
LINE
  5
2F0
330
1F
100
AcDbEntity
  8
LC-001-100-D00-0
 62
     7
370
    50
100
AcDbLine
 10
67.825391
 20
352.885043
 30
0.0
 11
67.825391
 21
352.785041
 31
0.0
  0
LINE
  5
2F1
330
1F
100
AcDbEntity
  8
LC-001-100-D00-0
 62
     7
370
    50
100
AcDbLine
 10
66.883384
 20
352.885043
 30
0.0
 11
67.825391
 21
352.885043
 31
0.0
  0
LINE
  5
2F2
330
1F
100
AcDbEntity
  8
LC-001-100-D00-0
 62
     7
370
    50
100
AcDbLine
 10
66.883384
 20
352.885043
 30
0.0
 11
66.883384
 21
352.785041
 31
0.0
  0
LINE
  5
2F3
330
1F
100
AcDbEntity
  8
LC-001-100-D00-0
 62
     7
370
    50
100
AcDbLine
 10
66.597677
 20
352.785041
 30
0.0
 11
66.883384
 21
352.785041
 31
0.0
  0
LINE
  5
2F4
330
1F
100
AcDbEntity
  8
LC-001-100-D00-0
 62
     7
370
    50
100
AcDbLine
 10
66.597677
 20
352.885043
 30
0.0
 11
66.597677
 21
352.785041
 31
0.0
  0
LINE
  5
2F5
330
1F
100
AcDbEntity
  8
LC-001-100-D00-0
 62
     7
370
    50
100
AcDbLine
 10
65.792314
 20
352.885043
 30
0.0
 11
66.597677
 21
352.885043
 31
0.0
  0
LINE
  5
2F6
330
1F
100
AcDbEntity
  8
LC-001-100-D00-0
 62
     7
370
    50
100
AcDbLine
 10
65.792314
 20
352.785041
 30
0.0
 11
65.792314
 21
352.885043
 31
0.0
  0
LINE
  5
2F7
330
1F
100
AcDbEntity
  8
LC-001-100-D00-0
 62
     7
370
    50
100
AcDbLine
 10
65.506603
 20
352.785041
 30
0.0
 11
65.792314
 21
352.785041
 31
0.0
  0
LINE
  5
2F8
330
1F
100
AcDbEntity
  8
LC-001-100-D00-0
 62
     7
370
    50
100
AcDbLine
 10
65.506603
 20
352.885043
 30
0.0
 11
65.506603
 21
352.785041
 31
0.0
  0
LINE
  5
2F9
330
1F
100
AcDbEntity
  8
LC-001-100-D00-0
 62
     7
370
    50
100
AcDbLine
 10
64.564596
 20
352.885043
 30
0.0
 11
65.506603
 21
352.885043
 31
0.0
  0
LINE
  5
2FA
330
1F
100
AcDbEntity
  8
LC-001-100-D00-0
 62
     7
370
    50
100
AcDbLine
 10
64.564596
 20
352.885043
 30
0.0
 11
64.564596
 21
352.785041
 31
0.0
  0
LINE
  5
2FB
330
1F
100
AcDbEntity
  8
LC-001-100-D00-0
 62
     7
370
    50
100
AcDbLine
 10
64.278885
 20
352.785041
 30
0.0
 11
64.564596
 21
352.785041
 31
0.0
  0
LINE
  5
2FC
330
1F
100
AcDbEntity
  8
LC-001-100-D00-0
 62
     7
370
    50
100
AcDbLine
 10
64.278885
 20
352.885043
 30
0.0
 11
64.278885
 21
352.785041
 31
0.0
  0
LINE
  5
2FD
330
1F
100
AcDbEntity
  8
LC-001-100-D00-0
 62
     7
370
    50
100
AcDbLine
 10
63.545982
 20
352.885043
 30
0.0
 11
64.278885
 21
352.885043
 31
0.0
  0
LINE
  5
2FE
330
1F
100
AcDbEntity
  8
LC-001-100-D00-0
 62
     7
370
    50
100
AcDbLine
 10
63.545982
 20
352.785041
 30
0.0
 11
63.545982
 21
352.885043
 31
0.0
  0
LINE
  5
2FF
330
1F
100
AcDbEntity
  8
LC-001-100-D00-0
 62
     7
370
    50
100
AcDbLine
 10
63.260275
 20
352.785041
 30
0.0
 11
63.545982
 21
352.785041
 31
0.0
  0
LINE
  5
300
330
1F
100
AcDbEntity
  8
LC-001-100-D00-0
 62
     7
370
    50
100
AcDbLine
 10
63.260275
 20
352.885043
 30
0.0
 11
63.260275
 21
352.785041
 31
0.0
  0
LINE
  5
301
330
1F
100
AcDbEntity
  8
LC-001-100-D00-0
 62
     7
370
    50
100
AcDbLine
 10
62.680579
 20
352.885043
 30
0.0
 11
63.260275
 21
352.885043
 31
0.0
  0
LINE
  5
302
330
1F
100
AcDbEntity
  8
LC-001-100-D00-0
 62
     7
370
    50
100
AcDbLine
 10
62.680579
 20
352.885043
 30
0.0
 11
62.680579
 21
352.785041
 31
0.0
  0
LINE
  5
303
330
1F
100
AcDbEntity
  8
LC-001-100-D00-0
 62
     7
370
    50
100
AcDbLine
 10
62.394868
 20
352.785041
 30
0.0
 11
62.680579
 21
352.785041
 31
0.0
  0
LINE
  5
304
330
1F
100
AcDbEntity
  8
LC-001-100-D00-0
 62
     7
370
    50
100
AcDbLine
 10
62.394868
 20
352.885043
 30
0.0
 11
62.394868
 21
352.785041
 31
0.0
  0
LINE
  5
305
330
1F
100
AcDbEntity
  8
LC-001-100-D00-0
 62
     7
370
    50
100
AcDbLine
 10
61.661969
 20
352.885043
 30
0.0
 11
62.394868
 21
352.885043
 31
0.0
  0
LINE
  5
306
330
1F
100
AcDbEntity
  8
LC-001-100-D00-0
 62
     7
370
    50
100
AcDbLine
 10
61.661969
 20
352.785041
 30
0.0
 11
61.661969
 21
352.885043
 31
0.0
  0
LINE
  5
307
330
1F
100
AcDbEntity
  8
LC-001-100-D00-0
 62
     7
370
    50
100
AcDbLine
 10
59.492241
 20
352.785041
 30
0.0
 11
61.661969
 21
352.785041
 31
0.0
  0
LINE
  5
308
330
1F
100
AcDbEntity
  8
LC-001-100-D00-0
 62
     7
370
    50
100
AcDbLine
 10
59.492241
 20
352.885043
 30
0.0
 11
59.492241
 21
352.785041
 31
0.0
  0
LINE
  5
309
330
1F
100
AcDbEntity
  8
LC-001-100-D00-0
 62
     7
370
    50
100
AcDbLine
 10
58.695155
 20
352.885043
 30
0.0
 11
59.492241
 21
352.885043
 31
0.0
  0
LINE
  5
30A
330
1F
100
AcDbEntity
  8
LC-001-100-D00-0
 62
     7
370
    50
100
AcDbLine
 10
58.695155
 20
352.885043
 30
0.0
 11
58.695155
 21
352.785041
 31
0.0
  0
LINE
  5
30B
330
1F
100
AcDbEntity
  8
LC-001-100-D00-0
 62
     7
370
    50
100
AcDbLine
 10
58.409448
 20
352.785041
 30
0.0
 11
58.695155
 21
352.785041
 31
0.0
  0
LINE
  5
30C
330
1F
100
AcDbEntity
  8
LC-001-100-D00-0
 62
     7
370
    50
100
AcDbLine
 10
58.409448
 20
352.885043
 30
0.0
 11
58.409448
 21
352.785041
 31
0.0
  0
LINE
  5
30D
330
1F
100
AcDbEntity
  8
LC-001-100-D00-0
 62
     7
370
    50
100
AcDbLine
 10
55.335808
 20
352.885043
 30
0.0
 11
58.409448
 21
352.885043
 31
0.0
  0
LINE
  5
30E
330
1F
100
AcDbEntity
  8
LC-001-100-D00-0
 62
     7
370
    50
100
AcDbLine
 10
55.335808
 20
352.785041
 30
0.0
 11
55.335808
 21
352.885043
 31
0.0
  0
LINE
  5
30F
330
1F
100
AcDbEntity
  8
LC-001-100-D00-0
 62
     7
370
    50
100
AcDbLine
 10
54.952103
 20
352.785041
 30
0.0
 11
55.335808
 21
352.785041
 31
0.0
  0
LINE
  5
310
330
1F
100
AcDbEntity
  8
LC-001-100-D00-0
 62
     7
370
    50
100
AcDbLine
 10
54.952103
 20
352.785041
 30
0.0
 11
54.952103
 21
352.885043
 31
0.0
  0
LINE
  5
311
330
1F
100
AcDbEntity
  8
LC-001-100-D00-0
 62
     7
370
    50
100
AcDbLine
 10
50.629715
 20
352.885043
 30
0.0
 11
54.952103
 21
352.885043
 31
0.0
  0
ARC
  5
312
330
1F
100
AcDbEntity
  8
LC-001-100-D00-0
 62
     7
370
    50
100
AcDbCircle
 10
50.629714
 20
350.385041
 30
0.0
 40
2.500000000000341
100
AcDbArc
 50
90.0
 51
180.0
  0
LINE
  5
313
330
1F
100
AcDbEntity
  8
LC-001-100-D00-0
 62
     7
370
    50
100
AcDbLine
 10
48.129714
 20
348.885042
 30
0.0
 11
48.129714
 21
350.385038
 31
0.0
  0
LINE
  5
314
330
1F
100
AcDbEntity
  8
LC-001-100-D00-0
 62
     7
370
    50
100
AcDbLine
 10
49.629713
 20
348.885042
 30
0.0
 11
48.129714
 21
348.885042
 31
0.0
  0
LINE
  5
315
330
1F
100
AcDbEntity
  8
LC-001-100-D00-0
 62
     7
370
    50
100
AcDbLine
 10
49.629713
 20
348.885042
 30
0.0
 11
49.629713
 21
350.385038
 31
0.0
  0
ARC
  5
316
330
1F
100
AcDbEntity
  8
LC-001-100-D00-0
 62
     7
370
    50
100
AcDbCircle
 10
50.629714
 20
350.385041
 30
0.0
 40
1.000000000000341
100
AcDbArc
 50
90.0
 51
180.0
  0
ARC
  5
317
330
1F
100
AcDbEntity
  8
LC-001-100-D00-0
 62
     7
370
    50
100
AcDbCircle
 10
87.629714
 20
350.385041
 30
0.0
 40
1.0
100
AcDbArc
 50
0.0
 51
90.0
  0
LINE
  5
318
330
1F
100
AcDbEntity
  8
LC-001-100-D00-0
 62
     7
370
    50
100
AcDbLine
 10
88.629714
 20
350.385038
 30
0.0
 11
88.629714
 21
348.885042
 31
0.0
  0
LINE
  5
319
330
1F
100
AcDbEntity
  8
LC-001-100-D00-0
 62
     7
370
    50
100
AcDbLine
 10
90.129717
 20
348.885042
 30
0.0
 11
88.629714
 21
348.885042
 31
0.0
  0
LINE
  5
31A
330
1F
100
AcDbEntity
  8
LC-001-100-D00-0
 62
     7
370
    50
100
AcDbLine
 10
90.129717
 20
350.385038
 30
0.0
 11
90.129717
 21
348.885042
 31
0.0
  0
ARC
  5
31B
330
1F
100
AcDbEntity
  8
LC-001-100-D00-0
 62
     7
370
    50
100
AcDbCircle
 10
87.629714
 20
350.385041
 30
0.0
 40
2.500000000000114
100
AcDbArc
 50
0.0
 51
90.0
  0
LINE
  5
31C
330
1F
100
AcDbEntity
  8
LC-001-100-D00-0
 62
     7
370
    50
100
AcDbLine
 10
84.201849
 20
352.885043
 30
0.0
 11
87.629712
 21
352.885043
 31
0.0
  0
LINE
  5
31D
330
1F
100
AcDbEntity
  8
LC-001-100-D00-0
 62
     7
370
    50
100
AcDbLine
 10
84.201849
 20
352.885043
 30
0.0
 11
84.201849
 21
352.785041
 31
0.0
  0
LINE
  5
31E
330
1F
100
AcDbEntity
  8
LC-001-100-D00-0
 62
     7
370
    50
100
AcDbLine
 10
83.916142
 20
352.785041
 30
0.0
 11
84.201849
 21
352.785041
 31
0.0
  0
LINE
  5
31F
330
1F
100
AcDbEntity
  8
LC-001-100-D00-0
 62
     7
370
    50
100
AcDbLine
 10
83.916142
 20
352.885043
 30
0.0
 11
83.916142
 21
352.785041
 31
0.0
  0
LINE
  5
320
330
1F
100
AcDbEntity
  8
LC-001-100-D00-0
 62
     7
370
    50
100
AcDbLine
 10
83.110779
 20
352.885043
 30
0.0
 11
83.916142
 21
352.885043
 31
0.0
  0
LINE
  5
321
330
1F
100
AcDbEntity
  8
LC-001-100-D00-0
 62
     7
370
    50
100
AcDbLine
 10
83.110779
 20
352.785041
 30
0.0
 11
83.110779
 21
352.885043
 31
0.0
  0
LINE
  5
322
330
1F
100
AcDbEntity
  8
LC-001-100-D00-0
 62
     7
370
    50
100
AcDbLine
 10
82.825071
 20
352.785041
 30
0.0
 11
83.110779
 21
352.785041
 31
0.0
  0
LINE
  5
323
330
1F
100
AcDbEntity
  8
LC-001-100-D00-0
 62
     7
370
    50
100
AcDbLine
 10
82.825071
 20
352.885043
 30
0.0
 11
82.825071
 21
352.785041
 31
0.0
  0
LINE
  5
324
330
1F
100
AcDbEntity
  8
LC-001-100-D00-0
 62
     7
370
    50
100
AcDbLine
 10
81.862352
 20
352.885043
 30
0.0
 11
82.825071
 21
352.885043
 31
0.0
  0
LINE
  5
325
330
1F
100
AcDbEntity
  8
LC-001-100-D00-0
 62
     7
370
    50
100
AcDbLine
 10
81.862352
 20
352.885043
 30
0.0
 11
81.862352
 21
352.785041
 31
0.0
  0
LINE
  5
326
330
1F
100
AcDbEntity
  8
LC-001-100-D00-0
 62
     7
370
    50
100
AcDbLine
 10
81.576644
 20
352.785041
 30
0.0
 11
81.862352
 21
352.785041
 31
0.0
  0
LINE
  5
327
330
1F
100
AcDbEntity
  8
LC-001-100-D00-0
 62
     7
370
    50
100
AcDbLine
 10
81.576644
 20
352.885043
 30
0.0
 11
81.576644
 21
352.785041
 31
0.0
  0
LINE
  5
328
330
1F
100
AcDbEntity
  8
LC-001-100-D00-0
 62
     7
370
    50
100
AcDbLine
 10
80.916203
 20
352.885043
 30
0.0
 11
81.576644
 21
352.885043
 31
0.0
  0
LINE
  5
329
330
1F
100
AcDbEntity
  8
LC-001-100-D00-0
 62
     7
370
    50
100
AcDbLine
 10
80.916203
 20
352.785041
 30
0.0
 11
80.916203
 21
352.885043
 31
0.0
  0
LINE
  5
32A
330
1F
100
AcDbEntity
  8
LC-001-100-D00-0
 62
     7
370
    50
100
AcDbLine
 10
80.630495
 20
352.785041
 30
0.0
 11
80.916203
 21
352.785041
 31
0.0
  0
LINE
  5
32B
330
1F
100
AcDbEntity
  8
LC-001-100-D00-0
 62
     7
370
    50
100
AcDbLine
 10
80.630495
 20
352.885043
 30
0.0
 11
80.630495
 21
352.785041
 31
0.0
  0
LINE
  5
32C
330
1F
100
AcDbEntity
  8
LC-001-100-D00-0
 62
     7
370
    50
100
AcDbLine
 10
79.999044
 20
352.885043
 30
0.0
 11
80.630495
 21
352.885043
 31
0.0
  0
LINE
  5
32D
330
1F
100
AcDbEntity
  8
LC-001-100-D00-0
 62
     7
370
    50
100
AcDbLine
 10
79.999044
 20
352.885043
 30
0.0
 11
79.999044
 21
352.785041
 31
0.0
  0
LINE
  5
32E
330
1F
100
AcDbEntity
  8
LC-001-100-D00-0
 62
     7
370
    50
100
AcDbLine
 10
79.713336
 20
352.785041
 30
0.0
 11
79.999044
 21
352.785041
 31
0.0
  0
LINE
  5
32F
330
1F
100
AcDbEntity
  8
LC-001-100-D00-0
 62
     7
370
    50
100
AcDbLine
 10
79.713336
 20
352.885043
 30
0.0
 11
79.713336
 21
352.785041
 31
0.0
  0
LINE
  5
330
330
1F
100
AcDbEntity
  8
LC-001-100-D00-0
 62
     7
370
    50
100
AcDbLine
 10
76.371796
 20
352.885043
 30
0.0
 11
79.713336
 21
352.885043
 31
0.0
  0
LINE
  5
331
330
1F
100
AcDbEntity
  8
LC-001-100-D00-0
 62
     7
370
    50
100
AcDbLine
 10
76.371796
 20
352.785041
 30
0.0
 11
76.371796
 21
352.885043
 31
0.0
  0
LINE
  5
332
330
1F
100
AcDbEntity
  8
LC-001-100-D00-0
 62
     7
370
    50
100
AcDbLine
 10
76.086088
 20
352.785041
 30
0.0
 11
76.371796
 21
352.785041
 31
0.0
  0
LINE
  5
333
330
1F
100
AcDbEntity
  8
LC-001-100-D00-0
 62
     7
370
    50
100
AcDbLine
 10
76.086088
 20
352.885043
 30
0.0
 11
76.086088
 21
352.785041
 31
0.0
  0
LINE
  5
334
330
1F
100
AcDbEntity
  8
LC-001-100-D00-0
 62
     7
370
    50
100
AcDbLine
 10
75.361467
 20
352.885043
 30
0.0
 11
76.086088
 21
352.885043
 31
0.0
  0
LINE
  5
335
330
1F
100
AcDbEntity
  8
LC-001-100-D00-0
 62
     7
370
    50
100
AcDbLine
 10
75.361467
 20
352.885043
 30
0.0
 11
75.361467
 21
352.785041
 31
0.0
  0
LINE
  5
336
330
1F
100
AcDbEntity
  8
LC-001-100-D00-0
 62
     7
370
    50
100
AcDbLine
 10
75.075752
 20
352.785041
 30
0.0
 11
75.361467
 21
352.785041
 31
0.0
  0
LINE
  5
337
330
1F
100
AcDbEntity
  8
LC-001-100-D00-0
 62
     7
370
    50
100
AcDbLine
 10
75.075752
 20
352.885043
 30
0.0
 11
75.075752
 21
352.785041
 31
0.0
  0
LINE
  5
338
330
1F
100
AcDbEntity
  8
LC-001-100-D00-0
 62
     7
370
    50
100
AcDbLine
 10
74.342853
 20
352.885043
 30
0.0
 11
75.075752
 21
352.885043
 31
0.0
  0
LINE
  5
339
330
1F
100
AcDbEntity
  8
LC-001-100-D00-0
 62
     7
370
    50
100
AcDbLine
 10
74.342853
 20
352.785041
 30
0.0
 11
74.342853
 21
352.885043
 31
0.0
  0
LINE
  5
33A
330
1F
100
AcDbEntity
  8
LC-001-100-D00-0
 62
     7
370
    50
100
AcDbLine
 10
74.057146
 20
352.785041
 30
0.0
 11
74.342853
 21
352.785041
 31
0.0
  0
LINE
  5
33B
330
1F
100
AcDbEntity
  8
LC-001-100-D00-0
 62
     7
370
    50
100
AcDbLine
 10
74.057146
 20
352.885043
 30
0.0
 11
74.057146
 21
352.785041
 31
0.0
  0
LINE
  5
33C
330
1F
100
AcDbEntity
  8
LC-001-100-D00-0
 62
     7
370
    50
100
AcDbLine
 10
72.245589
 20
352.885043
 30
0.0
 11
74.057146
 21
352.885043
 31
0.0
  0
LINE
  5
33D
330
1F
100
AcDbEntity
  8
LC-001-100-D00-0
 62
     7
370
    50
100
AcDbLine
 10
72.245589
 20
352.885043
 30
0.0
 11
72.245589
 21
352.785041
 31
0.0
  0
LINE
  5
33E
330
1F
100
AcDbEntity
  8
LC-001-100-D00-0
 62
     7
370
    50
100
AcDbLine
 10
71.959882
 20
352.785041
 30
0.0
 11
72.245589
 21
352.785041
 31
0.0
  0
LINE
  5
33F
330
1F
100
AcDbEntity
  8
LC-001-100-D00-0
 62
     7
370
    50
100
AcDbLine
 10
71.959882
 20
352.885043
 30
0.0
 11
71.959882
 21
352.785041
 31
0.0
  0
LINE
  5
340
330
1F
100
AcDbEntity
  8
LC-001-100-D00-0
 62
     7
370
    50
100
AcDbLine
 10
71.226976
 20
352.885043
 30
0.0
 11
71.959882
 21
352.885043
 31
0.0
  0
LINE
  5
341
330
1F
100
AcDbEntity
  8
LC-001-100-D00-0
 62
     7
370
    50
100
AcDbLine
 10
71.226976
 20
352.785041
 30
0.0
 11
71.226976
 21
352.885043
 31
0.0
  0
LINE
  5
342
330
1F
100
AcDbEntity
  8
LC-001-100-D00-0
 62
     7
370
    50
100
AcDbLine
 10
70.941268
 20
352.785041
 30
0.0
 11
71.226976
 21
352.785041
 31
0.0
  0
LINE
  5
343
330
1F
100
AcDbEntity
  8
LC-001-100-D00-0
 62
     7
370
    50
100
AcDbLine
 10
70.941268
 20
352.885043
 30
0.0
 11
70.941268
 21
352.785041
 31
0.0
  0
LINE
  5
344
330
1F
100
AcDbEntity
  8
LC-001-100-D00-0
 62
     7
370
    50
100
AcDbLine
 10
69.129712
 20
352.885043
 30
0.0
 11
70.941268
 21
352.885043
 31
0.0
  0
LINE
  5
345
330
1F
100
AcDbEntity
  8
LC-001-100-D00-0
 62
     7
370
    50
100
AcDbLine
 10
69.129712
 20
352.885043
 30
0.0
 11
69.129712
 21
352.785041
 31
0.0
  0
LINE
  5
346
330
1F
100
AcDbEntity
  8
LC-001-100-D00-0
 62
     7
370
    50
100
AcDbLine
 10
69.773874
 20
351.38504
 30
0.0
 11
69.773874
 21
351.485041
 31
0.0
  0
LINE
  5
347
330
1F
100
AcDbEntity
  8
LC-001-100-D00-0
 62
     7
370
    50
100
AcDbLine
 10
69.773874
 20
351.38504
 30
0.0
 11
87.629712
 21
351.38504
 31
0.0
  0
LINE
  5
348
330
1F
100
AcDbEntity
  8
LC-001-100-D00-0
 62
     7
370
    50
100
AcDbLine
 10
50.629715
 20
351.38504
 30
0.0
 11
69.154046
 21
351.38504
 31
0.0
  0
LINE
  5
349
330
1F
100
AcDbEntity
  8
LC-001-100-D00-0
 62
     7
370
    50
100
AcDbLine
 10
69.773874
 20
351.485041
 30
0.0
 11
69.154046
 21
351.485041
 31
0.0
  0
LINE
  5
34A
330
1F
100
AcDbEntity
  8
LC-001-100-D00-0
 62
     7
370
    50
100
AcDbLine
 10
25.129714
 20
350.385038
 30
0.0
 11
25.129714
 21
347.88504
 31
0.0
  0
ARC
  5
34B
330
1F
100
AcDbEntity
  8
LC-001-100-D00-0
 62
     7
370
    50
100
AcDbCircle
 10
26.129714
 20
350.385041
 30
0.0
 40
1.0
100
AcDbArc
 50
90.0
 51
180.0
  0
ARC
  5
34C
330
1F
100
AcDbEntity
  8
LC-001-100-D00-0
 62
     7
370
    50
100
AcDbCircle
 10
27.629714
 20
350.385041
 30
0.0
 40
1.0
100
AcDbArc
 50
0.0
 51
90.0
  0
LINE
  5
34D
330
1F
100
AcDbEntity
  8
LC-001-100-D00-0
 62
     7
370
    50
100
AcDbLine
 10
28.629714
 20
350.385038
 30
0.0
 11
28.629714
 21
348.885042
 31
0.0
  0
LINE
  5
34E
330
1F
100
AcDbEntity
  8
LC-001-100-D00-0
 62
     7
370
    50
100
AcDbLine
 10
30.129715
 20
348.885042
 30
0.0
 11
28.629714
 21
348.885042
 31
0.0
  0
LINE
  5
34F
330
1F
100
AcDbEntity
  8
LC-001-100-D00-0
 62
     7
370
    50
100
AcDbLine
 10
30.129715
 20
350.385038
 30
0.0
 11
30.129715
 21
348.885042
 31
0.0
  0
ARC
  5
350
330
1F
100
AcDbEntity
  8
LC-001-100-D00-0
 62
     7
370
    50
100
AcDbCircle
 10
27.629714
 20
350.385041
 30
0.0
 40
2.500000000000114
100
AcDbArc
 50
0.0
 51
90.0
  0
ARC
  5
351
330
1F
100
AcDbEntity
  8
LC-001-100-D00-0
 62
     7
370
    50
100
AcDbCircle
 10
26.129714
 20
350.385041
 30
0.0
 40
2.500000000000227
100
AcDbArc
 50
90.0
 51
180.0
  0
LINE
  5
352
330
1F
100
AcDbEntity
  8
LC-001-100-D00-0
 62
     7
370
    50
100
AcDbLine
 10
23.629715
 20
350.385038
 30
0.0
 11
23.629715
 21
347.88504
 31
0.0
  0
LINE
  5
353
330
1F
100
AcDbEntity
  8
LC-001-100-D00-0
 62
     7
370
    50
100
AcDbLine
 10
26.129714
 20
352.885043
 30
0.0
 11
27.629714
 21
352.885043
 31
0.0
  0
LINE
  5
354
330
1F
100
AcDbEntity
  8
LC-001-100-D00-0
 62
     7
370
    50
100
AcDbLine
 10
23.629715
 20
347.88504
 30
0.0
 11
25.129714
 21
347.88504
 31
0.0
  0
LINE
  5
355
330
1F
100
AcDbEntity
  8
LC-001-100-D00-0
 62
     7
370
    50
100
AcDbLine
 10
26.129714
 20
351.38504
 30
0.0
 11
27.629714
 21
351.38504
 31
0.0
  0
LINE
  5
356
330
1F
100
AcDbEntity
  8
LC-001-100-D00-0
 62
     7
370
    50
100
AcDbLine
 10
114.629715
 20
347.88504
 30
0.0
 11
114.629715
 21
350.385038
 31
0.0
  0
ARC
  5
357
330
1F
100
AcDbEntity
  8
LC-001-100-D00-0
 62
     7
370
    50
100
AcDbCircle
 10
112.129714
 20
350.385041
 30
0.0
 40
2.499999999999886
100
AcDbArc
 50
0.0
 51
90.0
  0
ARC
  5
358
330
1F
100
AcDbEntity
  8
LC-001-100-D00-0
 62
     7
370
    50
100
AcDbCircle
 10
110.629714
 20
350.385041
 30
0.0
 40
2.500000000000057
100
AcDbArc
 50
90.0
 51
180.0
  0
LINE
  5
359
330
1F
100
AcDbEntity
  8
LC-001-100-D00-0
 62
     7
370
    50
100
AcDbLine
 10
108.129717
 20
348.885042
 30
0.0
 11
108.129717
 21
350.385038
 31
0.0
  0
LINE
  5
35A
330
1F
100
AcDbEntity
  8
LC-001-100-D00-0
 62
     7
370
    50
100
AcDbLine
 10
109.629712
 20
348.885042
 30
0.0
 11
108.129717
 21
348.885042
 31
0.0
  0
LINE
  5
35B
330
1F
100
AcDbEntity
  8
LC-001-100-D00-0
 62
     7
370
    50
100
AcDbLine
 10
109.629712
 20
348.885042
 30
0.0
 11
109.629712
 21
350.385038
 31
0.0
  0
ARC
  5
35C
330
1F
100
AcDbEntity
  8
LC-001-100-D00-0
 62
     7
370
    50
100
AcDbCircle
 10
110.629714
 20
350.385041
 30
0.0
 40
1.0
100
AcDbArc
 50
90.0
 51
180.0
  0
ARC
  5
35D
330
1F
100
AcDbEntity
  8
LC-001-100-D00-0
 62
     7
370
    50
100
AcDbCircle
 10
112.129714
 20
350.385041
 30
0.0
 40
1.0
100
AcDbArc
 50
0.0
 51
90.0
  0
LINE
  5
35E
330
1F
100
AcDbEntity
  8
LC-001-100-D00-0
 62
     7
370
    50
100
AcDbLine
 10
113.129712
 20
347.88504
 30
0.0
 11
113.129712
 21
350.385038
 31
0.0
  0
LINE
  5
35F
330
1F
100
AcDbEntity
  8
LC-001-100-D00-0
 62
     7
370
    50
100
AcDbLine
 10
110.629714
 20
352.885043
 30
0.0
 11
112.129717
 21
352.885043
 31
0.0
  0
LINE
  5
360
330
1F
100
AcDbEntity
  8
LC-001-100-D00-0
 62
     7
370
    50
100
AcDbLine
 10
113.129712
 20
347.88504
 30
0.0
 11
114.629715
 21
347.88504
 31
0.0
  0
LINE
  5
361
330
1F
100
AcDbEntity
  8
LC-001-100-D00-0
 62
     7
370
    50
100
AcDbLine
 10
110.629714
 20
351.38504
 30
0.0
 11
112.129717
 21
351.38504
 31
0.0
  0
ARC
  5
362
330
1F
100
AcDbEntity
  8
LC-001-100-D00-0
 62
     7
370
    50
100
AcDbCircle
 10
38.629714
 20
350.385041
 30
0.0
 40
1.000000000000227
100
AcDbArc
 50
90.0
 51
180.0
  0
ARC
  5
363
330
1F
100
AcDbEntity
  8
LC-001-100-D00-0
 62
     7
370
    50
100
AcDbCircle
 10
39.629714
 20
350.385041
 30
0.0
 40
1.000000000000227
100
AcDbArc
 50
0.0
 51
90.0
  0
LINE
  5
364
330
1F
100
AcDbEntity
  8
LC-001-100-D00-0
 62
     7
370
    50
100
AcDbLine
 10
40.629714
 20
350.385038
 30
0.0
 11
40.629714
 21
348.885042
 31
0.0
  0
LINE
  5
365
330
1F
100
AcDbEntity
  8
LC-001-100-D00-0
 62
     7
370
    50
100
AcDbLine
 10
42.129713
 20
348.885042
 30
0.0
 11
40.629714
 21
348.885042
 31
0.0
  0
LINE
  5
366
330
1F
100
AcDbEntity
  8
LC-001-100-D00-0
 62
     7
370
    50
100
AcDbLine
 10
42.129713
 20
350.385038
 30
0.0
 11
42.129713
 21
348.885042
 31
0.0
  0
ARC
  5
367
330
1F
100
AcDbEntity
  8
LC-001-100-D00-0
 62
     7
370
    50
100
AcDbCircle
 10
39.629714
 20
350.385041
 30
0.0
 40
2.500000000000227
100
AcDbArc
 50
0.0
 51
90.0
  0
LINE
  5
368
330
1F
100
AcDbEntity
  8
LC-001-100-D00-0
 62
     7
370
    50
100
AcDbLine
 10
36.129716
 20
348.885042
 30
0.0
 11
36.129716
 21
350.385038
 31
0.0
  0
LINE
  5
369
330
1F
100
AcDbEntity
  8
LC-001-100-D00-0
 62
     7
370
    50
100
AcDbLine
 10
37.629715
 20
348.885042
 30
0.0
 11
37.629715
 21
350.385038
 31
0.0
  0
ARC
  5
36A
330
1F
100
AcDbEntity
  8
LC-001-100-D00-0
 62
     7
370
    50
100
AcDbCircle
 10
38.629714
 20
350.385041
 30
0.0
 40
2.500000000000114
100
AcDbArc
 50
90.0
 51
180.0
  0
LINE
  5
36B
330
1F
100
AcDbEntity
  8
LC-001-100-D00-0
 62
     7
370
    50
100
AcDbLine
 10
37.629715
 20
348.885042
 30
0.0
 11
36.129716
 21
348.885042
 31
0.0
  0
LINE
  5
36C
330
1F
100
AcDbEntity
  8
LC-001-100-D00-0
 62
     7
370
    50
100
AcDbLine
 10
38.629713
 20
352.885043
 30
0.0
 11
39.629716
 21
352.885043
 31
0.0
  0
LINE
  5
36D
330
1F
100
AcDbEntity
  8
LC-001-100-D00-0
 62
     7
370
    50
100
AcDbLine
 10
38.629713
 20
351.38504
 30
0.0
 11
39.629716
 21
351.38504
 31
0.0
  0
LINE
  5
36E
330
1F
100
AcDbEntity
  8
LC-001-100-D00-0
 62
     7
370
    50
100
AcDbLine
 10
55.030114
 20
352.785041
 30
0.0
 11
55.030114
 21
352.885043
 31
0.0
  0
LINE
  5
36F
330
1F
100
AcDbEntity
  8
LC-001-100-D00-0
 62
     7
370
    50
100
AcDbLine
 10
54.952103
 20
352.885043
 30
0.0
 11
55.030114
 21
352.885043
 31
0.0
  0
ARC
  5
370
330
1F
100
AcDbEntity
  8
LC-001-100-D00-0
 62
     7
370
    50
100
AcDbCircle
 10
98.629714
 20
350.385041
 30
0.0
 40
1.000000000000227
100
AcDbArc
 50
90.0
 51
180.0
  0
ARC
  5
371
330
1F
100
AcDbEntity
  8
LC-001-100-D00-0
 62
     7
370
    50
100
AcDbCircle
 10
99.629714
 20
350.385041
 30
0.0
 40
1.000000000000114
100
AcDbArc
 50
0.0
 51
90.0
  0
LINE
  5
372
330
1F
100
AcDbEntity
  8
LC-001-100-D00-0
 62
     7
370
    50
100
AcDbLine
 10
100.629716
 20
350.385038
 30
0.0
 11
100.629716
 21
348.885042
 31
0.0
  0
LINE
  5
373
330
1F
100
AcDbEntity
  8
LC-001-100-D00-0
 62
     7
370
    50
100
AcDbLine
 10
102.129712
 20
348.885042
 30
0.0
 11
100.629716
 21
348.885042
 31
0.0
  0
LINE
  5
374
330
1F
100
AcDbEntity
  8
LC-001-100-D00-0
 62
     7
370
    50
100
AcDbLine
 10
102.129712
 20
350.385038
 30
0.0
 11
102.129712
 21
348.885042
 31
0.0
  0
ARC
  5
375
330
1F
100
AcDbEntity
  8
LC-001-100-D00-0
 62
     7
370
    50
100
AcDbCircle
 10
99.629714
 20
350.385041
 30
0.0
 40
2.5
100
AcDbArc
 50
0.0
 51
90.0
  0
LINE
  5
376
330
1F
100
AcDbEntity
  8
LC-001-100-D00-0
 62
     7
370
    50
100
AcDbLine
 10
97.629718
 20
348.885042
 30
0.0
 11
97.629718
 21
350.385038
 31
0.0
  0
LINE
  5
377
330
1F
100
AcDbEntity
  8
LC-001-100-D00-0
 62
     7
370
    50
100
AcDbLine
 10
96.129715
 20
348.885042
 30
0.0
 11
96.129715
 21
350.385038
 31
0.0
  0
ARC
  5
378
330
1F
100
AcDbEntity
  8
LC-001-100-D00-0
 62
     7
370
    50
100
AcDbCircle
 10
98.629714
 20
350.385041
 30
0.0
 40
2.500000000000227
100
AcDbArc
 50
90.0
 51
180.0
  0
LINE
  5
379
330
1F
100
AcDbEntity
  8
LC-001-100-D00-0
 62
     7
370
    50
100
AcDbLine
 10
97.629718
 20
348.885042
 30
0.0
 11
96.129715
 21
348.885042
 31
0.0
  0
LINE
  5
37A
330
1F
100
AcDbEntity
  8
LC-001-100-D00-0
 62
     7
370
    50
100
AcDbLine
 10
98.629712
 20
352.885043
 30
0.0
 11
99.629714
 21
352.885043
 31
0.0
  0
LINE
  5
37B
330
1F
100
AcDbEntity
  8
LC-001-100-D00-0
 62
     7
370
    50
100
AcDbLine
 10
98.629712
 20
351.38504
 30
0.0
 11
99.629714
 21
351.38504
 31
0.0
  0
LINE
  5
37C
330
1F
100
AcDbEntity
  8
LC-001-100-D00-0
 62
     7
370
    50
100
AcDbLine
 10
55.067907
 20
352.785041
 30
0.0
 11
55.067907
 21
352.885043
 31
0.0
  0
LINE
  5
37D
330
1F
100
AcDbEntity
  8
LC-001-100-D00-0
 62
     7
370
    50
100
AcDbLine
 10
55.335808
 20
352.885043
 30
0.0
 11
55.067907
 21
352.885043
 31
0.0
  0
LINE
  5
37E
330
1F
100
AcDbEntity
  8
LC-001-100-D00-0
 62
     7
370
    50
100
AcDbLine
 10
59.777948
 20
352.785041
 30
0.0
 11
59.777948
 21
352.885043
 31
0.0
  0
LINE
  5
37F
330
1F
100
AcDbEntity
  8
LC-001-100-D00-0
 62
     7
370
    50
100
AcDbLine
 10
61.661969
 20
352.885043
 30
0.0
 11
59.777948
 21
352.885043
 31
0.0
  0
LINE
  5
380
330
1F
100
AcDbEntity
  8
LC-001-100-D00-0
 62
     7
370
    50
100
AcDbLine
 10
59.492241
 20
352.885043
 30
0.0
 11
59.777948
 21
352.885043
 31
0.0
  0
LINE
  5
381
330
1F
100
AcDbEntity
  8
LC-001-100-D00-0
 62
     7
370
    50
100
AcDbLine
 10
81.576644
 20
352.885043
 30
0.0
 11
81.862352
 21
352.885043
 31
0.0
  0
LINE
  5
382
330
1F
100
AcDbEntity
  8
LC-001-100-D00-0
 62
     7
370
    50
100
AcDbLine
 10
64.278885
 20
352.885043
 30
0.0
 11
64.564596
 21
352.885043
 31
0.0
  0
LINE
  5
383
330
1F
100
AcDbEntity
  8
LC-001-100-D00-0
 62
     7
370
    50
100
AcDbLine
 10
65.506603
 20
352.885043
 30
0.0
 11
65.792314
 21
352.885043
 31
0.0
  0
LINE
  5
384
330
1F
100
AcDbEntity
  8
LC-001-100-D00-0
 62
     7
370
    50
100
AcDbLine
 10
66.597677
 20
352.885043
 30
0.0
 11
66.883384
 21
352.885043
 31
0.0
  0
LINE
  5
385
330
1F
100
AcDbEntity
  8
LC-001-100-D00-0
 62
     7
370
    50
100
AcDbLine
 10
67.825391
 20
352.885043
 30
0.0
 11
68.111106
 21
352.885043
 31
0.0
  0
LINE
  5
386
330
1F
100
AcDbEntity
  8
LC-001-100-D00-0
 62
     7
370
    50
100
AcDbLine
 10
83.110779
 20
352.885043
 30
0.0
 11
82.825071
 21
352.885043
 31
0.0
  0
LINE
  5
387
330
1F
100
AcDbEntity
  8
LC-001-100-D00-0
 62
     7
370
    50
100
AcDbLine
 10
76.086088
 20
352.885043
 30
0.0
 11
76.371796
 21
352.885043
 31
0.0
  0
LINE
  5
388
330
1F
100
AcDbEntity
  8
LC-001-100-D00-0
 62
     7
370
    50
100
AcDbLine
 10
79.713336
 20
352.885043
 30
0.0
 11
79.999044
 21
352.885043
 31
0.0
  0
LINE
  5
389
330
1F
100
AcDbEntity
  8
LC-001-100-D00-0
 62
     7
370
    50
100
AcDbLine
 10
63.260275
 20
352.885043
 30
0.0
 11
63.545982
 21
352.885043
 31
0.0
  0
LINE
  5
38A
330
1F
100
AcDbEntity
  8
LC-001-100-D00-0
 62
     7
370
    50
100
AcDbLine
 10
55.030114
 20
352.885043
 30
0.0
 11
55.067907
 21
352.885043
 31
0.0
  0
LINE
  5
38B
330
1F
100
AcDbEntity
  8
LC-001-100-D00-0
 62
     7
370
    50
100
AcDbLine
 10
80.630495
 20
352.885043
 30
0.0
 11
80.916203
 21
352.885043
 31
0.0
  0
LINE
  5
38C
330
1F
100
AcDbEntity
  8
LC-001-100-D00-0
 62
     7
370
    50
100
AcDbLine
 10
68.844005
 20
352.885043
 30
0.0
 11
69.129712
 21
352.885043
 31
0.0
  0
LINE
  5
38D
330
1F
100
AcDbEntity
  8
LC-001-100-D00-0
 62
     7
370
    50
100
AcDbLine
 10
58.695155
 20
352.885043
 30
0.0
 11
58.409448
 21
352.885043
 31
0.0
  0
LINE
  5
38E
330
1F
100
AcDbEntity
  8
LC-001-100-D00-0
 62
     7
370
    50
100
AcDbLine
 10
84.201849
 20
352.885043
 30
0.0
 11
83.916142
 21
352.885043
 31
0.0
  0
LINE
  5
38F
330
1F
100
AcDbEntity
  8
LC-001-100-D00-0
 62
     7
370
    50
100
AcDbLine
 10
62.680579
 20
352.885043
 30
0.0
 11
62.394868
 21
352.885043
 31
0.0
  0
LINE
  5
390
330
1F
100
AcDbEntity
  8
LC-001-100-D00-0
 62
     7
370
    50
100
AcDbLine
 10
75.361467
 20
352.885043
 30
0.0
 11
75.075752
 21
352.885043
 31
0.0
  0
LINE
  5
391
330
1F
100
AcDbEntity
  8
LC-001-100-D00-0
 62
     7
370
    50
100
AcDbLine
 10
74.342853
 20
352.885043
 30
0.0
 11
74.057146
 21
352.885043
 31
0.0
  0
LINE
  5
392
330
1F
100
AcDbEntity
  8
LC-001-100-D00-0
 62
     7
370
    50
100
AcDbLine
 10
72.245589
 20
352.885043
 30
0.0
 11
71.959882
 21
352.885043
 31
0.0
  0
LINE
  5
393
330
1F
100
AcDbEntity
  8
LC-001-100-D00-0
 62
     7
370
    50
100
AcDbLine
 10
71.226976
 20
352.885043
 30
0.0
 11
70.941268
 21
352.885043
 31
0.0
  0
LINE
  5
394
330
1F
100
AcDbEntity
  8
LC-001-100-D00-0
 62
     7
370
    50
100
AcDbLine
 10
61.129714
 20
348.885042
 30
0.0
 11
65.629712
 21
348.885042
 31
0.0
  0
LINE
  5
395
330
1F
100
AcDbEntity
  8
LC-001-100-D00-0
 62
     7
370
    50
100
AcDbLine
 10
65.629712
 20
348.885042
 30
0.0
 11
72.629712
 21
348.885042
 31
0.0
  0
LINE
  5
396
330
1F
100
AcDbEntity
  8
LC-001-100-D00-0
 62
     7
370
    50
100
AcDbLine
 10
72.629712
 20
348.885042
 30
0.0
 11
77.129713
 21
348.885042
 31
0.0
  0
LINE
  5
397
330
1F
100
AcDbEntity
  8
LC-001-100-D00-0
 62
     7
370
    50
100
AcDbLine
 10
48.129714
 20
348.885042
 30
0.0
 11
42.129713
 21
348.885042
 31
0.0
  0
LINE
  5
398
330
1F
100
AcDbEntity
  8
LC-001-100-D00-0
 62
     7
370
    50
100
AcDbLine
 10
98.629712
 20
352.885043
 30
0.0
 11
87.629712
 21
352.885043
 31
0.0
  0
LINE
  5
399
330
1F
100
AcDbEntity
  8
LC-001-100-D00-0
 62
     7
370
    50
100
AcDbLine
 10
96.129715
 20
348.885042
 30
0.0
 11
90.129717
 21
348.885042
 31
0.0
  0
LINE
  5
39A
330
1F
100
AcDbEntity
  8
LC-001-100-D00-0
 62
     7
370
    50
100
AcDbLine
 10
50.629715
 20
352.885043
 30
0.0
 11
39.629716
 21
352.885043
 31
0.0
  0
LINE
  5
39B
330
1F
100
AcDbEntity
  8
LC-001-100-D00-0
 62
     7
370
    50
100
AcDbLine
 10
54.129715
 20
348.885042
 30
0.0
 11
61.129714
 21
348.885042
 31
0.0
  0
LINE
  5
39C
330
1F
100
AcDbEntity
  8
LC-001-100-D00-0
 62
     7
370
    50
100
AcDbLine
 10
77.129713
 20
348.885042
 30
0.0
 11
84.129713
 21
348.885042
 31
0.0
  0
LINE
  5
39D
330
1F
100
AcDbEntity
  8
LC-001-100-D00-0
 62
     7
370
    50
100
AcDbLine
 10
84.129713
 20
348.885042
 30
0.0
 11
88.629714
 21
348.885042
 31
0.0
  0
LINE
  5
39E
330
1F
100
AcDbEntity
  8
LC-001-100-D00-0
 62
     7
370
    50
100
AcDbLine
 10
49.629713
 20
348.885042
 30
0.0
 11
54.129715
 21
348.885042
 31
0.0
  0
LINE
  5
39F
330
1F
100
AcDbEntity
  8
LC-001-100-D00-0
 62
     7
370
    50
100
AcDbLine
 10
108.129717
 20
348.885042
 30
0.0
 11
102.129712
 21
348.885042
 31
0.0
  0
LINE
  5
3A0
330
1F
100
AcDbEntity
  8
LC-001-100-D00-0
 62
     7
370
    50
100
AcDbLine
 10
36.129716
 20
348.885042
 30
0.0
 11
30.129715
 21
348.885042
 31
0.0
  0
LINE
  5
3A1
330
1F
100
AcDbEntity
  8
LC-001-100-D00-0
 62
     7
370
    50
100
AcDbLine
 10
38.629713
 20
352.885043
 30
0.0
 11
27.629714
 21
352.885043
 31
0.0
  0
LINE
  5
3A2
330
1F
100
AcDbEntity
  8
LC-001-100-D00-0
 62
     7
370
    50
100
AcDbLine
 10
110.629714
 20
352.885043
 30
0.0
 11
99.629714
 21
352.885043
 31
0.0
  0
LINE
  5
3A3
330
1F
100
AcDbEntity
  8
LC-001-100-D00-0
 62
     7
370
    50
100
AcDbLine
 10
38.629713
 20
348.885042
 30
0.0
 11
40.629714
 21
348.885042
 31
0.0
  0
LINE
  5
3A4
330
1F
100
AcDbEntity
  8
LC-001-100-D00-0
 62
     7
370
    50
100
AcDbLine
 10
97.629718
 20
348.885042
 30
0.0
 11
99.629714
 21
348.885042
 31
0.0
  0
LINE
  5
3A5
330
1F
100
AcDbEntity
  8
LC-001-100-D00-0
 62
     7
370
    50
100
AcDbLine
 10
55.713306
 20
347.88504
 30
0.0
 11
82.546121
 21
347.88504
 31
0.0
  0
LINE
  5
3A6
330
1F
100
AcDbEntity
  8
LC-001-100-D00-0
 62
     7
370
    50
100
AcDbLine
 10
192.79269
 20
304.765028
 30
0.0
 11
192.79269
 21
303.405059
 31
0.0
  0
ARC
  5
3A7
330
1F
100
AcDbEntity
  8
LC-001-100-D00-0
 62
     7
370
    50
100
AcDbCircle
 10
194.129714
 20
304.085041
 30
0.0
 40
1.49999999999999
100
AcDbArc
 50
206.957121
 51
153.042879
  0
CIRCLE
  5
3A8
330
1F
100
AcDbEntity
  8
LC-001-100-D00-0
 62
     7
370
    50
100
AcDbCircle
 10
244.129714
 20
304.085041
 30
0.0
 40
1.500000000000028
  0
CIRCLE
  5
3A9
330
1F
100
AcDbEntity
  8
LC-001-100-D00-0
 62
     7
370
    50
100
AcDbCircle
 10
-105.870286
 20
304.085041
 30
0.0
 40
1.499999999999943
  0
CIRCLE
  5
3AA
330
1F
100
AcDbEntity
  8
LC-001-100-D00-0
 62
     7
370
    50
100
AcDbCircle
 10
-155.870286
 20
304.085041
 30
0.0
 40
1.5
  0
CIRCLE
  5
3AB
330
1F
100
AcDbEntity
  8
LC-001-100-D00-0
 62
     7
370
    50
100
AcDbCircle
 10
294.129714
 20
304.085041
 30
0.0
 40
1.5
  0
CIRCLE
  5
3AC
330
1F
100
AcDbEntity
  8
LC-001-100-D00-0
 62
     7
370
    50
100
AcDbCircle
 10
-55.870286
 20
304.085041
 30
0.0
 40
1.500000000000057
  0
LINE
  5
3AD
330
1F
100
AcDbEntity
  8
LC-001-100-D00-0
 62
     7
370
    50
100
AcDbLine
 10
295.629717
 20
308.485044
 30
0.0
 11
295.629717
 21
305.485037
 31
0.0
  0
LINE
  5
3AE
330
1F
100
AcDbEntity
  8
LC-001-100-D00-0
 62
     7
370
    50
100
AcDbLine
 10
-157.370293
 20
308.485044
 30
0.0
 11
-157.370293
 21
305.485037
 31
0.0
  0
LINE
  5
3AF
330
1F
100
AcDbEntity
  8
LC-001-100-D00-0
 62
     7
370
    50
100
AcDbLine
 10
112.129717
 20
315.585044
 30
0.0
 11
112.118087
 21
315.585044
 31
0.0
  0
LINE
  5
3B0
330
1F
100
AcDbEntity
  8
LC-001-100-D00-0
 62
     7
370
    50
100
AcDbLine
 10
112.118087
 20
315.585044
 30
0.0
 11
100.234187
 21
315.585044
 31
0.0
  0
LINE
  5
3B1
330
1F
100
AcDbEntity
  8
LC-001-100-D00-0
 62
     7
370
    50
100
AcDbLine
 10
100.234187
 20
315.585044
 30
0.0
 11
98.819978
 21
315.585044
 31
0.0
  0
LINE
  5
3B2
330
1F
100
AcDbEntity
  8
LC-001-100-D00-0
 62
     7
370
    50
100
AcDbLine
 10
98.819978
 20
315.585044
 30
0.0
 11
70.129714
 21
315.585044
 31
0.0
  0
LINE
  5
3B3
330
1F
100
AcDbEntity
  8
LC-001-100-D00-0
 62
     7
370
    50
100
AcDbLine
 10
70.129714
 20
315.585044
 30
0.0
 11
68.129717
 21
315.585044
 31
0.0
  0
LINE
  5
3B4
330
1F
100
AcDbEntity
  8
LC-001-100-D00-0
 62
     7
370
    50
100
AcDbLine
 10
68.129717
 20
315.585044
 30
0.0
 11
39.439454
 21
315.585044
 31
0.0
  0
LINE
  5
3B5
330
1F
100
AcDbEntity
  8
LC-001-100-D00-0
 62
     7
370
    50
100
AcDbLine
 10
39.439454
 20
315.585044
 30
0.0
 11
38.02524
 21
315.585044
 31
0.0
  0
LINE
  5
3B6
330
1F
100
AcDbEntity
  8
LC-001-100-D00-0
 62
     7
370
    50
100
AcDbLine
 10
38.02524
 20
315.585044
 30
0.0
 11
26.141343
 21
315.585044
 31
0.0
  0
ARC
  5
3B7
330
1F
100
AcDbEntity
  8
LC-001-100-D00-0
 62
     7
370
    50
100
AcDbCircle
 10
26.129714
 20
315.085041
 30
0.0
 40
0.5
100
AcDbArc
 50
0.0
 51
90.0
  0
ARC
  5
3B8
330
1F
100
AcDbEntity
  8
LC-001-100-D00-0
 62
     7
370
    50
100
AcDbCircle
 10
112.129714
 20
315.085041
 30
0.0
 40
0.5
100
AcDbArc
 50
90.0
 51
180.0
  0
LINE
  5
3B9
330
1F
100
AcDbEntity
  8
LC-001-100-D00-0
 62
     7
370
    50
100
AcDbLine
 10
127.629711
 20
305.585039
 30
0.0
 11
127.629711
 21
313.58504
 31
0.0
  0
LINE
  5
3BA
330
1F
100
AcDbEntity
  8
LC-001-100-D00-0
 62
     7
370
    50
100
AcDbLine
 10
110.129713
 20
286.085041
 30
0.0
 11
110.129713
 21
307.085042
 31
0.0
  0
LINE
  5
3BB
330
1F
100
AcDbEntity
  8
LC-001-100-D00-0
 62
     7
370
    50
100
AcDbLine
 10
111.629716
 20
286.085041
 30
0.0
 11
110.129713
 21
286.085041
 31
0.0
  0
ARC
  5
3BC
330
1F
100
AcDbEntity
  8
LC-001-100-D00-0
 62
     7
370
    50
100
AcDbCircle
 10
111.629714
 20
286.585041
 30
0.0
 40
0.5
100
AcDbArc
 50
270.0
 51
0.0
  0
LINE
  5
3BD
330
1F
100
AcDbEntity
  8
LC-001-100-D00-0
 62
     7
370
    50
100
AcDbLine
 10
112.129717
 20
305.085038
 30
0.0
 11
112.129717
 21
286.585042
 31
0.0
  0
ARC
  5
3BE
330
1F
100
AcDbEntity
  8
LC-001-100-D00-0
 62
     7
370
    50
100
AcDbCircle
 10
111.629714
 20
307.021533
 30
0.0
 40
2.000000000000028
100
AcDbArc
 50
284.477512
 51
0.0
  0
LINE
  5
3BF
330
1F
100
AcDbEntity
  8
LC-001-100-D00-0
 62
     7
370
    50
100
AcDbLine
 10
113.629713
 20
313.58504
 30
0.0
 11
113.629713
 21
307.021533
 31
0.0
  0
LINE
  5
3C0
330
1F
100
AcDbEntity
  8
LC-001-100-D00-0
 62
     7
370
    50
100
AcDbLine
 10
122.379712
 20
313.58504
 30
0.0
 11
113.629713
 21
313.58504
 31
0.0
  0
LINE
  5
3C1
330
1F
100
AcDbEntity
  8
LC-001-100-D00-0
 62
     7
370
    50
100
AcDbLine
 10
122.379712
 20
296.085042
 30
0.0
 11
122.379712
 21
313.58504
 31
0.0
  0
LINE
  5
3C2
330
1F
100
AcDbEntity
  8
LC-001-100-D00-0
 62
     7
370
    50
100
AcDbLine
 10
123.879715
 20
296.085042
 30
0.0
 11
122.379712
 21
296.085042
 31
0.0
  0
ARC
  5
3C3
330
1F
100
AcDbEntity
  8
LC-001-100-D00-0
 62
     7
370
    50
100
AcDbCircle
 10
123.879714
 20
296.585041
 30
0.0
 40
0.5000000000000568
100
AcDbArc
 50
270.0
 51
0.0
  0
LINE
  5
3C4
330
1F
100
AcDbEntity
  8
LC-001-100-D00-0
 62
     7
370
    50
100
AcDbLine
 10
124.379716
 20
305.585039
 30
0.0
 11
124.379716
 21
296.58504
 31
0.0
  0
LINE
  5
3C5
330
1F
100
AcDbEntity
  8
LC-001-100-D00-0
 62
     7
370
    50
100
AcDbLine
 10
127.629711
 20
305.585039
 30
0.0
 11
124.379716
 21
305.585039
 31
0.0
  0
LINE
  5
3C6
330
1F
100
AcDbEntity
  8
LC-001-100-D00-0
 62
     7
370
    50
100
AcDbLine
 10
130.129716
 20
313.58504
 30
0.0
 11
127.629711
 21
313.58504
 31
0.0
  0
ARC
  5
3C7
330
1F
100
AcDbEntity
  8
LC-001-100-D00-0
 62
     7
370
    50
100
AcDbCircle
 10
130.129714
 20
314.085041
 30
0.0
 40
0.5
100
AcDbArc
 50
270.0
 51
0.0
  0
LINE
  5
3C8
330
1F
100
AcDbEntity
  8
LC-001-100-D00-0
 62
     7
370
    50
100
AcDbLine
 10
130.62971
 20
315.885042
 30
0.0
 11
130.62971
 21
314.085041
 31
0.0
  0
LINE
  5
3C9
330
1F
100
AcDbEntity
  8
LC-001-100-D00-0
 62
     7
370
    50
100
AcDbLine
 10
112.129717
 20
315.885042
 30
0.0
 11
130.62971
 21
315.885042
 31
0.0
  0
LINE
  5
3CA
330
1F
100
AcDbEntity
  8
LC-001-100-D00-0
 62
     7
370
    50
100
AcDbLine
 10
112.129717
 20
315.885042
 30
0.0
 11
112.129717
 21
315.585044
 31
0.0
  0
LINE
  5
3CB
330
1F
100
AcDbEntity
  8
LC-001-100-D00-0
 62
     7
370
    50
100
AcDbLine
 10
111.629716
 20
307.085042
 30
0.0
 11
111.629716
 21
315.085043
 31
0.0
  0
LINE
  5
3CC
330
1F
100
AcDbEntity
  8
LC-001-100-D00-0
 62
     7
370
    50
100
AcDbLine
 10
110.129713
 20
307.085042
 30
0.0
 11
111.629716
 21
307.085042
 31
0.0
  0
LINE
  5
3CD
330
1F
100
AcDbEntity
  8
LC-001-100-D00-0
 62
     7
370
    50
100
AcDbLine
 10
13.879714
 20
296.58504
 30
0.0
 11
13.879714
 21
305.585039
 31
0.0
  0
LINE
  5
3CE
330
1F
100
AcDbEntity
  8
LC-001-100-D00-0
 62
     7
370
    50
100
AcDbLine
 10
26.629713
 20
315.085043
 30
0.0
 11
26.629713
 21
307.085042
 31
0.0
  0
LINE
  5
3CF
330
1F
100
AcDbEntity
  8
LC-001-100-D00-0
 62
     7
370
    50
100
AcDbLine
 10
112.118087
 20
315.885042
 30
0.0
 11
112.118087
 21
315.585044
 31
0.0
  0
LINE
  5
3D0
330
1F
100
AcDbEntity
  8
LC-001-100-D00-0
 62
     7
370
    50
100
AcDbLine
 10
26.129714
 20
315.585044
 30
0.0
 11
26.129714
 21
315.885042
 31
0.0
  0
LINE
  5
3D1
330
1F
100
AcDbEntity
  8
LC-001-100-D00-0
 62
     7
370
    50
100
AcDbLine
 10
7.629714
 20
314.085041
 30
0.0
 11
7.629714
 21
315.885042
 31
0.0
  0
ARC
  5
3D2
330
1F
100
AcDbEntity
  8
LC-001-100-D00-0
 62
     7
370
    50
100
AcDbCircle
 10
8.129714
 20
314.085041
 30
0.0
 40
0.5
100
AcDbArc
 50
180.0
 51
270.0
  0
LINE
  5
3D3
330
1F
100
AcDbEntity
  8
LC-001-100-D00-0
 62
     7
370
    50
100
AcDbLine
 10
10.629714
 20
313.58504
 30
0.0
 11
10.629714
 21
305.585039
 31
0.0
  0
ARC
  5
3D4
330
1F
100
AcDbEntity
  8
LC-001-100-D00-0
 62
     7
370
    50
100
AcDbCircle
 10
14.379714
 20
296.585041
 30
0.0
 40
0.5
100
AcDbArc
 50
180.0
 51
270.0
  0
LINE
  5
3D5
330
1F
100
AcDbEntity
  8
LC-001-100-D00-0
 62
     7
370
    50
100
AcDbLine
 10
15.879714
 20
296.085042
 30
0.0
 11
14.379714
 21
296.085042
 31
0.0
  0
LINE
  5
3D6
330
1F
100
AcDbEntity
  8
LC-001-100-D00-0
 62
     7
370
    50
100
AcDbLine
 10
15.879714
 20
313.58504
 30
0.0
 11
15.879714
 21
296.085042
 31
0.0
  0
LINE
  5
3D7
330
1F
100
AcDbEntity
  8
LC-001-100-D00-0
 62
     7
370
    50
100
AcDbLine
 10
24.629715
 20
313.58504
 30
0.0
 11
15.879714
 21
313.58504
 31
0.0
  0
LINE
  5
3D8
330
1F
100
AcDbEntity
  8
LC-001-100-D00-0
 62
     7
370
    50
100
AcDbLine
 10
24.629715
 20
307.021533
 30
0.0
 11
24.629715
 21
313.58504
 31
0.0
  0
ARC
  5
3D9
330
1F
100
AcDbEntity
  8
LC-001-100-D00-0
 62
     7
370
    50
100
AcDbCircle
 10
26.629714
 20
307.021533
 30
0.0
 40
2.000000000000028
100
AcDbArc
 50
180.0
 51
255.522488
  0
LINE
  5
3DA
330
1F
100
AcDbEntity
  8
LC-001-100-D00-0
 62
     7
370
    50
100
AcDbLine
 10
26.129714
 20
286.585042
 30
0.0
 11
26.129714
 21
305.085038
 31
0.0
  0
ARC
  5
3DB
330
1F
100
AcDbEntity
  8
LC-001-100-D00-0
 62
     7
370
    50
100
AcDbCircle
 10
26.629714
 20
286.585041
 30
0.0
 40
0.5
100
AcDbArc
 50
180.0
 51
270.0
  0
LINE
  5
3DC
330
1F
100
AcDbEntity
  8
LC-001-100-D00-0
 62
     7
370
    50
100
AcDbLine
 10
28.129715
 20
286.085041
 30
0.0
 11
26.629713
 21
286.085041
 31
0.0
  0
LINE
  5
3DD
330
1F
100
AcDbEntity
  8
LC-001-100-D00-0
 62
     7
370
    50
100
AcDbLine
 10
28.129715
 20
307.085042
 30
0.0
 11
28.129715
 21
286.085041
 31
0.0
  0
LINE
  5
3DE
330
1F
100
AcDbEntity
  8
LC-001-100-D00-0
 62
     7
370
    50
100
AcDbLine
 10
26.629713
 20
307.085042
 30
0.0
 11
28.129715
 21
307.085042
 31
0.0
  0
LINE
  5
3DF
330
1F
100
AcDbEntity
  8
LC-001-100-D00-0
 62
     7
370
    50
100
AcDbLine
 10
10.629714
 20
313.58504
 30
0.0
 11
8.129714
 21
313.58504
 31
0.0
  0
LINE
  5
3E0
330
1F
100
AcDbEntity
  8
LC-001-100-D00-0
 62
     7
370
    50
100
AcDbLine
 10
7.629714
 20
315.885042
 30
0.0
 11
26.129714
 21
315.885042
 31
0.0
  0
LINE
  5
3E1
330
1F
100
AcDbEntity
  8
LC-001-100-D00-0
 62
     7
370
    50
100
AcDbLine
 10
13.879714
 20
305.585039
 30
0.0
 11
10.629714
 21
305.585039
 31
0.0
  0
LINE
  5
3E2
330
1F
100
AcDbEntity
  8
LC-001-100-D00-0
 62
     7
370
    50
100
AcDbLine
 10
26.141343
 20
315.885042
 30
0.0
 11
26.141343
 21
315.585044
 31
0.0
  0
LINE
  5
3E3
330
1F
100
AcDbEntity
  8
LC-001-100-D00-0
 62
     7
370
    50
100
AcDbLine
 10
28.129715
 20
286.085041
 30
0.0
 11
36.129716
 21
286.085041
 31
0.0
  0
LINE
  5
3E4
330
1F
100
AcDbEntity
  8
LC-001-100-D00-0
 62
     7
370
    50
100
AcDbLine
 10
102.129712
 20
286.085041
 30
0.0
 11
110.129713
 21
286.085041
 31
0.0
  0
LINE
  5
3E5
330
1F
100
AcDbEntity
  8
LC-001-100-D00-0
 62
     7
370
    50
100
AcDbLine
 10
28.129715
 20
307.085042
 30
0.0
 11
29.901936
 21
307.085042
 31
0.0
  0
LINE
  5
3E6
330
1F
100
AcDbEntity
  8
LC-001-100-D00-0
 62
     7
370
    50
100
AcDbLine
 10
31.515551
 20
307.085042
 30
0.0
 11
43.397668
 21
307.085042
 31
0.0
  0
LINE
  5
3E7
330
1F
100
AcDbEntity
  8
LC-001-100-D00-0
 62
     7
370
    50
100
AcDbLine
 10
94.86176
 20
307.085042
 30
0.0
 11
106.745488
 21
307.085042
 31
0.0
  0
LINE
  5
3E8
330
1F
100
AcDbEntity
  8
LC-001-100-D00-0
 62
     7
370
    50
100
AcDbLine
 10
108.357488
 20
307.085042
 30
0.0
 11
110.129713
 21
307.085042
 31
0.0
  0
LINE
  5
3E9
330
1F
100
AcDbEntity
  8
LC-001-100-D00-0
 62
     7
370
    50
100
AcDbLine
 10
15.879714
 20
296.085042
 30
0.0
 11
26.129714
 21
296.085042
 31
0.0
  0
LINE
  5
3EA
330
1F
100
AcDbEntity
  8
LC-001-100-D00-0
 62
     7
370
    50
100
AcDbLine
 10
112.129717
 20
296.085042
 30
0.0
 11
122.379712
 21
296.085042
 31
0.0
  0
LINE
  5
3EB
330
1F
100
AcDbEntity
  8
LC-001-100-D00-0
 62
     7
370
    50
100
AcDbLine
 10
107.660427
 20
315.885042
 30
0.0
 11
100.234187
 21
315.885042
 31
0.0
  0
LINE
  5
3EC
330
1F
100
AcDbEntity
  8
LC-001-100-D00-0
 62
     7
370
    50
100
AcDbLine
 10
100.234187
 20
315.885042
 30
0.0
 11
100.234187
 21
315.585044
 31
0.0
  0
LINE
  5
3ED
330
1F
100
AcDbEntity
  8
LC-001-100-D00-0
 62
     7
370
    50
100
AcDbLine
 10
98.819978
 20
315.885042
 30
0.0
 11
98.819978
 21
315.585044
 31
0.0
  0
LINE
  5
3EE
330
1F
100
AcDbEntity
  8
LC-001-100-D00-0
 62
     7
370
    50
100
AcDbLine
 10
100.234187
 20
315.885042
 30
0.0
 11
98.819978
 21
315.885042
 31
0.0
  0
LINE
  5
3EF
330
1F
100
AcDbEntity
  8
LC-001-100-D00-0
 62
     7
370
    50
100
AcDbLine
 10
39.439454
 20
315.885042
 30
0.0
 11
39.439454
 21
315.585044
 31
0.0
  0
LINE
  5
3F0
330
1F
100
AcDbEntity
  8
LC-001-100-D00-0
 62
     7
370
    50
100
AcDbLine
 10
39.439454
 20
315.885042
 30
0.0
 11
38.02524
 21
315.885042
 31
0.0
  0
LINE
  5
3F1
330
1F
100
AcDbEntity
  8
LC-001-100-D00-0
 62
     7
370
    50
100
AcDbLine
 10
38.02524
 20
315.885042
 30
0.0
 11
38.02524
 21
315.585044
 31
0.0
  0
LINE
  5
3F2
330
1F
100
AcDbEntity
  8
LC-001-100-D00-0
 62
     7
370
    50
100
AcDbLine
 10
38.02524
 20
315.885042
 30
0.0
 11
30.599003
 21
315.885042
 31
0.0
  0
LINE
  5
3F3
330
1F
100
AcDbEntity
  8
LC-001-100-D00-0
 62
     7
370
    50
100
AcDbLine
 10
70.129714
 20
315.885042
 30
0.0
 11
70.129714
 21
315.585044
 31
0.0
  0
LINE
  5
3F4
330
1F
100
AcDbEntity
  8
LC-001-100-D00-0
 62
     7
370
    50
100
AcDbLine
 10
70.129714
 20
315.885042
 30
0.0
 11
68.129717
 21
315.885042
 31
0.0
  0
LINE
  5
3F5
330
1F
100
AcDbEntity
  8
LC-001-100-D00-0
 62
     7
370
    50
100
AcDbLine
 10
68.129717
 20
315.885042
 30
0.0
 11
68.129717
 21
315.585044
 31
0.0
  0
LINE
  5
3F6
330
1F
100
AcDbEntity
  8
LC-001-100-D00-0
 62
     7
370
    50
100
AcDbLine
 10
126.979715
 20
293.585041
 30
0.0
 11
126.979715
 21
302.549509
 31
0.0
  0
LINE
  5
3F7
330
1F
100
AcDbEntity
  8
LC-001-100-D00-0
 62
     7
370
    50
100
AcDbLine
 10
11.279714
 20
302.549509
 30
0.0
 11
11.279714
 21
260.08504
 31
0.0
  0
LINE
  5
3F8
330
1F
100
AcDbEntity
  8
LC-001-100-D00-0
 62
     7
370
    50
100
AcDbLine
 10
117.479711
 20
250.585041
 30
0.0
 11
153.129718
 21
250.585041
 31
0.0
  0
LINE
  5
3F9
330
1F
100
AcDbEntity
  8
LC-001-100-D00-0
 62
     7
370
    50
100
AcDbLine
 10
153.129718
 20
293.585041
 30
0.0
 11
126.979715
 21
293.585041
 31
0.0
  0
LINE
  5
3FA
330
1F
100
AcDbEntity
  8
LC-001-100-D00-0
 62
     7
370
    50
100
AcDbLine
 10
124.479718
 20
291.08504
 30
0.0
 11
175.929717
 21
291.08504
 31
0.0
  0
INSERT
  5
41E
330
1F
100
AcDbEntity
  8
LC-001-100-D00-0
 62
     7
370
    50
100
AcDbBlockReference
  2
POLY8
 10
0.0
 20
0.0
 30
0.0
  0
INSERT
  5
436
330
1F
100
AcDbEntity
  8
LC-001-100-D00-0
 62
     7
370
    50
100
AcDbBlockReference
  2
POLY9
 10
0.0
 20
0.0
 30
0.0
  0
LINE
  5
437
330
1F
100
AcDbEntity
  8
LC-001-100-D00-0
 62
     7
370
    50
100
AcDbLine
 10
175.929717
 20
253.085041
 30
0.0
 11
117.479711
 21
253.085041
 31
0.0
  0
LINE
  5
438
330
1F
100
AcDbEntity
  8
LC-001-100-D00-0
 62
     7
370
    50
100
AcDbLine
 10
175.929717
 20
291.08504
 30
0.0
 11
175.929717
 21
253.085041
 31
0.0
  0
LINE
  5
439
330
1F
100
AcDbEntity
  8
LC-001-100-D00-0
 62
     7
370
    50
100
AcDbLine
 10
124.479718
 20
303.585043
 30
0.0
 11
124.479718
 21
291.08504
 31
0.0
  0
LINE
  5
43A
330
1F
100
AcDbEntity
  8
LC-001-100-D00-0
 62
     7
370
    50
100
AcDbLine
 10
124.479718
 20
303.585043
 30
0.0
 11
124.379716
 21
303.585043
 31
0.0
  0
LINE
  5
43B
330
1F
100
AcDbEntity
  8
LC-001-100-D00-0
 62
     7
370
    50
100
AcDbLine
 10
13.879714
 20
303.585043
 30
0.0
 11
13.779714
 21
303.585043
 31
0.0
  0
LINE
  5
43C
330
1F
100
AcDbEntity
  8
LC-001-100-D00-0
 62
     7
370
    50
100
AcDbLine
 10
13.779714
 20
287.085043
 30
0.0
 11
13.779714
 21
303.585043
 31
0.0
  0
LINE
  5
43D
330
1F
100
AcDbEntity
  8
LC-001-100-D00-0
 62
     7
370
    50
100
AcDbLine
 10
13.779714
 20
303.585043
 30
0.0
 11
11.779714
 21
305.585039
 31
0.0
  0
LINE
  5
43E
330
1F
100
AcDbEntity
  8
LC-001-100-D00-0
 62
     7
370
    50
100
AcDbLine
 10
126.479714
 20
305.585039
 30
0.0
 11
124.479718
 21
303.585043
 31
0.0
  0
LINE
  5
43F
330
1F
100
AcDbEntity
  8
LC-001-100-D00-0
 62
     7
370
    50
100
AcDbLine
 10
134.12971
 20
303.085042
 30
0.0
 11
134.12971
 21
305.585039
 31
0.0
  0
LINE
  5
440
330
1F
100
AcDbEntity
  8
LC-001-100-D00-0
 62
     7
370
    50
100
AcDbLine
 10
4.129714
 20
305.585039
 30
0.0
 11
4.129714
 21
303.085042
 31
0.0
  0
LINE
  5
441
330
1F
100
AcDbEntity
  8
LC-001-100-D00-0
 62
     7
370
    50
100
AcDbLine
 10
33.139563
 20
253.085041
 30
0.0
 11
36.401297
 21
253.085041
 31
0.0
  0
LINE
  5
442
330
1F
100
AcDbEntity
  8
LC-001-100-D00-0
 62
     7
370
    50
100
AcDbLine
 10
101.858131
 20
253.085041
 30
0.0
 11
105.119868
 21
253.085041
 31
0.0
  0
ARC
  5
443
330
1F
100
AcDbEntity
  8
LC-001-100-D00-0
 62
     7
370
    50
100
AcDbCircle
 10
42.304714
 20
257.085041
 30
0.0
 40
10.00000000000003
100
AcDbArc
 50
203.578178
 51
270.0
  0
ARC
  5
444
330
1F
100
AcDbEntity
  8
LC-001-100-D00-0
 62
     7
370
    50
100
AcDbCircle
 10
95.954714
 20
257.085041
 30
0.0
 40
9.999999999999972
100
AcDbArc
 50
270.0
 51
336.421822
  0
LINE
  5
445
330
1F
100
AcDbEntity
  8
LC-001-100-D00-0
 62
     7
370
    50
100
AcDbLine
 10
17.779714
 20
253.760485
 30
0.0
 11
17.789452
 21
253.760485
 31
0.0
  0
ARC
  5
446
330
1F
100
AcDbEntity
  8
LC-001-100-D00-0
 62
     7
370
    50
100
AcDbCircle
 10
20.779714
 20
260.085041
 30
0.0
 40
7.000000000000011
100
AcDbArc
 50
244.623066
 51
270.0
  0
LINE
  5
447
330
1F
100
AcDbEntity
  8
LC-001-100-D00-0
 62
     7
370
    50
100
AcDbLine
 10
17.789452
 20
253.760485
 30
0.0
 11
17.789452
 21
287.085043
 31
0.0
  0
LINE
  5
448
330
1F
100
AcDbEntity
  8
LC-001-100-D00-0
 62
     7
370
    50
100
AcDbLine
 10
17.789452
 20
287.085043
 30
0.0
 11
17.779714
 21
287.085043
 31
0.0
  0
LINE
  5
449
330
1F
100
AcDbEntity
  8
LC-001-100-D00-0
 62
     7
370
    50
100
AcDbLine
 10
17.779714
 20
253.760485
 30
0.0
 11
17.779714
 21
287.085043
 31
0.0
  0
LINE
  5
44A
330
1F
100
AcDbEntity
  8
LC-001-100-D00-0
 62
     7
370
    50
100
AcDbLine
 10
153.129718
 20
248.085041
 30
0.0
 11
156.129709
 21
248.085041
 31
0.0
  0
LINE
  5
44B
330
1F
100
AcDbEntity
  8
LC-001-100-D00-0
 62
     7
370
    50
100
AcDbLine
 10
153.527952
 20
296.085042
 30
0.0
 11
153.129718
 21
296.085042
 31
0.0
  0
ARC
  5
44C
330
1F
100
AcDbEntity
  8
LC-001-100-D00-0
 62
     7
370
    50
100
AcDbCircle
 10
42.304714
 20
257.085041
 30
0.0
 40
12.50000000000003
100
AcDbArc
 50
211.332251
 51
270.0
  0
ARC
  5
44D
330
1F
100
AcDbEntity
  8
LC-001-100-D00-0
 62
     7
370
    50
100
AcDbCircle
 10
95.954714
 20
257.085041
 30
0.0
 40
12.49999999999997
100
AcDbArc
 50
270.0
 51
328.667749
  0
LINE
  5
44E
330
1F
100
AcDbEntity
  8
LC-001-100-D00-0
 62
     7
370
    50
100
AcDbLine
 10
10.74418
 20
303.085042
 30
0.0
 11
11.279714
 21
302.549509
 31
0.0
  0
LINE
  5
44F
330
1F
100
AcDbEntity
  8
LC-001-100-D00-0
 62
     7
370
    50
100
AcDbLine
 10
126.979715
 20
302.549509
 30
0.0
 11
127.515248
 21
303.085042
 31
0.0
  0
LINE
  5
450
330
1F
100
AcDbEntity
  8
LC-001-100-D00-0
 62
     7
370
    50
100
AcDbLine
 10
180.929712
 20
251.745295
 30
0.0
 11
180.929712
 21
292.424788
 31
0.0
  0
LINE
  5
451
330
1F
100
AcDbEntity
  8
LC-001-100-D00-0
 62
     7
370
    50
100
AcDbLine
 10
180.929712
 20
292.424788
 30
0.0
 11
175.929717
 21
291.08504
 31
0.0
  0
LINE
  5
452
330
1F
100
AcDbEntity
  8
LC-001-100-D00-0
 62
     7
370
    50
100
AcDbLine
 10
175.929717
 20
253.085041
 30
0.0
 11
180.929712
 21
251.745295
 31
0.0
  0
ARC
  5
453
330
1F
100
AcDbEntity
  8
LC-001-100-D00-0
 62
     7
370
    50
100
AcDbCircle
 10
168.429714
 20
272.085041
 30
0.0
 40
25.00000000000011
100
AcDbArc
 50
290.300191
 51
300.0
  0
ARC
  5
454
330
1F
100
AcDbEntity
  8
LC-001-100-D00-0
 62
     7
370
    50
100
AcDbCircle
 10
168.429714
 20
272.085041
 30
0.0
 40
25.0000000000001
100
AcDbArc
 50
60.0
 51
69.699809
  0
LINE
  5
455
330
1F
100
AcDbEntity
  8
LC-001-100-D00-0
 62
     7
370
    50
100
AcDbLine
 10
156.129709
 20
248.085041
 30
0.0
 11
156.129709
 21
250.320161
 31
0.0
  0
ARC
  5
456
330
1F
100
AcDbEntity
  8
LC-001-100-D00-0
 62
     7
370
    50
100
AcDbCircle
 10
168.429714
 20
272.085041
 30
0.0
 40
25.00000000000005
100
AcDbArc
 50
240.527879
 51
277.740919
  0
ARC
  5
457
330
1F
100
AcDbEntity
  8
LC-001-100-D00-0
 62
     7
370
    50
100
AcDbCircle
 10
171.729714
 20
247.808303
 30
0.0
 40
0.5000000000000371
100
AcDbArc
 50
277.740919
 51
0.0
  0
LINE
  5
458
330
1F
100
AcDbEntity
  8
LC-001-100-D00-0
 62
     7
370
    50
100
AcDbLine
 10
172.229714
 20
247.808303
 30
0.0
 11
172.229714
 21
250.835041
 31
0.0
  0
ARC
  5
459
330
1F
100
AcDbEntity
  8
LC-001-100-D00-0
 62
     7
370
    50
100
AcDbCircle
 10
172.729714
 20
250.835041
 30
0.0
 40
0.5
100
AcDbArc
 50
90.0
 51
180.0
  0
LINE
  5
45A
330
1F
100
AcDbEntity
  8
LC-001-100-D00-0
 62
     7
370
    50
100
AcDbLine
 10
172.729707
 20
251.335041
 30
0.0
 11
175.929717
 21
251.335041
 31
0.0
  0
ARC
  5
45B
330
1F
100
AcDbEntity
  8
LC-001-100-D00-0
 62
     7
370
    50
100
AcDbCircle
 10
175.929714
 20
250.835041
 30
0.0
 40
0.5
100
AcDbArc
 50
0.0
 51
90.0
  0
LINE
  5
45C
330
1F
100
AcDbEntity
  8
LC-001-100-D00-0
 62
     7
370
    50
100
AcDbLine
 10
176.42971
 20
250.835041
 30
0.0
 11
176.42971
 21
249.10679
 31
0.0
  0
ARC
  5
45D
330
1F
100
AcDbEntity
  8
LC-001-100-D00-0
 62
     7
370
    50
100
AcDbCircle
 10
176.929714
 20
249.10679
 30
0.0
 40
0.5
100
AcDbArc
 50
180.0
 51
290.300191
  0
LINE
  5
45E
330
1F
100
AcDbEntity
  8
LC-001-100-D00-0
 62
     7
370
    50
100
AcDbLine
 10
180.929712
 20
250.434405
 30
0.0
 11
180.929712
 21
251.745295
 31
0.0
  0
ARC
  5
45F
330
1F
100
AcDbEntity
  8
LC-001-100-D00-0
 62
     7
370
    50
100
AcDbCircle
 10
20.779714
 20
260.085041
 30
0.0
 40
9.5
100
AcDbArc
 50
180.0
 51
270.0
  0
LINE
  5
460
330
1F
100
AcDbEntity
  8
LC-001-100-D00-0
 62
     7
370
    50
100
AcDbLine
 10
20.779715
 20
250.585041
 30
0.0
 11
31.627635
 21
250.585041
 31
0.0
  0
LINE
  5
461
330
1F
100
AcDbEntity
  8
LC-001-100-D00-0
 62
     7
370
    50
100
AcDbLine
 10
95.954715
 20
244.585041
 30
0.0
 11
42.304712
 21
244.585041
 31
0.0
  0
LINE
  5
462
330
1F
100
AcDbEntity
  8
LC-001-100-D00-0
 62
     7
370
    50
100
AcDbLine
 10
106.631792
 20
250.585041
 30
0.0
 11
117.479711
 21
250.585041
 31
0.0
  0
LINE
  5
463
330
1F
100
AcDbEntity
  8
LC-001-100-D00-0
 62
     7
370
    50
100
AcDbLine
 10
153.129718
 20
250.585041
 30
0.0
 11
153.129718
 21
248.085041
 31
0.0
  0
LINE
  5
464
330
1F
100
AcDbEntity
  8
LC-001-100-D00-0
 62
     7
370
    50
100
AcDbLine
 10
13.779714
 20
287.085043
 30
0.0
 11
17.779714
 21
287.085043
 31
0.0
  0
LINE
  5
465
330
1F
100
AcDbEntity
  8
LC-001-100-D00-0
 62
     7
370
    50
100
AcDbLine
 10
4.129714
 20
303.085042
 30
0.0
 11
10.74418
 21
303.085042
 31
0.0
  0
LINE
  5
466
330
1F
100
AcDbEntity
  8
LC-001-100-D00-0
 62
     7
370
    50
100
AcDbLine
 10
33.139563
 20
253.085041
 30
0.0
 11
20.779715
 21
253.085041
 31
0.0
  0
LINE
  5
467
330
1F
100
AcDbEntity
  8
LC-001-100-D00-0
 62
     7
370
    50
100
AcDbLine
 10
117.479711
 20
253.085041
 30
0.0
 11
105.119868
 21
253.085041
 31
0.0
  0
LINE
  5
468
330
1F
100
AcDbEntity
  8
LC-001-100-D00-0
 62
     7
370
    50
100
AcDbLine
 10
42.304712
 20
247.085041
 30
0.0
 11
95.954715
 21
247.085041
 31
0.0
  0
LINE
  5
469
330
1F
100
AcDbEntity
  8
LC-001-100-D00-0
 62
     7
370
    50
100
AcDbLine
 10
11.779714
 20
305.585039
 30
0.0
 11
4.129714
 21
305.585039
 31
0.0
  0
ARC
  5
46A
330
1F
100
AcDbEntity
  8
LC-001-100-D00-0
 62
     7
370
    50
100
AcDbCircle
 10
168.429714
 20
272.085041
 30
0.0
 40
25.00000000000006
100
AcDbArc
 50
82.25908100000001
 51
104.122745
  0
ARC
  5
46B
330
1F
100
AcDbEntity
  8
LC-001-100-D00-0
 62
     7
370
    50
100
AcDbCircle
 10
172.729714
 20
293.335041
 30
0.0
 40
0.5
100
AcDbArc
 50
180.0
 51
270.0
  0
ARC
  5
46C
330
1F
100
AcDbEntity
  8
LC-001-100-D00-0
 62
     7
370
    50
100
AcDbCircle
 10
171.729714
 20
296.361779
 30
0.0
 40
0.5
100
AcDbArc
 50
0.0
 51
82.25908100000001
  0
ARC
  5
46D
330
1F
100
AcDbEntity
  8
LC-001-100-D00-0
 62
     7
370
    50
100
AcDbCircle
 10
175.929714
 20
293.335041
 30
0.0
 40
0.5
100
AcDbArc
 50
270.0
 51
0.0
  0
LINE
  5
46E
330
1F
100
AcDbEntity
  8
LC-001-100-D00-0
 62
     7
370
    50
100
AcDbLine
 10
175.929717
 20
292.835039
 30
0.0
 11
172.729707
 21
292.835039
 31
0.0
  0
ARC
  5
46F
330
1F
100
AcDbEntity
  8
LC-001-100-D00-0
 62
     7
370
    50
100
AcDbCircle
 10
176.929714
 20
295.063291
 30
0.0
 40
0.50000000000002
100
AcDbArc
 50
69.699809
 51
180.0
  0
ARC
  5
470
330
1F
100
AcDbEntity
  8
LC-001-100-D00-0
 62
     7
370
    50
100
AcDbCircle
 10
168.429714
 20
272.085041
 30
0.0
 40
28.25
100
AcDbArc
 50
102.470047
 51
121.836424
  0
LINE
  5
471
330
1F
100
AcDbEntity
  8
LC-001-100-D00-0
 62
     7
370
    50
100
AcDbLine
 10
176.42971
 20
295.063292
 30
0.0
 11
176.42971
 21
293.33504
 31
0.0
  0
LINE
  5
472
330
1F
100
AcDbEntity
  8
LC-001-100-D00-0
 62
     7
370
    50
100
AcDbLine
 10
172.229714
 20
293.33504
 30
0.0
 11
172.229714
 21
296.361779
 31
0.0
  0
LINE
  5
473
330
1F
100
AcDbEntity
  8
LC-001-100-D00-0
 62
     7
370
    50
100
AcDbLine
 10
180.929712
 20
292.424788
 30
0.0
 11
180.929712
 21
293.735677
 31
0.0
  0
LINE
  5
474
330
1F
100
AcDbEntity
  8
LC-001-100-D00-0
 62
     7
370
    50
100
AcDbLine
 10
153.129718
 20
296.085042
 30
0.0
 11
153.129718
 21
293.585041
 31
0.0
  0
LINE
  5
475
330
1F
100
AcDbEntity
  8
LC-001-100-D00-0
 62
     7
370
    50
100
AcDbLine
 10
127.515248
 20
303.085042
 30
0.0
 11
134.12971
 21
303.085042
 31
0.0
  0
LINE
  5
476
330
1F
100
AcDbEntity
  8
LC-001-100-D00-0
 62
     7
370
    50
100
AcDbLine
 10
162.32971
 20
296.329421
 30
0.0
 11
162.32971
 21
299.668596
 31
0.0
  0
LINE
  5
477
330
1F
100
AcDbEntity
  8
LC-001-100-D00-0
 62
     7
370
    50
100
AcDbLine
 10
134.12971
 20
305.585039
 30
0.0
 11
126.479714
 21
305.585039
 31
0.0
  0
LINE
  5
478
330
1F
100
AcDbEntity
  8
LC-001-100-D00-0
 62
     7
370
    50
100
AcDbLine
 10
11.279714
 20
290.585042
 30
0.0
 11
11.279714
 21
303.085042
 31
0.0
  0
LINE
  5
479
330
1F
100
AcDbEntity
  8
LC-001-100-D00-0
 62
     7
370
    50
100
AcDbLine
 10
4.129714
 20
303.085042
 30
0.0
 11
11.279714
 21
303.085042
 31
0.0
  0
LINE
  5
47A
330
1F
100
AcDbEntity
  8
LC-001-100-D00-0
 62
     7
370
    50
100
AcDbLine
 10
11.279714
 20
305.585039
 30
0.0
 11
4.129714
 21
305.585039
 31
0.0
  0
LINE
  5
47B
330
1F
100
AcDbEntity
  8
LC-001-100-D00-0
 62
     7
370
    50
100
AcDbLine
 10
11.279714
 20
305.585039
 30
0.0
 11
11.279714
 21
313.58504
 31
0.0
  0
LINE
  5
47C
330
1F
100
AcDbEntity
  8
LC-001-100-D00-0
 62
     7
370
    50
100
AcDbLine
 10
7.629714
 20
313.58504
 30
0.0
 11
11.279714
 21
313.58504
 31
0.0
  0
LINE
  5
47D
330
1F
100
AcDbEntity
  8
LC-001-100-D00-0
 62
     7
370
    50
100
AcDbLine
 10
7.629714
 20
315.885042
 30
0.0
 11
7.629714
 21
313.58504
 31
0.0
  0
LINE
  5
47E
330
1F
100
AcDbEntity
  8
LC-001-100-D00-0
 62
     7
370
    50
100
AcDbLine
 10
7.629714
 20
315.885042
 30
0.0
 11
10.129714
 21
315.885042
 31
0.0
  0
LINE
  5
47F
330
1F
100
AcDbEntity
  8
LC-001-100-D00-0
 62
     7
370
    50
100
AcDbLine
 10
10.129714
 20
315.885042
 30
0.0
 11
10.129714
 21
320.58504
 31
0.0
  0
LINE
  5
480
330
1F
100
AcDbEntity
  8
LC-001-100-D00-0
 62
     7
370
    50
100
AcDbLine
 10
-53.58372
 20
320.58504
 30
0.0
 11
10.129714
 21
320.58504
 31
0.0
  0
ARC
  5
481
330
1F
100
AcDbEntity
  8
LC-001-100-D00-0
 62
     7
370
    50
100
AcDbCircle
 10
-53.583721
 20
319.585041
 30
0.0
 40
1.000000000000057
100
AcDbArc
 50
90.0
 51
165.0
  0
LINE
  5
482
330
1F
100
AcDbEntity
  8
LC-001-100-D00-0
 62
     7
370
    50
100
AcDbLine
 10
-58.300936
 20
305.843857
 30
0.0
 11
-54.549647
 21
319.843863
 31
0.0
  0
ARC
  5
483
330
1F
100
AcDbEntity
  8
LC-001-100-D00-0
 62
     7
370
    50
100
AcDbCircle
 10
-57.33501
 20
305.585041
 30
0.0
 40
1.00000000000003
100
AcDbArc
 50
165.0
 51
195.0
  0
LINE
  5
484
330
1F
100
AcDbEntity
  8
LC-001-100-D00-0
 62
     7
370
    50
100
AcDbLine
 10
-54.549647
 20
291.326222
 30
0.0
 11
-58.300936
 21
305.326221
 31
0.0
  0
ARC
  5
485
330
1F
100
AcDbEntity
  8
LC-001-100-D00-0
 62
     7
370
    50
100
AcDbCircle
 10
-53.583721
 20
291.585041
 30
0.0
 40
1.000000000000003
100
AcDbArc
 50
195.0
 51
270.0
  0
LINE
  5
486
330
1F
100
AcDbEntity
  8
LC-001-100-D00-0
 62
     7
370
    50
100
AcDbLine
 10
-53.58372
 20
290.585042
 30
0.0
 11
11.279714
 21
290.585042
 31
0.0
  0
LINE
  5
487
330
1F
100
AcDbEntity
  8
LC-001-100-D00-0
 62
     7
370
    50
100
AcDbLine
 10
130.62971
 20
313.58504
 30
0.0
 11
130.62971
 21
315.885042
 31
0.0
  0
LINE
  5
488
330
1F
100
AcDbEntity
  8
LC-001-100-D00-0
 62
     7
370
    50
100
AcDbLine
 10
126.979715
 20
313.58504
 30
0.0
 11
126.979715
 21
305.585039
 31
0.0
  0
LINE
  5
489
330
1F
100
AcDbEntity
  8
LC-001-100-D00-0
 62
     7
370
    50
100
AcDbLine
 10
196.56036
 20
305.326221
 30
0.0
 11
195.557914
 21
301.585042
 31
0.0
  0
ARC
  5
48A
330
1F
100
AcDbEntity
  8
LC-001-100-D00-0
 62
     7
370
    50
100
AcDbCircle
 10
195.594438
 20
305.585041
 30
0.0
 40
1.000000000000003
100
AcDbArc
 50
345.0
 51
15.0
  0
ARC
  5
48B
330
1F
100
AcDbEntity
  8
LC-001-100-D00-0
 62
     7
370
    50
100
AcDbCircle
 10
191.843149
 20
319.585041
 30
0.0
 40
1.000000000000003
100
AcDbArc
 50
15.0
 51
90.0
  0
LINE
  5
48C
330
1F
100
AcDbEntity
  8
LC-001-100-D00-0
 62
     7
370
    50
100
AcDbLine
 10
128.129712
 20
320.58504
 30
0.0
 11
128.129712
 21
315.885042
 31
0.0
  0
LINE
  5
48D
330
1F
100
AcDbEntity
  8
LC-001-100-D00-0
 62
     7
370
    50
100
AcDbLine
 10
134.12971
 20
305.585039
 30
0.0
 11
126.979715
 21
305.585039
 31
0.0
  0
LINE
  5
48E
330
1F
100
AcDbEntity
  8
LC-001-100-D00-0
 62
     7
370
    50
100
AcDbLine
 10
126.979715
 20
303.085042
 30
0.0
 11
134.12971
 21
303.085042
 31
0.0
  0
LINE
  5
48F
330
1F
100
AcDbEntity
  8
LC-001-100-D00-0
 62
     7
370
    50
100
AcDbLine
 10
126.979715
 20
303.085042
 30
0.0
 11
126.979715
 21
293.585041
 31
0.0
  0
LINE
  5
490
330
1F
100
AcDbEntity
  8
LC-001-100-D00-0
 62
     7
370
    50
100
AcDbLine
 10
126.979715
 20
293.585041
 30
0.0
 11
149.12971
 21
293.585041
 31
0.0
  0
LINE
  5
491
330
1F
100
AcDbEntity
  8
LC-001-100-D00-0
 62
     7
370
    50
100
AcDbLine
 10
149.12971
 20
301.585042
 30
0.0
 11
149.12971
 21
293.585041
 31
0.0
  0
LINE
  5
492
330
1F
100
AcDbEntity
  8
LC-001-100-D00-0
 62
     7
370
    50
100
AcDbLine
 10
149.12971
 20
301.585042
 30
0.0
 11
195.557914
 21
301.585042
 31
0.0
  0
LINE
  5
493
330
1F
100
AcDbEntity
  8
LC-001-100-D00-0
 62
     7
370
    50
100
AcDbLine
 10
128.129712
 20
315.885042
 30
0.0
 11
130.62971
 21
315.885042
 31
0.0
  0
LINE
  5
494
330
1F
100
AcDbEntity
  8
LC-001-100-D00-0
 62
     7
370
    50
100
AcDbLine
 10
192.809082
 20
319.843863
 30
0.0
 11
196.56036
 21
305.843857
 31
0.0
  0
LINE
  5
495
330
1F
100
AcDbEntity
  8
LC-001-100-D00-0
 62
     7
370
    50
100
AcDbLine
 10
128.129712
 20
320.58504
 30
0.0
 11
191.843144
 21
320.58504
 31
0.0
  0
LINE
  5
496
330
1F
100
AcDbEntity
  8
LC-001-100-D00-0
 62
     7
370
    50
100
AcDbLine
 10
126.979715
 20
313.58504
 30
0.0
 11
130.62971
 21
313.58504
 31
0.0
  0
LINE
  5
497
330
1F
100
AcDbEntity
  8
LC-001-100-D00-0
 62
     7
370
    50
100
AcDbLine
 10
10.129714
 20
320.58504
 30
0.0
 11
21.329715
 21
320.58504
 31
0.0
  0
LINE
  5
498
330
1F
100
AcDbEntity
  8
LC-001-100-D00-0
 62
     7
370
    50
100
AcDbLine
 10
116.929716
 20
320.58504
 30
0.0
 11
128.129712
 21
320.58504
 31
0.0
  0
LINE
  5
499
330
1F
100
AcDbEntity
  8
LC-001-100-D00-0
 62
     7
370
    50
100
AcDbLine
 10
195.557914
 20
301.585042
 30
0.0
 11
193.012393
 21
292.085042
 31
0.0
  0
INSERT
  5
4A8
330
1F
100
AcDbEntity
  8
LC-001-100-D00-0
 62
     7
370
    25
100
AcDbBlockReference
  2
KLON10
 10
0.0
 20
0.0
 30
0.0
  0
INSERT
  5
4B7
330
1F
100
AcDbEntity
  8
LC-001-100-D00-0
 62
     7
370
    25
100
AcDbBlockReference
  2
KLON11
 10
0.0
 20
0.0
 30
0.0
  0
INSERT
  5
4C5
330
1F
100
AcDbEntity
  8
LC-001-100-D00-0
 62
     7
370
    25
100
AcDbBlockReference
  2
KLON12
 10
0.0
 20
0.0
 30
0.0
  0
INSERT
  5
4E3
330
1F
100
AcDbEntity
  8
LC-001-100-D00-0
 62
     7
370
    25
100
AcDbBlockReference
  2
KLON13
 10
0.0
 20
0.0
 30
0.0
  0
INSERT
  5
4EF
330
1F
100
AcDbEntity
  8
LC-001-100-D00-0
 62
     7
370
    25
100
AcDbBlockReference
  2
KLON14
 10
0.0
 20
0.0
 30
0.0
  0
INSERT
  5
4FB
330
1F
100
AcDbEntity
  8
LC-001-100-D00-0
 62
     7
370
    25
100
AcDbBlockReference
  2
KLON15
 10
0.0
 20
0.0
 30
0.0
  0
LINE
  5
4FC
330
1F
100
AcDbEntity
  8
LC-001-100-D00-0
 62
     7
370
    50
100
AcDbLine
 10
294.726569
 20
302.7089
 30
0.0
 11
295.505855
 21
303.488186
 31
0.0
  0
LINE
  5
4FD
330
1F
100
AcDbEntity
  8
LC-001-100-D00-0
 62
     7
370
    50
100
AcDbLine
 10
-55.603333
 20
302.608987
 30
0.0
 11
-54.394232
 21
303.818088
 31
0.0
  0
LINE
  5
4FE
330
1F
100
AcDbEntity
  8
LC-001-100-D00-0
 62
     7
370
    50
100
AcDbLine
 10
242.712445
 20
304.576312
 30
0.0
 11
243.638443
 21
305.50231
 31
0.0
  0
LINE
  5
4FF
330
1F
100
AcDbEntity
  8
LC-001-100-D00-0
 62
     7
370
    25
100
AcDbLine
 10
30.129714
 20
349.497884
 30
0.0
 11
26.742557
 21
352.885041
 31
0.0
  0
LINE
  5
500
330
1F
100
AcDbEntity
  8
LC-001-100-D00-0
 62
     7
370
    25
100
AcDbLine
 10
102.129714
 20
349.339933
 30
0.0
 11
98.585006
 21
352.884641
 31
0.0
  0
LINE
  5
501
330
1F
100
AcDbEntity
  8
LC-001-100-D00-0
 62
     7
370
    25
100
AcDbLine
 10
109.699032
 20
350.750871
 30
0.0
 11
108.602228
 21
351.847675
 31
0.0
  0
LINE
  5
502
330
1F
100
AcDbEntity
  8
LC-001-100-D00-0
 62
     7
370
    25
100
AcDbLine
 10
37.749058
 20
350.858796
 30
0.0
 11
36.670243
 21
351.937611
 31
0.0
  0
INSERT
  5
50C
330
1F
100
AcDbEntity
  8
LC-001-100-D00-0
 62
     7
370
    25
100
AcDbBlockReference
  2
KLON16
 10
0.0
 20
0.0
 30
0.0
  0
INSERT
  5
519
330
1F
100
AcDbEntity
  8
LC-001-100-D00-0
 62
     7
370
    25
100
AcDbBlockReference
  2
KLON17
 10
0.0
 20
0.0
 30
0.0
  0
INSERT
  5
525
330
1F
100
AcDbEntity
  8
LC-001-100-D00-0
 62
     7
370
    25
100
AcDbBlockReference
  2
KLON18
 10
0.0
 20
0.0
 30
0.0
  0
INSERT
  5
53F
330
1F
100
AcDbEntity
  8
LC-001-100-D00-0
 62
     7
370
    25
100
AcDbBlockReference
  2
KLON19
 10
0.0
 20
0.0
 30
0.0
  0
INSERT
  5
552
330
1F
100
AcDbEntity
  8
LC-001-100-D00-0
 62
     7
370
    25
100
AcDbBlockReference
  2
KLON20
 10
0.0
 20
0.0
 30
0.0
  0
INSERT
  5
565
330
1F
100
AcDbEntity
  8
LC-001-100-D00-0
 62
     7
370
    25
100
AcDbBlockReference
  2
KLON21
 10
0.0
 20
0.0
 30
0.0
  0
LINE
  5
566
330
1F
100
AcDbEntity
  8
LC-001-100-D00-0
 62
     7
370
    50
100
AcDbLine
 10
26.00776
 20
312.378034
 30
0.0
 11
27.19101
 21
313.561284
 31
0.0
  0
INSERT
  5
570
330
1F
100
AcDbEntity
  8
LC-001-100-D00-0
 62
     7
370
    25
100
AcDbBlockReference
  2
KLON22
 10
0.0
 20
0.0
 30
0.0
  0
INSERT
  5
57A
330
1F
100
AcDbEntity
  8
LC-001-100-D00-0
 62
     7
370
    25
100
AcDbBlockReference
  2
KLON23
 10
0.0
 20
0.0
 30
0.0
  0
DIMENSION
  5
57D
330
1F
100
AcDbEntity
  8
LC-001-100-D00-0
 62
     7
370
    25
100
AcDbDimension
280
     0
  2
*D33
 10
348.447262
 20
252.085041
 30
0.0
 11
317.647262
 21
329.058262
 31
0.0
 70
   160
  1
DN40
 71
     5
 42
40.0
 73
     0
 74
     0
 75
     0
 53
90.0
  3
LC-DIM-L-0140-02-02
100
AcDbAlignedDimension
 13
233.588459
 23
292.085041
 33
0.0
 14
238.944781
 24
252.085041
 34
0.0
 50
90.0
100
AcDbRotatedDimension
  0
DIMENSION
  5
58D
330
1F
100
AcDbEntity
  8
LC-001-100-D00-0
 62
     7
370
    25
100
AcDbDimension
280
     0
  2
*D34
 10
400.626336
 20
251.809888
 30
0.0
 11
369.826336
 21
326.088262
 31
0.0
 70
   160
  1
DN50
 71
     5
 42
49.868025
 73
     0
 74
     0
 75
     0
 53
90.0
  3
LC-DIM-L-0140-00-02
100
AcDbAlignedDimension
 13
284.329714
 23
301.677912
 33
0.0
 14
284.329714
 24
251.809888
 34
0.0
 50
90.0
100
AcDbRotatedDimension
  0
DIMENSION
  5
59B
330
1F
100
AcDbEntity
  8
LC-001-100-D00-0
 62
     7
370
    25
100
AcDbDimension
280
     0
  2
*D35
 10
-82.828755
 20
298.585041
 30
0.0
 11
-113.628755
 21
229.266262
 31
0.0
 70
   160
  1
40
 71
     5
 42
40.000582
 73
     0
 74
     0
 75
     0
 53
90.0
  3
LC-DIM-L-0140-02-02
100
AcDbAlignedDimension
 13
48.130104
 23
258.584459
 33
0.0
 14
36.129714
 24
298.585041
 34
0.0
 50
90.0
100
AcDbRotatedDimension
  0
DIMENSION
  5
5A9
330
1F
100
AcDbEntity
  8
LC-001-100-D00-0
 62
     7
370
    25
100
AcDbDimension
280
     0
  2
*D36
 10
-108.385852
 20
290.585041
 30
0.0
 11
-139.185852
 21
340.938262
 31
0.0
 70
   160
  1
30
 71
     5
 42
30.0
 73
     0
 74
     0
 75
     0
 53
90.0
  3
LC-DIM-L-0140-02-02
100
AcDbAlignedDimension
 13
-53.583721
 23
320.585041
 33
0.0
 14
-53.583721
 24
290.585041
 34
0.0
 50
90.0
100
AcDbRotatedDimension
  0
DIMENSION
  5
5B7
330
1F
100
AcDbEntity
  8
LC-001-100-D00-0
 62
     7
370
    25
100
AcDbDimension
280
     0
  2
*D37
 10
-176.538111
 20
244.585041
 30
0.0
 11
-207.338111
 21
280.350262
 31
0.0
 70
   160
  1
76
 71
     5
 42
76.0
 73
     0
 74
     0
 75
     0
 53
90.0
  3
LC-DIM-L-0140-02-02
100
AcDbAlignedDimension
 13
-53.583721
 23
320.585041
 33
0.0
 14
42.304714
 24
244.585041
 34
0.0
 50
90.0
100
AcDbRotatedDimension
  0
LINE
  5
5C4
330
1F
100
AcDbEntity
  8
LC-003-105-D00-0
 62
     7
370
    25
100
AcDbLine
 10
69.129714
 20
244.585041
 30
0.0
 11
69.129714
 21
352.885043
 31
0.0
  0
LINE
  5
5C5
330
1F
100
AcDbEntity
  8
LC-003-105-D00-0
 62
     7
370
    25
100
AcDbLine
 10
290.829714
 20
276.7439
 30
0.0
 11
237.147037
 21
276.7439
 31
0.0
  0
LINE
  5
5C6
330
1F
100
AcDbEntity
  8
LC-003-105-D00-0
 62
     7
370
    25
100
AcDbLine
 10
242.354486
 20
272.085041
 30
0.0
 11
120.516465
 21
272.085041
 31
0.0
  0
LINE
  5
5C7
330
1F
100
AcDbEntity
  8
LC-001-100-D00-0
 62
     7
370
    50
100
AcDbLine
 10
21.629714
 20
-69.515738
 30
0.0
 11
21.629714
 21
-22.015739
 31
0.0
  0
DIMENSION
  5
5C9
330
1F
100
AcDbEntity
  8
LC-004-003-----0
 62
     7
370
    25
100
AcDbDimension
280
     0
  2
*D38
 10
295.629717
 20
464.490262
 30
0.0
 11
86.487015
 21
495.290262
 31
0.0
 70
   160
 71
     5
 42
453.000009
 73
     0
 74
     0
 75
     0
  3
LC-DIM-L-0140-02-02
100
AcDbAlignedDimension
 13
-157.370293
 23
308.485044
 33
0.0
 14
295.629717
 24
308.485044
 34
0.0
100
AcDbRotatedDimension
  0
DIMENSION
  5
5D6
330
1F
100
AcDbEntity
  8
LC-004-003-----0
 62
     7
370
    25
100
AcDbDimension
280
     0
  2
*D39
 10
196.589432
 20
419.346262
 30
0.0
 11
86.487015
 21
450.146262
 31
0.0
 70
   160
  1
255
 71
     5
 42
254.890367
 73
     0
 74
     0
 75
     0
  3
LC-DIM-L-0140-02-02
100
AcDbAlignedDimension
 13
-58.300936
 23
305.326221
 33
0.0
 14
196.589432
 24
305.485037
 34
0.0
100
AcDbRotatedDimension
  0
DIMENSION
  5
5E3
330
1F
100
AcDbEntity
  8
LC-004-003-----0
 62
     7
370
    25
100
AcDbDimension
280
     0
  2
*D40
 10
116.629711
 20
374.796262
 30
0.0
 11
70.513829
 21
405.596262
 31
0.0
 70
   160
  1
95
 71
     5
 42
94.999997
 73
     0
 74
     0
 75
     0
  3
LC-DIM-L-0140-02-02
100
AcDbAlignedDimension
 13
21.629714
 23
352.885043
 33
0.0
 14
116.629711
 24
352.885043
 34
0.0
100
AcDbRotatedDimension
  0
DIMENSION
  5
5F0
330
1F
100
AcDbEntity
  8
LC-004-003-----0
 62
     7
370
    25
100
AcDbDimension
280
     0
  2
*D41
 10
257.932543
 20
320.585041
 30
0.0
 11
227.132543
 21
378.954262
 31
0.0
 70
   160
  1
6-32
 71
     5
 42
32.300002
 73
     0
 74
     0
 75
     0
 53
90.0
  3
LC-DIM-L-0140-02-02
100
AcDbAlignedDimension
 13
116.629711
 23
352.885043
 33
0.0
 14
184.766143
 24
320.585041
 34
0.0
 50
90.0
100
AcDbRotatedDimension
  0
DIMENSION
  5
5FE
330
1F
100
AcDbEntity
  8
LC-004-003-----0
 62
     7
370
    25
100
AcDbDimension
280
     0
  2
*D42
 10
287.32971
 20
180.558262
 30
0.0
 11
216.734249
 21
211.358262
 31
0.0
 70
   160
  1
218
 71
     5
 42
218.199996
 73
     0
 74
     0
 75
     0
  3
LC-DIM-L-0140-02-02
100
AcDbAlignedDimension
 13
69.129714
 23
244.585041
 33
0.0
 14
287.32971
 24
254.859052
 34
0.0
100
AcDbRotatedDimension
  0
ENDSEC
  0
SECTION
  2
OBJECTS
  0
DICTIONARY
  5
C
330
0
100
AcDbDictionary
281
     1
  3
ACAD_DETAILVIEWSTYLE
350
659
  3
ACAD_GROUP
350
D
  3
ACAD_IMAGE_VARS
350
650
  3
ACAD_LAYOUT
350
1A
  3
ACAD_MATERIAL
350
646
  3
ACAD_MLEADERSTYLE
350
64C
  3
ACAD_MLINESTYLE
350
17
  3
ACAD_PLOTSETTINGS
350
19
  3
ACAD_PLOTSTYLENAME
350
E
  3
ACAD_SCALELIST
350
60B
  3
ACAD_SECTIONVIEWSTYLE
350
65A
  3
ACAD_TABLESTYLE
350
64A
  3
ACAD_VISUALSTYLE
350
62D
  3
ACDB_RECOMPOSE_DATA
350
655
  3
AcDbVariableDictionary
350
651
  3
APPDATA
350
64E
  0
SUN
  5
64F
330
29
100
AcDbSun
 90
        1
290
     0
 63
     7
421
 16777215
 40
1.0
291
     1
 91
  2455826
 92
 54000000
292
     0
 70
     2
 71
   256
280
     1
  0
DICTIONARY
  5
659
102
{ACAD_REACTORS
330
C
102
}
330
C
100
AcDbDictionary
281
     1
  0
DICTIONARY
  5
D
102
{ACAD_REACTORS
330
C
102
}
330
C
100
AcDbDictionary
281
     1
  0
RASTERVARIABLES
  5
650
102
{ACAD_REACTORS
330
C
102
}
330
C
100
AcDbRasterVariables
 90
        0
 70
     1
 71
     1
 72
     1
  0
DICTIONARY
  5
1A
102
{ACAD_REACTORS
330
C
102
}
330
C
100
AcDbDictionary
281
     1
  3
Layout1
350
1E
  3
Layout2
350
26
  3
Model
350
22
  0
DICTIONARY
  5
646
102
{ACAD_REACTORS
330
C
102
}
330
C
100
AcDbDictionary
281
     1
  3
ByBlock
350
648
  3
ByLayer
350
647
  3
Global
350
649
  0
DICTIONARY
  5
64C
102
{ACAD_REACTORS
330
C
102
}
330
C
100
AcDbDictionary
281
     1
  3
Standard
350
64D
  0
DICTIONARY
  5
17
102
{ACAD_REACTORS
330
C
102
}
330
C
100
AcDbDictionary
281
     1
  3
Standard
350
18
  0
DICTIONARY
  5
19
102
{ACAD_REACTORS
330
C
102
}
330
C
100
AcDbDictionary
281
     1
  0
ACDBDICTIONARYWDFLT
  5
E
102
{ACAD_REACTORS
330
C
102
}
330
C
100
AcDbDictionary
281
     1
  3
Normal
350
F
100
AcDbDictionaryWithDefault
340
F
  0
DICTIONARY
  5
60B
102
{ACAD_REACTORS
330
C
102
}
330
C
100
AcDbDictionary
281
     1
  3
A0
350
60C
  3
A1
350
60D
  3
A2
350
60E
  3
A3
350
60F
  3
A4
350
610
  3
A5
350
611
  3
A6
350
612
  3
A7
350
613
  3
A8
350
614
  3
A9
350
615
  3
B0
350
616
  3
B1
350
617
  3
B2
350
618
  3
B3
350
619
  3
B4
350
61A
  3
B5
350
61B
  3
B6
350
61C
  3
B7
350
61D
  3
B8
350
61E
  3
B9
350
61F
  3
C0
350
620
  3
C1
350
621
  3
C2
350
622
  3
C3
350
623
  3
C4
350
624
  3
C5
350
625
  3
C6
350
626
  3
C7
350
627
  3
C8
350
628
  3
C9
350
629
  3
D0
350
62A
  3
D1
350
62B
  3
D2
350
62C
  0
DICTIONARY
  5
65A
102
{ACAD_REACTORS
330
C
102
}
330
C
100
AcDbDictionary
281
     1
  0
DICTIONARY
  5
64A
102
{ACAD_REACTORS
330
C
102
}
330
C
100
AcDbDictionary
281
     1
  3
Standard
350
64B
  0
DICTIONARY
  5
62D
102
{ACAD_REACTORS
330
C
102
}
330
C
100
AcDbDictionary
281
     1
  3
2dWireframe
350
632
  3
Basic
350
635
  3
Brighten
350
639
  3
ColorChange
350
63D
  3
Conceptual
350
637
  3
Dim
350
638
  3
EdgeColorOff
350
640
  3
Facepattern
350
63C
  3
Flat
350
62E
  3
FlatWithEdges
350
62F
  3
Gouraud
350
630
  3
GouraudWithEdges
350
631
  3
Hidden
350
634
  3
JitterOff
350
63E
  3
Linepattern
350
63B
  3
OverhangOff
350
63F
  3
Realistic
350
636
  3
Shaded
350
645
  3
Shaded with edges
350
644
  3
Shades of Gray
350
641
  3
Sketchy
350
642
  3
Thicken
350
63A
  3
Wireframe
350
633
  3
X-Ray
350
643
  0
XRECORD
  5
655
102
{ACAD_REACTORS
330
C
102
}
330
C
100
AcDbXrecord
280
     1
 90
        1
330
64B
  0
DICTIONARY
  5
651
102
{ACAD_REACTORS
330
C
102
}
330
C
100
AcDbDictionary
281
     1
  3
CANNOSCALE
350
652
  3
CMLEADERSTYLE
350
657
  3
CTABLESTYLE
350
656
  3
MSLTSCALE
350
658
  0
DICTIONARY
  5
64E
102
{ACAD_REACTORS
330
C
102
}
330
C
100
AcDbDictionary
281
     1
  0
LAYOUT
  5
1E
102
{ACAD_REACTORS
330
1A
102
}
330
1A
100
AcDbPlotSettings
  1

  2

  4

  6

 40
0.0
 41
0.0
 42
0.0
 43
0.0
 44
0.0
 45
0.0
 46
0.0
 47
0.0
 48
0.0
 49
0.0
140
0.0
141
0.0
142
1.0
143
1.0
 70
   688
 72
     0
 73
     0
 74
     5
  7

 75
    16
 76
     0
 77
     2
 78
   300
147
1.0
148
0.0
149
0.0
100
AcDbLayout
  1
Layout1
 70
     1
 71
     1
 10
-271.75
 20
-87.335738
 11
568.25
 21
506.664262
 12
0.0
 22
0.0
 32
0.0
 14
-271.75
 24
-87.335738
 34
0.0
 15
568.25
 25
506.664262
 35
0.0
146
0.0
 13
0.0
 23
0.0
 33
0.0
 16
1.0
 26
0.0
 36
0.0
 17
0.0
 27
1.0
 37
0.0
 76
     0
330
1B
  0
LAYOUT
  5
26
102
{ACAD_REACTORS
330
1A
102
}
330
1A
100
AcDbPlotSettings
  1

  2

  4

  6

 40
0.0
 41
0.0
 42
0.0
 43
0.0
 44
0.0
 45
0.0
 46
0.0
 47
0.0
 48
0.0
 49
0.0
140
0.0
141
0.0
142
1.0
143
1.0
 70
   688
 72
     0
 73
     0
 74
     5
  7

 75
    16
 76
     0
 77
     2
 78
   300
147
1.0
148
0.0
149
0.0
100
AcDbLayout
  1
Layout2
 70
     1
 71
     2
 10
0.0
 20
0.0
 11
0.0
 21
0.0
 12
0.0
 22
0.0
 32
0.0
 14
0.0
 24
0.0
 34
0.0
 15
0.0
 25
0.0
 35
0.0
146
0.0
 13
0.0
 23
0.0
 33
0.0
 16
1.0
 26
0.0
 36
0.0
 17
0.0
 27
1.0
 37
0.0
 76
     0
330
23
  0
LAYOUT
  5
22
102
{ACAD_REACTORS
330
1A
102
}
330
1A
100
AcDbPlotSettings
  1

  2

  4

  6

 40
0.0
 41
0.0
 42
0.0
 43
0.0
 44
0.0
 45
0.0
 46
0.0
 47
0.0
 48
0.0
 49
0.0
140
0.0
141
0.0
142
1.0
143
1.0
 70
  1776
 72
     0
 73
     0
 74
     0
  7

 75
     0
 76
     0
 77
     2
 78
   300
147
1.0
148
0.0
149
0.0
100
AcDbLayout
  1
Model
 70
     1
 71
     0
 10
-271.75
 20
-87.335738
 11
568.25
 21
506.664262
 12
0.0
 22
0.0
 32
0.0
 14
-220.3840341360939
 24
-69.51574048696915
 34
0.0
 15
405.293002
 25
508.3361851360939
 35
0.0
146
0.0
 13
0.0
 23
0.0
 33
0.0
 16
1.0
 26
0.0
 36
0.0
 17
0.0
 27
1.0
 37
0.0
 76
     0
330
1F
331
29
  0
MATERIAL
  5
648
102
{ACAD_REACTORS
330
646
102
}
330
646
100
AcDbMaterial
  1
ByBlock
 72
     1
 94
      127
  0
MATERIAL
  5
647
102
{ACAD_REACTORS
330
646
102
}
330
646
100
AcDbMaterial
  1
ByLayer
 72
     1
 94
      127
  0
MATERIAL
  5
649
102
{ACAD_REACTORS
330
646
102
}
330
646
100
AcDbMaterial
  1
Global
 72
     1
 94
      127
  0
MLEADERSTYLE
  5
64D
102
{ACAD_REACTORS
330
64C
102
}
330
64C
100
AcDbMLeaderStyle
179
     2
170
     2
171
     1
172
     0
 90
        2
 40
0.0
 41
0.0
173
     1
 91
-1056964608
340
14
 92
       -2
290
     1
 42
2.0
291
     1
 43
8.0
  3
Standard
341
0
 44
4.0
300

342
11
174
     1
178
     6
175
     1
176
     0
 93
-1056964608
 45
4.0
292
     0
297
     0
 46
4.0
343
0
 94
-1056964608
 47
1.0
 49
1.0
140
1.0
293
     1
141
0.0
294
     1
177
     0
142
1.0
295
     0
296
     0
143
3.75
271
     0
272
     9
273
     9
298
     0
  0
MLINESTYLE
  5
18
102
{ACAD_REACTORS
330
17
102
}
330
17
100
AcDbMlineStyle
  2
Standard
 70
     0
  3

 62
   256
 51
90.0
 52
90.0
 71
     2
 49
0.5
 62
   256
  6
BYLAYER
 49
-0.5
 62
   256
  6
BYLAYER
  0
ACDBPLACEHOLDER
  5
F
102
{ACAD_REACTORS
330
E
102
}
330
E
  0
SCALE
  5
60C
102
{ACAD_REACTORS
330
60B
102
}
330
60B
100
AcDbScale
 70
     0
300
1:1
140
1.0
141
1.0
290
     1
  0
SCALE
  5
60D
102
{ACAD_REACTORS
330
60B
102
}
330
60B
100
AcDbScale
 70
     0
300
1:2
140
1.0
141
2.0
290
     0
  0
SCALE
  5
60E
102
{ACAD_REACTORS
330
60B
102
}
330
60B
100
AcDbScale
 70
     0
300
1:4
140
1.0
141
4.0
290
     0
  0
SCALE
  5
60F
102
{ACAD_REACTORS
330
60B
102
}
330
60B
100
AcDbScale
 70
     0
300
1:5
140
1.0
141
5.0
290
     0
  0
SCALE
  5
610
102
{ACAD_REACTORS
330
60B
102
}
330
60B
100
AcDbScale
 70
     0
300
1:8
140
1.0
141
8.0
290
     0
  0
SCALE
  5
611
102
{ACAD_REACTORS
330
60B
102
}
330
60B
100
AcDbScale
 70
     0
300
1:10
140
1.0
141
10.0
290
     0
  0
SCALE
  5
612
102
{ACAD_REACTORS
330
60B
102
}
330
60B
100
AcDbScale
 70
     0
300
1:16
140
1.0
141
16.0
290
     0
  0
SCALE
  5
613
102
{ACAD_REACTORS
330
60B
102
}
330
60B
100
AcDbScale
 70
     0
300
1:20
140
1.0
141
20.0
290
     0
  0
SCALE
  5
614
102
{ACAD_REACTORS
330
60B
102
}
330
60B
100
AcDbScale
 70
     0
300
1:30
140
1.0
141
30.0
290
     0
  0
SCALE
  5
615
102
{ACAD_REACTORS
330
60B
102
}
330
60B
100
AcDbScale
 70
     0
300
1:40
140
1.0
141
40.0
290
     0
  0
SCALE
  5
616
102
{ACAD_REACTORS
330
60B
102
}
330
60B
100
AcDbScale
 70
     0
300
1:50
140
1.0
141
50.0
290
     0
  0
SCALE
  5
617
102
{ACAD_REACTORS
330
60B
102
}
330
60B
100
AcDbScale
 70
     0
300
1:100
140
1.0
141
100.0
290
     0
  0
SCALE
  5
618
102
{ACAD_REACTORS
330
60B
102
}
330
60B
100
AcDbScale
 70
     0
300
2:1
140
2.0
141
1.0
290
     0
  0
SCALE
  5
619
102
{ACAD_REACTORS
330
60B
102
}
330
60B
100
AcDbScale
 70
     0
300
4:1
140
4.0
141
1.0
290
     0
  0
SCALE
  5
61A
102
{ACAD_REACTORS
330
60B
102
}
330
60B
100
AcDbScale
 70
     0
300
8:1
140
8.0
141
1.0
290
     0
  0
SCALE
  5
61B
102
{ACAD_REACTORS
330
60B
102
}
330
60B
100
AcDbScale
 70
     0
300
10:1
140
10.0
141
1.0
290
     0
  0
SCALE
  5
61C
102
{ACAD_REACTORS
330
60B
102
}
330
60B
100
AcDbScale
 70
     0
300
100:1
140
100.0
141
1.0
290
     0
  0
SCALE
  5
61D
102
{ACAD_REACTORS
330
60B
102
}
330
60B
100
AcDbScale
 70
     0
300
1/128" = 1'-0"
140
0.0078125
141
12.0
290
     0
  0
SCALE
  5
61E
102
{ACAD_REACTORS
330
60B
102
}
330
60B
100
AcDbScale
 70
     0
300
1/64" = 1'-0"
140
0.015625
141
12.0
290
     0
  0
SCALE
  5
61F
102
{ACAD_REACTORS
330
60B
102
}
330
60B
100
AcDbScale
 70
     0
300
1/32" = 1'-0"
140
0.03125
141
12.0
290
     0
  0
SCALE
  5
620
102
{ACAD_REACTORS
330
60B
102
}
330
60B
100
AcDbScale
 70
     0
300
1/16" = 1'-0"
140
0.0625
141
12.0
290
     0
  0
SCALE
  5
621
102
{ACAD_REACTORS
330
60B
102
}
330
60B
100
AcDbScale
 70
     0
300
3/32" = 1'-0"
140
0.09375
141
12.0
290
     0
  0
SCALE
  5
622
102
{ACAD_REACTORS
330
60B
102
}
330
60B
100
AcDbScale
 70
     0
300
1/8" = 1'-0"
140
0.125
141
12.0
290
     0
  0
SCALE
  5
623
102
{ACAD_REACTORS
330
60B
102
}
330
60B
100
AcDbScale
 70
     0
300
3/16" = 1'-0"
140
0.1875
141
12.0
290
     0
  0
SCALE
  5
624
102
{ACAD_REACTORS
330
60B
102
}
330
60B
100
AcDbScale
 70
     0
300
1/4" = 1'-0"
140
0.25
141
12.0
290
     0
  0
SCALE
  5
625
102
{ACAD_REACTORS
330
60B
102
}
330
60B
100
AcDbScale
 70
     0
300
3/8" = 1'-0"
140
0.375
141
12.0
290
     0
  0
SCALE
  5
626
102
{ACAD_REACTORS
330
60B
102
}
330
60B
100
AcDbScale
 70
     0
300
1/2" = 1'-0"
140
0.5
141
12.0
290
     0
  0
SCALE
  5
627
102
{ACAD_REACTORS
330
60B
102
}
330
60B
100
AcDbScale
 70
     0
300
3/4" = 1'-0"
140
0.75
141
12.0
290
     0
  0
SCALE
  5
628
102
{ACAD_REACTORS
330
60B
102
}
330
60B
100
AcDbScale
 70
     0
300
1" = 1'-0"
140
1.0
141
12.0
290
     0
  0
SCALE
  5
629
102
{ACAD_REACTORS
330
60B
102
}
330
60B
100
AcDbScale
 70
     0
300
1-1/2" = 1'-0"
140
1.5
141
12.0
290
     0
  0
SCALE
  5
62A
102
{ACAD_REACTORS
330
60B
102
}
330
60B
100
AcDbScale
 70
     0
300
3" = 1'-0"
140
3.0
141
12.0
290
     0
  0
SCALE
  5
62B
102
{ACAD_REACTORS
330
60B
102
}
330
60B
100
AcDbScale
 70
     0
300
6" = 1'-0"
140
6.0
141
12.0
290
     0
  0
SCALE
  5
62C
102
{ACAD_REACTORS
330
60B
102
}
330
60B
100
AcDbScale
 70
     0
300
1'-0" = 1'-0"
140
12.0
141
12.0
290
     0
  0
TABLESTYLE
  5
64B
102
{ACAD_REACTORS
330
64A
102
}
102
{ACAD_XDICTIONARY
360
653
102
}
330
64A
100
AcDbTableStyle
  3
Standard
 70
     0
 71
     0
 40
0.06
 41
0.06
280
     0
281
     0
  7
Standard
140
4.5
170
     2
 62
     0
 63
   257
283
     0
 90
        4
 91
        0
  1

274
    -2
284
     1
 64
     0
275
    -2
285
     1
 65
     0
276
    -2
286
     1
 66
     0
277
    -2
287
     1
 67
     0
278
    -2
288
     1
 68
     0
279
    -2
289
     1
 69
     0
  7
Standard
140
6.0
170
     5
 62
     0
 63
   257
283
     0
 90
        4
 91
        0
  1

274
    -2
284
     1
 64
     0
275
    -2
285
     1
 65
     0
276
    -2
286
     1
 66
     0
277
    -2
287
     1
 67
     0
278
    -2
288
     1
 68
     0
279
    -2
289
     1
 69
     0
  7
Standard
140
4.5
170
     5
 62
     0
 63
   257
283
     0
 90
        4
 91
        0
  1

274
    -2
284
     1
 64
     0
275
    -2
285
     1
 65
     0
276
    -2
286
     1
 66
     0
277
    -2
287
     1
 67
     0
278
    -2
288
     1
 68
     0
279
    -2
289
     1
 69
     0
  0
VISUALSTYLE
  5
632
102
{ACAD_REACTORS
330
62D
102
}
330
62D
100
AcDbVisualStyle
  2
2dWireframe
 70
     4
177
     3
291
     0
 70
    58
 90
        0
176
     1
 90
        2
176
     1
 90
        0
176
     1
 90
        0
176
     1
 40
0.6
176
     1
 40
30.0
176
     1
 62
     7
420
 16777215
176
     1
 90
        1
176
     1
 90
        4
176
     1
 62
     7
176
     1
 62
   257
176
     1
 90
        1
176
     1
 90
        1
176
     1
 40
1.0
176
     1
 90
        0
176
     1
 62
   257
176
     1
 40
1.0
176
     1
 90
        1
176
     1
 90
        6
176
     1
 90
        2
176
     1
 62
     7
176
     1
 90
        5
176
     1
 90
        0
176
     1
 90
        0
176
     1
290
     0
176
     1
 90
        1
176
     1
 40
0.0
176
     1
 90
        0
176
     1
290
     1
176
     1
290
     1
176
     1
290
     0
176
     1
290
     0
176
     1
290
     0
176
     1
290
     0
176
     1
290
     0
176
     1
290
     0
176
     1
290
     0
176
     1
 90
       50
176
     1
 40
0.0
176
     1
 40
1.0
176
     1
 90
        0
176
     1
 62
    18
420
        0
176
     1
 90
       50
176
     1
 90
        3
176
     1
 62
     5
420
      255
176
     1
290
     0
176
     1
 90
       50
176
     1
 90
       50
176
     1
 90
       50
176
     1
290
     0
176
     1
 90
       50
176
     1
 62
   256
176
     0
 40
1.0
176
     0
 90
        2
176
     1
  1
strokes_ogs.tif
176
     1
290
     0
176
     1
 40
1.0
176
     1
 40
1.0
176
     1
  0
VISUALSTYLE
  5
635
102
{ACAD_REACTORS
330
62D
102
}
330
62D
100
AcDbVisualStyle
  2
Basic
 70
     7
177
     3
291
     1
 70
    58
 90
        1
176
     1
 90
        0
176
     1
 90
        1
176
     1
 90
        0
176
     1
 40
0.6
176
     1
 40
30.0
176
     1
 62
     7
420
 16777215
176
     1
 90
        0
176
     1
 90
        4
176
     1
 62
     7
176
     1
 62
   257
176
     1
 90
        1
176
     1
 90
        1
176
     1
 40
1.0
176
     1
 90
        8
176
     1
 62
     7
176
     1
 40
1.0
176
     1
 90
        1
176
     1
 90
        6
176
     1
 90
        2
176
     1
 62
     7
176
     1
 90
        5
176
     1
 90
        0
176
     1
 90
        0
176
     1
290
     0
176
     1
 90
        1
176
     1
 40
0.0
176
     1
 90
        0
176
     1
290
     0
176
     1
290
     1
176
     1
290
     1
176
     1
290
     0
176
     1
290
     0
176
     1
290
     0
176
     1
290
     0
176
     1
290
     0
176
     1
290
     0
176
     1
 90
       50
176
     1
 40
0.0
176
     1
 40
1.0
176
     1
 90
        0
176
     1
 62
    18
420
        0
176
     1
 90
       50
176
     1
 90
        3
176
     1
 62
     5
420
      255
176
     1
290
     0
176
     1
 90
       50
176
     1
 90
       50
176
     1
 90
       50
176
     1
290
     0
176
     1
 90
       50
176
     1
 62
   256
176
     0
 40
1.0
176
     0
 90
        2
176
     1
  1
strokes_ogs.tif
176
     1
290
     0
176
     1
 40
1.0
176
     1
 40
1.0
176
     1
  0
VISUALSTYLE
  5
639
102
{ACAD_REACTORS
330
62D
102
}
330
62D
100
AcDbVisualStyle
  2
Brighten
 70
    12
177
     3
291
     1
 70
    58
 90
        2
176
     1
 90
        2
176
     1
 90
        0
176
     1
 90
        0
176
     1
 40
0.6
176
     1
 40
30.0
176
     1
 62
     7
420
 16777215
176
     1
 90
        1
176
     1
 90
        4
176
     1
 62
     7
176
     1
 62
   257
176
     1
 90
        1
176
     1
 90
        1
176
     1
 40
1.0
176
     1
 90
        8
176
     1
 62
     7
176
     1
 40
1.0
176
     1
 90
        1
176
     1
 90
        6
176
     1
 90
        2
176
     1
 62
     7
176
     1
 90
        5
176
     1
 90
        0
176
     1
 90
        0
176
     1
290
     0
176
     1
 90
        1
176
     1
 40
50.0
176
     1
 90
        0
176
     1
290
     0
176
     1
290
     1
176
     1
290
     1
176
     1
290
     0
176
     1
290
     0
176
     1
290
     0
176
     1
290
     0
176
     1
290
     0
176
     1
290
     0
176
     1
 90
       50
176
     1
 40
0.0
176
     1
 40
1.0
176
     1
 90
        0
176
     1
 62
    18
420
        0
176
     1
 90
       50
176
     1
 90
        3
176
     1
 62
     5
420
      255
176
     1
290
     0
176
     1
 90
       50
176
     1
 90
       50
176
     1
 90
       50
176
     1
290
     0
176
     1
 90
       50
176
     1
 62
   256
176
     0
 40
1.0
176
     0
 90
        2
176
     1
  1
strokes_ogs.tif
176
     1
290
     0
176
     1
 40
1.0
176
     1
 40
1.0
176
     1
  0
VISUALSTYLE
  5
63D
102
{ACAD_REACTORS
330
62D
102
}
330
62D
100
AcDbVisualStyle
  2
ColorChange
 70
    16
177
     3
291
     1
 70
    58
 90
        2
176
     1
 90
        2
176
     1
 90
        3
176
     1
 90
        0
176
     1
 40
0.6
176
     1
 40
30.0
176
     1
 62
     8
420
  8421504
176
     1
 90
        1
176
     1
 90
        4
176
     1
 62
     7
176
     1
 62
   257
176
     1
 90
        1
176
     1
 90
        1
176
     1
 40
1.0
176
     1
 90
        8
176
     1
 62
     8
420
  8421504
176
     1
 40
1.0
176
     1
 90
        1
176
     1
 90
        6
176
     1
 90
        2
176
     1
 62
     7
176
     1
 90
        5
176
     1
 90
        0
176
     1
 90
        0
176
     1
290
     0
176
     1
 90
        1
176
     1
 40
0.0
176
     1
 90
        0
176
     1
290
     0
176
     1
290
     1
176
     1
290
     1
176
     1
290
     0
176
     1
290
     0
176
     1
290
     0
176
     1
290
     0
176
     1
290
     0
176
     1
290
     0
176
     1
 90
       50
176
     1
 40
0.0
176
     1
 40
1.0
176
     1
 90
        0
176
     1
 62
    18
420
        0
176
     1
 90
       50
176
     1
 90
        3
176
     1
 62
     5
420
      255
176
     1
290
     0
176
     1
 90
       50
176
     1
 90
       50
176
     1
 90
       50
176
     1
290
     0
176
     1
 90
       50
176
     1
 62
   256
176
     0
 40
1.0
176
     0
 90
        2
176
     1
  1
strokes_ogs.tif
176
     1
290
     0
176
     1
 40
1.0
176
     1
 40
1.0
176
     1
  0
VISUALSTYLE
  5
637
102
{ACAD_REACTORS
330
62D
102
}
330
62D
100
AcDbVisualStyle
  2
Conceptual
 70
     9
177
     3
291
     0
 70
    58
 90
        3
176
     1
 90
        2
176
     1
 90
        0
176
     1
 90
        0
176
     1
 40
0.6
176
     1
 40
30.0
176
     1
 62
     7
420
 16777215
176
     1
 90
        2
176
     1
 90
        2
176
     1
 62
     7
176
     1
 62
   257
176
     1
 90
        1
176
     1
 90
        1
176
     1
 40
179.0
176
     1
 90
        8
176
     1
 62
     7
176
     1
 40
1.0
176
     1
 90
        1
176
     1
 90
        6
176
     1
 90
        2
176
     1
 62
     7
176
     1
 90
        3
176
     1
 90
        0
176
     1
 90
        0
176
     1
290
     0
176
     1
 90
        1
176
     1
 40
0.0
176
     1
 90
        0
176
     1
290
     0
176
     1
290
     1
176
     1
290
     1
176
     1
290
     0
176
     1
290
     0
176
     1
290
     0
176
     1
290
     0
176
     1
290
     0
176
     1
290
     0
176
     1
 90
       50
176
     1
 40
0.0
176
     1
 40
1.0
176
     1
 90
        0
176
     1
 62
    18
420
        0
176
     1
 90
       50
176
     1
 90
        3
176
     1
 62
     5
420
      255
176
     1
290
     0
176
     1
 90
       50
176
     1
 90
       50
176
     1
 90
       50
176
     1
290
     0
176
     1
 90
       50
176
     1
 62
   256
176
     0
 40
1.0
176
     0
 90
        2
176
     1
  1
strokes_ogs.tif
176
     1
290
     0
176
     1
 40
1.0
176
     1
 40
1.0
176
     1
  0
VISUALSTYLE
  5
638
102
{ACAD_REACTORS
330
62D
102
}
330
62D
100
AcDbVisualStyle
  2
Dim
 70
    11
177
     3
291
     1
 70
    58
 90
        2
176
     1
 90
        2
176
     1
 90
        0
176
     1
 90
        0
176
     1
 40
0.6
176
     1
 40
30.0
176
     1
 62
     7
420
 16777215
176
     1
 90
        1
176
     1
 90
        4
176
     1
 62
     7
176
     1
 62
   257
176
     1
 90
        1
176
     1
 90
        1
176
     1
 40
1.0
176
     1
 90
        8
176
     1
 62
     7
176
     1
 40
1.0
176
     1
 90
        1
176
     1
 90
        6
176
     1
 90
        2
176
     1
 62
     7
176
     1
 90
        5
176
     1
 90
        0
176
     1
 90
        0
176
     1
290
     0
176
     1
 90
        1
176
     1
 40
-50.0
176
     1
 90
        0
176
     1
290
     0
176
     1
290
     1
176
     1
290
     1
176
     1
290
     0
176
     1
290
     0
176
     1
290
     0
176
     1
290
     0
176
     1
290
     0
176
     1
290
     0
176
     1
 90
       50
176
     1
 40
0.0
176
     1
 40
1.0
176
     1
 90
        0
176
     1
 62
    18
420
        0
176
     1
 90
       50
176
     1
 90
        3
176
     1
 62
     5
420
      255
176
     1
290
     0
176
     1
 90
       50
176
     1
 90
       50
176
     1
 90
       50
176
     1
290
     0
176
     1
 90
       50
176
     1
 62
   256
176
     0
 40
1.0
176
     0
 90
        2
176
     1
  1
strokes_ogs.tif
176
     1
290
     0
176
     1
 40
1.0
176
     1
 40
1.0
176
     1
  0
VISUALSTYLE
  5
640
102
{ACAD_REACTORS
330
62D
102
}
330
62D
100
AcDbVisualStyle
  2
EdgeColorOff
 70
    22
177
     3
291
     1
 70
    58
 90
        2
176
     0
 90
        2
176
     0
 90
        0
176
     0
 90
        0
176
     0
 40
0.6
176
     0
 40
30.0
176
     0
 62
     7
420
 16777215
176
     0
 90
        1
176
     0
 90
        4
176
     0
 62
     7
176
     0
 62
   257
176
     0
 90
        1
176
     0
 90
        1
176
     0
 40
1.0
176
     0
 90
        8
176
     2
 62
     7
176
     0
 40
1.0
176
     0
 90
        1
176
     0
 90
        6
176
     0
 90
        2
176
     0
 62
     7
176
     0
 90
        5
176
     0
 90
        0
176
     0
 90
        0
176
     0
290
     0
176
     0
 90
        1
176
     0
 40
0.0
176
     0
 90
        0
176
     0
290
     0
176
     0
290
     1
176
     0
290
     1
176
     0
290
     0
176
     0
290
     0
176
     0
290
     0
176
     0
290
     0
176
     0
290
     0
176
     0
290
     0
176
     0
 90
       50
176
     0
 40
0.0
176
     0
 40
1.0
176
     0
 90
        0
176
     0
 62
    18
420
        0
176
     0
 90
       50
176
     0
 90
        3
176
     0
 62
     5
420
      255
176
     0
290
     0
176
     0
 90
       50
176
     0
 90
       50
176
     0
 90
       50
176
     0
290
     0
176
     0
 90
       50
176
     0
 62
   256
176
     0
 40
1.0
176
     0
 90
        2
176
     0
  1
strokes_ogs.tif
176
     0
290
     0
176
     0
 40
1.0
176
     0
 40
1.0
176
     0
  0
VISUALSTYLE
  5
63C
102
{ACAD_REACTORS
330
62D
102
}
330
62D
100
AcDbVisualStyle
  2
Facepattern
 70
    15
177
     3
291
     1
 70
    58
 90
        2
176
     1
 90
        2
176
     1
 90
        0
176
     1
 90
        0
176
     1
 40
0.6
176
     1
 40
30.0
176
     1
 62
     7
420
 16777215
176
     1
 90
        1
176
     1
 90
        4
176
     1
 62
     7
176
     1
 62
   257
176
     1
 90
        1
176
     1
 90
        1
176
     1
 40
1.0
176
     1
 90
        8
176
     1
 62
     7
176
     1
 40
1.0
176
     1
 90
        1
176
     1
 90
        6
176
     1
 90
        2
176
     1
 62
     7
176
     1
 90
        5
176
     1
 90
        0
176
     1
 90
        0
176
     1
290
     0
176
     1
 90
        1
176
     1
 40
0.0
176
     1
 90
        0
176
     1
290
     0
176
     1
290
     1
176
     1
290
     1
176
     1
290
     0
176
     1
290
     0
176
     1
290
     0
176
     1
290
     0
176
     1
290
     0
176
     1
290
     0
176
     1
 90
       50
176
     1
 40
0.0
176
     1
 40
1.0
176
     1
 90
        0
176
     1
 62
    18
420
        0
176
     1
 90
       50
176
     1
 90
        3
176
     1
 62
     5
420
      255
176
     1
290
     0
176
     1
 90
       50
176
     1
 90
       50
176
     1
 90
       50
176
     1
290
     0
176
     1
 90
       50
176
     1
 62
   256
176
     0
 40
1.0
176
     0
 90
        2
176
     1
  1
strokes_ogs.tif
176
     1
290
     0
176
     1
 40
1.0
176
     1
 40
1.0
176
     1
  0
VISUALSTYLE
  5
62E
102
{ACAD_REACTORS
330
62D
102
}
330
62D
100
AcDbVisualStyle
  2
Flat
 70
     0
177
     3
291
     1
 70
    58
 90
        2
176
     1
 90
        1
176
     1
 90
        1
176
     1
 90
        2
176
     1
 40
0.6
176
     1
 40
30.0
176
     1
 62
     7
420
 16777215
176
     1
 90
        0
176
     1
 90
        0
176
     1
 62
     7
176
     1
 62
   257
176
     1
 90
        1
176
     1
 90
        1
176
     1
 40
1.0
176
     1
 90
        8
176
     1
 62
     7
176
     1
 40
1.0
176
     1
 90
        1
176
     1
 90
        6
176
     1
 90
        2
176
     1
 62
     7
176
     1
 90
        5
176
     1
 90
        0
176
     1
 90
        0
176
     1
290
     0
176
     1
 90
       13
176
     1
 40
0.0
176
     1
 90
        0
176
     1
290
     0
176
     1
290
     1
176
     1
290
     1
176
     1
290
     0
176
     1
290
     0
176
     1
290
     0
176
     1
290
     0
176
     1
290
     0
176
     1
290
     0
176
     1
 90
       50
176
     1
 40
0.0
176
     1
 40
1.0
176
     1
 90
        0
176
     1
 62
    18
420
        0
176
     1
 90
       50
176
     1
 90
        3
176
     1
 62
     5
420
      255
176
     1
290
     0
176
     1
 90
       50
176
     1
 90
       50
176
     1
 90
       50
176
     1
290
     0
176
     1
 90
       50
176
     1
 62
   256
176
     0
 40
1.0
176
     0
 90
        2
176
     1
  1
strokes_ogs.tif
176
     1
290
     0
176
     1
 40
1.0
176
     1
 40
1.0
176
     1
  0
VISUALSTYLE
  5
62F
102
{ACAD_REACTORS
330
62D
102
}
330
62D
100
AcDbVisualStyle
  2
FlatWithEdges
 70
     1
177
     3
291
     1
 70
    58
 90
        2
176
     1
 90
        1
176
     1
 90
        1
176
     1
 90
        2
176
     1
 40
0.6
176
     1
 40
30.0
176
     1
 62
     7
420
 16777215
176
     1
 90
        1
176
     1
 90
        0
176
     1
 62
     7
176
     1
 62
   257
176
     1
 90
        1
176
     1
 90
        1
176
     1
 40
1.0
176
     1
 90
        0
176
     1
 62
   257
176
     1
 40
1.0
176
     1
 90
        1
176
     1
 90
        6
176
     1
 90
        2
176
     1
 62
     7
176
     1
 90
        5
176
     1
 90
        0
176
     1
 90
        0
176
     1
290
     0
176
     1
 90
       13
176
     1
 40
0.0
176
     1
 90
        0
176
     1
290
     0
176
     1
290
     1
176
     1
290
     1
176
     1
290
     0
176
     1
290
     0
176
     1
290
     0
176
     1
290
     0
176
     1
290
     0
176
     1
290
     0
176
     1
 90
       50
176
     1
 40
0.0
176
     1
 40
1.0
176
     1
 90
        0
176
     1
 62
    18
420
        0
176
     1
 90
       50
176
     1
 90
        3
176
     1
 62
     5
420
      255
176
     1
290
     0
176
     1
 90
       50
176
     1
 90
       50
176
     1
 90
       50
176
     1
290
     0
176
     1
 90
       50
176
     1
 62
   256
176
     0
 40
1.0
176
     0
 90
        2
176
     1
  1
strokes_ogs.tif
176
     1
290
     0
176
     1
 40
1.0
176
     1
 40
1.0
176
     1
  0
VISUALSTYLE
  5
630
102
{ACAD_REACTORS
330
62D
102
}
330
62D
100
AcDbVisualStyle
  2
Gouraud
 70
     2
177
     3
291
     1
 70
    58
 90
        2
176
     1
 90
        2
176
     1
 90
        1
176
     1
 90
        2
176
     1
 40
0.6
176
     1
 40
30.0
176
     1
 62
     7
420
 16777215
176
     1
 90
        0
176
     1
 90
        0
176
     1
 62
     7
176
     1
 62
   257
176
     1
 90
        1
176
     1
 90
        1
176
     1
 40
1.0
176
     1
 90
        0
176
     1
 62
     7
176
     1
 40
1.0
176
     1
 90
        1
176
     1
 90
        6
176
     1
 90
        2
176
     1
 62
     7
176
     1
 90
        5
176
     1
 90
        0
176
     1
 90
        0
176
     1
290
     0
176
     1
 90
       13
176
     1
 40
0.0
176
     1
 90
        0
176
     1
290
     0
176
     1
290
     1
176
     1
290
     1
176
     1
290
     0
176
     1
290
     0
176
     1
290
     0
176
     1
290
     0
176
     1
290
     0
176
     1
290
     0
176
     1
 90
       50
176
     1
 40
0.0
176
     1
 40
1.0
176
     1
 90
        0
176
     1
 62
    18
420
        0
176
     1
 90
       50
176
     1
 90
        3
176
     1
 62
     5
420
      255
176
     1
290
     0
176
     1
 90
       50
176
     1
 90
       50
176
     1
 90
       50
176
     1
290
     0
176
     1
 90
       50
176
     1
 62
   256
176
     0
 40
1.0
176
     0
 90
        2
176
     1
  1
strokes_ogs.tif
176
     1
290
     0
176
     1
 40
1.0
176
     1
 40
1.0
176
     1
  0
VISUALSTYLE
  5
631
102
{ACAD_REACTORS
330
62D
102
}
330
62D
100
AcDbVisualStyle
  2
GouraudWithEdges
 70
     3
177
     3
291
     1
 70
    58
 90
        2
176
     1
 90
        2
176
     1
 90
        1
176
     1
 90
        2
176
     1
 40
0.6
176
     1
 40
30.0
176
     1
 62
     7
420
 16777215
176
     1
 90
        1
176
     1
 90
        0
176
     1
 62
     7
176
     1
 62
   257
176
     1
 90
        1
176
     1
 90
        1
176
     1
 40
1.0
176
     1
 90
        0
176
     1
 62
   257
176
     1
 40
1.0
176
     1
 90
        1
176
     1
 90
        6
176
     1
 90
        2
176
     1
 62
     7
176
     1
 90
        5
176
     1
 90
        0
176
     1
 90
        0
176
     1
290
     0
176
     1
 90
       13
176
     1
 40
0.0
176
     1
 90
        0
176
     1
290
     0
176
     1
290
     1
176
     1
290
     1
176
     1
290
     0
176
     1
290
     0
176
     1
290
     0
176
     1
290
     0
176
     1
290
     0
176
     1
290
     0
176
     1
 90
       50
176
     1
 40
0.0
176
     1
 40
1.0
176
     1
 90
        0
176
     1
 62
    18
420
        0
176
     1
 90
       50
176
     1
 90
        3
176
     1
 62
     5
420
      255
176
     1
290
     0
176
     1
 90
       50
176
     1
 90
       50
176
     1
 90
       50
176
     1
290
     0
176
     1
 90
       50
176
     1
 62
   256
176
     0
 40
1.0
176
     0
 90
        2
176
     1
  1
strokes_ogs.tif
176
     1
290
     0
176
     1
 40
1.0
176
     1
 40
1.0
176
     1
  0
VISUALSTYLE
  5
634
102
{ACAD_REACTORS
330
62D
102
}
330
62D
100
AcDbVisualStyle
  2
Hidden
 70
     6
177
     3
291
     0
 70
    58
 90
        1
176
     1
 90
        2
176
     1
 90
        2
176
     1
 90
        0
176
     1
 40
0.6
176
     1
 40
30.0
176
     1
 62
     7
420
 16777215
176
     1
 90
        2
176
     1
 90
        2
176
     1
 62
     7
176
     1
 62
   257
176
     1
 90
        2
176
     1
 90
        1
176
     1
 40
40.0
176
     1
 90
        0
176
     1
 62
   257
176
     1
 40
1.0
176
     1
 90
        1
176
     1
 90
        6
176
     1
 90
        2
176
     1
 62
     7
176
     1
 90
        3
176
     1
 90
        0
176
     1
 90
        0
176
     1
290
     0
176
     1
 90
        1
176
     1
 40
0.0
176
     1
 90
        0
176
     1
290
     0
176
     1
290
     1
176
     1
290
     1
176
     1
290
     0
176
     1
290
     0
176
     1
290
     0
176
     1
290
     0
176
     1
290
     0
176
     1
290
     0
176
     1
 90
       50
176
     1
 40
0.0
176
     1
 40
1.0
176
     1
 90
        0
176
     1
 62
    18
420
        0
176
     1
 90
       50
176
     1
 90
        3
176
     1
 62
     5
420
      255
176
     1
290
     0
176
     1
 90
       50
176
     1
 90
       50
176
     1
 90
       50
176
     1
290
     0
176
     1
 90
       50
176
     1
 62
   256
176
     0
 40
1.0
176
     0
 90
        2
176
     1
  1
strokes_ogs.tif
176
     1
290
     0
176
     1
 40
1.0
176
     1
 40
1.0
176
     1
  0
VISUALSTYLE
  5
63E
102
{ACAD_REACTORS
330
62D
102
}
330
62D
100
AcDbVisualStyle
  2
JitterOff
 70
    20
177
     3
291
     1
 70
    58
 90
        2
176
     0
 90
        2
176
     0
 90
        0
176
     0
 90
        0
176
     0
 40
0.6
176
     0
 40
30.0
176
     0
 62
     7
420
 16777215
176
     0
 90
        1
176
     0
 90
        4
176
     0
 62
     7
176
     0
 62
   257
176
     0
 90
        1
176
     0
 90
        1
176
     0
 40
1.0
176
     0
 90
       10
176
     2
 62
     7
176
     0
 40
1.0
176
     0
 90
        1
176
     0
 90
        6
176
     0
 90
        2
176
     0
 62
     7
176
     0
 90
        5
176
     0
 90
        0
176
     0
 90
        0
176
     0
290
     0
176
     0
 90
        1
176
     0
 40
0.0
176
     0
 90
        0
176
     0
290
     0
176
     0
290
     1
176
     0
290
     1
176
     0
290
     0
176
     0
290
     0
176
     0
290
     0
176
     0
290
     0
176
     0
290
     0
176
     0
290
     0
176
     0
 90
       50
176
     0
 40
0.0
176
     0
 40
1.0
176
     0
 90
        0
176
     0
 62
    18
420
        0
176
     0
 90
       50
176
     0
 90
        3
176
     0
 62
     5
420
      255
176
     0
290
     0
176
     0
 90
       50
176
     0
 90
       50
176
     0
 90
       50
176
     0
290
     0
176
     0
 90
       50
176
     0
 62
   256
176
     0
 40
1.0
176
     0
 90
        2
176
     0
  1
strokes_ogs.tif
176
     0
290
     0
176
     0
 40
1.0
176
     0
 40
1.0
176
     0
  0
VISUALSTYLE
  5
63B
102
{ACAD_REACTORS
330
62D
102
}
330
62D
100
AcDbVisualStyle
  2
Linepattern
 70
    14
177
     3
291
     1
 70
    58
 90
        2
176
     1
 90
        2
176
     1
 90
        0
176
     1
 90
        0
176
     1
 40
0.6
176
     1
 40
30.0
176
     1
 62
     7
420
 16777215
176
     1
 90
        1
176
     1
 90
        4
176
     1
 62
     7
176
     1
 62
   257
176
     1
 90
        7
176
     1
 90
        7
176
     1
 40
1.0
176
     1
 90
        8
176
     1
 62
     7
176
     1
 40
1.0
176
     1
 90
        1
176
     1
 90
        6
176
     1
 90
        2
176
     1
 62
     7
176
     1
 90
        5
176
     1
 90
        0
176
     1
 90
        0
176
     1
290
     0
176
     1
 90
        1
176
     1
 40
0.0
176
     1
 90
        0
176
     1
290
     0
176
     1
290
     1
176
     1
290
     1
176
     1
290
     0
176
     1
290
     0
176
     1
290
     0
176
     1
290
     0
176
     1
290
     0
176
     1
290
     0
176
     1
 90
       50
176
     1
 40
0.0
176
     1
 40
1.0
176
     1
 90
        0
176
     1
 62
    18
420
        0
176
     1
 90
       50
176
     1
 90
        3
176
     1
 62
     5
420
      255
176
     1
290
     0
176
     1
 90
       50
176
     1
 90
       50
176
     1
 90
       50
176
     1
290
     0
176
     1
 90
       50
176
     1
 62
   256
176
     0
 40
1.0
176
     0
 90
        2
176
     1
  1
strokes_ogs.tif
176
     1
290
     0
176
     1
 40
1.0
176
     1
 40
1.0
176
     1
  0
VISUALSTYLE
  5
63F
102
{ACAD_REACTORS
330
62D
102
}
330
62D
100
AcDbVisualStyle
  2
OverhangOff
 70
    21
177
     3
291
     1
 70
    58
 90
        2
176
     0
 90
        2
176
     0
 90
        0
176
     0
 90
        0
176
     0
 40
0.6
176
     0
 40
30.0
176
     0
 62
     7
420
 16777215
176
     0
 90
        1
176
     0
 90
        4
176
     0
 62
     7
176
     0
 62
   257
176
     0
 90
        1
176
     0
 90
        1
176
     0
 40
1.0
176
     0
 90
        9
176
     2
 62
     7
176
     0
 40
1.0
176
     0
 90
        1
176
     0
 90
        6
176
     0
 90
        2
176
     0
 62
     7
176
     0
 90
        5
176
     0
 90
        0
176
     0
 90
        0
176
     0
290
     0
176
     0
 90
        1
176
     0
 40
0.0
176
     0
 90
        0
176
     0
290
     0
176
     0
290
     1
176
     0
290
     1
176
     0
290
     0
176
     0
290
     0
176
     0
290
     0
176
     0
290
     0
176
     0
290
     0
176
     0
290
     0
176
     0
 90
       50
176
     0
 40
0.0
176
     0
 40
1.0
176
     0
 90
        0
176
     0
 62
    18
420
        0
176
     0
 90
       50
176
     0
 90
        3
176
     0
 62
     5
420
      255
176
     0
290
     0
176
     0
 90
       50
176
     0
 90
       50
176
     0
 90
       50
176
     0
290
     0
176
     0
 90
       50
176
     0
 62
   256
176
     0
 40
1.0
176
     0
 90
        2
176
     0
  1
strokes_ogs.tif
176
     0
290
     0
176
     0
 40
1.0
176
     0
 40
1.0
176
     0
  0
VISUALSTYLE
  5
636
102
{ACAD_REACTORS
330
62D
102
}
330
62D
100
AcDbVisualStyle
  2
Realistic
 70
     8
177
     3
291
     0
 70
    58
 90
        2
176
     1
 90
        3
176
     1
 90
        0
176
     1
 90
        2
176
     1
 40
0.6
176
     1
 40
30.0
176
     1
 62
     7
420
 16777215
176
     1
 90
        0
176
     1
 90
        0
176
     1
 62
     7
176
     1
 62
   257
176
     1
 90
        1
176
     1
 90
        1
176
     1
 40
1.0
176
     1
 90
        8
176
     1
 62
   257
176
     1
 40
1.0
176
     1
 90
        1
176
     1
 90
        6
176
     1
 90
        2
176
     1
 62
     7
176
     1
 90
        3
176
     1
 90
        0
176
     1
 90
        0
176
     1
290
     0
176
     1
 90
       13
176
     1
 40
0.0
176
     1
 90
        0
176
     1
290
     0
176
     1
290
     1
176
     1
290
     1
176
     1
290
     0
176
     1
290
     0
176
     1
290
     0
176
     1
290
     0
176
     1
290
     0
176
     1
290
     0
176
     1
 90
       50
176
     1
 40
0.0
176
     1
 40
1.0
176
     1
 90
        0
176
     1
 62
    18
420
        0
176
     1
 90
       50
176
     1
 90
        3
176
     1
 62
     5
420
      255
176
     1
290
     0
176
     1
 90
       50
176
     1
 90
       50
176
     1
 90
       50
176
     1
290
     0
176
     1
 90
       50
176
     1
 62
   256
176
     0
 40
1.0
176
     0
 90
        2
176
     1
  1
strokes_ogs.tif
176
     1
290
     0
176
     1
 40
1.0
176
     1
 40
1.0
176
     1
  0
VISUALSTYLE
  5
645
102
{ACAD_REACTORS
330
62D
102
}
330
62D
100
AcDbVisualStyle
  2
Shaded
 70
    27
177
     3
291
     0
 70
    58
 90
        2
176
     1
 90
        2
176
     1
 90
        1
176
     1
 90
        2
176
     1
 40
0.6
176
     1
 40
30.0
176
     1
 62
     7
420
 16777215
176
     1
 90
        0
176
     1
 90
        4
176
     1
 62
     7
176
     1
 62
   257
176
     1
 90
        1
176
     1
 90
        1
176
     1
 40
1.0
176
     1
 90
        8
176
     1
 62
   257
176
     1
 40
1.0
176
     1
 90
        1
176
     1
 90
        6
176
     1
 90
        2
176
     1
 62
     8
420
  7895160
176
     1
 90
        3
176
     1
 90
        0
176
     1
 90
        0
176
     1
290
     0
176
     1
 90
        5
176
     1
 40
0.0
176
     1
 90
        0
176
     1
290
     0
176
     1
290
     1
176
     1
290
     1
176
     1
290
     0
176
     1
290
     0
176
     1
290
     0
176
     1
290
     0
176
     1
290
     0
176
     1
290
     0
176
     1
 90
       50
176
     1
 40
0.0
176
     1
 40
1.0
176
     1
 90
        0
176
     1
 62
    18
420
        0
176
     1
 90
       50
176
     1
 90
        3
176
     1
 62
     5
420
      255
176
     1
290
     0
176
     1
 90
       50
176
     1
 90
       50
176
     1
 90
       50
176
     1
290
     0
176
     1
 90
       50
176
     1
 62
   256
176
     0
 40
1.0
176
     0
 90
        2
176
     1
  1
strokes_ogs.tif
176
     1
290
     0
176
     1
 40
1.0
176
     1
 40
1.0
176
     1
  0
VISUALSTYLE
  5
644
102
{ACAD_REACTORS
330
62D
102
}
330
62D
100
AcDbVisualStyle
  2
Shaded with edges
 70
    26
177
     3
291
     0
 70
    58
 90
        2
176
     1
 90
        2
176
     1
 90
        1
176
     1
 90
        2
176
     1
 40
0.6
176
     1
 40
30.0
176
     1
 62
     7
420
 16777215
176
     1
 90
        1
176
     1
 90
       10
176
     1
 62
     7
176
     1
 62
   257
176
     1
 90
        2
176
     1
 90
        1
176
     1
 40
1.0
176
     1
 90
        8
176
     1
 62
   257
176
     1
 40
1.0
176
     1
 90
        1
176
     1
 90
        6
176
     1
 90
        2
176
     1
 62
     7
176
     1
 90
        3
176
     1
 90
        0
176
     1
 90
        0
176
     1
290
     0
176
     1
 90
        5
176
     1
 40
0.0
176
     1
 90
        0
176
     1
290
     0
176
     1
290
     1
176
     1
290
     1
176
     1
290
     0
176
     1
290
     0
176
     1
290
     0
176
     1
290
     0
176
     1
290
     0
176
     1
290
     0
176
     1
 90
       50
176
     1
 40
0.0
176
     1
 40
1.0
176
     1
 90
        0
176
     1
 62
    18
420
        0
176
     1
 90
       50
176
     1
 90
        3
176
     1
 62
     5
420
      255
176
     1
290
     0
176
     1
 90
       50
176
     1
 90
       50
176
     1
 90
       50
176
     1
290
     0
176
     1
 90
       50
176
     1
 62
   256
176
     0
 40
1.0
176
     0
 90
        2
176
     1
  1
strokes_ogs.tif
176
     1
290
     0
176
     1
 40
1.0
176
     1
 40
1.0
176
     1
  0
VISUALSTYLE
  5
641
102
{ACAD_REACTORS
330
62D
102
}
330
62D
100
AcDbVisualStyle
  2
Shades of Gray
 70
    23
177
     3
291
     0
 70
    58
 90
        2
176
     1
 90
        2
176
     1
 90
        3
176
     1
 90
        0
176
     1
 40
0.6
176
     1
 40
30.0
176
     1
 62
     7
420
 16777215
176
     1
 90
        2
176
     1
 90
        2
176
     1
 62
     7
176
     1
 62
     7
176
     1
 90
        1
176
     1
 90
        1
176
     1
 40
40.0
176
     1
 90
        8
176
     1
 62
     7
176
     1
 40
1.0
176
     1
 90
        1
176
     1
 90
        6
176
     1
 90
        2
176
     1
 62
     7
176
     1
 90
        3
176
     1
 90
        0
176
     1
 90
        0
176
     1
290
     0
176
     1
 90
        1
176
     1
 40
0.0
176
     1
 90
        0
176
     1
290
     0
176
     1
290
     1
176
     1
290
     1
176
     1
290
     0
176
     1
290
     0
176
     1
290
     0
176
     1
290
     0
176
     1
290
     0
176
     1
290
     0
176
     1
 90
       50
176
     1
 40
0.0
176
     1
 40
1.0
176
     1
 90
        0
176
     1
 62
    18
420
        0
176
     1
 90
       50
176
     1
 90
        3
176
     1
 62
     5
420
      255
176
     1
290
     0
176
     1
 90
       50
176
     1
 90
       50
176
     1
 90
       50
176
     1
290
     0
176
     1
 90
       50
176
     1
 62
   256
176
     0
 40
1.0
176
     0
 90
        2
176
     1
  1
strokes_ogs.tif
176
     1
290
     0
176
     1
 40
1.0
176
     1
 40
1.0
176
     1
  0
VISUALSTYLE
  5
642
102
{ACAD_REACTORS
330
62D
102
}
330
62D
100
AcDbVisualStyle
  2
Sketchy
 70
    24
177
     3
291
     0
 70
    58
 90
        1
176
     1
 90
        2
176
     1
 90
        2
176
     1
 90
        0
176
     1
 40
0.6
176
     1
 40
30.0
176
     1
 62
     7
420
 16777215
176
     1
 90
        2
176
     1
 90
        2
176
     1
 62
     7
176
     1
 62
     7
176
     1
 90
        1
176
     1
 90
        1
176
     1
 40
40.0
176
     1
 90
       11
176
     1
 62
     7
176
     1
 40
1.0
176
     1
 90
        1
176
     1
 90
        6
176
     1
 90
        2
176
     1
 62
     7
176
     1
 90
        6
176
     1
 90
        0
176
     1
 90
        0
176
     1
290
     0
176
     1
 90
        1
176
     1
 40
0.0
176
     1
 90
        0
176
     1
290
     0
176
     1
290
     1
176
     1
290
     1
176
     1
290
     0
176
     1
290
     0
176
     1
290
     0
176
     1
290
     0
176
     1
290
     0
176
     1
290
     0
176
     1
 90
       50
176
     1
 40
0.0
176
     1
 40
1.0
176
     1
 90
        0
176
     1
 62
    18
420
        0
176
     1
 90
       50
176
     1
 90
        3
176
     1
 62
     5
420
      255
176
     1
290
     0
176
     1
 90
       50
176
     1
 90
       50
176
     1
 90
       50
176
     1
290
     0
176
     1
 90
       50
176
     1
 62
   256
176
     0
 40
1.0
176
     0
 90
        2
176
     1
  1
strokes_ogs.tif
176
     1
290
     0
176
     1
 40
1.0
176
     1
 40
1.0
176
     1
  0
VISUALSTYLE
  5
63A
102
{ACAD_REACTORS
330
62D
102
}
330
62D
100
AcDbVisualStyle
  2
Thicken
 70
    13
177
     3
291
     1
 70
    58
 90
        2
176
     1
 90
        2
176
     1
 90
        0
176
     1
 90
        0
176
     1
 40
0.6
176
     1
 40
30.0
176
     1
 62
     7
420
 16777215
176
     1
 90
        1
176
     1
 90
        4
176
     1
 62
     7
176
     1
 62
   257
176
     1
 90
        1
176
     1
 90
        1
176
     1
 40
1.0
176
     1
 90
       12
176
     1
 62
     7
176
     1
 40
1.0
176
     1
 90
        1
176
     1
 90
        6
176
     1
 90
        2
176
     1
 62
     7
176
     1
 90
        5
176
     1
 90
        0
176
     1
 90
        0
176
     1
290
     0
176
     1
 90
        1
176
     1
 40
0.0
176
     1
 90
        0
176
     1
290
     0
176
     1
290
     1
176
     1
290
     1
176
     1
290
     0
176
     1
290
     0
176
     1
290
     0
176
     1
290
     0
176
     1
290
     0
176
     1
290
     0
176
     1
 90
       50
176
     1
 40
0.0
176
     1
 40
1.0
176
     1
 90
        0
176
     1
 62
    18
420
        0
176
     1
 90
       50
176
     1
 90
        3
176
     1
 62
     5
420
      255
176
     1
290
     0
176
     1
 90
       50
176
     1
 90
       50
176
     1
 90
       50
176
     1
290
     0
176
     1
 90
       50
176
     1
 62
   256
176
     0
 40
1.0
176
     0
 90
        2
176
     1
  1
strokes_ogs.tif
176
     1
290
     0
176
     1
 40
1.0
176
     1
 40
1.0
176
     1
  0
VISUALSTYLE
  5
633
102
{ACAD_REACTORS
330
62D
102
}
330
62D
100
AcDbVisualStyle
  2
Wireframe
 70
     5
177
     3
291
     0
 70
    58
 90
        0
176
     1
 90
        2
176
     1
 90
        0
176
     1
 90
        0
176
     1
 40
0.6
176
     1
 40
30.0
176
     1
 62
     7
420
 16777215
176
     1
 90
        1
176
     1
 90
        4
176
     1
 62
     7
176
     1
 62
   257
176
     1
 90
        1
176
     1
 90
        1
176
     1
 40
1.0
176
     1
 90
        0
176
     1
 62
   257
176
     1
 40
1.0
176
     1
 90
        1
176
     1
 90
        6
176
     1
 90
        2
176
     1
 62
     7
176
     1
 90
        3
176
     1
 90
        0
176
     1
 90
        0
176
     1
290
     0
176
     1
 90
        1
176
     1
 40
0.0
176
     1
 90
        0
176
     1
290
     0
176
     1
290
     1
176
     1
290
     1
176
     1
290
     0
176
     1
290
     0
176
     1
290
     0
176
     1
290
     0
176
     1
290
     0
176
     1
290
     0
176
     1
 90
       50
176
     1
 40
0.0
176
     1
 40
1.0
176
     1
 90
        0
176
     1
 62
    18
420
        0
176
     1
 90
       50
176
     1
 90
        3
176
     1
 62
     5
420
      255
176
     1
290
     0
176
     1
 90
       50
176
     1
 90
       50
176
     1
 90
       50
176
     1
290
     0
176
     1
 90
       50
176
     1
 62
   256
176
     0
 40
1.0
176
     0
 90
        2
176
     1
  1
strokes_ogs.tif
176
     1
290
     0
176
     1
 40
1.0
176
     1
 40
1.0
176
     1
  0
VISUALSTYLE
  5
643
102
{ACAD_REACTORS
330
62D
102
}
330
62D
100
AcDbVisualStyle
  2
X-Ray
 70
    25
177
     3
291
     0
 70
    58
 90
        2
176
     1
 90
        2
176
     1
 90
        1
176
     1
 90
        1
176
     1
 40
0.5
176
     1
 40
30.0
176
     1
 62
     7
420
 16777215
176
     1
 90
        1
176
     1
 90
        0
176
     1
 62
     7
176
     1
 62
   257
176
     1
 90
        1
176
     1
 90
        1
176
     1
 40
1.0
176
     1
 90
        8
176
     1
 62
     7
176
     1
 40
1.0
176
     1
 90
        1
176
     1
 90
        6
176
     1
 90
        2
176
     1
 62
     7
176
     1
 90
        3
176
     1
 90
        0
176
     1
 90
        0
176
     1
290
     0
176
     1
 90
       13
176
     1
 40
0.0
176
     1
 90
        0
176
     1
290
     0
176
     1
290
     1
176
     1
290
     1
176
     1
290
     0
176
     1
290
     0
176
     1
290
     0
176
     1
290
     0
176
     1
290
     0
176
     1
290
     0
176
     1
 90
       50
176
     1
 40
0.0
176
     1
 40
1.0
176
     1
 90
        0
176
     1
 62
    18
420
        0
176
     1
 90
       50
176
     1
 90
        3
176
     1
 62
     5
420
      255
176
     1
290
     0
176
     1
 90
       50
176
     1
 90
       50
176
     1
 90
       50
176
     1
290
     0
176
     1
 90
       50
176
     1
 62
   256
176
     0
 40
1.0
176
     0
 90
        2
176
     1
  1
strokes_ogs.tif
176
     1
290
     0
176
     1
 40
1.0
176
     1
 40
1.0
176
     1
  0
DICTIONARYVAR
  5
652
102
{ACAD_REACTORS
330
651
102
}
330
651
100
DictionaryVariables
280
     0
  1
1:1
  0
DICTIONARYVAR
  5
657
102
{ACAD_REACTORS
330
651
102
}
330
651
100
DictionaryVariables
280
     0
  1
Standard
  0
DICTIONARYVAR
  5
656
102
{ACAD_REACTORS
330
651
102
}
330
651
100
DictionaryVariables
280
     0
  1
Standard
  0
DICTIONARYVAR
  5
658
102
{ACAD_REACTORS
330
651
102
}
330
651
100
DictionaryVariables
280
     0
  1
0
  0
DICTIONARY
  5
653
330
64B
100
AcDbDictionary
280
     1
281
     1
  3
ACAD_ROUNDTRIP_2008_TABLESTYLE_CELLSTYLEMAP
360
654
  0
CELLSTYLEMAP
  5
654
102
{ACAD_REACTORS
330
653
102
}
330
653
100
AcDbCellStyleMap
 90
        3
300
CELLSTYLE
  1
TABLEFORMAT_BEGIN
 90
        5
170
     1
 91
        0
 92
    32768
 62
   257
 93
        1
300
CONTENTFORMAT
  1
CONTENTFORMAT_BEGIN
 90
        0
 91
        0
 92
        4
 93
        0
300

 40
0.0
140
1.0
 94
        5
 62
     0
340
11
144
6.0
309
CONTENTFORMAT_END
171
     1
301
MARGIN
  1
CELLMARGIN_BEGIN
 40
1.5
 40
1.5
 40
1.5
 40
1.5
 40
1.5
 40
1.5
309
CELLMARGIN_END
 94
        6
 95
        1
302
GRIDFORMAT
  1
GRIDFORMAT_BEGIN
 90
        0
 91
        1
 62
     0
 92
       -2
340
14
 93
        0
 40
0.045
309
GRIDFORMAT_END
 95
        2
302
GRIDFORMAT
  1
GRIDFORMAT_BEGIN
 90
        0
 91
        1
 62
     0
 92
       -2
340
14
 93
        0
 40
0.045
309
GRIDFORMAT_END
 95
        4
302
GRIDFORMAT
  1
GRIDFORMAT_BEGIN
 90
        0
 91
        1
 62
     0
 92
       -2
340
14
 93
        0
 40
0.045
309
GRIDFORMAT_END
 95
        8
302
GRIDFORMAT
  1
GRIDFORMAT_BEGIN
 90
        0
 91
        1
 62
     0
 92
       -2
340
14
 93
        0
 40
0.045
309
GRIDFORMAT_END
 95
       16
302
GRIDFORMAT
  1
GRIDFORMAT_BEGIN
 90
        0
 91
        1
 62
     0
 92
       -2
340
14
 93
        0
 40
0.045
309
GRIDFORMAT_END
 95
       32
302
GRIDFORMAT
  1
GRIDFORMAT_BEGIN
 90
        0
 91
        1
 62
     0
 92
       -2
340
14
 93
        0
 40
0.045
309
GRIDFORMAT_END
309
TABLEFORMAT_END
  1
CELLSTYLE_BEGIN
 90
        1
 91
        1
300
_TITLE
309
CELLSTYLE_END
300
CELLSTYLE
  1
TABLEFORMAT_BEGIN
 90
        5
170
     1
 91
        0
 92
        0
 62
   257
 93
        1
300
CONTENTFORMAT
  1
CONTENTFORMAT_BEGIN
 90
        0
 91
        0
 92
        4
 93
        0
300

 40
0.0
140
1.0
 94
        5
 62
     0
340
11
144
4.5
309
CONTENTFORMAT_END
171
     1
301
MARGIN
  1
CELLMARGIN_BEGIN
 40
1.5
 40
1.5
 40
1.5
 40
1.5
 40
1.5
 40
1.5
309
CELLMARGIN_END
 94
        6
 95
        1
302
GRIDFORMAT
  1
GRIDFORMAT_BEGIN
 90
        0
 91
        1
 62
     0
 92
       -2
340
14
 93
        0
 40
0.045
309
GRIDFORMAT_END
 95
        2
302
GRIDFORMAT
  1
GRIDFORMAT_BEGIN
 90
        0
 91
        1
 62
     0
 92
       -2
340
14
 93
        0
 40
0.045
309
GRIDFORMAT_END
 95
        4
302
GRIDFORMAT
  1
GRIDFORMAT_BEGIN
 90
        0
 91
        1
 62
     0
 92
       -2
340
14
 93
        0
 40
0.045
309
GRIDFORMAT_END
 95
        8
302
GRIDFORMAT
  1
GRIDFORMAT_BEGIN
 90
        0
 91
        1
 62
     0
 92
       -2
340
14
 93
        0
 40
0.045
309
GRIDFORMAT_END
 95
       16
302
GRIDFORMAT
  1
GRIDFORMAT_BEGIN
 90
        0
 91
        1
 62
     0
 92
       -2
340
14
 93
        0
 40
0.045
309
GRIDFORMAT_END
 95
       32
302
GRIDFORMAT
  1
GRIDFORMAT_BEGIN
 90
        0
 91
        1
 62
     0
 92
       -2
340
14
 93
        0
 40
0.045
309
GRIDFORMAT_END
309
TABLEFORMAT_END
  1
CELLSTYLE_BEGIN
 90
        2
 91
        1
300
_HEADER
309
CELLSTYLE_END
300
CELLSTYLE
  1
TABLEFORMAT_BEGIN
 90
        5
170
     1
 91
        0
 92
        0
 62
   257
 93
        1
300
CONTENTFORMAT
  1
CONTENTFORMAT_BEGIN
 90
        0
 91
        0
 92
        4
 93
        0
300

 40
0.0
140
1.0
 94
        2
 62
     0
340
11
144
4.5
309
CONTENTFORMAT_END
171
     1
301
MARGIN
  1
CELLMARGIN_BEGIN
 40
1.5
 40
1.5
 40
1.5
 40
1.5
 40
1.5
 40
1.5
309
CELLMARGIN_END
 94
        6
 95
        1
302
GRIDFORMAT
  1
GRIDFORMAT_BEGIN
 90
        0
 91
        1
 62
     0
 92
       -2
340
14
 93
        0
 40
0.045
309
GRIDFORMAT_END
 95
        2
302
GRIDFORMAT
  1
GRIDFORMAT_BEGIN
 90
        0
 91
        1
 62
     0
 92
       -2
340
14
 93
        0
 40
0.045
309
GRIDFORMAT_END
 95
        4
302
GRIDFORMAT
  1
GRIDFORMAT_BEGIN
 90
        0
 91
        1
 62
     0
 92
       -2
340
14
 93
        0
 40
0.045
309
GRIDFORMAT_END
 95
        8
302
GRIDFORMAT
  1
GRIDFORMAT_BEGIN
 90
        0
 91
        1
 62
     0
 92
       -2
340
14
 93
        0
 40
0.045
309
GRIDFORMAT_END
 95
       16
302
GRIDFORMAT
  1
GRIDFORMAT_BEGIN
 90
        0
 91
        1
 62
     0
 92
       -2
340
14
 93
        0
 40
0.045
309
GRIDFORMAT_END
 95
       32
302
GRIDFORMAT
  1
GRIDFORMAT_BEGIN
 90
        0
 91
        1
 62
     0
 92
       -2
340
14
 93
        0
 40
0.045
309
GRIDFORMAT_END
309
TABLEFORMAT_END
  1
CELLSTYLE_BEGIN
 90
        3
 91
        2
300
_DATA
309
CELLSTYLE_END
  0
ENDSEC
  0
EOF
