  0
SECTION
  2
HEADER
  9
$ACADVER
  1
AC1015
  9
$ACADMAINTVER
 70
     6
  9
$DWGCODEPAGE
  3
ANSI_1252
  9
$INSBASE
 10
0.0
 20
0.0
 30
0.0
  9
$EXTMIN
 10
-1300.871269
 20
-915.411046
 30
0.0
  9
$EXTMAX
 10
1669.128731
 20
1184.588954
 30
0.0
  9
$LIMMIN
 10
-1300.871269
 20
-915.411046
  9
$LIMMAX
 10
1669.128731
 20
1184.588954
  9
$ORTHOMODE
 70
     0
  9
$REGENMODE
 70
     1
  9
$FILLMODE
 70
     1
  9
$QTEXTMODE
 70
     0
  9
$MIRRTEXT
 70
     1
  9
$LTSCALE
 40
5.0
  9
$ATTMODE
 70
     1
  9
$TEXTSIZE
 40
2.5
  9
$TRACEWID
 40
1.0
  9
$TEXTSTYLE
  7
Standard
  9
$CLAYER
  8
0
  9
$CELTYPE
  6
ByLayer
  9
$CECOLOR
 62
     7
  9
$CELTSCALE
 40
1.0
  9
$DISPSILH
 70
     0
  9
$DIMSCALE
 40
5.0
  9
$DIMASZ
 40
3.5
  9
$DIMEXO
 40
0.625
  9
$DIMDLI
 40
3.75
  9
$DIMRND
 40
0.0
  9
$DIMDLE
 40
0.0
  9
$DIMEXE
 40
1.25
  9
$DIMTP
 40
0.0
  9
$DIMTM
 40
0.0
  9
$DIMTXT
 40
3.5
  9
$DIMCEN
 40
2.5
  9
$DIMTSZ
 40
0.0
  9
$DIMTOL
 70
     0
  9
$DIMLIM
 70
     0
  9
$DIMTIH
 70
     0
  9
$DIMTOH
 70
     0
  9
$DIMSE1
 70
     0
  9
$DIMSE2
 70
     0
  9
$DIMTAD
 70
     1
  9
$DIMZIN
 70
     8
  9
$DIMBLK
  1

  9
$DIMASO
 70
     1
  9
$DIMSHO
 70
     1
  9
$DIMPOST
  1

  9
$DIMAPOST
  1

  9
$DIMALT
 70
     0
  9
$DIMALTD
 70
     3
  9
$DIMALTF
 40
0.03937
  9
$DIMLFAC
 40
1.0
  9
$DIMTOFL
 70
     1
  9
$DIMTVP
 40
0.0
  9
$DIMTIX
 70
     0
  9
$DIMSOXD
 70
     0
  9
$DIMSAH
 70
     0
  9
$DIMBLK1
  1

  9
$DIMBLK2
  1

  9
$DIMSTYLE
  2
ISO-25
  9
$DIMCLRD
 70
     0
  9
$DIMCLRE
 70
     0
  9
$DIMCLRT
 70
     0
  9
$DIMTFAC
 40
1.0
  9
$DIMGAP
 40
0.625
  9
$DIMJUST
 70
     0
  9
$DIMSD1
 70
     0
  9
$DIMSD2
 70
     0
  9
$DIMTOLJ
 70
     0
  9
$DIMTZIN
 70
     8
  9
$DIMALTZ
 70
     0
  9
$DIMALTTZ
 70
     0
  9
$DIMUPT
 70
     0
  9
$DIMDEC
 70
     2
  9
$DIMTDEC
 70
     2
  9
$DIMALTU
 70
     2
  9
$DIMALTTD
 70
     3
  9
$DIMTXSTY
  7
Standard
  9
$DIMAUNIT
 70
     0
  9
$DIMADEC
 70
     0
  9
$DIMALTRND
 40
0.0
  9
$DIMAZIN
 70
     0
  9
$DIMDSEP
 70
    44
  9
$DIMATFIT
 70
     3
  9
$DIMFRAC
 70
     0
  9
$DIMLDRBLK
  1

  9
$DIMLUNIT
 70
     2
  9
$DIMLWD
 70
    -2
  9
$DIMLWE
 70
    -2
  9
$DIMTMOVE
 70
     0
  9
$LUNITS
 70
     2
  9
$LUPREC
 70
     4
  9
$SKETCHINC
 40
1.0
  9
$FILLETRAD
 40
10.0
  9
$AUNITS
 70
     0
  9
$AUPREC
 70
     0
  9
$MENU
  1
.
  9
$ELEVATION
 40
0.0
  9
$PELEVATION
 40
0.0
  9
$THICKNESS
 40
0.0
  9
$LIMCHECK
 70
     0
  9
$CHAMFERA
 40
10.0
  9
$CHAMFERB
 40
10.0
  9
$CHAMFERC
 40
20.0
  9
$CHAMFERD
 40
0.0
  9
$SKPOLY
 70
     0
  9
$TDCREATE
 40
2456015.509372477
  9
$TDUCREATE
 40
2456015.426039144
  9
$TDUPDATE
 40
2456015.509372489
  9
$TDUUPDATE
 40
2456015.426039155
  9
$TDINDWG
 40
0.0000000116
  9
$TDUSRTIMER
 40
0.0000000116
  9
$USRTIMER
 70
     1
  9
$ANGBASE
 50
0.0
  9
$ANGDIR
 70
     0
  9
$PDMODE
 70
     0
  9
$PDSIZE
 40
0.0
  9
$PLINEWID
 40
0.0
  9
$SPLFRAME
 70
     0
  9
$SPLINETYPE
 70
     6
  9
$SPLINESEGS
 70
     8
  9
$HANDSEED
  5
778
  9
$SURFTAB1
 70
     6
  9
$SURFTAB2
 70
     6
  9
$SURFTYPE
 70
     6
  9
$SURFU
 70
     6
  9
$SURFV
 70
     6
  9
$UCSBASE
  2

  9
$UCSNAME
  2

  9
$UCSORG
 10
0.0
 20
0.0
 30
0.0
  9
$UCSXDIR
 10
1.0
 20
0.0
 30
0.0
  9
$UCSYDIR
 10
0.0
 20
1.0
 30
0.0
  9
$UCSORTHOREF
  2

  9
$UCSORTHOVIEW
 70
     0
  9
$UCSORGTOP
 10
0.0
 20
0.0
 30
0.0
  9
$UCSORGBOTTOM
 10
0.0
 20
0.0
 30
0.0
  9
$UCSORGLEFT
 10
0.0
 20
0.0
 30
0.0
  9
$UCSORGRIGHT
 10
0.0
 20
0.0
 30
0.0
  9
$UCSORGFRONT
 10
0.0
 20
0.0
 30
0.0
  9
$UCSORGBACK
 10
0.0
 20
0.0
 30
0.0
  9
$PUCSBASE
  2

  9
$PUCSNAME
  2

  9
$PUCSORG
 10
0.0
 20
0.0
 30
0.0
  9
$PUCSXDIR
 10
1.0
 20
0.0
 30
0.0
  9
$PUCSYDIR
 10
0.0
 20
1.0
 30
0.0
  9
$PUCSORTHOREF
  2

  9
$PUCSORTHOVIEW
 70
     0
  9
$PUCSORGTOP
 10
0.0
 20
0.0
 30
0.0
  9
$PUCSORGBOTTOM
 10
0.0
 20
0.0
 30
0.0
  9
$PUCSORGLEFT
 10
0.0
 20
0.0
 30
0.0
  9
$PUCSORGRIGHT
 10
0.0
 20
0.0
 30
0.0
  9
$PUCSORGFRONT
 10
0.0
 20
0.0
 30
0.0
  9
$PUCSORGBACK
 10
0.0
 20
0.0
 30
0.0
  9
$USERI1
 70
     0
  9
$USERI2
 70
     0
  9
$USERI3
 70
     0
  9
$USERI4
 70
     0
  9
$USERI5
 70
     0
  9
$USERR1
 40
0.0
  9
$USERR2
 40
0.0
  9
$USERR3
 40
0.0
  9
$USERR4
 40
0.0
  9
$USERR5
 40
0.0
  9
$WORLDVIEW
 70
     1
  9
$SHADEDGE
 70
     3
  9
$SHADEDIF
 70
    70
  9
$TILEMODE
 70
     1
  9
$MAXACTVP
 70
    64
  9
$PINSBASE
 10
0.0
 20
0.0
 30
0.0
  9
$PLIMCHECK
 70
     0
  9
$PEXTMIN
 10
-1300.871269
 20
-915.411046
 30
0.0
  9
$PEXTMAX
 10
1669.128731
 20
1184.588954
 30
0.0
  9
$PLIMMIN
 10
-1300.871269
 20
-915.411046
  9
$PLIMMAX
 10
1669.128731
 20
1184.588954
  9
$UNITMODE
 70
     0
  9
$VISRETAIN
 70
     1
  9
$PLINEGEN
 70
     0
  9
$PSLTSCALE
 70
     1
  9
$TREEDEPTH
 70
  3020
  9
$CMLSTYLE
  2
Standard
  9
$CMLJUST
 70
     0
  9
$CMLSCALE
 40
20.0
  9
$PROXYGRAPHICS
 70
     1
  9
$MEASUREMENT
 70
     1
  9
$CELWEIGHT
370
    -1
  9
$ENDCAPS
280
     0
  9
$JOINSTYLE
280
     0
  9
$LWDISPLAY
290
     0
  9
$INSUNITS
 70
     4
  9
$HYPERLINKBASE
  1

  9
$STYLESHEET
  1

  9
$XEDIT
290
     1
  9
$CEPSNTYPE
380
     0
  9
$PSTYLEMODE
290
     1
  9
$FINGERPRINTGUID
  2
{FAEB1C30-E019-11D5-929B-00C0DF256EC4}
  9
$VERSIONGUID
  2
{FAEB1C32-E019-11D5-929B-00C0DF256EC4}
  9
$EXTNAMES
290
     1
  9
$PSVPSCALE
 40
0.0
  9
$OLESTARTUP
290
     0
  0
ENDSEC
  0
SECTION
  2
CLASSES
  0
CLASS
  1
ACDBDICTIONARYWDFLT
  2
AcDbDictionaryWithDefault
  3
ObjectDBX Classes
 90
        0
280
     0
281
     0
  0
CLASS
  1
ACDBPLACEHOLDER
  2
AcDbPlaceHolder
  3
ObjectDBX Classes
 90
        0
280
     0
281
     0
  0
CLASS
  1
LAYOUT
  2
AcDbLayout
  3
ObjectDBX Classes
 90
        0
280
     0
281
     0
  0
ENDSEC
  0
SECTION
  2
TABLES
  0
TABLE
  2
VPORT
  5
8
330
0
100
AcDbSymbolTable
 70
     2
  0
VPORT
  5
29
330
8
100
AcDbSymbolTableRecord
100
AcDbViewportTableRecord
  2
*ACTIVE
 70
     0
 10
0.0
 20
0.0
 11
1.0
 21
1.0
 12
184.128731
 22
134.588954
 13
0.0
 23
0.0
 14
1.0
 24
1.0
 15
0.0
 25
0.0
 16
0.0
 26
0.0
 36
1.0
 17
0.0
 27
0.0
 37
0.0
 40
2100.0
 41
1.414286
 42
50.0
 43
0.0
 44
0.0
 50
0.0
 51
0.0
 71
    16
 72
   100
 73
     1
 74
     0
 75
     0
 76
     0
 77
     0
 78
     0
281
     0
 65
     0
110
0.0
120
0.0
130
0.0
111
1.0
121
0.0
131
0.0
112
0.0
122
1.0
132
0.0
 79
     0
146
0.0
  0
ENDTAB
  0
TABLE
  2
LTYPE
  5
5
330
0
100
AcDbSymbolTable
 70
     3
  0
LTYPE
  5
14
330
5
100
AcDbSymbolTableRecord
100
AcDbLinetypeTableRecord
  2
ByBlock
 70
     0
  3

 72
    65
 73
     0
 40
0.0
  0
LTYPE
  5
15
330
5
100
AcDbSymbolTableRecord
100
AcDbLinetypeTableRecord
  2
ByLayer
 70
     0
  3

 72
    65
 73
     0
 40
0.0
  0
LTYPE
  5
16
330
5
100
AcDbSymbolTableRecord
100
AcDbLinetypeTableRecord
  2
Continuous
 70
     0
  3
Solid line
 72
    65
 73
     0
 40
0.0
  0
LTYPE
  5
2A
330
5
100
AcDbSymbolTableRecord
100
AcDbLinetypeTableRecord
  2
DASHED
 70
     0
  3
__ __ __ __ __
 72
    65
 73
     2
 40
6.25
 49
5.0
 74
     4
 75
     0
340
0
 46
1.0
 50
0.0
 44
0.0
 45
0.0
 49
-1.25
 74
     4
 75
     0
340
0
 46
1.0
 50
0.0
 44
0.0
 45
0.0
  0
LTYPE
  5
110
330
5
100
AcDbSymbolTableRecord
100
AcDbLinetypeTableRecord
  2
DASHDOT
 70
     0
  3
__ . __ . __ . __ . __
 72
    65
 73
     4
 40
7.5
 49
5.0
 74
     4
 75
     0
340
0
 46
1.0
 50
0.0
 44
0.0
 45
0.0
 49
-1.25
 74
     4
 75
     0
340
0
 46
1.0
 50
0.0
 44
0.0
 45
0.0
 49
0.0
 74
     4
 75
     0
340
0
 46
1.0
 50
0.0
 44
0.0
 45
0.0
 49
-1.25
 74
     4
 75
     0
340
0
 46
1.0
 50
0.0
 44
0.0
 45
0.0
  0
ENDTAB
  0
TABLE
  2
LAYER
  5
2
330
0
100
AcDbSymbolTable
 70
     7
  0
LAYER
  5
10
330
2
100
AcDbSymbolTableRecord
100
AcDbLayerTableRecord
  2
0
 70
     0
 62
     7
  6
Continuous
370
    -3
390
F
  0
LAYER
  5
2B
330
2
100
AcDbSymbolTableRecord
100
AcDbLayerTableRecord
  2
LC-INFO-1-5-mm-A2-0
 70
     1
 62
     7
  6
ByBlock
370
    -3
390
F
  0
LAYER
  5
2C
330
2
100
AcDbSymbolTableRecord
100
AcDbLayerTableRecord
  2
LC-CUT-HIDDEN
 70
     0
 62
     7
  6
DASHED
370
    -3
390
F
  0
LAYER
  5
2D
330
2
100
AcDbSymbolTableRecord
100
AcDbLayerTableRecord
  2
LC-VIEWPORT
 70
     0
 62
     7
  6
ByBlock
370
    -3
390
F
  0
LAYER
  5
2E
330
2
100
AcDbSymbolTableRecord
100
AcDbLayerTableRecord
  2
LC-3D-HIDDEN
 70
     0
 62
     9
  6
DASHED
370
    -3
390
F
  0
LAYER
  5
30
330
2
100
AcDbSymbolTableRecord
100
AcDbLayerTableRecord
  2
LC-001-100-D00-0
 70
     0
 62
     1
  6
ByBlock
370
    -3
390
F
  0
LAYER
  5
102
330
2
100
AcDbSymbolTableRecord
100
AcDbLayerTableRecord
  2
Defpoints
 70
     0
 62
     7
  6
Continuous
290
     0
370
    -3
390
F
  0
ENDTAB
  0
TABLE
  2
STYLE
  5
3
330
0
100
AcDbSymbolTable
 70
     3
  0
STYLE
  5
11
330
3
100
AcDbSymbolTableRecord
100
AcDbTextStyleTableRecord
  2
Standard
 70
     0
 40
0.0
 41
1.0
 50
0.0
 71
     0
 42
2.5
  3
txt
  4

  0
STYLE
  5
2F
330
3
100
AcDbSymbolTableRecord
100
AcDbTextStyleTableRecord
  2
LCTX15-400-0-0-Arial
 70
     0
 40
0.0
 41
0.8
 50
0.0
 71
     0
 42
3.5
  3

  4

1001
ACAD
1000
Arial
1071
 16777218
  0
STYLE
  5
FF
330
3
100
AcDbSymbolTableRecord
100
AcDbTextStyleTableRecord
  2
LCTX15-400-0-0pDIN-Schrift
 70
     0
 40
2.5
 41
0.8
 50
15.0
 71
     0
 42
3.5
  3
STANDARD
  4

  0
ENDTAB
  0
TABLE
  2
VIEW
  5
6
330
0
100
AcDbSymbolTable
 70
     0
  0
ENDTAB
  0
TABLE
  2
UCS
  5
7
330
0
100
AcDbSymbolTable
 70
     0
  0
ENDTAB
  0
TABLE
  2
APPID
  5
9
330
0
100
AcDbSymbolTable
 70
     1
  0
APPID
  5
12
330
9
100
AcDbSymbolTableRecord
100
AcDbRegAppTableRecord
  2
ACAD
 70
     0
  0
ENDTAB
  0
TABLE
  2
DIMSTYLE
  5
A
330
0
100
AcDbSymbolTable
 70
     2
100
AcDbDimStyleTable
  0
DIMSTYLE
105
27
330
A
100
AcDbSymbolTableRecord
100
AcDbDimStyleTableRecord
  2
ISO-25
 70
     0
 41
2.5
 42
0.625
 43
3.75
 44
1.25
 73
     0
 74
     0
 77
     1
 78
     8
140
2.5
141
2.5
143
0.03937
147
0.625
171
     3
172
     1
271
     2
272
     2
274
     3
278
    44
283
     0
284
     8
340
11
  0
DIMSTYLE
105
100
102
{ACAD_REACTORS
330
101
330
236
330
64C
330
659
330
666
330
674
330
681
330
68F
330
69E
330
6AD
102
}
330
A
100
AcDbSymbolTableRecord
100
AcDbDimStyleTableRecord
  2
LC-DIM-L-0100-02-02
 70
     0
 40
5.0
 41
10.0
 42
0.0
 43
7.5
 44
1.8
 73
     0
 74
     0
 77
     1
 78
     8
 79
     2
140
10.0
141
0.0
146
0.71
147
1.5
176
     2
177
     2
178
     2
179
     2
271
     2
278
    44
289
     1
340
FF
  0
ENDTAB
  0
TABLE
  2
BLOCK_RECORD
  5
1
330
0
100
AcDbSymbolTable
 70
    50
  0
BLOCK_RECORD
  5
1F
330
1
100
AcDbSymbolTableRecord
100
AcDbBlockTableRecord
  2
*Model_Space
340
22
  0
BLOCK_RECORD
  5
1B
330
1
100
AcDbSymbolTableRecord
100
AcDbBlockTableRecord
  2
*Paper_Space
340
1E
  0
BLOCK_RECORD
  5
23
330
1
100
AcDbSymbolTableRecord
100
AcDbBlockTableRecord
  2
*Paper_Space0
340
26
  0
BLOCK_RECORD
  5
103
330
1
100
AcDbSymbolTableRecord
100
AcDbBlockTableRecord
  2
*D1
340
0
  0
BLOCK_RECORD
  5
12C
330
1
100
AcDbSymbolTableRecord
100
AcDbBlockTableRecord
  2
KLON1
340
0
102
{BLKREFS
331
133
102
}
  0
BLOCK_RECORD
  5
135
330
1
100
AcDbSymbolTableRecord
100
AcDbBlockTableRecord
  2
KLON2
340
0
102
{BLKREFS
331
13A
102
}
  0
BLOCK_RECORD
  5
13B
330
1
100
AcDbSymbolTableRecord
100
AcDbBlockTableRecord
  2
KLON3
340
0
102
{BLKREFS
331
140
102
}
  0
BLOCK_RECORD
  5
141
330
1
100
AcDbSymbolTableRecord
100
AcDbBlockTableRecord
  2
KLON4
340
0
102
{BLKREFS
331
146
102
}
  0
BLOCK_RECORD
  5
148
330
1
100
AcDbSymbolTableRecord
100
AcDbBlockTableRecord
  2
KLON5
340
0
102
{BLKREFS
331
14F
102
}
  0
BLOCK_RECORD
  5
152
330
1
100
AcDbSymbolTableRecord
100
AcDbBlockTableRecord
  2
KLON6
340
0
102
{BLKREFS
331
157
102
}
  0
BLOCK_RECORD
  5
165
330
1
100
AcDbSymbolTableRecord
100
AcDbBlockTableRecord
  2
KLON7
340
0
102
{BLKREFS
331
16A
102
}
  0
BLOCK_RECORD
  5
16B
330
1
100
AcDbSymbolTableRecord
100
AcDbBlockTableRecord
  2
KLON8
340
0
102
{BLKREFS
331
170
102
}
  0
BLOCK_RECORD
  5
172
330
1
100
AcDbSymbolTableRecord
100
AcDbBlockTableRecord
  2
KLON9
340
0
102
{BLKREFS
331
178
102
}
  0
BLOCK_RECORD
  5
179
330
1
100
AcDbSymbolTableRecord
100
AcDbBlockTableRecord
  2
KLON10
340
0
102
{BLKREFS
331
17F
102
}
  0
BLOCK_RECORD
  5
180
330
1
100
AcDbSymbolTableRecord
100
AcDbBlockTableRecord
  2
KLON11
340
0
102
{BLKREFS
331
185
102
}
  0
BLOCK_RECORD
  5
186
330
1
100
AcDbSymbolTableRecord
100
AcDbBlockTableRecord
  2
KLON12
340
0
102
{BLKREFS
331
18C
102
}
  0
BLOCK_RECORD
  5
18D
330
1
100
AcDbSymbolTableRecord
100
AcDbBlockTableRecord
  2
KLON13
340
0
102
{BLKREFS
331
193
102
}
  0
BLOCK_RECORD
  5
194
330
1
100
AcDbSymbolTableRecord
100
AcDbBlockTableRecord
  2
KLON14
340
0
102
{BLKREFS
331
199
102
}
  0
BLOCK_RECORD
  5
237
330
1
100
AcDbSymbolTableRecord
100
AcDbBlockTableRecord
  2
*D16
340
0
  0
BLOCK_RECORD
  5
448
330
1
100
AcDbSymbolTableRecord
100
AcDbBlockTableRecord
  2
KLON15
340
0
102
{BLKREFS
331
458
102
}
  0
BLOCK_RECORD
  5
459
330
1
100
AcDbSymbolTableRecord
100
AcDbBlockTableRecord
  2
KLON16
340
0
102
{BLKREFS
331
46C
102
}
  0
BLOCK_RECORD
  5
470
330
1
100
AcDbSymbolTableRecord
100
AcDbBlockTableRecord
  2
KLON17
340
0
102
{BLKREFS
331
475
102
}
  0
BLOCK_RECORD
  5
59E
330
1
100
AcDbSymbolTableRecord
100
AcDbBlockTableRecord
  2
KLON18
340
0
102
{BLKREFS
331
5A7
102
}
  0
BLOCK_RECORD
  5
5A8
330
1
100
AcDbSymbolTableRecord
100
AcDbBlockTableRecord
  2
KLON19
340
0
102
{BLKREFS
331
5B1
102
}
  0
BLOCK_RECORD
  5
5CC
330
1
100
AcDbSymbolTableRecord
100
AcDbBlockTableRecord
  2
KLON20
340
0
102
{BLKREFS
331
5D4
102
}
  0
BLOCK_RECORD
  5
5D5
330
1
100
AcDbSymbolTableRecord
100
AcDbBlockTableRecord
  2
KLON21
340
0
102
{BLKREFS
331
5E1
102
}
  0
BLOCK_RECORD
  5
5E2
330
1
100
AcDbSymbolTableRecord
100
AcDbBlockTableRecord
  2
KLON22
340
0
102
{BLKREFS
331
5EE
102
}
  0
BLOCK_RECORD
  5
64D
330
1
100
AcDbSymbolTableRecord
100
AcDbBlockTableRecord
  2
*D25
340
0
  0
BLOCK_RECORD
  5
65A
330
1
100
AcDbSymbolTableRecord
100
AcDbBlockTableRecord
  2
*D26
340
0
  0
BLOCK_RECORD
  5
667
330
1
100
AcDbSymbolTableRecord
100
AcDbBlockTableRecord
  2
*D27
340
0
  0
BLOCK_RECORD
  5
675
330
1
100
AcDbSymbolTableRecord
100
AcDbBlockTableRecord
  2
*D28
340
0
  0
BLOCK_RECORD
  5
682
330
1
100
AcDbSymbolTableRecord
100
AcDbBlockTableRecord
  2
*D29
340
0
  0
BLOCK_RECORD
  5
690
330
1
100
AcDbSymbolTableRecord
100
AcDbBlockTableRecord
  2
*D30
340
0
  0
BLOCK_RECORD
  5
69F
330
1
100
AcDbSymbolTableRecord
100
AcDbBlockTableRecord
  2
*D31
340
0
  0
BLOCK_RECORD
  5
6AE
330
1
100
AcDbSymbolTableRecord
100
AcDbBlockTableRecord
  2
*D32
340
0
  0
BLOCK_RECORD
  5
6BB
330
1
100
AcDbSymbolTableRecord
100
AcDbBlockTableRecord
  2
KLON23
340
0
102
{BLKREFS
331
6C1
102
}
  0
BLOCK_RECORD
  5
6C2
330
1
100
AcDbSymbolTableRecord
100
AcDbBlockTableRecord
  2
KLON24
340
0
102
{BLKREFS
331
6C8
102
}
  0
BLOCK_RECORD
  5
6C9
330
1
100
AcDbSymbolTableRecord
100
AcDbBlockTableRecord
  2
KLON25
340
0
102
{BLKREFS
331
6D5
102
}
  0
BLOCK_RECORD
  5
6D6
330
1
100
AcDbSymbolTableRecord
100
AcDbBlockTableRecord
  2
KLON26
340
0
102
{BLKREFS
331
6DD
102
}
  0
BLOCK_RECORD
  5
6DE
330
1
100
AcDbSymbolTableRecord
100
AcDbBlockTableRecord
  2
KLON27
340
0
102
{BLKREFS
331
6E5
102
}
  0
BLOCK_RECORD
  5
6E7
330
1
100
AcDbSymbolTableRecord
100
AcDbBlockTableRecord
  2
KLON28
340
0
102
{BLKREFS
331
700
102
}
  0
BLOCK_RECORD
  5
701
330
1
100
AcDbSymbolTableRecord
100
AcDbBlockTableRecord
  2
KLON29
340
0
102
{BLKREFS
331
71B
102
}
  0
BLOCK_RECORD
  5
71C
330
1
100
AcDbSymbolTableRecord
100
AcDbBlockTableRecord
  2
KLON30
340
0
102
{BLKREFS
331
72A
102
}
  0
BLOCK_RECORD
  5
72B
330
1
100
AcDbSymbolTableRecord
100
AcDbBlockTableRecord
  2
KLON31
340
0
102
{BLKREFS
331
730
102
}
  0
BLOCK_RECORD
  5
732
330
1
100
AcDbSymbolTableRecord
100
AcDbBlockTableRecord
  2
KLON32
340
0
102
{BLKREFS
331
737
102
}
  0
BLOCK_RECORD
  5
73A
330
1
100
AcDbSymbolTableRecord
100
AcDbBlockTableRecord
  2
KLON33
340
0
102
{BLKREFS
331
73F
102
}
  0
BLOCK_RECORD
  5
742
330
1
100
AcDbSymbolTableRecord
100
AcDbBlockTableRecord
  2
KLON34
340
0
102
{BLKREFS
331
748
102
}
  0
BLOCK_RECORD
  5
749
330
1
100
AcDbSymbolTableRecord
100
AcDbBlockTableRecord
  2
KLON35
340
0
102
{BLKREFS
331
74E
102
}
  0
BLOCK_RECORD
  5
750
330
1
100
AcDbSymbolTableRecord
100
AcDbBlockTableRecord
  2
KLON36
340
0
102
{BLKREFS
331
755
102
}
  0
BLOCK_RECORD
  5
757
330
1
100
AcDbSymbolTableRecord
100
AcDbBlockTableRecord
  2
KLON37
340
0
102
{BLKREFS
331
75C
102
}
  0
BLOCK_RECORD
  5
75F
330
1
100
AcDbSymbolTableRecord
100
AcDbBlockTableRecord
  2
KLON38
340
0
102
{BLKREFS
331
764
102
}
  0
BLOCK_RECORD
  5
767
330
1
100
AcDbSymbolTableRecord
100
AcDbBlockTableRecord
  2
KLON39
340
0
102
{BLKREFS
331
76C
102
}
  0
ENDTAB
  0
ENDSEC
  0
SECTION
  2
BLOCKS
  0
BLOCK
  5
20
330
1F
100
AcDbEntity
  8
0
100
AcDbBlockBegin
  2
*Model_Space
 70
     0
 71
     0
 10
0.0
 20
0.0
 30
0.0
  3
*Model_Space
  1

  0
ENDBLK
  5
21
330
1F
100
AcDbEntity
  8
0
100
AcDbBlockEnd
  0
BLOCK
  5
1C
330
1B
100
AcDbEntity
 67
     1
  8
0
100
AcDbBlockBegin
  2
*Paper_Space
 70
     0
 71
     0
 10
0.0
 20
0.0
 30
0.0
  3
*Paper_Space
  1

  0
ENDBLK
  5
1D
330
1B
100
AcDbEntity
 67
     1
  8
0
100
AcDbBlockEnd
  0
BLOCK
  5
24
330
23
100
AcDbEntity
  8
0
100
AcDbBlockBegin
  2
*Paper_Space0
 70
     0
 71
     0
 10
0.0
 20
0.0
 30
0.0
  3
*Paper_Space0
  1

  0
ENDBLK
  5
25
330
23
100
AcDbEntity
  8
0
100
AcDbBlockEnd
  0
BLOCK
  5
10E
330
103
100
AcDbEntity
  8
0
100
AcDbBlockBegin
  2
*D1
 70
     1
 71
     0
 10
0.0
 20
0.0
 30
0.0
  3
*D1
  1

  0
LINE
  5
104
330
103
100
AcDbEntity
  8
LC-001-100-D00-0
 62
     2
370
    -2
100
AcDbLine
 10
647.261906
 20
420.888954
 30
0.0
 11
647.261906
 21
297.788954
 31
0.0
  0
LINE
  5
105
330
103
100
AcDbEntity
  8
LC-001-100-D00-0
 62
     2
370
    -2
100
AcDbLine
 10
728.261906
 20
420.888954
 30
0.0
 11
728.261906
 21
297.788954
 31
0.0
  0
LINE
  5
106
330
103
100
AcDbEntity
  8
LC-001-100-D00-0
 62
     2
370
    -2
100
AcDbLine
 10
597.261906
 20
306.788954
 30
0.0
 11
547.261906
 21
306.788954
 31
0.0
  0
LINE
  5
107
330
103
100
AcDbEntity
  8
LC-001-100-D00-0
 62
     2
370
    -2
100
AcDbLine
 10
778.261906
 20
306.788954
 30
0.0
 11
849.045204
 21
306.788954
 31
0.0
  0
SOLID
  5
108
330
103
100
AcDbEntity
  8
LC-001-100-D00-0
 62
     2
100
AcDbTrace
 10
597.261906
 20
298.455621
 30
0.0
 11
597.261906
 21
315.122287
 31
0.0
 12
647.261906
 22
306.788954
 32
0.0
 13
647.261906
 23
306.788954
 33
0.0
  0
SOLID
  5
109
330
103
100
AcDbEntity
  8
LC-001-100-D00-0
 62
     2
100
AcDbTrace
 10
778.261906
 20
315.122287
 30
0.0
 11
778.261906
 21
298.455621
 31
0.0
 12
728.261906
 22
306.788954
 32
0.0
 13
728.261906
 23
306.788954
 33
0.0
  0
MTEXT
  5
10A
330
103
100
AcDbEntity
  8
LC-001-100-D00-0
 62
     2
100
AcDbMText
 10
809.455756
 20
361.788954
 30
0.0
 40
50.0
 41
0.0
 71
     5
 72
     1
  1
\A1;81
  7
LCTX15-400-0-0pDIN-Schrift
 73
     1
 44
1.0
  0
POINT
  5
10B
330
103
100
AcDbEntity
  8
Defpoints
 62
     0
100
AcDbPoint
 10
647.261906
 20
420.888954
 30
0.0
  0
POINT
  5
10C
330
103
100
AcDbEntity
  8
Defpoints
 62
     0
100
AcDbPoint
 10
728.261906
 20
420.888954
 30
0.0
  0
POINT
  5
10D
330
103
100
AcDbEntity
  8
Defpoints
 62
     0
100
AcDbPoint
 10
728.261906
 20
306.788954
 30
0.0
  0
ENDBLK
  5
10F
330
103
100
AcDbEntity
  8
0
100
AcDbBlockEnd
  0
BLOCK
  5
12D
330
12C
100
AcDbEntity
  8
0
100
AcDbBlockBegin
  2
KLON1
 70
     0
 71
     0
 10
0.0
 20
0.0
 30
0.0
  3
KLON1
  1

  4
KLON1
  0
LINE
  5
12F
330
12C
100
AcDbEntity
  8
LC-001-100-D00-0
 62
     7
370
    15
100
AcDbLine
 10
122.452661
 20
131.927054
 30
0.0
 11
122.465327
 21
131.846173
 31
0.0
  0
LINE
  5
130
330
12C
100
AcDbEntity
  8
LC-001-100-D00-0
 62
     7
370
    15
100
AcDbLine
 10
122.465327
 20
131.846173
 30
0.0
 11
122.474119
 21
131.789964
 31
0.0
  0
LINE
  5
131
330
12C
100
AcDbEntity
  8
LC-001-100-D00-0
 62
     7
370
    15
100
AcDbLine
 10
122.474119
 20
131.789964
 30
0.0
 11
122.476622
 21
131.773865
 31
0.0
  0
LINE
  5
132
330
12C
100
AcDbEntity
  8
LC-001-100-D00-0
 62
     7
370
    15
100
AcDbLine
 10
122.476622
 20
131.773865
 30
0.0
 11
122.478857
 21
131.75958
 31
0.0
  0
ENDBLK
  5
12E
330
12C
100
AcDbEntity
  8
0
100
AcDbBlockEnd
  0
BLOCK
  5
136
330
135
100
AcDbEntity
  8
0
100
AcDbBlockBegin
  2
KLON2
 70
     0
 71
     0
 10
0.0
 20
0.0
 30
0.0
  3
KLON2
  1

  4
KLON2
  0
LINE
  5
138
330
135
100
AcDbEntity
  8
LC-001-100-D00-0
 62
     7
370
    15
100
AcDbLine
 10
122.452661
 20
143.089746
 30
0.0
 11
122.463241
 21
143.095656
 31
0.0
  0
LINE
  5
139
330
135
100
AcDbEntity
  8
LC-001-100-D00-0
 62
     7
370
    15
100
AcDbLine
 10
122.463241
 20
143.095656
 30
0.0
 11
122.478857
 21
143.104384
 31
0.0
  0
ENDBLK
  5
137
330
135
100
AcDbEntity
  8
0
100
AcDbBlockEnd
  0
BLOCK
  5
13C
330
13B
100
AcDbEntity
  8
0
100
AcDbBlockBegin
  2
KLON3
 70
     0
 71
     0
 10
0.0
 20
0.0
 30
0.0
  3
KLON3
  1

  4
KLON3
  0
LINE
  5
13E
330
13B
100
AcDbEntity
  8
LC-001-100-D00-0
 62
     7
370
    15
100
AcDbLine
 10
122.452661
 20
96.104386
 30
0.0
 11
122.460082
 21
96.066213
 31
0.0
  0
LINE
  5
13F
330
13B
100
AcDbEntity
  8
LC-001-100-D00-0
 62
     7
370
    15
100
AcDbLine
 10
122.460082
 20
96.066213
 30
0.0
 11
122.478857
 21
96.033728
 31
0.0
  0
ENDBLK
  5
13D
330
13B
100
AcDbEntity
  8
0
100
AcDbBlockEnd
  0
BLOCK
  5
142
330
141
100
AcDbEntity
  8
0
100
AcDbBlockBegin
  2
KLON4
 70
     0
 71
     0
 10
0.0
 20
0.0
 30
0.0
  3
KLON4
  1

  4
KLON4
  0
LINE
  5
144
330
141
100
AcDbEntity
  8
LC-001-100-D00-0
 62
     7
370
    15
100
AcDbLine
 10
-761.49495
 20
143.089746
 30
0.0
 11
-761.50553
 21
143.095656
 31
0.0
  0
LINE
  5
145
330
141
100
AcDbEntity
  8
LC-001-100-D00-0
 62
     7
370
    15
100
AcDbLine
 10
-761.50553
 20
143.095656
 30
0.0
 11
-761.521146
 21
143.104384
 31
0.0
  0
ENDBLK
  5
143
330
141
100
AcDbEntity
  8
0
100
AcDbBlockEnd
  0
BLOCK
  5
149
330
148
100
AcDbEntity
  8
0
100
AcDbBlockBegin
  2
KLON5
 70
     0
 71
     0
 10
0.0
 20
0.0
 30
0.0
  3
KLON5
  1

  4
KLON5
  0
LINE
  5
14B
330
148
100
AcDbEntity
  8
LC-001-100-D00-0
 62
     7
370
    15
100
AcDbLine
 10
-761.49495
 20
131.927054
 30
0.0
 11
-761.507616
 21
131.846173
 31
0.0
  0
LINE
  5
14C
330
148
100
AcDbEntity
  8
LC-001-100-D00-0
 62
     7
370
    15
100
AcDbLine
 10
-761.507616
 20
131.846173
 30
0.0
 11
-761.516408
 21
131.789964
 31
0.0
  0
LINE
  5
14D
330
148
100
AcDbEntity
  8
LC-001-100-D00-0
 62
     7
370
    15
100
AcDbLine
 10
-761.516408
 20
131.789964
 30
0.0
 11
-761.518911
 21
131.773865
 31
0.0
  0
LINE
  5
14E
330
148
100
AcDbEntity
  8
LC-001-100-D00-0
 62
     7
370
    15
100
AcDbLine
 10
-761.518911
 20
131.773865
 30
0.0
 11
-761.521146
 21
131.75958
 31
0.0
  0
ENDBLK
  5
14A
330
148
100
AcDbEntity
  8
0
100
AcDbBlockEnd
  0
BLOCK
  5
153
330
152
100
AcDbEntity
  8
0
100
AcDbBlockBegin
  2
KLON6
 70
     0
 71
     0
 10
0.0
 20
0.0
 30
0.0
  3
KLON6
  1

  4
KLON6
  0
LINE
  5
155
330
152
100
AcDbEntity
  8
LC-001-100-D00-0
 62
     7
370
    15
100
AcDbLine
 10
-761.49495
 20
96.104386
 30
0.0
 11
-761.502371
 21
96.066213
 31
0.0
  0
LINE
  5
156
330
152
100
AcDbEntity
  8
LC-001-100-D00-0
 62
     7
370
    15
100
AcDbLine
 10
-761.502371
 20
96.066213
 30
0.0
 11
-761.521146
 21
96.033728
 31
0.0
  0
ENDBLK
  5
154
330
152
100
AcDbEntity
  8
0
100
AcDbBlockEnd
  0
BLOCK
  5
166
330
165
100
AcDbEntity
  8
0
100
AcDbBlockBegin
  2
KLON7
 70
     0
 71
     0
 10
0.0
 20
0.0
 30
0.0
  3
KLON7
  1

  4
KLON7
  0
LINE
  5
168
330
165
100
AcDbEntity
  8
LC-001-100-D00-0
 62
     7
370
    15
100
AcDbLine
 10
122.42414
 20
107.270976
 30
0.0
 11
122.440293
 21
107.27706
 31
0.0
  0
LINE
  5
169
330
165
100
AcDbEntity
  8
LC-001-100-D00-0
 62
     7
370
    15
100
AcDbLine
 10
122.440293
 20
107.27706
 30
0.0
 11
122.452661
 21
107.281716
 31
0.0
  0
ENDBLK
  5
167
330
165
100
AcDbEntity
  8
0
100
AcDbBlockEnd
  0
BLOCK
  5
16C
330
16B
100
AcDbEntity
  8
0
100
AcDbBlockBegin
  2
KLON8
 70
     0
 71
     0
 10
0.0
 20
0.0
 30
0.0
  3
KLON8
  1

  4
KLON8
  0
LINE
  5
16E
330
16B
100
AcDbEntity
  8
LC-001-100-D00-0
 62
     7
370
    15
100
AcDbLine
 10
-761.466429
 20
107.270976
 30
0.0
 11
-761.482582
 21
107.27706
 31
0.0
  0
LINE
  5
16F
330
16B
100
AcDbEntity
  8
LC-001-100-D00-0
 62
     7
370
    15
100
AcDbLine
 10
-761.482582
 20
107.27706
 30
0.0
 11
-761.49495
 21
107.281716
 31
0.0
  0
ENDBLK
  5
16D
330
16B
100
AcDbEntity
  8
0
100
AcDbBlockEnd
  0
BLOCK
  5
173
330
172
100
AcDbEntity
  8
0
100
AcDbBlockBegin
  2
KLON9
 70
     0
 71
     0
 10
0.0
 20
0.0
 30
0.0
  3
KLON9
  1

  4
KLON9
  0
LINE
  5
175
330
172
100
AcDbEntity
  8
LC-001-100-D00-0
 62
     7
370
    15
100
AcDbLine
 10
-14.534221
 20
113.745168
 30
0.0
 11
-14.522806
 21
114.158642
 31
0.0
  0
LINE
  5
176
330
172
100
AcDbEntity
  8
LC-001-100-D00-0
 62
     7
370
    15
100
AcDbLine
 10
-14.522806
 20
114.158642
 30
0.0
 11
-14.511124
 21
114.5819
 31
0.0
  0
LINE
  5
177
330
172
100
AcDbEntity
  8
LC-001-100-D00-0
 62
     7
370
    15
100
AcDbLine
 10
-14.511124
 20
114.5819
 30
0.0
 11
-14.499322
 21
115.010079
 31
0.0
  0
ENDBLK
  5
174
330
172
100
AcDbEntity
  8
0
100
AcDbBlockEnd
  0
BLOCK
  5
17A
330
179
100
AcDbEntity
  8
0
100
AcDbBlockBegin
  2
KLON10
 70
     0
 71
     0
 10
0.0
 20
0.0
 30
0.0
  3
KLON10
  1

  4
KLON10
  0
LINE
  5
17C
330
179
100
AcDbEntity
  8
LC-001-100-D00-0
 62
     7
370
    15
100
AcDbLine
 10
-14.499322
 20
124.198691
 30
0.0
 11
-14.511124
 21
124.62687
 31
0.0
  0
LINE
  5
17D
330
179
100
AcDbEntity
  8
LC-001-100-D00-0
 62
     7
370
    15
100
AcDbLine
 10
-14.511124
 20
124.62687
 30
0.0
 11
-14.522806
 21
125.050128
 31
0.0
  0
LINE
  5
17E
330
179
100
AcDbEntity
  8
LC-001-100-D00-0
 62
     7
370
    15
100
AcDbLine
 10
-14.522806
 20
125.050128
 30
0.0
 11
-14.534221
 21
125.463602
 31
0.0
  0
ENDBLK
  5
17B
330
179
100
AcDbEntity
  8
0
100
AcDbBlockEnd
  0
BLOCK
  5
181
330
180
100
AcDbEntity
  8
0
100
AcDbBlockBegin
  2
KLON11
 70
     0
 71
     0
 10
0.0
 20
0.0
 30
0.0
  3
KLON11
  1

  4
KLON11
  0
LINE
  5
183
330
180
100
AcDbEntity
  8
LC-001-100-D00-0
 62
     7
370
    15
100
AcDbLine
 10
122.42414
 20
131.937794
 30
0.0
 11
122.440293
 21
131.93171
 31
0.0
  0
LINE
  5
184
330
180
100
AcDbEntity
  8
LC-001-100-D00-0
 62
     7
370
    15
100
AcDbLine
 10
122.440293
 20
131.93171
 30
0.0
 11
122.452661
 21
131.927054
 31
0.0
  0
ENDBLK
  5
182
330
180
100
AcDbEntity
  8
0
100
AcDbBlockEnd
  0
BLOCK
  5
187
330
186
100
AcDbEntity
  8
0
100
AcDbBlockBegin
  2
KLON12
 70
     0
 71
     0
 10
0.0
 20
0.0
 30
0.0
  3
KLON12
  1

  4
KLON12
  0
LINE
  5
189
330
186
100
AcDbEntity
  8
LC-001-100-D00-0
 62
     7
370
    15
100
AcDbLine
 10
-624.508068
 20
113.745168
 30
0.0
 11
-624.519483
 21
114.158642
 31
0.0
  0
LINE
  5
18A
330
186
100
AcDbEntity
  8
LC-001-100-D00-0
 62
     7
370
    15
100
AcDbLine
 10
-624.519483
 20
114.158642
 30
0.0
 11
-624.531165
 21
114.5819
 31
0.0
  0
LINE
  5
18B
330
186
100
AcDbEntity
  8
LC-001-100-D00-0
 62
     7
370
    15
100
AcDbLine
 10
-624.531165
 20
114.5819
 30
0.0
 11
-624.542967
 21
115.010079
 31
0.0
  0
ENDBLK
  5
188
330
186
100
AcDbEntity
  8
0
100
AcDbBlockEnd
  0
BLOCK
  5
18E
330
18D
100
AcDbEntity
  8
0
100
AcDbBlockBegin
  2
KLON13
 70
     0
 71
     0
 10
0.0
 20
0.0
 30
0.0
  3
KLON13
  1

  4
KLON13
  0
LINE
  5
190
330
18D
100
AcDbEntity
  8
LC-001-100-D00-0
 62
     7
370
    15
100
AcDbLine
 10
-624.542967
 20
124.198691
 30
0.0
 11
-624.531165
 21
124.62687
 31
0.0
  0
LINE
  5
191
330
18D
100
AcDbEntity
  8
LC-001-100-D00-0
 62
     7
370
    15
100
AcDbLine
 10
-624.531165
 20
124.62687
 30
0.0
 11
-624.519483
 21
125.050128
 31
0.0
  0
LINE
  5
192
330
18D
100
AcDbEntity
  8
LC-001-100-D00-0
 62
     7
370
    15
100
AcDbLine
 10
-624.519483
 20
125.050128
 30
0.0
 11
-624.508068
 21
125.463602
 31
0.0
  0
ENDBLK
  5
18F
330
18D
100
AcDbEntity
  8
0
100
AcDbBlockEnd
  0
BLOCK
  5
195
330
194
100
AcDbEntity
  8
0
100
AcDbBlockBegin
  2
KLON14
 70
     0
 71
     0
 10
0.0
 20
0.0
 30
0.0
  3
KLON14
  1

  4
KLON14
  0
LINE
  5
197
330
194
100
AcDbEntity
  8
LC-001-100-D00-0
 62
     7
370
    15
100
AcDbLine
 10
-761.466429
 20
131.937794
 30
0.0
 11
-761.482582
 21
131.93171
 31
0.0
  0
LINE
  5
198
330
194
100
AcDbEntity
  8
LC-001-100-D00-0
 62
     7
370
    15
100
AcDbLine
 10
-761.482582
 20
131.93171
 30
0.0
 11
-761.49495
 21
131.927054
 31
0.0
  0
ENDBLK
  5
196
330
194
100
AcDbEntity
  8
0
100
AcDbBlockEnd
  0
BLOCK
  5
241
330
237
100
AcDbEntity
  8
0
100
AcDbBlockBegin
  2
*D16
 70
     1
 71
     0
 10
0.0
 20
0.0
 30
0.0
  3
*D16
  1

  0
LINE
  5
238
330
237
100
AcDbEntity
  8
LC-001-100-D00-0
 62
     2
370
    -2
100
AcDbLine
 10
175.478856
 20
197.104385
 30
0.0
 11
302.56096
 21
197.104385
 31
0.0
  0
LINE
  5
239
330
237
100
AcDbEntity
  8
LC-001-100-D00-0
 62
     2
370
    -2
100
AcDbLine
 10
175.478856
 20
42.104385
 30
0.0
 11
302.56096
 21
42.104385
 31
0.0
  0
LINE
  5
23A
330
237
100
AcDbEntity
  8
LC-001-100-D00-0
 62
     2
370
    -2
100
AcDbLine
 10
293.56096
 20
147.104385
 30
0.0
 11
293.56096
 21
92.104385
 31
0.0
  0
SOLID
  5
23B
330
237
100
AcDbEntity
  8
LC-001-100-D00-0
 62
     2
100
AcDbTrace
 10
301.894293
 20
147.104385
 30
0.0
 11
285.227627
 21
147.104385
 31
0.0
 12
293.56096
 22
197.104385
 32
0.0
 13
293.56096
 23
197.104385
 33
0.0
  0
SOLID
  5
23C
330
237
100
AcDbEntity
  8
LC-001-100-D00-0
 62
     2
100
AcDbTrace
 10
285.227627
 20
92.104385
 30
0.0
 11
301.894293
 21
92.104385
 31
0.0
 12
293.56096
 22
42.104385
 32
0.0
 13
293.56096
 23
42.104385
 33
0.0
  0
MTEXT
  5
23D
330
237
100
AcDbEntity
  8
LC-001-100-D00-0
 62
     2
100
AcDbMText
 10
238.56096
 20
121.988954
 30
0.0
 40
50.0
 41
0.0
 71
     5
 72
     1
  1
\A1;155
  7
LCTX15-400-0-0pDIN-Schrift
 11
6.123031769111886E-17
 21
1.0
 31
0.0
 73
     1
 44
1.0
  0
POINT
  5
23E
330
237
100
AcDbEntity
  8
Defpoints
 62
     0
100
AcDbPoint
 10
175.478856
 20
197.104385
 30
0.0
  0
POINT
  5
23F
330
237
100
AcDbEntity
  8
Defpoints
 62
     0
100
AcDbPoint
 10
175.478856
 20
42.104385
 30
0.0
  0
POINT
  5
240
330
237
100
AcDbEntity
  8
Defpoints
 62
     0
100
AcDbPoint
 10
293.56096
 20
42.104385
 30
0.0
  0
ENDBLK
  5
242
330
237
100
AcDbEntity
  8
0
100
AcDbBlockEnd
  0
BLOCK
  5
449
330
448
100
AcDbEntity
  8
0
100
AcDbBlockBegin
  2
KLON15
 70
     0
 71
     0
 10
0.0
 20
0.0
 30
0.0
  3
KLON15
  1

  4
KLON15
  0
LINE
  5
44B
330
448
100
AcDbEntity
  8
LC-001-100-D00-0
 62
     7
370
    15
100
AcDbLine
 10
-245.521144
 20
411.388955
 30
0.0
 11
-245.52387
 21
411.388985
 31
0.0
  0
LINE
  5
44C
330
448
100
AcDbEntity
  8
LC-001-100-D00-0
 62
     7
370
    15
100
AcDbLine
 10
-245.52387
 20
411.388985
 30
0.0
 11
-245.528453
 21
411.389178
 31
0.0
  0
LINE
  5
44D
330
448
100
AcDbEntity
  8
LC-001-100-D00-0
 62
     7
370
    15
100
AcDbLine
 10
-245.528453
 20
411.389178
 30
0.0
 11
-245.537326
 21
411.390013
 31
0.0
  0
LINE
  5
44E
330
448
100
AcDbEntity
  8
LC-001-100-D00-0
 62
     7
370
    15
100
AcDbLine
 10
-245.537326
 20
411.390013
 30
0.0
 11
-245.539606
 21
411.390318
 31
0.0
  0
LINE
  5
44F
330
448
100
AcDbEntity
  8
LC-001-100-D00-0
 62
     7
370
    15
100
AcDbLine
 10
-245.539606
 20
411.390318
 30
0.0
 11
-245.54018
 21
411.3904
 31
0.0
  0
LINE
  5
450
330
448
100
AcDbEntity
  8
LC-001-100-D00-0
 62
     7
370
    15
100
AcDbLine
 10
-245.54018
 20
411.3904
 30
0.0
 11
-245.540321
 21
411.390423
 31
0.0
  0
LINE
  5
451
330
448
100
AcDbEntity
  8
LC-001-100-D00-0
 62
     7
370
    15
100
AcDbLine
 10
-245.540321
 20
411.390423
 30
0.0
 11
-245.659501
 21
411.439693
 31
0.0
  0
LINE
  5
452
330
448
100
AcDbEntity
  8
LC-001-100-D00-0
 62
     7
370
    15
100
AcDbLine
 10
-245.659501
 20
411.439693
 30
0.0
 11
-246.500105
 21
412.252589
 31
0.0
  0
LINE
  5
453
330
448
100
AcDbEntity
  8
LC-001-100-D00-0
 62
     7
370
    15
100
AcDbLine
 10
-246.500105
 20
412.252589
 30
0.0
 11
-247.588784
 21
413.57792
 31
0.0
  0
LINE
  5
454
330
448
100
AcDbEntity
  8
LC-001-100-D00-0
 62
     7
370
    15
100
AcDbLine
 10
-247.588784
 20
413.57792
 30
0.0
 11
-249.014646
 21
415.481074
 31
0.0
  0
LINE
  5
455
330
448
100
AcDbEntity
  8
LC-001-100-D00-0
 62
     7
370
    15
100
AcDbLine
 10
-249.014646
 20
415.481074
 30
0.0
 11
-251.066991
 21
418.446733
 31
0.0
  0
LINE
  5
456
330
448
100
AcDbEntity
  8
LC-001-100-D00-0
 62
     7
370
    15
100
AcDbLine
 10
-251.066991
 20
418.446733
 30
0.0
 11
-253.437661
 21
422.088063
 31
0.0
  0
LINE
  5
457
330
448
100
AcDbEntity
  8
LC-001-100-D00-0
 62
     7
370
    15
100
AcDbLine
 10
-253.437661
 20
422.088063
 30
0.0
 11
-253.545851
 21
422.254449
 31
0.0
  0
ENDBLK
  5
44A
330
448
100
AcDbEntity
  8
0
100
AcDbBlockEnd
  0
BLOCK
  5
45A
330
459
100
AcDbEntity
  8
0
100
AcDbBlockBegin
  2
KLON16
 70
     0
 71
     0
 10
0.0
 20
0.0
 30
0.0
  3
KLON16
  1

  4
KLON16
  0
LINE
  5
45C
330
459
100
AcDbEntity
  8
LC-001-100-D00-0
 62
     7
370
    15
100
AcDbLine
 10
-253.545851
 20
422.254449
 30
0.0
 11
-254.287459
 21
424.632995
 31
0.0
  0
LINE
  5
45D
330
459
100
AcDbEntity
  8
LC-001-100-D00-0
 62
     7
370
    15
100
AcDbLine
 10
-254.287459
 20
424.632995
 30
0.0
 11
-254.922197
 21
427.213422
 31
0.0
  0
LINE
  5
45E
330
459
100
AcDbEntity
  8
LC-001-100-D00-0
 62
     7
370
    15
100
AcDbLine
 10
-254.922197
 20
427.213422
 30
0.0
 11
-255.441405
 21
430.345605
 31
0.0
  0
LINE
  5
45F
330
459
100
AcDbEntity
  8
LC-001-100-D00-0
 62
     7
370
    15
100
AcDbLine
 10
-255.441405
 20
430.345605
 30
0.0
 11
-255.678244
 21
433.682481
 31
0.0
  0
LINE
  5
460
330
459
100
AcDbEntity
  8
LC-001-100-D00-0
 62
     7
370
    15
100
AcDbLine
 10
-255.678244
 20
433.682481
 30
0.0
 11
-255.587325
 21
436.952251
 31
0.0
  0
LINE
  5
461
330
459
100
AcDbEntity
  8
LC-001-100-D00-0
 62
     7
370
    15
100
AcDbLine
 10
-255.587325
 20
436.952251
 30
0.0
 11
-255.175509
 21
440.243627
 31
0.0
  0
LINE
  5
462
330
459
100
AcDbEntity
  8
LC-001-100-D00-0
 62
     7
370
    15
100
AcDbLine
 10
-255.175509
 20
440.243627
 30
0.0
 11
-254.531615
 21
443.236417
 31
0.0
  0
LINE
  5
463
330
459
100
AcDbEntity
  8
LC-001-100-D00-0
 62
     7
370
    15
100
AcDbLine
 10
-254.531615
 20
443.236417
 30
0.0
 11
-253.692985
 21
446.086342
 31
0.0
  0
LINE
  5
464
330
459
100
AcDbEntity
  8
LC-001-100-D00-0
 62
     7
370
    15
100
AcDbLine
 10
-253.692985
 20
446.086342
 30
0.0
 11
-252.625324
 21
448.99737
 31
0.0
  0
LINE
  5
465
330
459
100
AcDbEntity
  8
LC-001-100-D00-0
 62
     7
370
    15
100
AcDbLine
 10
-252.625324
 20
448.99737
 30
0.0
 11
-251.501449
 21
451.607472
 31
0.0
  0
LINE
  5
466
330
459
100
AcDbEntity
  8
LC-001-100-D00-0
 62
     7
370
    15
100
AcDbLine
 10
-251.501449
 20
451.607472
 30
0.0
 11
-250.353031
 21
453.984185
 31
0.0
  0
LINE
  5
467
330
459
100
AcDbEntity
  8
LC-001-100-D00-0
 62
     7
370
    15
100
AcDbLine
 10
-250.353031
 20
453.984185
 30
0.0
 11
-249.381215
 21
455.838295
 31
0.0
  0
LINE
  5
468
330
459
100
AcDbEntity
  8
LC-001-100-D00-0
 62
     7
370
    15
100
AcDbLine
 10
-249.381215
 20
455.838295
 30
0.0
 11
-248.838976
 21
456.824566
 31
0.0
  0
LINE
  5
469
330
459
100
AcDbEntity
  8
LC-001-100-D00-0
 62
     7
370
    15
100
AcDbLine
 10
-248.838976
 20
456.824566
 30
0.0
 11
-248.552278
 21
457.334092
 31
0.0
  0
LINE
  5
46A
330
459
100
AcDbEntity
  8
LC-001-100-D00-0
 62
     7
370
    15
100
AcDbLine
 10
-248.552278
 20
457.334092
 30
0.0
 11
-248.521418
 21
457.388471
 31
0.0
  0
LINE
  5
46B
330
459
100
AcDbEntity
  8
LC-001-100-D00-0
 62
     7
370
    15
100
AcDbLine
 10
-248.521418
 20
457.388471
 30
0.0
 11
-248.521142
 21
457.388955
 31
0.0
  0
ENDBLK
  5
45B
330
459
100
AcDbEntity
  8
0
100
AcDbBlockEnd
  0
BLOCK
  5
471
330
470
100
AcDbEntity
  8
0
100
AcDbBlockBegin
  2
KLON17
 70
     0
 71
     0
 10
0.0
 20
0.0
 30
0.0
  3
KLON17
  1

  4
KLON17
  0
LINE
  5
473
330
470
100
AcDbEntity
  8
LC-001-100-D00-0
 62
     7
370
    15
100
AcDbLine
 10
-254.203693
 20
420.888952
 30
0.0
 11
-254.196913
 21
420.903234
 31
0.0
  0
LINE
  5
474
330
470
100
AcDbEntity
  8
LC-001-100-D00-0
 62
     7
370
    15
100
AcDbLine
 10
-254.196913
 20
420.903234
 30
0.0
 11
-253.545851
 21
422.254449
 31
0.0
  0
ENDBLK
  5
472
330
470
100
AcDbEntity
  8
0
100
AcDbBlockEnd
  0
BLOCK
  5
59F
330
59E
100
AcDbEntity
  8
0
100
AcDbBlockBegin
  2
KLON18
 70
     0
 71
     0
 10
0.0
 20
0.0
 30
0.0
  3
KLON18
  1

  4
KLON18
  0
LINE
  5
5A1
330
59E
100
AcDbEntity
  8
LC-001-100-D00-0
 62
     7
370
    15
100
AcDbLine
 10
113.386526
 20
469.557118
 30
0.0
 11
115.94285
 21
469.650414
 31
0.0
  0
LINE
  5
5A2
330
59E
100
AcDbEntity
  8
LC-001-100-D00-0
 62
     7
370
    15
100
AcDbLine
 10
115.94285
 20
469.650414
 30
0.0
 11
118.088647
 21
469.728728
 31
0.0
  0
LINE
  5
5A3
330
59E
100
AcDbEntity
  8
LC-001-100-D00-0
 62
     7
370
    15
100
AcDbLine
 10
118.088647
 20
469.728728
 30
0.0
 11
119.818791
 21
469.791871
 31
0.0
  0
LINE
  5
5A4
330
59E
100
AcDbEntity
  8
LC-001-100-D00-0
 62
     7
370
    15
100
AcDbLine
 10
119.818791
 20
469.791871
 30
0.0
 11
121.12911
 21
469.839693
 31
0.0
  0
LINE
  5
5A5
330
59E
100
AcDbEntity
  8
LC-001-100-D00-0
 62
     7
370
    15
100
AcDbLine
 10
121.12911
 20
469.839693
 30
0.0
 11
122.016504
 21
469.87208
 31
0.0
  0
LINE
  5
5A6
330
59E
100
AcDbEntity
  8
LC-001-100-D00-0
 62
     7
370
    15
100
AcDbLine
 10
122.016504
 20
469.87208
 30
0.0
 11
122.478857
 21
469.888954
 31
0.0
  0
ENDBLK
  5
5A0
330
59E
100
AcDbEntity
  8
0
100
AcDbBlockEnd
  0
BLOCK
  5
5A9
330
5A8
100
AcDbEntity
  8
0
100
AcDbBlockBegin
  2
KLON19
 70
     0
 71
     0
 10
0.0
 20
0.0
 30
0.0
  3
KLON19
  1

  4
KLON19
  0
LINE
  5
5AB
330
5A8
100
AcDbEntity
  8
LC-001-100-D00-0
 62
     7
370
    15
100
AcDbLine
 10
-752.428815
 20
469.557118
 30
0.0
 11
-754.985139
 21
469.650414
 31
0.0
  0
LINE
  5
5AC
330
5A8
100
AcDbEntity
  8
LC-001-100-D00-0
 62
     7
370
    15
100
AcDbLine
 10
-754.985139
 20
469.650414
 30
0.0
 11
-757.130936
 21
469.728728
 31
0.0
  0
LINE
  5
5AD
330
5A8
100
AcDbEntity
  8
LC-001-100-D00-0
 62
     7
370
    15
100
AcDbLine
 10
-757.130936
 20
469.728728
 30
0.0
 11
-758.86108
 21
469.791871
 31
0.0
  0
LINE
  5
5AE
330
5A8
100
AcDbEntity
  8
LC-001-100-D00-0
 62
     7
370
    15
100
AcDbLine
 10
-758.86108
 20
469.791871
 30
0.0
 11
-760.171399
 21
469.839693
 31
0.0
  0
LINE
  5
5AF
330
5A8
100
AcDbEntity
  8
LC-001-100-D00-0
 62
     7
370
    15
100
AcDbLine
 10
-760.171399
 20
469.839693
 30
0.0
 11
-761.058793
 21
469.87208
 31
0.0
  0
LINE
  5
5B0
330
5A8
100
AcDbEntity
  8
LC-001-100-D00-0
 62
     7
370
    15
100
AcDbLine
 10
-761.058793
 20
469.87208
 30
0.0
 11
-761.521146
 21
469.888954
 31
0.0
  0
ENDBLK
  5
5AA
330
5A8
100
AcDbEntity
  8
0
100
AcDbBlockEnd
  0
BLOCK
  5
5CD
330
5CC
100
AcDbEntity
  8
0
100
AcDbBlockBegin
  2
KLON20
 70
     0
 71
     0
 10
0.0
 20
0.0
 30
0.0
  3
KLON20
  1

  4
KLON20
  0
LINE
  5
5CF
330
5CC
100
AcDbEntity
  8
LC-001-100-D00-0
 62
     7
370
    15
100
AcDbLine
 10
-365.64076
 20
457.888952
 30
0.0
 11
-365.62723
 21
457.730247
 31
0.0
  0
LINE
  5
5D0
330
5CC
100
AcDbEntity
  8
LC-001-100-D00-0
 62
     7
370
    15
100
AcDbLine
 10
-365.62723
 20
457.730247
 30
0.0
 11
-365.465306
 21
457.145828
 31
0.0
  0
LINE
  5
5D1
330
5CC
100
AcDbEntity
  8
LC-001-100-D00-0
 62
     7
370
    15
100
AcDbLine
 10
-365.465306
 20
457.145828
 30
0.0
 11
-365.21544
 21
456.699523
 31
0.0
  0
LINE
  5
5D2
330
5CC
100
AcDbEntity
  8
LC-001-100-D00-0
 62
     7
370
    15
100
AcDbLine
 10
-365.21544
 20
456.699523
 30
0.0
 11
-364.90414
 21
456.440772
 31
0.0
  0
LINE
  5
5D3
330
5CC
100
AcDbEntity
  8
LC-001-100-D00-0
 62
     7
370
    15
100
AcDbLine
 10
-364.90414
 20
456.440772
 30
0.0
 11
-364.766647
 21
456.397014
 31
0.0
  0
ENDBLK
  5
5CE
330
5CC
100
AcDbEntity
  8
0
100
AcDbBlockEnd
  0
BLOCK
  5
5D6
330
5D5
100
AcDbEntity
  8
0
100
AcDbBlockBegin
  2
KLON21
 70
     0
 71
     0
 10
0.0
 20
0.0
 30
0.0
  3
KLON21
  1

  4
KLON21
  0
LINE
  5
5D8
330
5D5
100
AcDbEntity
  8
LC-001-100-D00-0
 62
     7
370
    15
100
AcDbLine
 10
122.451499
 20
471.388953
 30
0.0
 11
122.450813
 21
471.426935
 31
0.0
  0
LINE
  5
5D9
330
5D5
100
AcDbEntity
  8
LC-001-100-D00-0
 62
     7
370
    15
100
AcDbLine
 10
122.450813
 20
471.426935
 30
0.0
 11
122.448757
 21
471.539722
 31
0.0
  0
LINE
  5
5DA
330
5D5
100
AcDbEntity
  8
LC-001-100-D00-0
 62
     7
370
    15
100
AcDbLine
 10
122.448757
 20
471.539722
 30
0.0
 11
122.445389
 21
471.723891
 31
0.0
  0
LINE
  5
5DB
330
5D5
100
AcDbEntity
  8
LC-001-100-D00-0
 62
     7
370
    15
100
AcDbLine
 10
122.445389
 20
471.723891
 30
0.0
 11
122.440829
 21
471.973843
 31
0.0
  0
LINE
  5
5DC
330
5D5
100
AcDbEntity
  8
LC-001-100-D00-0
 62
     7
370
    15
100
AcDbLine
 10
122.440829
 20
471.973843
 30
0.0
 11
122.435197
 21
472.281986
 31
0.0
  0
LINE
  5
5DD
330
5D5
100
AcDbEntity
  8
LC-001-100-D00-0
 62
     7
370
    15
100
AcDbLine
 10
122.435197
 20
472.281986
 30
0.0
 11
122.4287
 21
472.638954
 31
0.0
  0
LINE
  5
5DE
330
5D5
100
AcDbEntity
  8
LC-001-100-D00-0
 62
     7
370
    15
100
AcDbLine
 10
122.4287
 20
472.638954
 30
0.0
 11
122.421488
 21
473.033904
 31
0.0
  0
LINE
  5
5DF
330
5D5
100
AcDbEntity
  8
LC-001-100-D00-0
 62
     7
370
    15
100
AcDbLine
 10
122.421488
 20
473.033904
 30
0.0
 11
122.413799
 21
473.454834
 31
0.0
  0
LINE
  5
5E0
330
5D5
100
AcDbEntity
  8
LC-001-100-D00-0
 62
     7
370
    15
100
AcDbLine
 10
122.413799
 20
473.454834
 30
0.0
 11
122.405901
 21
473.888955
 31
0.0
  0
ENDBLK
  5
5D7
330
5D5
100
AcDbEntity
  8
0
100
AcDbBlockEnd
  0
BLOCK
  5
5E3
330
5E2
100
AcDbEntity
  8
0
100
AcDbBlockBegin
  2
KLON22
 70
     0
 71
     0
 10
0.0
 20
0.0
 30
0.0
  3
KLON22
  1

  4
KLON22
  0
LINE
  5
5E5
330
5E2
100
AcDbEntity
  8
LC-001-100-D00-0
 62
     7
370
    15
100
AcDbLine
 10
-761.493788
 20
471.388953
 30
0.0
 11
-761.493102
 21
471.426935
 31
0.0
  0
LINE
  5
5E6
330
5E2
100
AcDbEntity
  8
LC-001-100-D00-0
 62
     7
370
    15
100
AcDbLine
 10
-761.493102
 20
471.426935
 30
0.0
 11
-761.491046
 21
471.539722
 31
0.0
  0
LINE
  5
5E7
330
5E2
100
AcDbEntity
  8
LC-001-100-D00-0
 62
     7
370
    15
100
AcDbLine
 10
-761.491046
 20
471.539722
 30
0.0
 11
-761.487678
 21
471.723891
 31
0.0
  0
LINE
  5
5E8
330
5E2
100
AcDbEntity
  8
LC-001-100-D00-0
 62
     7
370
    15
100
AcDbLine
 10
-761.487678
 20
471.723891
 30
0.0
 11
-761.483118
 21
471.973843
 31
0.0
  0
LINE
  5
5E9
330
5E2
100
AcDbEntity
  8
LC-001-100-D00-0
 62
     7
370
    15
100
AcDbLine
 10
-761.483118
 20
471.973843
 30
0.0
 11
-761.477486
 21
472.281986
 31
0.0
  0
LINE
  5
5EA
330
5E2
100
AcDbEntity
  8
LC-001-100-D00-0
 62
     7
370
    15
100
AcDbLine
 10
-761.477486
 20
472.281986
 30
0.0
 11
-761.470989
 21
472.638954
 31
0.0
  0
LINE
  5
5EB
330
5E2
100
AcDbEntity
  8
LC-001-100-D00-0
 62
     7
370
    15
100
AcDbLine
 10
-761.470989
 20
472.638954
 30
0.0
 11
-761.463777
 21
473.033904
 31
0.0
  0
LINE
  5
5EC
330
5E2
100
AcDbEntity
  8
LC-001-100-D00-0
 62
     7
370
    15
100
AcDbLine
 10
-761.463777
 20
473.033904
 30
0.0
 11
-761.456088
 21
473.454834
 31
0.0
  0
LINE
  5
5ED
330
5E2
100
AcDbEntity
  8
LC-001-100-D00-0
 62
     7
370
    15
100
AcDbLine
 10
-761.456088
 20
473.454834
 30
0.0
 11
-761.44819
 21
473.888955
 31
0.0
  0
ENDBLK
  5
5E4
330
5E2
100
AcDbEntity
  8
0
100
AcDbBlockEnd
  0
BLOCK
  5
657
330
64D
100
AcDbEntity
  8
0
100
AcDbBlockBegin
  2
*D25
 70
     1
 71
     0
 10
0.0
 20
0.0
 30
0.0
  3
*D25
  1

  0
LINE
  5
64E
330
64D
100
AcDbEntity
  8
LC-001-100-D00-0
 62
     2
370
    -2
100
AcDbLine
 10
180.478856
 20
491.888954
 30
0.0
 11
180.478856
 21
649.688954
 31
0.0
  0
LINE
  5
64F
330
64D
100
AcDbEntity
  8
LC-001-100-D00-0
 62
     2
370
    -2
100
AcDbLine
 10
-819.521144
 20
491.888954
 30
0.0
 11
-819.521144
 21
649.688954
 31
0.0
  0
LINE
  5
650
330
64D
100
AcDbEntity
  8
LC-001-100-D00-0
 62
     2
370
    -2
100
AcDbLine
 10
130.478856
 20
640.688954
 30
0.0
 11
-769.521144
 21
640.688954
 31
0.0
  0
SOLID
  5
651
330
64D
100
AcDbEntity
  8
LC-001-100-D00-0
 62
     2
100
AcDbTrace
 10
130.478856
 20
632.355621
 30
0.0
 11
130.478856
 21
649.022287
 31
0.0
 12
180.478856
 22
640.688954
 32
0.0
 13
180.478856
 23
640.688954
 33
0.0
  0
SOLID
  5
652
330
64D
100
AcDbEntity
  8
LC-001-100-D00-0
 62
     2
100
AcDbTrace
 10
-769.521144
 20
649.022287
 30
0.0
 11
-769.521144
 21
632.355621
 31
0.0
 12
-819.521144
 22
640.688954
 32
0.0
 13
-819.521144
 23
640.688954
 33
0.0
  0
MTEXT
  5
653
330
64D
100
AcDbEntity
  8
LC-001-100-D00-0
 62
     2
100
AcDbMText
 10
-334.8927
 20
695.688954
 30
0.0
 40
50.0
 41
0.0
 71
     5
 72
     1
  1
\A1;1000
  7
LCTX15-400-0-0pDIN-Schrift
 73
     1
 44
1.0
  0
POINT
  5
654
330
64D
100
AcDbEntity
  8
Defpoints
 62
     0
100
AcDbPoint
 10
180.478856
 20
491.888954
 30
0.0
  0
POINT
  5
655
330
64D
100
AcDbEntity
  8
Defpoints
 62
     0
100
AcDbPoint
 10
-819.521144
 20
491.888954
 30
0.0
  0
POINT
  5
656
330
64D
100
AcDbEntity
  8
Defpoints
 62
     0
100
AcDbPoint
 10
-819.521144
 20
640.688954
 30
0.0
  0
ENDBLK
  5
658
330
64D
100
AcDbEntity
  8
0
100
AcDbBlockEnd
  0
BLOCK
  5
664
330
65A
100
AcDbEntity
  8
0
100
AcDbBlockBegin
  2
*D26
 70
     1
 71
     0
 10
0.0
 20
0.0
 30
0.0
  3
*D26
  1

  0
LINE
  5
65B
330
65A
100
AcDbEntity
  8
LC-001-100-D00-0
 62
     2
370
    -2
100
AcDbLine
 10
-769.521144
 20
488.888954
 30
0.0
 11
-769.521144
 21
542.207065
 31
0.0
  0
LINE
  5
65C
330
65A
100
AcDbEntity
  8
LC-001-100-D00-0
 62
     2
370
    -2
100
AcDbLine
 10
130.478856
 20
488.888954
 30
0.0
 11
130.478856
 21
542.207065
 31
0.0
  0
LINE
  5
65D
330
65A
100
AcDbEntity
  8
LC-001-100-D00-0
 62
     2
370
    -2
100
AcDbLine
 10
-719.521144
 20
533.207065
 30
0.0
 11
80.478856
 21
533.207065
 31
0.0
  0
SOLID
  5
65E
330
65A
100
AcDbEntity
  8
LC-001-100-D00-0
 62
     2
100
AcDbTrace
 10
-719.521144
 20
541.540398
 30
0.0
 11
-719.521144
 21
524.873732
 31
0.0
 12
-769.521144
 22
533.207065
 32
0.0
 13
-769.521144
 23
533.207065
 33
0.0
  0
SOLID
  5
65F
330
65A
100
AcDbEntity
  8
LC-001-100-D00-0
 62
     2
100
AcDbTrace
 10
80.478856
 20
524.873732
 30
0.0
 11
80.478856
 21
541.540398
 31
0.0
 12
130.478856
 22
533.207065
 32
0.0
 13
130.478856
 23
533.207065
 33
0.0
  0
MTEXT
  5
660
330
65A
100
AcDbEntity
  8
LC-001-100-D00-0
 62
     2
100
AcDbMText
 10
-326.20907
 20
588.207065
 30
0.0
 40
50.0
 41
0.0
 71
     5
 72
     1
  1
\A1;900
  7
LCTX15-400-0-0pDIN-Schrift
 73
     1
 44
1.0
  0
POINT
  5
661
330
65A
100
AcDbEntity
  8
Defpoints
 62
     0
100
AcDbPoint
 10
-769.521144
 20
488.888954
 30
0.0
  0
POINT
  5
662
330
65A
100
AcDbEntity
  8
Defpoints
 62
     0
100
AcDbPoint
 10
130.478856
 20
488.888954
 30
0.0
  0
POINT
  5
663
330
65A
100
AcDbEntity
  8
Defpoints
 62
     0
100
AcDbPoint
 10
130.478856
 20
533.207065
 30
0.0
  0
ENDBLK
  5
665
330
65A
100
AcDbEntity
  8
0
100
AcDbBlockEnd
  0
BLOCK
  5
672
330
667
100
AcDbEntity
  8
0
100
AcDbBlockBegin
  2
*D27
 70
     1
 71
     0
 10
0.0
 20
0.0
 30
0.0
  3
*D27
  1

  0
LINE
  5
668
330
667
100
AcDbEntity
  8
LC-001-100-D00-0
 62
     2
370
    -2
100
AcDbLine
 10
-348.521144
 20
420.388954
 30
0.0
 11
-500.224456
 21
420.388954
 31
0.0
  0
LINE
  5
669
330
667
100
AcDbEntity
  8
LC-001-100-D00-0
 62
     2
370
    -2
100
AcDbLine
 10
-352.473578
 20
450.388954
 30
0.0
 11
-500.224456
 21
450.388954
 31
0.0
  0
LINE
  5
66A
330
667
100
AcDbEntity
  8
LC-001-100-D00-0
 62
     2
370
    -2
100
AcDbLine
 10
-491.224456
 20
500.388954
 30
0.0
 11
-491.224456
 21
550.388954
 31
0.0
  0
LINE
  5
66B
330
667
100
AcDbEntity
  8
LC-001-100-D00-0
 62
     2
370
    -2
100
AcDbLine
 10
-491.224456
 20
370.388954
 30
0.0
 11
-491.224456
 21
280.51355
 31
0.0
  0
SOLID
  5
66C
330
667
100
AcDbEntity
  8
LC-001-100-D00-0
 62
     2
100
AcDbTrace
 10
-482.891123
 20
370.388954
 30
0.0
 11
-499.55779
 21
370.388954
 31
0.0
 12
-491.224456
 22
420.388954
 32
0.0
 13
-491.224456
 23
420.388954
 33
0.0
  0
SOLID
  5
66D
330
667
100
AcDbEntity
  8
LC-001-100-D00-0
 62
     2
100
AcDbTrace
 10
-499.55779
 20
500.388954
 30
0.0
 11
-482.891123
 21
500.388954
 31
0.0
 12
-491.224456
 22
450.388954
 32
0.0
 13
-491.224456
 23
450.388954
 33
0.0
  0
MTEXT
  5
66E
330
667
100
AcDbEntity
  8
LC-001-100-D00-0
 62
     2
100
AcDbMText
 10
-546.224456
 20
323.588954
 30
0.0
 40
50.0
 41
0.0
 71
     5
 72
     1
  1
\A1;30
  7
LCTX15-400-0-0pDIN-Schrift
 11
6.123031769111886E-17
 21
1.0
 31
0.0
 73
     1
 44
1.0
  0
POINT
  5
66F
330
667
100
AcDbEntity
  8
Defpoints
 62
     0
100
AcDbPoint
 10
-348.521144
 20
420.388954
 30
0.0
  0
POINT
  5
670
330
667
100
AcDbEntity
  8
Defpoints
 62
     0
100
AcDbPoint
 10
-352.473578
 20
450.388954
 30
0.0
  0
POINT
  5
671
330
667
100
AcDbEntity
  8
Defpoints
 62
     0
100
AcDbPoint
 10
-491.224456
 20
450.388954
 30
0.0
  0
ENDBLK
  5
673
330
667
100
AcDbEntity
  8
0
100
AcDbBlockEnd
  0
BLOCK
  5
67F
330
675
100
AcDbEntity
  8
0
100
AcDbBlockBegin
  2
*D28
 70
     1
 71
     0
 10
0.0
 20
0.0
 30
0.0
  3
*D28
  1

  0
LINE
  5
676
330
675
100
AcDbEntity
  8
LC-001-100-D00-0
 62
     2
370
    -2
100
AcDbLine
 10
-393.521144
 20
420.888954
 30
0.0
 11
-393.521144
 21
272.588954
 31
0.0
  0
LINE
  5
677
330
675
100
AcDbEntity
  8
LC-001-100-D00-0
 62
     2
370
    -2
100
AcDbLine
 10
-110.021348
 20
410.326776
 30
0.0
 11
-110.021348
 21
272.588954
 31
0.0
  0
LINE
  5
678
330
675
100
AcDbEntity
  8
LC-001-100-D00-0
 62
     2
370
    -2
100
AcDbLine
 10
-343.521144
 20
281.588954
 30
0.0
 11
-160.021348
 21
281.588954
 31
0.0
  0
SOLID
  5
679
330
675
100
AcDbEntity
  8
LC-001-100-D00-0
 62
     2
100
AcDbTrace
 10
-343.521144
 20
289.922287
 30
0.0
 11
-343.521144
 21
273.255621
 31
0.0
 12
-393.521144
 22
281.588954
 32
0.0
 13
-393.521144
 23
281.588954
 33
0.0
  0
SOLID
  5
67A
330
675
100
AcDbEntity
  8
LC-001-100-D00-0
 62
     2
100
AcDbTrace
 10
-160.021348
 20
273.255621
 30
0.0
 11
-160.021348
 21
289.922287
 31
0.0
 12
-110.021348
 22
281.588954
 32
0.0
 13
-110.021348
 23
281.588954
 33
0.0
  0
MTEXT
  5
67B
330
675
100
AcDbEntity
  8
LC-001-100-D00-0
 62
     2
100
AcDbMText
 10
-259.853457
 20
336.588954
 30
0.0
 40
50.0
 41
0.0
 71
     5
 72
     1
  1
\A1;284
  7
LCTX15-400-0-0pDIN-Schrift
 73
     1
 44
1.0
  0
POINT
  5
67C
330
675
100
AcDbEntity
  8
Defpoints
 62
     0
100
AcDbPoint
 10
-393.521144
 20
420.888954
 30
0.0
  0
POINT
  5
67D
330
675
100
AcDbEntity
  8
Defpoints
 62
     0
100
AcDbPoint
 10
-110.021348
 20
410.326776
 30
0.0
  0
POINT
  5
67E
330
675
100
AcDbEntity
  8
Defpoints
 62
     0
100
AcDbPoint
 10
-110.021348
 20
281.588954
 30
0.0
  0
ENDBLK
  5
680
330
675
100
AcDbEntity
  8
0
100
AcDbBlockEnd
  0
BLOCK
  5
68D
330
682
100
AcDbEntity
  8
0
100
AcDbBlockBegin
  2
*D29
 70
     1
 71
     0
 10
0.0
 20
0.0
 30
0.0
  3
*D29
  1

  0
LINE
  5
683
330
682
100
AcDbEntity
  8
LC-001-100-D00-0
 62
     2
370
    -2
100
AcDbLine
 10
-113.521348
 20
459.388954
 30
0.0
 11
293.181055
 21
459.388954
 31
0.0
  0
LINE
  5
684
330
682
100
AcDbEntity
  8
LC-001-100-D00-0
 62
     2
370
    -2
100
AcDbLine
 10
-113.521348
 20
409.388954
 30
0.0
 11
293.181055
 21
409.388954
 31
0.0
  0
LINE
  5
685
330
682
100
AcDbEntity
  8
LC-001-100-D00-0
 62
     2
370
    -2
100
AcDbLine
 10
284.181055
 20
359.388954
 30
0.0
 11
284.181055
 21
309.388954
 31
0.0
  0
LINE
  5
686
330
682
100
AcDbEntity
  8
LC-001-100-D00-0
 62
     2
370
    -2
100
AcDbLine
 10
284.181055
 20
509.388954
 30
0.0
 11
284.181055
 21
578.040307
 31
0.0
  0
SOLID
  5
687
330
682
100
AcDbEntity
  8
LC-001-100-D00-0
 62
     2
100
AcDbTrace
 10
275.847721
 20
509.388954
 30
0.0
 11
292.514388
 21
509.388954
 31
0.0
 12
284.181055
 22
459.388954
 32
0.0
 13
284.181055
 23
459.388954
 33
0.0
  0
SOLID
  5
688
330
682
100
AcDbEntity
  8
LC-001-100-D00-0
 62
     2
100
AcDbTrace
 10
292.514388
 20
359.388954
 30
0.0
 11
275.847721
 21
359.388954
 31
0.0
 12
284.181055
 22
409.388954
 32
0.0
 13
284.181055
 23
409.388954
 33
0.0
  0
MTEXT
  5
689
330
682
100
AcDbEntity
  8
LC-001-100-D00-0
 62
     2
100
AcDbMText
 10
229.181055
 20
493.688954
 30
0.0
 40
50.0
 41
0.0
 71
     5
 72
     1
  1
\A1;DN50
  7
LCTX15-400-0-0pDIN-Schrift
 11
6.123031769111886E-17
 21
1.0
 31
0.0
 73
     1
 44
1.0
  0
POINT
  5
68A
330
682
100
AcDbEntity
  8
Defpoints
 62
     0
100
AcDbPoint
 10
-113.521348
 20
459.388954
 30
0.0
  0
POINT
  5
68B
330
682
100
AcDbEntity
  8
Defpoints
 62
     0
100
AcDbPoint
 10
-113.521348
 20
409.388954
 30
0.0
  0
POINT
  5
68C
330
682
100
AcDbEntity
  8
Defpoints
 62
     0
100
AcDbPoint
 10
284.181055
 20
409.388954
 30
0.0
  0
ENDBLK
  5
68E
330
682
100
AcDbEntity
  8
0
100
AcDbBlockEnd
  0
BLOCK
  5
69C
330
690
100
AcDbEntity
  8
0
100
AcDbBlockBegin
  2
*D30
 70
     1
 71
     0
 10
0.0
 20
0.0
 30
0.0
  3
*D30
  1

  0
LINE
  5
691
330
690
100
AcDbEntity
  8
LC-001-100-D00-0
 62
     2
370
    -2
100
AcDbLine
 10
180.478856
 20
491.888954
 30
0.0
 11
396.360014
 21
491.888954
 31
0.0
  0
LINE
  5
692
330
690
100
AcDbEntity
  8
LC-001-100-D00-0
 62
     2
370
    -2
100
AcDbLine
 10
-103.521348
 20
434.388954
 30
0.0
 11
396.360014
 21
434.388954
 31
0.0
  0
LINE
  5
693
330
690
100
AcDbEntity
  8
LC-001-100-D00-0
 62
     2
370
    -2
100
AcDbLine
 10
387.360014
 20
541.888954
 30
0.0
 11
387.360014
 21
591.888954
 31
0.0
  0
LINE
  5
694
330
690
100
AcDbEntity
  8
LC-001-100-D00-0
 62
     2
370
    -2
100
AcDbLine
 10
387.360014
 20
384.388954
 30
0.0
 11
387.360014
 21
334.388954
 31
0.0
  0
LINE
  5
695
330
690
100
AcDbEntity
  8
LC-001-100-D00-0
 62
     2
370
    -2
100
AcDbLine
 10
387.360014
 20
491.888954
 30
0.0
 11
387.360014
 21
434.388954
 31
0.0
  0
SOLID
  5
696
330
690
100
AcDbEntity
  8
LC-001-100-D00-0
 62
     2
100
AcDbTrace
 10
379.026681
 20
541.888954
 30
0.0
 11
395.693347
 21
541.888954
 31
0.0
 12
387.360014
 22
491.888954
 32
0.0
 13
387.360014
 23
491.888954
 33
0.0
  0
SOLID
  5
697
330
690
100
AcDbEntity
  8
LC-001-100-D00-0
 62
     2
100
AcDbTrace
 10
395.693347
 20
384.388954
 30
0.0
 11
379.026681
 21
384.388954
 31
0.0
 12
387.360014
 22
434.388954
 32
0.0
 13
387.360014
 23
434.388954
 33
0.0
  0
MTEXT
  5
698
330
690
100
AcDbEntity
  8
LC-001-100-D00-0
 62
     2
100
AcDbMText
 10
332.360014
 20
489.488954
 30
0.0
 40
50.0
 41
0.0
 71
     5
 72
     1
  1
\A1;57,5
  7
LCTX15-400-0-0pDIN-Schrift
 11
6.123031769111886E-17
 21
1.0
 31
0.0
 73
     1
 44
1.0
  0
POINT
  5
699
330
690
100
AcDbEntity
  8
Defpoints
 62
     0
100
AcDbPoint
 10
180.478856
 20
491.888954
 30
0.0
  0
POINT
  5
69A
330
690
100
AcDbEntity
  8
Defpoints
 62
     0
100
AcDbPoint
 10
-103.521348
 20
434.388954
 30
0.0
  0
POINT
  5
69B
330
690
100
AcDbEntity
  8
Defpoints
 62
     0
100
AcDbPoint
 10
387.360014
 20
434.388954
 30
0.0
  0
ENDBLK
  5
69D
330
690
100
AcDbEntity
  8
0
100
AcDbBlockEnd
  0
BLOCK
  5
6AB
330
69F
100
AcDbEntity
  8
0
100
AcDbBlockBegin
  2
*D31
 70
     1
 71
     0
 10
0.0
 20
0.0
 30
0.0
  3
*D31
  1

  0
LINE
  5
6A0
330
69F
100
AcDbEntity
  8
LC-001-100-D00-0
 62
     2
370
    -2
100
AcDbLine
 10
-819.521144
 20
491.888954
 30
0.0
 11
-860.170349
 21
491.888954
 31
0.0
  0
LINE
  5
6A1
330
69F
100
AcDbEntity
  8
LC-001-100-D00-0
 62
     2
370
    -2
100
AcDbLine
 10
-373.539024
 20
401.888954
 30
0.0
 11
-860.170349
 21
401.888954
 31
0.0
  0
LINE
  5
6A2
330
69F
100
AcDbEntity
  8
LC-001-100-D00-0
 62
     2
370
    -2
100
AcDbLine
 10
-851.170349
 20
541.888954
 30
0.0
 11
-851.170349
 21
591.888954
 31
0.0
  0
LINE
  5
6A3
330
69F
100
AcDbEntity
  8
LC-001-100-D00-0
 62
     2
370
    -2
100
AcDbLine
 10
-851.170349
 20
351.888954
 30
0.0
 11
-851.170349
 21
301.888954
 31
0.0
  0
LINE
  5
6A4
330
69F
100
AcDbEntity
  8
LC-001-100-D00-0
 62
     2
370
    -2
100
AcDbLine
 10
-851.170349
 20
491.888954
 30
0.0
 11
-851.170349
 21
401.888954
 31
0.0
  0
SOLID
  5
6A5
330
69F
100
AcDbEntity
  8
LC-001-100-D00-0
 62
     2
100
AcDbTrace
 10
-859.503682
 20
541.888954
 30
0.0
 11
-842.837016
 21
541.888954
 31
0.0
 12
-851.170349
 22
491.888954
 32
0.0
 13
-851.170349
 23
491.888954
 33
0.0
  0
SOLID
  5
6A6
330
69F
100
AcDbEntity
  8
LC-001-100-D00-0
 62
     2
100
AcDbTrace
 10
-842.837016
 20
351.888954
 30
0.0
 11
-859.503682
 21
351.888954
 31
0.0
 12
-851.170349
 22
401.888954
 32
0.0
 13
-851.170349
 23
401.888954
 33
0.0
  0
MTEXT
  5
6A7
330
69F
100
AcDbEntity
  8
LC-001-100-D00-0
 62
     2
100
AcDbMText
 10
-906.170349
 20
432.788954
 30
0.0
 40
50.0
 41
0.0
 71
     5
 72
     1
  1
\A1;90
  7
LCTX15-400-0-0pDIN-Schrift
 11
6.123031769111886E-17
 21
1.0
 31
0.0
 73
     1
 44
1.0
  0
POINT
  5
6A8
330
69F
100
AcDbEntity
  8
Defpoints
 62
     0
100
AcDbPoint
 10
-819.521144
 20
491.888954
 30
0.0
  0
POINT
  5
6A9
330
69F
100
AcDbEntity
  8
Defpoints
 62
     0
100
AcDbPoint
 10
-373.539024
 20
401.888954
 30
0.0
  0
POINT
  5
6AA
330
69F
100
AcDbEntity
  8
Defpoints
 62
     0
100
AcDbPoint
 10
-851.170349
 20
401.888954
 30
0.0
  0
ENDBLK
  5
6AC
330
69F
100
AcDbEntity
  8
0
100
AcDbBlockEnd
  0
BLOCK
  5
6B9
330
6AE
100
AcDbEntity
  8
0
100
AcDbBlockBegin
  2
*D32
 70
     1
 71
     0
 10
0.0
 20
0.0
 30
0.0
  3
*D32
  1

  0
LINE
  5
6AF
330
6AE
100
AcDbEntity
  8
LC-001-100-D00-0
 62
     2
370
    -2
100
AcDbLine
 10
180.478856
 20
491.888954
 30
0.0
 11
490.541921
 21
491.888954
 31
0.0
  0
LINE
  5
6B0
330
6AE
100
AcDbEntity
  8
LC-001-100-D00-0
 62
     2
370
    -2
100
AcDbLine
 10
39.978856
 20
357.388954
 30
0.0
 11
490.541921
 21
357.388954
 31
0.0
  0
LINE
  5
6B1
330
6AE
100
AcDbEntity
  8
LC-001-100-D00-0
 62
     2
370
    -2
100
AcDbLine
 10
481.541921
 20
441.888954
 30
0.0
 11
481.541921
 21
407.388954
 31
0.0
  0
LINE
  5
6B2
330
6AE
100
AcDbEntity
  8
LC-001-100-D00-0
 62
     2
370
    -2
100
AcDbLine
 10
481.541921
 20
491.888954
 30
0.0
 11
481.541921
 21
682.630722
 31
0.0
  0
SOLID
  5
6B3
330
6AE
100
AcDbEntity
  8
LC-001-100-D00-0
 62
     2
100
AcDbTrace
 10
489.875254
 20
441.888954
 30
0.0
 11
473.208588
 21
441.888954
 31
0.0
 12
481.541921
 22
491.888954
 32
0.0
 13
481.541921
 23
491.888954
 33
0.0
  0
SOLID
  5
6B4
330
6AE
100
AcDbEntity
  8
LC-001-100-D00-0
 62
     2
100
AcDbTrace
 10
473.208588
 20
407.388954
 30
0.0
 11
489.875254
 21
407.388954
 31
0.0
 12
481.541921
 22
357.388954
 32
0.0
 13
481.541921
 23
357.388954
 33
0.0
  0
MTEXT
  5
6B5
330
6AE
100
AcDbEntity
  8
LC-001-100-D00-0
 62
     2
100
AcDbMText
 10
426.541921
 20
529.388954
 30
0.0
 40
50.0
 41
0.0
 71
     5
 72
     1
  1
\A1;90-129,5
  7
LCTX15-400-0-0pDIN-Schrift
 11
6.123031769111886E-17
 21
1.0
 31
0.0
 73
     1
 44
1.0
  0
POINT
  5
6B6
330
6AE
100
AcDbEntity
  8
Defpoints
 62
     0
100
AcDbPoint
 10
180.478856
 20
491.888954
 30
0.0
  0
POINT
  5
6B7
330
6AE
100
AcDbEntity
  8
Defpoints
 62
     0
100
AcDbPoint
 10
39.978856
 20
357.388954
 30
0.0
  0
POINT
  5
6B8
330
6AE
100
AcDbEntity
  8
Defpoints
 62
     0
100
AcDbPoint
 10
481.541921
 20
357.388954
 30
0.0
  0
ENDBLK
  5
6BA
330
6AE
100
AcDbEntity
  8
0
100
AcDbBlockEnd
  0
BLOCK
  5
6BC
330
6BB
100
AcDbEntity
  8
0
100
AcDbBlockBegin
  2
KLON23
 70
     0
 71
     0
 10
0.0
 20
0.0
 30
0.0
  3
KLON23
  1

  4
KLON23
  0
LINE
  5
6BE
330
6BB
100
AcDbEntity
  8
LC-001-100-D00-0
 62
     7
370
    25
100
AcDbLine
 10
-292.021144
 20
420.79149
 30
0.0
 11
-290.521144
 21
422.29149
 31
0.0
  0
LINE
  5
6BF
330
6BB
100
AcDbEntity
  8
LC-001-100-D00-0
 62
     7
370
    25
100
AcDbLine
 10
-292.021144
 20
443.242131
 30
0.0
 11
-290.521144
 21
444.742131
 31
0.0
  0
LINE
  5
6C0
330
6BB
100
AcDbEntity
  8
LC-001-100-D00-0
 62
     7
370
    25
100
AcDbLine
 10
-275.374323
 20
459.888954
 30
0.0
 11
-269.374323
 21
465.888954
 31
0.0
  0
ENDBLK
  5
6BD
330
6BB
100
AcDbEntity
  8
0
100
AcDbBlockEnd
  0
BLOCK
  5
6C3
330
6C2
100
AcDbEntity
  8
0
100
AcDbBlockBegin
  2
KLON24
 70
     0
 71
     0
 10
0.0
 20
0.0
 30
0.0
  3
KLON24
  1

  4
KLON24
  0
LINE
  5
6C5
330
6C2
100
AcDbEntity
  8
LC-001-100-D00-0
 62
     7
370
    25
100
AcDbLine
 10
-348.521144
 20
431.643409
 30
0.0
 11
-347.021144
 21
433.143409
 31
0.0
  0
LINE
  5
6C6
330
6C2
100
AcDbEntity
  8
LC-001-100-D00-0
 62
     7
370
    25
100
AcDbLine
 10
-349.173516
 20
453.441678
 30
0.0
 11
-347.021144
 21
455.594051
 31
0.0
  0
LINE
  5
6C7
330
6C2
100
AcDbEntity
  8
LC-001-100-D00-0
 62
     7
370
    25
100
AcDbLine
 10
-365.176881
 20
459.888954
 30
0.0
 11
-359.176881
 21
465.888954
 31
0.0
  0
ENDBLK
  5
6C4
330
6C2
100
AcDbEntity
  8
0
100
AcDbBlockEnd
  0
BLOCK
  5
6CA
330
6C9
100
AcDbEntity
  8
0
100
AcDbBlockBegin
  2
KLON25
 70
     0
 71
     0
 10
0.0
 20
0.0
 30
0.0
  3
KLON25
  1

  4
KLON25
  0
LINE
  5
6CC
330
6C9
100
AcDbEntity
  8
LC-001-100-D00-0
 62
     7
370
    25
100
AcDbLine
 10
-285.97304
 20
404.388954
 30
0.0
 11
-284.47304
 21
405.888954
 31
0.0
  0
LINE
  5
6CD
330
6C9
100
AcDbEntity
  8
LC-001-100-D00-0
 62
     7
370
    25
100
AcDbLine
 10
-280.021144
 20
410.34085
 30
0.0
 11
-278.521144
 21
411.84085
 31
0.0
  0
LINE
  5
6CE
330
6C9
100
AcDbEntity
  8
LC-001-100-D00-0
 62
     7
370
    25
100
AcDbLine
 10
-308.423679
 20
404.388954
 30
0.0
 11
-306.923679
 21
405.888954
 31
0.0
  0
LINE
  5
6CF
330
6C9
100
AcDbEntity
  8
LC-001-100-D00-0
 62
     7
370
    25
100
AcDbLine
 10
-280.021144
 20
432.791491
 30
0.0
 11
-278.521144
 21
434.291491
 31
0.0
  0
LINE
  5
6D0
330
6C9
100
AcDbEntity
  8
LC-001-100-D00-0
 62
     7
370
    25
100
AcDbLine
 10
-330.874319
 20
404.388954
 30
0.0
 11
-329.374319
 21
405.888954
 31
0.0
  0
LINE
  5
6D1
330
6C9
100
AcDbEntity
  8
LC-001-100-D00-0
 62
     7
370
    25
100
AcDbLine
 10
-353.324958
 20
404.388954
 30
0.0
 11
-351.824958
 21
405.888954
 31
0.0
  0
LINE
  5
6D2
330
6C9
100
AcDbEntity
  8
LC-001-100-D00-0
 62
     7
370
    25
100
AcDbLine
 10
-360.521144
 20
419.643408
 30
0.0
 11
-359.021144
 21
421.143409
 31
0.0
  0
LINE
  5
6D3
330
6C9
100
AcDbEntity
  8
LC-001-100-D00-0
 62
     7
370
    25
100
AcDbLine
 10
-360.521144
 20
442.09405
 30
0.0
 11
-359.021144
 21
443.59405
 31
0.0
  0
LINE
  5
6D4
330
6C9
100
AcDbEntity
  8
LC-001-100-D00-0
 62
     7
370
    25
100
AcDbLine
 10
-368.678687
 20
456.387147
 30
0.0
 11
-367.248115
 21
457.81772
 31
0.0
  0
ENDBLK
  5
6CB
330
6C9
100
AcDbEntity
  8
0
100
AcDbBlockEnd
  0
BLOCK
  5
6D7
330
6D6
100
AcDbEntity
  8
0
100
AcDbBlockBegin
  2
KLON26
 70
     0
 71
     0
 10
0.0
 20
0.0
 30
0.0
  3
KLON26
  1

  4
KLON26
  0
LINE
  5
6D9
330
6D6
100
AcDbEntity
  8
LC-001-100-D00-0
 62
     7
370
    25
100
AcDbLine
 10
-143.420486
 20
457.138954
 30
0.0
 11
-141.170486
 21
459.388954
 31
0.0
  0
LINE
  5
6DA
330
6D6
100
AcDbEntity
  8
LC-001-100-D00-0
 62
     7
370
    25
100
AcDbLine
 10
-120.969846
 20
457.138954
 30
0.0
 11
-118.719846
 21
459.388954
 31
0.0
  0
LINE
  5
6DB
330
6D6
100
AcDbEntity
  8
LC-001-100-D00-0
 62
     7
370
    25
100
AcDbLine
 10
-225.021348
 20
465.34065
 30
0.0
 11
-223.973043
 21
466.388954
 31
0.0
  0
LINE
  5
6DC
330
6D6
100
AcDbEntity
  8
LC-001-100-D00-0
 62
     7
370
    25
100
AcDbLine
 10
-205.972847
 20
461.93853
 30
0.0
 11
-204.051886
 21
463.859491
 31
0.0
  0
ENDBLK
  5
6D8
330
6D6
100
AcDbEntity
  8
0
100
AcDbBlockEnd
  0
BLOCK
  5
6DF
330
6DE
100
AcDbEntity
  8
0
100
AcDbBlockBegin
  2
KLON27
 70
     0
 71
     0
 10
0.0
 20
0.0
 30
0.0
  3
KLON27
  1

  4
KLON27
  0
LINE
  5
6E1
330
6DE
100
AcDbEntity
  8
LC-001-100-D00-0
 62
     7
370
    25
100
AcDbLine
 10
-191.170482
 20
409.388954
 30
0.0
 11
-188.920482
 21
411.638954
 31
0.0
  0
LINE
  5
6E2
330
6DE
100
AcDbEntity
  8
LC-001-100-D00-0
 62
     7
370
    25
100
AcDbLine
 10
-168.719842
 20
409.388954
 30
0.0
 11
-166.469842
 21
411.638954
 31
0.0
  0
LINE
  5
6E3
330
6DE
100
AcDbEntity
  8
LC-001-100-D00-0
 62
     7
370
    25
100
AcDbLine
 10
-146.269202
 20
409.388954
 30
0.0
 11
-144.019202
 21
411.638954
 31
0.0
  0
LINE
  5
6E4
330
6DE
100
AcDbEntity
  8
LC-001-100-D00-0
 62
     7
370
    25
100
AcDbLine
 10
-123.818582
 20
409.388954
 30
0.0
 11
-121.568582
 21
411.638954
 31
0.0
  0
ENDBLK
  5
6E0
330
6DE
100
AcDbEntity
  8
0
100
AcDbBlockEnd
  0
BLOCK
  5
6E8
330
6E7
100
AcDbEntity
  8
0
100
AcDbBlockBegin
  2
KLON28
 70
     0
 71
     0
 10
0.0
 20
0.0
 30
0.0
  3
KLON28
  1

  4
KLON28
  0
LINE
  5
6EA
330
6E7
100
AcDbEntity
  8
LC-001-100-D00-0
 62
     7
370
    25
100
AcDbLine
 10
159.237186
 20
490.388954
 30
0.0
 11
160.737185
 21
491.888954
 31
0.0
  0
LINE
  5
6EB
330
6E7
100
AcDbEntity
  8
LC-001-100-D00-0
 62
     7
370
    25
100
AcDbLine
 10
116.286548
 20
469.888954
 30
0.0
 11
117.786547
 21
471.388954
 31
0.0
  0
LINE
  5
6EC
330
6E7
100
AcDbEntity
  8
LC-001-100-D00-0
 62
     7
370
    25
100
AcDbLine
 10
130.478856
 20
484.081263
 30
0.0
 11
131.978856
 21
485.581263
 31
0.0
  0
LINE
  5
6ED
330
6E7
100
AcDbEntity
  8
LC-001-100-D00-0
 62
     7
370
    25
100
AcDbLine
 10
136.786546
 20
490.388954
 30
0.0
 11
138.286546
 21
491.888954
 31
0.0
  0
LINE
  5
6EE
330
6E7
100
AcDbEntity
  8
LC-001-100-D00-0
 62
     7
370
    25
100
AcDbLine
 10
93.835908
 20
469.888954
 30
0.0
 11
95.335908
 21
471.388954
 31
0.0
  0
LINE
  5
6EF
330
6E7
100
AcDbEntity
  8
LC-001-100-D00-0
 62
     7
370
    25
100
AcDbLine
 10
95.978856
 20
472.031902
 30
0.0
 11
104.478856
 21
480.531902
 31
0.0
  0
LINE
  5
6F0
330
6E7
100
AcDbEntity
  8
LC-001-100-D00-0
 62
     7
370
    25
100
AcDbLine
 10
71.385269
 20
469.888954
 30
0.0
 11
72.885268
 21
471.388954
 31
0.0
  0
LINE
  5
6F1
330
6E7
100
AcDbEntity
  8
LC-001-100-D00-0
 62
     7
370
    25
100
AcDbLine
 10
48.934629
 20
469.888954
 30
0.0
 11
50.434629
 21
471.388954
 31
0.0
  0
LINE
  5
6F2
330
6E7
100
AcDbEntity
  8
LC-001-100-D00-0
 62
     7
370
    25
100
AcDbLine
 10
26.48399
 20
469.888954
 30
0.0
 11
27.98399
 21
471.388954
 31
0.0
  0
LINE
  5
6F3
330
6E7
100
AcDbEntity
  8
LC-001-100-D00-0
 62
     7
370
    25
100
AcDbLine
 10
4.03335
 20
469.888954
 30
0.0
 11
5.53335
 21
471.388954
 31
0.0
  0
LINE
  5
6F4
330
6E7
100
AcDbEntity
  8
LC-001-100-D00-0
 62
     7
370
    25
100
AcDbLine
 10
-18.417289
 20
469.888954
 30
0.0
 11
-16.917289
 21
471.388954
 31
0.0
  0
LINE
  5
6F5
330
6E7
100
AcDbEntity
  8
LC-001-100-D00-0
 62
     7
370
    25
100
AcDbLine
 10
-40.867929
 20
469.888954
 30
0.0
 11
-39.367929
 21
471.388954
 31
0.0
  0
LINE
  5
6F6
330
6E7
100
AcDbEntity
  8
LC-001-100-D00-0
 62
     7
370
    25
100
AcDbLine
 10
-63.318568
 20
469.888954
 30
0.0
 11
-55.521144
 21
477.686378
 31
0.0
  0
LINE
  5
6F7
330
6E7
100
AcDbEntity
  8
LC-001-100-D00-0
 62
     7
370
    25
100
AcDbLine
 10
-85.769208
 20
469.888954
 30
0.0
 11
-84.269208
 21
471.388954
 31
0.0
  0
LINE
  5
6F8
330
6E7
100
AcDbEntity
  8
LC-001-100-D00-0
 62
     7
370
    25
100
AcDbLine
 10
-108.219847
 20
469.888954
 30
0.0
 11
-106.719847
 21
471.388954
 31
0.0
  0
LINE
  5
6F9
330
6E7
100
AcDbEntity
  8
LC-001-100-D00-0
 62
     7
370
    25
100
AcDbLine
 10
-130.670487
 20
469.888954
 30
0.0
 11
-129.170487
 21
471.388954
 31
0.0
  0
LINE
  5
6FA
330
6E7
100
AcDbEntity
  8
LC-001-100-D00-0
 62
     7
370
    25
100
AcDbLine
 10
-153.121126
 20
469.888954
 30
0.0
 11
-151.621126
 21
471.388954
 31
0.0
  0
LINE
  5
6FB
330
6E7
100
AcDbEntity
  8
LC-001-100-D00-0
 62
     7
370
    25
100
AcDbLine
 10
-175.571766
 20
469.888954
 30
0.0
 11
-174.071766
 21
471.388954
 31
0.0
  0
LINE
  5
6FC
330
6E7
100
AcDbEntity
  8
LC-001-100-D00-0
 62
     7
370
    25
100
AcDbLine
 10
-198.022405
 20
469.888954
 30
0.0
 11
-196.522405
 21
471.388954
 31
0.0
  0
LINE
  5
6FD
330
6E7
100
AcDbEntity
  8
LC-001-100-D00-0
 62
     7
370
    25
100
AcDbLine
 10
-220.473045
 20
469.888954
 30
0.0
 11
-216.308481
 21
474.053518
 31
0.0
  0
LINE
  5
6FE
330
6E7
100
AcDbEntity
  8
LC-001-100-D00-0
 62
     7
370
    25
100
AcDbLine
 10
-247.923684
 20
464.888954
 30
0.0
 11
-246.423684
 21
466.388954
 31
0.0
  0
LINE
  5
6FF
330
6E7
100
AcDbEntity
  8
LC-001-100-D00-0
 62
     7
370
    25
100
AcDbLine
 10
-223.521144
 20
489.291495
 30
0.0
 11
-221.423686
 21
491.388954
 31
0.0
  0
ENDBLK
  5
6E9
330
6E7
100
AcDbEntity
  8
0
100
AcDbBlockEnd
  0
BLOCK
  5
702
330
701
100
AcDbEntity
  8
0
100
AcDbBlockBegin
  2
KLON29
 70
     0
 71
     0
 10
0.0
 20
0.0
 30
0.0
  3
KLON29
  1

  4
KLON29
  0
LINE
  5
704
330
701
100
AcDbEntity
  8
LC-001-100-D00-0
 62
     7
370
    25
100
AcDbLine
 10
-382.627521
 20
464.888954
 30
0.0
 11
-381.127521
 21
466.388954
 31
0.0
  0
LINE
  5
705
330
701
100
AcDbEntity
  8
LC-001-100-D00-0
 62
     7
370
    25
100
AcDbLine
 10
-402.8472
 20
467.119914
 30
0.0
 11
-401.622456
 21
468.344659
 31
0.0
  0
LINE
  5
706
330
701
100
AcDbEntity
  8
LC-001-100-D00-0
 62
     7
370
    25
100
AcDbLine
 10
-422.5288
 20
469.888954
 30
0.0
 11
-415.521144
 21
476.89661
 31
0.0
  0
LINE
  5
707
330
701
100
AcDbEntity
  8
LC-001-100-D00-0
 62
     7
370
    25
100
AcDbLine
 10
-444.979439
 20
469.888954
 30
0.0
 11
-443.47944
 21
471.388954
 31
0.0
  0
LINE
  5
708
330
701
100
AcDbEntity
  8
LC-001-100-D00-0
 62
     7
370
    25
100
AcDbLine
 10
-467.430079
 20
469.888954
 30
0.0
 11
-465.930079
 21
471.388954
 31
0.0
  0
LINE
  5
709
330
701
100
AcDbEntity
  8
LC-001-100-D00-0
 62
     7
370
    25
100
AcDbLine
 10
-489.880718
 20
469.888954
 30
0.0
 11
-488.380719
 21
471.388954
 31
0.0
  0
LINE
  5
70A
330
701
100
AcDbEntity
  8
LC-001-100-D00-0
 62
     7
370
    25
100
AcDbLine
 10
-512.331358
 20
469.888954
 30
0.0
 11
-510.831358
 21
471.388954
 31
0.0
  0
LINE
  5
70B
330
701
100
AcDbEntity
  8
LC-001-100-D00-0
 62
     7
370
    25
100
AcDbLine
 10
-534.781997
 20
469.888954
 30
0.0
 11
-533.281998
 21
471.388954
 31
0.0
  0
LINE
  5
70C
330
701
100
AcDbEntity
  8
LC-001-100-D00-0
 62
     7
370
    25
100
AcDbLine
 10
-557.232637
 20
469.888954
 30
0.0
 11
-555.732637
 21
471.388954
 31
0.0
  0
LINE
  5
70D
330
701
100
AcDbEntity
  8
LC-001-100-D00-0
 62
     7
370
    25
100
AcDbLine
 10
-579.683276
 20
469.888954
 30
0.0
 11
-576.118676
 21
473.453554
 31
0.0
  0
LINE
  5
70E
330
701
100
AcDbEntity
  8
LC-001-100-D00-0
 62
     7
370
    25
100
AcDbLine
 10
-602.133916
 20
469.888954
 30
0.0
 11
-600.633916
 21
471.388954
 31
0.0
  0
LINE
  5
70F
330
701
100
AcDbEntity
  8
LC-001-100-D00-0
 62
     7
370
    25
100
AcDbLine
 10
-583.521144
 20
488.501727
 30
0.0
 11
-580.633917
 21
491.388954
 31
0.0
  0
LINE
  5
710
330
701
100
AcDbEntity
  8
LC-001-100-D00-0
 62
     7
370
    25
100
AcDbLine
 10
-624.584555
 20
469.888954
 30
0.0
 11
-623.084555
 21
471.388954
 31
0.0
  0
LINE
  5
711
330
701
100
AcDbEntity
  8
LC-001-100-D00-0
 62
     7
370
    25
100
AcDbLine
 10
-647.035195
 20
469.888954
 30
0.0
 11
-645.535195
 21
471.388954
 31
0.0
  0
LINE
  5
712
330
701
100
AcDbEntity
  8
LC-001-100-D00-0
 62
     7
370
    25
100
AcDbLine
 10
-669.485834
 20
469.888954
 30
0.0
 11
-667.985834
 21
471.388954
 31
0.0
  0
LINE
  5
713
330
701
100
AcDbEntity
  8
LC-001-100-D00-0
 62
     7
370
    25
100
AcDbLine
 10
-691.936474
 20
469.888954
 30
0.0
 11
-690.436474
 21
471.388954
 31
0.0
  0
LINE
  5
714
330
701
100
AcDbEntity
  8
LC-001-100-D00-0
 62
     7
370
    25
100
AcDbLine
 10
-714.387113
 20
469.888954
 30
0.0
 11
-712.887113
 21
471.388954
 31
0.0
  0
LINE
  5
715
330
701
100
AcDbEntity
  8
LC-001-100-D00-0
 62
     7
370
    25
100
AcDbLine
 10
-736.837753
 20
469.888954
 30
0.0
 11
-735.021144
 21
471.705562
 31
0.0
  0
LINE
  5
716
330
701
100
AcDbEntity
  8
LC-001-100-D00-0
 62
     7
370
    25
100
AcDbLine
 10
-759.288392
 20
469.888954
 30
0.0
 11
-757.788392
 21
471.388954
 31
0.0
  0
LINE
  5
717
330
701
100
AcDbEntity
  8
LC-001-100-D00-0
 62
     7
370
    25
100
AcDbLine
 10
-743.521144
 20
485.656203
 30
0.0
 11
-737.788394
 21
491.388954
 31
0.0
  0
LINE
  5
718
330
701
100
AcDbEntity
  8
LC-001-100-D00-0
 62
     7
370
    25
100
AcDbLine
 10
-771.021144
 20
480.606842
 30
0.0
 11
-769.521144
 21
482.106842
 31
0.0
  0
LINE
  5
719
330
701
100
AcDbEntity
  8
LC-001-100-D00-0
 62
     7
370
    25
100
AcDbLine
 10
-783.689673
 20
490.388954
 30
0.0
 11
-782.189673
 21
491.888954
 31
0.0
  0
LINE
  5
71A
330
701
100
AcDbEntity
  8
LC-001-100-D00-0
 62
     7
370
    25
100
AcDbLine
 10
-806.140312
 20
490.388954
 30
0.0
 11
-804.640312
 21
491.888954
 31
0.0
  0
ENDBLK
  5
703
330
701
100
AcDbEntity
  8
0
100
AcDbBlockEnd
  0
BLOCK
  5
71D
330
71C
100
AcDbEntity
  8
0
100
AcDbBlockBegin
  2
KLON30
 70
     0
 71
     0
 10
0.0
 20
0.0
 30
0.0
  3
KLON30
  1

  4
KLON30
  0
LINE
  5
71F
330
71C
100
AcDbEntity
  8
LC-001-100-D00-0
 62
     7
370
    25
100
AcDbLine
 10
-218.227355
 20
404.78272
 30
0.0
 11
-211.621122
 21
411.388954
 31
0.0
  0
LINE
  5
720
330
71C
100
AcDbEntity
  8
LC-001-100-D00-0
 62
     7
370
    25
100
AcDbLine
 10
-237.071761
 20
408.388954
 30
0.0
 11
-234.071761
 21
411.388954
 31
0.0
  0
LINE
  5
721
330
71C
100
AcDbEntity
  8
LC-001-100-D00-0
 62
     7
370
    25
100
AcDbLine
 10
-266.0224
 20
401.888954
 30
0.0
 11
-256.522401
 21
411.388954
 31
0.0
  0
LINE
  5
722
330
71C
100
AcDbEntity
  8
LC-001-100-D00-0
 62
     7
370
    25
100
AcDbLine
 10
-288.47304
 20
401.888954
 30
0.0
 11
-285.47304
 21
404.888954
 31
0.0
  0
LINE
  5
723
330
71C
100
AcDbEntity
  8
LC-001-100-D00-0
 62
     7
370
    25
100
AcDbLine
 10
-310.923679
 20
401.888954
 30
0.0
 11
-307.923679
 21
404.888954
 31
0.0
  0
LINE
  5
724
330
71C
100
AcDbEntity
  8
LC-001-100-D00-0
 62
     7
370
    25
100
AcDbLine
 10
-333.374319
 20
401.888954
 30
0.0
 11
-330.374319
 21
404.888954
 31
0.0
  0
LINE
  5
725
330
71C
100
AcDbEntity
  8
LC-001-100-D00-0
 62
     7
370
    25
100
AcDbLine
 10
-355.824958
 20
401.888954
 30
0.0
 11
-352.824958
 21
404.888954
 31
0.0
  0
LINE
  5
726
330
71C
100
AcDbEntity
  8
LC-001-100-D00-0
 62
     7
370
    25
100
AcDbLine
 10
-377.225944
 20
402.938608
 30
0.0
 11
-374.994403
 21
405.170149
 31
0.0
  0
LINE
  5
727
330
71C
100
AcDbEntity
  8
LC-001-100-D00-0
 62
     7
370
    25
100
AcDbLine
 10
-390.205492
 20
412.4097
 30
0.0
 11
-388.081948
 21
414.533244
 31
0.0
  0
LINE
  5
728
330
71C
100
AcDbEntity
  8
LC-001-100-D00-0
 62
     7
370
    25
100
AcDbLine
 10
-393.521144
 20
431.544688
 30
0.0
 11
-390.521144
 21
434.544688
 31
0.0
  0
LINE
  5
729
330
71C
100
AcDbEntity
  8
LC-001-100-D00-0
 62
     7
370
    25
100
AcDbLine
 10
-393.521144
 20
453.995329
 30
0.0
 11
-390.521144
 21
456.99533
 31
0.0
  0
ENDBLK
  5
71E
330
71C
100
AcDbEntity
  8
0
100
AcDbBlockEnd
  0
BLOCK
  5
72C
330
72B
100
AcDbEntity
  8
0
100
AcDbBlockBegin
  2
KLON31
 70
     0
 71
     0
 10
0.0
 20
0.0
 30
0.0
  3
KLON31
  1

  4
KLON31
  0
LINE
  5
72E
330
72B
100
AcDbEntity
  8
LC-001-100-D00-0
 62
     7
370
    25
100
AcDbLine
 10
-210.522404
 20
457.388954
 30
0.0
 11
-208.372404
 21
459.538954
 31
0.0
  0
LINE
  5
72F
330
72B
100
AcDbEntity
  8
LC-001-100-D00-0
 62
     7
370
    25
100
AcDbLine
 10
-232.973044
 20
457.388954
 30
0.0
 11
-225.840957
 21
464.521042
 31
0.0
  0
ENDBLK
  5
72D
330
72B
100
AcDbEntity
  8
0
100
AcDbBlockEnd
  0
BLOCK
  5
733
330
732
100
AcDbEntity
  8
0
100
AcDbBlockBegin
  2
KLON32
 70
     0
 71
     0
 10
0.0
 20
0.0
 30
0.0
  3
KLON32
  1

  4
KLON32
  0
LINE
  5
735
330
732
100
AcDbEntity
  8
LC-001-100-D00-0
 62
     7
370
    25
100
AcDbLine
 10
-254.923683
 20
457.888954
 30
0.0
 11
-251.521144
 21
461.291493
 31
0.0
  0
LINE
  5
736
330
732
100
AcDbEntity
  8
LC-001-100-D00-0
 62
     7
370
    25
100
AcDbLine
 10
-250.923684
 20
461.888954
 30
0.0
 11
-247.923684
 21
464.888954
 31
0.0
  0
ENDBLK
  5
734
330
732
100
AcDbEntity
  8
0
100
AcDbBlockEnd
  0
BLOCK
  5
73B
330
73A
100
AcDbEntity
  8
0
100
AcDbBlockBegin
  2
KLON33
 70
     0
 71
     0
 10
0.0
 20
0.0
 30
0.0
  3
KLON33
  1

  4
KLON33
  0
LINE
  5
73D
330
73A
100
AcDbEntity
  8
LC-001-100-D00-0
 62
     7
370
    25
100
AcDbLine
 10
-214.321144
 20
476.040855
 30
0.0
 11
-209.771144
 21
480.590855
 31
0.0
  0
LINE
  5
73E
330
73A
100
AcDbEntity
  8
LC-001-100-D00-0
 62
     7
370
    25
100
AcDbLine
 10
-204.271144
 20
486.090855
 30
0.0
 11
-201.271144
 21
489.090856
 31
0.0
  0
ENDBLK
  5
73C
330
73A
100
AcDbEntity
  8
0
100
AcDbBlockEnd
  0
BLOCK
  5
743
330
742
100
AcDbEntity
  8
0
100
AcDbBlockBegin
  2
KLON34
 70
     0
 71
     0
 10
0.0
 20
0.0
 30
0.0
  3
KLON34
  1

  4
KLON34
  0
LINE
  5
745
330
742
100
AcDbEntity
  8
LC-001-100-D00-0
 62
     7
370
    25
100
AcDbLine
 10
-414.321144
 20
478.09661
 30
0.0
 11
-413.528801
 21
478.888954
 31
0.0
  0
LINE
  5
746
330
742
100
AcDbEntity
  8
LC-001-100-D00-0
 62
     7
370
    25
100
AcDbLine
 10
-413.170292
 20
479.247463
 30
0.0
 11
-409.771144
 21
482.64661
 31
0.0
  0
LINE
  5
747
330
742
100
AcDbEntity
  8
LC-001-100-D00-0
 62
     7
370
    25
100
AcDbLine
 10
-404.271144
 20
488.146611
 30
0.0
 11
-401.298116
 21
491.119639
 31
0.0
  0
ENDBLK
  5
744
330
742
100
AcDbEntity
  8
0
100
AcDbBlockEnd
  0
BLOCK
  5
74A
330
749
100
AcDbEntity
  8
0
100
AcDbBlockBegin
  2
KLON35
 70
     0
 71
     0
 10
0.0
 20
0.0
 30
0.0
  3
KLON35
  1

  4
KLON35
  0
LINE
  5
74C
330
749
100
AcDbEntity
  8
LC-001-100-D00-0
 62
     7
370
    50
100
AcDbLine
 10
-416.121144
 20
476.29661
 30
0.0
 11
-414.321144
 21
478.09661
 31
0.0
  0
LINE
  5
74D
330
749
100
AcDbEntity
  8
LC-001-100-D00-0
 62
     7
370
    50
100
AcDbLine
 10
-413.660024
 20
478.757731
 30
0.0
 11
-413.170292
 21
479.247463
 31
0.0
  0
ENDBLK
  5
74B
330
749
100
AcDbEntity
  8
0
100
AcDbBlockEnd
  0
BLOCK
  5
751
330
750
100
AcDbEntity
  8
0
100
AcDbBlockBegin
  2
KLON36
 70
     0
 71
     0
 10
0.0
 20
0.0
 30
0.0
  3
KLON36
  1

  4
KLON36
  0
LINE
  5
753
330
750
100
AcDbEntity
  8
LC-001-100-D00-0
 62
     7
370
    25
100
AcDbLine
 10
104.835907
 20
480.888954
 30
0.0
 11
110.228856
 21
486.281903
 31
0.0
  0
LINE
  5
754
330
750
100
AcDbEntity
  8
LC-001-100-D00-0
 62
     7
370
    25
100
AcDbLine
 10
112.835907
 20
488.888954
 30
0.0
 11
115.835906
 21
491.888954
 31
0.0
  0
ENDBLK
  5
752
330
750
100
AcDbEntity
  8
0
100
AcDbBlockEnd
  0
BLOCK
  5
758
330
757
100
AcDbEntity
  8
0
100
AcDbBlockBegin
  2
KLON37
 70
     0
 71
     0
 10
0.0
 20
0.0
 30
0.0
  3
KLON37
  1

  4
KLON37
  0
LINE
  5
75A
330
757
100
AcDbEntity
  8
LC-001-100-D00-0
 62
     7
370
    25
100
AcDbLine
 10
-574.30588
 20
475.266351
 30
0.0
 11
-569.771144
 21
479.801087
 31
0.0
  0
LINE
  5
75B
330
757
100
AcDbEntity
  8
LC-001-100-D00-0
 62
     7
370
    25
100
AcDbLine
 10
-564.271144
 20
485.301087
 30
0.0
 11
-561.271144
 21
488.301087
 31
0.0
  0
ENDBLK
  5
759
330
757
100
AcDbEntity
  8
0
100
AcDbBlockEnd
  0
BLOCK
  5
760
330
75F
100
AcDbEntity
  8
0
100
AcDbBlockBegin
  2
KLON38
 70
     0
 71
     0
 10
0.0
 20
0.0
 30
0.0
  3
KLON38
  1

  4
KLON38
  0
LINE
  5
762
330
75F
100
AcDbEntity
  8
LC-001-100-D00-0
 62
     7
370
    25
100
AcDbLine
 10
-53.170292
 20
480.037232
 30
0.0
 11
-49.771144
 21
483.436379
 31
0.0
  0
LINE
  5
763
330
75F
100
AcDbEntity
  8
LC-001-100-D00-0
 62
     7
370
    25
100
AcDbLine
 10
-44.31857
 20
488.888954
 30
0.0
 11
-41.588148
 21
491.619376
 31
0.0
  0
ENDBLK
  5
761
330
75F
100
AcDbEntity
  8
0
100
AcDbBlockEnd
  0
BLOCK
  5
768
330
767
100
AcDbEntity
  8
0
100
AcDbBlockBegin
  2
KLON39
 70
     0
 71
     0
 10
0.0
 20
0.0
 30
0.0
  3
KLON39
  1

  4
KLON39
  0
LINE
  5
76A
330
767
100
AcDbEntity
  8
LC-001-100-D00-0
 62
     7
370
    25
100
AcDbLine
 10
-733.170292
 20
473.556415
 30
0.0
 11
-729.771144
 21
476.955563
 31
0.0
  0
LINE
  5
76B
330
767
100
AcDbEntity
  8
LC-001-100-D00-0
 62
     7
370
    25
100
AcDbLine
 10
-721.837754
 20
484.888954
 30
0.0
 11
-721.271144
 21
485.455563
 31
0.0
  0
ENDBLK
  5
769
330
767
100
AcDbEntity
  8
0
100
AcDbBlockEnd
  0
ENDSEC
  0
SECTION
  2
ENTITIES
  0
LINE
  5
31
330
1F
100
AcDbEntity
  8
LC-001-100-D00-0
 62
     7
370
    50
100
AcDbLine
 10
718.261907
 20
490.388954
 30
0.0
 11
718.261906
 21
488.988954
 31
0.0
  0
LINE
  5
32
330
1F
100
AcDbEntity
  8
LC-001-100-D00-0
 62
     7
370
    50
100
AcDbLine
 10
727.261906
 20
488.988954
 30
0.0
 11
727.261908
 21
490.388954
 31
0.0
  0
LINE
  5
33
330
1F
100
AcDbEntity
  8
LC-001-100-D00-0
 62
     7
370
    50
100
AcDbLine
 10
648.261905
 20
490.388954
 30
0.0
 11
648.261906
 21
488.988954
 31
0.0
  0
LINE
  5
34
330
1F
100
AcDbEntity
  8
LC-001-100-D00-0
 62
     7
370
    50
100
AcDbLine
 10
657.261906
 20
488.988954
 30
0.0
 11
657.261906
 21
490.388954
 31
0.0
  0
LINE
  5
35
330
1F
100
AcDbEntity
  8
LC-001-100-D00-0
 62
     7
370
    50
100
AcDbLine
 10
718.761906
 20
488.988954
 30
0.0
 11
718.761906
 21
475.388954
 31
0.0
  0
LINE
  5
36
330
1F
100
AcDbEntity
  8
LC-001-100-D00-0
 62
     7
370
    50
100
AcDbLine
 10
726.761906
 20
475.388954
 30
0.0
 11
726.761907
 21
488.988954
 31
0.0
  0
LINE
  5
37
330
1F
100
AcDbEntity
  8
LC-001-100-D00-0
 62
     7
370
    50
100
AcDbLine
 10
648.761906
 20
488.988954
 30
0.0
 11
648.761906
 21
475.388954
 31
0.0
  0
LINE
  5
38
330
1F
100
AcDbEntity
  8
LC-001-100-D00-0
 62
     7
370
    50
100
AcDbLine
 10
656.761906
 20
475.388954
 30
0.0
 11
656.761907
 21
488.988954
 31
0.0
  0
ARC
  5
39
330
1F
100
AcDbEntity
  8
LC-001-100-D00-0
 62
     7
370
    50
100
AcDbCircle
 10
743.261906
 20
364.888954
 30
0.0
 40
0.5000000000004548
100
AcDbArc
 50
90.0
 51
180.0
  0
ARC
  5
3A
330
1F
100
AcDbEntity
  8
LC-001-100-D00-0
 62
     7
370
    50
100
AcDbCircle
 10
761.261906
 20
364.888954
 30
0.0
 40
0.5
100
AcDbArc
 50
0.0
 51
90.0
  0
LINE
  5
3B
330
1F
100
AcDbEntity
  8
LC-001-100-D00-0
 62
     7
370
    50
100
AcDbLine
 10
742.761906
 20
364.888954
 30
0.0
 11
742.761906
 21
357.388954
 31
0.0
  0
LINE
  5
3C
330
1F
100
AcDbEntity
  8
LC-001-100-D00-0
 62
     7
370
    50
100
AcDbLine
 10
761.761906
 20
357.388954
 30
0.0
 11
761.761906
 21
364.888954
 31
0.0
  0
ARC
  5
3D
330
1F
100
AcDbEntity
  8
LC-001-100-D00-0
 62
     7
370
    50
100
AcDbCircle
 10
614.261906
 20
364.888954
 30
0.0
 40
0.5
100
AcDbArc
 50
90.0
 51
180.0
  0
ARC
  5
3E
330
1F
100
AcDbEntity
  8
LC-001-100-D00-0
 62
     7
370
    50
100
AcDbCircle
 10
632.261906
 20
364.888954
 30
0.0
 40
0.4999999999997726
100
AcDbArc
 50
0.0
 51
90.0
  0
LINE
  5
3F
330
1F
100
AcDbEntity
  8
LC-001-100-D00-0
 62
     7
370
    50
100
AcDbLine
 10
613.761906
 20
364.888954
 30
0.0
 11
613.761906
 21
357.388954
 31
0.0
  0
LINE
  5
40
330
1F
100
AcDbEntity
  8
LC-001-100-D00-0
 62
     7
370
    50
100
AcDbLine
 10
632.761906
 20
357.388954
 30
0.0
 11
632.761906
 21
364.888954
 31
0.0
  0
LINE
  5
41
330
1F
100
AcDbEntity
  8
LC-001-100-D00-0
 62
     7
370
    50
100
AcDbLine
 10
742.261905
 20
434.388953
 30
0.0
 11
742.261906
 21
380.388954
 31
0.0
  0
LINE
  5
42
330
1F
100
AcDbEntity
  8
LC-001-100-D00-0
 62
     7
370
    50
100
AcDbLine
 10
762.261906
 20
380.388954
 30
0.0
 11
762.261908
 21
434.388953
 31
0.0
  0
LINE
  5
43
330
1F
100
AcDbEntity
  8
LC-001-100-D00-0
 62
     7
370
    50
100
AcDbLine
 10
742.261906
 20
376.888954
 30
0.0
 11
742.261906
 21
366.388954
 31
0.0
  0
LINE
  5
44
330
1F
100
AcDbEntity
  8
LC-001-100-D00-0
 62
     7
370
    50
100
AcDbLine
 10
762.261906
 20
366.388954
 30
0.0
 11
762.261906
 21
376.888954
 31
0.0
  0
LINE
  5
45
330
1F
100
AcDbEntity
  8
LC-001-100-D00-0
 62
     7
370
    50
100
AcDbLine
 10
742.261906
 20
366.388954
 30
0.0
 11
743.261906
 21
365.388954
 31
0.0
  0
LINE
  5
46
330
1F
100
AcDbEntity
  8
LC-001-100-D00-0
 62
     7
370
    50
100
AcDbLine
 10
761.261906
 20
365.388954
 30
0.0
 11
762.261906
 21
366.388954
 31
0.0
  0
LINE
  5
47
330
1F
100
AcDbEntity
  8
LC-001-100-D00-0
 62
     7
370
    50
100
AcDbLine
 10
744.361907
 20
380.388952
 30
0.0
 11
744.361907
 21
376.888952
 31
0.0
  0
LINE
  5
48
330
1F
100
AcDbEntity
  8
LC-001-100-D00-0
 62
     7
370
    50
100
AcDbLine
 10
760.16191
 20
376.888952
 30
0.0
 11
760.16191
 21
380.388952
 31
0.0
  0
LINE
  5
49
330
1F
100
AcDbEntity
  8
LC-001-100-D00-0
 62
     7
370
    50
100
AcDbLine
 10
613.261904
 20
434.388953
 30
0.0
 11
613.261906
 21
380.388954
 31
0.0
  0
LINE
  5
4A
330
1F
100
AcDbEntity
  8
LC-001-100-D00-0
 62
     7
370
    50
100
AcDbLine
 10
633.261906
 20
380.388954
 30
0.0
 11
633.261908
 21
434.388953
 31
0.0
  0
LINE
  5
4B
330
1F
100
AcDbEntity
  8
LC-001-100-D00-0
 62
     7
370
    50
100
AcDbLine
 10
613.261906
 20
376.888954
 30
0.0
 11
613.261906
 21
366.388954
 31
0.0
  0
LINE
  5
4C
330
1F
100
AcDbEntity
  8
LC-001-100-D00-0
 62
     7
370
    50
100
AcDbLine
 10
633.261906
 20
366.388954
 30
0.0
 11
633.261906
 21
376.888954
 31
0.0
  0
LINE
  5
4D
330
1F
100
AcDbEntity
  8
LC-001-100-D00-0
 62
     7
370
    50
100
AcDbLine
 10
613.261906
 20
366.388954
 30
0.0
 11
614.261906
 21
365.388954
 31
0.0
  0
LINE
  5
4E
330
1F
100
AcDbEntity
  8
LC-001-100-D00-0
 62
     7
370
    50
100
AcDbLine
 10
632.261906
 20
365.388954
 30
0.0
 11
633.261906
 21
366.388954
 31
0.0
  0
LINE
  5
4F
330
1F
100
AcDbEntity
  8
LC-001-100-D00-0
 62
     7
370
    50
100
AcDbLine
 10
615.361903
 20
380.388952
 30
0.0
 11
615.361903
 21
376.888952
 31
0.0
  0
LINE
  5
50
330
1F
100
AcDbEntity
  8
LC-001-100-D00-0
 62
     7
370
    50
100
AcDbLine
 10
631.161906
 20
376.888952
 30
0.0
 11
631.161906
 21
380.388952
 31
0.0
  0
ARC
  5
51
330
1F
100
AcDbEntity
  8
LC-001-100-D00-0
 62
     7
370
    50
100
AcDbCircle
 10
727.161906
 20
465.988954
 30
0.0
 40
0.6000000000001364
100
AcDbArc
 50
270.0
 51
0.0
  0
ARC
  5
52
330
1F
100
AcDbEntity
  8
LC-001-100-D00-0
 62
     7
370
    50
100
AcDbCircle
 10
718.361906
 20
465.988954
 30
0.0
 40
0.6000000000003638
100
AcDbArc
 50
180.0
 51
270.0
  0
LINE
  5
53
330
1F
100
AcDbEntity
  8
LC-001-100-D00-0
 62
     7
370
    50
100
AcDbLine
 10
727.761906
 20
465.988954
 30
0.0
 11
727.761905
 21
469.388953
 31
0.0
  0
LINE
  5
54
330
1F
100
AcDbEntity
  8
LC-001-100-D00-0
 62
     7
370
    50
100
AcDbLine
 10
717.761906
 20
469.388953
 30
0.0
 11
717.761906
 21
465.988954
 31
0.0
  0
LINE
  5
55
330
1F
100
AcDbEntity
  8
LC-001-100-D00-0
 62
     7
370
    50
100
AcDbLine
 10
725.761905
 20
474.388954
 30
0.0
 11
725.761905
 21
475.388954
 31
0.0
  0
LINE
  5
56
330
1F
100
AcDbEntity
  8
LC-001-100-D00-0
 62
     7
370
    50
100
AcDbLine
 10
719.761908
 20
475.388954
 30
0.0
 11
719.761908
 21
474.388954
 31
0.0
  0
ARC
  5
57
330
1F
100
AcDbEntity
  8
LC-001-100-D00-0
 62
     7
370
    50
100
AcDbCircle
 10
657.161906
 20
465.988954
 30
0.0
 40
0.5999999999999091
100
AcDbArc
 50
270.0
 51
0.0
  0
ARC
  5
58
330
1F
100
AcDbEntity
  8
LC-001-100-D00-0
 62
     7
370
    50
100
AcDbCircle
 10
648.361906
 20
465.988954
 30
0.0
 40
0.6000000000001364
100
AcDbArc
 50
180.0
 51
270.0
  0
LINE
  5
59
330
1F
100
AcDbEntity
  8
LC-001-100-D00-0
 62
     7
370
    50
100
AcDbLine
 10
657.761906
 20
465.988954
 30
0.0
 11
657.761907
 21
469.388953
 31
0.0
  0
LINE
  5
5A
330
1F
100
AcDbEntity
  8
LC-001-100-D00-0
 62
     7
370
    50
100
AcDbLine
 10
647.761907
 20
469.388953
 30
0.0
 11
647.761906
 21
465.988954
 31
0.0
  0
LINE
  5
5B
330
1F
100
AcDbEntity
  8
LC-001-100-D00-0
 62
     7
370
    50
100
AcDbLine
 10
655.761905
 20
474.388954
 30
0.0
 11
655.761905
 21
475.388954
 31
0.0
  0
LINE
  5
5C
330
1F
100
AcDbEntity
  8
LC-001-100-D00-0
 62
     7
370
    50
100
AcDbLine
 10
649.761908
 20
475.388954
 30
0.0
 11
649.761908
 21
474.388954
 31
0.0
  0
LINE
  5
5D
330
1F
100
AcDbEntity
  8
LC-001-100-D00-0
 62
     7
370
    50
100
AcDbLine
 10
658.261906
 20
469.388954
 30
0.0
 11
658.261906
 21
471.388953
 31
0.0
  0
LINE
  5
5E
330
1F
100
AcDbEntity
  8
LC-001-100-D00-0
 62
     7
370
    50
100
AcDbLine
 10
647.261906
 20
471.388954
 30
0.0
 11
647.261906
 21
469.388954
 31
0.0
  0
LINE
  5
5F
330
1F
100
AcDbEntity
  8
LC-001-100-D00-0
 62
     7
370
    50
100
AcDbLine
 10
728.261906
 20
469.388954
 30
0.0
 11
728.261906
 21
471.388954
 31
0.0
  0
LINE
  5
60
330
1F
100
AcDbEntity
  8
LC-001-100-D00-0
 62
     7
370
    50
100
AcDbLine
 10
717.261907
 20
471.388953
 30
0.0
 11
717.261906
 21
469.388954
 31
0.0
  0
LINE
  5
61
330
1F
100
AcDbEntity
  8
LC-001-100-D00-0
 62
     7
370
    50
100
AcDbLine
 10
760.261906
 20
491.888954
 30
0.0
 11
765.261906
 21
491.888954
 31
0.0
  0
LINE
  5
62
330
1F
100
AcDbEntity
  8
LC-001-100-D00-0
 62
     7
370
    50
100
AcDbLine
 10
765.261906
 20
491.888954
 30
0.0
 11
765.261906
 21
490.388954
 31
0.0
  0
LINE
  5
63
330
1F
100
AcDbEntity
  8
LC-001-100-D00-0
 62
     7
370
    50
100
AcDbLine
 10
765.261906
 20
490.388954
 30
0.0
 11
760.261906
 21
490.388954
 31
0.0
  0
LINE
  5
64
330
1F
100
AcDbEntity
  8
LC-001-100-D00-0
 62
     7
370
    50
100
AcDbLine
 10
610.261906
 20
490.388954
 30
0.0
 11
610.261906
 21
491.888954
 31
0.0
  0
LINE
  5
65
330
1F
100
AcDbEntity
  8
LC-001-100-D00-0
 62
     7
370
    50
100
AcDbLine
 10
610.261906
 20
491.888954
 30
0.0
 11
615.261906
 21
491.888954
 31
0.0
  0
LINE
  5
66
330
1F
100
AcDbEntity
  8
LC-001-100-D00-0
 62
     7
370
    50
100
AcDbLine
 10
615.261906
 20
490.388954
 30
0.0
 11
610.261906
 21
490.388954
 31
0.0
  0
LINE
  5
67
330
1F
100
AcDbEntity
  8
LC-001-100-D00-0
 62
     7
370
    50
100
AcDbLine
 10
615.261906
 20
490.388954
 30
0.0
 11
760.261906
 21
490.388954
 31
0.0
  0
LINE
  5
68
330
1F
100
AcDbEntity
  8
LC-001-100-D00-0
 62
     7
370
    50
100
AcDbLine
 10
615.261906
 20
491.888954
 30
0.0
 11
760.261906
 21
491.888954
 31
0.0
  0
ARC
  5
69
330
1F
100
AcDbEntity
  8
LC-001-100-D00-0
 62
     7
370
    50
100
AcDbCircle
 10
658.761906
 20
488.888954
 30
0.0
 40
1.5
100
AcDbArc
 50
0.0
 51
90.0
  0
ARC
  5
6A
330
1F
100
AcDbEntity
  8
LC-001-100-D00-0
 62
     7
370
    50
100
AcDbCircle
 10
716.761906
 20
488.888954
 30
0.0
 40
1.499999999999773
100
AcDbArc
 50
90.0
 51
180.0
  0
LINE
  5
6B
330
1F
100
AcDbEntity
  8
LC-001-100-D00-0
 62
     7
370
    50
100
AcDbLine
 10
715.261906
 20
488.888954
 30
0.0
 11
715.261906
 21
479.388954
 31
0.0
  0
ARC
  5
6C
330
1F
100
AcDbEntity
  8
LC-001-100-D00-0
 62
     7
370
    50
100
AcDbCircle
 10
664.261906
 20
473.888954
 30
0.0
 40
4.0
100
AcDbArc
 50
180.0
 51
270.0
  0
LINE
  5
6D
330
1F
100
AcDbEntity
  8
LC-001-100-D00-0
 62
     7
370
    50
100
AcDbLine
 10
660.261906
 20
479.388954
 30
0.0
 11
660.261906
 21
473.888954
 31
0.0
  0
ARC
  5
6E
330
1F
100
AcDbEntity
  8
LC-001-100-D00-0
 62
     7
370
    50
100
AcDbCircle
 10
711.261906
 20
473.888954
 30
0.0
 40
4.000000000014552
100
AcDbArc
 50
270.0
 51
0.0
  0
LINE
  5
6F
330
1F
100
AcDbEntity
  8
LC-001-100-D00-0
 62
     7
370
    50
100
AcDbLine
 10
715.261906
 20
473.888954
 30
0.0
 11
715.261906
 21
479.388954
 31
0.0
  0
LINE
  5
70
330
1F
100
AcDbEntity
  8
LC-001-100-D00-0
 62
     7
370
    50
100
AcDbLine
 10
660.261906
 20
479.388954
 30
0.0
 11
660.261906
 21
488.888954
 31
0.0
  0
LINE
  5
71
330
1F
100
AcDbEntity
  8
LC-001-100-D00-0
 62
     7
370
    50
100
AcDbLine
 10
700.095315
 20
469.888954
 30
0.0
 11
711.261906
 21
469.888954
 31
0.0
  0
LINE
  5
72
330
1F
100
AcDbEntity
  8
LC-001-100-D00-0
 62
     7
370
    50
100
AcDbLine
 10
699.917101
 20
469.888954
 30
0.0
 11
700.095315
 21
469.888954
 31
0.0
  0
LINE
  5
73
330
1F
100
AcDbEntity
  8
LC-001-100-D00-0
 62
     7
370
    50
100
AcDbLine
 10
699.917101
 20
469.888954
 30
0.0
 11
675.606712
 21
469.888954
 31
0.0
  0
LINE
  5
74
330
1F
100
AcDbEntity
  8
LC-001-100-D00-0
 62
     7
370
    50
100
AcDbLine
 10
675.428497
 20
469.888954
 30
0.0
 11
675.606712
 21
469.888954
 31
0.0
  0
LINE
  5
75
330
1F
100
AcDbEntity
  8
LC-001-100-D00-0
 62
     7
370
    50
100
AcDbLine
 10
664.261906
 20
469.888954
 30
0.0
 11
675.428497
 21
469.888954
 31
0.0
  0
ARC
  5
76
330
1F
100
AcDbEntity
  8
LC-001-100-D00-0
 62
     7
370
    50
100
AcDbCircle
 10
711.261906
 20
468.888954
 30
0.0
 40
4.0
100
AcDbArc
 50
270.0
 51
0.0
  0
LINE
  5
77
330
1F
100
AcDbEntity
  8
LC-001-100-D00-0
 62
     7
370
    50
100
AcDbLine
 10
715.261906
 20
473.888954
 30
0.0
 11
715.261906
 21
468.888954
 31
0.0
  0
ARC
  5
78
330
1F
100
AcDbEntity
  8
LC-001-100-D00-0
 62
     7
370
    50
100
AcDbCircle
 10
664.261906
 20
468.888954
 30
0.0
 40
4.00000000004593
100
AcDbArc
 50
180.0
 51
270.0
  0
LINE
  5
79
330
1F
100
AcDbEntity
  8
LC-001-100-D00-0
 62
     7
370
    50
100
AcDbLine
 10
660.261907
 20
468.888954
 30
0.0
 11
660.261906
 21
473.888954
 31
0.0
  0
LINE
  5
7A
330
1F
100
AcDbEntity
  8
LC-001-100-D00-0
 62
     7
370
    50
100
AcDbLine
 10
711.261906
 20
464.888953
 30
0.0
 11
708.412874
 21
464.888953
 31
0.0
  0
LINE
  5
7B
330
1F
100
AcDbEntity
  8
LC-001-100-D00-0
 62
     7
370
    50
100
AcDbLine
 10
667.110938
 20
464.888953
 30
0.0
 11
664.261907
 21
464.888953
 31
0.0
  0
ARC
  5
7C
330
1F
100
AcDbEntity
  8
LC-001-100-D00-0
 62
     7
370
    50
100
AcDbCircle
 10
683.167601
 20
467.388954
 30
0.0
 40
2.5
100
AcDbArc
 50
90.0
 51
108.434949
  0
LINE
  5
7D
330
1F
100
AcDbEntity
  8
LC-001-100-D00-0
 62
     7
370
    50
100
AcDbLine
 10
682.377031
 20
469.760663
 30
0.0
 11
682.375947
 21
469.760301
 31
0.0
  0
LINE
  5
7E
330
1F
100
AcDbEntity
  8
LC-001-100-D00-0
 62
     7
370
    50
100
AcDbLine
 10
693.147865
 20
469.760301
 30
0.0
 11
693.146782
 21
469.760663
 31
0.0
  0
ARC
  5
7F
330
1F
100
AcDbEntity
  8
LC-001-100-D00-0
 62
     7
370
    50
100
AcDbCircle
 10
692.356212
 20
467.388954
 30
0.0
 40
2.499999999999846
100
AcDbArc
 50
71.565051
 51
90.0
  0
LINE
  5
80
330
1F
100
AcDbEntity
  8
LC-001-100-D00-0
 62
     7
370
    50
100
AcDbLine
 10
708.412874
 20
464.888953
 30
0.0
 11
708.411017
 21
464.888953
 31
0.0
  0
LINE
  5
81
330
1F
100
AcDbEntity
  8
LC-001-100-D00-0
 62
     7
370
    50
100
AcDbLine
 10
708.411017
 20
464.888953
 30
0.0
 11
707.146106
 21
465.094221
 31
0.0
  0
LINE
  5
82
330
1F
100
AcDbEntity
  8
LC-001-100-D00-0
 62
     7
370
    50
100
AcDbLine
 10
707.146106
 20
465.094221
 30
0.0
 11
707.144026
 21
465.094913
 31
0.0
  0
LINE
  5
83
330
1F
100
AcDbEntity
  8
LC-001-100-D00-0
 62
     7
370
    50
100
AcDbLine
 10
667.112795
 20
464.888953
 30
0.0
 11
668.377707
 21
465.094221
 31
0.0
  0
LINE
  5
84
330
1F
100
AcDbEntity
  8
LC-001-100-D00-0
 62
     7
370
    50
100
AcDbLine
 10
667.112795
 20
464.888953
 30
0.0
 11
667.110938
 21
464.888953
 31
0.0
  0
LINE
  5
85
330
1F
100
AcDbEntity
  8
LC-001-100-D00-0
 62
     7
370
    50
100
AcDbLine
 10
668.379787
 20
465.094913
 30
0.0
 11
668.377707
 21
465.094221
 31
0.0
  0
LINE
  5
86
330
1F
100
AcDbEntity
  8
LC-001-100-D00-0
 62
     7
370
    50
100
AcDbLine
 10
707.144026
 20
465.094913
 30
0.0
 11
693.147865
 21
469.760301
 31
0.0
  0
LINE
  5
87
330
1F
100
AcDbEntity
  8
LC-001-100-D00-0
 62
     7
370
    50
100
AcDbLine
 10
682.375947
 20
469.760301
 30
0.0
 11
668.379787
 21
465.094913
 31
0.0
  0
LINE
  5
88
330
1F
100
AcDbEntity
  8
LC-001-100-D00-0
 62
     7
370
    50
100
AcDbLine
 10
636.261906
 20
490.388954
 30
0.0
 11
636.261906
 21
488.388954
 31
0.0
  0
LINE
  5
89
330
1F
100
AcDbEntity
  8
LC-001-100-D00-0
 62
     7
370
    50
100
AcDbLine
 10
636.261906
 20
488.388954
 30
0.0
 11
610.261906
 21
488.388954
 31
0.0
  0
LINE
  5
8A
330
1F
100
AcDbEntity
  8
LC-001-100-D00-0
 62
     7
370
    50
100
AcDbLine
 10
610.261906
 20
490.388954
 30
0.0
 11
610.261906
 21
488.388954
 31
0.0
  0
LINE
  5
8B
330
1F
100
AcDbEntity
  8
LC-001-100-D00-0
 62
     7
370
    50
100
AcDbLine
 10
739.261906
 20
488.388954
 30
0.0
 11
765.261906
 21
488.388954
 31
0.0
  0
LINE
  5
8C
330
1F
100
AcDbEntity
  8
LC-001-100-D00-0
 62
     7
370
    50
100
AcDbLine
 10
739.261906
 20
490.388954
 30
0.0
 11
739.261906
 21
488.388954
 31
0.0
  0
LINE
  5
8D
330
1F
100
AcDbEntity
  8
LC-001-100-D00-0
 62
     7
370
    50
100
AcDbLine
 10
765.261906
 20
490.388954
 30
0.0
 11
765.261906
 21
488.388954
 31
0.0
  0
LINE
  5
8E
330
1F
100
AcDbEntity
  8
LC-001-100-D00-0
 62
     7
370
    50
100
AcDbLine
 10
739.261906
 20
486.388954
 30
0.0
 11
739.261906
 21
488.388954
 31
0.0
  0
LINE
  5
8F
330
1F
100
AcDbEntity
  8
LC-001-100-D00-0
 62
     7
370
    50
100
AcDbLine
 10
765.261906
 20
488.388954
 30
0.0
 11
765.261906
 21
486.388954
 31
0.0
  0
LINE
  5
90
330
1F
100
AcDbEntity
  8
LC-001-100-D00-0
 62
     7
370
    50
100
AcDbLine
 10
636.261906
 20
486.388954
 30
0.0
 11
636.261906
 21
488.388954
 31
0.0
  0
LINE
  5
91
330
1F
100
AcDbEntity
  8
LC-001-100-D00-0
 62
     7
370
    50
100
AcDbLine
 10
610.261906
 20
488.388954
 30
0.0
 11
610.261906
 21
486.388954
 31
0.0
  0
LINE
  5
92
330
1F
100
AcDbEntity
  8
LC-001-100-D00-0
 62
     7
370
    50
100
AcDbLine
 10
765.261906
 20
461.288954
 30
0.0
 11
762.821514
 21
461.288954
 31
0.0
  0
LINE
  5
93
330
1F
100
AcDbEntity
  8
LC-001-100-D00-0
 62
     7
370
    50
100
AcDbLine
 10
741.702299
 20
461.288954
 30
0.0
 11
739.261906
 21
461.288954
 31
0.0
  0
LINE
  5
94
330
1F
100
AcDbEntity
  8
LC-001-100-D00-0
 62
     7
370
    50
100
AcDbLine
 10
739.261906
 20
461.288954
 30
0.0
 11
739.261906
 21
465.288954
 31
0.0
  0
LINE
  5
95
330
1F
100
AcDbEntity
  8
LC-001-100-D00-0
 62
     7
370
    50
100
AcDbLine
 10
765.261906
 20
465.288954
 30
0.0
 11
765.261906
 21
461.288954
 31
0.0
  0
LINE
  5
96
330
1F
100
AcDbEntity
  8
LC-001-100-D00-0
 62
     7
370
    50
100
AcDbLine
 10
636.261906
 20
486.388954
 30
0.0
 11
636.261906
 21
465.288954
 31
0.0
  0
LINE
  5
97
330
1F
100
AcDbEntity
  8
LC-001-100-D00-0
 62
     7
370
    50
100
AcDbLine
 10
610.261906
 20
486.388954
 30
0.0
 11
610.261906
 21
465.288954
 31
0.0
  0
LINE
  5
98
330
1F
100
AcDbEntity
  8
LC-001-100-D00-0
 62
     7
370
    50
100
AcDbLine
 10
739.261906
 20
486.388954
 30
0.0
 11
739.261906
 21
465.288954
 31
0.0
  0
LINE
  5
99
330
1F
100
AcDbEntity
  8
LC-001-100-D00-0
 62
     7
370
    50
100
AcDbLine
 10
765.261906
 20
486.388954
 30
0.0
 11
765.261906
 21
465.288954
 31
0.0
  0
LINE
  5
9A
330
1F
100
AcDbEntity
  8
LC-001-100-D00-0
 62
     7
370
    50
100
AcDbLine
 10
610.261906
 20
461.288954
 30
0.0
 11
612.702299
 21
461.288954
 31
0.0
  0
LINE
  5
9B
330
1F
100
AcDbEntity
  8
LC-001-100-D00-0
 62
     7
370
    50
100
AcDbLine
 10
633.821513
 20
461.288954
 30
0.0
 11
636.261906
 21
461.288954
 31
0.0
  0
LINE
  5
9C
330
1F
100
AcDbEntity
  8
LC-001-100-D00-0
 62
     7
370
    50
100
AcDbLine
 10
636.261906
 20
461.288954
 30
0.0
 11
636.261906
 21
465.288954
 31
0.0
  0
LINE
  5
9D
330
1F
100
AcDbEntity
  8
LC-001-100-D00-0
 62
     7
370
    50
100
AcDbLine
 10
610.261906
 20
465.288954
 30
0.0
 11
610.261906
 21
461.288954
 31
0.0
  0
LINE
  5
9E
330
1F
100
AcDbEntity
  8
LC-001-100-D00-0
 62
     7
370
    50
100
AcDbLine
 10
668.832047
 20
464.888953
 30
0.0
 11
667.112795
 21
464.888953
 31
0.0
  0
LINE
  5
9F
330
1F
100
AcDbEntity
  8
LC-001-100-D00-0
 62
     7
370
    50
100
AcDbLine
 10
708.411017
 20
464.888953
 30
0.0
 11
706.691766
 21
464.888953
 31
0.0
  0
LINE
  5
A0
330
1F
100
AcDbEntity
  8
LC-001-100-D00-0
 62
     7
370
    50
100
AcDbLine
 10
706.691766
 20
464.888953
 30
0.0
 11
668.832047
 21
464.888953
 31
0.0
  0
LINE
  5
A1
330
1F
100
AcDbEntity
  8
LC-001-100-D00-0
 62
     7
370
    50
100
AcDbLine
 10
727.261906
 20
488.988954
 30
0.0
 11
718.261906
 21
488.988954
 31
0.0
  0
LINE
  5
A2
330
1F
100
AcDbEntity
  8
LC-001-100-D00-0
 62
     7
370
    50
100
AcDbLine
 10
648.261906
 20
488.988954
 30
0.0
 11
657.261906
 21
488.988954
 31
0.0
  0
LINE
  5
A3
330
1F
100
AcDbEntity
  8
LC-001-100-D00-0
 62
     7
370
    50
100
AcDbLine
 10
726.761906
 20
475.388954
 30
0.0
 11
718.761906
 21
475.388954
 31
0.0
  0
LINE
  5
A4
330
1F
100
AcDbEntity
  8
LC-001-100-D00-0
 62
     7
370
    50
100
AcDbLine
 10
648.761906
 20
475.388954
 30
0.0
 11
656.761906
 21
475.388954
 31
0.0
  0
LINE
  5
A5
330
1F
100
AcDbEntity
  8
LC-001-100-D00-0
 62
     7
370
    50
100
AcDbLine
 10
743.419982
 20
365.388958
 30
0.0
 11
761.1298
 21
365.388958
 31
0.0
  0
LINE
  5
A6
330
1F
100
AcDbEntity
  8
LC-001-100-D00-0
 62
     7
370
    50
100
AcDbLine
 10
754.199626
 20
357.388954
 30
0.0
 11
742.761906
 21
357.388954
 31
0.0
  0
LINE
  5
A7
330
1F
100
AcDbEntity
  8
LC-001-100-D00-0
 62
     7
370
    50
100
AcDbLine
 10
761.761906
 20
357.388954
 30
0.0
 11
754.199626
 21
357.388954
 31
0.0
  0
LINE
  5
A8
330
1F
100
AcDbEntity
  8
LC-001-100-D00-0
 62
     7
370
    50
100
AcDbLine
 10
614.419978
 20
365.388958
 30
0.0
 11
632.129803
 21
365.388958
 31
0.0
  0
LINE
  5
A9
330
1F
100
AcDbEntity
  8
LC-001-100-D00-0
 62
     7
370
    50
100
AcDbLine
 10
625.199626
 20
357.388954
 30
0.0
 11
613.761906
 21
357.388954
 31
0.0
  0
LINE
  5
AA
330
1F
100
AcDbEntity
  8
LC-001-100-D00-0
 62
     7
370
    50
100
AcDbLine
 10
632.761906
 20
357.388954
 30
0.0
 11
625.199626
 21
357.388954
 31
0.0
  0
LINE
  5
AB
330
1F
100
AcDbEntity
  8
LC-001-100-D00-0
 62
     7
370
    50
100
AcDbLine
 10
611.261906
 20
459.388954
 30
0.0
 11
611.261908
 21
461.288954
 31
0.0
  0
LINE
  5
AC
330
1F
100
AcDbEntity
  8
LC-001-100-D00-0
 62
     7
370
    50
100
AcDbLine
 10
613.647047
 20
461.388954
 30
0.0
 11
617.261906
 21
461.388954
 31
0.0
  0
LINE
  5
AD
330
1F
100
AcDbEntity
  8
LC-001-100-D00-0
 62
     7
370
    50
100
AcDbLine
 10
617.261906
 20
459.388954
 30
0.0
 11
611.261906
 21
459.388954
 31
0.0
  0
LINE
  5
AE
330
1F
100
AcDbEntity
  8
LC-001-100-D00-0
 62
     7
370
    50
100
AcDbLine
 10
629.261906
 20
461.388954
 30
0.0
 11
617.261906
 21
461.388954
 31
0.0
  0
LINE
  5
AF
330
1F
100
AcDbEntity
  8
LC-001-100-D00-0
 62
     7
370
    50
100
AcDbLine
 10
629.261906
 20
459.388954
 30
0.0
 11
617.261906
 21
459.388954
 31
0.0
  0
LINE
  5
B0
330
1F
100
AcDbEntity
  8
LC-001-100-D00-0
 62
     7
370
    50
100
AcDbLine
 10
635.261908
 20
461.288954
 30
0.0
 11
635.261906
 21
459.388954
 31
0.0
  0
LINE
  5
B1
330
1F
100
AcDbEntity
  8
LC-001-100-D00-0
 62
     7
370
    50
100
AcDbLine
 10
629.261906
 20
461.388954
 30
0.0
 11
632.876766
 21
461.388954
 31
0.0
  0
LINE
  5
B2
330
1F
100
AcDbEntity
  8
LC-001-100-D00-0
 62
     7
370
    50
100
AcDbLine
 10
635.261906
 20
459.388954
 30
0.0
 11
629.261906
 21
459.388954
 31
0.0
  0
LINE
  5
B3
330
1F
100
AcDbEntity
  8
LC-001-100-D00-0
 62
     7
370
    50
100
AcDbLine
 10
626.761906
 20
434.388954
 30
0.0
 11
619.761906
 21
434.388954
 31
0.0
  0
LINE
  5
B4
330
1F
100
AcDbEntity
  8
LC-001-100-D00-0
 62
     7
370
    50
100
AcDbLine
 10
631.761906
 20
434.388954
 30
0.0
 11
626.761906
 21
434.388954
 31
0.0
  0
LINE
  5
B5
330
1F
100
AcDbEntity
  8
LC-001-100-D00-0
 62
     7
370
    50
100
AcDbLine
 10
619.761906
 20
434.388954
 30
0.0
 11
614.761906
 21
434.388954
 31
0.0
  0
LINE
  5
B6
330
1F
100
AcDbEntity
  8
LC-001-100-D00-0
 62
     7
370
    50
100
AcDbLine
 10
611.261906
 20
434.388954
 30
0.0
 11
611.261906
 21
459.388954
 31
0.0
  0
LINE
  5
B7
330
1F
100
AcDbEntity
  8
LC-001-100-D00-0
 62
     7
370
    50
100
AcDbLine
 10
614.761906
 20
434.388954
 30
0.0
 11
611.261906
 21
434.388954
 31
0.0
  0
LINE
  5
B8
330
1F
100
AcDbEntity
  8
LC-001-100-D00-0
 62
     7
370
    50
100
AcDbLine
 10
635.261906
 20
459.388954
 30
0.0
 11
635.261906
 21
434.388954
 31
0.0
  0
LINE
  5
B9
330
1F
100
AcDbEntity
  8
LC-001-100-D00-0
 62
     7
370
    50
100
AcDbLine
 10
635.261906
 20
434.388954
 30
0.0
 11
631.761906
 21
434.388954
 31
0.0
  0
LINE
  5
BA
330
1F
100
AcDbEntity
  8
LC-001-100-D00-0
 62
     7
370
    50
100
AcDbLine
 10
758.261906
 20
459.388954
 30
0.0
 11
746.261906
 21
459.388954
 31
0.0
  0
LINE
  5
BB
330
1F
100
AcDbEntity
  8
LC-001-100-D00-0
 62
     7
370
    50
100
AcDbLine
 10
758.261906
 20
461.388954
 30
0.0
 11
746.261906
 21
461.388954
 31
0.0
  0
LINE
  5
BC
330
1F
100
AcDbEntity
  8
LC-001-100-D00-0
 62
     7
370
    50
100
AcDbLine
 10
740.261906
 20
459.388954
 30
0.0
 11
740.261905
 21
461.288954
 31
0.0
  0
LINE
  5
BD
330
1F
100
AcDbEntity
  8
LC-001-100-D00-0
 62
     7
370
    50
100
AcDbLine
 10
746.261906
 20
459.388954
 30
0.0
 11
740.261906
 21
459.388954
 31
0.0
  0
LINE
  5
BE
330
1F
100
AcDbEntity
  8
LC-001-100-D00-0
 62
     7
370
    50
100
AcDbLine
 10
742.647047
 20
461.388954
 30
0.0
 11
746.261906
 21
461.388954
 31
0.0
  0
LINE
  5
BF
330
1F
100
AcDbEntity
  8
LC-001-100-D00-0
 62
     7
370
    50
100
AcDbLine
 10
764.261905
 20
461.288954
 30
0.0
 11
764.261906
 21
459.388954
 31
0.0
  0
LINE
  5
C0
330
1F
100
AcDbEntity
  8
LC-001-100-D00-0
 62
     7
370
    50
100
AcDbLine
 10
764.261906
 20
459.388954
 30
0.0
 11
758.261906
 21
459.388954
 31
0.0
  0
LINE
  5
C1
330
1F
100
AcDbEntity
  8
LC-001-100-D00-0
 62
     7
370
    50
100
AcDbLine
 10
758.261906
 20
461.388954
 30
0.0
 11
761.876766
 21
461.388954
 31
0.0
  0
LINE
  5
C2
330
1F
100
AcDbEntity
  8
LC-001-100-D00-0
 62
     7
370
    50
100
AcDbLine
 10
755.761906
 20
434.388954
 30
0.0
 11
748.761906
 21
434.388954
 31
0.0
  0
LINE
  5
C3
330
1F
100
AcDbEntity
  8
LC-001-100-D00-0
 62
     7
370
    50
100
AcDbLine
 10
760.761906
 20
434.388954
 30
0.0
 11
755.761906
 21
434.388954
 31
0.0
  0
LINE
  5
C4
330
1F
100
AcDbEntity
  8
LC-001-100-D00-0
 62
     7
370
    50
100
AcDbLine
 10
748.761906
 20
434.388954
 30
0.0
 11
743.761906
 21
434.388954
 31
0.0
  0
LINE
  5
C5
330
1F
100
AcDbEntity
  8
LC-001-100-D00-0
 62
     7
370
    50
100
AcDbLine
 10
740.261906
 20
434.388954
 30
0.0
 11
740.261906
 21
459.388954
 31
0.0
  0
LINE
  5
C6
330
1F
100
AcDbEntity
  8
LC-001-100-D00-0
 62
     7
370
    50
100
AcDbLine
 10
743.761906
 20
434.388954
 30
0.0
 11
740.261906
 21
434.388954
 31
0.0
  0
LINE
  5
C7
330
1F
100
AcDbEntity
  8
LC-001-100-D00-0
 62
     7
370
    50
100
AcDbLine
 10
764.261906
 20
459.388954
 30
0.0
 11
764.261906
 21
434.388954
 31
0.0
  0
LINE
  5
C8
330
1F
100
AcDbEntity
  8
LC-001-100-D00-0
 62
     7
370
    50
100
AcDbLine
 10
764.261906
 20
434.388954
 30
0.0
 11
760.761906
 21
434.388954
 31
0.0
  0
LINE
  5
C9
330
1F
100
AcDbEntity
  8
LC-001-100-D00-0
 62
     7
370
    50
100
AcDbLine
 10
742.261906
 20
380.388954
 30
0.0
 11
762.261906
 21
380.388954
 31
0.0
  0
LINE
  5
CA
330
1F
100
AcDbEntity
  8
LC-001-100-D00-0
 62
     7
370
    50
100
AcDbLine
 10
742.261906
 20
376.888954
 30
0.0
 11
762.261906
 21
376.888954
 31
0.0
  0
LINE
  5
CB
330
1F
100
AcDbEntity
  8
LC-001-100-D00-0
 62
     7
370
    50
100
AcDbLine
 10
754.301611
 20
366.388954
 30
0.0
 11
762.261906
 21
366.388954
 31
0.0
  0
LINE
  5
CC
330
1F
100
AcDbEntity
  8
LC-001-100-D00-0
 62
     7
370
    50
100
AcDbLine
 10
742.261906
 20
366.388954
 30
0.0
 11
754.301611
 21
366.388954
 31
0.0
  0
LINE
  5
CD
330
1F
100
AcDbEntity
  8
LC-001-100-D00-0
 62
     7
370
    50
100
AcDbLine
 10
754.097641
 20
365.388954
 30
0.0
 11
743.261906
 21
365.388954
 31
0.0
  0
LINE
  5
CE
330
1F
100
AcDbEntity
  8
LC-001-100-D00-0
 62
     7
370
    50
100
AcDbLine
 10
761.261906
 20
365.388954
 30
0.0
 11
754.097641
 21
365.388954
 31
0.0
  0
LINE
  5
CF
330
1F
100
AcDbEntity
  8
LC-001-100-D00-0
 62
     7
370
    50
100
AcDbLine
 10
613.261906
 20
380.388954
 30
0.0
 11
633.261906
 21
380.388954
 31
0.0
  0
LINE
  5
D0
330
1F
100
AcDbEntity
  8
LC-001-100-D00-0
 62
     7
370
    50
100
AcDbLine
 10
613.261906
 20
376.888954
 30
0.0
 11
633.261906
 21
376.888954
 31
0.0
  0
LINE
  5
D1
330
1F
100
AcDbEntity
  8
LC-001-100-D00-0
 62
     7
370
    50
100
AcDbLine
 10
625.301611
 20
366.388954
 30
0.0
 11
633.261906
 21
366.388954
 31
0.0
  0
LINE
  5
D2
330
1F
100
AcDbEntity
  8
LC-001-100-D00-0
 62
     7
370
    50
100
AcDbLine
 10
613.261906
 20
366.388954
 30
0.0
 11
625.301611
 21
366.388954
 31
0.0
  0
LINE
  5
D3
330
1F
100
AcDbEntity
  8
LC-001-100-D00-0
 62
     7
370
    50
100
AcDbLine
 10
625.097641
 20
365.388954
 30
0.0
 11
614.261906
 21
365.388954
 31
0.0
  0
LINE
  5
D4
330
1F
100
AcDbEntity
  8
LC-001-100-D00-0
 62
     7
370
    50
100
AcDbLine
 10
632.261906
 20
365.388954
 30
0.0
 11
625.097641
 21
365.388954
 31
0.0
  0
LINE
  5
D5
330
1F
100
AcDbEntity
  8
LC-001-100-D00-0
 62
     7
370
    50
100
AcDbLine
 10
722.761906
 20
465.388954
 30
0.0
 11
718.361906
 21
465.388954
 31
0.0
  0
LINE
  5
D6
330
1F
100
AcDbEntity
  8
LC-001-100-D00-0
 62
     7
370
    50
100
AcDbLine
 10
727.161906
 20
465.388954
 30
0.0
 11
722.761906
 21
465.388954
 31
0.0
  0
LINE
  5
D7
330
1F
100
AcDbEntity
  8
LC-001-100-D00-0
 62
     7
370
    50
100
AcDbLine
 10
652.761906
 20
465.388954
 30
0.0
 11
648.361906
 21
465.388954
 31
0.0
  0
LINE
  5
D8
330
1F
100
AcDbEntity
  8
LC-001-100-D00-0
 62
     7
370
    50
100
AcDbLine
 10
657.161906
 20
465.388954
 30
0.0
 11
652.761906
 21
465.388954
 31
0.0
  0
LINE
  5
D9
330
1F
100
AcDbEntity
  8
LC-001-100-D00-0
 62
     7
370
    50
100
AcDbLine
 10
652.261906
 20
471.388954
 30
0.0
 11
647.261906
 21
471.388954
 31
0.0
  0
LINE
  5
DA
330
1F
100
AcDbEntity
  8
LC-001-100-D00-0
 62
     7
370
    50
100
AcDbLine
 10
647.261906
 20
471.388954
 30
0.0
 11
647.261906
 21
474.388954
 31
0.0
  0
LINE
  5
DB
330
1F
100
AcDbEntity
  8
LC-001-100-D00-0
 62
     7
370
    50
100
AcDbLine
 10
647.261906
 20
474.388954
 30
0.0
 11
652.261906
 21
474.388954
 31
0.0
  0
LINE
  5
DC
330
1F
100
AcDbEntity
  8
LC-001-100-D00-0
 62
     7
370
    50
100
AcDbLine
 10
728.261906
 20
474.388954
 30
0.0
 11
728.261906
 21
471.388954
 31
0.0
  0
LINE
  5
DD
330
1F
100
AcDbEntity
  8
LC-001-100-D00-0
 62
     7
370
    50
100
AcDbLine
 10
723.261906
 20
474.388954
 30
0.0
 11
728.261906
 21
474.388954
 31
0.0
  0
LINE
  5
DE
330
1F
100
AcDbEntity
  8
LC-001-100-D00-0
 62
     7
370
    50
100
AcDbLine
 10
728.261906
 20
471.388954
 30
0.0
 11
723.261906
 21
471.388954
 31
0.0
  0
LINE
  5
DF
330
1F
100
AcDbEntity
  8
LC-001-100-D00-0
 62
     7
370
    50
100
AcDbLine
 10
652.261906
 20
471.388954
 30
0.0
 11
660.261907
 21
471.388953
 31
0.0
  0
LINE
  5
E0
330
1F
100
AcDbEntity
  8
LC-001-100-D00-0
 62
     7
370
    50
100
AcDbLine
 10
652.261906
 20
474.388954
 30
0.0
 11
660.261907
 21
474.388954
 31
0.0
  0
LINE
  5
E1
330
1F
100
AcDbEntity
  8
LC-001-100-D00-0
 62
     7
370
    50
100
AcDbLine
 10
715.261906
 20
474.388954
 30
0.0
 11
723.261906
 21
474.388954
 31
0.0
  0
LINE
  5
E2
330
1F
100
AcDbEntity
  8
LC-001-100-D00-0
 62
     7
370
    50
100
AcDbLine
 10
715.261906
 20
471.388953
 30
0.0
 11
723.261906
 21
471.388954
 31
0.0
  0
LINE
  5
E3
330
1F
100
AcDbEntity
  8
LC-001-100-D00-0
 62
     7
370
    50
100
AcDbLine
 10
725.708715
 20
461.138954
 30
0.0
 11
649.815098
 21
461.138954
 31
0.0
  0
LINE
  5
E4
330
1F
100
AcDbEntity
  8
LC-001-100-D00-0
 62
     7
370
    50
100
AcDbLine
 10
647.261906
 20
474.388954
 30
0.0
 11
647.261906
 21
475.388954
 31
0.0
  0
LINE
  5
E5
330
1F
100
AcDbEntity
  8
LC-001-100-D00-0
 62
     7
370
    50
100
AcDbLine
 10
728.261906
 20
475.388954
 30
0.0
 11
728.261906
 21
474.388954
 31
0.0
  0
LINE
  5
E6
330
1F
100
AcDbEntity
  8
LC-001-100-D00-0
 62
     7
370
    50
100
AcDbLine
 10
647.261906
 20
475.388954
 30
0.0
 11
647.261906
 21
490.388954
 31
0.0
  0
LINE
  5
E7
330
1F
100
AcDbEntity
  8
LC-001-100-D00-0
 62
     7
370
    50
100
AcDbLine
 10
647.261906
 20
461.138954
 30
0.0
 11
647.261906
 21
469.388954
 31
0.0
  0
LINE
  5
E8
330
1F
100
AcDbEntity
  8
LC-001-100-D00-0
 62
     7
370
    50
100
AcDbLine
 10
649.815098
 20
461.138954
 30
0.0
 11
647.261906
 21
461.138954
 31
0.0
  0
LINE
  5
E9
330
1F
100
AcDbEntity
  8
LC-001-100-D00-0
 62
     7
370
    50
100
AcDbLine
 10
728.261906
 20
490.388954
 30
0.0
 11
728.261906
 21
475.388954
 31
0.0
  0
LINE
  5
EA
330
1F
100
AcDbEntity
  8
LC-001-100-D00-0
 62
     7
370
    50
100
AcDbLine
 10
728.261906
 20
469.388954
 30
0.0
 11
728.261906
 21
461.138954
 31
0.0
  0
LINE
  5
EB
330
1F
100
AcDbEntity
  8
LC-001-100-D00-0
 62
     7
370
    50
100
AcDbLine
 10
728.261906
 20
461.138954
 30
0.0
 11
725.708715
 21
461.138954
 31
0.0
  0
LINE
  5
EC
330
1F
100
AcDbEntity
  8
LC-001-100-D00-0
 62
     7
370
    50
100
AcDbLine
 10
714.80446
 20
408.388954
 30
0.0
 11
660.719353
 21
408.388954
 31
0.0
  0
LINE
  5
ED
330
1F
100
AcDbEntity
  8
LC-001-100-D00-0
 62
     7
370
    50
100
AcDbLine
 10
649.815098
 20
461.138954
 30
0.0
 11
725.708715
 21
461.138954
 31
0.0
  0
LINE
  5
EE
330
1F
100
AcDbEntity
  8
LC-001-100-D00-0
 62
     7
370
    50
100
AcDbLine
 10
708.277504
 20
401.888954
 30
0.0
 11
667.246309
 21
401.888954
 31
0.0
  0
LINE
  5
EF
330
1F
100
AcDbEntity
  8
LC-001-100-D00-0
 62
     7
370
    50
100
AcDbLine
 10
728.261906
 20
461.138954
 30
0.0
 11
728.261906
 21
420.888954
 31
0.0
  0
LINE
  5
F0
330
1F
100
AcDbEntity
  8
LC-001-100-D00-0
 62
     7
370
    50
100
AcDbLine
 10
725.708715
 20
461.138954
 30
0.0
 11
728.261906
 21
461.138954
 31
0.0
  0
ARC
  5
F1
330
1F
100
AcDbEntity
  8
LC-001-100-D00-0
 62
     7
370
    50
100
AcDbCircle
 10
715.761906
 20
420.888954
 30
0.0
 40
12.5
100
AcDbArc
 50
270.0
 51
0.0
  0
LINE
  5
F2
330
1F
100
AcDbEntity
  8
LC-001-100-D00-0
 62
     7
370
    50
100
AcDbLine
 10
715.761906
 20
408.388954
 30
0.0
 11
714.80446
 21
408.388954
 31
0.0
  0
ARC
  5
F3
330
1F
100
AcDbEntity
  8
LC-001-100-D00-0
 62
     7
370
    50
100
AcDbCircle
 10
659.761906
 20
420.888954
 30
0.0
 40
12.5
100
AcDbArc
 50
180.0
 51
270.0
  0
LINE
  5
F4
330
1F
100
AcDbEntity
  8
LC-001-100-D00-0
 62
     7
370
    50
100
AcDbLine
 10
660.719353
 20
408.388954
 30
0.0
 11
659.761906
 21
408.388954
 31
0.0
  0
LINE
  5
F5
330
1F
100
AcDbEntity
  8
LC-001-100-D00-0
 62
     7
370
    50
100
AcDbLine
 10
647.261906
 20
420.888954
 30
0.0
 11
647.261906
 21
461.138954
 31
0.0
  0
LINE
  5
F6
330
1F
100
AcDbEntity
  8
LC-001-100-D00-0
 62
     7
370
    50
100
AcDbLine
 10
647.261906
 20
461.138954
 30
0.0
 11
649.815098
 21
461.138954
 31
0.0
  0
ARC
  5
F7
330
1F
100
AcDbEntity
  8
LC-001-100-D00-0
 62
     7
370
    50
100
AcDbCircle
 10
667.244026
 20
408.888954
 30
0.0
 40
7.000000000000109
100
AcDbArc
 50
184.096044
 51
270.0
  0
LINE
  5
F8
330
1F
100
AcDbEntity
  8
LC-001-100-D00-0
 62
     7
370
    50
100
AcDbLine
 10
667.246309
 20
401.888954
 30
0.0
 11
667.244026
 21
401.888954
 31
0.0
  0
ARC
  5
F9
330
1F
100
AcDbEntity
  8
LC-001-100-D00-0
 62
     7
370
    50
100
AcDbCircle
 10
708.279786
 20
408.888954
 30
0.0
 40
7.0
100
AcDbArc
 50
270.0
 51
355.903956
  0
LINE
  5
FA
330
1F
100
AcDbEntity
  8
LC-001-100-D00-0
 62
     7
370
    50
100
AcDbLine
 10
708.279786
 20
401.888954
 30
0.0
 11
708.277504
 21
401.888954
 31
0.0
  0
LINE
  5
FB
330
1F
100
AcDbEntity
  8
LC-001-100-D00-0
 62
     7
370
    50
100
AcDbLine
 10
652.761906
 20
469.388954
 30
0.0
 11
658.261906
 21
469.388954
 31
0.0
  0
LINE
  5
FC
330
1F
100
AcDbEntity
  8
LC-001-100-D00-0
 62
     7
370
    50
100
AcDbLine
 10
647.261906
 20
469.388954
 30
0.0
 11
652.761906
 21
469.388954
 31
0.0
  0
LINE
  5
FD
330
1F
100
AcDbEntity
  8
LC-001-100-D00-0
 62
     7
370
    50
100
AcDbLine
 10
722.761906
 20
469.388954
 30
0.0
 11
728.261906
 21
469.388954
 31
0.0
  0
LINE
  5
FE
330
1F
100
AcDbEntity
  8
LC-001-100-D00-0
 62
     7
370
    50
100
AcDbLine
 10
717.261906
 20
469.388954
 30
0.0
 11
722.761906
 21
469.388954
 31
0.0
  0
DIMENSION
  5
101
330
1F
100
AcDbEntity
  8
LC-001-100-D00-0
 62
     7
370
    25
100
AcDbDimension
  2
*D1
 10
728.261906
 20
306.788954
 30
0.0
 11
809.455756
 21
361.788954
 31
0.0
 70
   160
  1
81
 71
     5
 42
81.0
  3
LC-DIM-L-0100-02-02
100
AcDbAlignedDimension
 13
647.261906
 23
420.888954
 33
0.0
 14
728.261906
 24
420.888954
 34
0.0
100
AcDbRotatedDimension
  0
LINE
  5
111
330
1F
100
AcDbEntity
  8
LC-001-100-D00-0
  6
DASHDOT
 62
     7
370
    25
100
AcDbLine
 10
687.761906
 20
401.888954
 30
0.0
 11
687.761906
 21
491.888954
 31
0.0
  0
LINE
  5
112
330
1F
100
AcDbEntity
  8
LC-001-100-D00-0
  6
DASHDOT
 62
     7
370
    25
100
AcDbLine
 10
752.261906
 20
370.388954
 30
0.0
 11
752.261906
 21
494.388954
 31
0.0
  0
LINE
  5
113
330
1F
100
AcDbEntity
  8
LC-001-100-D00-0
  6
DASHDOT
 62
     7
370
    25
100
AcDbLine
 10
623.261906
 20
370.388954
 30
0.0
 11
623.261906
 21
494.388954
 31
0.0
  0
LINE
  5
114
330
1F
100
AcDbEntity
  8
LC-001-100-D00-0
 62
     7
370
    50
100
AcDbLine
 10
130.478856
 20
96.104385
 30
0.0
 11
130.478856
 21
143.104385
 31
0.0
  0
ARC
  5
115
330
1F
100
AcDbEntity
  8
LC-001-100-D00-0
 62
     7
370
    50
100
AcDbCircle
 10
127.978856
 20
143.104385
 30
0.0
 40
2.5
100
AcDbArc
 50
0.0
 51
90.0
  0
ARC
  5
116
330
1F
100
AcDbEntity
  8
LC-001-100-D00-0
 62
     7
370
    50
100
AcDbCircle
 10
127.978856
 20
96.104385
 30
0.0
 40
2.5
100
AcDbArc
 50
270.0
 51
0.0
  0
LINE
  5
117
330
1F
100
AcDbEntity
  8
LC-001-100-D00-0
 62
     7
370
    50
100
AcDbLine
 10
127.978856
 20
93.604385
 30
0.0
 11
-767.021144
 21
93.604385
 31
0.0
  0
LINE
  5
118
330
1F
100
AcDbEntity
  8
LC-001-100-D00-0
 62
     7
370
    50
100
AcDbLine
 10
-767.021144
 20
145.604385
 30
0.0
 11
127.978856
 21
145.604385
 31
0.0
  0
ARC
  5
119
330
1F
100
AcDbEntity
  8
LC-001-100-D00-0
 62
     7
370
    50
100
AcDbCircle
 10
-767.021144
 20
143.104385
 30
0.0
 40
2.5
100
AcDbArc
 50
90.0
 51
180.0
  0
ARC
  5
11A
330
1F
100
AcDbEntity
  8
LC-001-100-D00-0
 62
     7
370
    50
100
AcDbCircle
 10
-767.021144
 20
96.104385
 30
0.0
 40
2.5
100
AcDbArc
 50
180.0
 51
270.0
  0
LINE
  5
11B
330
1F
100
AcDbEntity
  8
LC-001-100-D00-0
 62
     7
370
    50
100
AcDbLine
 10
-769.521144
 20
96.104385
 30
0.0
 11
-769.521144
 21
143.104385
 31
0.0
  0
ARC
  5
11C
330
1F
100
AcDbEntity
  8
LC-001-100-D00-0
 62
     7
370
    50
100
AcDbCircle
 10
-814.521144
 20
192.104385
 30
0.0
 40
5.0
100
AcDbArc
 50
90.0
 51
180.0
  0
LINE
  5
11D
330
1F
100
AcDbEntity
  8
LC-001-100-D00-0
 62
     7
370
    50
100
AcDbLine
 10
175.478856
 20
197.104385
 30
0.0
 11
-814.521144
 21
197.104385
 31
0.0
  0
ARC
  5
11E
330
1F
100
AcDbEntity
  8
LC-001-100-D00-0
 62
     7
370
    50
100
AcDbCircle
 10
175.478856
 20
192.104385
 30
0.0
 40
5.0
100
AcDbArc
 50
0.0
 51
90.0
  0
LINE
  5
11F
330
1F
100
AcDbEntity
  8
LC-001-100-D00-0
 62
     7
370
    50
100
AcDbLine
 10
-814.521144
 20
42.104385
 30
0.0
 11
175.478856
 21
42.104385
 31
0.0
  0
ARC
  5
120
330
1F
100
AcDbEntity
  8
LC-001-100-D00-0
 62
     7
370
    50
100
AcDbCircle
 10
-814.521144
 20
47.104385
 30
0.0
 40
5.0
100
AcDbArc
 50
180.0
 51
270.0
  0
LINE
  5
121
330
1F
100
AcDbEntity
  8
LC-001-100-D00-0
 62
     7
370
    50
100
AcDbLine
 10
-819.521144
 20
192.104385
 30
0.0
 11
-819.521144
 21
47.104385
 31
0.0
  0
LINE
  5
122
330
1F
100
AcDbEntity
  8
LC-001-100-D00-0
 62
     7
370
    50
100
AcDbLine
 10
180.478856
 20
192.104385
 30
0.0
 11
180.478856
 21
47.104385
 31
0.0
  0
ARC
  5
123
330
1F
100
AcDbEntity
  8
LC-001-100-D00-0
 62
     7
370
    50
100
AcDbCircle
 10
175.478856
 20
47.104385
 30
0.0
 40
5.0
100
AcDbArc
 50
270.0
 51
0.0
  0
CIRCLE
  5
124
330
1F
100
AcDbEntity
  8
LC-001-100-D00-0
 62
     7
370
    50
100
AcDbCircle
 10
100.478856
 20
119.604385
 30
0.0
 40
2.999999999999886
  0
CIRCLE
  5
125
330
1F
100
AcDbEntity
  8
LC-001-100-D00-0
 62
     7
370
    50
100
AcDbCircle
 10
-59.521144
 20
119.604385
 30
0.0
 40
2.999999999999886
  0
CIRCLE
  5
126
330
1F
100
AcDbEntity
  8
LC-001-100-D00-0
 62
     7
370
    50
100
AcDbCircle
 10
-219.521144
 20
119.604385
 30
0.0
 40
2.999999999999886
  0
CIRCLE
  5
127
330
1F
100
AcDbEntity
  8
LC-001-100-D00-0
 62
     7
370
    50
100
AcDbCircle
 10
-419.521144
 20
119.604385
 30
0.0
 40
3.000000000000227
  0
CIRCLE
  5
128
330
1F
100
AcDbEntity
  8
LC-001-100-D00-0
 62
     7
370
    50
100
AcDbCircle
 10
-579.521144
 20
119.604385
 30
0.0
 40
2.999999999999886
  0
CIRCLE
  5
129
330
1F
100
AcDbEntity
  8
LC-001-100-D00-0
 62
     7
370
    50
100
AcDbCircle
 10
-739.521144
 20
119.604385
 30
0.0
 40
3.000000000000227
  0
LINE
  5
12A
330
1F
100
AcDbEntity
  8
LC-001-100-D00-0
 62
     7
370
    50
100
AcDbLine
 10
122.452661
 20
107.281716
 30
0.0
 11
122.452661
 21
96.104386
 31
0.0
  0
ARC
  5
12B
330
1F
100
AcDbEntity
  8
LC-001-100-D00-0
 62
     7
370
    50
100
AcDbCircle
 10
885.638822
 20
-12.00978
 30
0.0
 40
772.4529614869412
100
AcDbArc
 50
171.103568
 51
171.116141
  0
INSERT
  5
133
330
1F
100
AcDbEntity
  8
LC-001-100-D00-0
 62
     7
370
    50
100
AcDbBlockReference
  2
KLON1
 10
0.0
 20
0.0
 30
0.0
  0
LINE
  5
134
330
1F
100
AcDbEntity
  8
LC-001-100-D00-0
 62
     7
370
    50
100
AcDbLine
 10
122.452661
 20
143.089746
 30
0.0
 11
122.452661
 21
131.927054
 31
0.0
  0
INSERT
  5
13A
330
1F
100
AcDbEntity
  8
LC-001-100-D00-0
 62
     7
370
    50
100
AcDbBlockReference
  2
KLON2
 10
0.0
 20
0.0
 30
0.0
  0
INSERT
  5
140
330
1F
100
AcDbEntity
  8
LC-001-100-D00-0
 62
     7
370
    50
100
AcDbBlockReference
  2
KLON3
 10
0.0
 20
0.0
 30
0.0
  0
INSERT
  5
146
330
1F
100
AcDbEntity
  8
LC-001-100-D00-0
 62
     7
370
    50
100
AcDbBlockReference
  2
KLON4
 10
0.0
 20
0.0
 30
0.0
  0
LINE
  5
147
330
1F
100
AcDbEntity
  8
LC-001-100-D00-0
 62
     7
370
    50
100
AcDbLine
 10
-761.49495
 20
143.089746
 30
0.0
 11
-761.49495
 21
131.927054
 31
0.0
  0
INSERT
  5
14F
330
1F
100
AcDbEntity
  8
LC-001-100-D00-0
 62
     7
370
    50
100
AcDbBlockReference
  2
KLON5
 10
0.0
 20
0.0
 30
0.0
  0
ARC
  5
150
330
1F
100
AcDbEntity
  8
LC-001-100-D00-0
 62
     7
370
    50
100
AcDbCircle
 10
-1524.681111
 20
-12.00978
 30
0.0
 40
772.4529614869117
100
AcDbArc
 50
8.883859
 51
8.896432
  0
LINE
  5
151
330
1F
100
AcDbEntity
  8
LC-001-100-D00-0
 62
     7
370
    50
100
AcDbLine
 10
-761.49495
 20
107.281716
 30
0.0
 11
-761.49495
 21
96.104386
 31
0.0
  0
INSERT
  5
157
330
1F
100
AcDbEntity
  8
LC-001-100-D00-0
 62
     7
370
    50
100
AcDbBlockReference
  2
KLON6
 10
0.0
 20
0.0
 30
0.0
  0
ELLIPSE
  5
158
330
1F
100
AcDbEntity
  8
LC-001-100-D00-0
 62
     7
370
    50
100
AcDbEllipse
 10
122.405887
 20
96.104385
 30
0.0
 11
0.0
 21
-2.500000001907349
 31
0.0
210
0.0
220
0.0
230
0.9999999999999999
 40
0.018242
 41
3.141592653604438
 42
4.712388980377039
  0
ELLIPSE
  5
159
330
1F
100
AcDbEntity
  8
LC-001-100-D00-0
 62
     7
370
    50
100
AcDbEllipse
 10
190.951492
 20
96.104385
 30
0.0
 11
68.49999999999312
 21
0.0
 31
0.0
210
0.0
220
0.0
230
0.9999999999999999
 40
0.036496
 41
3.141592653597518
 42
3.169858841660703
  0
ELLIPSE
  5
15A
330
1F
100
AcDbEntity
  8
LC-001-100-D00-0
 62
     7
370
    50
100
AcDbEllipse
 10
-14.594113
 20
96.104385
 30
0.0
 11
0.0
 21
-2.500000000014901
 31
0.0
210
0.0
220
0.0
230
1.0
 40
0.018242
 41
3.141592653589793
 42
4.712388980380966
  0
ELLIPSE
  5
15B
330
1F
100
AcDbEntity
  8
LC-001-100-D00-0
 62
     7
370
    50
100
AcDbEllipse
 10
-761.448176
 20
96.104385
 30
0.0
 11
0.0
 21
-2.500000122070309
 31
0.0
210
0.0
220
0.0
230
1.0
 40
0.018242
 41
1.570796326802445
 42
3.141592653592286
  0
ELLIPSE
  5
15C
330
1F
100
AcDbEntity
  8
LC-001-100-D00-0
 62
     7
370
    50
100
AcDbEllipse
 10
-624.448176
 20
96.104385
 30
0.0
 11
0.0
 21
-2.499999969482422
 31
0.0
210
0.0
220
0.0
230
1.0
 40
0.018242
 41
1.570796326798597
 42
3.141592653592286
  0
ELLIPSE
  5
15D
330
1F
100
AcDbEntity
  8
LC-001-100-D00-0
 62
     7
370
    50
100
AcDbEllipse
 10
-829.993781
 20
96.104385
 30
0.0
 11
68.49999999917662
 21
0.0
 31
0.0
210
0.0
220
0.0
230
1.0
 40
0.036496
 41
6.254919119109608
 42
6.283185307179677
  0
ELLIPSE
  5
15E
330
1F
100
AcDbEntity
  8
LC-001-100-D00-0
 62
     7
370
    50
100
AcDbEllipse
 10
190.951492
 20
143.104385
 30
0.0
 11
68.4999999999998
 21
0.0
 31
0.0
210
0.0
220
0.0
230
1.0
 40
0.036496
 41
3.141592653589793
 42
3.147448628039453
  0
ELLIPSE
  5
15F
330
1F
100
AcDbEntity
  8
LC-001-100-D00-0
 62
     7
370
    50
100
AcDbEllipse
 10
122.405887
 20
143.104385
 30
0.0
 11
0.0
 21
-2.5
 31
0.0
210
0.0
220
0.0
230
1.0
 40
0.018242
 41
4.712388980384519
 42
6.283185334705269
  0
ELLIPSE
  5
160
330
1F
100
AcDbEntity
  8
LC-001-100-D00-0
 62
     7
370
    50
100
AcDbEllipse
 10
-829.993781
 20
143.104385
 30
0.0
 11
68.5000000032915
 21
0.0
 31
0.0
210
0.0
220
0.0
230
1.0
 40
0.036496
 41
6.277329332730559
 42
6.283185307179393
  0
ELLIPSE
  5
161
330
1F
100
AcDbEntity
  8
LC-001-100-D00-0
 62
     7
370
    50
100
AcDbEllipse
 10
-761.448176
 20
143.104385
 30
0.0
 11
0.0
 21
-2.500000061035156
 31
0.0
210
0.0
220
0.0
230
1.0
 40
0.018242
 41
6.28318527964362
 42
7.853981633974664
  0
ELLIPSE
  5
162
330
1F
100
AcDbEntity
  8
LC-001-100-D00-0
 62
     7
370
    50
100
AcDbEllipse
 10
-14.594113
 20
143.104385
 30
0.0
 11
0.0
 21
-2.5
 31
0.0
210
0.0
220
0.0
230
1.0
 40
0.018242
 41
4.712388980388214
 42
6.283185319793422
  0
ELLIPSE
  5
163
330
1F
100
AcDbEntity
  8
LC-001-100-D00-0
 62
     7
370
    50
100
AcDbEllipse
 10
-624.448176
 20
143.104385
 30
0.0
 11
0.0
 21
-2.5
 31
0.0
210
0.0
220
0.0
230
1.0
 40
0.018242
 41
6.283185294568283
 42
7.853981633971015
  0
LINE
  5
164
330
1F
100
AcDbEntity
  8
LC-001-100-D00-0
 62
     7
370
    50
100
AcDbLine
 10
-14.548496
 20
96.104386
 30
0.0
 11
-14.548496
 21
98.954902
 31
0.0
  0
INSERT
  5
16A
330
1F
100
AcDbEntity
  8
LC-001-100-D00-0
 62
     7
370
    50
100
AcDbBlockReference
  2
KLON7
 10
0.0
 20
0.0
 30
0.0
  0
INSERT
  5
170
330
1F
100
AcDbEntity
  8
LC-001-100-D00-0
 62
     7
370
    50
100
AcDbBlockReference
  2
KLON8
 10
0.0
 20
0.0
 30
0.0
  0
LINE
  5
171
330
1F
100
AcDbEntity
  8
LC-001-100-D00-0
 62
     7
370
    50
100
AcDbLine
 10
-624.493793
 20
96.104386
 30
0.0
 11
-624.493793
 21
98.954902
 31
0.0
  0
INSERT
  5
178
330
1F
100
AcDbEntity
  8
LC-001-100-D00-0
 62
     7
370
    50
100
AcDbBlockReference
  2
KLON9
 10
0.0
 20
0.0
 30
0.0
  0
INSERT
  5
17F
330
1F
100
AcDbEntity
  8
LC-001-100-D00-0
 62
     7
370
    50
100
AcDbBlockReference
  2
KLON10
 10
0.0
 20
0.0
 30
0.0
  0
INSERT
  5
185
330
1F
100
AcDbEntity
  8
LC-001-100-D00-0
 62
     7
370
    50
100
AcDbBlockReference
  2
KLON11
 10
0.0
 20
0.0
 30
0.0
  0
INSERT
  5
18C
330
1F
100
AcDbEntity
  8
LC-001-100-D00-0
 62
     7
370
    50
100
AcDbBlockReference
  2
KLON12
 10
0.0
 20
0.0
 30
0.0
  0
INSERT
  5
193
330
1F
100
AcDbEntity
  8
LC-001-100-D00-0
 62
     7
370
    50
100
AcDbBlockReference
  2
KLON13
 10
0.0
 20
0.0
 30
0.0
  0
INSERT
  5
199
330
1F
100
AcDbEntity
  8
LC-001-100-D00-0
 62
     7
370
    50
100
AcDbBlockReference
  2
KLON14
 10
0.0
 20
0.0
 30
0.0
  0
LINE
  5
19A
330
1F
100
AcDbEntity
  8
LC-001-100-D00-0
 62
     7
370
    50
100
AcDbLine
 10
-14.548496
 20
140.253868
 30
0.0
 11
-14.548496
 21
143.104384
 31
0.0
  0
LINE
  5
19B
330
1F
100
AcDbEntity
  8
LC-001-100-D00-0
 62
     7
370
    50
100
AcDbLine
 10
-624.493793
 20
140.253868
 30
0.0
 11
-624.493793
 21
143.104384
 31
0.0
  0
LINE
  5
19C
330
1F
100
AcDbEntity
  8
LC-001-100-D00-0
 62
     7
370
    50
100
AcDbLine
 10
-14.534221
 20
99.748707
 30
0.0
 11
-14.534221
 21
113.743434
 31
0.0
  0
ELLIPSE
  5
19D
330
1F
100
AcDbEntity
  8
LC-001-100-D00-0
 62
     7
370
    15
100
AcDbEllipse
 10
150.227699
 20
187.671806
 30
0.0
 11
28.64933025289446
 21
1.713494944971322
 31
0.0
210
0.0
220
0.0
230
0.9999999999999999
 40
0.016531
 41
6.280994665940359
 42
6.282196627517847
  0
ELLIPSE
  5
19E
330
1F
100
AcDbEntity
  8
LC-001-100-D00-0
 62
     7
370
    15
100
AcDbEllipse
 10
150.227699
 20
199.040129
 30
0.0
 11
28.64933030446494
 21
-1.71349494805572
 31
0.0
210
0.0
220
0.0
230
1.0
 40
0.016531
 41
0.0009886796629309
 42
0.0021906412405725
  0
LINE
  5
19F
330
1F
100
AcDbEntity
  8
LC-001-100-D00-0
 62
     7
370
    50
100
AcDbLine
 10
-14.534221
 20
125.465336
 30
0.0
 11
-14.534221
 21
139.460063
 31
0.0
  0
ELLIPSE
  5
1A0
330
1F
100
AcDbEntity
  8
LC-001-100-D00-0
 62
     7
370
    15
100
AcDbEllipse
 10
85.531623
 20
187.671806
 30
0.0
 11
28.64933028192428
 21
-1.713494946707575
 31
0.0
210
0.0
220
0.0
230
1.0
 40
0.016531
 41
3.142581333259318
 42
3.143783294836935
  0
LINE
  5
1A1
330
1F
100
AcDbEntity
  8
LC-001-100-D00-0
 62
     7
370
    50
100
AcDbLine
 10
-624.508068
 20
99.748707
 30
0.0
 11
-624.508068
 21
113.743434
 31
0.0
  0
ELLIPSE
  5
1A2
330
1F
100
AcDbEntity
  8
LC-001-100-D00-0
 62
     7
370
    15
100
AcDbEllipse
 10
85.531623
 20
199.040129
 30
0.0
 11
28.64933022284008
 21
1.713494943173792
 31
0.0
210
0.0
220
0.0
230
0.9999999999999999
 40
0.016531
 41
3.13940201234757
 42
3.140603973925136
  0
LINE
  5
1A3
330
1F
100
AcDbEntity
  8
LC-001-100-D00-0
 62
     7
370
    50
100
AcDbLine
 10
-624.508068
 20
125.465336
 30
0.0
 11
-624.508068
 21
139.460063
 31
0.0
  0
LINE
  5
1A4
330
1F
100
AcDbEntity
  8
LC-001-100-D00-0
 62
     7
370
    50
100
AcDbLine
 10
-14.548496
 20
98.955274
 30
0.0
 11
-14.53434
 21
99.745844
 31
0.0
  0
LINE
  5
1A5
330
1F
100
AcDbEntity
  8
LC-001-100-D00-0
 62
     7
370
    50
100
AcDbLine
 10
-14.548496
 20
140.253496
 30
0.0
 11
-14.53434
 21
139.462926
 31
0.0
  0
LINE
  5
1A6
330
1F
100
AcDbEntity
  8
LC-001-100-D00-0
 62
     7
370
    50
100
AcDbLine
 10
-624.493793
 20
98.955274
 30
0.0
 11
-624.507949
 21
99.745844
 31
0.0
  0
LINE
  5
1A7
330
1F
100
AcDbEntity
  8
LC-001-100-D00-0
 62
     7
370
    50
100
AcDbLine
 10
-624.493793
 20
140.253496
 30
0.0
 11
-624.507949
 21
139.462926
 31
0.0
  0
ARC
  5
1A8
330
1F
100
AcDbEntity
  8
LC-001-100-D00-0
 62
     7
370
    50
100
AcDbCircle
 10
-289.021152
 20
119.604405
 30
0.0
 40
24.80002105913786
100
AcDbArc
 50
270.0
 51
300.592807
  0
ARC
  5
1A9
330
1F
100
AcDbEntity
  8
LC-001-100-D00-0
 62
     7
370
    50
100
AcDbCircle
 10
-350.021137
 20
119.604405
 30
0.0
 40
24.80002105913795
100
AcDbArc
 50
239.407193
 51
270.0
  0
ARC
  5
1AA
330
1F
100
AcDbEntity
  8
LC-001-100-D00-0
 62
     7
370
    50
100
AcDbCircle
 10
-289.02115
 20
119.604372
 30
0.0
 40
24.80001358063763
100
AcDbArc
 50
59.407188
 51
90.0
  0
ARC
  5
1AB
330
1F
100
AcDbEntity
  8
LC-001-100-D00-0
 62
     7
370
    50
100
AcDbCircle
 10
-350.021139
 20
119.604372
 30
0.0
 40
24.8000135806376
100
AcDbArc
 50
90.0
 51
120.592812
  0
LINE
  5
1AC
330
1F
100
AcDbEntity
  8
LC-001-100-D00-0
 62
     7
370
    50
100
AcDbLine
 10
-350.021145
 20
144.404386
 30
0.0
 11
-289.021144
 21
144.404386
 31
0.0
  0
LINE
  5
1AD
330
1F
100
AcDbEntity
  8
LC-001-100-D00-0
 62
     7
370
    50
100
AcDbLine
 10
-289.021144
 20
94.804384
 30
0.0
 11
-350.021145
 21
94.804384
 31
0.0
  0
LINE
  5
1AE
330
1F
100
AcDbEntity
  8
LC-001-100-D00-0
 62
     7
370
    50
100
AcDbLine
 10
-386.353977
 20
123.043288
 30
0.0
 11
-386.345834
 21
122.675396
 31
0.0
  0
LINE
  5
1AF
330
1F
100
AcDbEntity
  8
LC-001-100-D00-0
 62
     7
370
    50
100
AcDbLine
 10
-387.465254
 20
123.836257
 30
0.0
 11
-386.353977
 21
123.043288
 31
0.0
  0
LINE
  5
1B0
330
1F
100
AcDbEntity
  8
LC-001-100-D00-0
 62
     7
370
    50
100
AcDbLine
 10
-386.353977
 20
124.629226
 30
0.0
 11
-387.465254
 21
123.836257
 31
0.0
  0
LINE
  5
1B1
330
1F
100
AcDbEntity
  8
LC-001-100-D00-0
 62
     7
370
    50
100
AcDbLine
 10
-386.353977
 20
125.002923
 30
0.0
 11
-386.353977
 21
124.629226
 31
0.0
  0
LINE
  5
1B2
330
1F
100
AcDbEntity
  8
LC-001-100-D00-0
 62
     7
370
    50
100
AcDbLine
 10
-387.727477
 20
124.023456
 30
0.0
 11
-386.353977
 21
125.002923
 31
0.0
  0
LINE
  5
1B3
330
1F
100
AcDbEntity
  8
LC-001-100-D00-0
 62
     7
370
    50
100
AcDbLine
 10
-388.911672
 20
124.868308
 30
0.0
 11
-387.727477
 21
124.023456
 31
0.0
  0
LINE
  5
1B4
330
1F
100
AcDbEntity
  8
LC-001-100-D00-0
 62
     7
370
    50
100
AcDbLine
 10
-388.911672
 20
124.49461
 30
0.0
 11
-388.911672
 21
124.868308
 31
0.0
  0
LINE
  5
1B5
330
1F
100
AcDbEntity
  8
LC-001-100-D00-0
 62
     7
370
    50
100
AcDbLine
 10
-387.988992
 20
123.836257
 30
0.0
 11
-388.911672
 21
124.49461
 31
0.0
  0
LINE
  5
1B6
330
1F
100
AcDbEntity
  8
LC-001-100-D00-0
 62
     7
370
    50
100
AcDbLine
 10
-388.911672
 20
123.177903
 30
0.0
 11
-387.988992
 21
123.836257
 31
0.0
  0
LINE
  5
1B7
330
1F
100
AcDbEntity
  8
LC-001-100-D00-0
 62
     7
370
    50
100
AcDbLine
 10
-388.911672
 20
122.804205
 30
0.0
 11
-388.911672
 21
123.177903
 31
0.0
  0
LINE
  5
1B8
330
1F
100
AcDbEntity
  8
LC-001-100-D00-0
 62
     7
370
    50
100
AcDbLine
 10
-387.727477
 20
123.649758
 30
0.0
 11
-388.911672
 21
122.804205
 31
0.0
  0
LINE
  5
1B9
330
1F
100
AcDbEntity
  8
LC-001-100-D00-0
 62
     7
370
    50
100
AcDbLine
 10
-386.345834
 20
122.675396
 30
0.0
 11
-387.727477
 21
123.649758
 31
0.0
  0
LINE
  5
1BA
330
1F
100
AcDbEntity
  8
LC-001-100-D00-0
 62
     7
370
    50
100
AcDbLine
 10
-386.353977
 20
118.376621
 30
0.0
 11
-386.345834
 21
118.00873
 31
0.0
  0
LINE
  5
1BB
330
1F
100
AcDbEntity
  8
LC-001-100-D00-0
 62
     7
370
    50
100
AcDbLine
 10
-387.465254
 20
119.16959
 30
0.0
 11
-386.353977
 21
118.376621
 31
0.0
  0
LINE
  5
1BC
330
1F
100
AcDbEntity
  8
LC-001-100-D00-0
 62
     7
370
    50
100
AcDbLine
 10
-386.353977
 20
119.962559
 30
0.0
 11
-387.465254
 21
119.16959
 31
0.0
  0
LINE
  5
1BD
330
1F
100
AcDbEntity
  8
LC-001-100-D00-0
 62
     7
370
    50
100
AcDbLine
 10
-386.353977
 20
120.336257
 30
0.0
 11
-386.353977
 21
119.962559
 31
0.0
  0
LINE
  5
1BE
330
1F
100
AcDbEntity
  8
LC-001-100-D00-0
 62
     7
370
    50
100
AcDbLine
 10
-387.727477
 20
119.35679
 30
0.0
 11
-386.353977
 21
120.336257
 31
0.0
  0
LINE
  5
1BF
330
1F
100
AcDbEntity
  8
LC-001-100-D00-0
 62
     7
370
    50
100
AcDbLine
 10
-388.911672
 20
120.201641
 30
0.0
 11
-387.727477
 21
119.35679
 31
0.0
  0
LINE
  5
1C0
330
1F
100
AcDbEntity
  8
LC-001-100-D00-0
 62
     7
370
    50
100
AcDbLine
 10
-388.911672
 20
119.827943
 30
0.0
 11
-388.911672
 21
120.201641
 31
0.0
  0
LINE
  5
1C1
330
1F
100
AcDbEntity
  8
LC-001-100-D00-0
 62
     7
370
    50
100
AcDbLine
 10
-387.988992
 20
119.16959
 30
0.0
 11
-388.911672
 21
119.827943
 31
0.0
  0
LINE
  5
1C2
330
1F
100
AcDbEntity
  8
LC-001-100-D00-0
 62
     7
370
    50
100
AcDbLine
 10
-388.911672
 20
118.511237
 30
0.0
 11
-387.988992
 21
119.16959
 31
0.0
  0
LINE
  5
1C3
330
1F
100
AcDbEntity
  8
LC-001-100-D00-0
 62
     7
370
    50
100
AcDbLine
 10
-388.911672
 20
118.137539
 30
0.0
 11
-388.911672
 21
118.511237
 31
0.0
  0
LINE
  5
1C4
330
1F
100
AcDbEntity
  8
LC-001-100-D00-0
 62
     7
370
    50
100
AcDbLine
 10
-387.727477
 20
118.983092
 30
0.0
 11
-388.911672
 21
118.137539
 31
0.0
  0
LINE
  5
1C5
330
1F
100
AcDbEntity
  8
LC-001-100-D00-0
 62
     7
370
    50
100
AcDbLine
 10
-386.345834
 20
118.00873
 30
0.0
 11
-387.727477
 21
118.983092
 31
0.0
  0
LINE
  5
1C6
330
1F
100
AcDbEntity
  8
LC-001-100-D00-0
 62
     7
370
    50
100
AcDbLine
 10
-386.353977
 20
113.709955
 30
0.0
 11
-386.345834
 21
113.342063
 31
0.0
  0
LINE
  5
1C7
330
1F
100
AcDbEntity
  8
LC-001-100-D00-0
 62
     7
370
    50
100
AcDbLine
 10
-387.465254
 20
114.502924
 30
0.0
 11
-386.353977
 21
113.709955
 31
0.0
  0
LINE
  5
1C8
330
1F
100
AcDbEntity
  8
LC-001-100-D00-0
 62
     7
370
    50
100
AcDbLine
 10
-386.353977
 20
115.295892
 30
0.0
 11
-387.465254
 21
114.502924
 31
0.0
  0
LINE
  5
1C9
330
1F
100
AcDbEntity
  8
LC-001-100-D00-0
 62
     7
370
    50
100
AcDbLine
 10
-386.353977
 20
115.66959
 30
0.0
 11
-386.353977
 21
115.295892
 31
0.0
  0
LINE
  5
1CA
330
1F
100
AcDbEntity
  8
LC-001-100-D00-0
 62
     7
370
    50
100
AcDbLine
 10
-387.727477
 20
114.690123
 30
0.0
 11
-386.353977
 21
115.66959
 31
0.0
  0
LINE
  5
1CB
330
1F
100
AcDbEntity
  8
LC-001-100-D00-0
 62
     7
370
    50
100
AcDbLine
 10
-388.911672
 20
115.534975
 30
0.0
 11
-387.727477
 21
114.690123
 31
0.0
  0
LINE
  5
1CC
330
1F
100
AcDbEntity
  8
LC-001-100-D00-0
 62
     7
370
    50
100
AcDbLine
 10
-388.911672
 20
115.161277
 30
0.0
 11
-388.911672
 21
115.534975
 31
0.0
  0
LINE
  5
1CD
330
1F
100
AcDbEntity
  8
LC-001-100-D00-0
 62
     7
370
    50
100
AcDbLine
 10
-387.988992
 20
114.502924
 30
0.0
 11
-388.911672
 21
115.161277
 31
0.0
  0
LINE
  5
1CE
330
1F
100
AcDbEntity
  8
LC-001-100-D00-0
 62
     7
370
    50
100
AcDbLine
 10
-388.911672
 20
113.84457
 30
0.0
 11
-387.988992
 21
114.502924
 31
0.0
  0
LINE
  5
1CF
330
1F
100
AcDbEntity
  8
LC-001-100-D00-0
 62
     7
370
    50
100
AcDbLine
 10
-388.911672
 20
113.470872
 30
0.0
 11
-388.911672
 21
113.84457
 31
0.0
  0
LINE
  5
1D0
330
1F
100
AcDbEntity
  8
LC-001-100-D00-0
 62
     7
370
    50
100
AcDbLine
 10
-387.727477
 20
114.316425
 30
0.0
 11
-388.911672
 21
113.470872
 31
0.0
  0
LINE
  5
1D1
330
1F
100
AcDbEntity
  8
LC-001-100-D00-0
 62
     7
370
    50
100
AcDbLine
 10
-386.345834
 20
113.342063
 30
0.0
 11
-387.727477
 21
114.316425
 31
0.0
  0
LINE
  5
1D2
330
1F
100
AcDbEntity
  8
LC-001-100-D00-0
 62
     7
370
    50
100
AcDbLine
 10
-386.353977
 20
111.376621
 30
0.0
 11
-386.353977
 21
111.002923
 31
0.0
  0
LINE
  5
1D3
330
1F
100
AcDbEntity
  8
LC-001-100-D00-0
 62
     7
370
    50
100
AcDbLine
 10
-387.465254
 20
112.16959
 30
0.0
 11
-386.353977
 21
111.376621
 31
0.0
  0
LINE
  5
1D4
330
1F
100
AcDbEntity
  8
LC-001-100-D00-0
 62
     7
370
    50
100
AcDbLine
 10
-386.353977
 20
112.962559
 30
0.0
 11
-387.465254
 21
112.16959
 31
0.0
  0
LINE
  5
1D5
330
1F
100
AcDbEntity
  8
LC-001-100-D00-0
 62
     7
370
    50
100
AcDbLine
 10
-386.353977
 20
113.336257
 30
0.0
 11
-386.353977
 21
112.962559
 31
0.0
  0
LINE
  5
1D6
330
1F
100
AcDbEntity
  8
LC-001-100-D00-0
 62
     7
370
    50
100
AcDbLine
 10
-387.727477
 20
112.356789
 30
0.0
 11
-386.353977
 21
113.336257
 31
0.0
  0
LINE
  5
1D7
330
1F
100
AcDbEntity
  8
LC-001-100-D00-0
 62
     7
370
    50
100
AcDbLine
 10
-388.911672
 20
113.201641
 30
0.0
 11
-387.727477
 21
112.356789
 31
0.0
  0
LINE
  5
1D8
330
1F
100
AcDbEntity
  8
LC-001-100-D00-0
 62
     7
370
    50
100
AcDbLine
 10
-388.911672
 20
112.827944
 30
0.0
 11
-388.911672
 21
113.201641
 31
0.0
  0
LINE
  5
1D9
330
1F
100
AcDbEntity
  8
LC-001-100-D00-0
 62
     7
370
    50
100
AcDbLine
 10
-387.988992
 20
112.16959
 30
0.0
 11
-388.911672
 21
112.827944
 31
0.0
  0
LINE
  5
1DA
330
1F
100
AcDbEntity
  8
LC-001-100-D00-0
 62
     7
370
    50
100
AcDbLine
 10
-388.911672
 20
111.511237
 30
0.0
 11
-387.988992
 21
112.16959
 31
0.0
  0
LINE
  5
1DB
330
1F
100
AcDbEntity
  8
LC-001-100-D00-0
 62
     7
370
    50
100
AcDbLine
 10
-388.911672
 20
111.137539
 30
0.0
 11
-388.911672
 21
111.511237
 31
0.0
  0
LINE
  5
1DC
330
1F
100
AcDbEntity
  8
LC-001-100-D00-0
 62
     7
370
    50
100
AcDbLine
 10
-387.727477
 20
111.983092
 30
0.0
 11
-388.911672
 21
111.137539
 31
0.0
  0
LINE
  5
1DD
330
1F
100
AcDbEntity
  8
LC-001-100-D00-0
 62
     7
370
    50
100
AcDbLine
 10
-386.353977
 20
111.002923
 30
0.0
 11
-387.727477
 21
111.983092
 31
0.0
  0
LINE
  5
1DE
330
1F
100
AcDbEntity
  8
LC-001-100-D00-0
 62
     7
370
    50
100
AcDbLine
 10
-386.353977
 20
116.043288
 30
0.0
 11
-386.345834
 21
115.675396
 31
0.0
  0
LINE
  5
1DF
330
1F
100
AcDbEntity
  8
LC-001-100-D00-0
 62
     7
370
    50
100
AcDbLine
 10
-387.465254
 20
116.836257
 30
0.0
 11
-386.353977
 21
116.043288
 31
0.0
  0
LINE
  5
1E0
330
1F
100
AcDbEntity
  8
LC-001-100-D00-0
 62
     7
370
    50
100
AcDbLine
 10
-386.353977
 20
117.629226
 30
0.0
 11
-387.465254
 21
116.836257
 31
0.0
  0
LINE
  5
1E1
330
1F
100
AcDbEntity
  8
LC-001-100-D00-0
 62
     7
370
    50
100
AcDbLine
 10
-386.353977
 20
118.002923
 30
0.0
 11
-386.353977
 21
117.629226
 31
0.0
  0
LINE
  5
1E2
330
1F
100
AcDbEntity
  8
LC-001-100-D00-0
 62
     7
370
    50
100
AcDbLine
 10
-387.727477
 20
117.023456
 30
0.0
 11
-386.353977
 21
118.002923
 31
0.0
  0
LINE
  5
1E3
330
1F
100
AcDbEntity
  8
LC-001-100-D00-0
 62
     7
370
    50
100
AcDbLine
 10
-388.911672
 20
117.868308
 30
0.0
 11
-387.727477
 21
117.023456
 31
0.0
  0
LINE
  5
1E4
330
1F
100
AcDbEntity
  8
LC-001-100-D00-0
 62
     7
370
    50
100
AcDbLine
 10
-388.911672
 20
117.49461
 30
0.0
 11
-388.911672
 21
117.868308
 31
0.0
  0
LINE
  5
1E5
330
1F
100
AcDbEntity
  8
LC-001-100-D00-0
 62
     7
370
    50
100
AcDbLine
 10
-387.988992
 20
116.836257
 30
0.0
 11
-388.911672
 21
117.49461
 31
0.0
  0
LINE
  5
1E6
330
1F
100
AcDbEntity
  8
LC-001-100-D00-0
 62
     7
370
    50
100
AcDbLine
 10
-388.911672
 20
116.177903
 30
0.0
 11
-387.988992
 21
116.836257
 31
0.0
  0
LINE
  5
1E7
330
1F
100
AcDbEntity
  8
LC-001-100-D00-0
 62
     7
370
    50
100
AcDbLine
 10
-388.911672
 20
115.804205
 30
0.0
 11
-388.911672
 21
116.177903
 31
0.0
  0
LINE
  5
1E8
330
1F
100
AcDbEntity
  8
LC-001-100-D00-0
 62
     7
370
    50
100
AcDbLine
 10
-387.727477
 20
116.649758
 30
0.0
 11
-388.911672
 21
115.804205
 31
0.0
  0
LINE
  5
1E9
330
1F
100
AcDbEntity
  8
LC-001-100-D00-0
 62
     7
370
    50
100
AcDbLine
 10
-386.345834
 20
115.675396
 30
0.0
 11
-387.727477
 21
116.649758
 31
0.0
  0
LINE
  5
1EA
330
1F
100
AcDbEntity
  8
LC-001-100-D00-0
 62
     7
370
    50
100
AcDbLine
 10
-386.353977
 20
120.709955
 30
0.0
 11
-386.345834
 21
120.342063
 31
0.0
  0
LINE
  5
1EB
330
1F
100
AcDbEntity
  8
LC-001-100-D00-0
 62
     7
370
    50
100
AcDbLine
 10
-387.465254
 20
121.502923
 30
0.0
 11
-386.353977
 21
120.709955
 31
0.0
  0
LINE
  5
1EC
330
1F
100
AcDbEntity
  8
LC-001-100-D00-0
 62
     7
370
    50
100
AcDbLine
 10
-386.353977
 20
122.295892
 30
0.0
 11
-387.465254
 21
121.502923
 31
0.0
  0
LINE
  5
1ED
330
1F
100
AcDbEntity
  8
LC-001-100-D00-0
 62
     7
370
    50
100
AcDbLine
 10
-386.353977
 20
122.66959
 30
0.0
 11
-386.353977
 21
122.295892
 31
0.0
  0
LINE
  5
1EE
330
1F
100
AcDbEntity
  8
LC-001-100-D00-0
 62
     7
370
    50
100
AcDbLine
 10
-387.727477
 20
121.690123
 30
0.0
 11
-386.353977
 21
122.66959
 31
0.0
  0
LINE
  5
1EF
330
1F
100
AcDbEntity
  8
LC-001-100-D00-0
 62
     7
370
    50
100
AcDbLine
 10
-388.911672
 20
122.534975
 30
0.0
 11
-387.727477
 21
121.690123
 31
0.0
  0
LINE
  5
1F0
330
1F
100
AcDbEntity
  8
LC-001-100-D00-0
 62
     7
370
    50
100
AcDbLine
 10
-388.911672
 20
122.161277
 30
0.0
 11
-388.911672
 21
122.534975
 31
0.0
  0
LINE
  5
1F1
330
1F
100
AcDbEntity
  8
LC-001-100-D00-0
 62
     7
370
    50
100
AcDbLine
 10
-387.988992
 20
121.502923
 30
0.0
 11
-388.911672
 21
122.161277
 31
0.0
  0
LINE
  5
1F2
330
1F
100
AcDbEntity
  8
LC-001-100-D00-0
 62
     7
370
    50
100
AcDbLine
 10
-388.911672
 20
120.84457
 30
0.0
 11
-387.988992
 21
121.502923
 31
0.0
  0
LINE
  5
1F3
330
1F
100
AcDbEntity
  8
LC-001-100-D00-0
 62
     7
370
    50
100
AcDbLine
 10
-388.911672
 20
120.470872
 30
0.0
 11
-388.911672
 21
120.84457
 31
0.0
  0
LINE
  5
1F4
330
1F
100
AcDbEntity
  8
LC-001-100-D00-0
 62
     7
370
    50
100
AcDbLine
 10
-387.727477
 20
121.316425
 30
0.0
 11
-388.911672
 21
120.470872
 31
0.0
  0
LINE
  5
1F5
330
1F
100
AcDbEntity
  8
LC-001-100-D00-0
 62
     7
370
    50
100
AcDbLine
 10
-386.345834
 20
120.342063
 30
0.0
 11
-387.727477
 21
121.316425
 31
0.0
  0
ARC
  5
1F6
330
1F
100
AcDbEntity
  8
LC-001-100-D00-0
 62
     7
370
    50
100
AcDbCircle
 10
-289.021144
 20
119.604385
 30
0.0
 40
24.79999999999471
100
AcDbArc
 50
300.592814
 51
59.407186
  0
ARC
  5
1F7
330
1F
100
AcDbEntity
  8
LC-001-100-D00-0
 62
     7
370
    50
100
AcDbCircle
 10
-350.021144
 20
119.604385
 30
0.0
 40
24.79999999999471
100
AcDbArc
 50
120.592814
 51
239.407186
  0
ARC
  5
1F8
330
1F
100
AcDbEntity
  8
LC-001-100-D00-0
 62
     7
370
    50
100
AcDbCircle
 10
-566.271144
 20
106.354385
 30
0.0
 40
5.0
100
AcDbArc
 50
270.0
 51
0.0
  0
ARC
  5
1F9
330
1F
100
AcDbEntity
  8
LC-001-100-D00-0
 62
     7
370
    50
100
AcDbCircle
 10
-566.271144
 20
132.854385
 30
0.0
 40
5.0
100
AcDbArc
 50
0.0
 51
90.0
  0
LINE
  5
1FA
330
1F
100
AcDbEntity
  8
LC-001-100-D00-0
 62
     7
370
    50
100
AcDbLine
 10
-561.271144
 20
132.854385
 30
0.0
 11
-561.271144
 21
106.354385
 31
0.0
  0
CIRCLE
  5
1FB
330
1F
100
AcDbEntity
  8
LC-001-100-D00-0
 62
     7
370
    50
100
AcDbCircle
 10
-579.521144
 20
119.604385
 30
0.0
 40
3.900000000000205
  0
LINE
  5
1FC
330
1F
100
AcDbEntity
  8
LC-001-100-D00-0
 62
     7
370
    50
100
AcDbLine
 10
-566.271144
 20
101.354385
 30
0.0
 11
-592.771144
 21
101.354385
 31
0.0
  0
LINE
  5
1FD
330
1F
100
AcDbEntity
  8
LC-001-100-D00-0
 62
     7
370
    50
100
AcDbLine
 10
-592.771144
 20
137.854385
 30
0.0
 11
-566.271144
 21
137.854385
 31
0.0
  0
ARC
  5
1FE
330
1F
100
AcDbEntity
  8
LC-001-100-D00-0
 62
     7
370
    50
100
AcDbCircle
 10
-592.771144
 20
132.854385
 30
0.0
 40
5.0
100
AcDbArc
 50
90.0
 51
180.0
  0
ARC
  5
1FF
330
1F
100
AcDbEntity
  8
LC-001-100-D00-0
 62
     7
370
    50
100
AcDbCircle
 10
-592.771144
 20
106.354385
 30
0.0
 40
5.0
100
AcDbArc
 50
180.0
 51
270.0
  0
LINE
  5
200
330
1F
100
AcDbEntity
  8
LC-001-100-D00-0
 62
     7
370
    50
100
AcDbLine
 10
-597.771144
 20
106.354385
 30
0.0
 11
-597.771144
 21
132.854385
 31
0.0
  0
ARC
  5
201
330
1F
100
AcDbEntity
  8
LC-001-100-D00-0
 62
     7
370
    50
100
AcDbCircle
 10
113.728856
 20
106.354385
 30
0.0
 40
5.0
100
AcDbArc
 50
270.0
 51
0.0
  0
ARC
  5
202
330
1F
100
AcDbEntity
  8
LC-001-100-D00-0
 62
     7
370
    50
100
AcDbCircle
 10
113.728856
 20
132.854385
 30
0.0
 40
5.000000000000114
100
AcDbArc
 50
0.0
 51
90.0
  0
LINE
  5
203
330
1F
100
AcDbEntity
  8
LC-001-100-D00-0
 62
     7
370
    50
100
AcDbLine
 10
118.728856
 20
132.854385
 30
0.0
 11
118.728856
 21
106.354385
 31
0.0
  0
CIRCLE
  5
204
330
1F
100
AcDbEntity
  8
LC-001-100-D00-0
 62
     7
370
    50
100
AcDbCircle
 10
100.478856
 20
119.604385
 30
0.0
 40
3.900000000000205
  0
LINE
  5
205
330
1F
100
AcDbEntity
  8
LC-001-100-D00-0
 62
     7
370
    50
100
AcDbLine
 10
87.228856
 20
137.854385
 30
0.0
 11
113.728856
 21
137.854385
 31
0.0
  0
LINE
  5
206
330
1F
100
AcDbEntity
  8
LC-001-100-D00-0
 62
     7
370
    50
100
AcDbLine
 10
113.728856
 20
101.354385
 30
0.0
 11
87.228856
 21
101.354385
 31
0.0
  0
ARC
  5
207
330
1F
100
AcDbEntity
  8
LC-001-100-D00-0
 62
     7
370
    50
100
AcDbCircle
 10
87.228856
 20
132.854385
 30
0.0
 40
5.0
100
AcDbArc
 50
90.0
 51
180.0
  0
ARC
  5
208
330
1F
100
AcDbEntity
  8
LC-001-100-D00-0
 62
     7
370
    50
100
AcDbCircle
 10
87.228856
 20
106.354385
 30
0.0
 40
5.0
100
AcDbArc
 50
180.0
 51
270.0
  0
LINE
  5
209
330
1F
100
AcDbEntity
  8
LC-001-100-D00-0
 62
     7
370
    50
100
AcDbLine
 10
82.228856
 20
106.354385
 30
0.0
 11
82.228856
 21
132.854385
 31
0.0
  0
LINE
  5
20A
330
1F
100
AcDbEntity
  8
LC-001-100-D00-0
 62
     7
370
    50
100
AcDbLine
 10
-401.271144
 20
132.854385
 30
0.0
 11
-401.271144
 21
106.354385
 31
0.0
  0
ARC
  5
20B
330
1F
100
AcDbEntity
  8
LC-001-100-D00-0
 62
     7
370
    50
100
AcDbCircle
 10
-406.271144
 20
106.354385
 30
0.0
 40
5.0
100
AcDbArc
 50
270.0
 51
0.0
  0
ARC
  5
20C
330
1F
100
AcDbEntity
  8
LC-001-100-D00-0
 62
     7
370
    50
100
AcDbCircle
 10
-406.271144
 20
132.854385
 30
0.0
 40
5.0
100
AcDbArc
 50
0.0
 51
90.0
  0
CIRCLE
  5
20D
330
1F
100
AcDbEntity
  8
LC-001-100-D00-0
 62
     7
370
    50
100
AcDbCircle
 10
-419.521144
 20
119.604385
 30
0.0
 40
3.900000000000205
  0
LINE
  5
20E
330
1F
100
AcDbEntity
  8
LC-001-100-D00-0
 62
     7
370
    50
100
AcDbLine
 10
-406.271144
 20
101.354385
 30
0.0
 11
-432.771144
 21
101.354385
 31
0.0
  0
LINE
  5
20F
330
1F
100
AcDbEntity
  8
LC-001-100-D00-0
 62
     7
370
    50
100
AcDbLine
 10
-432.771144
 20
137.854385
 30
0.0
 11
-406.271144
 21
137.854385
 31
0.0
  0
ARC
  5
210
330
1F
100
AcDbEntity
  8
LC-001-100-D00-0
 62
     7
370
    50
100
AcDbCircle
 10
-432.771144
 20
132.854385
 30
0.0
 40
5.0
100
AcDbArc
 50
90.0
 51
180.0
  0
ARC
  5
211
330
1F
100
AcDbEntity
  8
LC-001-100-D00-0
 62
     7
370
    50
100
AcDbCircle
 10
-432.771144
 20
106.354385
 30
0.0
 40
5.0
100
AcDbArc
 50
180.0
 51
270.0
  0
LINE
  5
212
330
1F
100
AcDbEntity
  8
LC-001-100-D00-0
 62
     7
370
    50
100
AcDbLine
 10
-437.771144
 20
106.354385
 30
0.0
 11
-437.771144
 21
132.854385
 31
0.0
  0
ARC
  5
213
330
1F
100
AcDbEntity
  8
LC-001-100-D00-0
 62
     7
370
    50
100
AcDbCircle
 10
-46.271144
 20
106.354385
 30
0.0
 40
5.0
100
AcDbArc
 50
270.0
 51
0.0
  0
ARC
  5
214
330
1F
100
AcDbEntity
  8
LC-001-100-D00-0
 62
     7
370
    50
100
AcDbCircle
 10
-46.271144
 20
132.854385
 30
0.0
 40
5.0
100
AcDbArc
 50
0.0
 51
90.0
  0
LINE
  5
215
330
1F
100
AcDbEntity
  8
LC-001-100-D00-0
 62
     7
370
    50
100
AcDbLine
 10
-41.271144
 20
132.854385
 30
0.0
 11
-41.271144
 21
106.354385
 31
0.0
  0
CIRCLE
  5
216
330
1F
100
AcDbEntity
  8
LC-001-100-D00-0
 62
     7
370
    50
100
AcDbCircle
 10
-59.521144
 20
119.604385
 30
0.0
 40
3.900000000000205
  0
LINE
  5
217
330
1F
100
AcDbEntity
  8
LC-001-100-D00-0
 62
     7
370
    50
100
AcDbLine
 10
-46.271144
 20
101.354385
 30
0.0
 11
-72.771144
 21
101.354385
 31
0.0
  0
LINE
  5
218
330
1F
100
AcDbEntity
  8
LC-001-100-D00-0
 62
     7
370
    50
100
AcDbLine
 10
-72.771144
 20
137.854385
 30
0.0
 11
-46.271144
 21
137.854385
 31
0.0
  0
ARC
  5
219
330
1F
100
AcDbEntity
  8
LC-001-100-D00-0
 62
     7
370
    50
100
AcDbCircle
 10
-72.771144
 20
132.854385
 30
0.0
 40
5.0
100
AcDbArc
 50
90.0
 51
180.0
  0
ARC
  5
21A
330
1F
100
AcDbEntity
  8
LC-001-100-D00-0
 62
     7
370
    50
100
AcDbCircle
 10
-72.771144
 20
106.354385
 30
0.0
 40
5.0
100
AcDbArc
 50
180.0
 51
270.0
  0
LINE
  5
21B
330
1F
100
AcDbEntity
  8
LC-001-100-D00-0
 62
     7
370
    50
100
AcDbLine
 10
-77.771144
 20
106.354385
 30
0.0
 11
-77.771144
 21
132.854385
 31
0.0
  0
LINE
  5
21C
330
1F
100
AcDbEntity
  8
LC-001-100-D00-0
 62
     7
370
    50
100
AcDbLine
 10
-201.271144
 20
132.854385
 30
0.0
 11
-201.271144
 21
106.354385
 31
0.0
  0
ARC
  5
21D
330
1F
100
AcDbEntity
  8
LC-001-100-D00-0
 62
     7
370
    50
100
AcDbCircle
 10
-206.271144
 20
106.354385
 30
0.0
 40
5.0
100
AcDbArc
 50
270.0
 51
0.0
  0
ARC
  5
21E
330
1F
100
AcDbEntity
  8
LC-001-100-D00-0
 62
     7
370
    50
100
AcDbCircle
 10
-206.271144
 20
132.854385
 30
0.0
 40
5.0
100
AcDbArc
 50
0.0
 51
90.0
  0
CIRCLE
  5
21F
330
1F
100
AcDbEntity
  8
LC-001-100-D00-0
 62
     7
370
    50
100
AcDbCircle
 10
-219.521144
 20
119.604385
 30
0.0
 40
3.900000000000205
  0
LINE
  5
220
330
1F
100
AcDbEntity
  8
LC-001-100-D00-0
 62
     7
370
    50
100
AcDbLine
 10
-206.271144
 20
101.354385
 30
0.0
 11
-232.771144
 21
101.354385
 31
0.0
  0
LINE
  5
221
330
1F
100
AcDbEntity
  8
LC-001-100-D00-0
 62
     7
370
    50
100
AcDbLine
 10
-232.771144
 20
137.854385
 30
0.0
 11
-206.271144
 21
137.854385
 31
0.0
  0
ARC
  5
222
330
1F
100
AcDbEntity
  8
LC-001-100-D00-0
 62
     7
370
    50
100
AcDbCircle
 10
-232.771144
 20
132.854385
 30
0.0
 40
5.0
100
AcDbArc
 50
90.0
 51
180.0
  0
ARC
  5
223
330
1F
100
AcDbEntity
  8
LC-001-100-D00-0
 62
     7
370
    50
100
AcDbCircle
 10
-232.771144
 20
106.354385
 30
0.0
 40
5.0
100
AcDbArc
 50
180.0
 51
270.0
  0
LINE
  5
224
330
1F
100
AcDbEntity
  8
LC-001-100-D00-0
 62
     7
370
    50
100
AcDbLine
 10
-237.771144
 20
106.354385
 30
0.0
 11
-237.771144
 21
132.854385
 31
0.0
  0
LINE
  5
225
330
1F
100
AcDbEntity
  8
LC-001-100-D00-0
 62
     7
370
    50
100
AcDbLine
 10
-721.271144
 20
132.854385
 30
0.0
 11
-721.271144
 21
106.354385
 31
0.0
  0
ARC
  5
226
330
1F
100
AcDbEntity
  8
LC-001-100-D00-0
 62
     7
370
    50
100
AcDbCircle
 10
-726.271144
 20
132.854385
 30
0.0
 40
5.0
100
AcDbArc
 50
0.0
 51
90.0
  0
ARC
  5
227
330
1F
100
AcDbEntity
  8
LC-001-100-D00-0
 62
     7
370
    50
100
AcDbCircle
 10
-726.271144
 20
106.354385
 30
0.0
 40
5.0
100
AcDbArc
 50
270.0
 51
0.0
  0
CIRCLE
  5
228
330
1F
100
AcDbEntity
  8
LC-001-100-D00-0
 62
     7
370
    50
100
AcDbCircle
 10
-739.521144
 20
119.604385
 30
0.0
 40
3.900000000000205
  0
LINE
  5
229
330
1F
100
AcDbEntity
  8
LC-001-100-D00-0
 62
     7
370
    50
100
AcDbLine
 10
-752.771144
 20
137.854385
 30
0.0
 11
-726.271144
 21
137.854385
 31
0.0
  0
LINE
  5
22A
330
1F
100
AcDbEntity
  8
LC-001-100-D00-0
 62
     7
370
    50
100
AcDbLine
 10
-726.271144
 20
101.354385
 30
0.0
 11
-752.771144
 21
101.354385
 31
0.0
  0
ARC
  5
22B
330
1F
100
AcDbEntity
  8
LC-001-100-D00-0
 62
     7
370
    50
100
AcDbCircle
 10
-752.771144
 20
132.854385
 30
0.0
 40
5.0
100
AcDbArc
 50
90.0
 51
180.0
  0
ARC
  5
22C
330
1F
100
AcDbEntity
  8
LC-001-100-D00-0
 62
     7
370
    50
100
AcDbCircle
 10
-752.771144
 20
106.354385
 30
0.0
 40
5.0
100
AcDbArc
 50
180.0
 51
270.0
  0
LINE
  5
22D
330
1F
100
AcDbEntity
  8
LC-001-100-D00-0
 62
     7
370
    50
100
AcDbLine
 10
-757.771144
 20
106.354385
 30
0.0
 11
-757.771144
 21
132.854385
 31
0.0
  0
LINE
  5
22E
330
1F
100
AcDbEntity
  8
LC-001-100-D00-0
 62
     7
370
    50
100
AcDbLine
 10
-350.021144
 20
95.604385
 30
0.0
 11
-289.021144
 21
95.604385
 31
0.0
  0
ARC
  5
22F
330
1F
100
AcDbEntity
  8
LC-001-100-D00-0
 62
     7
370
    50
100
AcDbCircle
 10
-350.021144
 20
119.604385
 30
0.0
 40
24.00000000000023
100
AcDbArc
 50
90.0
 51
270.0
  0
LINE
  5
230
330
1F
100
AcDbEntity
  8
LC-001-100-D00-0
 62
     7
370
    50
100
AcDbLine
 10
-289.021144
 20
143.604385
 30
0.0
 11
-350.021144
 21
143.604385
 31
0.0
  0
ARC
  5
231
330
1F
100
AcDbEntity
  8
LC-001-100-D00-0
 62
     7
370
    50
100
AcDbCircle
 10
-289.021144
 20
119.604385
 30
0.0
 40
24.00000000000046
100
AcDbArc
 50
270.0
 51
90.0
  0
ARC
  5
232
330
1F
100
AcDbEntity
  8
LC-001-100-D00-0
 62
     7
370
    50
100
AcDbCircle
 10
-308.021144
 20
119.604385
 30
0.0
 40
16.00000000000023
100
AcDbArc
 50
270.0
 51
90.0
  0
LINE
  5
233
330
1F
100
AcDbEntity
  8
LC-001-100-D00-0
 62
     7
370
    50
100
AcDbLine
 10
-331.021144
 20
103.604385
 30
0.0
 11
-308.021144
 21
103.604385
 31
0.0
  0
LINE
  5
234
330
1F
100
AcDbEntity
  8
LC-001-100-D00-0
 62
     7
370
    50
100
AcDbLine
 10
-308.021144
 20
135.604385
 30
0.0
 11
-331.021144
 21
135.604385
 31
0.0
  0
ARC
  5
235
330
1F
100
AcDbEntity
  8
LC-001-100-D00-0
 62
     7
370
    50
100
AcDbCircle
 10
-331.021144
 20
119.604385
 30
0.0
 40
16.00000000000023
100
AcDbArc
 50
90.0
 51
270.0
  0
DIMENSION
  5
236
330
1F
100
AcDbEntity
  8
LC-001-100-D00-0
 62
     7
370
    25
100
AcDbDimension
  2
*D16
 10
293.56096
 20
42.104385
 30
0.0
 11
238.56096
 21
121.988954
 31
0.0
 70
   160
  1
155
 71
     5
 42
155.0
 53
90.0
  3
LC-DIM-L-0100-02-02
100
AcDbAlignedDimension
 13
175.478856
 23
197.104385
 33
0.0
 14
175.478856
 24
42.104385
 34
0.0
 50
90.0
100
AcDbRotatedDimension
  0
LINE
  5
243
330
1F
100
AcDbEntity
  8
LC-001-100-D00-0
  6
DASHDOT
 62
     7
370
    25
100
AcDbLine
 10
-824.521144
 20
119.604385
 30
0.0
 11
185.478856
 21
119.604385
 31
0.0
  0
LINE
  5
244
330
1F
100
AcDbEntity
  8
LC-001-100-D00-0
  6
DASHDOT
 62
     7
370
    25
100
AcDbLine
 10
-319.521144
 20
202.104385
 30
0.0
 11
-319.521144
 21
37.104385
 31
0.0
  0
LINE
  5
245
330
1F
100
AcDbEntity
  8
LC-001-100-D00-0
 62
     7
370
    50
100
AcDbLine
 10
-206.273349
 20
407.388954
 30
0.0
 11
-206.273349
 21
409.171875
 31
0.0
  0
LINE
  5
246
330
1F
100
AcDbEntity
  8
LC-001-100-D00-0
 62
     7
370
    50
100
AcDbLine
 10
-206.273349
 20
459.606033
 30
0.0
 11
-206.273349
 21
461.388954
 31
0.0
  0
LINE
  5
247
330
1F
100
AcDbEntity
  8
LC-001-100-D00-0
 62
     7
370
    50
100
AcDbLine
 10
-210.273349
 20
461.388954
 30
0.0
 11
-210.273349
 21
459.606033
 31
0.0
  0
LINE
  5
248
330
1F
100
AcDbEntity
  8
LC-001-100-D00-0
 62
     7
370
    50
100
AcDbLine
 10
-210.273349
 20
409.171875
 30
0.0
 11
-210.273349
 21
407.388954
 31
0.0
  0
LINE
  5
249
330
1F
100
AcDbEntity
  8
LC-001-100-D00-0
 62
     7
370
    50
100
AcDbLine
 10
-279.806729
 20
457.888954
 30
0.0
 11
-279.806729
 21
456.388954
 31
0.0
  0
LINE
  5
24A
330
1F
100
AcDbEntity
  8
LC-001-100-D00-0
 62
     7
370
    50
100
AcDbLine
 10
-359.23556
 20
456.388954
 30
0.0
 11
-359.23556
 21
457.888954
 31
0.0
  0
ARC
  5
24B
330
1F
100
AcDbEntity
  8
LC-001-100-D00-0
 62
     7
370
    50
100
AcDbCircle
 10
-678.521144
 20
364.888954
 30
0.0
 40
0.5000000000002274
100
AcDbArc
 50
90.0
 51
180.0
  0
ARC
  5
24C
330
1F
100
AcDbEntity
  8
LC-001-100-D00-0
 62
     7
370
    50
100
AcDbCircle
 10
-660.521144
 20
364.888954
 30
0.0
 40
0.5000000000002274
100
AcDbArc
 50
0.0
 51
90.0
  0
LINE
  5
24D
330
1F
100
AcDbEntity
  8
LC-001-100-D00-0
 62
     7
370
    50
100
AcDbLine
 10
-679.021144
 20
364.888954
 30
0.0
 11
-679.021144
 21
357.388954
 31
0.0
  0
LINE
  5
24E
330
1F
100
AcDbEntity
  8
LC-001-100-D00-0
 62
     7
370
    50
100
AcDbLine
 10
-660.021144
 20
357.388954
 30
0.0
 11
-660.021144
 21
364.888954
 31
0.0
  0
ARC
  5
24F
330
1F
100
AcDbEntity
  8
LC-001-100-D00-0
 62
     7
370
    50
100
AcDbCircle
 10
21.478856
 20
364.888954
 30
0.0
 40
0.5
100
AcDbArc
 50
90.0
 51
180.0
  0
ARC
  5
250
330
1F
100
AcDbEntity
  8
LC-001-100-D00-0
 62
     7
370
    50
100
AcDbCircle
 10
39.478856
 20
364.888954
 30
0.0
 40
0.5000000000003411
100
AcDbArc
 50
0.0
 51
90.0
  0
LINE
  5
251
330
1F
100
AcDbEntity
  8
LC-001-100-D00-0
 62
     7
370
    50
100
AcDbLine
 10
20.978856
 20
364.888954
 30
0.0
 11
20.978856
 21
357.388954
 31
0.0
  0
LINE
  5
252
330
1F
100
AcDbEntity
  8
LC-001-100-D00-0
 62
     7
370
    50
100
AcDbLine
 10
39.978856
 20
357.388954
 30
0.0
 11
39.978856
 21
364.888954
 31
0.0
  0
LINE
  5
253
330
1F
100
AcDbEntity
  8
LC-001-100-D00-0
 62
     7
370
    50
100
AcDbLine
 10
-656.747642
 20
463.388954
 30
0.0
 11
-656.747655
 21
466.065104
 31
0.0
  0
LINE
  5
254
330
1F
100
AcDbEntity
  8
LC-001-100-D00-0
 62
     7
370
    50
100
AcDbLine
 10
-682.294652
 20
466.997477
 30
0.0
 11
-682.294647
 21
463.388954
 31
0.0
  0
LINE
  5
255
330
1F
100
AcDbEntity
  8
LC-001-100-D00-0
 62
     7
370
    50
100
AcDbLine
 10
-656.747642
 20
434.388954
 30
0.0
 11
-656.747655
 21
459.388955
 31
0.0
  0
LINE
  5
256
330
1F
100
AcDbEntity
  8
LC-001-100-D00-0
 62
     7
370
    50
100
AcDbLine
 10
-682.294652
 20
459.388955
 30
0.0
 11
-682.294647
 21
434.388954
 31
0.0
  0
LINE
  5
257
330
1F
100
AcDbEntity
  8
LC-001-100-D00-0
 62
     7
370
    50
100
AcDbLine
 10
43.252358
 20
463.388954
 30
0.0
 11
43.252363
 21
466.997477
 31
0.0
  0
LINE
  5
258
330
1F
100
AcDbEntity
  8
LC-001-100-D00-0
 62
     7
370
    50
100
AcDbLine
 10
17.705366
 20
466.065104
 30
0.0
 11
17.705353
 21
463.388954
 31
0.0
  0
LINE
  5
259
330
1F
100
AcDbEntity
  8
LC-001-100-D00-0
 62
     7
370
    50
100
AcDbLine
 10
43.252358
 20
434.388954
 30
0.0
 11
43.252363
 21
459.388955
 31
0.0
  0
LINE
  5
25A
330
1F
100
AcDbEntity
  8
LC-001-100-D00-0
 62
     7
370
    50
100
AcDbLine
 10
17.705366
 20
459.388955
 30
0.0
 11
17.705353
 21
434.388954
 31
0.0
  0
LINE
  5
25B
330
1F
100
AcDbEntity
  8
LC-001-100-D00-0
 62
     7
370
    50
100
AcDbLine
 10
-679.521159
 20
463.388954
 30
0.0
 11
-679.521159
 21
463.288954
 31
0.0
  0
LINE
  5
25C
330
1F
100
AcDbEntity
  8
LC-001-100-D00-0
 62
     7
370
    50
100
AcDbLine
 10
-679.521159
 20
434.388953
 30
0.0
 11
-679.521144
 21
380.388954
 31
0.0
  0
LINE
  5
25D
330
1F
100
AcDbEntity
  8
LC-001-100-D00-0
 62
     7
370
    50
100
AcDbLine
 10
-659.521144
 20
380.388954
 30
0.0
 11
-659.521148
 21
434.388953
 31
0.0
  0
LINE
  5
25E
330
1F
100
AcDbEntity
  8
LC-001-100-D00-0
 62
     7
370
    50
100
AcDbLine
 10
-659.521148
 20
463.288954
 30
0.0
 11
-659.521148
 21
463.388954
 31
0.0
  0
LINE
  5
25F
330
1F
100
AcDbEntity
  8
LC-001-100-D00-0
 62
     7
370
    50
100
AcDbLine
 10
-679.521144
 20
376.888954
 30
0.0
 11
-679.521144
 21
366.388954
 31
0.0
  0
LINE
  5
260
330
1F
100
AcDbEntity
  8
LC-001-100-D00-0
 62
     7
370
    50
100
AcDbLine
 10
-659.521144
 20
366.388954
 30
0.0
 11
-659.521144
 21
376.888954
 31
0.0
  0
LINE
  5
261
330
1F
100
AcDbEntity
  8
LC-001-100-D00-0
 62
     7
370
    50
100
AcDbLine
 10
-679.521144
 20
366.388954
 30
0.0
 11
-678.521144
 21
365.388954
 31
0.0
  0
LINE
  5
262
330
1F
100
AcDbEntity
  8
LC-001-100-D00-0
 62
     7
370
    50
100
AcDbLine
 10
-660.521144
 20
365.388954
 30
0.0
 11
-659.521144
 21
366.388954
 31
0.0
  0
LINE
  5
263
330
1F
100
AcDbEntity
  8
LC-001-100-D00-0
 62
     7
370
    50
100
AcDbLine
 10
-677.421138
 20
380.388952
 30
0.0
 11
-677.421138
 21
376.888952
 31
0.0
  0
LINE
  5
264
330
1F
100
AcDbEntity
  8
LC-001-100-D00-0
 62
     7
370
    50
100
AcDbLine
 10
-661.621139
 20
376.888952
 30
0.0
 11
-661.621139
 21
380.388952
 31
0.0
  0
LINE
  5
265
330
1F
100
AcDbEntity
  8
LC-001-100-D00-0
 62
     7
370
    50
100
AcDbLine
 10
20.478859
 20
463.388954
 30
0.0
 11
20.478859
 21
463.288954
 31
0.0
  0
LINE
  5
266
330
1F
100
AcDbEntity
  8
LC-001-100-D00-0
 62
     7
370
    50
100
AcDbLine
 10
20.478859
 20
434.388953
 30
0.0
 11
20.478856
 21
380.388954
 31
0.0
  0
LINE
  5
267
330
1F
100
AcDbEntity
  8
LC-001-100-D00-0
 62
     7
370
    50
100
AcDbLine
 10
40.478856
 20
380.388954
 30
0.0
 11
40.47887
 21
434.388953
 31
0.0
  0
LINE
  5
268
330
1F
100
AcDbEntity
  8
LC-001-100-D00-0
 62
     7
370
    50
100
AcDbLine
 10
40.47887
 20
463.288954
 30
0.0
 11
40.47887
 21
463.388954
 31
0.0
  0
LINE
  5
269
330
1F
100
AcDbEntity
  8
LC-001-100-D00-0
 62
     7
370
    50
100
AcDbLine
 10
20.478856
 20
376.888954
 30
0.0
 11
20.478856
 21
366.388954
 31
0.0
  0
LINE
  5
26A
330
1F
100
AcDbEntity
  8
LC-001-100-D00-0
 62
     7
370
    50
100
AcDbLine
 10
40.478856
 20
366.388954
 30
0.0
 11
40.478856
 21
376.888954
 31
0.0
  0
LINE
  5
26B
330
1F
100
AcDbEntity
  8
LC-001-100-D00-0
 62
     7
370
    50
100
AcDbLine
 10
20.478856
 20
366.388954
 30
0.0
 11
21.478856
 21
365.388954
 31
0.0
  0
LINE
  5
26C
330
1F
100
AcDbEntity
  8
LC-001-100-D00-0
 62
     7
370
    50
100
AcDbLine
 10
39.478856
 20
365.388954
 30
0.0
 11
40.478856
 21
366.388954
 31
0.0
  0
LINE
  5
26D
330
1F
100
AcDbEntity
  8
LC-001-100-D00-0
 62
     7
370
    50
100
AcDbLine
 10
22.57885
 20
380.388952
 30
0.0
 11
22.57885
 21
376.888952
 31
0.0
  0
LINE
  5
26E
330
1F
100
AcDbEntity
  8
LC-001-100-D00-0
 62
     7
370
    50
100
AcDbLine
 10
38.378849
 20
376.888952
 30
0.0
 11
38.378849
 21
380.388952
 31
0.0
  0
LINE
  5
26F
330
1F
100
AcDbEntity
  8
LC-001-100-D00-0
 62
     7
370
    50
100
AcDbLine
 10
-214.321144
 20
475.65772
 30
0.0
 11
-214.321144
 21
478.120188
 31
0.0
  0
ARC
  5
270
330
1F
100
AcDbEntity
  8
LC-001-100-D00-0
 62
     7
370
    50
100
AcDbCircle
 10
-213.721144
 20
475.65772
 30
0.0
 40
0.6000000000000227
100
AcDbArc
 50
180.0
 51
255.0
  0
LINE
  5
271
330
1F
100
AcDbEntity
  8
LC-001-100-D00-0
 62
     7
370
    50
100
AcDbLine
 10
-213.17029
 20
474.888953
 30
0.0
 11
-213.876436
 21
475.078165
 31
0.0
  0
LINE
  5
272
330
1F
100
AcDbEntity
  8
LC-001-100-D00-0
 62
     7
370
    50
100
AcDbLine
 10
-213.17029
 20
474.888953
 30
0.0
 11
-213.17029
 21
472.888955
 31
0.0
  0
LINE
  5
273
330
1F
100
AcDbEntity
  8
LC-001-100-D00-0
 62
     7
370
    50
100
AcDbLine
 10
-215.121144
 20
472.888954
 30
0.0
 11
-213.17029
 21
472.888955
 31
0.0
  0
LINE
  5
274
330
1F
100
AcDbEntity
  8
LC-001-100-D00-0
 62
     7
370
    50
100
AcDbLine
 10
-216.121144
 20
473.888954
 30
0.0
 11
-215.121144
 21
472.888954
 31
0.0
  0
LINE
  5
275
330
1F
100
AcDbEntity
  8
LC-001-100-D00-0
 62
     7
370
    50
100
AcDbLine
 10
-216.121144
 20
473.888954
 30
0.0
 11
-216.121145
 21
479.888954
 31
0.0
  0
LINE
  5
276
330
1F
100
AcDbEntity
  8
LC-001-100-D00-0
 62
     7
370
    50
100
AcDbLine
 10
-215.121143
 20
480.888954
 30
0.0
 11
-216.121145
 21
479.888954
 31
0.0
  0
LINE
  5
277
330
1F
100
AcDbEntity
  8
LC-001-100-D00-0
 62
     7
370
    50
100
AcDbLine
 10
-213.17029
 20
480.888954
 30
0.0
 11
-213.17029
 21
478.888954
 31
0.0
  0
LINE
  5
278
330
1F
100
AcDbEntity
  8
LC-001-100-D00-0
 62
     7
370
    50
100
AcDbLine
 10
-213.876436
 20
478.699743
 30
0.0
 11
-213.17029
 21
478.888954
 31
0.0
  0
ARC
  5
279
330
1F
100
AcDbEntity
  8
LC-001-100-D00-0
 62
     7
370
    50
100
AcDbCircle
 10
-213.721144
 20
478.120188
 30
0.0
 40
0.5999999999998983
100
AcDbArc
 50
105.0
 51
180.0
  0
LINE
  5
27A
330
1F
100
AcDbEntity
  8
LC-001-100-D00-0
 62
     7
370
    50
100
AcDbLine
 10
-215.121143
 20
480.888954
 30
0.0
 11
-213.17029
 21
480.888954
 31
0.0
  0
LINE
  5
27B
330
1F
100
AcDbEntity
  8
LC-001-100-D00-0
 62
     7
370
    50
100
AcDbLine
 10
-222.921141
 20
479.888954
 30
0.0
 11
-223.921143
 21
480.888954
 31
0.0
  0
LINE
  5
27C
330
1F
100
AcDbEntity
  8
LC-001-100-D00-0
 62
     7
370
    50
100
AcDbLine
 10
-223.921144
 20
472.888954
 30
0.0
 11
-222.921144
 21
473.888954
 31
0.0
  0
LINE
  5
27D
330
1F
100
AcDbEntity
  8
LC-001-100-D00-0
 62
     7
370
    50
100
AcDbLine
 10
-222.921144
 20
473.888954
 30
0.0
 11
-222.763305
 21
473.888954
 31
0.0
  0
LINE
  5
27E
330
1F
100
AcDbEntity
  8
LC-001-100-D00-0
 62
     7
370
    50
100
AcDbLine
 10
-216.278984
 20
473.888954
 30
0.0
 11
-216.121144
 21
473.888954
 31
0.0
  0
LINE
  5
27F
330
1F
100
AcDbEntity
  8
LC-001-100-D00-0
 62
     7
370
    50
100
AcDbLine
 10
-215.121144
 20
472.888954
 30
0.0
 11
-215.656926
 21
472.888954
 31
0.0
  0
LINE
  5
280
330
1F
100
AcDbEntity
  8
LC-001-100-D00-0
 62
     7
370
    50
100
AcDbLine
 10
-223.385363
 20
472.888954
 30
0.0
 11
-223.921144
 21
472.888954
 31
0.0
  0
LINE
  5
281
330
1F
100
AcDbEntity
  8
LC-001-100-D00-0
 62
     7
370
    50
100
AcDbLine
 10
-222.921141
 20
479.888954
 30
0.0
 11
-222.921144
 21
473.888954
 31
0.0
  0
LINE
  5
282
330
1F
100
AcDbEntity
  8
LC-001-100-D00-0
 62
     7
370
    50
100
AcDbLine
 10
-224.721144
 20
478.120188
 30
0.0
 11
-224.721144
 21
475.65772
 31
0.0
  0
LINE
  5
283
330
1F
100
AcDbEntity
  8
LC-001-100-D00-0
 62
     7
370
    50
100
AcDbLine
 10
-225.871996
 20
474.888953
 30
0.0
 11
-225.871996
 21
472.888955
 31
0.0
  0
LINE
  5
284
330
1F
100
AcDbEntity
  8
LC-001-100-D00-0
 62
     7
370
    50
100
AcDbLine
 10
-225.165853
 20
475.078165
 30
0.0
 11
-225.871996
 21
474.888953
 31
0.0
  0
ARC
  5
285
330
1F
100
AcDbEntity
  8
LC-001-100-D00-0
 62
     7
370
    50
100
AcDbCircle
 10
-225.321144
 20
475.65772
 30
0.0
 40
0.6000000000003376
100
AcDbArc
 50
285.0
 51
0.0
  0
ARC
  5
286
330
1F
100
AcDbEntity
  8
LC-001-100-D00-0
 62
     7
370
    50
100
AcDbCircle
 10
-225.321144
 20
478.120188
 30
0.0
 40
0.6000000000001364
100
AcDbArc
 50
0.0
 51
75.0
  0
LINE
  5
287
330
1F
100
AcDbEntity
  8
LC-001-100-D00-0
 62
     7
370
    50
100
AcDbLine
 10
-225.871996
 20
478.888954
 30
0.0
 11
-225.165853
 21
478.699743
 31
0.0
  0
LINE
  5
288
330
1F
100
AcDbEntity
  8
LC-001-100-D00-0
 62
     7
370
    50
100
AcDbLine
 10
-225.871996
 20
480.888954
 30
0.0
 11
-225.871996
 21
478.888954
 31
0.0
  0
LINE
  5
289
330
1F
100
AcDbEntity
  8
LC-001-100-D00-0
 62
     7
370
    50
100
AcDbLine
 10
-225.871996
 20
472.888955
 30
0.0
 11
-223.921144
 21
472.888954
 31
0.0
  0
LINE
  5
28A
330
1F
100
AcDbEntity
  8
LC-001-100-D00-0
 62
     7
370
    50
100
AcDbLine
 10
-225.871996
 20
480.888954
 30
0.0
 11
-223.921143
 21
480.888954
 31
0.0
  0
LINE
  5
28B
330
1F
100
AcDbEntity
  8
LC-001-100-D00-0
 62
     7
370
    50
100
AcDbLine
 10
-213.17029
 20
480.888954
 30
0.0
 11
-215.621144
 21
480.888954
 31
0.0
  0
LINE
  5
28C
330
1F
100
AcDbEntity
  8
LC-001-100-D00-0
 62
     7
370
    50
100
AcDbLine
 10
-215.621144
 20
480.888954
 30
0.0
 11
-215.621144
 21
491.888954
 31
0.0
  0
LINE
  5
28D
330
1F
100
AcDbEntity
  8
LC-001-100-D00-0
 62
     7
370
    50
100
AcDbLine
 10
-215.621144
 20
491.888954
 30
0.0
 11
-202.271144
 21
491.888954
 31
0.0
  0
ARC
  5
28E
330
1F
100
AcDbEntity
  8
LC-001-100-D00-0
 62
     7
370
    50
100
AcDbCircle
 10
-202.271144
 20
490.888954
 30
0.0
 40
1.000000000000227
100
AcDbArc
 50
0.0
 51
90.0
  0
LINE
  5
28F
330
1F
100
AcDbEntity
  8
LC-001-100-D00-0
 62
     7
370
    50
100
AcDbLine
 10
-201.271144
 20
490.888954
 30
0.0
 11
-201.271147
 21
484.888954
 31
0.0
  0
LINE
  5
290
330
1F
100
AcDbEntity
  8
LC-001-100-D00-0
 62
     7
370
    50
100
AcDbLine
 10
-204.271144
 20
484.888954
 30
0.0
 11
-201.271147
 21
484.888954
 31
0.0
  0
LINE
  5
291
330
1F
100
AcDbEntity
  8
LC-001-100-D00-0
 62
     7
370
    50
100
AcDbLine
 10
-204.271144
 20
484.888954
 30
0.0
 11
-204.271146
 21
488.888954
 31
0.0
  0
LINE
  5
292
330
1F
100
AcDbEntity
  8
LC-001-100-D00-0
 62
     7
370
    50
100
AcDbLine
 10
-208.771144
 20
488.888954
 30
0.0
 11
-204.271146
 21
488.888954
 31
0.0
  0
ARC
  5
293
330
1F
100
AcDbEntity
  8
LC-001-100-D00-0
 62
     7
370
    50
100
AcDbCircle
 10
-208.771144
 20
487.888954
 30
0.0
 40
1.000000000000227
100
AcDbArc
 50
90.0
 51
180.0
  0
LINE
  5
294
330
1F
100
AcDbEntity
  8
LC-001-100-D00-0
 62
     7
370
    50
100
AcDbLine
 10
-209.771144
 20
473.888954
 30
0.0
 11
-209.771144
 21
487.888954
 31
0.0
  0
ARC
  5
295
330
1F
100
AcDbEntity
  8
LC-001-100-D00-0
 62
     7
370
    50
100
AcDbCircle
 10
-210.771144
 20
473.888954
 30
0.0
 40
1.000000000000227
100
AcDbArc
 50
270.0
 51
0.0
  0
LINE
  5
296
330
1F
100
AcDbEntity
  8
LC-001-100-D00-0
 62
     7
370
    50
100
AcDbLine
 10
-210.771144
 20
472.888954
 30
0.0
 11
-213.17029
 21
472.888955
 31
0.0
  0
LINE
  5
297
330
1F
100
AcDbEntity
  8
LC-001-100-D00-0
 62
     7
370
    50
100
AcDbLine
 10
-213.17029
 20
474.888953
 30
0.0
 11
-213.17029
 21
472.888955
 31
0.0
  0
LINE
  5
298
330
1F
100
AcDbEntity
  8
LC-001-100-D00-0
 62
     7
370
    50
100
AcDbLine
 10
-213.821144
 20
474.888954
 30
0.0
 11
-213.17029
 21
474.888953
 31
0.0
  0
ARC
  5
299
330
1F
100
AcDbEntity
  8
LC-001-100-D00-0
 62
     7
370
    50
100
AcDbCircle
 10
-213.821144
 20
475.388954
 30
0.0
 40
0.5
100
AcDbArc
 50
180.0
 51
270.0
  0
LINE
  5
29A
330
1F
100
AcDbEntity
  8
LC-001-100-D00-0
 62
     7
370
    50
100
AcDbLine
 10
-214.321144
 20
478.388954
 30
0.0
 11
-214.321144
 21
475.388954
 31
0.0
  0
ARC
  5
29B
330
1F
100
AcDbEntity
  8
LC-001-100-D00-0
 62
     7
370
    50
100
AcDbCircle
 10
-213.821144
 20
478.388954
 30
0.0
 40
0.4999999999997726
100
AcDbArc
 50
90.0
 51
180.0
  0
LINE
  5
29C
330
1F
100
AcDbEntity
  8
LC-001-100-D00-0
 62
     7
370
    50
100
AcDbLine
 10
-213.17029
 20
478.888954
 30
0.0
 11
-213.821144
 21
478.888954
 31
0.0
  0
LINE
  5
29D
330
1F
100
AcDbEntity
  8
LC-001-100-D00-0
 62
     7
370
    50
100
AcDbLine
 10
-213.17029
 20
480.888954
 30
0.0
 11
-213.17029
 21
478.888954
 31
0.0
  0
ARC
  5
29E
330
1F
100
AcDbEntity
  8
LC-001-100-D00-0
 62
     7
370
    50
100
AcDbCircle
 10
-230.271144
 20
487.888954
 30
0.0
 40
1.000000000000114
100
AcDbArc
 50
0.0
 51
90.0
  0
ARC
  5
29F
330
1F
100
AcDbEntity
  8
LC-001-100-D00-0
 62
     7
370
    50
100
AcDbCircle
 10
-228.271144
 20
473.888954
 30
0.0
 40
0.9999999999998863
100
AcDbArc
 50
180.0
 51
270.0
  0
LINE
  5
2A0
330
1F
100
AcDbEntity
  8
LC-001-100-D00-0
 62
     7
370
    50
100
AcDbLine
 10
-229.271144
 20
487.888954
 30
0.0
 11
-229.271144
 21
473.888954
 31
0.0
  0
LINE
  5
2A1
330
1F
100
AcDbEntity
  8
LC-001-100-D00-0
 62
     7
370
    50
100
AcDbLine
 10
-223.421144
 20
491.888954
 30
0.0
 11
-223.421142
 21
480.888954
 31
0.0
  0
LINE
  5
2A2
330
1F
100
AcDbEntity
  8
LC-001-100-D00-0
 62
     7
370
    50
100
AcDbLine
 10
-223.421144
 20
491.888954
 30
0.0
 11
-215.621144
 21
491.888954
 31
0.0
  0
LINE
  5
2A3
330
1F
100
AcDbEntity
  8
LC-001-100-D00-0
 62
     7
370
    50
100
AcDbLine
 10
-224.721144
 20
475.388954
 30
0.0
 11
-224.721144
 21
478.388954
 31
0.0
  0
ARC
  5
2A4
330
1F
100
AcDbEntity
  8
LC-001-100-D00-0
 62
     7
370
    50
100
AcDbCircle
 10
-225.221144
 20
475.388954
 30
0.0
 40
0.4999999999997726
100
AcDbArc
 50
270.0
 51
0.0
  0
LINE
  5
2A5
330
1F
100
AcDbEntity
  8
LC-001-100-D00-0
 62
     7
370
    50
100
AcDbLine
 10
-225.871996
 20
474.888953
 30
0.0
 11
-225.221144
 21
474.888954
 31
0.0
  0
LINE
  5
2A6
330
1F
100
AcDbEntity
  8
LC-001-100-D00-0
 62
     7
370
    50
100
AcDbLine
 10
-225.871996
 20
474.888953
 30
0.0
 11
-225.871996
 21
472.888955
 31
0.0
  0
LINE
  5
2A7
330
1F
100
AcDbEntity
  8
LC-001-100-D00-0
 62
     7
370
    50
100
AcDbLine
 10
-234.771148
 20
488.888954
 30
0.0
 11
-234.771144
 21
484.888954
 31
0.0
  0
LINE
  5
2A8
330
1F
100
AcDbEntity
  8
LC-001-100-D00-0
 62
     7
370
    50
100
AcDbLine
 10
-237.771146
 20
484.888954
 30
0.0
 11
-237.771144
 21
490.888954
 31
0.0
  0
ARC
  5
2A9
330
1F
100
AcDbEntity
  8
LC-001-100-D00-0
 62
     7
370
    50
100
AcDbCircle
 10
-236.771144
 20
490.888954
 30
0.0
 40
1.000000000000227
100
AcDbArc
 50
90.0
 51
180.0
  0
LINE
  5
2AA
330
1F
100
AcDbEntity
  8
LC-001-100-D00-0
 62
     7
370
    50
100
AcDbLine
 10
-225.871996
 20
480.888954
 30
0.0
 11
-225.871996
 21
478.888954
 31
0.0
  0
LINE
  5
2AB
330
1F
100
AcDbEntity
  8
LC-001-100-D00-0
 62
     7
370
    50
100
AcDbLine
 10
-225.221144
 20
478.888954
 30
0.0
 11
-225.871996
 21
478.888954
 31
0.0
  0
ARC
  5
2AC
330
1F
100
AcDbEntity
  8
LC-001-100-D00-0
 62
     7
370
    50
100
AcDbCircle
 10
-225.221144
 20
478.388954
 30
0.0
 40
0.5
100
AcDbArc
 50
0.0
 51
90.0
  0
LINE
  5
2AD
330
1F
100
AcDbEntity
  8
LC-001-100-D00-0
 62
     7
370
    50
100
AcDbLine
 10
-225.871996
 20
472.888955
 30
0.0
 11
-228.271144
 21
472.888954
 31
0.0
  0
LINE
  5
2AE
330
1F
100
AcDbEntity
  8
LC-001-100-D00-0
 62
     7
370
    50
100
AcDbLine
 10
-223.421142
 20
480.888954
 30
0.0
 11
-225.871996
 21
480.888954
 31
0.0
  0
LINE
  5
2AF
330
1F
100
AcDbEntity
  8
LC-001-100-D00-0
 62
     7
370
    50
100
AcDbLine
 10
-234.771148
 20
488.888954
 30
0.0
 11
-230.271144
 21
488.888954
 31
0.0
  0
LINE
  5
2B0
330
1F
100
AcDbEntity
  8
LC-001-100-D00-0
 62
     7
370
    50
100
AcDbLine
 10
-236.771144
 20
491.888954
 30
0.0
 11
-223.421144
 21
491.888954
 31
0.0
  0
LINE
  5
2B1
330
1F
100
AcDbEntity
  8
LC-001-100-D00-0
 62
     7
370
    50
100
AcDbLine
 10
-237.771146
 20
484.888954
 30
0.0
 11
-234.771144
 21
484.888954
 31
0.0
  0
LINE
  5
2B2
330
1F
100
AcDbEntity
  8
LC-001-100-D00-0
 62
     7
370
    50
100
AcDbLine
 10
-206.271144
 20
484.888954
 30
0.0
 11
-204.271144
 21
484.888954
 31
0.0
  0
LINE
  5
2B3
330
1F
100
AcDbEntity
  8
LC-001-100-D00-0
 62
     7
370
    50
100
AcDbLine
 10
-234.771144
 20
484.888954
 30
0.0
 11
-232.771144
 21
484.888954
 31
0.0
  0
LINE
  5
2B4
330
1F
100
AcDbEntity
  8
LC-001-100-D00-0
 62
     7
370
    50
100
AcDbLine
 10
-232.771144
 20
484.888954
 30
0.0
 11
-229.271144
 21
484.888954
 31
0.0
  0
LINE
  5
2B5
330
1F
100
AcDbEntity
  8
LC-001-100-D00-0
 62
     7
370
    50
100
AcDbLine
 10
-209.771142
 20
484.888954
 30
0.0
 11
-206.271144
 21
484.888954
 31
0.0
  0
LINE
  5
2B6
330
1F
100
AcDbEntity
  8
LC-001-100-D00-0
 62
     7
370
    50
100
AcDbLine
 10
-414.321144
 20
475.65772
 30
0.0
 11
-414.321144
 21
478.120188
 31
0.0
  0
ARC
  5
2B7
330
1F
100
AcDbEntity
  8
LC-001-100-D00-0
 62
     7
370
    50
100
AcDbCircle
 10
-413.721144
 20
475.65772
 30
0.0
 40
0.6000000000000227
100
AcDbArc
 50
180.0
 51
255.0
  0
LINE
  5
2B8
330
1F
100
AcDbEntity
  8
LC-001-100-D00-0
 62
     7
370
    50
100
AcDbLine
 10
-413.170293
 20
474.888953
 30
0.0
 11
-413.876436
 21
475.078165
 31
0.0
  0
LINE
  5
2B9
330
1F
100
AcDbEntity
  8
LC-001-100-D00-0
 62
     7
370
    50
100
AcDbLine
 10
-413.170293
 20
474.888953
 30
0.0
 11
-413.170293
 21
472.888955
 31
0.0
  0
LINE
  5
2BA
330
1F
100
AcDbEntity
  8
LC-001-100-D00-0
 62
     7
370
    50
100
AcDbLine
 10
-415.121144
 20
472.888954
 30
0.0
 11
-413.170293
 21
472.888955
 31
0.0
  0
LINE
  5
2BB
330
1F
100
AcDbEntity
  8
LC-001-100-D00-0
 62
     7
370
    50
100
AcDbLine
 10
-416.121144
 20
473.888954
 30
0.0
 11
-415.121144
 21
472.888954
 31
0.0
  0
LINE
  5
2BC
330
1F
100
AcDbEntity
  8
LC-001-100-D00-0
 62
     7
370
    50
100
AcDbLine
 10
-416.121144
 20
473.888954
 30
0.0
 11
-416.121148
 21
479.888954
 31
0.0
  0
LINE
  5
2BD
330
1F
100
AcDbEntity
  8
LC-001-100-D00-0
 62
     7
370
    50
100
AcDbLine
 10
-415.121146
 20
480.888954
 30
0.0
 11
-416.121148
 21
479.888954
 31
0.0
  0
LINE
  5
2BE
330
1F
100
AcDbEntity
  8
LC-001-100-D00-0
 62
     7
370
    50
100
AcDbLine
 10
-413.170293
 20
480.888954
 30
0.0
 11
-413.170293
 21
478.888954
 31
0.0
  0
LINE
  5
2BF
330
1F
100
AcDbEntity
  8
LC-001-100-D00-0
 62
     7
370
    50
100
AcDbLine
 10
-413.876436
 20
478.699743
 30
0.0
 11
-413.170293
 21
478.888954
 31
0.0
  0
ARC
  5
2C0
330
1F
100
AcDbEntity
  8
LC-001-100-D00-0
 62
     7
370
    50
100
AcDbCircle
 10
-413.721144
 20
478.120188
 30
0.0
 40
0.5999999999998836
100
AcDbArc
 50
105.0
 51
180.0
  0
LINE
  5
2C1
330
1F
100
AcDbEntity
  8
LC-001-100-D00-0
 62
     7
370
    50
100
AcDbLine
 10
-415.121146
 20
480.888954
 30
0.0
 11
-413.170293
 21
480.888954
 31
0.0
  0
LINE
  5
2C2
330
1F
100
AcDbEntity
  8
LC-001-100-D00-0
 62
     7
370
    50
100
AcDbLine
 10
-422.921144
 20
479.888954
 30
0.0
 11
-423.921146
 21
480.888954
 31
0.0
  0
LINE
  5
2C3
330
1F
100
AcDbEntity
  8
LC-001-100-D00-0
 62
     7
370
    50
100
AcDbLine
 10
-423.921144
 20
472.888954
 30
0.0
 11
-422.921144
 21
473.888954
 31
0.0
  0
LINE
  5
2C4
330
1F
100
AcDbEntity
  8
LC-001-100-D00-0
 62
     7
370
    50
100
AcDbLine
 10
-422.921144
 20
473.888954
 30
0.0
 11
-422.763305
 21
473.888954
 31
0.0
  0
LINE
  5
2C5
330
1F
100
AcDbEntity
  8
LC-001-100-D00-0
 62
     7
370
    50
100
AcDbLine
 10
-416.278984
 20
473.888954
 30
0.0
 11
-416.121144
 21
473.888954
 31
0.0
  0
LINE
  5
2C6
330
1F
100
AcDbEntity
  8
LC-001-100-D00-0
 62
     7
370
    50
100
AcDbLine
 10
-415.121144
 20
472.888954
 30
0.0
 11
-415.656926
 21
472.888954
 31
0.0
  0
LINE
  5
2C7
330
1F
100
AcDbEntity
  8
LC-001-100-D00-0
 62
     7
370
    50
100
AcDbLine
 10
-423.385363
 20
472.888954
 30
0.0
 11
-423.921144
 21
472.888954
 31
0.0
  0
LINE
  5
2C8
330
1F
100
AcDbEntity
  8
LC-001-100-D00-0
 62
     7
370
    50
100
AcDbLine
 10
-422.921144
 20
479.888954
 30
0.0
 11
-422.921144
 21
473.888954
 31
0.0
  0
LINE
  5
2C9
330
1F
100
AcDbEntity
  8
LC-001-100-D00-0
 62
     7
370
    50
100
AcDbLine
 10
-424.721144
 20
478.120188
 30
0.0
 11
-424.721144
 21
475.65772
 31
0.0
  0
LINE
  5
2CA
330
1F
100
AcDbEntity
  8
LC-001-100-D00-0
 62
     7
370
    50
100
AcDbLine
 10
-425.871999
 20
474.888953
 30
0.0
 11
-425.871999
 21
472.888955
 31
0.0
  0
LINE
  5
2CB
330
1F
100
AcDbEntity
  8
LC-001-100-D00-0
 62
     7
370
    50
100
AcDbLine
 10
-425.165853
 20
475.078165
 30
0.0
 11
-425.871999
 21
474.888953
 31
0.0
  0
ARC
  5
2CC
330
1F
100
AcDbEntity
  8
LC-001-100-D00-0
 62
     7
370
    50
100
AcDbCircle
 10
-425.321144
 20
475.65772
 30
0.0
 40
0.6000000000001032
100
AcDbArc
 50
285.0
 51
0.0
  0
ARC
  5
2CD
330
1F
100
AcDbEntity
  8
LC-001-100-D00-0
 62
     7
370
    50
100
AcDbCircle
 10
-425.321144
 20
478.120188
 30
0.0
 40
0.6000000000000227
100
AcDbArc
 50
0.0
 51
75.0
  0
LINE
  5
2CE
330
1F
100
AcDbEntity
  8
LC-001-100-D00-0
 62
     7
370
    50
100
AcDbLine
 10
-425.871999
 20
478.888954
 30
0.0
 11
-425.165853
 21
478.699743
 31
0.0
  0
LINE
  5
2CF
330
1F
100
AcDbEntity
  8
LC-001-100-D00-0
 62
     7
370
    50
100
AcDbLine
 10
-425.871999
 20
480.888954
 30
0.0
 11
-425.871999
 21
478.888954
 31
0.0
  0
LINE
  5
2D0
330
1F
100
AcDbEntity
  8
LC-001-100-D00-0
 62
     7
370
    50
100
AcDbLine
 10
-425.871999
 20
472.888955
 30
0.0
 11
-423.921144
 21
472.888954
 31
0.0
  0
LINE
  5
2D1
330
1F
100
AcDbEntity
  8
LC-001-100-D00-0
 62
     7
370
    50
100
AcDbLine
 10
-425.871999
 20
480.888954
 30
0.0
 11
-423.921146
 21
480.888954
 31
0.0
  0
LINE
  5
2D2
330
1F
100
AcDbEntity
  8
LC-001-100-D00-0
 62
     7
370
    50
100
AcDbLine
 10
-413.170293
 20
480.888954
 30
0.0
 11
-415.621147
 21
480.888954
 31
0.0
  0
LINE
  5
2D3
330
1F
100
AcDbEntity
  8
LC-001-100-D00-0
 62
     7
370
    50
100
AcDbLine
 10
-415.621147
 20
480.888954
 30
0.0
 11
-415.621144
 21
491.888954
 31
0.0
  0
LINE
  5
2D4
330
1F
100
AcDbEntity
  8
LC-001-100-D00-0
 62
     7
370
    50
100
AcDbLine
 10
-415.621144
 20
491.888954
 30
0.0
 11
-402.271144
 21
491.888954
 31
0.0
  0
ARC
  5
2D5
330
1F
100
AcDbEntity
  8
LC-001-100-D00-0
 62
     7
370
    50
100
AcDbCircle
 10
-402.271144
 20
490.888954
 30
0.0
 40
1.000000000000227
100
AcDbArc
 50
0.0
 51
90.0
  0
LINE
  5
2D6
330
1F
100
AcDbEntity
  8
LC-001-100-D00-0
 62
     7
370
    50
100
AcDbLine
 10
-401.271144
 20
490.888954
 30
0.0
 11
-401.271143
 21
484.888954
 31
0.0
  0
LINE
  5
2D7
330
1F
100
AcDbEntity
  8
LC-001-100-D00-0
 62
     7
370
    50
100
AcDbLine
 10
-404.271144
 20
484.888954
 30
0.0
 11
-401.271143
 21
484.888954
 31
0.0
  0
LINE
  5
2D8
330
1F
100
AcDbEntity
  8
LC-001-100-D00-0
 62
     7
370
    50
100
AcDbLine
 10
-404.271144
 20
484.888954
 30
0.0
 11
-404.271141
 21
488.888954
 31
0.0
  0
LINE
  5
2D9
330
1F
100
AcDbEntity
  8
LC-001-100-D00-0
 62
     7
370
    50
100
AcDbLine
 10
-408.771144
 20
488.888954
 30
0.0
 11
-404.271141
 21
488.888954
 31
0.0
  0
ARC
  5
2DA
330
1F
100
AcDbEntity
  8
LC-001-100-D00-0
 62
     7
370
    50
100
AcDbCircle
 10
-408.771144
 20
487.888954
 30
0.0
 40
1.000000000000227
100
AcDbArc
 50
90.0
 51
180.0
  0
LINE
  5
2DB
330
1F
100
AcDbEntity
  8
LC-001-100-D00-0
 62
     7
370
    50
100
AcDbLine
 10
-409.771144
 20
473.888954
 30
0.0
 11
-409.771144
 21
487.888954
 31
0.0
  0
ARC
  5
2DC
330
1F
100
AcDbEntity
  8
LC-001-100-D00-0
 62
     7
370
    50
100
AcDbCircle
 10
-410.771144
 20
473.888954
 30
0.0
 40
1.000000000000227
100
AcDbArc
 50
270.0
 51
0.0
  0
LINE
  5
2DD
330
1F
100
AcDbEntity
  8
LC-001-100-D00-0
 62
     7
370
    50
100
AcDbLine
 10
-410.771144
 20
472.888954
 30
0.0
 11
-413.170293
 21
472.888955
 31
0.0
  0
LINE
  5
2DE
330
1F
100
AcDbEntity
  8
LC-001-100-D00-0
 62
     7
370
    50
100
AcDbLine
 10
-413.170293
 20
474.888953
 30
0.0
 11
-413.170293
 21
472.888955
 31
0.0
  0
LINE
  5
2DF
330
1F
100
AcDbEntity
  8
LC-001-100-D00-0
 62
     7
370
    50
100
AcDbLine
 10
-413.821144
 20
474.888954
 30
0.0
 11
-413.170293
 21
474.888953
 31
0.0
  0
ARC
  5
2E0
330
1F
100
AcDbEntity
  8
LC-001-100-D00-0
 62
     7
370
    50
100
AcDbCircle
 10
-413.821144
 20
475.388954
 30
0.0
 40
0.4999999999999432
100
AcDbArc
 50
180.0
 51
270.0
  0
LINE
  5
2E1
330
1F
100
AcDbEntity
  8
LC-001-100-D00-0
 62
     7
370
    50
100
AcDbLine
 10
-414.321144
 20
478.388954
 30
0.0
 11
-414.321144
 21
475.388954
 31
0.0
  0
ARC
  5
2E2
330
1F
100
AcDbEntity
  8
LC-001-100-D00-0
 62
     7
370
    50
100
AcDbCircle
 10
-413.821144
 20
478.388954
 30
0.0
 40
0.5
100
AcDbArc
 50
90.0
 51
180.0
  0
LINE
  5
2E3
330
1F
100
AcDbEntity
  8
LC-001-100-D00-0
 62
     7
370
    50
100
AcDbLine
 10
-413.170293
 20
478.888954
 30
0.0
 11
-413.821144
 21
478.888954
 31
0.0
  0
LINE
  5
2E4
330
1F
100
AcDbEntity
  8
LC-001-100-D00-0
 62
     7
370
    50
100
AcDbLine
 10
-413.170293
 20
480.888954
 30
0.0
 11
-413.170293
 21
478.888954
 31
0.0
  0
ARC
  5
2E5
330
1F
100
AcDbEntity
  8
LC-001-100-D00-0
 62
     7
370
    50
100
AcDbCircle
 10
-430.271144
 20
487.888954
 30
0.0
 40
1.000000000000227
100
AcDbArc
 50
0.0
 51
90.0
  0
ARC
  5
2E6
330
1F
100
AcDbEntity
  8
LC-001-100-D00-0
 62
     7
370
    50
100
AcDbCircle
 10
-428.271144
 20
473.888954
 30
0.0
 40
1.000000000000227
100
AcDbArc
 50
180.0
 51
270.0
  0
LINE
  5
2E7
330
1F
100
AcDbEntity
  8
LC-001-100-D00-0
 62
     7
370
    50
100
AcDbLine
 10
-429.271144
 20
487.888954
 30
0.0
 11
-429.271144
 21
473.888954
 31
0.0
  0
LINE
  5
2E8
330
1F
100
AcDbEntity
  8
LC-001-100-D00-0
 62
     7
370
    50
100
AcDbLine
 10
-423.421144
 20
491.888954
 30
0.0
 11
-423.421145
 21
480.888954
 31
0.0
  0
LINE
  5
2E9
330
1F
100
AcDbEntity
  8
LC-001-100-D00-0
 62
     7
370
    50
100
AcDbLine
 10
-423.421144
 20
491.888954
 30
0.0
 11
-415.621144
 21
491.888954
 31
0.0
  0
LINE
  5
2EA
330
1F
100
AcDbEntity
  8
LC-001-100-D00-0
 62
     7
370
    50
100
AcDbLine
 10
-424.721144
 20
475.388954
 30
0.0
 11
-424.721144
 21
478.388954
 31
0.0
  0
ARC
  5
2EB
330
1F
100
AcDbEntity
  8
LC-001-100-D00-0
 62
     7
370
    50
100
AcDbCircle
 10
-425.221144
 20
475.388954
 30
0.0
 40
0.5
100
AcDbArc
 50
270.0
 51
0.0
  0
LINE
  5
2EC
330
1F
100
AcDbEntity
  8
LC-001-100-D00-0
 62
     7
370
    50
100
AcDbLine
 10
-425.871999
 20
474.888953
 30
0.0
 11
-425.221144
 21
474.888954
 31
0.0
  0
LINE
  5
2ED
330
1F
100
AcDbEntity
  8
LC-001-100-D00-0
 62
     7
370
    50
100
AcDbLine
 10
-425.871999
 20
474.888953
 30
0.0
 11
-425.871999
 21
472.888955
 31
0.0
  0
LINE
  5
2EE
330
1F
100
AcDbEntity
  8
LC-001-100-D00-0
 62
     7
370
    50
100
AcDbLine
 10
-434.771143
 20
488.888954
 30
0.0
 11
-434.771144
 21
484.888954
 31
0.0
  0
LINE
  5
2EF
330
1F
100
AcDbEntity
  8
LC-001-100-D00-0
 62
     7
370
    50
100
AcDbLine
 10
-437.771142
 20
484.888954
 30
0.0
 11
-437.771144
 21
490.888954
 31
0.0
  0
ARC
  5
2F0
330
1F
100
AcDbEntity
  8
LC-001-100-D00-0
 62
     7
370
    50
100
AcDbCircle
 10
-436.771144
 20
490.888954
 30
0.0
 40
1.000000000000227
100
AcDbArc
 50
90.0
 51
180.0
  0
LINE
  5
2F1
330
1F
100
AcDbEntity
  8
LC-001-100-D00-0
 62
     7
370
    50
100
AcDbLine
 10
-425.871999
 20
480.888954
 30
0.0
 11
-425.871999
 21
478.888954
 31
0.0
  0
LINE
  5
2F2
330
1F
100
AcDbEntity
  8
LC-001-100-D00-0
 62
     7
370
    50
100
AcDbLine
 10
-425.221144
 20
478.888954
 30
0.0
 11
-425.871999
 21
478.888954
 31
0.0
  0
ARC
  5
2F3
330
1F
100
AcDbEntity
  8
LC-001-100-D00-0
 62
     7
370
    50
100
AcDbCircle
 10
-425.221144
 20
478.388954
 30
0.0
 40
0.5000000000001137
100
AcDbArc
 50
0.0
 51
90.0
  0
LINE
  5
2F4
330
1F
100
AcDbEntity
  8
LC-001-100-D00-0
 62
     7
370
    50
100
AcDbLine
 10
-425.871999
 20
472.888955
 30
0.0
 11
-428.271144
 21
472.888954
 31
0.0
  0
LINE
  5
2F5
330
1F
100
AcDbEntity
  8
LC-001-100-D00-0
 62
     7
370
    50
100
AcDbLine
 10
-423.421145
 20
480.888954
 30
0.0
 11
-425.871999
 21
480.888954
 31
0.0
  0
LINE
  5
2F6
330
1F
100
AcDbEntity
  8
LC-001-100-D00-0
 62
     7
370
    50
100
AcDbLine
 10
-434.771143
 20
488.888954
 30
0.0
 11
-430.271144
 21
488.888954
 31
0.0
  0
LINE
  5
2F7
330
1F
100
AcDbEntity
  8
LC-001-100-D00-0
 62
     7
370
    50
100
AcDbLine
 10
-436.771144
 20
491.888954
 30
0.0
 11
-423.421144
 21
491.888954
 31
0.0
  0
LINE
  5
2F8
330
1F
100
AcDbEntity
  8
LC-001-100-D00-0
 62
     7
370
    50
100
AcDbLine
 10
-437.771142
 20
484.888954
 30
0.0
 11
-434.771144
 21
484.888954
 31
0.0
  0
LINE
  5
2F9
330
1F
100
AcDbEntity
  8
LC-001-100-D00-0
 62
     7
370
    50
100
AcDbLine
 10
-406.271144
 20
484.888954
 30
0.0
 11
-404.271144
 21
484.888954
 31
0.0
  0
LINE
  5
2FA
330
1F
100
AcDbEntity
  8
LC-001-100-D00-0
 62
     7
370
    50
100
AcDbLine
 10
-434.771144
 20
484.888954
 30
0.0
 11
-432.771144
 21
484.888954
 31
0.0
  0
LINE
  5
2FB
330
1F
100
AcDbEntity
  8
LC-001-100-D00-0
 62
     7
370
    50
100
AcDbLine
 10
-432.771144
 20
484.888954
 30
0.0
 11
-429.271147
 21
484.888954
 31
0.0
  0
LINE
  5
2FC
330
1F
100
AcDbEntity
  8
LC-001-100-D00-0
 62
     7
370
    50
100
AcDbLine
 10
-409.771145
 20
484.888954
 30
0.0
 11
-406.271144
 21
484.888954
 31
0.0
  0
LINE
  5
2FD
330
1F
100
AcDbEntity
  8
LC-001-100-D00-0
 62
     7
370
    50
100
AcDbLine
 10
-54.321144
 20
475.65772
 30
0.0
 11
-54.321144
 21
478.120188
 31
0.0
  0
ARC
  5
2FE
330
1F
100
AcDbEntity
  8
LC-001-100-D00-0
 62
     7
370
    50
100
AcDbCircle
 10
-53.721144
 20
475.65772
 30
0.0
 40
0.6000000000000227
100
AcDbArc
 50
180.0
 51
255.0
  0
LINE
  5
2FF
330
1F
100
AcDbEntity
  8
LC-001-100-D00-0
 62
     7
370
    50
100
AcDbLine
 10
-53.170279
 20
474.888953
 30
0.0
 11
-53.876436
 21
475.078165
 31
0.0
  0
LINE
  5
300
330
1F
100
AcDbEntity
  8
LC-001-100-D00-0
 62
     7
370
    50
100
AcDbLine
 10
-53.170279
 20
474.888953
 30
0.0
 11
-53.170279
 21
472.888955
 31
0.0
  0
LINE
  5
301
330
1F
100
AcDbEntity
  8
LC-001-100-D00-0
 62
     7
370
    50
100
AcDbLine
 10
-55.121144
 20
472.888954
 30
0.0
 11
-53.170279
 21
472.888955
 31
0.0
  0
LINE
  5
302
330
1F
100
AcDbEntity
  8
LC-001-100-D00-0
 62
     7
370
    50
100
AcDbLine
 10
-56.121144
 20
473.888954
 30
0.0
 11
-55.121144
 21
472.888954
 31
0.0
  0
LINE
  5
303
330
1F
100
AcDbEntity
  8
LC-001-100-D00-0
 62
     7
370
    50
100
AcDbLine
 10
-56.121144
 20
473.888954
 30
0.0
 11
-56.121156
 21
479.888954
 31
0.0
  0
LINE
  5
304
330
1F
100
AcDbEntity
  8
LC-001-100-D00-0
 62
     7
370
    50
100
AcDbLine
 10
-55.121139
 20
480.888954
 30
0.0
 11
-56.121156
 21
479.888954
 31
0.0
  0
LINE
  5
305
330
1F
100
AcDbEntity
  8
LC-001-100-D00-0
 62
     7
370
    50
100
AcDbLine
 10
-53.170279
 20
480.888954
 30
0.0
 11
-53.170279
 21
478.888954
 31
0.0
  0
LINE
  5
306
330
1F
100
AcDbEntity
  8
LC-001-100-D00-0
 62
     7
370
    50
100
AcDbLine
 10
-53.876436
 20
478.699743
 30
0.0
 11
-53.170279
 21
478.888954
 31
0.0
  0
ARC
  5
307
330
1F
100
AcDbEntity
  8
LC-001-100-D00-0
 62
     7
370
    50
100
AcDbCircle
 10
-53.721144
 20
478.120188
 30
0.0
 40
0.5999999999998983
100
AcDbArc
 50
105.0
 51
180.0
  0
LINE
  5
308
330
1F
100
AcDbEntity
  8
LC-001-100-D00-0
 62
     7
370
    50
100
AcDbLine
 10
-55.121139
 20
480.888954
 30
0.0
 11
-53.170279
 21
480.888954
 31
0.0
  0
LINE
  5
309
330
1F
100
AcDbEntity
  8
LC-001-100-D00-0
 62
     7
370
    50
100
AcDbLine
 10
-62.921152
 20
479.888954
 30
0.0
 11
-63.921139
 21
480.888954
 31
0.0
  0
LINE
  5
30A
330
1F
100
AcDbEntity
  8
LC-001-100-D00-0
 62
     7
370
    50
100
AcDbLine
 10
-63.921144
 20
472.888954
 30
0.0
 11
-62.921144
 21
473.888954
 31
0.0
  0
LINE
  5
30B
330
1F
100
AcDbEntity
  8
LC-001-100-D00-0
 62
     7
370
    50
100
AcDbLine
 10
-62.921144
 20
473.888954
 30
0.0
 11
-62.763305
 21
473.888954
 31
0.0
  0
LINE
  5
30C
330
1F
100
AcDbEntity
  8
LC-001-100-D00-0
 62
     7
370
    50
100
AcDbLine
 10
-56.278984
 20
473.888954
 30
0.0
 11
-56.121144
 21
473.888954
 31
0.0
  0
LINE
  5
30D
330
1F
100
AcDbEntity
  8
LC-001-100-D00-0
 62
     7
370
    50
100
AcDbLine
 10
-55.121144
 20
472.888954
 30
0.0
 11
-55.656926
 21
472.888954
 31
0.0
  0
LINE
  5
30E
330
1F
100
AcDbEntity
  8
LC-001-100-D00-0
 62
     7
370
    50
100
AcDbLine
 10
-63.385363
 20
472.888954
 30
0.0
 11
-63.921144
 21
472.888954
 31
0.0
  0
LINE
  5
30F
330
1F
100
AcDbEntity
  8
LC-001-100-D00-0
 62
     7
370
    50
100
AcDbLine
 10
-62.921152
 20
479.888954
 30
0.0
 11
-62.921144
 21
473.888954
 31
0.0
  0
LINE
  5
310
330
1F
100
AcDbEntity
  8
LC-001-100-D00-0
 62
     7
370
    50
100
AcDbLine
 10
-64.721144
 20
478.120188
 30
0.0
 11
-64.721144
 21
475.65772
 31
0.0
  0
LINE
  5
311
330
1F
100
AcDbEntity
  8
LC-001-100-D00-0
 62
     7
370
    50
100
AcDbLine
 10
-65.871999
 20
474.888953
 30
0.0
 11
-65.871999
 21
472.888955
 31
0.0
  0
LINE
  5
312
330
1F
100
AcDbEntity
  8
LC-001-100-D00-0
 62
     7
370
    50
100
AcDbLine
 10
-65.165853
 20
475.078165
 30
0.0
 11
-65.871999
 21
474.888953
 31
0.0
  0
ARC
  5
313
330
1F
100
AcDbEntity
  8
LC-001-100-D00-0
 62
     7
370
    50
100
AcDbCircle
 10
-65.321144
 20
475.65772
 30
0.0
 40
0.6000000000003376
100
AcDbArc
 50
285.0
 51
0.0
  0
ARC
  5
314
330
1F
100
AcDbEntity
  8
LC-001-100-D00-0
 62
     7
370
    50
100
AcDbCircle
 10
-65.321144
 20
478.120188
 30
0.0
 40
0.6000000000001364
100
AcDbArc
 50
0.0
 51
75.0
  0
LINE
  5
315
330
1F
100
AcDbEntity
  8
LC-001-100-D00-0
 62
     7
370
    50
100
AcDbLine
 10
-65.871999
 20
478.888954
 30
0.0
 11
-65.165853
 21
478.699743
 31
0.0
  0
LINE
  5
316
330
1F
100
AcDbEntity
  8
LC-001-100-D00-0
 62
     7
370
    50
100
AcDbLine
 10
-65.871999
 20
480.888954
 30
0.0
 11
-65.871999
 21
478.888954
 31
0.0
  0
LINE
  5
317
330
1F
100
AcDbEntity
  8
LC-001-100-D00-0
 62
     7
370
    50
100
AcDbLine
 10
-65.871999
 20
472.888955
 30
0.0
 11
-63.921144
 21
472.888954
 31
0.0
  0
LINE
  5
318
330
1F
100
AcDbEntity
  8
LC-001-100-D00-0
 62
     7
370
    50
100
AcDbLine
 10
-65.871999
 20
480.888954
 30
0.0
 11
-63.921139
 21
480.888954
 31
0.0
  0
LINE
  5
319
330
1F
100
AcDbEntity
  8
LC-001-100-D00-0
 62
     7
370
    50
100
AcDbLine
 10
-53.170279
 20
480.888954
 30
0.0
 11
-55.621133
 21
480.888954
 31
0.0
  0
LINE
  5
31A
330
1F
100
AcDbEntity
  8
LC-001-100-D00-0
 62
     7
370
    50
100
AcDbLine
 10
-55.621133
 20
480.888954
 30
0.0
 11
-55.621144
 21
491.888954
 31
0.0
  0
LINE
  5
31B
330
1F
100
AcDbEntity
  8
LC-001-100-D00-0
 62
     7
370
    50
100
AcDbLine
 10
-55.621144
 20
491.888954
 30
0.0
 11
-42.271144
 21
491.888954
 31
0.0
  0
ARC
  5
31C
330
1F
100
AcDbEntity
  8
LC-001-100-D00-0
 62
     7
370
    50
100
AcDbCircle
 10
-42.271144
 20
490.888954
 30
0.0
 40
1.000000000000114
100
AcDbArc
 50
0.0
 51
90.0
  0
LINE
  5
31D
330
1F
100
AcDbEntity
  8
LC-001-100-D00-0
 62
     7
370
    50
100
AcDbLine
 10
-41.271144
 20
490.888954
 30
0.0
 11
-41.271136
 21
484.888954
 31
0.0
  0
LINE
  5
31E
330
1F
100
AcDbEntity
  8
LC-001-100-D00-0
 62
     7
370
    50
100
AcDbLine
 10
-44.271144
 20
484.888954
 30
0.0
 11
-41.271136
 21
484.888954
 31
0.0
  0
LINE
  5
31F
330
1F
100
AcDbEntity
  8
LC-001-100-D00-0
 62
     7
370
    50
100
AcDbLine
 10
-44.271144
 20
484.888954
 30
0.0
 11
-44.271157
 21
488.888954
 31
0.0
  0
LINE
  5
320
330
1F
100
AcDbEntity
  8
LC-001-100-D00-0
 62
     7
370
    50
100
AcDbLine
 10
-48.771144
 20
488.888954
 30
0.0
 11
-44.271157
 21
488.888954
 31
0.0
  0
ARC
  5
321
330
1F
100
AcDbEntity
  8
LC-001-100-D00-0
 62
     7
370
    50
100
AcDbCircle
 10
-48.771144
 20
487.888954
 30
0.0
 40
1.000000000000227
100
AcDbArc
 50
90.0
 51
180.0
  0
LINE
  5
322
330
1F
100
AcDbEntity
  8
LC-001-100-D00-0
 62
     7
370
    50
100
AcDbLine
 10
-49.771144
 20
473.888954
 30
0.0
 11
-49.771144
 21
487.888954
 31
0.0
  0
ARC
  5
323
330
1F
100
AcDbEntity
  8
LC-001-100-D00-0
 62
     7
370
    50
100
AcDbCircle
 10
-50.771144
 20
473.888954
 30
0.0
 40
1.000000000000227
100
AcDbArc
 50
270.0
 51
0.0
  0
LINE
  5
324
330
1F
100
AcDbEntity
  8
LC-001-100-D00-0
 62
     7
370
    50
100
AcDbLine
 10
-50.771144
 20
472.888954
 30
0.0
 11
-53.170279
 21
472.888955
 31
0.0
  0
LINE
  5
325
330
1F
100
AcDbEntity
  8
LC-001-100-D00-0
 62
     7
370
    50
100
AcDbLine
 10
-53.170279
 20
474.888953
 30
0.0
 11
-53.170279
 21
472.888955
 31
0.0
  0
LINE
  5
326
330
1F
100
AcDbEntity
  8
LC-001-100-D00-0
 62
     7
370
    50
100
AcDbLine
 10
-53.821144
 20
474.888954
 30
0.0
 11
-53.170279
 21
474.888953
 31
0.0
  0
ARC
  5
327
330
1F
100
AcDbEntity
  8
LC-001-100-D00-0
 62
     7
370
    50
100
AcDbCircle
 10
-53.821144
 20
475.388954
 30
0.0
 40
0.5
100
AcDbArc
 50
180.0
 51
270.0
  0
LINE
  5
328
330
1F
100
AcDbEntity
  8
LC-001-100-D00-0
 62
     7
370
    50
100
AcDbLine
 10
-54.321144
 20
478.388954
 30
0.0
 11
-54.321144
 21
475.388954
 31
0.0
  0
ARC
  5
329
330
1F
100
AcDbEntity
  8
LC-001-100-D00-0
 62
     7
370
    50
100
AcDbCircle
 10
-53.821144
 20
478.388954
 30
0.0
 40
0.4999999999997726
100
AcDbArc
 50
90.0
 51
180.0
  0
LINE
  5
32A
330
1F
100
AcDbEntity
  8
LC-001-100-D00-0
 62
     7
370
    50
100
AcDbLine
 10
-53.170279
 20
478.888954
 30
0.0
 11
-53.821144
 21
478.888954
 31
0.0
  0
LINE
  5
32B
330
1F
100
AcDbEntity
  8
LC-001-100-D00-0
 62
     7
370
    50
100
AcDbLine
 10
-53.170279
 20
480.888954
 30
0.0
 11
-53.170279
 21
478.888954
 31
0.0
  0
ARC
  5
32C
330
1F
100
AcDbEntity
  8
LC-001-100-D00-0
 62
     7
370
    50
100
AcDbCircle
 10
-70.271144
 20
487.888954
 30
0.0
 40
1.000000000000114
100
AcDbArc
 50
0.0
 51
90.0
  0
ARC
  5
32D
330
1F
100
AcDbEntity
  8
LC-001-100-D00-0
 62
     7
370
    50
100
AcDbCircle
 10
-68.271144
 20
473.888954
 30
0.0
 40
0.9999999999998863
100
AcDbArc
 50
180.0
 51
270.0
  0
LINE
  5
32E
330
1F
100
AcDbEntity
  8
LC-001-100-D00-0
 62
     7
370
    50
100
AcDbLine
 10
-69.271144
 20
487.888954
 30
0.0
 11
-69.271144
 21
473.888954
 31
0.0
  0
LINE
  5
32F
330
1F
100
AcDbEntity
  8
LC-001-100-D00-0
 62
     7
370
    50
100
AcDbLine
 10
-63.421144
 20
491.888954
 30
0.0
 11
-63.421146
 21
480.888954
 31
0.0
  0
LINE
  5
330
330
1F
100
AcDbEntity
  8
LC-001-100-D00-0
 62
     7
370
    50
100
AcDbLine
 10
-63.421144
 20
491.888954
 30
0.0
 11
-55.621144
 21
491.888954
 31
0.0
  0
LINE
  5
331
330
1F
100
AcDbEntity
  8
LC-001-100-D00-0
 62
     7
370
    50
100
AcDbLine
 10
-64.721144
 20
475.388954
 30
0.0
 11
-64.721144
 21
478.388954
 31
0.0
  0
ARC
  5
332
330
1F
100
AcDbEntity
  8
LC-001-100-D00-0
 62
     7
370
    50
100
AcDbCircle
 10
-65.221144
 20
475.388954
 30
0.0
 40
0.4999999999997726
100
AcDbArc
 50
270.0
 51
0.0
  0
LINE
  5
333
330
1F
100
AcDbEntity
  8
LC-001-100-D00-0
 62
     7
370
    50
100
AcDbLine
 10
-65.871999
 20
474.888953
 30
0.0
 11
-65.221144
 21
474.888954
 31
0.0
  0
LINE
  5
334
330
1F
100
AcDbEntity
  8
LC-001-100-D00-0
 62
     7
370
    50
100
AcDbLine
 10
-65.871999
 20
474.888953
 30
0.0
 11
-65.871999
 21
472.888955
 31
0.0
  0
LINE
  5
335
330
1F
100
AcDbEntity
  8
LC-001-100-D00-0
 62
     7
370
    50
100
AcDbLine
 10
-74.771151
 20
488.888954
 30
0.0
 11
-74.771144
 21
484.888954
 31
0.0
  0
LINE
  5
336
330
1F
100
AcDbEntity
  8
LC-001-100-D00-0
 62
     7
370
    50
100
AcDbLine
 10
-77.771143
 20
484.888954
 30
0.0
 11
-77.771144
 21
490.888954
 31
0.0
  0
ARC
  5
337
330
1F
100
AcDbEntity
  8
LC-001-100-D00-0
 62
     7
370
    50
100
AcDbCircle
 10
-76.771144
 20
490.888954
 30
0.0
 40
1.000000000000227
100
AcDbArc
 50
90.0
 51
180.0
  0
LINE
  5
338
330
1F
100
AcDbEntity
  8
LC-001-100-D00-0
 62
     7
370
    50
100
AcDbLine
 10
-65.871999
 20
480.888954
 30
0.0
 11
-65.871999
 21
478.888954
 31
0.0
  0
LINE
  5
339
330
1F
100
AcDbEntity
  8
LC-001-100-D00-0
 62
     7
370
    50
100
AcDbLine
 10
-65.221144
 20
478.888954
 30
0.0
 11
-65.871999
 21
478.888954
 31
0.0
  0
ARC
  5
33A
330
1F
100
AcDbEntity
  8
LC-001-100-D00-0
 62
     7
370
    50
100
AcDbCircle
 10
-65.221144
 20
478.388954
 30
0.0
 40
0.5
100
AcDbArc
 50
0.0
 51
90.0
  0
LINE
  5
33B
330
1F
100
AcDbEntity
  8
LC-001-100-D00-0
 62
     7
370
    50
100
AcDbLine
 10
-65.871999
 20
472.888955
 30
0.0
 11
-68.271144
 21
472.888954
 31
0.0
  0
LINE
  5
33C
330
1F
100
AcDbEntity
  8
LC-001-100-D00-0
 62
     7
370
    50
100
AcDbLine
 10
-63.421146
 20
480.888954
 30
0.0
 11
-65.871999
 21
480.888954
 31
0.0
  0
LINE
  5
33D
330
1F
100
AcDbEntity
  8
LC-001-100-D00-0
 62
     7
370
    50
100
AcDbLine
 10
-74.771151
 20
488.888954
 30
0.0
 11
-70.271144
 21
488.888954
 31
0.0
  0
LINE
  5
33E
330
1F
100
AcDbEntity
  8
LC-001-100-D00-0
 62
     7
370
    50
100
AcDbLine
 10
-76.771144
 20
491.888954
 30
0.0
 11
-63.421144
 21
491.888954
 31
0.0
  0
LINE
  5
33F
330
1F
100
AcDbEntity
  8
LC-001-100-D00-0
 62
     7
370
    50
100
AcDbLine
 10
-77.771143
 20
484.888954
 30
0.0
 11
-74.771144
 21
484.888954
 31
0.0
  0
LINE
  5
340
330
1F
100
AcDbEntity
  8
LC-001-100-D00-0
 62
     7
370
    50
100
AcDbLine
 10
-46.271144
 20
484.888954
 30
0.0
 11
-44.271144
 21
484.888954
 31
0.0
  0
LINE
  5
341
330
1F
100
AcDbEntity
  8
LC-001-100-D00-0
 62
     7
370
    50
100
AcDbLine
 10
-74.771144
 20
484.888954
 30
0.0
 11
-72.771144
 21
484.888954
 31
0.0
  0
LINE
  5
342
330
1F
100
AcDbEntity
  8
LC-001-100-D00-0
 62
     7
370
    50
100
AcDbLine
 10
-72.771144
 20
484.888954
 30
0.0
 11
-69.271133
 21
484.888954
 31
0.0
  0
LINE
  5
343
330
1F
100
AcDbEntity
  8
LC-001-100-D00-0
 62
     7
370
    50
100
AcDbLine
 10
-49.771145
 20
484.888954
 30
0.0
 11
-46.271144
 21
484.888954
 31
0.0
  0
LINE
  5
344
330
1F
100
AcDbEntity
  8
LC-001-100-D00-0
 62
     7
370
    50
100
AcDbLine
 10
-734.321144
 20
475.65772
 30
0.0
 11
-734.321144
 21
478.120188
 31
0.0
  0
ARC
  5
345
330
1F
100
AcDbEntity
  8
LC-001-100-D00-0
 62
     7
370
    50
100
AcDbCircle
 10
-733.721144
 20
475.65772
 30
0.0
 40
0.6000000000001364
100
AcDbArc
 50
180.0
 51
255.0
  0
LINE
  5
346
330
1F
100
AcDbEntity
  8
LC-001-100-D00-0
 62
     7
370
    50
100
AcDbLine
 10
-733.170286
 20
474.888953
 30
0.0
 11
-733.876436
 21
475.078165
 31
0.0
  0
LINE
  5
347
330
1F
100
AcDbEntity
  8
LC-001-100-D00-0
 62
     7
370
    50
100
AcDbLine
 10
-733.170286
 20
474.888953
 30
0.0
 11
-733.170286
 21
472.888955
 31
0.0
  0
LINE
  5
348
330
1F
100
AcDbEntity
  8
LC-001-100-D00-0
 62
     7
370
    50
100
AcDbLine
 10
-736.121144
 20
473.888954
 30
0.0
 11
-735.121144
 21
472.888954
 31
0.0
  0
LINE
  5
349
330
1F
100
AcDbEntity
  8
LC-001-100-D00-0
 62
     7
370
    50
100
AcDbLine
 10
-736.121144
 20
473.888954
 30
0.0
 11
-736.121133
 21
479.888954
 31
0.0
  0
LINE
  5
34A
330
1F
100
AcDbEntity
  8
LC-001-100-D00-0
 62
     7
370
    50
100
AcDbLine
 10
-735.121146
 20
480.888954
 30
0.0
 11
-736.121133
 21
479.888954
 31
0.0
  0
LINE
  5
34B
330
1F
100
AcDbEntity
  8
LC-001-100-D00-0
 62
     7
370
    50
100
AcDbLine
 10
-733.170286
 20
480.888954
 30
0.0
 11
-733.170286
 21
478.888954
 31
0.0
  0
LINE
  5
34C
330
1F
100
AcDbEntity
  8
LC-001-100-D00-0
 62
     7
370
    50
100
AcDbLine
 10
-733.876436
 20
478.699743
 30
0.0
 11
-733.170286
 21
478.888954
 31
0.0
  0
ARC
  5
34D
330
1F
100
AcDbEntity
  8
LC-001-100-D00-0
 62
     7
370
    50
100
AcDbCircle
 10
-733.721144
 20
478.120188
 30
0.0
 40
0.5999999999998983
100
AcDbArc
 50
105.0
 51
180.0
  0
LINE
  5
34E
330
1F
100
AcDbEntity
  8
LC-001-100-D00-0
 62
     7
370
    50
100
AcDbLine
 10
-735.121144
 20
472.888954
 30
0.0
 11
-733.170286
 21
472.888955
 31
0.0
  0
LINE
  5
34F
330
1F
100
AcDbEntity
  8
LC-001-100-D00-0
 62
     7
370
    50
100
AcDbLine
 10
-735.121146
 20
480.888954
 30
0.0
 11
-733.170286
 21
480.888954
 31
0.0
  0
LINE
  5
350
330
1F
100
AcDbEntity
  8
LC-001-100-D00-0
 62
     7
370
    50
100
AcDbLine
 10
-744.721144
 20
478.120188
 30
0.0
 11
-744.721144
 21
475.65772
 31
0.0
  0
LINE
  5
351
330
1F
100
AcDbEntity
  8
LC-001-100-D00-0
 62
     7
370
    50
100
AcDbLine
 10
-742.921159
 20
479.888954
 30
0.0
 11
-743.921146
 21
480.888954
 31
0.0
  0
LINE
  5
352
330
1F
100
AcDbEntity
  8
LC-001-100-D00-0
 62
     7
370
    50
100
AcDbLine
 10
-742.921159
 20
479.888954
 30
0.0
 11
-742.921144
 21
473.888954
 31
0.0
  0
LINE
  5
353
330
1F
100
AcDbEntity
  8
LC-001-100-D00-0
 62
     7
370
    50
100
AcDbLine
 10
-743.921144
 20
472.888954
 30
0.0
 11
-742.921144
 21
473.888954
 31
0.0
  0
LINE
  5
354
330
1F
100
AcDbEntity
  8
LC-001-100-D00-0
 62
     7
370
    50
100
AcDbLine
 10
-745.872006
 20
474.888953
 30
0.0
 11
-745.872006
 21
472.888955
 31
0.0
  0
LINE
  5
355
330
1F
100
AcDbEntity
  8
LC-001-100-D00-0
 62
     7
370
    50
100
AcDbLine
 10
-745.165853
 20
475.078165
 30
0.0
 11
-745.872006
 21
474.888953
 31
0.0
  0
ARC
  5
356
330
1F
100
AcDbEntity
  8
LC-001-100-D00-0
 62
     7
370
    50
100
AcDbCircle
 10
-745.321144
 20
475.65772
 30
0.0
 40
0.600000000000118
100
AcDbArc
 50
285.0
 51
0.0
  0
ARC
  5
357
330
1F
100
AcDbEntity
  8
LC-001-100-D00-0
 62
     7
370
    50
100
AcDbCircle
 10
-745.321144
 20
478.120188
 30
0.0
 40
0.6000000000000227
100
AcDbArc
 50
0.0
 51
75.0
  0
LINE
  5
358
330
1F
100
AcDbEntity
  8
LC-001-100-D00-0
 62
     7
370
    50
100
AcDbLine
 10
-745.872006
 20
478.888954
 30
0.0
 11
-745.165853
 21
478.699743
 31
0.0
  0
LINE
  5
359
330
1F
100
AcDbEntity
  8
LC-001-100-D00-0
 62
     7
370
    50
100
AcDbLine
 10
-745.872006
 20
480.888954
 30
0.0
 11
-745.872006
 21
478.888954
 31
0.0
  0
LINE
  5
35A
330
1F
100
AcDbEntity
  8
LC-001-100-D00-0
 62
     7
370
    50
100
AcDbLine
 10
-745.872006
 20
472.888955
 30
0.0
 11
-743.921144
 21
472.888954
 31
0.0
  0
LINE
  5
35B
330
1F
100
AcDbEntity
  8
LC-001-100-D00-0
 62
     7
370
    50
100
AcDbLine
 10
-745.872006
 20
480.888954
 30
0.0
 11
-743.921146
 21
480.888954
 31
0.0
  0
LINE
  5
35C
330
1F
100
AcDbEntity
  8
LC-001-100-D00-0
 62
     7
370
    50
100
AcDbLine
 10
-742.921144
 20
473.888954
 30
0.0
 11
-742.763305
 21
473.888954
 31
0.0
  0
LINE
  5
35D
330
1F
100
AcDbEntity
  8
LC-001-100-D00-0
 62
     7
370
    50
100
AcDbLine
 10
-736.278984
 20
473.888954
 30
0.0
 11
-736.121144
 21
473.888954
 31
0.0
  0
LINE
  5
35E
330
1F
100
AcDbEntity
  8
LC-001-100-D00-0
 62
     7
370
    50
100
AcDbLine
 10
-735.121144
 20
472.888954
 30
0.0
 11
-735.656926
 21
472.888954
 31
0.0
  0
LINE
  5
35F
330
1F
100
AcDbEntity
  8
LC-001-100-D00-0
 62
     7
370
    50
100
AcDbLine
 10
-743.385363
 20
472.888954
 30
0.0
 11
-743.921144
 21
472.888954
 31
0.0
  0
LINE
  5
360
330
1F
100
AcDbEntity
  8
LC-001-100-D00-0
 62
     7
370
    50
100
AcDbLine
 10
-733.170286
 20
480.888954
 30
0.0
 11
-735.62114
 21
480.888954
 31
0.0
  0
LINE
  5
361
330
1F
100
AcDbEntity
  8
LC-001-100-D00-0
 62
     7
370
    50
100
AcDbLine
 10
-735.62114
 20
480.888954
 30
0.0
 11
-735.621144
 21
491.888954
 31
0.0
  0
LINE
  5
362
330
1F
100
AcDbEntity
  8
LC-001-100-D00-0
 62
     7
370
    50
100
AcDbLine
 10
-735.621144
 20
491.888954
 30
0.0
 11
-722.271144
 21
491.888954
 31
0.0
  0
ARC
  5
363
330
1F
100
AcDbEntity
  8
LC-001-100-D00-0
 62
     7
370
    50
100
AcDbCircle
 10
-722.271144
 20
490.888954
 30
0.0
 40
1.0
100
AcDbArc
 50
0.0
 51
90.0
  0
LINE
  5
364
330
1F
100
AcDbEntity
  8
LC-001-100-D00-0
 62
     7
370
    50
100
AcDbLine
 10
-721.271144
 20
490.888954
 30
0.0
 11
-721.271143
 21
484.888954
 31
0.0
  0
LINE
  5
365
330
1F
100
AcDbEntity
  8
LC-001-100-D00-0
 62
     7
370
    50
100
AcDbLine
 10
-724.271144
 20
484.888954
 30
0.0
 11
-721.271143
 21
484.888954
 31
0.0
  0
LINE
  5
366
330
1F
100
AcDbEntity
  8
LC-001-100-D00-0
 62
     7
370
    50
100
AcDbLine
 10
-724.271144
 20
484.888954
 30
0.0
 11
-724.271134
 21
488.888954
 31
0.0
  0
LINE
  5
367
330
1F
100
AcDbEntity
  8
LC-001-100-D00-0
 62
     7
370
    50
100
AcDbLine
 10
-728.771144
 20
488.888954
 30
0.0
 11
-724.271134
 21
488.888954
 31
0.0
  0
ARC
  5
368
330
1F
100
AcDbEntity
  8
LC-001-100-D00-0
 62
     7
370
    50
100
AcDbCircle
 10
-728.771144
 20
487.888954
 30
0.0
 40
1.000000000000227
100
AcDbArc
 50
90.0
 51
180.0
  0
LINE
  5
369
330
1F
100
AcDbEntity
  8
LC-001-100-D00-0
 62
     7
370
    50
100
AcDbLine
 10
-729.771144
 20
473.888954
 30
0.0
 11
-729.771144
 21
487.888954
 31
0.0
  0
ARC
  5
36A
330
1F
100
AcDbEntity
  8
LC-001-100-D00-0
 62
     7
370
    50
100
AcDbCircle
 10
-730.771144
 20
473.888954
 30
0.0
 40
1.000000000000227
100
AcDbArc
 50
270.0
 51
0.0
  0
LINE
  5
36B
330
1F
100
AcDbEntity
  8
LC-001-100-D00-0
 62
     7
370
    50
100
AcDbLine
 10
-730.771144
 20
472.888954
 30
0.0
 11
-733.170286
 21
472.888955
 31
0.0
  0
LINE
  5
36C
330
1F
100
AcDbEntity
  8
LC-001-100-D00-0
 62
     7
370
    50
100
AcDbLine
 10
-733.170286
 20
474.888953
 30
0.0
 11
-733.170286
 21
472.888955
 31
0.0
  0
LINE
  5
36D
330
1F
100
AcDbEntity
  8
LC-001-100-D00-0
 62
     7
370
    50
100
AcDbLine
 10
-733.821144
 20
474.888954
 30
0.0
 11
-733.170286
 21
474.888953
 31
0.0
  0
ARC
  5
36E
330
1F
100
AcDbEntity
  8
LC-001-100-D00-0
 62
     7
370
    50
100
AcDbCircle
 10
-733.821144
 20
475.388954
 30
0.0
 40
0.5
100
AcDbArc
 50
180.0
 51
270.0
  0
LINE
  5
36F
330
1F
100
AcDbEntity
  8
LC-001-100-D00-0
 62
     7
370
    50
100
AcDbLine
 10
-734.321144
 20
478.388954
 30
0.0
 11
-734.321144
 21
475.388954
 31
0.0
  0
ARC
  5
370
330
1F
100
AcDbEntity
  8
LC-001-100-D00-0
 62
     7
370
    50
100
AcDbCircle
 10
-733.821144
 20
478.388954
 30
0.0
 40
0.5
100
AcDbArc
 50
90.0
 51
180.0
  0
LINE
  5
371
330
1F
100
AcDbEntity
  8
LC-001-100-D00-0
 62
     7
370
    50
100
AcDbLine
 10
-733.170286
 20
478.888954
 30
0.0
 11
-733.821144
 21
478.888954
 31
0.0
  0
LINE
  5
372
330
1F
100
AcDbEntity
  8
LC-001-100-D00-0
 62
     7
370
    50
100
AcDbLine
 10
-733.170286
 20
480.888954
 30
0.0
 11
-733.170286
 21
478.888954
 31
0.0
  0
ARC
  5
373
330
1F
100
AcDbEntity
  8
LC-001-100-D00-0
 62
     7
370
    50
100
AcDbCircle
 10
-750.271144
 20
487.888954
 30
0.0
 40
1.000000000000227
100
AcDbArc
 50
0.0
 51
90.0
  0
ARC
  5
374
330
1F
100
AcDbEntity
  8
LC-001-100-D00-0
 62
     7
370
    50
100
AcDbCircle
 10
-748.271144
 20
473.888954
 30
0.0
 40
1.000000000000227
100
AcDbArc
 50
180.0
 51
270.0
  0
LINE
  5
375
330
1F
100
AcDbEntity
  8
LC-001-100-D00-0
 62
     7
370
    50
100
AcDbLine
 10
-749.271144
 20
487.888954
 30
0.0
 11
-749.271144
 21
473.888954
 31
0.0
  0
LINE
  5
376
330
1F
100
AcDbEntity
  8
LC-001-100-D00-0
 62
     7
370
    50
100
AcDbLine
 10
-744.721144
 20
475.388954
 30
0.0
 11
-744.721144
 21
478.388954
 31
0.0
  0
LINE
  5
377
330
1F
100
AcDbEntity
  8
LC-001-100-D00-0
 62
     7
370
    50
100
AcDbLine
 10
-743.421144
 20
491.888954
 30
0.0
 11
-743.421153
 21
480.888954
 31
0.0
  0
LINE
  5
378
330
1F
100
AcDbEntity
  8
LC-001-100-D00-0
 62
     7
370
    50
100
AcDbLine
 10
-743.421144
 20
491.888954
 30
0.0
 11
-735.621144
 21
491.888954
 31
0.0
  0
LINE
  5
379
330
1F
100
AcDbEntity
  8
LC-001-100-D00-0
 62
     7
370
    50
100
AcDbLine
 10
-745.872006
 20
474.888953
 30
0.0
 11
-745.872006
 21
472.888955
 31
0.0
  0
LINE
  5
37A
330
1F
100
AcDbEntity
  8
LC-001-100-D00-0
 62
     7
370
    50
100
AcDbLine
 10
-745.872006
 20
480.888954
 30
0.0
 11
-745.872006
 21
478.888954
 31
0.0
  0
ARC
  5
37B
330
1F
100
AcDbEntity
  8
LC-001-100-D00-0
 62
     7
370
    50
100
AcDbCircle
 10
-745.221144
 20
475.388954
 30
0.0
 40
0.5
100
AcDbArc
 50
270.0
 51
0.0
  0
LINE
  5
37C
330
1F
100
AcDbEntity
  8
LC-001-100-D00-0
 62
     7
370
    50
100
AcDbLine
 10
-745.872006
 20
474.888953
 30
0.0
 11
-745.221144
 21
474.888954
 31
0.0
  0
LINE
  5
37D
330
1F
100
AcDbEntity
  8
LC-001-100-D00-0
 62
     7
370
    50
100
AcDbLine
 10
-754.771159
 20
488.888954
 30
0.0
 11
-754.771144
 21
484.888954
 31
0.0
  0
LINE
  5
37E
330
1F
100
AcDbEntity
  8
LC-001-100-D00-0
 62
     7
370
    50
100
AcDbLine
 10
-757.77115
 20
484.888954
 30
0.0
 11
-757.771144
 21
490.888954
 31
0.0
  0
ARC
  5
37F
330
1F
100
AcDbEntity
  8
LC-001-100-D00-0
 62
     7
370
    50
100
AcDbCircle
 10
-756.771144
 20
490.888954
 30
0.0
 40
1.0
100
AcDbArc
 50
90.0
 51
180.0
  0
LINE
  5
380
330
1F
100
AcDbEntity
  8
LC-001-100-D00-0
 62
     7
370
    50
100
AcDbLine
 10
-745.221144
 20
478.888954
 30
0.0
 11
-745.872006
 21
478.888954
 31
0.0
  0
ARC
  5
381
330
1F
100
AcDbEntity
  8
LC-001-100-D00-0
 62
     7
370
    50
100
AcDbCircle
 10
-745.221144
 20
478.388954
 30
0.0
 40
0.5
100
AcDbArc
 50
0.0
 51
90.0
  0
LINE
  5
382
330
1F
100
AcDbEntity
  8
LC-001-100-D00-0
 62
     7
370
    50
100
AcDbLine
 10
-743.421153
 20
480.888954
 30
0.0
 11
-745.872006
 21
480.888954
 31
0.0
  0
LINE
  5
383
330
1F
100
AcDbEntity
  8
LC-001-100-D00-0
 62
     7
370
    50
100
AcDbLine
 10
-745.872006
 20
472.888955
 30
0.0
 11
-748.271144
 21
472.888954
 31
0.0
  0
LINE
  5
384
330
1F
100
AcDbEntity
  8
LC-001-100-D00-0
 62
     7
370
    50
100
AcDbLine
 10
-757.77115
 20
484.888954
 30
0.0
 11
-754.771144
 21
484.888954
 31
0.0
  0
LINE
  5
385
330
1F
100
AcDbEntity
  8
LC-001-100-D00-0
 62
     7
370
    50
100
AcDbLine
 10
-754.771159
 20
488.888954
 30
0.0
 11
-750.271144
 21
488.888954
 31
0.0
  0
LINE
  5
386
330
1F
100
AcDbEntity
  8
LC-001-100-D00-0
 62
     7
370
    50
100
AcDbLine
 10
-756.771144
 20
491.888954
 30
0.0
 11
-743.421144
 21
491.888954
 31
0.0
  0
LINE
  5
387
330
1F
100
AcDbEntity
  8
LC-001-100-D00-0
 62
     7
370
    50
100
AcDbLine
 10
-726.271144
 20
484.888954
 30
0.0
 11
-724.271144
 21
484.888954
 31
0.0
  0
LINE
  5
388
330
1F
100
AcDbEntity
  8
LC-001-100-D00-0
 62
     7
370
    50
100
AcDbLine
 10
-754.771144
 20
484.888954
 30
0.0
 11
-752.771144
 21
484.888954
 31
0.0
  0
LINE
  5
389
330
1F
100
AcDbEntity
  8
LC-001-100-D00-0
 62
     7
370
    50
100
AcDbLine
 10
-752.771144
 20
484.888954
 30
0.0
 11
-749.27114
 21
484.888954
 31
0.0
  0
LINE
  5
38A
330
1F
100
AcDbEntity
  8
LC-001-100-D00-0
 62
     7
370
    50
100
AcDbLine
 10
-729.771153
 20
484.888954
 30
0.0
 11
-726.271144
 21
484.888954
 31
0.0
  0
LINE
  5
38B
330
1F
100
AcDbEntity
  8
LC-001-100-D00-0
 62
     7
370
    50
100
AcDbLine
 10
-574.321144
 20
475.65772
 30
0.0
 11
-574.321144
 21
478.120188
 31
0.0
  0
ARC
  5
38C
330
1F
100
AcDbEntity
  8
LC-001-100-D00-0
 62
     7
370
    50
100
AcDbCircle
 10
-573.721144
 20
475.65772
 30
0.0
 40
0.6000000000000227
100
AcDbArc
 50
180.0
 51
255.0
  0
LINE
  5
38D
330
1F
100
AcDbEntity
  8
LC-001-100-D00-0
 62
     7
370
    50
100
AcDbLine
 10
-573.17029
 20
474.888953
 30
0.0
 11
-573.876436
 21
475.078165
 31
0.0
  0
LINE
  5
38E
330
1F
100
AcDbEntity
  8
LC-001-100-D00-0
 62
     7
370
    50
100
AcDbLine
 10
-573.17029
 20
474.888953
 30
0.0
 11
-573.17029
 21
472.888955
 31
0.0
  0
LINE
  5
38F
330
1F
100
AcDbEntity
  8
LC-001-100-D00-0
 62
     7
370
    50
100
AcDbLine
 10
-575.121144
 20
472.888954
 30
0.0
 11
-573.17029
 21
472.888955
 31
0.0
  0
LINE
  5
390
330
1F
100
AcDbEntity
  8
LC-001-100-D00-0
 62
     7
370
    50
100
AcDbLine
 10
-576.121144
 20
473.888954
 30
0.0
 11
-575.121144
 21
472.888954
 31
0.0
  0
LINE
  5
391
330
1F
100
AcDbEntity
  8
LC-001-100-D00-0
 62
     7
370
    50
100
AcDbLine
 10
-576.121144
 20
473.888954
 30
0.0
 11
-576.121137
 21
479.888954
 31
0.0
  0
LINE
  5
392
330
1F
100
AcDbEntity
  8
LC-001-100-D00-0
 62
     7
370
    50
100
AcDbLine
 10
-575.12115
 20
480.888954
 30
0.0
 11
-576.121137
 21
479.888954
 31
0.0
  0
LINE
  5
393
330
1F
100
AcDbEntity
  8
LC-001-100-D00-0
 62
     7
370
    50
100
AcDbLine
 10
-573.17029
 20
480.888954
 30
0.0
 11
-573.17029
 21
478.888954
 31
0.0
  0
LINE
  5
394
330
1F
100
AcDbEntity
  8
LC-001-100-D00-0
 62
     7
370
    50
100
AcDbLine
 10
-573.876436
 20
478.699743
 30
0.0
 11
-573.17029
 21
478.888954
 31
0.0
  0
ARC
  5
395
330
1F
100
AcDbEntity
  8
LC-001-100-D00-0
 62
     7
370
    50
100
AcDbCircle
 10
-573.721144
 20
478.120188
 30
0.0
 40
0.5999999999998689
100
AcDbArc
 50
105.0
 51
180.0
  0
LINE
  5
396
330
1F
100
AcDbEntity
  8
LC-001-100-D00-0
 62
     7
370
    50
100
AcDbLine
 10
-575.12115
 20
480.888954
 30
0.0
 11
-573.17029
 21
480.888954
 31
0.0
  0
LINE
  5
397
330
1F
100
AcDbEntity
  8
LC-001-100-D00-0
 62
     7
370
    50
100
AcDbLine
 10
-582.921133
 20
479.888954
 30
0.0
 11
-583.92115
 21
480.888954
 31
0.0
  0
LINE
  5
398
330
1F
100
AcDbEntity
  8
LC-001-100-D00-0
 62
     7
370
    50
100
AcDbLine
 10
-583.921144
 20
472.888954
 30
0.0
 11
-582.921144
 21
473.888954
 31
0.0
  0
LINE
  5
399
330
1F
100
AcDbEntity
  8
LC-001-100-D00-0
 62
     7
370
    50
100
AcDbLine
 10
-582.921144
 20
473.888954
 30
0.0
 11
-582.763305
 21
473.888954
 31
0.0
  0
LINE
  5
39A
330
1F
100
AcDbEntity
  8
LC-001-100-D00-0
 62
     7
370
    50
100
AcDbLine
 10
-576.278984
 20
473.888954
 30
0.0
 11
-576.121144
 21
473.888954
 31
0.0
  0
LINE
  5
39B
330
1F
100
AcDbEntity
  8
LC-001-100-D00-0
 62
     7
370
    50
100
AcDbLine
 10
-575.121144
 20
472.888954
 30
0.0
 11
-575.656926
 21
472.888954
 31
0.0
  0
LINE
  5
39C
330
1F
100
AcDbEntity
  8
LC-001-100-D00-0
 62
     7
370
    50
100
AcDbLine
 10
-583.385363
 20
472.888954
 30
0.0
 11
-583.921144
 21
472.888954
 31
0.0
  0
LINE
  5
39D
330
1F
100
AcDbEntity
  8
LC-001-100-D00-0
 62
     7
370
    50
100
AcDbLine
 10
-582.921133
 20
479.888954
 30
0.0
 11
-582.921144
 21
473.888954
 31
0.0
  0
LINE
  5
39E
330
1F
100
AcDbEntity
  8
LC-001-100-D00-0
 62
     7
370
    50
100
AcDbLine
 10
-584.721144
 20
478.120188
 30
0.0
 11
-584.721144
 21
475.65772
 31
0.0
  0
LINE
  5
39F
330
1F
100
AcDbEntity
  8
LC-001-100-D00-0
 62
     7
370
    50
100
AcDbLine
 10
-585.87201
 20
474.888953
 30
0.0
 11
-585.87201
 21
472.888955
 31
0.0
  0
LINE
  5
3A0
330
1F
100
AcDbEntity
  8
LC-001-100-D00-0
 62
     7
370
    50
100
AcDbLine
 10
-585.165853
 20
475.078165
 30
0.0
 11
-585.87201
 21
474.888953
 31
0.0
  0
ARC
  5
3A1
330
1F
100
AcDbEntity
  8
LC-001-100-D00-0
 62
     7
370
    50
100
AcDbCircle
 10
-585.321144
 20
475.65772
 30
0.0
 40
0.600000000000118
100
AcDbArc
 50
285.0
 51
0.0
  0
ARC
  5
3A2
330
1F
100
AcDbEntity
  8
LC-001-100-D00-0
 62
     7
370
    50
100
AcDbCircle
 10
-585.321144
 20
478.120188
 30
0.0
 40
0.6000000000000227
100
AcDbArc
 50
0.0
 51
75.0
  0
LINE
  5
3A3
330
1F
100
AcDbEntity
  8
LC-001-100-D00-0
 62
     7
370
    50
100
AcDbLine
 10
-585.87201
 20
478.888954
 30
0.0
 11
-585.165853
 21
478.699743
 31
0.0
  0
LINE
  5
3A4
330
1F
100
AcDbEntity
  8
LC-001-100-D00-0
 62
     7
370
    50
100
AcDbLine
 10
-585.87201
 20
480.888954
 30
0.0
 11
-585.87201
 21
478.888954
 31
0.0
  0
LINE
  5
3A5
330
1F
100
AcDbEntity
  8
LC-001-100-D00-0
 62
     7
370
    50
100
AcDbLine
 10
-585.87201
 20
472.888955
 30
0.0
 11
-583.921144
 21
472.888954
 31
0.0
  0
LINE
  5
3A6
330
1F
100
AcDbEntity
  8
LC-001-100-D00-0
 62
     7
370
    50
100
AcDbLine
 10
-585.87201
 20
480.888954
 30
0.0
 11
-583.92115
 21
480.888954
 31
0.0
  0
LINE
  5
3A7
330
1F
100
AcDbEntity
  8
LC-001-100-D00-0
 62
     7
370
    50
100
AcDbLine
 10
-573.17029
 20
480.888954
 30
0.0
 11
-575.621143
 21
480.888954
 31
0.0
  0
LINE
  5
3A8
330
1F
100
AcDbEntity
  8
LC-001-100-D00-0
 62
     7
370
    50
100
AcDbLine
 10
-575.621143
 20
480.888954
 30
0.0
 11
-575.621144
 21
491.888954
 31
0.0
  0
LINE
  5
3A9
330
1F
100
AcDbEntity
  8
LC-001-100-D00-0
 62
     7
370
    50
100
AcDbLine
 10
-575.621144
 20
491.888954
 30
0.0
 11
-562.271144
 21
491.888954
 31
0.0
  0
ARC
  5
3AA
330
1F
100
AcDbEntity
  8
LC-001-100-D00-0
 62
     7
370
    50
100
AcDbCircle
 10
-562.271144
 20
490.888954
 30
0.0
 40
1.000000000000227
100
AcDbArc
 50
0.0
 51
90.0
  0
LINE
  5
3AB
330
1F
100
AcDbEntity
  8
LC-001-100-D00-0
 62
     7
370
    50
100
AcDbLine
 10
-561.271144
 20
490.888954
 30
0.0
 11
-561.271146
 21
484.888954
 31
0.0
  0
LINE
  5
3AC
330
1F
100
AcDbEntity
  8
LC-001-100-D00-0
 62
     7
370
    50
100
AcDbLine
 10
-564.271144
 20
484.888954
 30
0.0
 11
-561.271146
 21
484.888954
 31
0.0
  0
LINE
  5
3AD
330
1F
100
AcDbEntity
  8
LC-001-100-D00-0
 62
     7
370
    50
100
AcDbLine
 10
-564.271144
 20
484.888954
 30
0.0
 11
-564.271138
 21
488.888954
 31
0.0
  0
LINE
  5
3AE
330
1F
100
AcDbEntity
  8
LC-001-100-D00-0
 62
     7
370
    50
100
AcDbLine
 10
-568.771144
 20
488.888954
 30
0.0
 11
-564.271138
 21
488.888954
 31
0.0
  0
ARC
  5
3AF
330
1F
100
AcDbEntity
  8
LC-001-100-D00-0
 62
     7
370
    50
100
AcDbCircle
 10
-568.771144
 20
487.888954
 30
0.0
 40
1.000000000000227
100
AcDbArc
 50
90.0
 51
180.0
  0
LINE
  5
3B0
330
1F
100
AcDbEntity
  8
LC-001-100-D00-0
 62
     7
370
    50
100
AcDbLine
 10
-569.771144
 20
473.888954
 30
0.0
 11
-569.771144
 21
487.888954
 31
0.0
  0
ARC
  5
3B1
330
1F
100
AcDbEntity
  8
LC-001-100-D00-0
 62
     7
370
    50
100
AcDbCircle
 10
-570.771144
 20
473.888954
 30
0.0
 40
1.000000000000227
100
AcDbArc
 50
270.0
 51
0.0
  0
LINE
  5
3B2
330
1F
100
AcDbEntity
  8
LC-001-100-D00-0
 62
     7
370
    50
100
AcDbLine
 10
-570.771144
 20
472.888954
 30
0.0
 11
-573.17029
 21
472.888955
 31
0.0
  0
LINE
  5
3B3
330
1F
100
AcDbEntity
  8
LC-001-100-D00-0
 62
     7
370
    50
100
AcDbLine
 10
-573.17029
 20
474.888953
 30
0.0
 11
-573.17029
 21
472.888955
 31
0.0
  0
LINE
  5
3B4
330
1F
100
AcDbEntity
  8
LC-001-100-D00-0
 62
     7
370
    50
100
AcDbLine
 10
-573.821144
 20
474.888954
 30
0.0
 11
-573.17029
 21
474.888953
 31
0.0
  0
ARC
  5
3B5
330
1F
100
AcDbEntity
  8
LC-001-100-D00-0
 62
     7
370
    50
100
AcDbCircle
 10
-573.821144
 20
475.388954
 30
0.0
 40
0.4999999999998863
100
AcDbArc
 50
180.0
 51
270.0
  0
LINE
  5
3B6
330
1F
100
AcDbEntity
  8
LC-001-100-D00-0
 62
     7
370
    50
100
AcDbLine
 10
-574.321144
 20
478.388954
 30
0.0
 11
-574.321144
 21
475.388954
 31
0.0
  0
ARC
  5
3B7
330
1F
100
AcDbEntity
  8
LC-001-100-D00-0
 62
     7
370
    50
100
AcDbCircle
 10
-573.821144
 20
478.388954
 30
0.0
 40
0.4999999999997726
100
AcDbArc
 50
90.0
 51
180.0
  0
LINE
  5
3B8
330
1F
100
AcDbEntity
  8
LC-001-100-D00-0
 62
     7
370
    50
100
AcDbLine
 10
-573.17029
 20
478.888954
 30
0.0
 11
-573.821144
 21
478.888954
 31
0.0
  0
LINE
  5
3B9
330
1F
100
AcDbEntity
  8
LC-001-100-D00-0
 62
     7
370
    50
100
AcDbLine
 10
-573.17029
 20
480.888954
 30
0.0
 11
-573.17029
 21
478.888954
 31
0.0
  0
ARC
  5
3BA
330
1F
100
AcDbEntity
  8
LC-001-100-D00-0
 62
     7
370
    50
100
AcDbCircle
 10
-590.271144
 20
487.888954
 30
0.0
 40
1.000000000000227
100
AcDbArc
 50
0.0
 51
90.0
  0
ARC
  5
3BB
330
1F
100
AcDbEntity
  8
LC-001-100-D00-0
 62
     7
370
    50
100
AcDbCircle
 10
-588.271144
 20
473.888954
 30
0.0
 40
1.000000000000227
100
AcDbArc
 50
180.0
 51
270.0
  0
LINE
  5
3BC
330
1F
100
AcDbEntity
  8
LC-001-100-D00-0
 62
     7
370
    50
100
AcDbLine
 10
-589.271144
 20
487.888954
 30
0.0
 11
-589.271144
 21
473.888954
 31
0.0
  0
LINE
  5
3BD
330
1F
100
AcDbEntity
  8
LC-001-100-D00-0
 62
     7
370
    50
100
AcDbLine
 10
-583.421144
 20
491.888954
 30
0.0
 11
-583.421156
 21
480.888954
 31
0.0
  0
LINE
  5
3BE
330
1F
100
AcDbEntity
  8
LC-001-100-D00-0
 62
     7
370
    50
100
AcDbLine
 10
-583.421144
 20
491.888954
 30
0.0
 11
-575.621144
 21
491.888954
 31
0.0
  0
LINE
  5
3BF
330
1F
100
AcDbEntity
  8
LC-001-100-D00-0
 62
     7
370
    50
100
AcDbLine
 10
-584.721144
 20
475.388954
 30
0.0
 11
-584.721144
 21
478.388954
 31
0.0
  0
ARC
  5
3C0
330
1F
100
AcDbEntity
  8
LC-001-100-D00-0
 62
     7
370
    50
100
AcDbCircle
 10
-585.221144
 20
475.388954
 30
0.0
 40
0.4999999999997726
100
AcDbArc
 50
270.0
 51
0.0
  0
LINE
  5
3C1
330
1F
100
AcDbEntity
  8
LC-001-100-D00-0
 62
     7
370
    50
100
AcDbLine
 10
-585.87201
 20
474.888953
 30
0.0
 11
-585.221144
 21
474.888954
 31
0.0
  0
LINE
  5
3C2
330
1F
100
AcDbEntity
  8
LC-001-100-D00-0
 62
     7
370
    50
100
AcDbLine
 10
-585.87201
 20
474.888953
 30
0.0
 11
-585.87201
 21
472.888955
 31
0.0
  0
LINE
  5
3C3
330
1F
100
AcDbEntity
  8
LC-001-100-D00-0
 62
     7
370
    50
100
AcDbLine
 10
-594.771132
 20
488.888954
 30
0.0
 11
-594.771144
 21
484.888954
 31
0.0
  0
LINE
  5
3C4
330
1F
100
AcDbEntity
  8
LC-001-100-D00-0
 62
     7
370
    50
100
AcDbLine
 10
-597.771153
 20
484.888954
 30
0.0
 11
-597.771144
 21
490.888954
 31
0.0
  0
ARC
  5
3C5
330
1F
100
AcDbEntity
  8
LC-001-100-D00-0
 62
     7
370
    50
100
AcDbCircle
 10
-596.771144
 20
490.888954
 30
0.0
 40
1.000000000000227
100
AcDbArc
 50
90.0
 51
180.0
  0
LINE
  5
3C6
330
1F
100
AcDbEntity
  8
LC-001-100-D00-0
 62
     7
370
    50
100
AcDbLine
 10
-585.87201
 20
480.888954
 30
0.0
 11
-585.87201
 21
478.888954
 31
0.0
  0
LINE
  5
3C7
330
1F
100
AcDbEntity
  8
LC-001-100-D00-0
 62
     7
370
    50
100
AcDbLine
 10
-585.221144
 20
478.888954
 30
0.0
 11
-585.87201
 21
478.888954
 31
0.0
  0
ARC
  5
3C8
330
1F
100
AcDbEntity
  8
LC-001-100-D00-0
 62
     7
370
    50
100
AcDbCircle
 10
-585.221144
 20
478.388954
 30
0.0
 40
0.4999999999998863
100
AcDbArc
 50
0.0
 51
90.0
  0
LINE
  5
3C9
330
1F
100
AcDbEntity
  8
LC-001-100-D00-0
 62
     7
370
    50
100
AcDbLine
 10
-585.87201
 20
472.888955
 30
0.0
 11
-588.271144
 21
472.888954
 31
0.0
  0
LINE
  5
3CA
330
1F
100
AcDbEntity
  8
LC-001-100-D00-0
 62
     7
370
    50
100
AcDbLine
 10
-583.421156
 20
480.888954
 30
0.0
 11
-585.87201
 21
480.888954
 31
0.0
  0
LINE
  5
3CB
330
1F
100
AcDbEntity
  8
LC-001-100-D00-0
 62
     7
370
    50
100
AcDbLine
 10
-594.771132
 20
488.888954
 30
0.0
 11
-590.271144
 21
488.888954
 31
0.0
  0
LINE
  5
3CC
330
1F
100
AcDbEntity
  8
LC-001-100-D00-0
 62
     7
370
    50
100
AcDbLine
 10
-596.771144
 20
491.888954
 30
0.0
 11
-583.421144
 21
491.888954
 31
0.0
  0
LINE
  5
3CD
330
1F
100
AcDbEntity
  8
LC-001-100-D00-0
 62
     7
370
    50
100
AcDbLine
 10
-597.771153
 20
484.888954
 30
0.0
 11
-594.771144
 21
484.888954
 31
0.0
  0
LINE
  5
3CE
330
1F
100
AcDbEntity
  8
LC-001-100-D00-0
 62
     7
370
    50
100
AcDbLine
 10
-566.271144
 20
484.888954
 30
0.0
 11
-564.271144
 21
484.888954
 31
0.0
  0
LINE
  5
3CF
330
1F
100
AcDbEntity
  8
LC-001-100-D00-0
 62
     7
370
    50
100
AcDbLine
 10
-594.771144
 20
484.888954
 30
0.0
 11
-592.771144
 21
484.888954
 31
0.0
  0
LINE
  5
3D0
330
1F
100
AcDbEntity
  8
LC-001-100-D00-0
 62
     7
370
    50
100
AcDbLine
 10
-592.771144
 20
484.888954
 30
0.0
 11
-589.271144
 21
484.888954
 31
0.0
  0
LINE
  5
3D1
330
1F
100
AcDbEntity
  8
LC-001-100-D00-0
 62
     7
370
    50
100
AcDbLine
 10
-569.771156
 20
484.888954
 30
0.0
 11
-566.271144
 21
484.888954
 31
0.0
  0
LINE
  5
3D2
330
1F
100
AcDbEntity
  8
LC-001-100-D00-0
 62
     7
370
    50
100
AcDbLine
 10
105.678856
 20
475.65772
 30
0.0
 11
105.678856
 21
478.120188
 31
0.0
  0
ARC
  5
3D3
330
1F
100
AcDbEntity
  8
LC-001-100-D00-0
 62
     7
370
    50
100
AcDbCircle
 10
106.278856
 20
475.65772
 30
0.0
 40
0.6000000000000227
100
AcDbArc
 50
180.0
 51
255.0
  0
LINE
  5
3D4
330
1F
100
AcDbEntity
  8
LC-001-100-D00-0
 62
     7
370
    50
100
AcDbLine
 10
106.829717
 20
474.888953
 30
0.0
 11
106.123564
 21
475.078165
 31
0.0
  0
LINE
  5
3D5
330
1F
100
AcDbEntity
  8
LC-001-100-D00-0
 62
     7
370
    50
100
AcDbLine
 10
106.829717
 20
474.888953
 30
0.0
 11
106.829717
 21
472.888955
 31
0.0
  0
LINE
  5
3D6
330
1F
100
AcDbEntity
  8
LC-001-100-D00-0
 62
     7
370
    50
100
AcDbLine
 10
103.878856
 20
473.888954
 30
0.0
 11
104.878856
 21
472.888954
 31
0.0
  0
LINE
  5
3D7
330
1F
100
AcDbEntity
  8
LC-001-100-D00-0
 62
     7
370
    50
100
AcDbLine
 10
103.878856
 20
473.888954
 30
0.0
 11
103.87887
 21
479.888954
 31
0.0
  0
LINE
  5
3D8
330
1F
100
AcDbEntity
  8
LC-001-100-D00-0
 62
     7
370
    50
100
AcDbLine
 10
104.878857
 20
480.888954
 30
0.0
 11
103.87887
 21
479.888954
 31
0.0
  0
LINE
  5
3D9
330
1F
100
AcDbEntity
  8
LC-001-100-D00-0
 62
     7
370
    50
100
AcDbLine
 10
106.829717
 20
480.888954
 30
0.0
 11
106.829717
 21
478.888954
 31
0.0
  0
LINE
  5
3DA
330
1F
100
AcDbEntity
  8
LC-001-100-D00-0
 62
     7
370
    50
100
AcDbLine
 10
106.123564
 20
478.699743
 30
0.0
 11
106.829717
 21
478.888954
 31
0.0
  0
ARC
  5
3DB
330
1F
100
AcDbEntity
  8
LC-001-100-D00-0
 62
     7
370
    50
100
AcDbCircle
 10
106.278856
 20
478.120188
 30
0.0
 40
0.5999999999998983
100
AcDbArc
 50
105.0
 51
180.0
  0
LINE
  5
3DC
330
1F
100
AcDbEntity
  8
LC-001-100-D00-0
 62
     7
370
    50
100
AcDbLine
 10
104.878856
 20
472.888954
 30
0.0
 11
106.829717
 21
472.888955
 31
0.0
  0
LINE
  5
3DD
330
1F
100
AcDbEntity
  8
LC-001-100-D00-0
 62
     7
370
    50
100
AcDbLine
 10
104.878857
 20
480.888954
 30
0.0
 11
106.829717
 21
480.888954
 31
0.0
  0
LINE
  5
3DE
330
1F
100
AcDbEntity
  8
LC-001-100-D00-0
 62
     7
370
    50
100
AcDbLine
 10
95.278856
 20
478.120188
 30
0.0
 11
95.278856
 21
475.65772
 31
0.0
  0
LINE
  5
3DF
330
1F
100
AcDbEntity
  8
LC-001-100-D00-0
 62
     7
370
    50
100
AcDbLine
 10
97.078844
 20
479.888954
 30
0.0
 11
96.078857
 21
480.888954
 31
0.0
  0
LINE
  5
3E0
330
1F
100
AcDbEntity
  8
LC-001-100-D00-0
 62
     7
370
    50
100
AcDbLine
 10
97.078844
 20
479.888954
 30
0.0
 11
97.078856
 21
473.888954
 31
0.0
  0
LINE
  5
3E1
330
1F
100
AcDbEntity
  8
LC-001-100-D00-0
 62
     7
370
    50
100
AcDbLine
 10
96.078856
 20
472.888954
 30
0.0
 11
97.078856
 21
473.888954
 31
0.0
  0
LINE
  5
3E2
330
1F
100
AcDbEntity
  8
LC-001-100-D00-0
 62
     7
370
    50
100
AcDbLine
 10
94.127997
 20
474.888953
 30
0.0
 11
94.127997
 21
472.888955
 31
0.0
  0
LINE
  5
3E3
330
1F
100
AcDbEntity
  8
LC-001-100-D00-0
 62
     7
370
    50
100
AcDbLine
 10
94.834147
 20
475.078165
 30
0.0
 11
94.127997
 21
474.888953
 31
0.0
  0
ARC
  5
3E4
330
1F
100
AcDbEntity
  8
LC-001-100-D00-0
 62
     7
370
    50
100
AcDbCircle
 10
94.678856
 20
475.65772
 30
0.0
 40
0.6000000000003376
100
AcDbArc
 50
285.0
 51
0.0
  0
ARC
  5
3E5
330
1F
100
AcDbEntity
  8
LC-001-100-D00-0
 62
     7
370
    50
100
AcDbCircle
 10
94.678856
 20
478.120188
 30
0.0
 40
0.6000000000001364
100
AcDbArc
 50
0.0
 51
75.0
  0
LINE
  5
3E6
330
1F
100
AcDbEntity
  8
LC-001-100-D00-0
 62
     7
370
    50
100
AcDbLine
 10
94.127997
 20
478.888954
 30
0.0
 11
94.834147
 21
478.699743
 31
0.0
  0
LINE
  5
3E7
330
1F
100
AcDbEntity
  8
LC-001-100-D00-0
 62
     7
370
    50
100
AcDbLine
 10
94.127997
 20
480.888954
 30
0.0
 11
94.127997
 21
478.888954
 31
0.0
  0
LINE
  5
3E8
330
1F
100
AcDbEntity
  8
LC-001-100-D00-0
 62
     7
370
    50
100
AcDbLine
 10
94.127997
 20
472.888955
 30
0.0
 11
96.078856
 21
472.888954
 31
0.0
  0
LINE
  5
3E9
330
1F
100
AcDbEntity
  8
LC-001-100-D00-0
 62
     7
370
    50
100
AcDbLine
 10
94.127997
 20
480.888954
 30
0.0
 11
96.078857
 21
480.888954
 31
0.0
  0
LINE
  5
3EA
330
1F
100
AcDbEntity
  8
LC-001-100-D00-0
 62
     7
370
    50
100
AcDbLine
 10
97.078856
 20
473.888954
 30
0.0
 11
97.236695
 21
473.888954
 31
0.0
  0
LINE
  5
3EB
330
1F
100
AcDbEntity
  8
LC-001-100-D00-0
 62
     7
370
    50
100
AcDbLine
 10
103.721016
 20
473.888954
 30
0.0
 11
103.878856
 21
473.888954
 31
0.0
  0
LINE
  5
3EC
330
1F
100
AcDbEntity
  8
LC-001-100-D00-0
 62
     7
370
    50
100
AcDbLine
 10
104.878856
 20
472.888954
 30
0.0
 11
104.343074
 21
472.888954
 31
0.0
  0
LINE
  5
3ED
330
1F
100
AcDbEntity
  8
LC-001-100-D00-0
 62
     7
370
    50
100
AcDbLine
 10
96.614637
 20
472.888954
 30
0.0
 11
96.078856
 21
472.888954
 31
0.0
  0
LINE
  5
3EE
330
1F
100
AcDbEntity
  8
LC-001-100-D00-0
 62
     7
370
    50
100
AcDbLine
 10
106.829717
 20
480.888954
 30
0.0
 11
104.378864
 21
480.888954
 31
0.0
  0
LINE
  5
3EF
330
1F
100
AcDbEntity
  8
LC-001-100-D00-0
 62
     7
370
    50
100
AcDbLine
 10
104.378864
 20
480.888954
 30
0.0
 11
104.378856
 21
491.888954
 31
0.0
  0
LINE
  5
3F0
330
1F
100
AcDbEntity
  8
LC-001-100-D00-0
 62
     7
370
    50
100
AcDbLine
 10
104.378856
 20
491.888954
 30
0.0
 11
117.728856
 21
491.888954
 31
0.0
  0
ARC
  5
3F1
330
1F
100
AcDbEntity
  8
LC-001-100-D00-0
 62
     7
370
    50
100
AcDbCircle
 10
117.728856
 20
490.888954
 30
0.0
 40
1.0
100
AcDbArc
 50
0.0
 51
90.0
  0
LINE
  5
3F2
330
1F
100
AcDbEntity
  8
LC-001-100-D00-0
 62
     7
370
    50
100
AcDbLine
 10
118.728856
 20
490.888954
 30
0.0
 11
118.728861
 21
484.888954
 31
0.0
  0
LINE
  5
3F3
330
1F
100
AcDbEntity
  8
LC-001-100-D00-0
 62
     7
370
    50
100
AcDbLine
 10
115.728856
 20
484.888954
 30
0.0
 11
118.728861
 21
484.888954
 31
0.0
  0
LINE
  5
3F4
330
1F
100
AcDbEntity
  8
LC-001-100-D00-0
 62
     7
370
    50
100
AcDbLine
 10
115.728856
 20
484.888954
 30
0.0
 11
115.72887
 21
488.888954
 31
0.0
  0
LINE
  5
3F5
330
1F
100
AcDbEntity
  8
LC-001-100-D00-0
 62
     7
370
    50
100
AcDbLine
 10
111.228856
 20
488.888954
 30
0.0
 11
115.72887
 21
488.888954
 31
0.0
  0
ARC
  5
3F6
330
1F
100
AcDbEntity
  8
LC-001-100-D00-0
 62
     7
370
    50
100
AcDbCircle
 10
111.228856
 20
487.888954
 30
0.0
 40
1.0
100
AcDbArc
 50
90.0
 51
180.0
  0
LINE
  5
3F7
330
1F
100
AcDbEntity
  8
LC-001-100-D00-0
 62
     7
370
    50
100
AcDbLine
 10
110.228856
 20
473.888954
 30
0.0
 11
110.228856
 21
487.888954
 31
0.0
  0
ARC
  5
3F8
330
1F
100
AcDbEntity
  8
LC-001-100-D00-0
 62
     7
370
    50
100
AcDbCircle
 10
109.228856
 20
473.888954
 30
0.0
 40
1.000000000000227
100
AcDbArc
 50
270.0
 51
0.0
  0
LINE
  5
3F9
330
1F
100
AcDbEntity
  8
LC-001-100-D00-0
 62
     7
370
    50
100
AcDbLine
 10
109.228856
 20
472.888954
 30
0.0
 11
106.829717
 21
472.888955
 31
0.0
  0
LINE
  5
3FA
330
1F
100
AcDbEntity
  8
LC-001-100-D00-0
 62
     7
370
    50
100
AcDbLine
 10
106.829717
 20
474.888953
 30
0.0
 11
106.829717
 21
472.888955
 31
0.0
  0
LINE
  5
3FB
330
1F
100
AcDbEntity
  8
LC-001-100-D00-0
 62
     7
370
    50
100
AcDbLine
 10
106.178856
 20
474.888954
 30
0.0
 11
106.829717
 21
474.888953
 31
0.0
  0
ARC
  5
3FC
330
1F
100
AcDbEntity
  8
LC-001-100-D00-0
 62
     7
370
    50
100
AcDbCircle
 10
106.178856
 20
475.388954
 30
0.0
 40
0.5
100
AcDbArc
 50
180.0
 51
270.0
  0
LINE
  5
3FD
330
1F
100
AcDbEntity
  8
LC-001-100-D00-0
 62
     7
370
    50
100
AcDbLine
 10
105.678856
 20
478.388954
 30
0.0
 11
105.678856
 21
475.388954
 31
0.0
  0
ARC
  5
3FE
330
1F
100
AcDbEntity
  8
LC-001-100-D00-0
 62
     7
370
    50
100
AcDbCircle
 10
106.178856
 20
478.388954
 30
0.0
 40
0.4999999999997726
100
AcDbArc
 50
90.0
 51
180.0
  0
LINE
  5
3FF
330
1F
100
AcDbEntity
  8
LC-001-100-D00-0
 62
     7
370
    50
100
AcDbLine
 10
106.829717
 20
478.888954
 30
0.0
 11
106.178856
 21
478.888954
 31
0.0
  0
LINE
  5
400
330
1F
100
AcDbEntity
  8
LC-001-100-D00-0
 62
     7
370
    50
100
AcDbLine
 10
106.829717
 20
480.888954
 30
0.0
 11
106.829717
 21
478.888954
 31
0.0
  0
ARC
  5
401
330
1F
100
AcDbEntity
  8
LC-001-100-D00-0
 62
     7
370
    50
100
AcDbCircle
 10
89.728856
 20
487.888954
 30
0.0
 40
1.0
100
AcDbArc
 50
0.0
 51
90.0
  0
ARC
  5
402
330
1F
100
AcDbEntity
  8
LC-001-100-D00-0
 62
     7
370
    50
100
AcDbCircle
 10
91.728856
 20
473.888954
 30
0.0
 40
0.9999999999998863
100
AcDbArc
 50
180.0
 51
270.0
  0
LINE
  5
403
330
1F
100
AcDbEntity
  8
LC-001-100-D00-0
 62
     7
370
    50
100
AcDbLine
 10
90.728856
 20
487.888954
 30
0.0
 11
90.728856
 21
473.888954
 31
0.0
  0
LINE
  5
404
330
1F
100
AcDbEntity
  8
LC-001-100-D00-0
 62
     7
370
    50
100
AcDbLine
 10
95.278856
 20
475.388954
 30
0.0
 11
95.278856
 21
478.388954
 31
0.0
  0
LINE
  5
405
330
1F
100
AcDbEntity
  8
LC-001-100-D00-0
 62
     7
370
    50
100
AcDbLine
 10
96.578856
 20
491.888954
 30
0.0
 11
96.578851
 21
480.888954
 31
0.0
  0
LINE
  5
406
330
1F
100
AcDbEntity
  8
LC-001-100-D00-0
 62
     7
370
    50
100
AcDbLine
 10
96.578856
 20
491.888954
 30
0.0
 11
104.378856
 21
491.888954
 31
0.0
  0
LINE
  5
407
330
1F
100
AcDbEntity
  8
LC-001-100-D00-0
 62
     7
370
    50
100
AcDbLine
 10
94.127997
 20
474.888953
 30
0.0
 11
94.127997
 21
472.888955
 31
0.0
  0
LINE
  5
408
330
1F
100
AcDbEntity
  8
LC-001-100-D00-0
 62
     7
370
    50
100
AcDbLine
 10
94.127997
 20
480.888954
 30
0.0
 11
94.127997
 21
478.888954
 31
0.0
  0
ARC
  5
409
330
1F
100
AcDbEntity
  8
LC-001-100-D00-0
 62
     7
370
    50
100
AcDbCircle
 10
94.778856
 20
475.388954
 30
0.0
 40
0.5
100
AcDbArc
 50
270.0
 51
0.0
  0
LINE
  5
40A
330
1F
100
AcDbEntity
  8
LC-001-100-D00-0
 62
     7
370
    50
100
AcDbLine
 10
94.127997
 20
474.888953
 30
0.0
 11
94.778856
 21
474.888954
 31
0.0
  0
LINE
  5
40B
330
1F
100
AcDbEntity
  8
LC-001-100-D00-0
 62
     7
370
    50
100
AcDbLine
 10
85.228845
 20
488.888954
 30
0.0
 11
85.228856
 21
484.888954
 31
0.0
  0
LINE
  5
40C
330
1F
100
AcDbEntity
  8
LC-001-100-D00-0
 62
     7
370
    50
100
AcDbLine
 10
82.228854
 20
484.888954
 30
0.0
 11
82.228856
 21
490.888954
 31
0.0
  0
ARC
  5
40D
330
1F
100
AcDbEntity
  8
LC-001-100-D00-0
 62
     7
370
    50
100
AcDbCircle
 10
83.228856
 20
490.888954
 30
0.0
 40
1.0
100
AcDbArc
 50
90.0
 51
180.0
  0
LINE
  5
40E
330
1F
100
AcDbEntity
  8
LC-001-100-D00-0
 62
     7
370
    50
100
AcDbLine
 10
94.778856
 20
478.888954
 30
0.0
 11
94.127997
 21
478.888954
 31
0.0
  0
ARC
  5
40F
330
1F
100
AcDbEntity
  8
LC-001-100-D00-0
 62
     7
370
    50
100
AcDbCircle
 10
94.778856
 20
478.388954
 30
0.0
 40
0.5000000000001137
100
AcDbArc
 50
0.0
 51
90.0
  0
LINE
  5
410
330
1F
100
AcDbEntity
  8
LC-001-100-D00-0
 62
     7
370
    50
100
AcDbLine
 10
96.578851
 20
480.888954
 30
0.0
 11
94.127997
 21
480.888954
 31
0.0
  0
LINE
  5
411
330
1F
100
AcDbEntity
  8
LC-001-100-D00-0
 62
     7
370
    50
100
AcDbLine
 10
94.127997
 20
472.888955
 30
0.0
 11
91.728856
 21
472.888954
 31
0.0
  0
LINE
  5
412
330
1F
100
AcDbEntity
  8
LC-001-100-D00-0
 62
     7
370
    50
100
AcDbLine
 10
82.228854
 20
484.888954
 30
0.0
 11
85.228856
 21
484.888954
 31
0.0
  0
LINE
  5
413
330
1F
100
AcDbEntity
  8
LC-001-100-D00-0
 62
     7
370
    50
100
AcDbLine
 10
85.228845
 20
488.888954
 30
0.0
 11
89.728856
 21
488.888954
 31
0.0
  0
LINE
  5
414
330
1F
100
AcDbEntity
  8
LC-001-100-D00-0
 62
     7
370
    50
100
AcDbLine
 10
83.228856
 20
491.888954
 30
0.0
 11
96.578856
 21
491.888954
 31
0.0
  0
LINE
  5
415
330
1F
100
AcDbEntity
  8
LC-001-100-D00-0
 62
     7
370
    50
100
AcDbLine
 10
113.728856
 20
484.888954
 30
0.0
 11
115.728856
 21
484.888954
 31
0.0
  0
LINE
  5
416
330
1F
100
AcDbEntity
  8
LC-001-100-D00-0
 62
     7
370
    50
100
AcDbLine
 10
85.228856
 20
484.888954
 30
0.0
 11
87.228856
 21
484.888954
 31
0.0
  0
LINE
  5
417
330
1F
100
AcDbEntity
  8
LC-001-100-D00-0
 62
     7
370
    50
100
AcDbLine
 10
87.228856
 20
484.888954
 30
0.0
 11
90.728864
 21
484.888954
 31
0.0
  0
LINE
  5
418
330
1F
100
AcDbEntity
  8
LC-001-100-D00-0
 62
     7
370
    50
100
AcDbLine
 10
110.228851
 20
484.888954
 30
0.0
 11
113.728856
 21
484.888954
 31
0.0
  0
LINE
  5
419
330
1F
100
AcDbEntity
  8
LC-001-100-D00-0
 62
     7
370
    50
100
AcDbLine
 10
-263.893008
 20
461.139651
 30
0.0
 11
-260.886224
 21
461.807825
 31
0.0
  0
ARC
  5
41A
330
1F
100
AcDbEntity
  8
LC-001-100-D00-0
 62
     7
370
    50
100
AcDbCircle
 10
-263.958088
 20
461.432507
 30
0.0
 40
0.3000000000002098
100
AcDbArc
 50
131.633539
 51
282.528808
  0
LINE
  5
41B
330
1F
100
AcDbEntity
  8
LC-001-100-D00-0
 62
     7
370
    50
100
AcDbLine
 10
-260.805309
 20
464.636363
 30
0.0
 11
-264.157397
 21
461.65673
 31
0.0
  0
ARC
  5
41C
330
1F
100
AcDbEntity
  8
LC-001-100-D00-0
 62
     7
370
    50
100
AcDbCircle
 10
-260.140945
 20
463.888954
 30
0.0
 40
1.000000000000227
100
AcDbArc
 50
90.0
 51
131.633539
  0
LINE
  5
41D
330
1F
100
AcDbEntity
  8
LC-001-100-D00-0
 62
     7
370
    50
100
AcDbLine
 10
-254.521147
 20
464.888953
 30
0.0
 11
-254.521147
 21
460.888954
 31
0.0
  0
LINE
  5
41E
330
1F
100
AcDbEntity
  8
LC-001-100-D00-0
 62
     7
370
    50
100
AcDbLine
 10
-260.521144
 20
461.514969
 30
0.0
 11
-260.521144
 21
460.888954
 31
0.0
  0
ARC
  5
41F
330
1F
100
AcDbEntity
  8
LC-001-100-D00-0
 62
     7
370
    50
100
AcDbCircle
 10
-260.821144
 20
461.514969
 30
0.0
 40
0.3000000000000682
100
AcDbArc
 50
0.0
 51
102.528808
  0
LINE
  5
420
330
1F
100
AcDbEntity
  8
LC-001-100-D00-0
 62
     7
370
    50
100
AcDbLine
 10
-254.521147
 20
464.888953
 30
0.0
 11
-260.140945
 21
464.888954
 31
0.0
  0
LINE
  5
421
330
1F
100
AcDbEntity
  8
LC-001-100-D00-0
 62
     7
370
    50
100
AcDbLine
 10
-254.521147
 20
460.888954
 30
0.0
 11
-260.521144
 21
460.888954
 31
0.0
  0
LINE
  5
422
330
1F
100
AcDbEntity
  8
LC-001-100-D00-0
 62
     7
370
    50
100
AcDbLine
 10
-260.521144
 20
460.888954
 30
0.0
 11
-262.721144
 21
460.888954
 31
0.0
  0
LINE
  5
423
330
1F
100
AcDbEntity
  8
LC-001-100-D00-0
 62
     7
370
    50
100
AcDbLine
 10
-378.521144
 20
460.888954
 30
0.0
 11
-378.521144
 21
461.514969
 31
0.0
  0
LINE
  5
424
330
1F
100
AcDbEntity
  8
LC-001-100-D00-0
 62
     7
370
    50
100
AcDbLine
 10
-376.321144
 20
460.888954
 30
0.0
 11
-378.521144
 21
460.888954
 31
0.0
  0
LINE
  5
425
330
1F
100
AcDbEntity
  8
LC-001-100-D00-0
 62
     7
370
    50
100
AcDbLine
 10
-374.884892
 20
461.65673
 30
0.0
 11
-378.23698
 21
464.636363
 31
0.0
  0
LINE
  5
426
330
1F
100
AcDbEntity
  8
LC-001-100-D00-0
 62
     7
370
    50
100
AcDbLine
 10
-378.156065
 20
461.807825
 30
0.0
 11
-375.149281
 21
461.139651
 31
0.0
  0
ARC
  5
427
330
1F
100
AcDbEntity
  8
LC-001-100-D00-0
 62
     7
370
    50
100
AcDbCircle
 10
-378.221144
 20
461.514969
 30
0.0
 40
0.3000000000000355
100
AcDbArc
 50
77.471192
 51
180.0
  0
ARC
  5
428
330
1F
100
AcDbEntity
  8
LC-001-100-D00-0
 62
     7
370
    50
100
AcDbCircle
 10
-378.901344
 20
463.888954
 30
0.0
 40
1.000000000000315
100
AcDbArc
 50
48.366461
 51
90.0
  0
ARC
  5
429
330
1F
100
AcDbEntity
  8
LC-001-100-D00-0
 62
     7
370
    50
100
AcDbCircle
 10
-375.084201
 20
461.432507
 30
0.0
 40
0.3000000000002821
100
AcDbArc
 50
257.471192
 51
48.366461
  0
LINE
  5
42A
330
1F
100
AcDbEntity
  8
LC-001-100-D00-0
 62
     7
370
    50
100
AcDbLine
 10
-384.521142
 20
460.888954
 30
0.0
 11
-384.521142
 21
464.888953
 31
0.0
  0
LINE
  5
42B
330
1F
100
AcDbEntity
  8
LC-001-100-D00-0
 62
     7
370
    50
100
AcDbLine
 10
-378.901344
 20
464.888954
 30
0.0
 11
-384.521142
 21
464.888953
 31
0.0
  0
LINE
  5
42C
330
1F
100
AcDbEntity
  8
LC-001-100-D00-0
 62
     7
370
    50
100
AcDbLine
 10
-378.521144
 20
460.888954
 30
0.0
 11
-384.521142
 21
460.888954
 31
0.0
  0
LINE
  5
42D
330
1F
100
AcDbEntity
  8
LC-001-100-D00-0
 62
     7
370
    50
100
AcDbLine
 10
-245.521144
 20
464.888953
 30
0.0
 11
-245.521144
 21
461.138953
 31
0.0
  0
LINE
  5
42E
330
1F
100
AcDbEntity
  8
LC-001-100-D00-0
 62
     7
370
    50
100
AcDbLine
 10
-248.521142
 20
461.888955
 30
0.0
 11
-248.521144
 21
461.138954
 31
0.0
  0
LINE
  5
42F
330
1F
100
AcDbEntity
  8
LC-001-100-D00-0
 62
     7
370
    50
100
AcDbLine
 10
-251.521141
 20
461.888955
 30
0.0
 11
-251.521141
 21
457.888952
 31
0.0
  0
LINE
  5
430
330
1F
100
AcDbEntity
  8
LC-001-100-D00-0
 62
     7
370
    50
100
AcDbLine
 10
-257.521144
 20
457.888954
 30
0.0
 11
-251.521141
 21
457.888952
 31
0.0
  0
LINE
  5
431
330
1F
100
AcDbEntity
  8
LC-001-100-D00-0
 62
     7
370
    50
100
AcDbLine
 10
-257.521146
 20
460.888954
 30
0.0
 11
-257.521144
 21
457.888954
 31
0.0
  0
LINE
  5
432
330
1F
100
AcDbEntity
  8
LC-001-100-D00-0
 62
     7
370
    50
100
AcDbLine
 10
-254.521147
 20
460.888954
 30
0.0
 11
-257.521146
 21
460.888954
 31
0.0
  0
LINE
  5
433
330
1F
100
AcDbEntity
  8
LC-001-100-D00-0
 62
     7
370
    50
100
AcDbLine
 10
-254.521147
 20
460.888954
 30
0.0
 11
-254.521147
 21
464.888953
 31
0.0
  0
LINE
  5
434
330
1F
100
AcDbEntity
  8
LC-001-100-D00-0
 62
     7
370
    50
100
AcDbLine
 10
-251.521141
 20
461.888955
 30
0.0
 11
-248.521142
 21
461.888955
 31
0.0
  0
LINE
  5
435
330
1F
100
AcDbEntity
  8
LC-001-100-D00-0
 62
     7
370
    50
100
AcDbLine
 10
-245.521144
 20
464.888953
 30
0.0
 11
-254.521147
 21
464.888953
 31
0.0
  0
LINE
  5
436
330
1F
100
AcDbEntity
  8
LC-001-100-D00-0
 62
     7
370
    50
100
AcDbLine
 10
-248.521144
 20
461.138954
 30
0.0
 11
-245.521144
 21
461.138953
 31
0.0
  0
LINE
  5
437
330
1F
100
AcDbEntity
  8
LC-001-100-D00-0
 62
     7
370
    50
100
AcDbLine
 10
-251.521144
 20
461.138954
 30
0.0
 11
-248.521144
 21
461.138954
 31
0.0
  0
LINE
  5
438
330
1F
100
AcDbEntity
  8
LC-001-100-D00-0
 62
     7
370
    50
100
AcDbLine
 10
-264.421144
 20
457.888954
 30
0.0
 11
-257.521144
 21
457.888954
 31
0.0
  0
LINE
  5
439
330
1F
100
AcDbEntity
  8
LC-001-100-D00-0
 62
     7
370
    50
100
AcDbLine
 10
-381.521144
 20
457.888954
 30
0.0
 11
-381.521143
 21
460.888954
 31
0.0
  0
LINE
  5
43A
330
1F
100
AcDbEntity
  8
LC-001-100-D00-0
 62
     7
370
    50
100
AcDbLine
 10
-381.521144
 20
457.888954
 30
0.0
 11
-374.621144
 21
457.888954
 31
0.0
  0
LINE
  5
43B
330
1F
100
AcDbEntity
  8
LC-001-100-D00-0
 62
     7
370
    50
100
AcDbLine
 10
-384.521142
 20
464.888953
 30
0.0
 11
-384.521142
 21
460.888954
 31
0.0
  0
LINE
  5
43C
330
1F
100
AcDbEntity
  8
LC-001-100-D00-0
 62
     7
370
    50
100
AcDbLine
 10
-387.521148
 20
457.888952
 30
0.0
 11
-387.521148
 21
461.888955
 31
0.0
  0
LINE
  5
43D
330
1F
100
AcDbEntity
  8
LC-001-100-D00-0
 62
     7
370
    50
100
AcDbLine
 10
-390.521144
 20
461.138954
 30
0.0
 11
-390.521147
 21
461.888955
 31
0.0
  0
LINE
  5
43E
330
1F
100
AcDbEntity
  8
LC-001-100-D00-0
 62
     7
370
    50
100
AcDbLine
 10
-390.521144
 20
461.138954
 30
0.0
 11
-387.521144
 21
461.138954
 31
0.0
  0
LINE
  5
43F
330
1F
100
AcDbEntity
  8
LC-001-100-D00-0
 62
     7
370
    50
100
AcDbLine
 10
-393.521145
 20
461.138953
 30
0.0
 11
-393.521145
 21
464.888953
 31
0.0
  0
LINE
  5
440
330
1F
100
AcDbEntity
  8
LC-001-100-D00-0
 62
     7
370
    50
100
AcDbLine
 10
-381.521143
 20
460.888954
 30
0.0
 11
-384.521142
 21
460.888954
 31
0.0
  0
LINE
  5
441
330
1F
100
AcDbEntity
  8
LC-001-100-D00-0
 62
     7
370
    50
100
AcDbLine
 10
-387.521148
 20
457.888952
 30
0.0
 11
-381.521144
 21
457.888954
 31
0.0
  0
LINE
  5
442
330
1F
100
AcDbEntity
  8
LC-001-100-D00-0
 62
     7
370
    50
100
AcDbLine
 10
-390.521147
 20
461.888955
 30
0.0
 11
-387.521148
 21
461.888955
 31
0.0
  0
LINE
  5
443
330
1F
100
AcDbEntity
  8
LC-001-100-D00-0
 62
     7
370
    50
100
AcDbLine
 10
-384.521142
 20
464.888953
 30
0.0
 11
-393.521145
 21
464.888953
 31
0.0
  0
LINE
  5
444
330
1F
100
AcDbEntity
  8
LC-001-100-D00-0
 62
     7
370
    50
100
AcDbLine
 10
-393.521145
 20
461.138953
 30
0.0
 11
-390.521144
 21
461.138954
 31
0.0
  0
LINE
  5
445
330
1F
100
AcDbEntity
  8
LC-001-100-D00-0
 62
     7
370
    50
100
AcDbLine
 10
-245.521144
 20
460.388953
 30
0.0
 11
-234.521144
 21
460.388953
 31
0.0
  0
LINE
  5
446
330
1F
100
AcDbEntity
  8
LC-001-100-D00-0
 62
     7
370
    50
100
AcDbLine
 10
-234.521144
 20
408.388956
 30
0.0
 11
-245.521144
 21
408.388956
 31
0.0
  0
LINE
  5
447
330
1F
100
AcDbEntity
  8
LC-001-100-D00-0
 62
     7
370
    50
100
AcDbLine
 10
-245.521144
 20
461.138953
 30
0.0
 11
-245.521144
 21
460.388953
 31
0.0
  0
INSERT
  5
458
330
1F
100
AcDbEntity
  8
LC-001-100-D00-0
 62
     7
370
    50
100
AcDbBlockReference
  2
KLON15
 10
0.0
 20
0.0
 30
0.0
  0
INSERT
  5
46C
330
1F
100
AcDbEntity
  8
LC-001-100-D00-0
 62
     7
370
    50
100
AcDbBlockReference
  2
KLON16
 10
0.0
 20
0.0
 30
0.0
  0
LINE
  5
46D
330
1F
100
AcDbEntity
  8
LC-001-100-D00-0
 62
     7
370
    50
100
AcDbLine
 10
-248.521142
 20
457.388955
 30
0.0
 11
-206.623959
 21
457.388954
 31
0.0
  0
LINE
  5
46E
330
1F
100
AcDbEntity
  8
LC-001-100-D00-0
 62
     7
370
    50
100
AcDbLine
 10
-206.623959
 20
411.388954
 30
0.0
 11
-206.623959
 21
457.388954
 31
0.0
  0
LINE
  5
46F
330
1F
100
AcDbEntity
  8
LC-001-100-D00-0
 62
     7
370
    50
100
AcDbLine
 10
-206.623959
 20
411.388954
 30
0.0
 11
-245.521144
 21
411.388955
 31
0.0
  0
INSERT
  5
475
330
1F
100
AcDbEntity
  8
LC-001-100-D00-0
 62
     7
370
    50
100
AcDbBlockReference
  2
KLON17
 10
0.0
 20
0.0
 30
0.0
  0
LINE
  5
476
330
1F
100
AcDbEntity
  8
LC-001-100-D00-0
 62
     7
370
    50
100
AcDbLine
 10
-248.521144
 20
461.138954
 30
0.0
 11
-251.521144
 21
461.138954
 31
0.0
  0
LINE
  5
477
330
1F
100
AcDbEntity
  8
LC-001-100-D00-0
 62
     7
370
    50
100
AcDbLine
 10
-248.521144
 20
461.138954
 30
0.0
 11
-248.521142
 21
457.388955
 31
0.0
  0
LINE
  5
478
330
1F
100
AcDbEntity
  8
LC-001-100-D00-0
 62
     7
370
    50
100
AcDbLine
 10
-258.521144
 20
408.388954
 30
0.0
 11
-245.521144
 21
408.388956
 31
0.0
  0
ARC
  5
479
330
1F
100
AcDbEntity
  8
LC-001-100-D00-0
 62
     7
370
    50
100
AcDbCircle
 10
-265.503265
 20
408.888954
 30
0.0
 40
7.0
100
AcDbArc
 50
270.0
 51
355.903956
  0
LINE
  5
47A
330
1F
100
AcDbEntity
  8
LC-001-100-D00-0
 62
     7
370
    50
100
AcDbLine
 10
-265.503265
 20
401.888954
 30
0.0
 11
-373.539024
 21
401.888954
 31
0.0
  0
ARC
  5
47B
330
1F
100
AcDbEntity
  8
LC-001-100-D00-0
 62
     7
370
    50
100
AcDbCircle
 10
-373.539024
 20
408.888954
 30
0.0
 40
7.000000000000073
100
AcDbArc
 50
184.096044
 51
270.0
  0
LINE
  5
47C
330
1F
100
AcDbEntity
  8
LC-001-100-D00-0
 62
     7
370
    50
100
AcDbLine
 10
-381.021144
 20
408.388954
 30
0.0
 11
-380.521144
 21
408.388954
 31
0.0
  0
ARC
  5
47D
330
1F
100
AcDbEntity
  8
LC-001-100-D00-0
 62
     7
370
    50
100
AcDbCircle
 10
-381.021144
 20
420.888954
 30
0.0
 40
12.5
100
AcDbArc
 50
180.0
 51
270.0
  0
LINE
  5
47E
330
1F
100
AcDbEntity
  8
LC-001-100-D00-0
 62
     7
370
    50
100
AcDbLine
 10
-393.521144
 20
420.888954
 30
0.0
 11
-393.521145
 21
461.138953
 31
0.0
  0
LINE
  5
47F
330
1F
100
AcDbEntity
  8
LC-001-100-D00-0
 62
     7
370
    50
100
AcDbLine
 10
-393.521145
 20
461.138953
 30
0.0
 11
-390.521144
 21
461.138954
 31
0.0
  0
LINE
  5
480
330
1F
100
AcDbEntity
  8
LC-001-100-D00-0
 62
     7
370
    50
100
AcDbLine
 10
-390.521144
 20
420.888954
 30
0.0
 11
-390.521144
 21
461.138954
 31
0.0
  0
ARC
  5
481
330
1F
100
AcDbEntity
  8
LC-001-100-D00-0
 62
     7
370
    50
100
AcDbCircle
 10
-381.021144
 20
420.888954
 30
0.0
 40
9.500000000000114
100
AcDbArc
 50
180.0
 51
270.0
  0
LINE
  5
482
330
1F
100
AcDbEntity
  8
LC-001-100-D00-0
 62
     7
370
    50
100
AcDbLine
 10
-381.021144
 20
411.388954
 30
0.0
 11
-378.521144
 21
411.388954
 31
0.0
  0
ARC
  5
483
330
1F
100
AcDbEntity
  8
LC-001-100-D00-0
 62
     7
370
    50
100
AcDbCircle
 10
-378.521144
 20
410.388954
 30
0.0
 40
1.000000000000227
100
AcDbArc
 50
0.0
 51
90.0
  0
LINE
  5
484
330
1F
100
AcDbEntity
  8
LC-001-100-D00-0
 62
     7
370
    50
100
AcDbLine
 10
-377.521144
 20
410.388954
 30
0.0
 11
-377.521144
 21
408.888954
 31
0.0
  0
ARC
  5
485
330
1F
100
AcDbEntity
  8
LC-001-100-D00-0
 62
     7
370
    50
100
AcDbCircle
 10
-373.521144
 20
408.888954
 30
0.0
 40
4.000000000000227
100
AcDbArc
 50
180.0
 51
270.0
  0
LINE
  5
486
330
1F
100
AcDbEntity
  8
LC-001-100-D00-0
 62
     7
370
    50
100
AcDbLine
 10
-265.521144
 20
404.888954
 30
0.0
 11
-373.521144
 21
404.888954
 31
0.0
  0
ARC
  5
487
330
1F
100
AcDbEntity
  8
LC-001-100-D00-0
 62
     7
370
    50
100
AcDbCircle
 10
-265.521144
 20
408.888954
 30
0.0
 40
4.000000000000227
100
AcDbArc
 50
270.0
 51
0.0
  0
LINE
  5
488
330
1F
100
AcDbEntity
  8
LC-001-100-D00-0
 62
     7
370
    50
100
AcDbLine
 10
-261.521144
 20
408.888954
 30
0.0
 11
-261.521144
 21
410.388954
 31
0.0
  0
ARC
  5
489
330
1F
100
AcDbEntity
  8
LC-001-100-D00-0
 62
     7
370
    50
100
AcDbCircle
 10
-260.521144
 20
410.388954
 30
0.0
 40
1.000000000000227
100
AcDbArc
 50
90.0
 51
180.0
  0
LINE
  5
48A
330
1F
100
AcDbEntity
  8
LC-001-100-D00-0
 62
     7
370
    50
100
AcDbLine
 10
-260.521144
 20
411.388954
 30
0.0
 11
-245.521144
 21
411.388955
 31
0.0
  0
LINE
  5
48B
330
1F
100
AcDbEntity
  8
LC-001-100-D00-0
 62
     7
370
    50
100
AcDbLine
 10
-201.023959
 20
409.888439
 30
0.0
 11
-206.623959
 21
411.388954
 31
0.0
  0
LINE
  5
48C
330
1F
100
AcDbEntity
  8
LC-001-100-D00-0
 62
     7
370
    50
100
AcDbLine
 10
-201.023959
 20
409.454699
 30
0.0
 11
-201.023959
 21
409.888439
 31
0.0
  0
ARC
  5
48D
330
1F
100
AcDbEntity
  8
LC-001-100-D00-0
 62
     7
370
    50
100
AcDbCircle
 10
-201.523917
 20
409.454699
 30
0.0
 40
0.4999578796799692
100
AcDbArc
 50
301.198872
 51
0.0
  0
ARC
  5
48E
330
1F
100
AcDbEntity
  8
LC-001-100-D00-0
 62
     7
370
    50
100
AcDbCircle
 10
-216.622641
 20
434.386764
 30
0.0
 40
29.64750216706083
100
AcDbArc
 50
292.382556
 51
301.198872
  0
ARC
  5
48F
330
1F
100
AcDbEntity
  8
LC-001-100-D00-0
 62
     7
370
    50
100
AcDbCircle
 10
-205.52358
 20
407.435137
 30
0.0
 40
0.4999578796799824
100
AcDbArc
 50
180.0
 51
292.382556
  0
LINE
  5
490
330
1F
100
AcDbEntity
  8
LC-001-100-D00-0
 62
     7
370
    50
100
AcDbLine
 10
-206.023538
 20
408.738996
 30
0.0
 11
-206.023538
 21
407.435137
 31
0.0
  0
ARC
  5
491
330
1F
100
AcDbEntity
  8
LC-001-100-D00-0
 62
     7
370
    50
100
AcDbCircle
 10
-206.523496
 20
408.738996
 30
0.0
 40
0.4999578796800961
100
AcDbArc
 50
0.0
 51
90.0
  0
LINE
  5
492
330
1F
100
AcDbEntity
  8
LC-001-100-D00-0
 62
     7
370
    50
100
AcDbLine
 10
-210.023201
 20
409.238954
 30
0.0
 11
-206.523496
 21
409.238954
 31
0.0
  0
ARC
  5
493
330
1F
100
AcDbEntity
  8
LC-001-100-D00-0
 62
     7
370
    50
100
AcDbCircle
 10
-210.023201
 20
408.738996
 30
0.0
 40
0.4999578796800961
100
AcDbArc
 50
90.0
 51
180.0
  0
LINE
  5
494
330
1F
100
AcDbEntity
  8
LC-001-100-D00-0
 62
     7
370
    50
100
AcDbLine
 10
-210.523159
 20
405.782135
 30
0.0
 11
-210.523159
 21
408.738996
 31
0.0
  0
ARC
  5
495
330
1F
100
AcDbEntity
  8
LC-001-100-D00-0
 62
     7
370
    50
100
AcDbCircle
 10
-211.023117
 20
405.782135
 30
0.0
 40
0.4999578796798923
100
AcDbArc
 50
281.075925
 51
0.0
  0
ARC
  5
496
330
1F
100
AcDbEntity
  8
LC-001-100-D00-0
 62
     7
370
    50
100
AcDbCircle
 10
-216.622641
 20
434.386764
 30
0.0
 40
29.64750432250012
100
AcDbArc
 50
241.270296
 51
281.075925
  0
LINE
  5
497
330
1F
100
AcDbEntity
  8
LC-001-100-D00-0
 62
     7
370
    50
100
AcDbLine
 10
-232.021347
 20
408.388956
 30
0.0
 11
-230.873549
 21
408.388954
 31
0.0
  0
LINE
  5
498
330
1F
100
AcDbEntity
  8
LC-001-100-D00-0
 62
     7
370
    50
100
AcDbLine
 10
-232.021347
 20
406.888953
 30
0.0
 11
-232.021347
 21
408.388956
 31
0.0
  0
LINE
  5
499
330
1F
100
AcDbEntity
  8
LC-001-100-D00-0
 62
     7
370
    50
100
AcDbLine
 10
-234.521144
 20
406.888953
 30
0.0
 11
-232.021347
 21
406.888953
 31
0.0
  0
LINE
  5
49A
330
1F
100
AcDbEntity
  8
LC-001-100-D00-0
 62
     7
370
    50
100
AcDbLine
 10
-234.521144
 20
408.388956
 30
0.0
 11
-234.521144
 21
406.888953
 31
0.0
  0
ARC
  5
49B
330
1F
100
AcDbEntity
  8
LC-001-100-D00-0
 62
     7
370
    50
100
AcDbCircle
 10
-216.622641
 20
434.391144
 30
0.0
 40
29.64750216706106
100
AcDbArc
 50
58.801128
 51
67.617444
  0
ARC
  5
49C
330
1F
100
AcDbEntity
  8
LC-001-100-D00-0
 62
     7
370
    50
100
AcDbCircle
 10
-201.523917
 20
459.323209
 30
0.0
 40
0.4999578796798687
100
AcDbArc
 50
0.0
 51
58.801128
  0
LINE
  5
49D
330
1F
100
AcDbEntity
  8
LC-001-100-D00-0
 62
     7
370
    50
100
AcDbLine
 10
-201.023959
 20
458.889469
 30
0.0
 11
-201.023959
 21
409.888439
 31
0.0
  0
LINE
  5
49E
330
1F
100
AcDbEntity
  8
LC-001-100-D00-0
 62
     7
370
    50
100
AcDbLine
 10
-206.623959
 20
457.388954
 30
0.0
 11
-201.023959
 21
458.889469
 31
0.0
  0
ARC
  5
49F
330
1F
100
AcDbEntity
  8
LC-001-100-D00-0
 62
     7
370
    50
100
AcDbCircle
 10
-206.523496
 20
460.038912
 30
0.0
 40
0.4999578796800961
100
AcDbArc
 50
270.0
 51
0.0
  0
LINE
  5
4A0
330
1F
100
AcDbEntity
  8
LC-001-100-D00-0
 62
     7
370
    50
100
AcDbLine
 10
-206.023538
 20
461.342771
 30
0.0
 11
-206.023538
 21
460.038912
 31
0.0
  0
ARC
  5
4A1
330
1F
100
AcDbEntity
  8
LC-001-100-D00-0
 62
     7
370
    50
100
AcDbCircle
 10
-205.52358
 20
461.342771
 30
0.0
 40
0.4999578796801971
100
AcDbArc
 50
67.617444
 51
180.0
  0
LINE
  5
4A2
330
1F
100
AcDbEntity
  8
LC-001-100-D00-0
 62
     7
370
    50
100
AcDbLine
 10
-248.521144
 20
461.138954
 30
0.0
 11
-245.521144
 21
461.138953
 31
0.0
  0
LINE
  5
4A3
330
1F
100
AcDbEntity
  8
LC-001-100-D00-0
 62
     7
370
    50
100
AcDbLine
 10
-234.521144
 20
461.888955
 30
0.0
 11
-234.521144
 21
460.388953
 31
0.0
  0
LINE
  5
4A4
330
1F
100
AcDbEntity
  8
LC-001-100-D00-0
 62
     7
370
    50
100
AcDbLine
 10
-232.021348
 20
461.888954
 30
0.0
 11
-234.521144
 21
461.888955
 31
0.0
  0
ARC
  5
4A5
330
1F
100
AcDbEntity
  8
LC-001-100-D00-0
 62
     7
370
    50
100
AcDbCircle
 10
-216.659056
 20
434.388954
 30
0.0
 40
31.49999999999998
100
AcDbArc
 50
105.394857
 51
119.188982
  0
LINE
  5
4A6
330
1F
100
AcDbEntity
  8
LC-001-100-D00-0
 62
     7
370
    50
100
AcDbLine
 10
-225.021348
 20
464.75871
 30
0.0
 11
-225.021348
 21
462.824157
 31
0.0
  0
ARC
  5
4A7
330
1F
100
AcDbEntity
  8
LC-001-100-D00-0
 62
     7
370
    50
100
AcDbCircle
 10
-216.622641
 20
434.391144
 30
0.0
 40
29.6475043225003
100
AcDbArc
 50
78.924075
 51
106.456389
  0
ARC
  5
4A8
330
1F
100
AcDbEntity
  8
LC-001-100-D00-0
 62
     7
370
    50
100
AcDbCircle
 10
-211.023117
 20
462.995773
 30
0.0
 40
0.4999578796800961
100
AcDbArc
 50
0.0
 51
78.924075
  0
LINE
  5
4A9
330
1F
100
AcDbEntity
  8
LC-001-100-D00-0
 62
     7
370
    50
100
AcDbLine
 10
-210.523159
 20
460.038912
 30
0.0
 11
-210.523159
 21
462.995773
 31
0.0
  0
ARC
  5
4AA
330
1F
100
AcDbEntity
  8
LC-001-100-D00-0
 62
     7
370
    50
100
AcDbCircle
 10
-210.023201
 20
460.038912
 30
0.0
 40
0.4999578796802098
100
AcDbArc
 50
180.0
 51
270.0
  0
LINE
  5
4AB
330
1F
100
AcDbEntity
  8
LC-001-100-D00-0
 62
     7
370
    50
100
AcDbLine
 10
-206.523496
 20
459.538954
 30
0.0
 11
-210.023201
 21
459.538954
 31
0.0
  0
LINE
  5
4AC
330
1F
100
AcDbEntity
  8
LC-001-100-D00-0
 62
     7
370
    50
100
AcDbLine
 10
-201.023959
 20
458.889469
 30
0.0
 11
-201.023959
 21
459.323209
 31
0.0
  0
LINE
  5
4AD
330
1F
100
AcDbEntity
  8
LC-001-100-D00-0
 62
     7
370
    50
100
AcDbLine
 10
-275.087524
 20
411.388954
 30
0.0
 11
-260.521144
 21
411.388954
 31
0.0
  0
LINE
  5
4AE
330
1F
100
AcDbEntity
  8
LC-001-100-D00-0
 62
     7
370
    50
100
AcDbLine
 10
-378.521144
 20
411.388954
 30
0.0
 11
-363.954765
 21
411.388954
 31
0.0
  0
LINE
  5
4AF
330
1F
100
AcDbEntity
  8
LC-001-100-D00-0
 62
     7
370
    50
100
AcDbLine
 10
-387.521144
 20
461.138954
 30
0.0
 11
-390.521144
 21
461.138954
 31
0.0
  0
LINE
  5
4B0
330
1F
100
AcDbEntity
  8
LC-001-100-D00-0
 62
     7
370
    50
100
AcDbLine
 10
-277.532019
 20
411.388954
 30
0.0
 11
-275.087524
 21
411.388954
 31
0.0
  0
LINE
  5
4B1
330
1F
100
AcDbEntity
  8
LC-001-100-D00-0
 62
     7
370
    50
100
AcDbLine
 10
-363.954765
 20
411.388954
 30
0.0
 11
-361.51027
 21
411.388954
 31
0.0
  0
LINE
  5
4B2
330
1F
100
AcDbEntity
  8
LC-001-100-D00-0
 62
     7
370
    50
100
AcDbLine
 10
-361.51027
 20
411.388954
 30
0.0
 11
-360.521146
 21
411.388955
 31
0.0
  0
LINE
  5
4B3
330
1F
100
AcDbEntity
  8
LC-001-100-D00-0
 62
     7
370
    50
100
AcDbLine
 10
-278.521143
 20
411.388955
 30
0.0
 11
-277.532019
 21
411.388954
 31
0.0
  0
CIRCLE
  5
4B4
330
1F
100
AcDbEntity
  8
LC-001-100-D00-0
 62
     7
370
    50
100
AcDbCircle
 10
-265.271144
 20
462.638954
 30
0.0
 40
1.750000000000114
  0
CIRCLE
  5
4B5
330
1F
100
AcDbEntity
  8
LC-001-100-D00-0
 62
     7
370
    50
100
AcDbCircle
 10
-373.771144
 20
462.638954
 30
0.0
 40
1.750000000000114
  0
LINE
  5
4B6
330
1F
100
AcDbEntity
  8
LC-001-100-D00-0
 62
     7
370
    50
100
AcDbLine
 10
-265.021146
 20
464.388954
 30
0.0
 11
-265.021146
 21
465.888953
 31
0.0
  0
LINE
  5
4B7
330
1F
100
AcDbEntity
  8
LC-001-100-D00-0
 62
     7
370
    50
100
AcDbLine
 10
-267.021146
 20
464.388954
 30
0.0
 11
-265.021146
 21
464.388954
 31
0.0
  0
LINE
  5
4B8
330
1F
100
AcDbEntity
  8
LC-001-100-D00-0
 62
     7
370
    50
100
AcDbLine
 10
-267.021146
 20
464.388954
 30
0.0
 11
-267.021146
 21
460.888954
 31
0.0
  0
LINE
  5
4B9
330
1F
100
AcDbEntity
  8
LC-001-100-D00-0
 62
     7
370
    50
100
AcDbLine
 10
-267.021146
 20
460.888954
 30
0.0
 11
-265.021146
 21
460.888954
 31
0.0
  0
LINE
  5
4BA
330
1F
100
AcDbEntity
  8
LC-001-100-D00-0
 62
     7
370
    50
100
AcDbLine
 10
-265.021146
 20
460.888954
 30
0.0
 11
-265.021146
 21
459.888952
 31
0.0
  0
LINE
  5
4BB
330
1F
100
AcDbEntity
  8
LC-001-100-D00-0
 62
     7
370
    50
100
AcDbLine
 10
-280.521144
 20
459.888954
 30
0.0
 11
-265.021146
 21
459.888952
 31
0.0
  0
ARC
  5
4BC
330
1F
100
AcDbEntity
  8
LC-001-100-D00-0
 62
     7
370
    50
100
AcDbCircle
 10
-280.521144
 20
449.888954
 30
0.0
 40
10.0
100
AcDbArc
 50
90.0
 51
180.0
  0
LINE
  5
4BD
330
1F
100
AcDbEntity
  8
LC-001-100-D00-0
 62
     7
370
    50
100
AcDbLine
 10
-290.521144
 20
449.888954
 30
0.0
 11
-290.521145
 21
420.388951
 31
0.0
  0
LINE
  5
4BE
330
1F
100
AcDbEntity
  8
LC-001-100-D00-0
 62
     7
370
    50
100
AcDbLine
 10
-292.021144
 20
420.388954
 30
0.0
 11
-290.521145
 21
420.388951
 31
0.0
  0
LINE
  5
4BF
330
1F
100
AcDbEntity
  8
LC-001-100-D00-0
 62
     7
370
    50
100
AcDbLine
 10
-292.021144
 20
463.888954
 30
0.0
 11
-292.021144
 21
420.388954
 31
0.0
  0
ARC
  5
4C0
330
1F
100
AcDbEntity
  8
LC-001-100-D00-0
 62
     7
370
    50
100
AcDbCircle
 10
-290.021144
 20
463.888954
 30
0.0
 40
1.999999999999773
100
AcDbArc
 50
90.0
 51
180.0
  0
LINE
  5
4C1
330
1F
100
AcDbEntity
  8
LC-001-100-D00-0
 62
     7
370
    50
100
AcDbLine
 10
-290.021144
 20
465.888954
 30
0.0
 11
-265.021146
 21
465.888953
 31
0.0
  0
LINE
  5
4C2
330
1F
100
AcDbEntity
  8
LC-001-100-D00-0
 62
     7
370
    50
100
AcDbLine
 10
-308.021144
 20
465.888954
 30
0.0
 11
-290.021144
 21
465.888954
 31
0.0
  0
LINE
  5
4C3
330
1F
100
AcDbEntity
  8
LC-001-100-D00-0
 62
     7
370
    50
100
AcDbLine
 10
-308.021144
 20
420.388954
 30
0.0
 11
-292.021144
 21
420.388954
 31
0.0
  0
LINE
  5
4C4
330
1F
100
AcDbEntity
  8
LC-001-100-D00-0
 62
     7
370
    50
100
AcDbLine
 10
-348.521144
 20
420.388951
 30
0.0
 11
-348.521144
 21
449.888954
 31
0.0
  0
ARC
  5
4C5
330
1F
100
AcDbEntity
  8
LC-001-100-D00-0
 62
     7
370
    50
100
AcDbCircle
 10
-349.021144
 20
463.888954
 30
0.0
 40
2.0
100
AcDbArc
 50
0.0
 51
90.0
  0
LINE
  5
4C6
330
1F
100
AcDbEntity
  8
LC-001-100-D00-0
 62
     7
370
    50
100
AcDbLine
 10
-349.021144
 20
465.888954
 30
0.0
 11
-331.021144
 21
465.888954
 31
0.0
  0
LINE
  5
4C7
330
1F
100
AcDbEntity
  8
LC-001-100-D00-0
 62
     7
370
    50
100
AcDbLine
 10
-347.021144
 20
420.388954
 30
0.0
 11
-347.021144
 21
463.888954
 31
0.0
  0
LINE
  5
4C8
330
1F
100
AcDbEntity
  8
LC-001-100-D00-0
 62
     7
370
    50
100
AcDbLine
 10
-347.021144
 20
420.388954
 30
0.0
 11
-331.021144
 21
420.388954
 31
0.0
  0
ARC
  5
4C9
330
1F
100
AcDbEntity
  8
LC-001-100-D00-0
 62
     7
370
    50
100
AcDbCircle
 10
-358.521144
 20
449.888954
 30
0.0
 40
10.0
100
AcDbArc
 50
0.0
 51
90.0
  0
LINE
  5
4CA
330
1F
100
AcDbEntity
  8
LC-001-100-D00-0
 62
     7
370
    50
100
AcDbLine
 10
-374.021143
 20
459.888952
 30
0.0
 11
-374.021143
 21
460.888954
 31
0.0
  0
LINE
  5
4CB
330
1F
100
AcDbEntity
  8
LC-001-100-D00-0
 62
     7
370
    50
100
AcDbLine
 10
-372.021143
 20
460.888954
 30
0.0
 11
-372.021143
 21
464.388954
 31
0.0
  0
LINE
  5
4CC
330
1F
100
AcDbEntity
  8
LC-001-100-D00-0
 62
     7
370
    50
100
AcDbLine
 10
-374.021143
 20
465.888953
 30
0.0
 11
-374.021143
 21
464.388954
 31
0.0
  0
LINE
  5
4CD
330
1F
100
AcDbEntity
  8
LC-001-100-D00-0
 62
     7
370
    50
100
AcDbLine
 10
-348.521144
 20
420.388951
 30
0.0
 11
-347.021144
 21
420.388954
 31
0.0
  0
LINE
  5
4CE
330
1F
100
AcDbEntity
  8
LC-001-100-D00-0
 62
     7
370
    50
100
AcDbLine
 10
-374.021143
 20
460.888954
 30
0.0
 11
-372.021143
 21
460.888954
 31
0.0
  0
LINE
  5
4CF
330
1F
100
AcDbEntity
  8
LC-001-100-D00-0
 62
     7
370
    50
100
AcDbLine
 10
-374.021143
 20
464.388954
 30
0.0
 11
-372.021143
 21
464.388954
 31
0.0
  0
LINE
  5
4D0
330
1F
100
AcDbEntity
  8
LC-001-100-D00-0
 62
     7
370
    50
100
AcDbLine
 10
-374.021143
 20
465.888953
 30
0.0
 11
-349.021144
 21
465.888954
 31
0.0
  0
LINE
  5
4D1
330
1F
100
AcDbEntity
  8
LC-001-100-D00-0
 62
     7
370
    50
100
AcDbLine
 10
-374.021143
 20
459.888952
 30
0.0
 11
-358.521144
 21
459.888954
 31
0.0
  0
LINE
  5
4D2
330
1F
100
AcDbEntity
  8
LC-001-100-D00-0
 62
     7
370
    50
100
AcDbLine
 10
-331.021144
 20
465.888954
 30
0.0
 11
-308.021144
 21
465.888954
 31
0.0
  0
LINE
  5
4D3
330
1F
100
AcDbEntity
  8
LC-001-100-D00-0
 62
     7
370
    50
100
AcDbLine
 10
-331.021144
 20
420.388954
 30
0.0
 11
-308.021144
 21
420.388954
 31
0.0
  0
LINE
  5
4D4
330
1F
100
AcDbEntity
  8
LC-001-100-D00-0
 62
     7
370
    50
100
AcDbLine
 10
-278.521143
 20
450.388956
 30
0.0
 11
-268.585459
 21
457.694605
 31
0.0
  0
LINE
  5
4D5
330
1F
100
AcDbEntity
  8
LC-001-100-D00-0
 62
     7
370
    50
100
AcDbLine
 10
-278.521143
 20
450.388956
 30
0.0
 11
-278.521144
 21
409.388954
 31
0.0
  0
ARC
  5
4D6
330
1F
100
AcDbEntity
  8
LC-001-100-D00-0
 62
     7
370
    50
100
AcDbCircle
 10
-283.521144
 20
409.388954
 30
0.0
 40
5.0
100
AcDbArc
 50
270.0
 51
0.0
  0
LINE
  5
4D7
330
1F
100
AcDbEntity
  8
LC-001-100-D00-0
 62
     7
370
    50
100
AcDbLine
 10
-283.521144
 20
404.388954
 30
0.0
 11
-355.521144
 21
404.388954
 31
0.0
  0
ARC
  5
4D8
330
1F
100
AcDbEntity
  8
LC-001-100-D00-0
 62
     7
370
    50
100
AcDbCircle
 10
-355.521144
 20
409.388954
 30
0.0
 40
5.0
100
AcDbArc
 50
180.0
 51
270.0
  0
LINE
  5
4D9
330
1F
100
AcDbEntity
  8
LC-001-100-D00-0
 62
     7
370
    50
100
AcDbLine
 10
-360.521144
 20
409.388954
 30
0.0
 11
-360.521146
 21
450.388956
 31
0.0
  0
LINE
  5
4DA
330
1F
100
AcDbEntity
  8
LC-001-100-D00-0
 62
     7
370
    50
100
AcDbLine
 10
-360.521146
 20
450.388956
 30
0.0
 11
-370.45683
 21
457.694605
 31
0.0
  0
ARC
  5
4DB
330
1F
100
AcDbEntity
  8
LC-001-100-D00-0
 62
     7
370
    50
100
AcDbCircle
 10
-371.04922
 20
456.888954
 30
0.0
 40
1.000000000000014
100
AcDbArc
 50
53.673174
 51
90.0
  0
LINE
  5
4DC
330
1F
100
AcDbEntity
  8
LC-001-100-D00-0
 62
     7
370
    50
100
AcDbLine
 10
-374.621144
 20
457.888954
 30
0.0
 11
-371.04922
 21
457.888954
 31
0.0
  0
LINE
  5
4DD
330
1F
100
AcDbEntity
  8
LC-001-100-D00-0
 62
     7
370
    50
100
AcDbLine
 10
-374.621144
 20
457.888954
 30
0.0
 11
-374.621144
 21
459.888954
 31
0.0
  0
LINE
  5
4DE
330
1F
100
AcDbEntity
  8
LC-001-100-D00-0
 62
     7
370
    50
100
AcDbLine
 10
-374.621144
 20
459.888954
 30
0.0
 11
-371.04922
 21
459.888954
 31
0.0
  0
ARC
  5
4DF
330
1F
100
AcDbEntity
  8
LC-001-100-D00-0
 62
     7
370
    50
100
AcDbCircle
 10
-371.04922
 20
456.888954
 30
0.0
 40
2.999999999999975
100
AcDbArc
 50
53.673174
 51
90.0
  0
LINE
  5
4E0
330
1F
100
AcDbEntity
  8
LC-001-100-D00-0
 62
     7
370
    50
100
AcDbLine
 10
-369.272049
 20
459.305907
 30
0.0
 11
-359.428754
 21
452.06819
 31
0.0
  0
ARC
  5
4E1
330
1F
100
AcDbEntity
  8
LC-001-100-D00-0
 62
     7
370
    50
100
AcDbCircle
 10
-360.021144
 20
451.262539
 30
0.0
 40
1.0
100
AcDbArc
 50
0.0
 51
53.673174
  0
LINE
  5
4E2
330
1F
100
AcDbEntity
  8
LC-001-100-D00-0
 62
     7
370
    50
100
AcDbLine
 10
-359.021144
 20
409.388954
 30
0.0
 11
-359.021144
 21
451.262539
 31
0.0
  0
ARC
  5
4E3
330
1F
100
AcDbEntity
  8
LC-001-100-D00-0
 62
     7
370
    50
100
AcDbCircle
 10
-355.521144
 20
409.388954
 30
0.0
 40
3.5
100
AcDbArc
 50
180.0
 51
270.0
  0
LINE
  5
4E4
330
1F
100
AcDbEntity
  8
LC-001-100-D00-0
 62
     7
370
    50
100
AcDbLine
 10
-283.521144
 20
405.888954
 30
0.0
 11
-355.521144
 21
405.888954
 31
0.0
  0
ARC
  5
4E5
330
1F
100
AcDbEntity
  8
LC-001-100-D00-0
 62
     7
370
    50
100
AcDbCircle
 10
-283.521144
 20
409.388954
 30
0.0
 40
3.500000000000455
100
AcDbArc
 50
270.0
 51
0.0
  0
LINE
  5
4E6
330
1F
100
AcDbEntity
  8
LC-001-100-D00-0
 62
     7
370
    50
100
AcDbLine
 10
-280.021144
 20
451.262539
 30
0.0
 11
-280.021144
 21
409.388954
 31
0.0
  0
ARC
  5
4E7
330
1F
100
AcDbEntity
  8
LC-001-100-D00-0
 62
     7
370
    50
100
AcDbCircle
 10
-279.021144
 20
451.262539
 30
0.0
 40
0.9999999999999467
100
AcDbArc
 50
126.326826
 51
180.0
  0
LINE
  5
4E8
330
1F
100
AcDbEntity
  8
LC-001-100-D00-0
 62
     7
370
    50
100
AcDbLine
 10
-269.77024
 20
459.305907
 30
0.0
 11
-279.613535
 21
452.06819
 31
0.0
  0
ARC
  5
4E9
330
1F
100
AcDbEntity
  8
LC-001-100-D00-0
 62
     7
370
    50
100
AcDbCircle
 10
-267.993069
 20
456.888954
 30
0.0
 40
3.0
100
AcDbArc
 50
90.0
 51
126.326826
  0
LINE
  5
4EA
330
1F
100
AcDbEntity
  8
LC-001-100-D00-0
 62
     7
370
    50
100
AcDbLine
 10
-267.993069
 20
459.888954
 30
0.0
 11
-264.421144
 21
459.888954
 31
0.0
  0
LINE
  5
4EB
330
1F
100
AcDbEntity
  8
LC-001-100-D00-0
 62
     7
370
    50
100
AcDbLine
 10
-264.421144
 20
459.888954
 30
0.0
 11
-264.421144
 21
457.888954
 31
0.0
  0
LINE
  5
4EC
330
1F
100
AcDbEntity
  8
LC-001-100-D00-0
 62
     7
370
    50
100
AcDbLine
 10
-267.993069
 20
457.888954
 30
0.0
 11
-264.421144
 21
457.888954
 31
0.0
  0
ARC
  5
4ED
330
1F
100
AcDbEntity
  8
LC-001-100-D00-0
 62
     7
370
    50
100
AcDbCircle
 10
-267.993069
 20
456.888954
 30
0.0
 40
1.0
100
AcDbArc
 50
90.0
 51
126.326826
  0
LINE
  5
4EE
330
1F
100
AcDbEntity
  8
LC-001-100-D00-0
 62
     7
370
    50
100
AcDbLine
 10
-280.028265
 20
450.388954
 30
0.0
 11
-284.441749
 21
450.388954
 31
0.0
  0
LINE
  5
4EF
330
1F
100
AcDbEntity
  8
LC-001-100-D00-0
 62
     7
370
    50
100
AcDbLine
 10
-280.028265
 20
451.257172
 30
0.0
 11
-280.028265
 21
450.388954
 31
0.0
  0
ARC
  5
4F0
330
1F
100
AcDbEntity
  8
LC-001-100-D00-0
 62
     7
370
    50
100
AcDbCircle
 10
-279.027892
 20
451.257113
 30
0.0
 40
1.000373573444883
100
AcDbArc
 50
126.325165
 51
180.0
  0
LINE
  5
4F1
330
1F
100
AcDbEntity
  8
LC-001-100-D00-0
 62
     7
370
    50
100
AcDbLine
 10
-279.62048
 20
452.063082
 30
0.0
 11
-279.613535
 21
452.06819
 31
0.0
  0
LINE
  5
4F2
330
1F
100
AcDbEntity
  8
LC-001-100-D00-0
 62
     7
370
    50
100
AcDbLine
 10
-359.014024
 20
451.257172
 30
0.0
 11
-359.014024
 21
450.388954
 31
0.0
  0
LINE
  5
4F3
330
1F
100
AcDbEntity
  8
LC-001-100-D00-0
 62
     7
370
    50
100
AcDbLine
 10
-354.60054
 20
450.388954
 30
0.0
 11
-359.014024
 21
450.388954
 31
0.0
  0
ARC
  5
4F4
330
1F
100
AcDbEntity
  8
LC-001-100-D00-0
 62
     7
370
    50
100
AcDbCircle
 10
-360.014371
 20
451.257127
 30
0.0
 40
1.000347039120015
100
AcDbArc
 50
0.0
 51
53.675603
  0
LINE
  5
4F5
330
1F
100
AcDbEntity
  8
LC-001-100-D00-0
 62
     7
370
    50
100
AcDbLine
 10
-286.568709
 20
457.853059
 30
0.0
 11
-286.568709
 21
450.388956
 31
0.0
  0
LINE
  5
4F6
330
1F
100
AcDbEntity
  8
LC-001-100-D00-0
 62
     7
370
    50
100
AcDbLine
 10
-286.568711
 20
457.888954
 30
0.0
 11
-279.806729
 21
457.888954
 31
0.0
  0
LINE
  5
4F7
330
1F
100
AcDbEntity
  8
LC-001-100-D00-0
 62
     7
370
    50
100
AcDbLine
 10
-275.433278
 20
457.888954
 30
0.0
 11
-271.697296
 21
457.888954
 31
0.0
  0
LINE
  5
4F8
330
1F
100
AcDbEntity
  8
LC-001-100-D00-0
 62
     7
370
    50
100
AcDbLine
 10
-352.47358
 20
457.853059
 30
0.0
 11
-352.47358
 21
450.388956
 31
0.0
  0
LINE
  5
4F9
330
1F
100
AcDbEntity
  8
LC-001-100-D00-0
 62
     7
370
    50
100
AcDbLine
 10
-367.344993
 20
457.888954
 30
0.0
 11
-363.609011
 21
457.888954
 31
0.0
  0
LINE
  5
4FA
330
1F
100
AcDbEntity
  8
LC-001-100-D00-0
 62
     7
370
    50
100
AcDbLine
 10
-359.23556
 20
457.888954
 30
0.0
 11
-352.473578
 21
457.888954
 31
0.0
  0
LINE
  5
4FB
330
1F
100
AcDbEntity
  8
LC-001-100-D00-0
 62
     7
370
    50
100
AcDbLine
 10
-284.441749
 20
450.388954
 30
0.0
 11
-290.508637
 21
450.388954
 31
0.0
  0
LINE
  5
4FC
330
1F
100
AcDbEntity
  8
LC-001-100-D00-0
 62
     7
370
    50
100
AcDbLine
 10
-348.533652
 20
450.388954
 30
0.0
 11
-354.60054
 21
450.388954
 31
0.0
  0
LINE
  5
4FD
330
1F
100
AcDbEntity
  8
LC-001-100-D00-0
 62
     7
370
    50
100
AcDbLine
 10
-113.521353
 20
459.388955
 30
0.0
 11
-110.021353
 21
458.451132
 31
0.0
  0
LINE
  5
4FE
330
1F
100
AcDbEntity
  8
LC-001-100-D00-0
 62
     7
370
    50
100
AcDbLine
 10
-110.021353
 20
410.326778
 30
0.0
 11
-113.521353
 21
409.388951
 31
0.0
  0
LINE
  5
4FF
330
1F
100
AcDbEntity
  8
LC-001-100-D00-0
 62
     7
370
    50
100
AcDbLine
 10
-110.021348
 20
457.138954
 30
0.0
 11
-197.741371
 21
457.138954
 31
0.0
  0
LINE
  5
500
330
1F
100
AcDbEntity
  8
LC-001-100-D00-0
 62
     7
370
    50
100
AcDbLine
 10
-110.021348
 20
457.138954
 30
0.0
 11
-110.021348
 21
411.638954
 31
0.0
  0
LINE
  5
501
330
1F
100
AcDbEntity
  8
LC-001-100-D00-0
 62
     7
370
    50
100
AcDbLine
 10
-197.741371
 20
411.638954
 30
0.0
 11
-110.021348
 21
411.638954
 31
0.0
  0
LINE
  5
502
330
1F
100
AcDbEntity
  8
LC-001-100-D00-0
 62
     7
370
    50
100
AcDbLine
 10
-197.741371
 20
457.138954
 30
0.0
 11
-197.741371
 21
411.638954
 31
0.0
  0
ARC
  5
503
330
1F
100
AcDbEntity
  8
LC-001-100-D00-0
 62
     7
370
    50
100
AcDbCircle
 10
-216.521348
 20
434.388954
 30
0.0
 40
32.0
100
AcDbArc
 50
51.375167
 51
90.0
  0
LINE
  5
504
330
1F
100
AcDbEntity
  8
LC-001-100-D00-0
 62
     7
370
    50
100
AcDbLine
 10
-196.546363
 20
459.388954
 30
0.0
 11
-113.521353
 21
459.388955
 31
0.0
  0
LINE
  5
505
330
1F
100
AcDbEntity
  8
LC-001-100-D00-0
 62
     7
370
    50
100
AcDbLine
 10
-110.021353
 20
458.451132
 30
0.0
 11
-110.021348
 21
457.138954
 31
0.0
  0
ARC
  5
506
330
1F
100
AcDbEntity
  8
LC-001-100-D00-0
 62
     7
370
    50
100
AcDbCircle
 10
-216.521348
 20
434.388954
 30
0.0
 40
29.49999999999997
100
AcDbArc
 50
50.46055
 51
104.235124
  0
ARC
  5
507
330
1F
100
AcDbEntity
  8
LC-001-100-D00-0
 62
     7
370
    50
100
AcDbCircle
 10
-224.021348
 20
463.952445
 30
0.0
 40
1.000000000000114
100
AcDbArc
 50
180.0
 51
284.235124
  0
LINE
  5
508
330
1F
100
AcDbEntity
  8
LC-001-100-D00-0
 62
     7
370
    50
100
AcDbLine
 10
-225.021348
 20
463.952445
 30
0.0
 11
-225.021348
 21
466.388954
 31
0.0
  0
LINE
  5
509
330
1F
100
AcDbEntity
  8
LC-001-100-D00-0
 62
     7
370
    50
100
AcDbLine
 10
-225.021348
 20
466.388954
 30
0.0
 11
-216.521348
 21
466.388954
 31
0.0
  0
LINE
  5
50A
330
1F
100
AcDbEntity
  8
LC-001-100-D00-0
 62
     7
370
    50
100
AcDbLine
 10
-225.021348
 20
402.388951
 30
0.0
 11
-225.021348
 21
404.825463
 31
0.0
  0
ARC
  5
50B
330
1F
100
AcDbEntity
  8
LC-001-100-D00-0
 62
     7
370
    50
100
AcDbCircle
 10
-224.021348
 20
404.825463
 30
0.0
 40
1.000000000000083
100
AcDbArc
 50
75.764876
 51
180.0
  0
ARC
  5
50C
330
1F
100
AcDbEntity
  8
LC-001-100-D00-0
 62
     7
370
    50
100
AcDbCircle
 10
-216.521348
 20
434.388954
 30
0.0
 40
29.50000000000003
100
AcDbArc
 50
255.764876
 51
309.53945
  0
LINE
  5
50D
330
1F
100
AcDbEntity
  8
LC-001-100-D00-0
 62
     7
370
    50
100
AcDbLine
 10
-110.021348
 20
411.638954
 30
0.0
 11
-110.021353
 21
410.326778
 31
0.0
  0
LINE
  5
50E
330
1F
100
AcDbEntity
  8
LC-001-100-D00-0
 62
     7
370
    50
100
AcDbLine
 10
-113.521353
 20
409.388951
 30
0.0
 11
-196.546363
 21
409.388954
 31
0.0
  0
ARC
  5
50F
330
1F
100
AcDbEntity
  8
LC-001-100-D00-0
 62
     7
370
    50
100
AcDbCircle
 10
-216.521348
 20
434.388954
 30
0.0
 40
32.00000000000023
100
AcDbArc
 50
270.0
 51
308.624833
  0
LINE
  5
510
330
1F
100
AcDbEntity
  8
LC-001-100-D00-0
 62
     7
370
    50
100
AcDbLine
 10
-216.521348
 20
402.388954
 30
0.0
 11
-225.021348
 21
402.388951
 31
0.0
  0
LINE
  5
511
330
1F
100
AcDbEntity
  8
LC-001-100-D00-0
 62
     7
370
    50
100
AcDbLine
 10
-225.021348
 20
405.953751
 30
0.0
 11
-225.021348
 21
404.825463
 31
0.0
  0
CIRCLE
  5
512
330
1F
100
AcDbEntity
  8
LC-001-100-D00-0
 62
     7
370
    50
100
AcDbCircle
 10
-208.273349
 20
461.388954
 30
0.0
 40
1.999999999999659
  0
CIRCLE
  5
513
330
1F
100
AcDbEntity
  8
LC-001-100-D00-0
 62
     7
370
    50
100
AcDbCircle
 10
-208.273349
 20
407.388954
 30
0.0
 40
2.000000000000114
  0
LINE
  5
514
330
1F
100
AcDbEntity
  8
LC-001-100-D00-0
 62
     7
370
    50
100
AcDbLine
 10
-226.178807
 20
469.803769
 30
0.0
 11
-244.012478
 21
465.025251
 31
0.0
  0
ARC
  5
515
330
1F
100
AcDbEntity
  8
LC-001-100-D00-0
 62
     7
370
    50
100
AcDbCircle
 10
-245.047754
 20
468.888954
 30
0.0
 40
4.0
100
AcDbArc
 50
270.0
 51
285.0
  0
LINE
  5
516
330
1F
100
AcDbEntity
  8
LC-001-100-D00-0
 62
     7
370
    50
100
AcDbLine
 10
-245.047754
 20
464.888954
 30
0.0
 11
-261.721144
 21
464.888954
 31
0.0
  0
ARC
  5
517
330
1F
100
AcDbEntity
  8
LC-001-100-D00-0
 62
     7
370
    50
100
AcDbCircle
 10
-261.721144
 20
463.888954
 30
0.0
 40
1.000000000000227
100
AcDbArc
 50
90.0
 51
180.0
  0
LINE
  5
518
330
1F
100
AcDbEntity
  8
LC-001-100-D00-0
 62
     7
370
    50
100
AcDbLine
 10
-262.721144
 20
463.888954
 30
0.0
 11
-262.721144
 21
459.888952
 31
0.0
  0
LINE
  5
519
330
1F
100
AcDbEntity
  8
LC-001-100-D00-0
 62
     7
370
    50
100
AcDbLine
 10
-262.721144
 20
459.888952
 30
0.0
 11
-264.221144
 21
459.888954
 31
0.0
  0
LINE
  5
51A
330
1F
100
AcDbEntity
  8
LC-001-100-D00-0
 62
     7
370
    50
100
AcDbLine
 10
-264.221144
 20
463.888954
 30
0.0
 11
-264.221144
 21
459.888954
 31
0.0
  0
ARC
  5
51B
330
1F
100
AcDbEntity
  8
LC-001-100-D00-0
 62
     7
370
    50
100
AcDbCircle
 10
-261.721144
 20
463.888954
 30
0.0
 40
2.5
100
AcDbArc
 50
90.0
 51
180.0
  0
LINE
  5
51C
330
1F
100
AcDbEntity
  8
LC-001-100-D00-0
 62
     7
370
    50
100
AcDbLine
 10
-245.047754
 20
466.388954
 30
0.0
 11
-261.721144
 21
466.388954
 31
0.0
  0
ARC
  5
51D
330
1F
100
AcDbEntity
  8
LC-001-100-D00-0
 62
     7
370
    50
100
AcDbCircle
 10
-245.047754
 20
468.888954
 30
0.0
 40
2.5
100
AcDbArc
 50
270.0
 51
285.0
  0
LINE
  5
51E
330
1F
100
AcDbEntity
  8
LC-001-100-D00-0
 62
     7
370
    50
100
AcDbLine
 10
-226.567035
 20
471.252657
 30
0.0
 11
-244.400707
 21
466.474139
 31
0.0
  0
ARC
  5
51F
330
1F
100
AcDbEntity
  8
LC-001-100-D00-0
 62
     7
370
    50
100
AcDbCircle
 10
-225.531759
 20
467.388954
 30
0.0
 40
4.0
100
AcDbArc
 50
90.0
 51
105.0
  0
LINE
  5
520
330
1F
100
AcDbEntity
  8
LC-001-100-D00-0
 62
     7
370
    50
100
AcDbLine
 10
-225.531759
 20
471.388954
 30
0.0
 11
-224.021145
 21
471.388953
 31
0.0
  0
LINE
  5
521
330
1F
100
AcDbEntity
  8
LC-001-100-D00-0
 62
     7
370
    50
100
AcDbLine
 10
-224.021145
 20
471.388953
 30
0.0
 11
-224.021145
 21
472.788955
 31
0.0
  0
LINE
  5
522
330
1F
100
AcDbEntity
  8
LC-001-100-D00-0
 62
     7
370
    50
100
AcDbLine
 10
-223.521144
 20
472.788954
 30
0.0
 11
-224.021145
 21
472.788955
 31
0.0
  0
ARC
  5
523
330
1F
100
AcDbEntity
  8
LC-001-100-D00-0
 62
     7
370
    50
100
AcDbCircle
 10
-224.521144
 20
474.288954
 30
0.0
 40
1.80277563773231
100
AcDbArc
 50
303.690068
 51
56.309932
  0
LINE
  5
524
330
1F
100
AcDbEntity
  8
LC-001-100-D00-0
 62
     7
370
    50
100
AcDbLine
 10
-223.521144
 20
490.388954
 30
0.0
 11
-223.521144
 21
475.788954
 31
0.0
  0
LINE
  5
525
330
1F
100
AcDbEntity
  8
LC-001-100-D00-0
 62
     7
370
    50
100
AcDbLine
 10
-222.521142
 20
491.388954
 30
0.0
 11
-223.521144
 21
490.388954
 31
0.0
  0
LINE
  5
526
330
1F
100
AcDbEntity
  8
LC-001-100-D00-0
 62
     7
370
    50
100
AcDbLine
 10
-216.521144
 20
491.388954
 30
0.0
 11
-222.521142
 21
491.388954
 31
0.0
  0
LINE
  5
527
330
1F
100
AcDbEntity
  8
LC-001-100-D00-0
 62
     7
370
    50
100
AcDbLine
 10
-215.521142
 20
490.388954
 30
0.0
 11
-216.521144
 21
491.388954
 31
0.0
  0
LINE
  5
528
330
1F
100
AcDbEntity
  8
LC-001-100-D00-0
 62
     7
370
    50
100
AcDbLine
 10
-215.521144
 20
475.788954
 30
0.0
 11
-215.521142
 21
490.388954
 31
0.0
  0
ARC
  5
529
330
1F
100
AcDbEntity
  8
LC-001-100-D00-0
 62
     7
370
    50
100
AcDbCircle
 10
-214.521144
 20
474.288954
 30
0.0
 40
1.802775637731868
100
AcDbArc
 50
123.690068
 51
236.309932
  0
LINE
  5
52A
330
1F
100
AcDbEntity
  8
LC-001-100-D00-0
 62
     7
370
    50
100
AcDbLine
 10
-215.021141
 20
472.788955
 30
0.0
 11
-215.521144
 21
472.788954
 31
0.0
  0
LINE
  5
52B
330
1F
100
AcDbEntity
  8
LC-001-100-D00-0
 62
     7
370
    50
100
AcDbLine
 10
-215.021141
 20
472.788955
 30
0.0
 11
-215.021141
 21
471.388953
 31
0.0
  0
LINE
  5
52C
330
1F
100
AcDbEntity
  8
LC-001-100-D00-0
 62
     7
370
    50
100
AcDbLine
 10
-215.021141
 20
471.388953
 30
0.0
 11
-64.021156
 21
471.388953
 31
0.0
  0
LINE
  5
52D
330
1F
100
AcDbEntity
  8
LC-001-100-D00-0
 62
     7
370
    50
100
AcDbLine
 10
-64.021156
 20
471.388953
 30
0.0
 11
-64.021156
 21
472.788955
 31
0.0
  0
LINE
  5
52E
330
1F
100
AcDbEntity
  8
LC-001-100-D00-0
 62
     7
370
    50
100
AcDbLine
 10
-63.521144
 20
472.788954
 30
0.0
 11
-64.021156
 21
472.788955
 31
0.0
  0
ARC
  5
52F
330
1F
100
AcDbEntity
  8
LC-001-100-D00-0
 62
     7
370
    50
100
AcDbCircle
 10
-64.521144
 20
474.288954
 30
0.0
 40
1.80277563773231
100
AcDbArc
 50
303.690068
 51
56.309932
  0
LINE
  5
530
330
1F
100
AcDbEntity
  8
LC-001-100-D00-0
 62
     7
370
    50
100
AcDbLine
 10
-63.521132
 20
490.388954
 30
0.0
 11
-63.521144
 21
475.788954
 31
0.0
  0
LINE
  5
531
330
1F
100
AcDbEntity
  8
LC-001-100-D00-0
 62
     7
370
    50
100
AcDbLine
 10
-62.521145
 20
491.388954
 30
0.0
 11
-63.521132
 21
490.388954
 31
0.0
  0
LINE
  5
532
330
1F
100
AcDbEntity
  8
LC-001-100-D00-0
 62
     7
370
    50
100
AcDbLine
 10
-56.521133
 20
491.388954
 30
0.0
 11
-62.521145
 21
491.388954
 31
0.0
  0
LINE
  5
533
330
1F
100
AcDbEntity
  8
LC-001-100-D00-0
 62
     7
370
    50
100
AcDbLine
 10
-55.521146
 20
490.388954
 30
0.0
 11
-56.521133
 21
491.388954
 31
0.0
  0
LINE
  5
534
330
1F
100
AcDbEntity
  8
LC-001-100-D00-0
 62
     7
370
    50
100
AcDbLine
 10
-55.521144
 20
475.788954
 30
0.0
 11
-55.521146
 21
490.388954
 31
0.0
  0
ARC
  5
535
330
1F
100
AcDbEntity
  8
LC-001-100-D00-0
 62
     7
370
    50
100
AcDbCircle
 10
-54.521144
 20
474.288954
 30
0.0
 40
1.802775637731679
100
AcDbArc
 50
123.690068
 51
236.309932
  0
LINE
  5
536
330
1F
100
AcDbEntity
  8
LC-001-100-D00-0
 62
     7
370
    50
100
AcDbLine
 10
-55.021152
 20
472.788955
 30
0.0
 11
-55.521144
 21
472.788954
 31
0.0
  0
LINE
  5
537
330
1F
100
AcDbEntity
  8
LC-001-100-D00-0
 62
     7
370
    50
100
AcDbLine
 10
-55.021152
 20
472.788955
 30
0.0
 11
-55.021152
 21
471.388953
 31
0.0
  0
LINE
  5
538
330
1F
100
AcDbEntity
  8
LC-001-100-D00-0
 62
     7
370
    50
100
AcDbLine
 10
-55.021152
 20
471.388953
 30
0.0
 11
95.978841
 21
471.388953
 31
0.0
  0
LINE
  5
539
330
1F
100
AcDbEntity
  8
LC-001-100-D00-0
 62
     7
370
    50
100
AcDbLine
 10
95.978841
 20
471.388953
 30
0.0
 11
95.978841
 21
472.788955
 31
0.0
  0
LINE
  5
53A
330
1F
100
AcDbEntity
  8
LC-001-100-D00-0
 62
     7
370
    50
100
AcDbLine
 10
96.478856
 20
472.788954
 30
0.0
 11
95.978841
 21
472.788955
 31
0.0
  0
ARC
  5
53B
330
1F
100
AcDbEntity
  8
LC-001-100-D00-0
 62
     7
370
    50
100
AcDbCircle
 10
95.478856
 20
474.288954
 30
0.0
 40
1.802775637731868
100
AcDbArc
 50
303.690068
 51
56.309932
  0
LINE
  5
53C
330
1F
100
AcDbEntity
  8
LC-001-100-D00-0
 62
     7
370
    50
100
AcDbLine
 10
96.478864
 20
490.388954
 30
0.0
 11
96.478856
 21
475.788954
 31
0.0
  0
LINE
  5
53D
330
1F
100
AcDbEntity
  8
LC-001-100-D00-0
 62
     7
370
    50
100
AcDbLine
 10
97.478851
 20
491.388954
 30
0.0
 11
96.478864
 21
490.388954
 31
0.0
  0
LINE
  5
53E
330
1F
100
AcDbEntity
  8
LC-001-100-D00-0
 62
     7
370
    50
100
AcDbLine
 10
103.478863
 20
491.388954
 30
0.0
 11
97.478851
 21
491.388954
 31
0.0
  0
LINE
  5
53F
330
1F
100
AcDbEntity
  8
LC-001-100-D00-0
 62
     7
370
    50
100
AcDbLine
 10
104.478851
 20
490.388954
 30
0.0
 11
103.478863
 21
491.388954
 31
0.0
  0
LINE
  5
540
330
1F
100
AcDbEntity
  8
LC-001-100-D00-0
 62
     7
370
    50
100
AcDbLine
 10
104.478856
 20
475.788954
 30
0.0
 11
104.478851
 21
490.388954
 31
0.0
  0
ARC
  5
541
330
1F
100
AcDbEntity
  8
LC-001-100-D00-0
 62
     7
370
    50
100
AcDbCircle
 10
105.478856
 20
474.288954
 30
0.0
 40
1.802775637731616
100
AcDbArc
 50
123.690068
 51
236.309932
  0
LINE
  5
542
330
1F
100
AcDbEntity
  8
LC-001-100-D00-0
 62
     7
370
    50
100
AcDbLine
 10
104.978844
 20
472.788955
 30
0.0
 11
104.478856
 21
472.788954
 31
0.0
  0
LINE
  5
543
330
1F
100
AcDbEntity
  8
LC-001-100-D00-0
 62
     7
370
    50
100
AcDbLine
 10
104.978844
 20
472.788955
 30
0.0
 11
104.978844
 21
471.388953
 31
0.0
  0
LINE
  5
544
330
1F
100
AcDbEntity
  8
LC-001-100-D00-0
 62
     7
370
    50
100
AcDbLine
 10
104.978844
 20
471.388953
 30
0.0
 11
122.478856
 21
471.388954
 31
0.0
  0
ARC
  5
545
330
1F
100
AcDbEntity
  8
LC-001-100-D00-0
 62
     7
370
    50
100
AcDbCircle
 10
122.478856
 20
479.388954
 30
0.0
 40
8.000000000000227
100
AcDbArc
 50
270.0
 51
0.0
  0
LINE
  5
546
330
1F
100
AcDbEntity
  8
LC-001-100-D00-0
 62
     7
370
    50
100
AcDbLine
 10
130.478856
 20
479.388954
 30
0.0
 11
130.478856
 21
488.888954
 31
0.0
  0
ARC
  5
547
330
1F
100
AcDbEntity
  8
LC-001-100-D00-0
 62
     7
370
    50
100
AcDbCircle
 10
133.478856
 20
488.888954
 30
0.0
 40
3.000000000000227
100
AcDbArc
 50
90.0
 51
180.0
  0
LINE
  5
548
330
1F
100
AcDbEntity
  8
LC-001-100-D00-0
 62
     7
370
    50
100
AcDbLine
 10
180.478856
 20
491.888954
 30
0.0
 11
133.478856
 21
491.888954
 31
0.0
  0
LINE
  5
549
330
1F
100
AcDbEntity
  8
LC-001-100-D00-0
 62
     7
370
    50
100
AcDbLine
 10
180.478856
 20
490.388954
 30
0.0
 11
180.478856
 21
491.888954
 31
0.0
  0
LINE
  5
54A
330
1F
100
AcDbEntity
  8
LC-001-100-D00-0
 62
     7
370
    50
100
AcDbLine
 10
180.478856
 20
490.388954
 30
0.0
 11
133.478856
 21
490.388954
 31
0.0
  0
ARC
  5
54B
330
1F
100
AcDbEntity
  8
LC-001-100-D00-0
 62
     7
370
    50
100
AcDbCircle
 10
133.478856
 20
488.888954
 30
0.0
 40
1.5
100
AcDbArc
 50
90.0
 51
180.0
  0
LINE
  5
54C
330
1F
100
AcDbEntity
  8
LC-001-100-D00-0
 62
     7
370
    50
100
AcDbLine
 10
131.978856
 20
479.388954
 30
0.0
 11
131.978856
 21
488.888954
 31
0.0
  0
ARC
  5
54D
330
1F
100
AcDbEntity
  8
LC-001-100-D00-0
 62
     7
370
    50
100
AcDbCircle
 10
122.478856
 20
479.388954
 30
0.0
 40
9.5
100
AcDbArc
 50
270.0
 51
0.0
  0
LINE
  5
54E
330
1F
100
AcDbEntity
  8
LC-001-100-D00-0
 62
     7
370
    50
100
AcDbLine
 10
-225.531759
 20
469.888954
 30
0.0
 11
122.478856
 21
469.888954
 31
0.0
  0
ARC
  5
54F
330
1F
100
AcDbEntity
  8
LC-001-100-D00-0
 62
     7
370
    50
100
AcDbCircle
 10
-225.531759
 20
467.388954
 30
0.0
 40
2.5
100
AcDbArc
 50
90.0
 51
105.0
  0
LINE
  5
550
330
1F
100
AcDbEntity
  8
LC-001-100-D00-0
 62
     7
370
    50
100
AcDbLine
 10
-264.221144
 20
459.888954
 30
0.0
 11
-264.421144
 21
459.888954
 31
0.0
  0
LINE
  5
551
330
1F
100
AcDbEntity
  8
LC-001-100-D00-0
 62
     7
370
    50
100
AcDbLine
 10
-275.127261
 20
466.388954
 30
0.0
 11
-261.721144
 21
466.388954
 31
0.0
  0
LINE
  5
552
330
1F
100
AcDbEntity
  8
LC-001-100-D00-0
 62
     7
370
    50
100
AcDbLine
 10
-374.621144
 20
459.888954
 30
0.0
 11
-374.821144
 21
459.888954
 31
0.0
  0
LINE
  5
553
330
1F
100
AcDbEntity
  8
LC-001-100-D00-0
 62
     7
370
    50
100
AcDbLine
 10
-374.821144
 20
459.888954
 30
0.0
 11
-374.821144
 21
463.888954
 31
0.0
  0
LINE
  5
554
330
1F
100
AcDbEntity
  8
LC-001-100-D00-0
 62
     7
370
    50
100
AcDbLine
 10
-376.321145
 20
459.888952
 30
0.0
 11
-376.321144
 21
463.888954
 31
0.0
  0
LINE
  5
555
330
1F
100
AcDbEntity
  8
LC-001-100-D00-0
 62
     7
370
    50
100
AcDbLine
 10
-735.02113
 20
472.788955
 30
0.0
 11
-735.521144
 21
472.788954
 31
0.0
  0
LINE
  5
556
330
1F
100
AcDbEntity
  8
LC-001-100-D00-0
 62
     7
370
    50
100
AcDbLine
 10
-735.02113
 20
472.788955
 30
0.0
 11
-735.02113
 21
471.388953
 31
0.0
  0
LINE
  5
557
330
1F
100
AcDbEntity
  8
LC-001-100-D00-0
 62
     7
370
    50
100
AcDbLine
 10
-735.02113
 20
471.388953
 30
0.0
 11
-584.021137
 21
471.388953
 31
0.0
  0
LINE
  5
558
330
1F
100
AcDbEntity
  8
LC-001-100-D00-0
 62
     7
370
    50
100
AcDbLine
 10
-584.021137
 20
471.388953
 30
0.0
 11
-584.021137
 21
472.788955
 31
0.0
  0
LINE
  5
559
330
1F
100
AcDbEntity
  8
LC-001-100-D00-0
 62
     7
370
    50
100
AcDbLine
 10
-583.521144
 20
472.788954
 30
0.0
 11
-584.021137
 21
472.788955
 31
0.0
  0
ARC
  5
55A
330
1F
100
AcDbEntity
  8
LC-001-100-D00-0
 62
     7
370
    50
100
AcDbCircle
 10
-584.521144
 20
474.288954
 30
0.0
 40
1.802775637732247
100
AcDbArc
 50
303.690068
 51
56.309932
  0
LINE
  5
55B
330
1F
100
AcDbEntity
  8
LC-001-100-D00-0
 62
     7
370
    50
100
AcDbLine
 10
-583.521143
 20
490.388954
 30
0.0
 11
-583.521144
 21
475.788954
 31
0.0
  0
LINE
  5
55C
330
1F
100
AcDbEntity
  8
LC-001-100-D00-0
 62
     7
370
    50
100
AcDbLine
 10
-582.521156
 20
491.388954
 30
0.0
 11
-583.521143
 21
490.388954
 31
0.0
  0
LINE
  5
55D
330
1F
100
AcDbEntity
  8
LC-001-100-D00-0
 62
     7
370
    50
100
AcDbLine
 10
-576.521144
 20
491.388954
 30
0.0
 11
-582.521156
 21
491.388954
 31
0.0
  0
LINE
  5
55E
330
1F
100
AcDbEntity
  8
LC-001-100-D00-0
 62
     7
370
    50
100
AcDbLine
 10
-575.521157
 20
490.388954
 30
0.0
 11
-576.521144
 21
491.388954
 31
0.0
  0
LINE
  5
55F
330
1F
100
AcDbEntity
  8
LC-001-100-D00-0
 62
     7
370
    50
100
AcDbLine
 10
-575.521144
 20
475.788954
 30
0.0
 11
-575.521157
 21
490.388954
 31
0.0
  0
ARC
  5
560
330
1F
100
AcDbEntity
  8
LC-001-100-D00-0
 62
     7
370
    50
100
AcDbCircle
 10
-574.521144
 20
474.288954
 30
0.0
 40
1.802775637731932
100
AcDbArc
 50
123.690068
 51
236.309932
  0
LINE
  5
561
330
1F
100
AcDbEntity
  8
LC-001-100-D00-0
 62
     7
370
    50
100
AcDbLine
 10
-575.021133
 20
472.788955
 30
0.0
 11
-575.521144
 21
472.788954
 31
0.0
  0
LINE
  5
562
330
1F
100
AcDbEntity
  8
LC-001-100-D00-0
 62
     7
370
    50
100
AcDbLine
 10
-575.021133
 20
472.788955
 30
0.0
 11
-575.021133
 21
471.388953
 31
0.0
  0
LINE
  5
563
330
1F
100
AcDbEntity
  8
LC-001-100-D00-0
 62
     7
370
    50
100
AcDbLine
 10
-575.021133
 20
471.388953
 30
0.0
 11
-424.021148
 21
471.388953
 31
0.0
  0
LINE
  5
564
330
1F
100
AcDbEntity
  8
LC-001-100-D00-0
 62
     7
370
    50
100
AcDbLine
 10
-424.021148
 20
471.388953
 30
0.0
 11
-424.021148
 21
472.788955
 31
0.0
  0
LINE
  5
565
330
1F
100
AcDbEntity
  8
LC-001-100-D00-0
 62
     7
370
    50
100
AcDbLine
 10
-423.521144
 20
472.788954
 30
0.0
 11
-424.021148
 21
472.788955
 31
0.0
  0
ARC
  5
566
330
1F
100
AcDbEntity
  8
LC-001-100-D00-0
 62
     7
370
    50
100
AcDbCircle
 10
-424.521144
 20
474.288954
 30
0.0
 40
1.80277563773231
100
AcDbArc
 50
303.690068
 51
56.309932
  0
LINE
  5
567
330
1F
100
AcDbEntity
  8
LC-001-100-D00-0
 62
     7
370
    50
100
AcDbLine
 10
-423.521147
 20
490.388954
 30
0.0
 11
-423.521144
 21
475.788954
 31
0.0
  0
LINE
  5
568
330
1F
100
AcDbEntity
  8
LC-001-100-D00-0
 62
     7
370
    50
100
AcDbLine
 10
-422.521145
 20
491.388954
 30
0.0
 11
-423.521147
 21
490.388954
 31
0.0
  0
LINE
  5
569
330
1F
100
AcDbEntity
  8
LC-001-100-D00-0
 62
     7
370
    50
100
AcDbLine
 10
-416.521147
 20
491.388954
 30
0.0
 11
-422.521145
 21
491.388954
 31
0.0
  0
LINE
  5
56A
330
1F
100
AcDbEntity
  8
LC-001-100-D00-0
 62
     7
370
    50
100
AcDbLine
 10
-415.521145
 20
490.388954
 30
0.0
 11
-416.521147
 21
491.388954
 31
0.0
  0
LINE
  5
56B
330
1F
100
AcDbEntity
  8
LC-001-100-D00-0
 62
     7
370
    50
100
AcDbLine
 10
-415.521144
 20
475.788954
 30
0.0
 11
-415.521145
 21
490.388954
 31
0.0
  0
ARC
  5
56C
330
1F
100
AcDbEntity
  8
LC-001-100-D00-0
 62
     7
370
    50
100
AcDbCircle
 10
-414.521144
 20
474.288954
 30
0.0
 40
1.8027756377319
100
AcDbArc
 50
123.690068
 51
236.309932
  0
LINE
  5
56D
330
1F
100
AcDbEntity
  8
LC-001-100-D00-0
 62
     7
370
    50
100
AcDbLine
 10
-415.021144
 20
472.788955
 30
0.0
 11
-415.521144
 21
472.788954
 31
0.0
  0
LINE
  5
56E
330
1F
100
AcDbEntity
  8
LC-001-100-D00-0
 62
     7
370
    50
100
AcDbLine
 10
-415.021144
 20
472.788955
 30
0.0
 11
-415.021144
 21
471.388953
 31
0.0
  0
LINE
  5
56F
330
1F
100
AcDbEntity
  8
LC-001-100-D00-0
 62
     7
370
    50
100
AcDbLine
 10
-415.021144
 20
471.388953
 30
0.0
 11
-413.51053
 21
471.388954
 31
0.0
  0
ARC
  5
570
330
1F
100
AcDbEntity
  8
LC-001-100-D00-0
 62
     7
370
    50
100
AcDbCircle
 10
-413.51053
 20
467.388954
 30
0.0
 40
3.999999999999653
100
AcDbArc
 50
75.0
 51
90.0
  0
LINE
  5
571
330
1F
100
AcDbEntity
  8
LC-001-100-D00-0
 62
     7
370
    50
100
AcDbLine
 10
-394.641582
 20
466.474139
 30
0.0
 11
-412.475254
 21
471.252657
 31
0.0
  0
ARC
  5
572
330
1F
100
AcDbEntity
  8
LC-001-100-D00-0
 62
     7
370
    50
100
AcDbCircle
 10
-393.994535
 20
468.888954
 30
0.0
 40
2.500000000000062
100
AcDbArc
 50
255.0
 51
270.0
  0
LINE
  5
573
330
1F
100
AcDbEntity
  8
LC-001-100-D00-0
 62
     7
370
    50
100
AcDbLine
 10
-388.598353
 20
466.288955
 30
0.0
 11
-388.598353
 21
466.388954
 31
0.0
  0
LINE
  5
574
330
1F
100
AcDbEntity
  8
LC-001-100-D00-0
 62
     7
370
    50
100
AcDbLine
 10
-388.074518
 20
466.288955
 30
0.0
 11
-388.598353
 21
466.288955
 31
0.0
  0
LINE
  5
575
330
1F
100
AcDbEntity
  8
LC-001-100-D00-0
 62
     7
370
    50
100
AcDbLine
 10
-388.074518
 20
466.388954
 30
0.0
 11
-388.074518
 21
466.288955
 31
0.0
  0
LINE
  5
576
330
1F
100
AcDbEntity
  8
LC-001-100-D00-0
 62
     7
370
    50
100
AcDbLine
 10
-387.380273
 20
466.288955
 30
0.0
 11
-387.380273
 21
466.388954
 31
0.0
  0
LINE
  5
577
330
1F
100
AcDbEntity
  8
LC-001-100-D00-0
 62
     7
370
    50
100
AcDbLine
 10
-386.855923
 20
466.288955
 30
0.0
 11
-387.380273
 21
466.288955
 31
0.0
  0
LINE
  5
578
330
1F
100
AcDbEntity
  8
LC-001-100-D00-0
 62
     7
370
    50
100
AcDbLine
 10
-386.855923
 20
466.388954
 30
0.0
 11
-386.855923
 21
466.288955
 31
0.0
  0
ARC
  5
579
330
1F
100
AcDbEntity
  8
LC-001-100-D00-0
 62
     7
370
    50
100
AcDbCircle
 10
-377.321144
 20
463.888954
 30
0.0
 40
2.5
100
AcDbArc
 50
0.0
 51
90.0
  0
LINE
  5
57A
330
1F
100
AcDbEntity
  8
LC-001-100-D00-0
 62
     7
370
    50
100
AcDbLine
 10
-374.821144
 20
459.888954
 30
0.0
 11
-376.321145
 21
459.888952
 31
0.0
  0
ARC
  5
57B
330
1F
100
AcDbEntity
  8
LC-001-100-D00-0
 62
     7
370
    50
100
AcDbCircle
 10
-377.321144
 20
463.888954
 30
0.0
 40
1.0
100
AcDbArc
 50
0.0
 51
90.0
  0
ARC
  5
57C
330
1F
100
AcDbEntity
  8
LC-001-100-D00-0
 62
     7
370
    50
100
AcDbCircle
 10
-393.994535
 20
468.888954
 30
0.0
 40
4.000000000000092
100
AcDbArc
 50
255.0
 51
270.0
  0
LINE
  5
57D
330
1F
100
AcDbEntity
  8
LC-001-100-D00-0
 62
     7
370
    50
100
AcDbLine
 10
-395.029811
 20
465.025251
 30
0.0
 11
-412.863482
 21
469.803769
 31
0.0
  0
ARC
  5
57E
330
1F
100
AcDbEntity
  8
LC-001-100-D00-0
 62
     7
370
    50
100
AcDbCircle
 10
-413.51053
 20
467.388954
 30
0.0
 40
2.500000000000062
100
AcDbArc
 50
75.0
 51
90.0
  0
LINE
  5
57F
330
1F
100
AcDbEntity
  8
LC-001-100-D00-0
 62
     7
370
    50
100
AcDbLine
 10
-761.521144
 20
469.888954
 30
0.0
 11
-413.51053
 21
469.888954
 31
0.0
  0
ARC
  5
580
330
1F
100
AcDbEntity
  8
LC-001-100-D00-0
 62
     7
370
    50
100
AcDbCircle
 10
-761.521144
 20
479.388954
 30
0.0
 40
9.5
100
AcDbArc
 50
180.0
 51
270.0
  0
LINE
  5
581
330
1F
100
AcDbEntity
  8
LC-001-100-D00-0
 62
     7
370
    50
100
AcDbLine
 10
-771.021144
 20
488.888954
 30
0.0
 11
-771.021144
 21
479.388954
 31
0.0
  0
ARC
  5
582
330
1F
100
AcDbEntity
  8
LC-001-100-D00-0
 62
     7
370
    50
100
AcDbCircle
 10
-772.521144
 20
488.888954
 30
0.0
 40
1.5
100
AcDbArc
 50
0.0
 51
90.0
  0
LINE
  5
583
330
1F
100
AcDbEntity
  8
LC-001-100-D00-0
 62
     7
370
    50
100
AcDbLine
 10
-819.521144
 20
491.888954
 30
0.0
 11
-819.521144
 21
490.388954
 31
0.0
  0
ARC
  5
584
330
1F
100
AcDbEntity
  8
LC-001-100-D00-0
 62
     7
370
    50
100
AcDbCircle
 10
-772.521144
 20
488.888954
 30
0.0
 40
3.0
100
AcDbArc
 50
0.0
 51
90.0
  0
LINE
  5
585
330
1F
100
AcDbEntity
  8
LC-001-100-D00-0
 62
     7
370
    50
100
AcDbLine
 10
-769.521144
 20
488.888954
 30
0.0
 11
-769.521144
 21
479.388954
 31
0.0
  0
ARC
  5
586
330
1F
100
AcDbEntity
  8
LC-001-100-D00-0
 62
     7
370
    50
100
AcDbCircle
 10
-761.521144
 20
479.388954
 30
0.0
 40
8.000000000000227
100
AcDbArc
 50
180.0
 51
270.0
  0
LINE
  5
587
330
1F
100
AcDbEntity
  8
LC-001-100-D00-0
 62
     7
370
    50
100
AcDbLine
 10
-761.521144
 20
471.388954
 30
0.0
 11
-744.021133
 21
471.388953
 31
0.0
  0
LINE
  5
588
330
1F
100
AcDbEntity
  8
LC-001-100-D00-0
 62
     7
370
    50
100
AcDbLine
 10
-744.021133
 20
471.388953
 30
0.0
 11
-744.021133
 21
472.788955
 31
0.0
  0
LINE
  5
589
330
1F
100
AcDbEntity
  8
LC-001-100-D00-0
 62
     7
370
    50
100
AcDbLine
 10
-743.521144
 20
472.788954
 30
0.0
 11
-744.021133
 21
472.788955
 31
0.0
  0
ARC
  5
58A
330
1F
100
AcDbEntity
  8
LC-001-100-D00-0
 62
     7
370
    50
100
AcDbCircle
 10
-744.521144
 20
474.288954
 30
0.0
 40
1.802775637731868
100
AcDbArc
 50
303.690068
 51
56.309932
  0
LINE
  5
58B
330
1F
100
AcDbEntity
  8
LC-001-100-D00-0
 62
     7
370
    50
100
AcDbLine
 10
-743.521139
 20
490.388954
 30
0.0
 11
-743.521144
 21
475.788954
 31
0.0
  0
LINE
  5
58C
330
1F
100
AcDbEntity
  8
LC-001-100-D00-0
 62
     7
370
    50
100
AcDbLine
 10
-742.521152
 20
491.388954
 30
0.0
 11
-743.521139
 21
490.388954
 31
0.0
  0
LINE
  5
58D
330
1F
100
AcDbEntity
  8
LC-001-100-D00-0
 62
     7
370
    50
100
AcDbLine
 10
-736.52114
 20
491.388954
 30
0.0
 11
-742.521152
 21
491.388954
 31
0.0
  0
LINE
  5
58E
330
1F
100
AcDbEntity
  8
LC-001-100-D00-0
 62
     7
370
    50
100
AcDbLine
 10
-735.521153
 20
490.388954
 30
0.0
 11
-736.52114
 21
491.388954
 31
0.0
  0
LINE
  5
58F
330
1F
100
AcDbEntity
  8
LC-001-100-D00-0
 62
     7
370
    50
100
AcDbLine
 10
-735.521144
 20
475.788954
 30
0.0
 11
-735.521153
 21
490.388954
 31
0.0
  0
ARC
  5
590
330
1F
100
AcDbEntity
  8
LC-001-100-D00-0
 62
     7
370
    50
100
AcDbCircle
 10
-734.521144
 20
474.288954
 30
0.0
 40
1.802775637731679
100
AcDbArc
 50
123.690068
 51
236.309932
  0
LINE
  5
591
330
1F
100
AcDbEntity
  8
LC-001-100-D00-0
 62
     7
370
    50
100
AcDbLine
 10
-377.321144
 20
464.888954
 30
0.0
 11
-393.994535
 21
464.888954
 31
0.0
  0
LINE
  5
592
330
1F
100
AcDbEntity
  8
LC-001-100-D00-0
 62
     7
370
    50
100
AcDbLine
 10
-387.380273
 20
466.388954
 30
0.0
 11
-388.074518
 21
466.388954
 31
0.0
  0
LINE
  5
593
330
1F
100
AcDbEntity
  8
LC-001-100-D00-0
 62
     7
370
    50
100
AcDbLine
 10
-388.598353
 20
466.388954
 30
0.0
 11
-393.994535
 21
466.388954
 31
0.0
  0
LINE
  5
594
330
1F
100
AcDbEntity
  8
LC-001-100-D00-0
 62
     7
370
    50
100
AcDbLine
 10
-377.321144
 20
466.388954
 30
0.0
 11
-386.855923
 21
466.388954
 31
0.0
  0
LINE
  5
595
330
1F
100
AcDbEntity
  8
LC-001-100-D00-0
 62
     7
370
    50
100
AcDbLine
 10
-772.521144
 20
491.888954
 30
0.0
 11
-819.521144
 21
491.888954
 31
0.0
  0
LINE
  5
596
330
1F
100
AcDbEntity
  8
LC-001-100-D00-0
 62
     7
370
    50
100
AcDbLine
 10
-772.521144
 20
490.388954
 30
0.0
 11
-819.521144
 21
490.388954
 31
0.0
  0
LINE
  5
597
330
1F
100
AcDbEntity
  8
LC-001-100-D00-0
 62
     7
370
    50
100
AcDbLine
 10
-363.915028
 20
466.388954
 30
0.0
 11
-377.321144
 21
466.388954
 31
0.0
  0
LINE
  5
598
330
1F
100
AcDbEntity
  8
LC-001-100-D00-0
 62
     7
370
    50
100
AcDbLine
 10
-387.380273
 20
466.388954
 30
0.0
 11
-386.855923
 21
466.388954
 31
0.0
  0
LINE
  5
599
330
1F
100
AcDbEntity
  8
LC-001-100-D00-0
 62
     7
370
    50
100
AcDbLine
 10
-388.598353
 20
466.388954
 30
0.0
 11
-388.074518
 21
466.388954
 31
0.0
  0
ELLIPSE
  5
59A
330
1F
100
AcDbEntity
  8
LC-001-100-D00-0
 62
     7
370
    50
100
AcDbEllipse
 10
-14.499327
 20
467.388954
 30
0.0
 11
0.0
 21
-2.500000152602787
 31
0.0
210
0.0
220
0.0
230
0.9999999999999999
 40
0.027578
 41
0.0000000000048697
 42
0.3217505544005657
  0
ELLIPSE
  5
59B
330
1F
100
AcDbEntity
  8
LC-001-100-D00-0
 62
     7
370
    50
100
AcDbEllipse
 10
-624.542962
 20
467.388954
 30
0.0
 11
0.0
 21
-2.500000030517578
 31
0.0
210
0.0
220
0.0
230
1.0
 40
0.027578
 41
5.96143475278146
 42
6.283185307176288
  0
LINE
  5
59C
330
1F
100
AcDbEntity
  8
LC-001-100-D00-0
 62
     7
370
    50
100
AcDbLine
 10
-14.521137
 20
469.760301
 30
0.0
 11
-14.521137
 21
465.094913
 31
0.0
  0
LINE
  5
59D
330
1F
100
AcDbEntity
  8
LC-001-100-D00-0
 62
     7
370
    50
100
AcDbLine
 10
-624.521152
 20
469.760301
 30
0.0
 11
-624.521152
 21
465.094913
 31
0.0
  0
INSERT
  5
5A7
330
1F
100
AcDbEntity
  8
LC-001-100-D00-0
 62
     7
370
    50
100
AcDbBlockReference
  2
KLON18
 10
0.0
 20
0.0
 30
0.0
  0
INSERT
  5
5B1
330
1F
100
AcDbEntity
  8
LC-001-100-D00-0
 62
     7
370
    50
100
AcDbBlockReference
  2
KLON19
 10
0.0
 20
0.0
 30
0.0
  0
LINE
  5
5B2
330
1F
100
AcDbEntity
  8
LC-001-100-D00-0
 62
     7
370
    50
100
AcDbLine
 10
-14.521167
 20
464.888953
 30
0.0
 11
-14.521167
 21
465.094221
 31
0.0
  0
LINE
  5
5B3
330
1F
100
AcDbEntity
  8
LC-001-100-D00-0
 62
     7
370
    50
100
AcDbLine
 10
-14.521137
 20
464.888953
 30
0.0
 11
113.386526
 21
469.557118
 31
0.0
  0
LINE
  5
5B4
330
1F
100
AcDbEntity
  8
LC-001-100-D00-0
 62
     7
370
    50
100
AcDbLine
 10
-14.521167
 20
464.888953
 30
0.0
 11
-14.521167
 21
464.888953
 31
0.0
  0
LINE
  5
5B5
330
1F
100
AcDbEntity
  8
LC-001-100-D00-0
 62
     7
370
    50
100
AcDbLine
 10
-624.521122
 20
464.888953
 30
0.0
 11
-624.521122
 21
465.094221
 31
0.0
  0
LINE
  5
5B6
330
1F
100
AcDbEntity
  8
LC-001-100-D00-0
 62
     7
370
    50
100
AcDbLine
 10
-624.521152
 20
464.888953
 30
0.0
 11
-752.428815
 21
469.557118
 31
0.0
  0
LINE
  5
5B7
330
1F
100
AcDbEntity
  8
LC-001-100-D00-0
 62
     7
370
    50
100
AcDbLine
 10
-624.521122
 20
464.888953
 30
0.0
 11
-624.521122
 21
464.888953
 31
0.0
  0
LINE
  5
5B8
330
1F
100
AcDbEntity
  8
LC-001-100-D00-0
 62
     7
370
    50
100
AcDbLine
 10
-277.734988
 20
457.888954
 30
0.0
 11
-275.433278
 21
457.888954
 31
0.0
  0
LINE
  5
5B9
330
1F
100
AcDbEntity
  8
LC-001-100-D00-0
 62
     7
370
    50
100
AcDbLine
 10
-274.371229
 20
456.388954
 30
0.0
 11
-274.275642
 21
456.397014
 31
0.0
  0
LINE
  5
5BA
330
1F
100
AcDbEntity
  8
LC-001-100-D00-0
 62
     7
370
    50
100
AcDbLine
 10
-274.371229
 20
456.388954
 30
0.0
 11
-277.734988
 21
456.388954
 31
0.0
  0
LINE
  5
5BB
330
1F
100
AcDbEntity
  8
LC-001-100-D00-0
 62
     7
370
    50
100
AcDbLine
 10
-364.766647
 20
456.397014
 30
0.0
 11
-364.67106
 21
456.388954
 31
0.0
  0
LINE
  5
5BC
330
1F
100
AcDbEntity
  8
LC-001-100-D00-0
 62
     7
370
    50
100
AcDbLine
 10
-363.609011
 20
457.888954
 30
0.0
 11
-361.307301
 21
457.888954
 31
0.0
  0
LINE
  5
5BD
330
1F
100
AcDbEntity
  8
LC-001-100-D00-0
 62
     7
370
    50
100
AcDbLine
 10
-361.307301
 20
456.388954
 30
0.0
 11
-364.67106
 21
456.388954
 31
0.0
  0
LINE
  5
5BE
330
1F
100
AcDbEntity
  8
LC-001-100-D00-0
 62
     7
370
    50
100
AcDbLine
 10
-277.734988
 20
457.888954
 30
0.0
 11
-278.511916
 21
457.888954
 31
0.0
  0
LINE
  5
5BF
330
1F
100
AcDbEntity
  8
LC-001-100-D00-0
 62
     7
370
    50
100
AcDbLine
 10
-277.734988
 20
456.388954
 30
0.0
 11
-278.511916
 21
456.388954
 31
0.0
  0
LINE
  5
5C0
330
1F
100
AcDbEntity
  8
LC-001-100-D00-0
 62
     7
370
    50
100
AcDbLine
 10
-361.307301
 20
457.888954
 30
0.0
 11
-360.530373
 21
457.888954
 31
0.0
  0
LINE
  5
5C1
330
1F
100
AcDbEntity
  8
LC-001-100-D00-0
 62
     7
370
    50
100
AcDbLine
 10
-361.307301
 20
456.388954
 30
0.0
 11
-360.530373
 21
456.388954
 31
0.0
  0
LINE
  5
5C2
330
1F
100
AcDbEntity
  8
LC-001-100-D00-0
 62
     7
370
    50
100
AcDbLine
 10
-245.047754
 20
464.888954
 30
0.0
 11
-242.947154
 21
464.888953
 31
0.0
  0
LINE
  5
5C3
330
1F
100
AcDbEntity
  8
LC-001-100-D00-0
 62
     7
370
    50
100
AcDbLine
 10
-393.994535
 20
464.888954
 30
0.0
 11
-396.095135
 21
464.888953
 31
0.0
  0
LINE
  5
5C4
330
1F
100
AcDbEntity
  8
LC-001-100-D00-0
 62
     7
370
    50
100
AcDbLine
 10
-279.782343
 20
457.888954
 30
0.0
 11
-278.511916
 21
457.888954
 31
0.0
  0
LINE
  5
5C5
330
1F
100
AcDbEntity
  8
LC-001-100-D00-0
 62
     7
370
    50
100
AcDbLine
 10
-278.511916
 20
456.388954
 30
0.0
 11
-279.806729
 21
456.388954
 31
0.0
  0
LINE
  5
5C6
330
1F
100
AcDbEntity
  8
LC-001-100-D00-0
 62
     7
370
    50
100
AcDbLine
 10
-360.530373
 20
457.888954
 30
0.0
 11
-359.259946
 21
457.888954
 31
0.0
  0
LINE
  5
5C7
330
1F
100
AcDbEntity
  8
LC-001-100-D00-0
 62
     7
370
    50
100
AcDbLine
 10
-359.23556
 20
456.388954
 30
0.0
 11
-360.530373
 21
456.388954
 31
0.0
  0
LINE
  5
5C8
330
1F
100
AcDbEntity
  8
LC-001-100-D00-0
 62
     7
370
    50
100
AcDbLine
 10
-242.947154
 20
464.888953
 30
0.0
 11
-225.021348
 21
464.888953
 31
0.0
  0
LINE
  5
5C9
330
1F
100
AcDbEntity
  8
LC-001-100-D00-0
 62
     7
370
    50
100
AcDbLine
 10
-206.838891
 20
464.888953
 30
0.0
 11
-14.521167
 21
464.888953
 31
0.0
  0
LINE
  5
5CA
330
1F
100
AcDbEntity
  8
LC-001-100-D00-0
 62
     7
370
    50
100
AcDbLine
 10
-396.095135
 20
464.888953
 30
0.0
 11
-624.521122
 21
464.888953
 31
0.0
  0
ARC
  5
5CB
330
1F
100
AcDbEntity
  8
LC-001-100-D00-0
 62
     7
370
    50
100
AcDbCircle
 10
-275.005517
 20
457.823105
 30
0.0
 40
1.60201493998938
100
AcDbArc
 50
297.103406
 51
2.355668
  0
INSERT
  5
5D4
330
1F
100
AcDbEntity
  8
LC-001-100-D00-0
 62
     7
370
    50
100
AcDbBlockReference
  2
KLON20
 10
0.0
 20
0.0
 30
0.0
  0
INSERT
  5
5E1
330
1F
100
AcDbEntity
  8
LC-001-100-D00-0
 62
     7
370
    50
100
AcDbBlockReference
  2
KLON21
 10
0.0
 20
0.0
 30
0.0
  0
INSERT
  5
5EE
330
1F
100
AcDbEntity
  8
LC-001-100-D00-0
 62
     7
370
    50
100
AcDbBlockReference
  2
KLON22
 10
0.0
 20
0.0
 30
0.0
  0
LINE
  5
5EF
330
1F
100
AcDbEntity
  8
LC-001-100-D00-0
 62
     7
370
    50
100
AcDbLine
 10
127.978856
 20
491.888954
 30
0.0
 11
133.478856
 21
491.888954
 31
0.0
  0
LINE
  5
5F0
330
1F
100
AcDbEntity
  8
LC-001-100-D00-0
 62
     7
370
    50
100
AcDbLine
 10
-767.021144
 20
491.888954
 30
0.0
 11
-772.521144
 21
491.888954
 31
0.0
  0
LINE
  5
5F1
330
1F
100
AcDbEntity
  8
LC-001-100-D00-0
 62
     7
370
    50
100
AcDbLine
 10
127.978856
 20
491.888954
 30
0.0
 11
117.728856
 21
491.888954
 31
0.0
  0
LINE
  5
5F2
330
1F
100
AcDbEntity
  8
LC-001-100-D00-0
 62
     7
370
    50
100
AcDbLine
 10
83.228856
 20
491.888954
 30
0.0
 11
-42.271144
 21
491.888954
 31
0.0
  0
LINE
  5
5F3
330
1F
100
AcDbEntity
  8
LC-001-100-D00-0
 62
     7
370
    50
100
AcDbLine
 10
-76.771144
 20
491.888954
 30
0.0
 11
-202.271144
 21
491.888954
 31
0.0
  0
LINE
  5
5F4
330
1F
100
AcDbEntity
  8
LC-001-100-D00-0
 62
     7
370
    50
100
AcDbLine
 10
-236.771144
 20
491.888954
 30
0.0
 11
-402.271144
 21
491.888954
 31
0.0
  0
LINE
  5
5F5
330
1F
100
AcDbEntity
  8
LC-001-100-D00-0
 62
     7
370
    50
100
AcDbLine
 10
-436.771144
 20
491.888954
 30
0.0
 11
-562.271144
 21
491.888954
 31
0.0
  0
LINE
  5
5F6
330
1F
100
AcDbEntity
  8
LC-001-100-D00-0
 62
     7
370
    50
100
AcDbLine
 10
-596.771144
 20
491.888954
 30
0.0
 11
-722.271144
 21
491.888954
 31
0.0
  0
LINE
  5
5F7
330
1F
100
AcDbEntity
  8
LC-001-100-D00-0
 62
     7
370
    50
100
AcDbLine
 10
-756.771144
 20
491.888954
 30
0.0
 11
-767.021144
 21
491.888954
 31
0.0
  0
ARC
  5
5F8
330
1F
100
AcDbEntity
  8
LC-001-100-D00-0
 62
     7
370
    50
100
AcDbCircle
 10
17.578856
 20
465.288954
 30
0.0
 40
2.000000000000227
100
AcDbArc
 50
180.0
 51
270.0
  0
LINE
  5
5F9
330
1F
100
AcDbEntity
  8
LC-001-100-D00-0
 62
     7
370
    50
100
AcDbLine
 10
17.578856
 20
463.288954
 30
0.0
 11
43.378856
 21
463.288954
 31
0.0
  0
ARC
  5
5FA
330
1F
100
AcDbEntity
  8
LC-001-100-D00-0
 62
     7
370
    50
100
AcDbCircle
 10
43.378856
 20
465.288954
 30
0.0
 40
2.000000000000227
100
AcDbArc
 50
270.0
 51
0.0
  0
LINE
  5
5FB
330
1F
100
AcDbEntity
  8
LC-001-100-D00-0
 62
     7
370
    50
100
AcDbLine
 10
45.378856
 20
465.288954
 30
0.0
 11
45.378848
 21
467.075086
 31
0.0
  0
LINE
  5
5FC
330
1F
100
AcDbEntity
  8
LC-001-100-D00-0
 62
     7
370
    50
100
AcDbLine
 10
47.378853
 20
467.148077
 30
0.0
 11
47.378856
 21
465.288954
 31
0.0
  0
ARC
  5
5FD
330
1F
100
AcDbEntity
  8
LC-001-100-D00-0
 62
     7
370
    50
100
AcDbCircle
 10
43.378856
 20
465.288954
 30
0.0
 40
4.0
100
AcDbArc
 50
270.0
 51
0.0
  0
LINE
  5
5FE
330
1F
100
AcDbEntity
  8
LC-001-100-D00-0
 62
     7
370
    50
100
AcDbLine
 10
43.378856
 20
461.288954
 30
0.0
 11
17.578856
 21
461.288954
 31
0.0
  0
ARC
  5
5FF
330
1F
100
AcDbEntity
  8
LC-001-100-D00-0
 62
     7
370
    50
100
AcDbCircle
 10
17.578856
 20
465.288954
 30
0.0
 40
4.000000000000114
100
AcDbArc
 50
180.0
 51
270.0
  0
LINE
  5
600
330
1F
100
AcDbEntity
  8
LC-001-100-D00-0
 62
     7
370
    50
100
AcDbLine
 10
13.578856
 20
465.288954
 30
0.0
 11
13.578847
 21
465.914501
 31
0.0
  0
LINE
  5
601
330
1F
100
AcDbEntity
  8
LC-001-100-D00-0
 62
     7
370
    50
100
AcDbLine
 10
15.578851
 20
465.987495
 30
0.0
 11
15.578856
 21
465.288954
 31
0.0
  0
LINE
  5
602
330
1F
100
AcDbEntity
  8
LC-001-100-D00-0
 62
     7
370
    50
100
AcDbLine
 10
-652.621144
 20
465.288954
 30
0.0
 11
-652.621136
 21
465.914501
 31
0.0
  0
ARC
  5
603
330
1F
100
AcDbEntity
  8
LC-001-100-D00-0
 62
     7
370
    50
100
AcDbCircle
 10
-656.621144
 20
465.288954
 30
0.0
 40
4.000000000000227
100
AcDbArc
 50
270.0
 51
0.0
  0
LINE
  5
604
330
1F
100
AcDbEntity
  8
LC-001-100-D00-0
 62
     7
370
    50
100
AcDbLine
 10
-682.421144
 20
461.288954
 30
0.0
 11
-656.621144
 21
461.288954
 31
0.0
  0
ARC
  5
605
330
1F
100
AcDbEntity
  8
LC-001-100-D00-0
 62
     7
370
    50
100
AcDbCircle
 10
-682.421144
 20
465.288954
 30
0.0
 40
4.000000000000341
100
AcDbArc
 50
180.0
 51
270.0
  0
LINE
  5
606
330
1F
100
AcDbEntity
  8
LC-001-100-D00-0
 62
     7
370
    50
100
AcDbLine
 10
-686.421141
 20
467.148077
 30
0.0
 11
-686.421144
 21
465.288954
 31
0.0
  0
LINE
  5
607
330
1F
100
AcDbEntity
  8
LC-001-100-D00-0
 62
     7
370
    50
100
AcDbLine
 10
-684.421144
 20
465.288954
 30
0.0
 11
-684.421137
 21
467.075086
 31
0.0
  0
ARC
  5
608
330
1F
100
AcDbEntity
  8
LC-001-100-D00-0
 62
     7
370
    50
100
AcDbCircle
 10
-682.421144
 20
465.288954
 30
0.0
 40
2.000000000000227
100
AcDbArc
 50
180.0
 51
270.0
  0
LINE
  5
609
330
1F
100
AcDbEntity
  8
LC-001-100-D00-0
 62
     7
370
    50
100
AcDbLine
 10
-656.621144
 20
463.288954
 30
0.0
 11
-682.421144
 21
463.288954
 31
0.0
  0
ARC
  5
60A
330
1F
100
AcDbEntity
  8
LC-001-100-D00-0
 62
     7
370
    50
100
AcDbCircle
 10
-656.621144
 20
465.288954
 30
0.0
 40
2.000000000000227
100
AcDbArc
 50
270.0
 51
0.0
  0
LINE
  5
60B
330
1F
100
AcDbEntity
  8
LC-001-100-D00-0
 62
     7
370
    50
100
AcDbLine
 10
-654.62114
 20
465.987495
 30
0.0
 11
-654.621144
 21
465.288954
 31
0.0
  0
LINE
  5
60C
330
1F
100
AcDbEntity
  8
LC-001-100-D00-0
 62
     7
370
    50
100
AcDbLine
 10
-667.685405
 20
365.388958
 30
0.0
 11
-678.36307
 21
365.388958
 31
0.0
  0
LINE
  5
60D
330
1F
100
AcDbEntity
  8
LC-001-100-D00-0
 62
     7
370
    50
100
AcDbLine
 10
-667.685405
 20
365.388958
 30
0.0
 11
-660.653249
 21
365.388958
 31
0.0
  0
LINE
  5
60E
330
1F
100
AcDbEntity
  8
LC-001-100-D00-0
 62
     7
370
    50
100
AcDbLine
 10
-678.821426
 20
357.388954
 30
0.0
 11
-679.021144
 21
357.388954
 31
0.0
  0
LINE
  5
60F
330
1F
100
AcDbEntity
  8
LC-001-100-D00-0
 62
     7
370
    50
100
AcDbLine
 10
-660.021144
 20
357.388954
 30
0.0
 11
-678.821426
 21
357.388954
 31
0.0
  0
LINE
  5
610
330
1F
100
AcDbEntity
  8
LC-001-100-D00-0
 62
     7
370
    50
100
AcDbLine
 10
32.314583
 20
365.388958
 30
0.0
 11
21.636918
 21
365.388958
 31
0.0
  0
LINE
  5
611
330
1F
100
AcDbEntity
  8
LC-001-100-D00-0
 62
     7
370
    50
100
AcDbLine
 10
32.314583
 20
365.388958
 30
0.0
 11
39.346739
 21
365.388958
 31
0.0
  0
LINE
  5
612
330
1F
100
AcDbEntity
  8
LC-001-100-D00-0
 62
     7
370
    50
100
AcDbLine
 10
21.178574
 20
357.388954
 30
0.0
 11
20.978856
 21
357.388954
 31
0.0
  0
LINE
  5
613
330
1F
100
AcDbEntity
  8
LC-001-100-D00-0
 62
     7
370
    50
100
AcDbLine
 10
39.978856
 20
357.388954
 30
0.0
 11
21.178574
 21
357.388954
 31
0.0
  0
LINE
  5
614
330
1F
100
AcDbEntity
  8
LC-001-100-D00-0
 62
     7
370
    50
100
AcDbLine
 10
-672.407896
 20
463.388954
 30
0.0
 11
-678.470074
 21
463.388954
 31
0.0
  0
LINE
  5
615
330
1F
100
AcDbEntity
  8
LC-001-100-D00-0
 62
     7
370
    50
100
AcDbLine
 10
-666.634393
 20
463.388954
 30
0.0
 11
-672.407896
 21
463.388954
 31
0.0
  0
LINE
  5
616
330
1F
100
AcDbEntity
  8
LC-001-100-D00-0
 62
     7
370
    50
100
AcDbLine
 10
-660.572215
 20
463.388954
 30
0.0
 11
-666.634393
 21
463.388954
 31
0.0
  0
LINE
  5
617
330
1F
100
AcDbEntity
  8
LC-001-100-D00-0
 62
     7
370
    50
100
AcDbLine
 10
-657.685464
 20
463.388954
 30
0.0
 11
-660.572215
 21
463.388954
 31
0.0
  0
LINE
  5
618
330
1F
100
AcDbEntity
  8
LC-001-100-D00-0
 62
     7
370
    50
100
AcDbLine
 10
-678.470074
 20
463.388954
 30
0.0
 11
-681.356825
 21
463.388954
 31
0.0
  0
LINE
  5
619
330
1F
100
AcDbEntity
  8
LC-001-100-D00-0
 62
     7
370
    50
100
AcDbLine
 10
-656.747642
 20
463.388954
 30
0.0
 11
-657.685464
 21
463.388954
 31
0.0
  0
LINE
  5
61A
330
1F
100
AcDbEntity
  8
LC-001-100-D00-0
 62
     7
370
    50
100
AcDbLine
 10
-681.356825
 20
463.388954
 30
0.0
 11
-682.294647
 21
463.388954
 31
0.0
  0
LINE
  5
61B
330
1F
100
AcDbEntity
  8
LC-001-100-D00-0
 62
     7
370
    50
100
AcDbLine
 10
-672.407896
 20
434.388954
 30
0.0
 11
-678.470074
 21
434.388954
 31
0.0
  0
LINE
  5
61C
330
1F
100
AcDbEntity
  8
LC-001-100-D00-0
 62
     7
370
    50
100
AcDbLine
 10
-660.521144
 20
459.388954
 30
0.0
 11
-666.634396
 21
459.388955
 31
0.0
  0
LINE
  5
61D
330
1F
100
AcDbEntity
  8
LC-001-100-D00-0
 62
     7
370
    50
100
AcDbLine
 10
-672.407911
 20
459.388955
 30
0.0
 11
-678.521144
 21
459.388954
 31
0.0
  0
LINE
  5
61E
330
1F
100
AcDbEntity
  8
LC-001-100-D00-0
 62
     7
370
    50
100
AcDbLine
 10
-666.634393
 20
434.388954
 30
0.0
 11
-672.407896
 21
434.388954
 31
0.0
  0
LINE
  5
61F
330
1F
100
AcDbEntity
  8
LC-001-100-D00-0
 62
     7
370
    50
100
AcDbLine
 10
-655.732325
 20
461.388954
 30
0.0
 11
-654.521144
 21
461.388954
 31
0.0
  0
LINE
  5
620
330
1F
100
AcDbEntity
  8
LC-001-100-D00-0
 62
     7
370
    50
100
AcDbLine
 10
-654.521144
 20
461.388954
 30
0.0
 11
-654.521144
 21
459.388954
 31
0.0
  0
LINE
  5
621
330
1F
100
AcDbEntity
  8
LC-001-100-D00-0
 62
     7
370
    50
100
AcDbLine
 10
-654.521144
 20
459.388954
 30
0.0
 11
-660.521144
 21
459.388954
 31
0.0
  0
LINE
  5
622
330
1F
100
AcDbEntity
  8
LC-001-100-D00-0
 62
     7
370
    50
100
AcDbLine
 10
-660.572215
 20
434.388954
 30
0.0
 11
-666.634393
 21
434.388954
 31
0.0
  0
LINE
  5
623
330
1F
100
AcDbEntity
  8
LC-001-100-D00-0
 62
     7
370
    50
100
AcDbLine
 10
-684.521144
 20
459.388954
 30
0.0
 11
-684.521144
 21
461.388954
 31
0.0
  0
LINE
  5
624
330
1F
100
AcDbEntity
  8
LC-001-100-D00-0
 62
     7
370
    50
100
AcDbLine
 10
-678.521144
 20
459.388954
 30
0.0
 11
-684.521144
 21
459.388954
 31
0.0
  0
LINE
  5
625
330
1F
100
AcDbEntity
  8
LC-001-100-D00-0
 62
     7
370
    50
100
AcDbLine
 10
-684.521144
 20
461.388954
 30
0.0
 11
-683.309964
 21
461.388954
 31
0.0
  0
LINE
  5
626
330
1F
100
AcDbEntity
  8
LC-001-100-D00-0
 62
     7
370
    50
100
AcDbLine
 10
-657.685464
 20
434.388954
 30
0.0
 11
-660.572215
 21
434.388954
 31
0.0
  0
LINE
  5
627
330
1F
100
AcDbEntity
  8
LC-001-100-D00-0
 62
     7
370
    50
100
AcDbLine
 10
-678.470074
 20
434.388954
 30
0.0
 11
-681.356825
 21
434.388954
 31
0.0
  0
LINE
  5
628
330
1F
100
AcDbEntity
  8
LC-001-100-D00-0
 62
     7
370
    50
100
AcDbLine
 10
-656.747642
 20
434.388954
 30
0.0
 11
-657.685464
 21
434.388954
 31
0.0
  0
LINE
  5
629
330
1F
100
AcDbEntity
  8
LC-001-100-D00-0
 62
     7
370
    50
100
AcDbLine
 10
-681.356825
 20
434.388954
 30
0.0
 11
-682.294647
 21
434.388954
 31
0.0
  0
LINE
  5
62A
330
1F
100
AcDbEntity
  8
LC-001-100-D00-0
 62
     7
370
    50
100
AcDbLine
 10
27.592104
 20
463.388954
 30
0.0
 11
21.529926
 21
463.388954
 31
0.0
  0
LINE
  5
62B
330
1F
100
AcDbEntity
  8
LC-001-100-D00-0
 62
     7
370
    50
100
AcDbLine
 10
33.365607
 20
463.388954
 30
0.0
 11
27.592104
 21
463.388954
 31
0.0
  0
LINE
  5
62C
330
1F
100
AcDbEntity
  8
LC-001-100-D00-0
 62
     7
370
    50
100
AcDbLine
 10
39.427785
 20
463.388954
 30
0.0
 11
33.365607
 21
463.388954
 31
0.0
  0
LINE
  5
62D
330
1F
100
AcDbEntity
  8
LC-001-100-D00-0
 62
     7
370
    50
100
AcDbLine
 10
42.314536
 20
463.388954
 30
0.0
 11
39.427785
 21
463.388954
 31
0.0
  0
LINE
  5
62E
330
1F
100
AcDbEntity
  8
LC-001-100-D00-0
 62
     7
370
    50
100
AcDbLine
 10
21.529926
 20
463.388954
 30
0.0
 11
18.643175
 21
463.388954
 31
0.0
  0
LINE
  5
62F
330
1F
100
AcDbEntity
  8
LC-001-100-D00-0
 62
     7
370
    50
100
AcDbLine
 10
43.252358
 20
463.388954
 30
0.0
 11
42.314536
 21
463.388954
 31
0.0
  0
LINE
  5
630
330
1F
100
AcDbEntity
  8
LC-001-100-D00-0
 62
     7
370
    50
100
AcDbLine
 10
18.643175
 20
463.388954
 30
0.0
 11
17.705353
 21
463.388954
 31
0.0
  0
LINE
  5
631
330
1F
100
AcDbEntity
  8
LC-001-100-D00-0
 62
     7
370
    50
100
AcDbLine
 10
27.592104
 20
434.388954
 30
0.0
 11
21.529926
 21
434.388954
 31
0.0
  0
LINE
  5
632
330
1F
100
AcDbEntity
  8
LC-001-100-D00-0
 62
     7
370
    50
100
AcDbLine
 10
39.478856
 20
459.388954
 30
0.0
 11
33.365622
 21
459.388955
 31
0.0
  0
LINE
  5
633
330
1F
100
AcDbEntity
  8
LC-001-100-D00-0
 62
     7
370
    50
100
AcDbLine
 10
27.592107
 20
459.388955
 30
0.0
 11
21.478856
 21
459.388954
 31
0.0
  0
LINE
  5
634
330
1F
100
AcDbEntity
  8
LC-001-100-D00-0
 62
     7
370
    50
100
AcDbLine
 10
33.365607
 20
434.388954
 30
0.0
 11
27.592104
 21
434.388954
 31
0.0
  0
LINE
  5
635
330
1F
100
AcDbEntity
  8
LC-001-100-D00-0
 62
     7
370
    50
100
AcDbLine
 10
44.267675
 20
461.388954
 30
0.0
 11
45.478856
 21
461.388954
 31
0.0
  0
LINE
  5
636
330
1F
100
AcDbEntity
  8
LC-001-100-D00-0
 62
     7
370
    50
100
AcDbLine
 10
45.478856
 20
461.388954
 30
0.0
 11
45.478856
 21
459.388954
 31
0.0
  0
LINE
  5
637
330
1F
100
AcDbEntity
  8
LC-001-100-D00-0
 62
     7
370
    50
100
AcDbLine
 10
45.478856
 20
459.388954
 30
0.0
 11
39.478856
 21
459.388954
 31
0.0
  0
LINE
  5
638
330
1F
100
AcDbEntity
  8
LC-001-100-D00-0
 62
     7
370
    50
100
AcDbLine
 10
39.427785
 20
434.388954
 30
0.0
 11
33.365607
 21
434.388954
 31
0.0
  0
LINE
  5
639
330
1F
100
AcDbEntity
  8
LC-001-100-D00-0
 62
     7
370
    50
100
AcDbLine
 10
15.478856
 20
459.388954
 30
0.0
 11
15.478856
 21
461.388954
 31
0.0
  0
LINE
  5
63A
330
1F
100
AcDbEntity
  8
LC-001-100-D00-0
 62
     7
370
    50
100
AcDbLine
 10
21.478856
 20
459.388954
 30
0.0
 11
15.478856
 21
459.388954
 31
0.0
  0
LINE
  5
63B
330
1F
100
AcDbEntity
  8
LC-001-100-D00-0
 62
     7
370
    50
100
AcDbLine
 10
15.478856
 20
461.388954
 30
0.0
 11
16.690036
 21
461.388954
 31
0.0
  0
LINE
  5
63C
330
1F
100
AcDbEntity
  8
LC-001-100-D00-0
 62
     7
370
    50
100
AcDbLine
 10
42.314536
 20
434.388954
 30
0.0
 11
39.427785
 21
434.388954
 31
0.0
  0
LINE
  5
63D
330
1F
100
AcDbEntity
  8
LC-001-100-D00-0
 62
     7
370
    50
100
AcDbLine
 10
21.529926
 20
434.388954
 30
0.0
 11
18.643175
 21
434.388954
 31
0.0
  0
LINE
  5
63E
330
1F
100
AcDbEntity
  8
LC-001-100-D00-0
 62
     7
370
    50
100
AcDbLine
 10
43.252358
 20
434.388954
 30
0.0
 11
42.314536
 21
434.388954
 31
0.0
  0
LINE
  5
63F
330
1F
100
AcDbEntity
  8
LC-001-100-D00-0
 62
     7
370
    50
100
AcDbLine
 10
18.643175
 20
434.388954
 30
0.0
 11
17.705353
 21
434.388954
 31
0.0
  0
LINE
  5
640
330
1F
100
AcDbEntity
  8
LC-001-100-D00-0
 62
     7
370
    50
100
AcDbLine
 10
-679.521144
 20
380.388954
 30
0.0
 11
-659.521144
 21
380.388954
 31
0.0
  0
LINE
  5
641
330
1F
100
AcDbEntity
  8
LC-001-100-D00-0
 62
     7
370
    50
100
AcDbLine
 10
-679.521144
 20
376.888954
 30
0.0
 11
-659.521144
 21
376.888954
 31
0.0
  0
LINE
  5
642
330
1F
100
AcDbEntity
  8
LC-001-100-D00-0
 62
     7
370
    50
100
AcDbLine
 10
-679.310915
 20
366.388954
 30
0.0
 11
-659.521144
 21
366.388954
 31
0.0
  0
LINE
  5
643
330
1F
100
AcDbEntity
  8
LC-001-100-D00-0
 62
     7
370
    50
100
AcDbLine
 10
-679.521144
 20
366.388954
 30
0.0
 11
-679.310915
 21
366.388954
 31
0.0
  0
LINE
  5
644
330
1F
100
AcDbEntity
  8
LC-001-100-D00-0
 62
     7
370
    50
100
AcDbLine
 10
-678.331938
 20
365.388954
 30
0.0
 11
-678.521144
 21
365.388954
 31
0.0
  0
LINE
  5
645
330
1F
100
AcDbEntity
  8
LC-001-100-D00-0
 62
     7
370
    50
100
AcDbLine
 10
-660.521144
 20
365.388954
 30
0.0
 11
-678.331938
 21
365.388954
 31
0.0
  0
LINE
  5
646
330
1F
100
AcDbEntity
  8
LC-001-100-D00-0
 62
     7
370
    50
100
AcDbLine
 10
20.478856
 20
380.388954
 30
0.0
 11
40.478856
 21
380.388954
 31
0.0
  0
LINE
  5
647
330
1F
100
AcDbEntity
  8
LC-001-100-D00-0
 62
     7
370
    50
100
AcDbLine
 10
20.478856
 20
376.888954
 30
0.0
 11
40.478856
 21
376.888954
 31
0.0
  0
LINE
  5
648
330
1F
100
AcDbEntity
  8
LC-001-100-D00-0
 62
     7
370
    50
100
AcDbLine
 10
20.689085
 20
366.388954
 30
0.0
 11
40.478856
 21
366.388954
 31
0.0
  0
LINE
  5
649
330
1F
100
AcDbEntity
  8
LC-001-100-D00-0
 62
     7
370
    50
100
AcDbLine
 10
20.478856
 20
366.388954
 30
0.0
 11
20.689085
 21
366.388954
 31
0.0
  0
LINE
  5
64A
330
1F
100
AcDbEntity
  8
LC-001-100-D00-0
 62
     7
370
    50
100
AcDbLine
 10
21.668062
 20
365.388954
 30
0.0
 11
21.478856
 21
365.388954
 31
0.0
  0
LINE
  5
64B
330
1F
100
AcDbEntity
  8
LC-001-100-D00-0
 62
     7
370
    50
100
AcDbLine
 10
39.478856
 20
365.388954
 30
0.0
 11
21.668062
 21
365.388954
 31
0.0
  0
DIMENSION
  5
64C
330
1F
100
AcDbEntity
  8
LC-001-100-D00-0
 62
     7
370
    25
100
AcDbDimension
  2
*D25
 10
-819.521144
 20
640.688954
 30
0.0
 11
-334.8927
 21
695.688954
 31
0.0
 70
   160
  1
1000
 71
     5
 42
1000.0
  3
LC-DIM-L-0100-02-02
100
AcDbAlignedDimension
 13
180.478856
 23
491.888954
 33
0.0
 14
-819.521144
 24
491.888954
 34
0.0
100
AcDbRotatedDimension
  0
DIMENSION
  5
659
330
1F
100
AcDbEntity
  8
LC-001-100-D00-0
 62
     7
370
    25
100
AcDbDimension
  2
*D26
 10
130.478856
 20
533.207065
 30
0.0
 11
-326.20907
 21
588.207065
 31
0.0
 70
   160
  1
900
 71
     5
 42
900.0
  3
LC-DIM-L-0100-02-02
100
AcDbAlignedDimension
 13
-769.521144
 23
488.888954
 33
0.0
 14
130.478856
 24
488.888954
 34
0.0
100
AcDbRotatedDimension
  0
DIMENSION
  5
666
330
1F
100
AcDbEntity
  8
LC-001-100-D00-0
 62
     7
370
    25
100
AcDbDimension
  2
*D27
 10
-491.224456
 20
450.388954
 30
0.0
 11
-546.224456
 21
323.588954
 31
0.0
 70
   160
  1
30
 71
     5
 42
30.0
 53
90.0
  3
LC-DIM-L-0100-02-02
100
AcDbAlignedDimension
 13
-348.521144
 23
420.388954
 33
0.0
 14
-352.473578
 24
450.388954
 34
0.0
 50
90.0
100
AcDbRotatedDimension
  0
DIMENSION
  5
674
330
1F
100
AcDbEntity
  8
LC-001-100-D00-0
 62
     7
370
    25
100
AcDbDimension
  2
*D28
 10
-110.021348
 20
281.588954
 30
0.0
 11
-259.853457
 21
336.588954
 31
0.0
 70
   160
  1
284
 71
     5
 42
283.499797
  3
LC-DIM-L-0100-02-02
100
AcDbAlignedDimension
 13
-393.521144
 23
420.888954
 33
0.0
 14
-110.021348
 24
410.326776
 34
0.0
100
AcDbRotatedDimension
  0
DIMENSION
  5
681
330
1F
100
AcDbEntity
  8
LC-001-100-D00-0
 62
     7
370
    25
100
AcDbDimension
  2
*D29
 10
284.181055
 20
409.388954
 30
0.0
 11
229.181055
 21
493.688954
 31
0.0
 70
   160
  1
DN50
 71
     5
 42
50.0
 53
90.0
  3
LC-DIM-L-0100-02-02
100
AcDbAlignedDimension
 13
-113.521348
 23
459.388954
 33
0.0
 14
-113.521348
 24
409.388954
 34
0.0
 50
90.0
100
AcDbRotatedDimension
  0
DIMENSION
  5
68F
330
1F
100
AcDbEntity
  8
LC-001-100-D00-0
 62
     7
370
    25
100
AcDbDimension
  2
*D30
 10
387.360014
 20
434.388954
 30
0.0
 11
332.360014
 21
489.488954
 31
0.0
 70
   160
  1
57,5
 71
     5
 42
57.5
 53
90.0
  3
LC-DIM-L-0100-02-02
100
AcDbAlignedDimension
 13
180.478856
 23
491.888954
 33
0.0
 14
-103.521348
 24
434.388954
 34
0.0
 50
90.0
100
AcDbRotatedDimension
  0
DIMENSION
  5
69E
330
1F
100
AcDbEntity
  8
LC-001-100-D00-0
 62
     7
370
    25
100
AcDbDimension
  2
*D31
 10
-851.170349
 20
401.888954
 30
0.0
 11
-906.170349
 21
432.788954
 31
0.0
 70
   160
  1
90
 71
     5
 42
90.0
 53
90.0
  3
LC-DIM-L-0100-02-02
100
AcDbAlignedDimension
 13
-819.521144
 23
491.888954
 33
0.0
 14
-373.539024
 24
401.888954
 34
0.0
 50
90.0
100
AcDbRotatedDimension
  0
DIMENSION
  5
6AD
330
1F
100
AcDbEntity
  8
LC-001-100-D00-0
 62
     7
370
    25
100
AcDbDimension
  2
*D32
 10
481.541921
 20
357.388954
 30
0.0
 11
426.541921
 21
529.388954
 31
0.0
 70
   160
  1
90-129,5
 71
     5
 42
134.5
 53
90.0
  3
LC-DIM-L-0100-02-02
100
AcDbAlignedDimension
 13
180.478856
 23
491.888954
 33
0.0
 14
39.978856
 24
357.388954
 34
0.0
 50
90.0
100
AcDbRotatedDimension
  0
INSERT
  5
6C1
330
1F
100
AcDbEntity
  8
LC-001-100-D00-0
 62
     7
370
    25
100
AcDbBlockReference
  2
KLON23
 10
0.0
 20
0.0
 30
0.0
  0
INSERT
  5
6C8
330
1F
100
AcDbEntity
  8
LC-001-100-D00-0
 62
     7
370
    25
100
AcDbBlockReference
  2
KLON24
 10
0.0
 20
0.0
 30
0.0
  0
INSERT
  5
6D5
330
1F
100
AcDbEntity
  8
LC-001-100-D00-0
 62
     7
370
    25
100
AcDbBlockReference
  2
KLON25
 10
0.0
 20
0.0
 30
0.0
  0
INSERT
  5
6DD
330
1F
100
AcDbEntity
  8
LC-001-100-D00-0
 62
     7
370
    25
100
AcDbBlockReference
  2
KLON26
 10
0.0
 20
0.0
 30
0.0
  0
INSERT
  5
6E5
330
1F
100
AcDbEntity
  8
LC-001-100-D00-0
 62
     7
370
    25
100
AcDbBlockReference
  2
KLON27
 10
0.0
 20
0.0
 30
0.0
  0
LINE
  5
6E6
330
1F
100
AcDbEntity
  8
LC-001-100-D00-0
 62
     7
370
    50
100
AcDbLine
 10
-208.508545
 20
459.402832
 30
0.0
 11
-206.287226
 21
461.624151
 31
0.0
  0
INSERT
  5
700
330
1F
100
AcDbEntity
  8
LC-001-100-D00-0
 62
     7
370
    25
100
AcDbBlockReference
  2
KLON28
 10
0.0
 20
0.0
 30
0.0
  0
INSERT
  5
71B
330
1F
100
AcDbEntity
  8
LC-001-100-D00-0
 62
     7
370
    25
100
AcDbBlockReference
  2
KLON29
 10
0.0
 20
0.0
 30
0.0
  0
INSERT
  5
72A
330
1F
100
AcDbEntity
  8
LC-001-100-D00-0
 62
     7
370
    25
100
AcDbBlockReference
  2
KLON30
 10
0.0
 20
0.0
 30
0.0
  0
INSERT
  5
730
330
1F
100
AcDbEntity
  8
LC-001-100-D00-0
 62
     7
370
    25
100
AcDbBlockReference
  2
KLON31
 10
0.0
 20
0.0
 30
0.0
  0
LINE
  5
731
330
1F
100
AcDbEntity
  8
LC-001-100-D00-0
 62
     7
370
    50
100
AcDbLine
 10
-384.521144
 20
462.99533
 30
0.0
 11
-382.627521
 21
464.888954
 31
0.0
  0
INSERT
  5
737
330
1F
100
AcDbEntity
  8
LC-001-100-D00-0
 62
     7
370
    25
100
AcDbBlockReference
  2
KLON32
 10
0.0
 20
0.0
 30
0.0
  0
LINE
  5
738
330
1F
100
AcDbEntity
  8
LC-001-100-D00-0
 62
     7
370
    50
100
AcDbLine
 10
-387.521144
 20
459.99533
 30
0.0
 11
-384.521144
 21
462.99533
 31
0.0
  0
LINE
  5
739
330
1F
100
AcDbEntity
  8
LC-001-100-D00-0
 62
     7
370
    25
100
AcDbLine
 10
-229.271144
 20
483.541495
 30
0.0
 11
-223.421144
 21
489.391495
 31
0.0
  0
INSERT
  5
73F
330
1F
100
AcDbEntity
  8
LC-001-100-D00-0
 62
     7
370
    25
100
AcDbBlockReference
  2
KLON33
 10
0.0
 20
0.0
 30
0.0
  0
LINE
  5
740
330
1F
100
AcDbEntity
  8
LC-001-100-D00-0
 62
     7
370
    50
100
AcDbLine
 10
-216.121144
 20
474.240854
 30
0.0
 11
-214.321144
 21
476.040855
 31
0.0
  0
LINE
  5
741
330
1F
100
AcDbEntity
  8
LC-001-100-D00-0
 62
     7
370
    25
100
AcDbLine
 10
-429.271144
 20
485.59725
 30
0.0
 11
-423.421144
 21
491.447251
 31
0.0
  0
INSERT
  5
748
330
1F
100
AcDbEntity
  8
LC-001-100-D00-0
 62
     7
370
    25
100
AcDbBlockReference
  2
KLON34
 10
0.0
 20
0.0
 30
0.0
  0
INSERT
  5
74E
330
1F
100
AcDbEntity
  8
LC-001-100-D00-0
 62
     7
370
    50
100
AcDbBlockReference
  2
KLON35
 10
0.0
 20
0.0
 30
0.0
  0
LINE
  5
74F
330
1F
100
AcDbEntity
  8
LC-001-100-D00-0
 62
     7
370
    25
100
AcDbLine
 10
90.242982
 20
488.746669
 30
0.0
 11
93.385267
 21
491.888954
 31
0.0
  0
INSERT
  5
755
330
1F
100
AcDbEntity
  8
LC-001-100-D00-0
 62
     7
370
    25
100
AcDbBlockReference
  2
KLON36
 10
0.0
 20
0.0
 30
0.0
  0
LINE
  5
756
330
1F
100
AcDbEntity
  8
LC-001-100-D00-0
 62
     7
370
    25
100
AcDbLine
 10
-589.271144
 20
482.751726
 30
0.0
 11
-583.421144
 21
488.601727
 31
0.0
  0
INSERT
  5
75C
330
1F
100
AcDbEntity
  8
LC-001-100-D00-0
 62
     7
370
    25
100
AcDbBlockReference
  2
KLON37
 10
0.0
 20
0.0
 30
0.0
  0
LINE
  5
75D
330
1F
100
AcDbEntity
  8
LC-001-100-D00-0
 62
     7
370
    50
100
AcDbLine
 10
-575.902211
 20
473.67002
 30
0.0
 11
-574.230928
 21
475.341302
 31
0.0
  0
LINE
  5
75E
330
1F
100
AcDbEntity
  8
LC-001-100-D00-0
 62
     7
370
    25
100
AcDbLine
 10
-69.271144
 20
486.387018
 30
0.0
 11
-63.769209
 21
491.888954
 31
0.0
  0
INSERT
  5
764
330
1F
100
AcDbEntity
  8
LC-001-100-D00-0
 62
     7
370
    25
100
AcDbBlockReference
  2
KLON38
 10
0.0
 20
0.0
 30
0.0
  0
LINE
  5
765
330
1F
100
AcDbEntity
  8
LC-001-100-D00-0
 62
     7
370
    50
100
AcDbLine
 10
-56.121144
 20
477.086378
 30
0.0
 11
-53.170292
 21
480.037232
 31
0.0
  0
LINE
  5
766
330
1F
100
AcDbEntity
  8
LC-001-100-D00-0
 62
     7
370
    25
100
AcDbLine
 10
-749.271144
 20
479.906202
 30
0.0
 11
-743.421144
 21
485.756203
 31
0.0
  0
INSERT
  5
76C
330
1F
100
AcDbEntity
  8
LC-001-100-D00-0
 62
     7
370
    25
100
AcDbBlockReference
  2
KLON39
 10
0.0
 20
0.0
 30
0.0
  0
LINE
  5
76D
330
1F
100
AcDbEntity
  8
LC-001-100-D00-0
 62
     7
370
    50
100
AcDbLine
 10
-733.837753
 20
472.888954
 30
0.0
 11
-733.170292
 21
473.556415
 31
0.0
  0
LINE
  5
76E
330
1F
100
AcDbEntity
  8
LC-001-100-D00-0
  6
DASHDOT
 62
     7
370
    25
100
AcDbLine
 10
30.478856
 20
370.388954
 30
0.0
 11
30.478856
 21
494.388954
 31
0.0
  0
LINE
  5
76F
330
1F
100
AcDbEntity
  8
LC-001-100-D00-0
  6
DASHDOT
 62
     7
370
    25
100
AcDbLine
 10
-103.521348
 20
434.388954
 30
0.0
 11
-206.546363
 21
434.388954
 31
0.0
  0
LINE
  5
770
330
1F
100
AcDbEntity
  8
LC-001-100-D00-0
  6
DASHDOT
 62
     7
370
    25
100
AcDbLine
 10
-319.521144
 20
460.388954
 30
0.0
 11
-319.521144
 21
399.388954
 31
0.0
  0
LINE
  5
771
330
1F
100
AcDbEntity
  8
LC-001-100-D00-0
  6
DASHDOT
 62
     7
370
    25
100
AcDbLine
 10
100.478856
 20
463.888954
 30
0.0
 11
100.478856
 21
497.888954
 31
0.0
  0
LINE
  5
772
330
1F
100
AcDbEntity
  8
LC-001-100-D00-0
  6
DASHDOT
 62
     7
370
    25
100
AcDbLine
 10
-59.521144
 20
463.888954
 30
0.0
 11
-59.521144
 21
497.888954
 31
0.0
  0
LINE
  5
773
330
1F
100
AcDbEntity
  8
LC-001-100-D00-0
  6
DASHDOT
 62
     7
370
    25
100
AcDbLine
 10
-219.521144
 20
463.888954
 30
0.0
 11
-219.521144
 21
497.888954
 31
0.0
  0
LINE
  5
774
330
1F
100
AcDbEntity
  8
LC-001-100-D00-0
  6
DASHDOT
 62
     7
370
    25
100
AcDbLine
 10
-419.521144
 20
463.888954
 30
0.0
 11
-419.521144
 21
497.888954
 31
0.0
  0
LINE
  5
775
330
1F
100
AcDbEntity
  8
LC-001-100-D00-0
  6
DASHDOT
 62
     7
370
    25
100
AcDbLine
 10
-579.521144
 20
463.888954
 30
0.0
 11
-579.521144
 21
497.888954
 31
0.0
  0
LINE
  5
776
330
1F
100
AcDbEntity
  8
LC-001-100-D00-0
  6
DASHDOT
 62
     7
370
    25
100
AcDbLine
 10
-739.521144
 20
463.888954
 30
0.0
 11
-739.521144
 21
497.888954
 31
0.0
  0
LINE
  5
777
330
1F
100
AcDbEntity
  8
LC-001-100-D00-0
  6
DASHDOT
 62
     7
370
    25
100
AcDbLine
 10
-669.521144
 20
370.388954
 30
0.0
 11
-669.521144
 21
494.388954
 31
0.0
  0
ENDSEC
  0
SECTION
  2
OBJECTS
  0
DICTIONARY
  5
C
330
0
100
AcDbDictionary
281
     1
  3
ACAD_GROUP
350
D
  3
ACAD_LAYOUT
350
1A
  3
ACAD_MLINESTYLE
350
17
  3
ACAD_PLOTSETTINGS
350
19
  3
ACAD_PLOTSTYLENAME
350
E
  0
DICTIONARY
  5
D
102
{ACAD_REACTORS
330
C
102
}
330
C
100
AcDbDictionary
281
     1
  0
DICTIONARY
  5
1A
102
{ACAD_REACTORS
330
C
102
}
330
C
100
AcDbDictionary
281
     1
  3
Layout1
350
1E
  3
Layout2
350
26
  3
Model
350
22
  0
DICTIONARY
  5
17
102
{ACAD_REACTORS
330
C
102
}
330
C
100
AcDbDictionary
281
     1
  3
Standard
350
18
  0
DICTIONARY
  5
19
102
{ACAD_REACTORS
330
C
102
}
330
C
100
AcDbDictionary
281
     1
  0
ACDBDICTIONARYWDFLT
  5
E
102
{ACAD_REACTORS
330
C
102
}
330
C
100
AcDbDictionary
281
     1
  3
Normal
350
F
100
AcDbDictionaryWithDefault
340
F
  0
LAYOUT
  5
1E
102
{ACAD_REACTORS
330
1A
102
}
330
1A
100
AcDbPlotSettings
  1

  2

  4

  6

 40
0.0
 41
0.0
 42
0.0
 43
0.0
 44
0.0
 45
0.0
 46
0.0
 47
0.0
 48
0.0
 49
0.0
140
0.0
141
0.0
142
1.0
143
1.0
 70
   688
 72
     0
 73
     0
 74
     5
  7

 75
    16
147
1.0
148
0.0
149
0.0
100
AcDbLayout
  1
Layout1
 70
     1
 71
     1
 10
-1300.871269
 20
-915.411046
 11
1669.128731
 21
1184.588954
 12
0.0
 22
0.0
 32
0.0
 14
-1300.871269
 24
-915.411046
 34
0.0
 15
1669.128731
 25
1184.588954
 35
0.0
146
0.0
 13
0.0
 23
0.0
 33
0.0
 16
1.0
 26
0.0
 36
0.0
 17
0.0
 27
1.0
 37
0.0
 76
     0
330
1B
  0
LAYOUT
  5
26
102
{ACAD_REACTORS
330
1A
102
}
330
1A
100
AcDbPlotSettings
  1

  2

  4

  6

 40
0.0
 41
0.0
 42
0.0
 43
0.0
 44
0.0
 45
0.0
 46
0.0
 47
0.0
 48
0.0
 49
0.0
140
0.0
141
0.0
142
1.0
143
1.0
 70
   688
 72
     0
 73
     0
 74
     5
  7

 75
    16
147
1.0
148
0.0
149
0.0
100
AcDbLayout
  1
Layout2
 70
     1
 71
     2
 10
0.0
 20
0.0
 11
0.0
 21
0.0
 12
0.0
 22
0.0
 32
0.0
 14
0.0
 24
0.0
 34
0.0
 15
0.0
 25
0.0
 35
0.0
146
0.0
 13
0.0
 23
0.0
 33
0.0
 16
1.0
 26
0.0
 36
0.0
 17
0.0
 27
1.0
 37
0.0
 76
     0
330
23
  0
LAYOUT
  5
22
102
{ACAD_REACTORS
330
1A
102
}
330
1A
100
AcDbPlotSettings
  1

  2

  4

  6

 40
0.0
 41
0.0
 42
0.0
 43
0.0
 44
0.0
 45
0.0
 46
0.0
 47
0.0
 48
0.0
 49
0.0
140
0.0
141
0.0
142
1.0
143
1.0
 70
  1776
 72
     0
 73
     0
 74
     0
  7

 75
     0
147
1.0
148
0.0
149
0.0
100
AcDbLayout
  1
Model
 70
     1
 71
     0
 10
-1300.871269
 20
-915.411046
 11
1669.128731
 21
1184.588954
 12
0.0
 22
0.0
 32
0.0
 14
-1300.871269
 24
-915.411046
 34
0.0
 15
1669.128731
 25
1184.588954
 35
0.0
146
0.0
 13
0.0
 23
0.0
 33
0.0
 16
1.0
 26
0.0
 36
0.0
 17
0.0
 27
1.0
 37
0.0
 76
     0
330
1F
  0
MLINESTYLE
  5
18
102
{ACAD_REACTORS
330
17
102
}
330
17
100
AcDbMlineStyle
  2
Standard
 70
     0
  3

 62
   256
 51
90.0
 52
90.0
 71
     2
 49
0.5
 62
   256
  6
BYLAYER
 49
-0.5
 62
   256
  6
BYLAYER
  0
ACDBPLACEHOLDER
  5
F
102
{ACAD_REACTORS
330
E
102
}
330
E
  0
ENDSEC
  0
EOF
