  0
SECTION
  2
HEADER
  9
$ACADVER
  1
AC1027
  9
$ACADMAINTVER
 70
   105
  9
$DWGCODEPAGE
  3
ANSI_1252
  9
$REQUIREDVERSIONS
160
                 0
  9
$INSBASE
 10
0.0
 20
0.0
 30
0.0
  9
$EXTMIN
 10
0.0
 20
0.0
 30
0.0
  9
$EXTMAX
 10
840.0
 20
594.0
 30
0.0
  9
$LIMMIN
 10
0.0
 20
0.0
  9
$LIMMAX
 10
840.0
 20
594.0
  9
$ORTHOMODE
 70
     0
  9
$REGENMODE
 70
     1
  9
$FILLMODE
 70
     1
  9
$QTEXTMODE
 70
     0
  9
$MIRRTEXT
 70
     1
  9
$LTSCALE
 40
2.0
  9
$ATTMODE
 70
     1
  9
$TEXTSIZE
 40
7.0
  9
$TRACEWID
 40
1.0
  9
$TEXTSTYLE
  7
Standard
  9
$CLAYER
  8
0
  9
$CELTYPE
  6
ByLayer
  9
$CECOLOR
 62
   256
  9
$CELTSCALE
 40
1.0
  9
$DISPSILH
 70
     0
  9
$DIMSCALE
 40
1.0
  9
$DIMASZ
 40
6.604
  9
$DIMEXO
 40
2.0
  9
$DIMDLI
 40
3.75
  9
$DIMRND
 40
0.0
  9
$DIMDLE
 40
0.0
  9
$DIMEXE
 40
2.0
  9
$DIMTP
 40
0.0
  9
$DIMTM
 40
0.0
  9
$DIMTXT
 40
7.0
  9
$DIMCEN
 40
2.5
  9
$DIMTSZ
 40
0.0
  9
$DIMTOL
 70
     0
  9
$DIMLIM
 70
     0
  9
$DIMTIH
 70
     1
  9
$DIMTOH
 70
     1
  9
$DIMSE1
 70
     0
  9
$DIMSE2
 70
     0
  9
$DIMTAD
 70
     1
  9
$DIMZIN
 70
     1
  9
$DIMBLK
  1

  9
$DIMASO
 70
     1
  9
$DIMSHO
 70
     1
  9
$DIMPOST
  1

  9
$DIMAPOST
  1

  9
$DIMALT
 70
     0
  9
$DIMALTD
 70
     3
  9
$DIMALTF
 40
0.0393700787
  9
$DIMLFAC
 40
1.0
  9
$DIMTOFL
 70
     1
  9
$DIMTVP
 40
0.0
  9
$DIMTIX
 70
     0
  9
$DIMSOXD
 70
     0
  9
$DIMSAH
 70
     0
  9
$DIMBLK1
  1

  9
$DIMBLK2
  1

  9
$DIMSTYLE
  2
ISO-25
  9
$DIMCLRD
 70
     0
  9
$DIMCLRE
 70
     0
  9
$DIMCLRT
 70
     0
  9
$DIMTFAC
 40
1.0
  9
$DIMGAP
 40
3.048
  9
$DIMJUST
 70
     0
  9
$DIMSD1
 70
     0
  9
$DIMSD2
 70
     0
  9
$DIMTOLJ
 70
     0
  9
$DIMTZIN
 70
     1
  9
$DIMALTZ
 70
     0
  9
$DIMALTTZ
 70
     0
  9
$DIMUPT
 70
     0
  9
$DIMDEC
 70
     2
  9
$DIMTDEC
 70
     2
  9
$DIMALTU
 70
     2
  9
$DIMALTTD
 70
     3
  9
$DIMTXSTY
  7
Standard
  9
$DIMAUNIT
 70
     0
  9
$DIMADEC
 70
     2
  9
$DIMALTRND
 40
0.0
  9
$DIMAZIN
 70
     0
  9
$DIMDSEP
 70
    44
  9
$DIMATFIT
 70
     3
  9
$DIMFRAC
 70
     0
  9
$DIMLDRBLK
  1

  9
$DIMLUNIT
 70
     2
  9
$DIMLWD
 70
    -2
  9
$DIMLWE
 70
    -2
  9
$DIMTMOVE
 70
     0
  9
$DIMFXL
 40
1.0
  9
$DIMFXLON
 70
     0
  9
$DIMJOGANG
 40
0.7853981634
  9
$DIMTFILL
 70
     0
  9
$DIMTFILLCLR
 70
     0
  9
$DIMARCSYM
 70
     0
  9
$DIMLTYPE
  6

  9
$DIMLTEX1
  6

  9
$DIMLTEX2
  6

  9
$DIMTXTDIRECTION
 70
     0
  9
$LUNITS
 70
     2
  9
$LUPREC
 70
     2
  9
$SKETCHINC
 40
1.0
  9
$FILLETRAD
 40
10.0
  9
$AUNITS
 70
     0
  9
$AUPREC
 70
     2
  9
$MENU
  1
.
  9
$ELEVATION
 40
0.0
  9
$PELEVATION
 40
0.0
  9
$THICKNESS
 40
0.0
  9
$LIMCHECK
 70
     0
  9
$CHAMFERA
 40
0.0
  9
$CHAMFERB
 40
0.0
  9
$CHAMFERC
 40
0.0
  9
$CHAMFERD
 40
0.0
  9
$SKPOLY
 70
     0
  9
$TDCREATE
 40
2459055.317793067
  9
$TDUCREATE
 40
2459055.234459734
  9
$TDUPDATE
 40
2459055.31779397
  9
$TDUUPDATE
 40
2459055.234460637
  9
$TDINDWG
 40
0.0000000116
  9
$TDUSRTIMER
 40
0.0000000116
  9
$USRTIMER
 70
     1
  9
$ANGBASE
 50
0.0
  9
$ANGDIR
 70
     0
  9
$PDMODE
 70
     0
  9
$PDSIZE
 40
-1.0
  9
$PLINEWID
 40
0.0
  9
$SPLFRAME
 70
     0
  9
$SPLINETYPE
 70
     6
  9
$SPLINESEGS
 70
     8
  9
$HANDSEED
  5
221
  9
$SURFTAB1
 70
     6
  9
$SURFTAB2
 70
     6
  9
$SURFTYPE
 70
     6
  9
$SURFU
 70
     6
  9
$SURFV
 70
     6
  9
$UCSBASE
  2

  9
$UCSNAME
  2

  9
$UCSORG
 10
0.0
 20
0.0
 30
0.0
  9
$UCSXDIR
 10
1.0
 20
0.0
 30
0.0
  9
$UCSYDIR
 10
0.0
 20
1.0
 30
0.0
  9
$UCSORTHOREF
  2

  9
$UCSORTHOVIEW
 70
     0
  9
$UCSORGTOP
 10
0.0
 20
0.0
 30
0.0
  9
$UCSORGBOTTOM
 10
0.0
 20
0.0
 30
0.0
  9
$UCSORGLEFT
 10
0.0
 20
0.0
 30
0.0
  9
$UCSORGRIGHT
 10
0.0
 20
0.0
 30
0.0
  9
$UCSORGFRONT
 10
0.0
 20
0.0
 30
0.0
  9
$UCSORGBACK
 10
0.0
 20
0.0
 30
0.0
  9
$PUCSBASE
  2

  9
$PUCSNAME
  2

  9
$PUCSORG
 10
0.0
 20
0.0
 30
0.0
  9
$PUCSXDIR
 10
1.0
 20
0.0
 30
0.0
  9
$PUCSYDIR
 10
0.0
 20
1.0
 30
0.0
  9
$PUCSORTHOREF
  2

  9
$PUCSORTHOVIEW
 70
     0
  9
$PUCSORGTOP
 10
0.0
 20
0.0
 30
0.0
  9
$PUCSORGBOTTOM
 10
0.0
 20
0.0
 30
0.0
  9
$PUCSORGLEFT
 10
0.0
 20
0.0
 30
0.0
  9
$PUCSORGRIGHT
 10
0.0
 20
0.0
 30
0.0
  9
$PUCSORGFRONT
 10
0.0
 20
0.0
 30
0.0
  9
$PUCSORGBACK
 10
0.0
 20
0.0
 30
0.0
  9
$USERI1
 70
     0
  9
$USERI2
 70
     0
  9
$USERI3
 70
     0
  9
$USERI4
 70
     0
  9
$USERI5
 70
     0
  9
$USERR1
 40
0.0
  9
$USERR2
 40
0.0
  9
$USERR3
 40
0.0
  9
$USERR4
 40
0.0
  9
$USERR5
 40
0.0
  9
$WORLDVIEW
 70
     1
  9
$SHADEDGE
 70
     3
  9
$SHADEDIF
 70
    70
  9
$TILEMODE
 70
     1
  9
$MAXACTVP
 70
    64
  9
$PINSBASE
 10
0.0
 20
0.0
 30
0.0
  9
$PLIMCHECK
 70
     0
  9
$PEXTMIN
 10
1.0000000000E+20
 20
1.0000000000E+20
 30
1.0000000000E+20
  9
$PEXTMAX
 10
-1.0000000000E+20
 20
-1.0000000000E+20
 30
-1.0000000000E+20
  9
$PLIMMIN
 10
0.0
 20
0.0
  9
$PLIMMAX
 10
420.0
 20
297.0
  9
$UNITMODE
 70
     0
  9
$VISRETAIN
 70
     1
  9
$PLINEGEN
 70
     0
  9
$PSLTSCALE
 70
     1
  9
$TREEDEPTH
 70
  3020
  9
$CMLSTYLE
  2
Standard
  9
$CMLJUST
 70
     0
  9
$CMLSCALE
 40
20.0
  9
$PROXYGRAPHICS
 70
     1
  9
$MEASUREMENT
 70
     1
  9
$CELWEIGHT
370
    -1
  9
$ENDCAPS
280
     0
  9
$JOINSTYLE
280
     0
  9
$LWDISPLAY
290
     1
  9
$INSUNITS
 70
     4
  9
$HYPERLINKBASE
  1

  9
$STYLESHEET
  1

  9
$XEDIT
290
     1
  9
$CEPSNTYPE
380
     0
  9
$PSTYLEMODE
290
     1
  9
$FINGERPRINTGUID
  2
{6A78B6D5-7FDC-4D5A-ABD1-863E8071F942}
  9
$VERSIONGUID
  2
{FAEB1C32-E019-11D5-929B-00C0DF256EC4}
  9
$EXTNAMES
290
     1
  9
$PSVPSCALE
 40
0.0
  9
$OLESTARTUP
290
     0
  9
$SORTENTS
280
   127
  9
$INDEXCTL
280
     0
  9
$HIDETEXT
280
     1
  9
$XCLIPFRAME
280
     2
  9
$HALOGAP
280
     0
  9
$OBSCOLOR
 70
   257
  9
$OBSLTYPE
280
     0
  9
$INTERSECTIONDISPLAY
280
     0
  9
$INTERSECTIONCOLOR
 70
   257
  9
$DIMASSOC
280
     2
  9
$PROJECTNAME
  1

  9
$CAMERADISPLAY
290
     0
  9
$LENSLENGTH
 40
50.0
  9
$CAMERAHEIGHT
 40
0.0
  9
$STEPSPERSEC
 40
2.0
  9
$STEPSIZE
 40
6.0
  9
$3DDWFPREC
 40
2.0
  9
$PSOLWIDTH
 40
5.0
  9
$PSOLHEIGHT
 40
80.0
  9
$LOFTANG1
 40
1.5707963268
  9
$LOFTANG2
 40
1.5707963268
  9
$LOFTMAG1
 40
0.0
  9
$LOFTMAG2
 40
0.0
  9
$LOFTPARAM
 70
     7
  9
$LOFTNORMALS
280
     1
  9
$LATITUDE
 40
37.795
  9
$LONGITUDE
 40
-122.394
  9
$NORTHDIRECTION
 40
0.0
  9
$TIMEZONE
 70
 -8000
  9
$LIGHTGLYPHDISPLAY
280
     1
  9
$TILEMODELIGHTSYNCH
280
     1
  9
$CMATERIAL
347
44
  9
$SOLIDHIST
280
     0
  9
$SHOWHIST
280
     1
  9
$DWFFRAME
280
     2
  9
$DGNFRAME
280
     2
  9
$REALWORLDSCALE
290
     1
  9
$INTERFERECOLOR
 62
   256
  9
$CSHADOW
280
     0
  9
$SHADOWPLANELOCATION
 40
0.0
  0
ENDSEC
  0
SECTION
  2
CLASSES
  0
CLASS
  1
ACDBDICTIONARYWDFLT
  2
AcDbDictionaryWithDefault
  3
ObjectDBX Classes
 90
        0
 91
        4
280
     0
281
     0
  0
CLASS
  1
VISUALSTYLE
  2
AcDbVisualStyle
  3
ObjectDBX Classes
 90
     4095
 91
        4
280
     0
281
     0
  0
CLASS
  1
MATERIAL
  2
AcDbMaterial
  3
ObjectDBX Classes
 90
     1153
 91
        4
280
     0
281
     0
  0
CLASS
  1
SCALE
  2
AcDbScale
  3
ObjectDBX Classes
 90
     1153
 91
        4
280
     0
281
     0
  0
CLASS
  1
TABLESTYLE
  2
AcDbTableStyle
  3
ObjectDBX Classes
 90
     4095
 91
        4
280
     0
281
     0
  0
CLASS
  1
MLEADERSTYLE
  2
AcDbMLeaderStyle
  3
ACDB_MLEADERSTYLE_CLASS
 90
     4095
 91
        4
280
     0
281
     0
  0
CLASS
  1
SUN
  2
AcDbSun
  3
SCENEOE
 90
     1153
 91
        4
280
     0
281
     0
  0
CLASS
  1
DICTIONARYVAR
  2
AcDbDictionaryVar
  3
ObjectDBX Classes
 90
        0
 91
        4
280
     0
281
     0
  0
CLASS
  1
CELLSTYLEMAP
  2
AcDbCellStyleMap
  3
ObjectDBX Classes
 90
     1152
 91
        4
280
     0
281
     0
  0
ENDSEC
  0
SECTION
  2
TABLES
  0
TABLE
  2
VPORT
  5
8
330
0
100
AcDbSymbolTable
 70
     1
  0
VPORT
  5
29
330
8
100
AcDbSymbolTableRecord
100
AcDbViewportTableRecord
  2
*Active
 70
     0
 10
0.0
 20
0.0
 11
1.0
 21
1.0
 12
420.0
 22
297.0
 13
0.0
 23
0.0
 14
10.0
 24
10.0
 15
10.0
 25
10.0
 16
0.0
 26
0.0
 36
1.0
 17
0.0
 27
0.0
 37
0.0
 40
594.0
 41
1.4141414141
 42
50.0
 43
0.0
 44
0.0
 50
0.0
 51
0.0
 71
     0
 72
  2000
 73
     1
 74
     3
 75
     0
 76
     0
 77
     0
 78
     0
281
     0
 65
     1
110
0.0
120
0.0
130
0.0
111
1.0
121
0.0
131
0.0
112
0.0
122
1.0
132
0.0
 79
     0
146
0.0
348
2F
 60
     3
 61
     5
292
     1
282
     1
141
0.0
142
0.0
 63
   250
361
6D
  0
ENDTAB
  0
TABLE
  2
LTYPE
  5
5
330
0
100
AcDbSymbolTable
 70
     8
  0
LTYPE
  5
14
330
5
100
AcDbSymbolTableRecord
100
AcDbLinetypeTableRecord
  2
ByBlock
 70
     0
  3

 72
    65
 73
     0
 40
0.0
  0
LTYPE
  5
15
330
5
100
AcDbSymbolTableRecord
100
AcDbLinetypeTableRecord
  2
ByLayer
 70
     0
  3

 72
    65
 73
     0
 40
0.0
  0
LTYPE
  5
16
330
5
100
AcDbSymbolTableRecord
100
AcDbLinetypeTableRecord
  2
Continuous
 70
     0
  3
Solid line
 72
    65
 73
     0
 40
0.0
  0
LTYPE
  5
6E
330
5
100
AcDbSymbolTableRecord
100
AcDbLinetypeTableRecord
  2
SLD-Durchgehend
 70
     0
  3
SolidWorks Line Style
 72
    65
 73
     0
 40
0.0
  0
LTYPE
  5
6F
330
5
100
AcDbSymbolTableRecord
100
AcDbLinetypeTableRecord
  2
SLD-Gestrichelt
 70
     0
  3
SolidWorks Line Style
 72
    65
 73
     2
 40
1.905
 49
1.27
 74
     0
 49
-0.635
 74
     0
  0
LTYPE
  5
70
330
5
100
AcDbSymbolTableRecord
100
AcDbLinetypeTableRecord
  2
SLD-Phantom
 70
     0
  3
SolidWorks Line Style
 72
    65
 73
     6
 40
12.7
 49
6.35
 74
     0
 49
-1.27
 74
     0
 49
1.27
 74
     0
 49
-1.27
 74
     0
 49
1.27
 74
     0
 49
-1.27
 74
     0
  0
LTYPE
  5
71
330
5
100
AcDbSymbolTableRecord
100
AcDbLinetypeTableRecord
  2
SLD-Kette
 70
     0
  3
SolidWorks Line Style
 72
    65
 73
     4
 40
10.16
 49
6.35
 74
     0
 49
-1.27
 74
     0
 49
1.27
 74
     0
 49
-1.27
 74
     0
  0
LTYPE
  5
72
330
5
100
AcDbSymbolTableRecord
100
AcDbLinetypeTableRecord
  2
SLD-Punktstrich
 70
     0
  3
SolidWorks Line Style
 72
    65
 73
     4
 40
19.05
 49
15.24
 74
     0
 49
-1.27
 74
     0
 49
1.27
 74
     0
 49
-1.27
 74
     0
  0
LTYPE
  5
73
330
5
100
AcDbSymbolTableRecord
100
AcDbLinetypeTableRecord
  2
SLD-Naht
 70
     0
  3
SolidWorks Line Style
 72
    65
 73
     2
 40
0.635
 49
0.0
 74
     0
 49
-0.635
 74
     0
  0
LTYPE
  5
74
330
5
100
AcDbSymbolTableRecord
100
AcDbLinetypeTableRecord
  2
SLD-Dicke-Dünne-Kette
 70
     0
  3
SolidWorks Line Style
 72
    65
 73
     4
 40
10.16
 49
6.35
 74
     0
 49
-1.27
 74
     0
 49
1.27
 74
     0
 49
-1.27
 74
     0
  0
ENDTAB
  0
TABLE
  2
LAYER
  5
2
330
0
100
AcDbSymbolTable
 70
     1
  0
LAYER
  5
10
330
2
100
AcDbSymbolTableRecord
100
AcDbLayerTableRecord
  2
0
 70
     0
 62
     7
  6
Continuous
370
    -3
390
F
347
46
348
0
  0
ENDTAB
  0
TABLE
  2
STYLE
  5
3
330
0
100
AcDbSymbolTable
 70
     4
  0
STYLE
  5
11
330
3
100
AcDbSymbolTableRecord
100
AcDbTextStyleTableRecord
  2
Standard
 70
     0
 40
0.0
 41
1.0
 50
0.0
 71
     0
 42
7.0
  3
txt
  4

  0
STYLE
  5
1EF
330
3
100
AcDbSymbolTableRecord
100
AcDbTextStyleTableRecord
  2
SLDTEXTSTYLE0
 70
     0
 40
0.0
 41
0.605
 50
0.0
 71
     0
 42
7.0
  3
TXT
  4

  0
STYLE
  5
1FA
330
3
100
AcDbSymbolTableRecord
100
AcDbTextStyleTableRecord
  2
SLDTEXTSTYLE1
 70
     0
 40
0.0
 41
0.845
 50
0.0
 71
     0
 42
7.0
  3
TXT
  4

  0
STYLE
  5
207
330
3
100
AcDbSymbolTableRecord
100
AcDbTextStyleTableRecord
  2
SLDTEXTSTYLE2
 70
     0
 40
0.0
 41
0.96
 50
0.0
 71
     0
 42
7.0
  3
TXT
  4

  0
ENDTAB
  0
TABLE
  2
VIEW
  5
6
330
0
100
AcDbSymbolTable
 70
     0
  0
ENDTAB
  0
TABLE
  2
UCS
  5
7
330
0
100
AcDbSymbolTable
 70
     0
  0
ENDTAB
  0
TABLE
  2
APPID
  5
9
330
0
100
AcDbSymbolTable
 70
     1
  0
APPID
  5
12
330
9
100
AcDbSymbolTableRecord
100
AcDbRegAppTableRecord
  2
ACAD
 70
     0
  0
ENDTAB
  0
TABLE
  2
DIMSTYLE
  5
A
330
0
100
AcDbSymbolTable
 70
     2
100
AcDbDimStyleTable
  0
DIMSTYLE
105
27
330
A
100
AcDbSymbolTableRecord
100
AcDbDimStyleTableRecord
  2
ISO-25
 70
     0
 41
2.5
 42
0.625
 43
3.75
 44
1.25
 73
     0
 74
     0
 77
     1
 78
     8
140
2.5
141
2.5
143
0.0393700787
147
0.625
171
     3
172
     1
178
     0
271
     2
272
     2
274
     3
278
    44
283
     0
284
     8
340
11
  0
DIMSTYLE
105
1F0
102
{ACAD_REACTORS
330
1EE
330
1FE
330
20B
102
}
330
A
100
AcDbSymbolTableRecord
100
AcDbDimStyleTableRecord
  2
SLDDIMSTYLE0
 70
     0
 41
6.604
 44
0.0
 45
0.000000001
 73
     0
 74
     0
 77
     1
 78
    12
 79
     3
140
12.0
147
3.0
173
     1
178
     0
271
     0
272
     0
276
     2
284
    12
340
1EF
341
1F1
343
1F1
344
1F1
  0
ENDTAB
  0
TABLE
  2
BLOCK_RECORD
  5
1
330
0
100
AcDbSymbolTable
 70
     5
  0
BLOCK_RECORD
  5
1F
330
1
100
AcDbSymbolTableRecord
100
AcDbBlockTableRecord
  2
*Model_Space
340
22
 70
     0
280
     1
281
     0
  0
BLOCK_RECORD
  5
1B
330
1
100
AcDbSymbolTableRecord
100
AcDbBlockTableRecord
  2
*Paper_Space
340
1E
 70
     0
280
     1
281
     0
  0
BLOCK_RECORD
  5
23
330
1
100
AcDbSymbolTableRecord
100
AcDbBlockTableRecord
  2
*Paper_Space0
340
26
 70
     0
280
     1
281
     0
  0
BLOCK_RECORD
  5
1F1
330
1
100
AcDbSymbolTableRecord
100
AcDbBlockTableRecord
  2
_NONE
340
0
 70
     0
280
     1
281
     0
  0
BLOCK_RECORD
  5
1F4
330
1
100
AcDbSymbolTableRecord
100
AcDbBlockTableRecord
  2
_D
340
0
 70
     0
280
     1
281
     0
  0
BLOCK_RECORD
  5
1FF
330
1
100
AcDbSymbolTableRecord
100
AcDbBlockTableRecord
  2
_D_1
340
0
 70
     0
280
     1
281
     0
  0
BLOCK_RECORD
  5
20C
330
1
100
AcDbSymbolTableRecord
100
AcDbBlockTableRecord
  2
_D_2
340
0
 70
     0
280
     1
281
     0
  0
ENDTAB
  0
ENDSEC
  0
SECTION
  2
BLOCKS
  0
BLOCK
  5
20
330
1F
100
AcDbEntity
  8
0
100
AcDbBlockBegin
  2
*Model_Space
 70
     0
 10
0.0
 20
0.0
 30
0.0
  3
*Model_Space
  1

  0
ENDBLK
  5
21
330
1F
100
AcDbEntity
  8
0
100
AcDbBlockEnd
  0
BLOCK
  5
1C
330
1B
100
AcDbEntity
 67
     1
  8
0
100
AcDbBlockBegin
  2
*Paper_Space
 70
     0
 10
0.0
 20
0.0
 30
0.0
  3
*Paper_Space
  1

  0
ENDBLK
  5
1D
330
1B
100
AcDbEntity
 67
     1
  8
0
100
AcDbBlockEnd
  0
BLOCK
  5
24
330
23
100
AcDbEntity
  8
0
100
AcDbBlockBegin
  2
*Paper_Space0
 70
     0
 10
0.0
 20
0.0
 30
0.0
  3
*Paper_Space0
  1

  0
ENDBLK
  5
25
330
23
100
AcDbEntity
  8
0
100
AcDbBlockEnd
  0
BLOCK
  5
1F2
330
1F1
100
AcDbEntity
  8
0
100
AcDbBlockBegin
  2
_NONE
 70
     0
 10
0.0
 20
0.0
 30
0.0
  3
_NONE
  1

  0
ENDBLK
  5
1F3
330
1F1
100
AcDbEntity
  8
0
100
AcDbBlockEnd
  0
BLOCK
  5
1F5
330
1F4
100
AcDbEntity
  8
0
100
AcDbBlockBegin
  2
_D
 70
     0
 10
0.0
 20
0.0
 30
0.0
  3
_D
  1

  0
LINE
  5
1F7
330
1F4
100
AcDbEntity
  8
0
  6
SLD-Durchgehend
 62
   250
420
  1644836
370
    18
100
AcDbLine
 10
224.1735752526
 20
427.3137684211
 30
0.0
 11
224.1735752526
 21
440.702785439
 31
0.0
  0
LINE
  5
1F8
330
1F4
100
AcDbEntity
  8
0
  6
SLD-Durchgehend
 62
   250
420
  1644836
370
    18
100
AcDbLine
 10
506.1735752526
 20
427.3137684211
 30
0.0
 11
506.1735752526
 21
440.702785439
 31
0.0
  0
LINE
  5
1F9
330
1F4
100
AcDbEntity
  8
0
  6
SLD-Durchgehend
 62
   250
420
  1644836
370
    18
100
AcDbLine
 10
224.1735752526
 20
438.702785439
 30
0.0
 11
506.1735752526
 21
438.702785439
 31
0.0
  0
MTEXT
  5
1FB
330
1F4
100
AcDbEntity
  8
0
  6
SLD-Durchgehend
 62
   250
420
  1644836
370
    18
100
AcDbMText
 10
334.2221209869
 20
453.2720672668
 30
0.0
 40
12.0
 41
0.0
 46
0.0
 71
     1
 72
     1
  1
72 x 282
  7
SLDTEXTSTYLE1
 73
     1
 44
1.0
  0
SOLID
  5
1FC
330
1F4
100
AcDbEntity
  8
0
  6
SLD-Durchgehend
 62
   250
420
  1644836
370
    18
100
AcDbTrace
 10
224.1735752526
 20
438.702785439
 30
0.0
 11
236.1735752526
 21
436.8566315929
 31
0.0
 12
236.1735752526
 22
440.5489392852
 32
0.0
 13
236.1735752526
 23
440.5489392852
 33
0.0
  0
SOLID
  5
1FD
330
1F4
100
AcDbEntity
  8
0
  6
SLD-Durchgehend
 62
   250
420
  1644836
370
    18
100
AcDbTrace
 10
506.1735752526
 20
438.702785439
 30
0.0
 11
494.1735752526
 21
440.5489392852
 31
0.0
 12
494.1735752526
 22
436.8566315929
 32
0.0
 13
494.1735752526
 23
436.8566315929
 33
0.0
  0
ENDBLK
  5
1F6
330
1F4
100
AcDbEntity
  8
0
100
AcDbBlockEnd
  0
BLOCK
  5
200
330
1FF
100
AcDbEntity
  8
0
100
AcDbBlockBegin
  2
_D_1
 70
     0
 10
0.0
 20
0.0
 30
0.0
  3
_D_1
  1

  0
LINE
  5
202
330
1FF
100
AcDbEntity
  8
0
  6
SLD-Durchgehend
 62
   250
420
  1644836
370
    18
100
AcDbLine
 10
508.1735752526
 20
421.3137684211
 30
0.0
 11
517.8906286948
 21
421.3137684211
 31
0.0
  0
LINE
  5
203
330
1FF
100
AcDbEntity
  8
0
  6
SLD-Durchgehend
 62
   250
420
  1644836
370
    18
100
AcDbLine
 10
508.1735752526
 20
425.3137684211
 30
0.0
 11
517.8906286948
 21
425.3137684211
 31
0.0
  0
LINE
  5
204
330
1FF
100
AcDbEntity
  8
0
  6
SLD-Durchgehend
 62
   250
420
  1644836
370
    18
100
AcDbLine
 10
515.8906286948
 20
421.3137684211
 30
0.0
 11
515.8906286948
 21
396.6840889148
 31
0.0
  0
LINE
  5
205
330
1FF
100
AcDbEntity
  8
0
  6
SLD-Durchgehend
 62
   250
420
  1644836
370
    18
100
AcDbLine
 10
515.8906286948
 20
421.3137684211
 30
0.0
 11
515.8906286948
 21
425.3137684211
 31
0.0
  0
LINE
  5
206
330
1FF
100
AcDbEntity
  8
0
  6
SLD-Durchgehend
 62
   250
420
  1644836
370
    18
100
AcDbLine
 10
515.8906286948
 20
425.3137684211
 30
0.0
 11
515.8906286948
 21
448.390691498
 31
0.0
  0
MTEXT
  5
208
330
1FF
100
AcDbEntity
  8
0
  6
SLD-Durchgehend
 62
   250
420
  1644836
370
    18
100
AcDbMText
 10
501.321346867
 20
396.6840889148
 30
0.0
 40
12.0
 41
0.0
 46
0.0
 71
     1
 72
     1
  1
4
  7
SLDTEXTSTYLE2
 11
6.123233995736766E-17
 21
1.0
 31
0.0
 73
     1
 44
1.0
  0
SOLID
  5
209
330
1FF
100
AcDbEntity
  8
0
  6
SLD-Durchgehend
 62
   250
420
  1644836
370
    18
100
AcDbTrace
 10
515.8906286948
 20
421.3137684211
 30
0.0
 11
514.0444748486
 21
409.3137684211
 31
0.0
 12
517.7367825409
 22
409.3137684211
 32
0.0
 13
517.7367825409
 23
409.3137684211
 33
0.0
  0
SOLID
  5
20A
330
1FF
100
AcDbEntity
  8
0
  6
SLD-Durchgehend
 62
   250
420
  1644836
370
    18
100
AcDbTrace
 10
515.8906286948
 20
425.3137684211
 30
0.0
 11
517.7367825409
 21
437.3137684211
 31
0.0
 12
514.0444748486
 22
437.3137684211
 32
0.0
 13
514.0444748486
 23
437.3137684211
 33
0.0
  0
ENDBLK
  5
201
330
1FF
100
AcDbEntity
  8
0
100
AcDbBlockEnd
  0
BLOCK
  5
20D
330
20C
100
AcDbEntity
  8
0
100
AcDbBlockBegin
  2
_D_2
 70
     0
 10
0.0
 20
0.0
 30
0.0
  3
_D_2
  1

  0
LINE
  5
20F
330
20C
100
AcDbEntity
  8
0
  6
SLD-Durchgehend
 62
   250
420
  1644836
370
    18
100
AcDbLine
 10
508.1735752526
 20
425.3137684211
 30
0.0
 11
540.1735752526
 21
425.3137684211
 31
0.0
  0
LINE
  5
210
330
20C
100
AcDbEntity
  8
0
  6
SLD-Durchgehend
 62
   250
420
  1644836
370
    18
100
AcDbLine
 10
507.9235752526
 20
414.3137684211
 30
0.0
 11
540.1735752526
 21
414.3137684211
 31
0.0
  0
LINE
  5
211
330
20C
100
AcDbEntity
  8
0
  6
SLD-Durchgehend
 62
   250
420
  1644836
370
    18
100
AcDbLine
 10
538.1735752526
 20
425.3137684211
 30
0.0
 11
538.1735752526
 21
448.390691498
 31
0.0
  0
LINE
  5
212
330
20C
100
AcDbEntity
  8
0
  6
SLD-Durchgehend
 62
   250
420
  1644836
370
    18
100
AcDbLine
 10
538.1735752526
 20
425.3137684211
 30
0.0
 11
538.1735752526
 21
414.3137684211
 31
0.0
  0
LINE
  5
213
330
20C
100
AcDbEntity
  8
0
  6
SLD-Durchgehend
 62
   250
420
  1644836
370
    18
100
AcDbLine
 10
538.1735752526
 20
414.3137684211
 30
0.0
 11
538.1735752526
 21
392.1007557615
 31
0.0
  0
MTEXT
  5
214
330
20C
100
AcDbEntity
  8
0
  6
SLD-Durchgehend
 62
   250
420
  1644836
370
    18
100
AcDbMText
 10
523.6042934248
 20
392.1007557615
 30
0.0
 40
12.0
 41
0.0
 46
0.0
 71
     1
 72
     1
  1
11
  7
SLDTEXTSTYLE2
 11
-7.044195017643634E-15
 21
1.0
 31
0.0
 73
     1
 44
1.0
  0
SOLID
  5
215
330
20C
100
AcDbEntity
  8
0
  6
SLD-Durchgehend
 62
   250
420
  1644836
370
    18
100
AcDbTrace
 10
538.1735752526
 20
425.3137684211
 30
0.0
 11
540.0197290988
 21
437.3137684211
 31
0.0
 12
536.3274214064
 22
437.3137684211
 32
0.0
 13
536.3274214064
 23
437.3137684211
 33
0.0
  0
SOLID
  5
216
330
20C
100
AcDbEntity
  8
0
  6
SLD-Durchgehend
 62
   250
420
  1644836
370
    18
100
AcDbTrace
 10
538.1735752526
 20
414.3137684211
 30
0.0
 11
536.3274214064
 21
402.3137684211
 31
0.0
 12
540.0197290988
 22
402.3137684211
 32
0.0
 13
540.0197290988
 23
402.3137684211
 33
0.0
  0
ENDBLK
  5
20E
330
20C
100
AcDbEntity
  8
0
100
AcDbBlockEnd
  0
ENDSEC
  0
SECTION
  2
ENTITIES
  0
LINE
  5
75
330
1F
100
AcDbEntity
  8
0
  6
SLD-Durchgehend
 62
   179
420
  2171202
370
    18
100
AcDbLine
 10
364.1209818297
 20
416.3137684211
 30
0.0
 11
364.1209818297
 21
417.5137684211
 31
0.0
  0
LINE
  5
76
330
1F
100
AcDbEntity
  8
0
  6
SLD-Durchgehend
 62
   179
420
  2171202
370
    18
100
AcDbLine
 10
364.1209818297
 20
417.5137684211
 30
0.0
 11
366.2261686755
 21
417.5137684211
 31
0.0
  0
LINE
  5
77
330
1F
100
AcDbEntity
  8
0
  6
SLD-Durchgehend
 62
   179
420
  2171202
370
    18
100
AcDbLine
 10
366.2261686755
 20
417.5137684211
 30
0.0
 11
366.2261686755
 21
416.3137684211
 31
0.0
  0
LINE
  5
78
330
1F
100
AcDbEntity
  8
0
  6
SLD-Durchgehend
 62
   179
420
  2171202
370
    18
100
AcDbLine
 10
366.2261686755
 20
416.3137684211
 30
0.0
 11
368.1735752526
 21
416.3137684211
 31
0.0
  0
LINE
  5
79
330
1F
100
AcDbEntity
  8
0
  6
SLD-Durchgehend
 62
   179
420
  2171202
370
    18
100
AcDbLine
 10
368.1735752526
 20
416.3137684211
 30
0.0
 11
368.1735752526
 21
416.5137684211
 31
0.0
  0
LINE
  5
7A
330
1F
100
AcDbEntity
  8
0
  6
SLD-Durchgehend
 62
   179
420
  2171202
370
    18
100
AcDbLine
 10
368.1735752526
 20
416.5137684211
 30
0.0
 11
366.7028645745
 21
417.9844790992
 31
0.0
  0
LINE
  5
7B
330
1F
100
AcDbEntity
  8
0
  6
SLD-Durchgehend
 62
   179
420
  2171202
370
    18
100
AcDbLine
 10
366.6735752526
 20
418.0551897773
 30
0.0
 11
366.6735752526
 21
420.0072684211
 31
0.0
  0
LINE
  5
7C
330
1F
100
AcDbEntity
  8
0
  6
SLD-Durchgehend
 62
   179
420
  2171202
370
    18
100
AcDbLine
 10
366.6735752526
 20
420.0072684211
 30
0.0
 11
366.3670752526
 21
420.3137684211
 31
0.0
  0
LINE
  5
7D
330
1F
100
AcDbEntity
  8
0
  6
SLD-Durchgehend
 62
   179
420
  2171202
370
    18
100
AcDbLine
 10
366.3670752526
 20
420.3137684211
 30
0.0
 11
363.9800752526
 21
420.3137684211
 31
0.0
  0
LINE
  5
7E
330
1F
100
AcDbEntity
  8
0
  6
SLD-Durchgehend
 62
   179
420
  2171202
370
    18
100
AcDbLine
 10
363.9800752526
 20
420.3137684211
 30
0.0
 11
363.6735752526
 21
420.0072684211
 31
0.0
  0
LINE
  5
7F
330
1F
100
AcDbEntity
  8
0
  6
SLD-Durchgehend
 62
   179
420
  2171202
370
    18
100
AcDbLine
 10
363.6735752526
 20
420.0072684211
 30
0.0
 11
363.6735752526
 21
418.0551897773
 31
0.0
  0
LINE
  5
80
330
1F
100
AcDbEntity
  8
0
  6
SLD-Durchgehend
 62
   179
420
  2171202
370
    18
100
AcDbLine
 10
363.6442859307
 20
417.9844790992
 30
0.0
 11
362.1735752526
 21
416.5137684211
 31
0.0
  0
LINE
  5
81
330
1F
100
AcDbEntity
  8
0
  6
SLD-Durchgehend
 62
   179
420
  2171202
370
    18
100
AcDbLine
 10
362.1735752526
 20
416.5137684211
 30
0.0
 11
362.1735752526
 21
416.3137684211
 31
0.0
  0
LINE
  5
82
330
1F
100
AcDbEntity
  8
0
  6
SLD-Durchgehend
 62
   179
420
  2171202
370
    18
100
AcDbLine
 10
362.1735752526
 20
416.3137684211
 30
0.0
 11
364.1209818297
 21
416.3137684211
 31
0.0
  0
LINE
  5
83
330
1F
100
AcDbEntity
  8
0
  6
SLD-Durchgehend
 62
   179
420
  2171202
370
    18
100
AcDbLine
 10
224.4235752526
 20
418.8137684211
 30
0.0
 11
224.4235752526
 21
414.3137684211
 31
0.0
  0
LINE
  5
84
330
1F
100
AcDbEntity
  8
0
  6
SLD-Durchgehend
 62
   179
420
  2171202
370
    18
100
AcDbLine
 10
224.4235752526
 20
414.3137684211
 30
0.0
 11
226.4235752526
 21
414.3137684211
 31
0.0
  0
LINE
  5
85
330
1F
100
AcDbEntity
  8
0
  6
SLD-Durchgehend
 62
   179
420
  2171202
370
    18
100
AcDbLine
 10
226.4235752526
 20
414.3137684211
 30
0.0
 11
226.4235752526
 21
418.8137684211
 31
0.0
  0
LINE
  5
86
330
1F
100
AcDbEntity
  8
0
  6
SLD-Durchgehend
 62
   179
420
  2171202
370
    18
100
AcDbLine
 10
226.9235752526
 20
419.3137684211
 30
0.0
 11
231.6735752526
 21
419.3137684211
 31
0.0
  0
LINE
  5
87
330
1F
100
AcDbEntity
  8
0
  6
SLD-Durchgehend
 62
   179
420
  2171202
370
    18
100
AcDbLine
 10
231.6735752526
 20
419.3137684211
 30
0.0
 11
231.6735752526
 21
420.3137684211
 31
0.0
  0
LINE
  5
88
330
1F
100
AcDbEntity
  8
0
  6
SLD-Durchgehend
 62
   179
420
  2171202
370
    18
100
AcDbLine
 10
231.6735752526
 20
420.3137684211
 30
0.0
 11
230.5735752526
 21
420.3137684211
 31
0.0
  0
LINE
  5
89
330
1F
100
AcDbEntity
  8
0
  6
SLD-Durchgehend
 62
   179
420
  2171202
370
    18
100
AcDbLine
 10
230.5735752526
 20
420.3137684211
 30
0.0
 11
230.5735752526
 21
421.3137684211
 31
0.0
  0
LINE
  5
8A
330
1F
100
AcDbEntity
  8
0
  6
SLD-Durchgehend
 62
   179
420
  2171202
370
    18
100
AcDbLine
 10
230.5735752526
 20
421.3137684211
 30
0.0
 11
226.9235752526
 21
421.3137684211
 31
0.0
  0
LINE
  5
8B
330
1F
100
AcDbEntity
  8
0
  6
SLD-Durchgehend
 62
   179
420
  2171202
370
    18
100
AcDbLine
 10
413.7235752526
 20
419.3137684211
 30
0.0
 11
413.9235752526
 21
419.5137684211
 31
0.0
  0
LINE
  5
8C
330
1F
100
AcDbEntity
  8
0
  6
SLD-Durchgehend
 62
   179
420
  2171202
370
    18
100
AcDbLine
 10
413.9235752526
 20
419.5137684211
 30
0.0
 11
413.9235752526
 21
421.3137684211
 31
0.0
  0
LINE
  5
8D
330
1F
100
AcDbEntity
  8
0
  6
SLD-Durchgehend
 62
   179
420
  2171202
370
    18
100
AcDbLine
 10
413.9235752526
 20
421.3137684211
 30
0.0
 11
366.4235752526
 21
421.3137684211
 31
0.0
  0
LINE
  5
8E
330
1F
100
AcDbEntity
  8
0
  6
SLD-Durchgehend
 62
   179
420
  2171202
370
    18
100
AcDbLine
 10
366.4235752526
 20
421.3137684211
 30
0.0
 11
366.4235752526
 21
419.5137684211
 31
0.0
  0
LINE
  5
8F
330
1F
100
AcDbEntity
  8
0
  6
SLD-Durchgehend
 62
   179
420
  2171202
370
    18
100
AcDbLine
 10
366.4235752526
 20
419.5137684211
 30
0.0
 11
366.6235752526
 21
419.3137684211
 31
0.0
  0
LINE
  5
90
330
1F
100
AcDbEntity
  8
0
  6
SLD-Durchgehend
 62
   179
420
  2171202
370
    18
100
AcDbLine
 10
366.6235752526
 20
419.3137684211
 30
0.0
 11
413.7235752526
 21
419.3137684211
 31
0.0
  0
LINE
  5
91
330
1F
100
AcDbEntity
  8
0
  6
SLD-Durchgehend
 62
   179
420
  2171202
370
    18
100
AcDbLine
 10
363.9235752526
 20
421.3137684211
 30
0.0
 11
316.4235752526
 21
421.3137684211
 31
0.0
  0
LINE
  5
92
330
1F
100
AcDbEntity
  8
0
  6
SLD-Durchgehend
 62
   179
420
  2171202
370
    18
100
AcDbLine
 10
316.4235752526
 20
421.3137684211
 30
0.0
 11
316.4235752526
 21
419.5137684211
 31
0.0
  0
LINE
  5
93
330
1F
100
AcDbEntity
  8
0
  6
SLD-Durchgehend
 62
   179
420
  2171202
370
    18
100
AcDbLine
 10
316.4235752526
 20
419.5137684211
 30
0.0
 11
316.6235752526
 21
419.3137684211
 31
0.0
  0
LINE
  5
94
330
1F
100
AcDbEntity
  8
0
  6
SLD-Durchgehend
 62
   179
420
  2171202
370
    18
100
AcDbLine
 10
316.6235752526
 20
419.3137684211
 30
0.0
 11
363.7235752526
 21
419.3137684211
 31
0.0
  0
LINE
  5
95
330
1F
100
AcDbEntity
  8
0
  6
SLD-Durchgehend
 62
   179
420
  2171202
370
    18
100
AcDbLine
 10
363.7235752526
 20
419.3137684211
 30
0.0
 11
363.9235752526
 21
419.5137684211
 31
0.0
  0
LINE
  5
96
330
1F
100
AcDbEntity
  8
0
  6
SLD-Durchgehend
 62
   179
420
  2171202
370
    18
100
AcDbLine
 10
363.9235752526
 20
419.5137684211
 30
0.0
 11
363.9235752526
 21
421.3137684211
 31
0.0
  0
LINE
  5
97
330
1F
100
AcDbEntity
  8
0
  6
SLD-Durchgehend
 62
   179
420
  2171202
370
    18
100
AcDbLine
 10
493.6735752526
 20
420.3137684211
 30
0.0
 11
492.5735752526
 21
420.3137684211
 31
0.0
  0
LINE
  5
98
330
1F
100
AcDbEntity
  8
0
  6
SLD-Durchgehend
 62
   179
420
  2171202
370
    18
100
AcDbLine
 10
492.5735752526
 20
420.3137684211
 30
0.0
 11
492.5735752526
 21
421.3137684211
 31
0.0
  0
LINE
  5
99
330
1F
100
AcDbEntity
  8
0
  6
SLD-Durchgehend
 62
   179
420
  2171202
370
    18
100
AcDbLine
 10
492.5735752526
 20
421.3137684211
 30
0.0
 11
416.4235752526
 21
421.3137684211
 31
0.0
  0
LINE
  5
9A
330
1F
100
AcDbEntity
  8
0
  6
SLD-Durchgehend
 62
   179
420
  2171202
370
    18
100
AcDbLine
 10
416.4235752526
 20
421.3137684211
 30
0.0
 11
416.4235752526
 21
419.5137684211
 31
0.0
  0
LINE
  5
9B
330
1F
100
AcDbEntity
  8
0
  6
SLD-Durchgehend
 62
   179
420
  2171202
370
    18
100
AcDbLine
 10
416.4235752526
 20
419.5137684211
 30
0.0
 11
416.6235752526
 21
419.3137684211
 31
0.0
  0
LINE
  5
9C
330
1F
100
AcDbEntity
  8
0
  6
SLD-Durchgehend
 62
   179
420
  2171202
370
    18
100
AcDbLine
 10
416.6235752526
 20
419.3137684211
 30
0.0
 11
493.6735752526
 21
419.3137684211
 31
0.0
  0
LINE
  5
9D
330
1F
100
AcDbEntity
  8
0
  6
SLD-Durchgehend
 62
   179
420
  2171202
370
    18
100
AcDbLine
 10
493.6735752526
 20
419.3137684211
 30
0.0
 11
493.6735752526
 21
420.3137684211
 31
0.0
  0
LINE
  5
9E
330
1F
100
AcDbEntity
  8
0
  6
SLD-Durchgehend
 62
   179
420
  2171202
370
    18
100
AcDbLine
 10
237.7735752526
 20
420.3137684211
 30
0.0
 11
236.6735752526
 21
420.3137684211
 31
0.0
  0
LINE
  5
9F
330
1F
100
AcDbEntity
  8
0
  6
SLD-Durchgehend
 62
   179
420
  2171202
370
    18
100
AcDbLine
 10
236.6735752526
 20
420.3137684211
 30
0.0
 11
236.6735752526
 21
419.3137684211
 31
0.0
  0
LINE
  5
A0
330
1F
100
AcDbEntity
  8
0
  6
SLD-Durchgehend
 62
   179
420
  2171202
370
    18
100
AcDbLine
 10
236.6735752526
 20
419.3137684211
 30
0.0
 11
313.7235752526
 21
419.3137684211
 31
0.0
  0
LINE
  5
A1
330
1F
100
AcDbEntity
  8
0
  6
SLD-Durchgehend
 62
   179
420
  2171202
370
    18
100
AcDbLine
 10
313.7235752526
 20
419.3137684211
 30
0.0
 11
313.9235752526
 21
419.5137684211
 31
0.0
  0
LINE
  5
A2
330
1F
100
AcDbEntity
  8
0
  6
SLD-Durchgehend
 62
   179
420
  2171202
370
    18
100
AcDbLine
 10
313.9235752526
 20
419.5137684211
 30
0.0
 11
313.9235752526
 21
421.3137684211
 31
0.0
  0
LINE
  5
A3
330
1F
100
AcDbEntity
  8
0
  6
SLD-Durchgehend
 62
   179
420
  2171202
370
    18
100
AcDbLine
 10
313.9235752526
 20
421.3137684211
 30
0.0
 11
237.7735752526
 21
421.3137684211
 31
0.0
  0
LINE
  5
A4
330
1F
100
AcDbEntity
  8
0
  6
SLD-Durchgehend
 62
   179
420
  2171202
370
    18
100
AcDbLine
 10
237.7735752526
 20
421.3137684211
 30
0.0
 11
237.7735752526
 21
420.3137684211
 31
0.0
  0
LINE
  5
A5
330
1F
100
AcDbEntity
  8
0
  6
SLD-Durchgehend
 62
   179
420
  2171202
370
    18
100
AcDbLine
 10
503.9235752526
 20
414.3137684211
 30
0.0
 11
505.9235752526
 21
414.3137684211
 31
0.0
  0
LINE
  5
A6
330
1F
100
AcDbEntity
  8
0
  6
SLD-Durchgehend
 62
   179
420
  2171202
370
    18
100
AcDbLine
 10
505.9235752526
 20
414.3137684211
 30
0.0
 11
505.9235752526
 21
418.8137684211
 31
0.0
  0
LINE
  5
A7
330
1F
100
AcDbEntity
  8
0
  6
SLD-Durchgehend
 62
   179
420
  2171202
370
    18
100
AcDbLine
 10
503.4235752526
 20
421.3137684211
 30
0.0
 11
499.7735752526
 21
421.3137684211
 31
0.0
  0
LINE
  5
A8
330
1F
100
AcDbEntity
  8
0
  6
SLD-Durchgehend
 62
   179
420
  2171202
370
    18
100
AcDbLine
 10
499.7735752526
 20
421.3137684211
 30
0.0
 11
499.7735752526
 21
420.3137684211
 31
0.0
  0
LINE
  5
A9
330
1F
100
AcDbEntity
  8
0
  6
SLD-Durchgehend
 62
   179
420
  2171202
370
    18
100
AcDbLine
 10
499.7735752526
 20
420.3137684211
 30
0.0
 11
498.6735752526
 21
420.3137684211
 31
0.0
  0
LINE
  5
AA
330
1F
100
AcDbEntity
  8
0
  6
SLD-Durchgehend
 62
   179
420
  2171202
370
    18
100
AcDbLine
 10
498.6735752526
 20
420.3137684211
 30
0.0
 11
498.6735752526
 21
419.3137684211
 31
0.0
  0
LINE
  5
AB
330
1F
100
AcDbEntity
  8
0
  6
SLD-Durchgehend
 62
   179
420
  2171202
370
    18
100
AcDbLine
 10
498.6735752526
 20
419.3137684211
 30
0.0
 11
503.4235752526
 21
419.3137684211
 31
0.0
  0
LINE
  5
AC
330
1F
100
AcDbEntity
  8
0
  6
SLD-Durchgehend
 62
   179
420
  2171202
370
    18
100
AcDbLine
 10
503.9235752526
 20
418.8137684211
 30
0.0
 11
503.9235752526
 21
414.3137684211
 31
0.0
  0
LINE
  5
AD
330
1F
100
AcDbEntity
  8
0
  6
SLD-Durchgehend
 62
   179
420
  2171202
370
    18
100
AcDbLine
 10
413.1735752526
 20
422.8137684211
 30
0.0
 11
417.1735752526
 21
422.8137684211
 31
0.0
  0
LINE
  5
AE
330
1F
100
AcDbEntity
  8
0
  6
SLD-Durchgehend
 62
   179
420
  2171202
370
    18
100
AcDbLine
 10
417.1735752526
 20
422.8137684211
 30
0.0
 11
417.1735752526
 21
421.3137684211
 31
0.0
  0
LINE
  5
AF
330
1F
100
AcDbEntity
  8
0
  6
SLD-Durchgehend
 62
   179
420
  2171202
370
    18
100
AcDbLine
 10
417.1735752526
 20
421.3137684211
 30
0.0
 11
506.1735752526
 21
421.3137684211
 31
0.0
  0
LINE
  5
B0
330
1F
100
AcDbEntity
  8
0
  6
SLD-Durchgehend
 62
   179
420
  2171202
370
    18
100
AcDbLine
 10
506.1735752526
 20
421.3137684211
 30
0.0
 11
506.1735752526
 21
425.3137684211
 31
0.0
  0
LINE
  5
B1
330
1F
100
AcDbEntity
  8
0
  6
SLD-Durchgehend
 62
   179
420
  2171202
370
    18
100
AcDbLine
 10
506.1735752526
 20
425.3137684211
 30
0.0
 11
224.1735752526
 21
425.3137684211
 31
0.0
  0
LINE
  5
B2
330
1F
100
AcDbEntity
  8
0
  6
SLD-Durchgehend
 62
   179
420
  2171202
370
    18
100
AcDbLine
 10
224.1735752526
 20
425.3137684211
 30
0.0
 11
224.1735752526
 21
421.3137684211
 31
0.0
  0
LINE
  5
B3
330
1F
100
AcDbEntity
  8
0
  6
SLD-Durchgehend
 62
   179
420
  2171202
370
    18
100
AcDbLine
 10
224.1735752526
 20
421.3137684211
 30
0.0
 11
313.1735752526
 21
421.3137684211
 31
0.0
  0
LINE
  5
B4
330
1F
100
AcDbEntity
  8
0
  6
SLD-Durchgehend
 62
   179
420
  2171202
370
    18
100
AcDbLine
 10
313.1735752526
 20
421.3137684211
 30
0.0
 11
313.1735752526
 21
422.8137684211
 31
0.0
  0
LINE
  5
B5
330
1F
100
AcDbEntity
  8
0
  6
SLD-Durchgehend
 62
   179
420
  2171202
370
    18
100
AcDbLine
 10
313.1735752526
 20
422.8137684211
 30
0.0
 11
317.1735752526
 21
422.8137684211
 31
0.0
  0
LINE
  5
B6
330
1F
100
AcDbEntity
  8
0
  6
SLD-Durchgehend
 62
   179
420
  2171202
370
    18
100
AcDbLine
 10
317.1735752526
 20
422.8137684211
 30
0.0
 11
317.1735752526
 21
421.3137684211
 31
0.0
  0
LINE
  5
B7
330
1F
100
AcDbEntity
  8
0
  6
SLD-Durchgehend
 62
   179
420
  2171202
370
    18
100
AcDbLine
 10
317.1735752526
 20
421.3137684211
 30
0.0
 11
363.1735752526
 21
421.3137684211
 31
0.0
  0
LINE
  5
B8
330
1F
100
AcDbEntity
  8
0
  6
SLD-Durchgehend
 62
   179
420
  2171202
370
    18
100
AcDbLine
 10
363.1735752526
 20
421.3137684211
 30
0.0
 11
363.1735752526
 21
422.8137684211
 31
0.0
  0
LINE
  5
B9
330
1F
100
AcDbEntity
  8
0
  6
SLD-Durchgehend
 62
   179
420
  2171202
370
    18
100
AcDbLine
 10
363.1735752526
 20
422.8137684211
 30
0.0
 11
367.1735752526
 21
422.8137684211
 31
0.0
  0
LINE
  5
BA
330
1F
100
AcDbEntity
  8
0
  6
SLD-Durchgehend
 62
   179
420
  2171202
370
    18
100
AcDbLine
 10
367.1735752526
 20
422.8137684211
 30
0.0
 11
367.1735752526
 21
421.3137684211
 31
0.0
  0
LINE
  5
BB
330
1F
100
AcDbEntity
  8
0
  6
SLD-Durchgehend
 62
   179
420
  2171202
370
    18
100
AcDbLine
 10
367.1735752526
 20
421.3137684211
 30
0.0
 11
413.1735752526
 21
421.3137684211
 31
0.0
  0
LINE
  5
BC
330
1F
100
AcDbEntity
  8
0
  6
SLD-Durchgehend
 62
   179
420
  2171202
370
    18
100
AcDbLine
 10
413.1735752526
 20
421.3137684211
 30
0.0
 11
413.1735752526
 21
422.8137684211
 31
0.0
  0
LINE
  5
BD
330
1F
100
AcDbEntity
  8
0
  6
SLD-Durchgehend
 62
   179
420
  2171202
370
    18
100
AcDbLine
 10
232.4235752526
 20
411.3137684211
 30
0.0
 11
235.9235752526
 21
411.3137684211
 31
0.0
  0
LINE
  5
BE
330
1F
100
AcDbEntity
  8
0
  6
SLD-Durchgehend
 62
   179
420
  2171202
370
    18
100
AcDbLine
 10
235.9235752526
 20
411.3137684211
 30
0.0
 11
236.6735752526
 21
412.8514963022
 31
0.0
  0
LINE
  5
BF
330
1F
100
AcDbEntity
  8
0
  6
SLD-Durchgehend
 62
   179
420
  2171202
370
    18
100
AcDbLine
 10
236.6735752526
 20
412.8514963022
 30
0.0
 11
236.6735752526
 21
420.3137684211
 31
0.0
  0
LINE
  5
C0
330
1F
100
AcDbEntity
  8
0
  6
SLD-Durchgehend
 62
   179
420
  2171202
370
    18
100
AcDbLine
 10
236.6735752526
 20
420.3137684211
 30
0.0
 11
237.7735752526
 21
420.3137684211
 31
0.0
  0
LINE
  5
C1
330
1F
100
AcDbEntity
  8
0
  6
SLD-Durchgehend
 62
   179
420
  2171202
370
    18
100
AcDbLine
 10
237.7735752526
 20
420.3137684211
 30
0.0
 11
237.7735752526
 21
421.3137684211
 31
0.0
  0
LINE
  5
C2
330
1F
100
AcDbEntity
  8
0
  6
SLD-Durchgehend
 62
   179
420
  2171202
370
    18
100
AcDbLine
 10
237.7735752526
 20
421.3137684211
 30
0.0
 11
230.5735752526
 21
421.3137684211
 31
0.0
  0
LINE
  5
C3
330
1F
100
AcDbEntity
  8
0
  6
SLD-Durchgehend
 62
   179
420
  2171202
370
    18
100
AcDbLine
 10
230.5735752526
 20
421.3137684211
 30
0.0
 11
230.5735752526
 21
420.3137684211
 31
0.0
  0
LINE
  5
C4
330
1F
100
AcDbEntity
  8
0
  6
SLD-Durchgehend
 62
   179
420
  2171202
370
    18
100
AcDbLine
 10
230.5735752526
 20
420.3137684211
 30
0.0
 11
231.6735752526
 21
420.3137684211
 31
0.0
  0
LINE
  5
C5
330
1F
100
AcDbEntity
  8
0
  6
SLD-Durchgehend
 62
   179
420
  2171202
370
    18
100
AcDbLine
 10
231.6735752526
 20
420.3137684211
 30
0.0
 11
231.6735752526
 21
412.8514963022
 31
0.0
  0
LINE
  5
C6
330
1F
100
AcDbEntity
  8
0
  6
SLD-Durchgehend
 62
   179
420
  2171202
370
    18
100
AcDbLine
 10
231.6735752526
 20
412.8514963022
 30
0.0
 11
232.4235752526
 21
411.3137684211
 31
0.0
  0
LINE
  5
C7
330
1F
100
AcDbEntity
  8
0
  6
SLD-Durchgehend
 62
   179
420
  2171202
370
    18
100
AcDbLine
 10
494.4235752526
 20
411.3137684211
 30
0.0
 11
497.9235752526
 21
411.3137684211
 31
0.0
  0
LINE
  5
C8
330
1F
100
AcDbEntity
  8
0
  6
SLD-Durchgehend
 62
   179
420
  2171202
370
    18
100
AcDbLine
 10
497.9235752526
 20
411.3137684211
 30
0.0
 11
498.6735752526
 21
412.8514963022
 31
0.0
  0
LINE
  5
C9
330
1F
100
AcDbEntity
  8
0
  6
SLD-Durchgehend
 62
   179
420
  2171202
370
    18
100
AcDbLine
 10
498.6735752526
 20
412.8514963022
 30
0.0
 11
498.6735752526
 21
420.3137684211
 31
0.0
  0
LINE
  5
CA
330
1F
100
AcDbEntity
  8
0
  6
SLD-Durchgehend
 62
   179
420
  2171202
370
    18
100
AcDbLine
 10
498.6735752526
 20
420.3137684211
 30
0.0
 11
499.7735752526
 21
420.3137684211
 31
0.0
  0
LINE
  5
CB
330
1F
100
AcDbEntity
  8
0
  6
SLD-Durchgehend
 62
   179
420
  2171202
370
    18
100
AcDbLine
 10
499.7735752526
 20
420.3137684211
 30
0.0
 11
499.7735752526
 21
421.3137684211
 31
0.0
  0
LINE
  5
CC
330
1F
100
AcDbEntity
  8
0
  6
SLD-Durchgehend
 62
   179
420
  2171202
370
    18
100
AcDbLine
 10
499.7735752526
 20
421.3137684211
 30
0.0
 11
492.5735752526
 21
421.3137684211
 31
0.0
  0
LINE
  5
CD
330
1F
100
AcDbEntity
  8
0
  6
SLD-Durchgehend
 62
   179
420
  2171202
370
    18
100
AcDbLine
 10
492.5735752526
 20
421.3137684211
 30
0.0
 11
492.5735752526
 21
420.3137684211
 31
0.0
  0
LINE
  5
CE
330
1F
100
AcDbEntity
  8
0
  6
SLD-Durchgehend
 62
   179
420
  2171202
370
    18
100
AcDbLine
 10
492.5735752526
 20
420.3137684211
 30
0.0
 11
493.6735752526
 21
420.3137684211
 31
0.0
  0
LINE
  5
CF
330
1F
100
AcDbEntity
  8
0
  6
SLD-Durchgehend
 62
   179
420
  2171202
370
    18
100
AcDbLine
 10
493.6735752526
 20
420.3137684211
 30
0.0
 11
493.6735752526
 21
412.8514963022
 31
0.0
  0
LINE
  5
D0
330
1F
100
AcDbEntity
  8
0
  6
SLD-Durchgehend
 62
   179
420
  2171202
370
    18
100
AcDbLine
 10
493.6735752526
 20
412.8514963022
 30
0.0
 11
494.4235752526
 21
411.3137684211
 31
0.0
  0
LINE
  5
D1
330
1F
100
AcDbEntity
  8
0
  6
SLD-Durchgehend
 62
   179
420
  2171202
370
    18
100
AcDbLine
 10
368.4235752526
 20
415.3137684211
 30
0.0
 11
371.1735752526
 21
415.3137684211
 31
0.0
  0
LINE
  5
D2
330
1F
100
AcDbEntity
  8
0
  6
SLD-Durchgehend
 62
   179
420
  2171202
370
    18
100
AcDbLine
 10
371.1735752526
 20
415.3137684211
 30
0.0
 11
371.1735752526
 21
419.3137684211
 31
0.0
  0
LINE
  5
D3
330
1F
100
AcDbEntity
  8
0
  6
SLD-Durchgehend
 62
   179
420
  2171202
370
    18
100
AcDbLine
 10
371.1735752526
 20
419.3137684211
 30
0.0
 11
366.7735752526
 21
419.3137684211
 31
0.0
  0
LINE
  5
D4
330
1F
100
AcDbEntity
  8
0
  6
SLD-Durchgehend
 62
   179
420
  2171202
370
    18
100
AcDbLine
 10
366.7735752526
 20
419.3137684211
 30
0.0
 11
366.7735752526
 21
418.8137684211
 31
0.0
  0
LINE
  5
D5
330
1F
100
AcDbEntity
  8
0
  6
SLD-Durchgehend
 62
   179
420
  2171202
370
    18
100
AcDbLine
 10
366.7735752526
 20
418.8137684211
 30
0.0
 11
368.4235752526
 21
417.1637684211
 31
0.0
  0
LINE
  5
D6
330
1F
100
AcDbEntity
  8
0
  6
SLD-Durchgehend
 62
   179
420
  2171202
370
    18
100
AcDbLine
 10
368.4235752526
 20
417.1637684211
 30
0.0
 11
368.4235752526
 21
415.3137684211
 31
0.0
  0
LINE
  5
D7
330
1F
100
AcDbEntity
  8
0
  6
SLD-Durchgehend
 62
   179
420
  2171202
370
    18
100
AcDbLine
 10
359.1735752526
 20
419.3137684211
 30
0.0
 11
359.1735752526
 21
415.3137684211
 31
0.0
  0
LINE
  5
D8
330
1F
100
AcDbEntity
  8
0
  6
SLD-Durchgehend
 62
   179
420
  2171202
370
    18
100
AcDbLine
 10
359.1735752526
 20
415.3137684211
 30
0.0
 11
361.9235752526
 21
415.3137684211
 31
0.0
  0
LINE
  5
D9
330
1F
100
AcDbEntity
  8
0
  6
SLD-Durchgehend
 62
   179
420
  2171202
370
    18
100
AcDbLine
 10
361.9235752526
 20
415.3137684211
 30
0.0
 11
361.9235752526
 21
417.1637684211
 31
0.0
  0
LINE
  5
DA
330
1F
100
AcDbEntity
  8
0
  6
SLD-Durchgehend
 62
   179
420
  2171202
370
    18
100
AcDbLine
 10
361.9235752526
 20
417.1637684211
 30
0.0
 11
363.5735752526
 21
418.8137684211
 31
0.0
  0
LINE
  5
DB
330
1F
100
AcDbEntity
  8
0
  6
SLD-Durchgehend
 62
   179
420
  2171202
370
    18
100
AcDbLine
 10
363.5735752526
 20
418.8137684211
 30
0.0
 11
363.5735752526
 21
419.3137684211
 31
0.0
  0
LINE
  5
DC
330
1F
100
AcDbEntity
  8
0
  6
SLD-Durchgehend
 62
   179
420
  2171202
370
    18
100
AcDbLine
 10
363.5735752526
 20
419.3137684211
 30
0.0
 11
359.1735752526
 21
419.3137684211
 31
0.0
  0
LINE
  5
DD
330
1F
100
AcDbEntity
  8
0
  6
SLD-Durchgehend
 62
   250
420
  1644836
370
    25
100
AcDbLine
 10
371.1735752526
 20
372.4771748303
 30
0.0
 11
359.1735752526
 21
372.4771748303
 31
0.0
  0
LINE
  5
DE
330
1F
100
AcDbEntity
  8
0
  6
SLD-Durchgehend
 62
   250
420
  1644836
370
    25
100
AcDbLine
 10
371.1735752526
 20
372.4771748303
 30
0.0
 11
371.1735752526
 21
366.9771748303
 31
0.0
  0
LINE
  5
DF
330
1F
100
AcDbEntity
  8
0
  6
SLD-Durchgehend
 62
   250
420
  1644836
370
    25
100
AcDbLine
 10
371.1735752526
 20
294.9771748303
 30
0.0
 11
371.1735752526
 21
289.4771748303
 31
0.0
  0
LINE
  5
E0
330
1F
100
AcDbEntity
  8
0
  6
SLD-Durchgehend
 62
   250
420
  1644836
370
    25
100
AcDbLine
 10
359.1735752526
 20
372.4771748303
 30
0.0
 11
359.1735752526
 21
366.9771748303
 31
0.0
  0
LINE
  5
E1
330
1F
100
AcDbEntity
  8
0
  6
SLD-Durchgehend
 62
   250
420
  1644836
370
    25
100
AcDbLine
 10
359.1735752526
 20
294.9771748303
 30
0.0
 11
359.1735752526
 21
289.4771748303
 31
0.0
  0
LINE
  5
E2
330
1F
100
AcDbEntity
  8
0
  6
SLD-Durchgehend
 62
   250
420
  1644836
370
    25
100
AcDbLine
 10
371.1735752526
 20
289.4771748303
 30
0.0
 11
359.1735752526
 21
289.4771748303
 31
0.0
  0
LINE
  5
E3
330
1F
100
AcDbEntity
  8
0
  6
SLD-Durchgehend
 62
   250
420
  1644836
370
    25
100
AcDbLine
 10
478.4866550438
 20
304.128885905
 30
0.0
 11
477.7328106813
 21
304.128885905
 31
0.0
  0
LINE
  5
E4
330
1F
100
AcDbEntity
  8
0
  6
SLD-Durchgehend
 62
   250
420
  1644836
370
    25
100
AcDbLine
 10
477.7328106813
 20
304.128885905
 30
0.0
 11
477.7328106813
 21
301.8415563005
 31
0.0
  0
LINE
  5
E5
330
1F
100
AcDbEntity
  8
0
  6
SLD-Durchgehend
 62
   250
420
  1644836
370
    25
100
AcDbLine
 10
477.7328106813
 20
301.8415563005
 30
0.0
 11
478.4911994956
 21
301.8415563005
 31
0.0
  0
LINE
  5
E6
330
1F
100
AcDbEntity
  8
0
  6
SLD-Durchgehend
 62
   250
420
  1644836
370
    25
100
AcDbLine
 10
478.8775447313
 20
302.1778457359
 30
0.0
 11
478.8775447313
 21
303.7399342925
 31
0.0
  0
LINE
  5
E7
330
1F
100
AcDbEntity
  8
0
  6
SLD-Durchgehend
 62
   250
420
  1644836
370
    25
100
AcDbLine
 10
476.8735752526
 20
300.9817196038
 30
0.0
 11
478.4473591618
 21
300.9817196038
 31
0.0
  0
LINE
  5
E8
330
1F
100
AcDbEntity
  8
0
  6
SLD-Durchgehend
 62
   250
420
  1644836
370
    25
100
AcDbLine
 10
476.8735752526
 20
304.9801689127
 30
0.0
 11
476.8735752526
 21
300.9817196038
 31
0.0
  0
LINE
  5
E9
330
1F
100
AcDbEntity
  8
0
  6
SLD-Durchgehend
 62
   250
420
  1644836
370
    25
100
AcDbLine
 10
478.539718454
 20
304.9801689127
 30
0.0
 11
476.8735752526
 21
304.9801689127
 31
0.0
  0
LINE
  5
EA
330
1F
100
AcDbEntity
  8
0
  6
SLD-Durchgehend
 62
   250
420
  1644836
370
    25
100
AcDbLine
 10
479.6858559376
 20
302.1487076349
 30
0.0
 11
479.6858559376
 21
303.7801663088
 31
0.0
  0
LINE
  5
EB
330
1F
100
AcDbEntity
  8
0
  6
SLD-Durchgehend
 62
   250
420
  1644836
370
    25
100
AcDbLine
 10
481.305952763
 20
303.7571764073
 30
0.0
 11
481.305952763
 21
302.7766440947
 31
0.0
  0
LINE
  5
EC
330
1F
100
AcDbEntity
  8
0
  6
SLD-Durchgehend
 62
   250
420
  1644836
370
    25
100
AcDbLine
 10
481.305952763
 20
302.7766440947
 30
0.0
 11
482.4754808075
 21
302.7766440947
 31
0.0
  0
LINE
  5
ED
330
1F
100
AcDbEntity
  8
0
  6
SLD-Durchgehend
 62
   250
420
  1644836
370
    25
100
AcDbLine
 10
482.4754808075
 20
302.7766440947
 30
0.0
 11
482.4754808075
 21
303.721355434
 31
0.0
  0
LINE
  5
EE
330
1F
100
AcDbEntity
  8
0
  6
SLD-Durchgehend
 62
   250
420
  1644836
370
    25
100
AcDbLine
 10
482.0865960252
 20
304.1259453072
 30
0.0
 11
481.6949043755
 21
304.1259453072
 31
0.0
  0
LINE
  5
EF
330
1F
100
AcDbEntity
  8
0
  6
SLD-Durchgehend
 62
   250
420
  1644836
370
    25
100
AcDbLine
 10
482.1315059021
 20
304.980168591
 30
0.0
 11
481.6440466131
 21
304.980168591
 31
0.0
  0
LINE
  5
F0
330
1F
100
AcDbEntity
  8
0
  6
SLD-Durchgehend
 62
   250
420
  1644836
370
    25
100
AcDbLine
 10
483.3339812224
 20
300.9757045664
 30
0.0
 11
483.3339812224
 21
303.7809679492
 31
0.0
  0
LINE
  5
F1
330
1F
100
AcDbEntity
  8
0
  6
SLD-Durchgehend
 62
   250
420
  1644836
370
    25
100
AcDbLine
 10
482.4752134945
 20
300.9757045664
 30
0.0
 11
483.3339812224
 21
300.9757045664
 31
0.0
  0
LINE
  5
F2
330
1F
100
AcDbEntity
  8
0
  6
SLD-Durchgehend
 62
   250
420
  1644836
370
    25
100
AcDbLine
 10
482.4752134945
 20
301.9229554524
 30
0.0
 11
482.4752134945
 21
300.9757045664
 31
0.0
  0
LINE
  5
F3
330
1F
100
AcDbEntity
  8
0
  6
SLD-Durchgehend
 62
   250
420
  1644836
370
    25
100
AcDbLine
 10
481.3058191027
 20
301.9229554524
 30
0.0
 11
482.4752134945
 21
301.9229554524
 31
0.0
  0
LINE
  5
F4
330
1F
100
AcDbEntity
  8
0
  6
SLD-Durchgehend
 62
   250
420
  1644836
370
    25
100
AcDbLine
 10
481.3058191027
 20
300.9817192821
 30
0.0
 11
481.3058191027
 21
301.9229554524
 31
0.0
  0
LINE
  5
F5
330
1F
100
AcDbEntity
  8
0
  6
SLD-Durchgehend
 62
   250
420
  1644836
370
    25
100
AcDbLine
 10
480.4474523481
 20
300.9817192821
 30
0.0
 11
481.3058191027
 21
300.9817192821
 31
0.0
  0
LINE
  5
F6
330
1F
100
AcDbEntity
  8
0
  6
SLD-Durchgehend
 62
   250
420
  1644836
370
    25
100
AcDbLine
 10
480.4474523481
 20
303.8012843221
 30
0.0
 11
480.4474523481
 21
300.9817192821
 31
0.0
  0
LINE
  5
F7
330
1F
100
AcDbEntity
  8
0
  6
SLD-Durchgehend
 62
   250
420
  1644836
370
    25
100
AcDbLine
 10
499.3614608656
 20
303.4426736085
 30
0.0
 11
499.3614608656
 21
303.736325393
 31
0.0
  0
LINE
  5
F8
330
1F
100
AcDbEntity
  8
0
  6
SLD-Durchgehend
 62
   250
420
  1644836
370
    25
100
AcDbLine
 10
498.9706380082
 20
304.1251433452
 30
0.0
 11
498.2570254105
 21
304.1251433452
 31
0.0
  0
LINE
  5
F9
330
1F
100
AcDbEntity
  8
0
  6
SLD-Durchgehend
 62
   250
420
  1644836
370
    25
100
AcDbLine
 10
498.2570254105
 20
304.1251433452
 30
0.0
 11
498.2570254105
 21
303.053721996
 31
0.0
  0
LINE
  5
FA
330
1F
100
AcDbEntity
  8
0
  6
SLD-Durchgehend
 62
   250
420
  1644836
370
    25
100
AcDbLine
 10
498.2570254105
 20
303.053721996
 30
0.0
 11
498.9722419324
 21
303.053721996
 31
0.0
  0
LINE
  5
FB
330
1F
100
AcDbEntity
  8
0
  6
SLD-Durchgehend
 62
   250
420
  1644836
370
    25
100
AcDbLine
 10
500.1735752526
 20
300.9771748303
 30
0.0
 11
500.1735752526
 21
302.1520493192
 31
0.0
  0
LINE
  5
FC
330
1F
100
AcDbEntity
  8
0
  6
SLD-Durchgehend
 62
   250
420
  1644836
370
    25
100
AcDbLine
 10
499.38123671
 20
300.9771748303
 30
0.0
 11
500.1735752526
 21
300.9771748303
 31
0.0
  0
LINE
  5
FD
330
1F
100
AcDbEntity
  8
0
  6
SLD-Durchgehend
 62
   250
420
  1644836
370
    25
100
AcDbLine
 10
499.3811030496
 20
301.8404870177
 30
0.0
 11
499.38123671
 21
300.9771748303
 31
0.0
  0
LINE
  5
FE
330
1F
100
AcDbEntity
  8
0
  6
SLD-Durchgehend
 62
   250
420
  1644836
370
    25
100
AcDbLine
 10
498.2776032043
 20
302.2461461737
 30
0.0
 11
498.9845327973
 21
302.2461461737
 31
0.0
  0
LINE
  5
FF
330
1F
100
AcDbEntity
  8
0
  6
SLD-Durchgehend
 62
   250
420
  1644836
370
    25
100
AcDbLine
 10
498.2773634547
 20
300.9781104527
 30
0.0
 11
498.2776032043
 21
302.2461461737
 31
0.0
  0
LINE
  5
100
330
1F
100
AcDbEntity
  8
0
  6
SLD-Durchgehend
 62
   250
420
  1644836
370
    25
100
AcDbLine
 10
497.4183007066
 20
300.9781104527
 30
0.0
 11
498.2773634547
 21
300.9781104527
 31
0.0
  0
LINE
  5
101
330
1F
100
AcDbEntity
  8
0
  6
SLD-Durchgehend
 62
   250
420
  1644836
370
    25
100
AcDbLine
 10
497.4183007066
 20
304.976559792
 30
0.0
 11
497.4183007066
 21
300.9781104527
 31
0.0
  0
LINE
  5
102
330
1F
100
AcDbEntity
  8
0
  6
SLD-Durchgehend
 62
   250
420
  1644836
370
    25
100
AcDbLine
 10
499.092396698
 20
304.976559792
 30
0.0
 11
497.4183007066
 21
304.976559792
 31
0.0
  0
LINE
  5
103
330
1F
100
AcDbEntity
  8
0
  6
SLD-Durchgehend
 62
   250
420
  1644836
370
    25
100
AcDbLine
 10
492.5402402658
 20
304.977094403
 30
0.0
 11
492.126494119
 21
304.977094403
 31
0.0
  0
LINE
  5
104
330
1F
100
AcDbEntity
  8
0
  6
SLD-Durchgehend
 62
   250
420
  1644836
370
    25
100
AcDbLine
 10
492.8242685053
 20
303.878805635
 30
0.0
 11
492.8242685053
 21
300.9783759336
 31
0.0
  0
LINE
  5
105
330
1F
100
AcDbEntity
  8
0
  6
SLD-Durchgehend
 62
   250
420
  1644836
370
    25
100
AcDbLine
 10
492.1220170371
 20
304.0466830321
 30
0.0
 11
492.7054444559
 21
304.0466830321
 31
0.0
  0
LINE
  5
106
330
1F
100
AcDbEntity
  8
0
  6
SLD-Durchgehend
 62
   250
420
  1644836
370
    25
100
AcDbLine
 10
492.0066013267
 20
300.9783760469
 30
0.0
 11
492.0066013267
 21
303.8781373333
 31
0.0
  0
LINE
  5
107
330
1F
100
AcDbEntity
  8
0
  6
SLD-Durchgehend
 62
   250
420
  1644836
370
    25
100
AcDbLine
 10
491.1364708641
 20
300.9783778865
 30
0.0
 11
491.1410837435
 21
300.9783760469
 31
0.0
  0
LINE
  5
108
330
1F
100
AcDbEntity
  8
0
  6
SLD-Durchgehend
 62
   250
420
  1644836
370
    25
100
AcDbLine
 10
491.1410837435
 20
300.9783760469
 30
0.0
 11
492.0066013267
 21
300.9783760469
 31
0.0
  0
LINE
  5
109
330
1F
100
AcDbEntity
  8
0
  6
SLD-Durchgehend
 62
   250
420
  1644836
370
    25
100
AcDbLine
 10
491.1364708641
 20
303.8788074748
 30
0.0
 11
491.1364708641
 21
300.9783778865
 31
0.0
  0
LINE
  5
10A
330
1F
100
AcDbEntity
  8
0
  6
SLD-Durchgehend
 62
   250
420
  1644836
370
    25
100
AcDbLine
 10
493.6770215251
 20
300.9783759336
 30
0.0
 11
493.6770215251
 21
303.7778937612
 31
0.0
  0
LINE
  5
10B
330
1F
100
AcDbEntity
  8
0
  6
SLD-Durchgehend
 62
   250
420
  1644836
370
    25
100
AcDbLine
 10
492.8242685053
 20
300.9783759336
 30
0.0
 11
493.6770215251
 21
300.9783759336
 31
0.0
  0
LINE
  5
10C
330
1F
100
AcDbEntity
  8
0
  6
SLD-Durchgehend
 62
   250
420
  1644836
370
    25
100
AcDbLine
 10
490.3188705157
 20
300.9783777734
 30
0.0
 11
490.3188705157
 21
303.8794757765
 31
0.0
  0
LINE
  5
10D
330
1F
100
AcDbEntity
  8
0
  6
SLD-Durchgehend
 62
   250
420
  1644836
370
    25
100
AcDbLine
 10
489.465449194
 20
300.9783777734
 30
0.0
 11
490.3188705157
 21
300.9783777734
 31
0.0
  0
LINE
  5
10E
330
1F
100
AcDbEntity
  8
0
  6
SLD-Durchgehend
 62
   250
420
  1644836
370
    25
100
AcDbLine
 10
489.4622413457
 20
303.7776264405
 30
0.0
 11
489.465449194
 21
300.9783777734
 31
0.0
  0
LINE
  5
10F
330
1F
100
AcDbEntity
  8
0
  6
SLD-Durchgehend
 62
   250
420
  1644836
370
    25
100
AcDbLine
 10
491.0126356094
 20
304.9768270823
 30
0.0
 11
490.5988221145
 21
304.9768270823
 31
0.0
  0
LINE
  5
110
330
1F
100
AcDbEntity
  8
0
  6
SLD-Durchgehend
 62
   250
420
  1644836
370
    25
100
AcDbLine
 10
490.437694565
 20
304.0474868339
 30
0.0
 11
491.0210551536
 21
304.0474868339
 31
0.0
  0
LINE
  5
111
330
1F
100
AcDbEntity
  8
0
  6
SLD-Durchgehend
 62
   250
420
  1644836
370
    25
100
AcDbLine
 10
484.1543884381
 20
300.9785114338
 30
0.0
 11
486.199859573
 21
300.9785114338
 31
0.0
  0
LINE
  5
112
330
1F
100
AcDbEntity
  8
0
  6
SLD-Durchgehend
 62
   250
420
  1644836
370
    25
100
AcDbLine
 10
484.1543884381
 20
304.9772280633
 30
0.0
 11
484.1543884381
 21
300.9785114338
 31
0.0
  0
LINE
  5
113
330
1F
100
AcDbEntity
  8
0
  6
SLD-Durchgehend
 62
   250
420
  1644836
370
    25
100
AcDbLine
 10
485.0145596074
 20
304.9772280633
 30
0.0
 11
484.1543884381
 21
304.9772280633
 31
0.0
  0
LINE
  5
114
330
1F
100
AcDbEntity
  8
0
  6
SLD-Durchgehend
 62
   250
420
  1644836
370
    25
100
AcDbLine
 10
485.0145596074
 20
301.8382147918
 30
0.0
 11
485.0145596074
 21
304.9772280633
 31
0.0
  0
LINE
  5
115
330
1F
100
AcDbEntity
  8
0
  6
SLD-Durchgehend
 62
   250
420
  1644836
370
    25
100
AcDbLine
 10
486.199859573
 20
301.8382147918
 30
0.0
 11
485.0145596074
 21
301.8382147918
 31
0.0
  0
LINE
  5
116
330
1F
100
AcDbEntity
  8
0
  6
SLD-Durchgehend
 62
   250
420
  1644836
370
    25
100
AcDbLine
 10
486.199859573
 20
300.9785114338
 30
0.0
 11
486.199859573
 21
301.8382147918
 31
0.0
  0
LINE
  5
117
330
1F
100
AcDbEntity
  8
0
  6
SLD-Durchgehend
 62
   250
420
  1644836
370
    25
100
AcDbLine
 10
486.7930441972
 20
300.9785114338
 30
0.0
 11
488.838515332
 21
300.9785114338
 31
0.0
  0
LINE
  5
118
330
1F
100
AcDbEntity
  8
0
  6
SLD-Durchgehend
 62
   250
420
  1644836
370
    25
100
AcDbLine
 10
486.7930441972
 20
304.9772280633
 30
0.0
 11
486.7930441972
 21
300.9785114338
 31
0.0
  0
LINE
  5
119
330
1F
100
AcDbEntity
  8
0
  6
SLD-Durchgehend
 62
   250
420
  1644836
370
    25
100
AcDbLine
 10
487.6531485362
 20
304.9772280633
 30
0.0
 11
486.7930441972
 21
304.9772280633
 31
0.0
  0
LINE
  5
11A
330
1F
100
AcDbEntity
  8
0
  6
SLD-Durchgehend
 62
   250
420
  1644836
370
    25
100
AcDbLine
 10
487.6531485362
 20
301.8382147918
 30
0.0
 11
487.6531485362
 21
304.9772280633
 31
0.0
  0
LINE
  5
11B
330
1F
100
AcDbEntity
  8
0
  6
SLD-Durchgehend
 62
   250
420
  1644836
370
    25
100
AcDbLine
 10
488.838515332
 20
301.8382147918
 30
0.0
 11
487.6531485362
 21
301.8382147918
 31
0.0
  0
LINE
  5
11C
330
1F
100
AcDbEntity
  8
0
  6
SLD-Durchgehend
 62
   250
420
  1644836
370
    25
100
AcDbLine
 10
488.838515332
 20
300.9785114338
 30
0.0
 11
488.838515332
 21
301.8382147918
 31
0.0
  0
LINE
  5
11D
330
1F
100
AcDbEntity
  8
0
  6
SLD-Durchgehend
 62
   250
420
  1644836
370
    25
100
AcDbLine
 10
494.4513143234
 20
300.9785114338
 30
0.0
 11
496.6289087122
 21
300.9785114338
 31
0.0
  0
LINE
  5
11E
330
1F
100
AcDbEntity
  8
0
  6
SLD-Durchgehend
 62
   250
420
  1644836
370
    25
100
AcDbLine
 10
494.4513143234
 20
304.9772280633
 30
0.0
 11
494.4513143234
 21
300.9785114338
 31
0.0
  0
LINE
  5
11F
330
1F
100
AcDbEntity
  8
0
  6
SLD-Durchgehend
 62
   250
420
  1644836
370
    25
100
AcDbLine
 10
496.6289087122
 20
301.8382147918
 30
0.0
 11
495.3115523228
 21
301.8382147918
 31
0.0
  0
LINE
  5
120
330
1F
100
AcDbEntity
  8
0
  6
SLD-Durchgehend
 62
   250
420
  1644836
370
    25
100
AcDbLine
 10
496.6289087122
 20
303.4077882577
 30
0.0
 11
495.3115523228
 21
303.4077882577
 31
0.0
  0
LINE
  5
121
330
1F
100
AcDbEntity
  8
0
  6
SLD-Durchgehend
 62
   250
420
  1644836
370
    25
100
AcDbLine
 10
496.6289087122
 20
302.5482185601
 30
0.0
 11
496.6289087122
 21
303.4077882577
 31
0.0
  0
LINE
  5
122
330
1F
100
AcDbEntity
  8
0
  6
SLD-Durchgehend
 62
   250
420
  1644836
370
    25
100
AcDbLine
 10
495.3115523228
 20
303.4077882577
 30
0.0
 11
495.3115523228
 21
304.1176583657
 31
0.0
  0
LINE
  5
123
330
1F
100
AcDbEntity
  8
0
  6
SLD-Durchgehend
 62
   250
420
  1644836
370
    25
100
AcDbLine
 10
496.6289087122
 20
304.1176583657
 30
0.0
 11
496.6289087122
 21
304.9772280633
 31
0.0
  0
LINE
  5
124
330
1F
100
AcDbEntity
  8
0
  6
SLD-Durchgehend
 62
   250
420
  1644836
370
    25
100
AcDbLine
 10
496.6289087122
 20
304.9772280633
 30
0.0
 11
494.4513143234
 21
304.9772280633
 31
0.0
  0
LINE
  5
125
330
1F
100
AcDbEntity
  8
0
  6
SLD-Durchgehend
 62
   250
420
  1644836
370
    25
100
AcDbLine
 10
495.3115523228
 20
304.1176583657
 30
0.0
 11
496.6289087122
 21
304.1176583657
 31
0.0
  0
LINE
  5
126
330
1F
100
AcDbEntity
  8
0
  6
SLD-Durchgehend
 62
   250
420
  1644836
370
    25
100
AcDbLine
 10
495.3115523228
 20
302.5482185601
 30
0.0
 11
496.6289087122
 21
302.5482185601
 31
0.0
  0
LINE
  5
127
330
1F
100
AcDbEntity
  8
0
  6
SLD-Durchgehend
 62
   250
420
  1644836
370
    25
100
AcDbLine
 10
495.3115523228
 20
301.8382147918
 30
0.0
 11
495.3115523228
 21
302.5482185601
 31
0.0
  0
LINE
  5
128
330
1F
100
AcDbEntity
  8
0
  6
SLD-Durchgehend
 62
   250
420
  1644836
370
    25
100
AcDbLine
 10
496.6289087122
 20
300.9785114338
 30
0.0
 11
496.6289087122
 21
301.8382147918
 31
0.0
  0
LINE
  5
129
330
1F
100
AcDbEntity
  8
0
  6
SLD-Durchgehend
 62
   250
420
  1644836
370
    25
100
AcDbLine
 10
505.6735752526
 20
366.9771748303
 30
0.0
 11
224.6735752526
 21
366.9771748303
 31
0.0
  0
LINE
  5
12A
330
1F
100
AcDbEntity
  8
0
  6
SLD-Durchgehend
 62
   250
420
  1644836
370
    25
100
AcDbLine
 10
224.6735752526
 20
294.9771748303
 30
0.0
 11
505.6735752526
 21
294.9771748303
 31
0.0
  0
LINE
  5
12B
330
1F
100
AcDbEntity
  8
0
  6
SLD-Durchgehend
 62
   250
420
  1644836
370
    25
100
AcDbLine
 10
224.1735752526
 20
366.4771748303
 30
0.0
 11
224.1735752526
 21
295.4771748303
 31
0.0
  0
LINE
  5
12C
330
1F
100
AcDbEntity
  8
0
  6
SLD-Durchgehend
 62
   250
420
  1644836
370
    25
100
AcDbLine
 10
506.1735752526
 20
295.4771748303
 30
0.0
 11
506.1735752526
 21
366.4771748303
 31
0.0
  0
LINE
  5
12D
330
1F
100
AcDbEntity
  8
0
  6
SLD-Durchgehend
 62
   250
420
  1644836
370
    25
100
AcDbLine
 10
363.5735752526
 20
419.3137684211
 30
0.0
 11
363.5735752526
 21
418.8137684211
 31
0.0
  0
LINE
  5
12E
330
1F
100
AcDbEntity
  8
0
  6
SLD-Durchgehend
 62
   250
420
  1644836
370
    25
100
AcDbLine
 10
366.7735752526
 20
418.8137684211
 30
0.0
 11
366.7735752526
 21
419.3137684211
 31
0.0
  0
LINE
  5
12F
330
1F
100
AcDbEntity
  8
0
  6
SLD-Durchgehend
 62
   250
420
  1644836
370
    25
100
AcDbLine
 10
366.7735752526
 20
418.8137684211
 30
0.0
 11
366.6735752526
 21
418.8137684211
 31
0.0
  0
LINE
  5
130
330
1F
100
AcDbEntity
  8
0
  6
SLD-Durchgehend
 62
   250
420
  1644836
370
    25
100
AcDbLine
 10
363.6735752526
 20
418.8137684211
 30
0.0
 11
363.5735752526
 21
418.8137684211
 31
0.0
  0
LINE
  5
131
330
1F
100
AcDbEntity
  8
0
  6
SLD-Durchgehend
 62
   250
420
  1644836
370
    25
100
AcDbLine
 10
368.4235752526
 20
415.3137684211
 30
0.0
 11
368.4235752526
 21
417.1637684211
 31
0.0
  0
LINE
  5
132
330
1F
100
AcDbEntity
  8
0
  6
SLD-Durchgehend
 62
   250
420
  1644836
370
    25
100
AcDbLine
 10
368.4235752526
 20
417.1637684211
 30
0.0
 11
366.7735752526
 21
418.8137684211
 31
0.0
  0
LINE
  5
133
330
1F
100
AcDbEntity
  8
0
  6
SLD-Durchgehend
 62
   250
420
  1644836
370
    25
100
AcDbLine
 10
371.1735752526
 20
419.3137684211
 30
0.0
 11
366.7735752526
 21
419.3137684211
 31
0.0
  0
LINE
  5
134
330
1F
100
AcDbEntity
  8
0
  6
SLD-Durchgehend
 62
   250
420
  1644836
370
    25
100
AcDbLine
 10
371.1735752526
 20
415.3137684211
 30
0.0
 11
371.1735752526
 21
419.3137684211
 31
0.0
  0
LINE
  5
135
330
1F
100
AcDbEntity
  8
0
  6
SLD-Durchgehend
 62
   250
420
  1644836
370
    25
100
AcDbLine
 10
368.4235752526
 20
415.3137684211
 30
0.0
 11
371.1735752526
 21
415.3137684211
 31
0.0
  0
LINE
  5
136
330
1F
100
AcDbEntity
  8
0
  6
SLD-Durchgehend
 62
   250
420
  1644836
370
    25
100
AcDbLine
 10
368.4235752526
 20
417.1637684211
 30
0.0
 11
367.5235752526
 21
417.1637684211
 31
0.0
  0
LINE
  5
137
330
1F
100
AcDbEntity
  8
0
  6
SLD-Durchgehend
 62
   250
420
  1644836
370
    25
100
AcDbLine
 10
362.8235752526
 20
417.1637684211
 30
0.0
 11
361.9235752526
 21
417.1637684211
 31
0.0
  0
LINE
  5
138
330
1F
100
AcDbEntity
  8
0
  6
SLD-Durchgehend
 62
   250
420
  1644836
370
    25
100
AcDbLine
 10
363.5735752526
 20
418.8137684211
 30
0.0
 11
361.9235752526
 21
417.1637684211
 31
0.0
  0
LINE
  5
139
330
1F
100
AcDbEntity
  8
0
  6
SLD-Durchgehend
 62
   250
420
  1644836
370
    25
100
AcDbLine
 10
361.9235752526
 20
417.1637684211
 30
0.0
 11
361.9235752526
 21
415.3137684211
 31
0.0
  0
LINE
  5
13A
330
1F
100
AcDbEntity
  8
0
  6
SLD-Durchgehend
 62
   250
420
  1644836
370
    25
100
AcDbLine
 10
368.4235752526
 20
415.3137684211
 30
0.0
 11
361.9235752526
 21
415.3137684211
 31
0.0
  0
LINE
  5
13B
330
1F
100
AcDbEntity
  8
0
  6
SLD-Durchgehend
 62
   250
420
  1644836
370
    25
100
AcDbLine
 10
359.1735752526
 20
415.3137684211
 30
0.0
 11
361.9235752526
 21
415.3137684211
 31
0.0
  0
LINE
  5
13C
330
1F
100
AcDbEntity
  8
0
  6
SLD-Durchgehend
 62
   250
420
  1644836
370
    25
100
AcDbLine
 10
363.5735752526
 20
419.3137684211
 30
0.0
 11
359.1735752526
 21
419.3137684211
 31
0.0
  0
LINE
  5
13D
330
1F
100
AcDbEntity
  8
0
  6
SLD-Durchgehend
 62
   250
420
  1644836
370
    25
100
AcDbLine
 10
359.1735752526
 20
415.3137684211
 30
0.0
 11
359.1735752526
 21
419.3137684211
 31
0.0
  0
LINE
  5
13E
330
1F
100
AcDbEntity
  8
0
  6
SLD-Durchgehend
 62
   250
420
  1644836
370
    25
100
AcDbLine
 10
494.4235752526
 20
411.3137684211
 30
0.0
 11
493.6735752526
 21
412.8514963022
 31
0.0
  0
LINE
  5
13F
330
1F
100
AcDbEntity
  8
0
  6
SLD-Durchgehend
 62
   250
420
  1644836
370
    25
100
AcDbLine
 10
493.6735752526
 20
420.3137684211
 30
0.0
 11
493.6735752526
 21
412.8514963022
 31
0.0
  0
LINE
  5
140
330
1F
100
AcDbEntity
  8
0
  6
SLD-Durchgehend
 62
   250
420
  1644836
370
    25
100
AcDbLine
 10
492.5735752526
 20
420.3137684211
 30
0.0
 11
493.6735752526
 21
420.3137684211
 31
0.0
  0
LINE
  5
141
330
1F
100
AcDbEntity
  8
0
  6
SLD-Durchgehend
 62
   250
420
  1644836
370
    25
100
AcDbLine
 10
492.5735752526
 20
420.3137684211
 30
0.0
 11
492.5735752526
 21
421.3137684211
 31
0.0
  0
LINE
  5
142
330
1F
100
AcDbEntity
  8
0
  6
SLD-Durchgehend
 62
   250
420
  1644836
370
    25
100
AcDbLine
 10
499.7735752526
 20
421.3137684211
 30
0.0
 11
499.7735752526
 21
420.3137684211
 31
0.0
  0
LINE
  5
143
330
1F
100
AcDbEntity
  8
0
  6
SLD-Durchgehend
 62
   250
420
  1644836
370
    25
100
AcDbLine
 10
498.6735752526
 20
420.3137684211
 30
0.0
 11
499.7735752526
 21
420.3137684211
 31
0.0
  0
LINE
  5
144
330
1F
100
AcDbEntity
  8
0
  6
SLD-Durchgehend
 62
   250
420
  1644836
370
    25
100
AcDbLine
 10
498.6735752526
 20
412.8514963022
 30
0.0
 11
498.6735752526
 21
420.3137684211
 31
0.0
  0
LINE
  5
145
330
1F
100
AcDbEntity
  8
0
  6
SLD-Durchgehend
 62
   250
420
  1644836
370
    25
100
AcDbLine
 10
498.6735752526
 20
412.8514963022
 30
0.0
 11
497.9235752526
 21
411.3137684211
 31
0.0
  0
LINE
  5
146
330
1F
100
AcDbEntity
  8
0
  6
SLD-Durchgehend
 62
   250
420
  1644836
370
    25
100
AcDbLine
 10
497.9235752526
 20
411.3137684211
 30
0.0
 11
494.4235752526
 21
411.3137684211
 31
0.0
  0
LINE
  5
147
330
1F
100
AcDbEntity
  8
0
  6
SLD-Durchgehend
 62
   250
420
  1644836
370
    25
100
AcDbLine
 10
499.7735752526
 20
421.3137684211
 30
0.0
 11
492.5735752526
 21
421.3137684211
 31
0.0
  0
LINE
  5
148
330
1F
100
AcDbEntity
  8
0
  6
SLD-Durchgehend
 62
   250
420
  1644836
370
    25
100
AcDbLine
 10
231.6735752526
 20
420.3137684211
 30
0.0
 11
231.6735752526
 21
412.8514963022
 31
0.0
  0
LINE
  5
149
330
1F
100
AcDbEntity
  8
0
  6
SLD-Durchgehend
 62
   250
420
  1644836
370
    25
100
AcDbLine
 10
236.6735752526
 20
412.8514963022
 30
0.0
 11
236.6735752526
 21
420.3137684211
 31
0.0
  0
LINE
  5
14A
330
1F
100
AcDbEntity
  8
0
  6
SLD-Durchgehend
 62
   250
420
  1644836
370
    25
100
AcDbLine
 10
232.4235752526
 20
411.3137684211
 30
0.0
 11
231.6735752526
 21
412.8514963022
 31
0.0
  0
LINE
  5
14B
330
1F
100
AcDbEntity
  8
0
  6
SLD-Durchgehend
 62
   250
420
  1644836
370
    25
100
AcDbLine
 10
236.6735752526
 20
412.8514963022
 30
0.0
 11
235.9235752526
 21
411.3137684211
 31
0.0
  0
LINE
  5
14C
330
1F
100
AcDbEntity
  8
0
  6
SLD-Durchgehend
 62
   250
420
  1644836
370
    25
100
AcDbLine
 10
230.5735752526
 20
420.3137684211
 30
0.0
 11
230.5735752526
 21
421.3137684211
 31
0.0
  0
LINE
  5
14D
330
1F
100
AcDbEntity
  8
0
  6
SLD-Durchgehend
 62
   250
420
  1644836
370
    25
100
AcDbLine
 10
237.7735752526
 20
421.3137684211
 30
0.0
 11
237.7735752526
 21
420.3137684211
 31
0.0
  0
LINE
  5
14E
330
1F
100
AcDbEntity
  8
0
  6
SLD-Durchgehend
 62
   250
420
  1644836
370
    25
100
AcDbLine
 10
237.7735752526
 20
421.3137684211
 30
0.0
 11
230.5735752526
 21
421.3137684211
 31
0.0
  0
LINE
  5
14F
330
1F
100
AcDbEntity
  8
0
  6
SLD-Durchgehend
 62
   250
420
  1644836
370
    25
100
AcDbLine
 10
236.6735752526
 20
420.3137684211
 30
0.0
 11
237.7735752526
 21
420.3137684211
 31
0.0
  0
LINE
  5
150
330
1F
100
AcDbEntity
  8
0
  6
SLD-Durchgehend
 62
   250
420
  1644836
370
    25
100
AcDbLine
 10
230.5735752526
 20
420.3137684211
 30
0.0
 11
231.6735752526
 21
420.3137684211
 31
0.0
  0
LINE
  5
151
330
1F
100
AcDbEntity
  8
0
  6
SLD-Durchgehend
 62
   250
420
  1644836
370
    25
100
AcDbLine
 10
235.9235752526
 20
411.3137684211
 30
0.0
 11
232.4235752526
 21
411.3137684211
 31
0.0
  0
LINE
  5
152
330
1F
100
AcDbEntity
  8
0
  6
SLD-Durchgehend
 62
   250
420
  1644836
370
    25
100
AcDbLine
 10
367.1735752526
 20
422.8137684211
 30
0.0
 11
367.1735752526
 21
421.3137684211
 31
0.0
  0
LINE
  5
153
330
1F
100
AcDbEntity
  8
0
  6
SLD-Durchgehend
 62
   250
420
  1644836
370
    25
100
AcDbLine
 10
363.1735752526
 20
421.3137684211
 30
0.0
 11
363.1735752526
 21
422.8137684211
 31
0.0
  0
LINE
  5
154
330
1F
100
AcDbEntity
  8
0
  6
SLD-Durchgehend
 62
   250
420
  1644836
370
    25
100
AcDbLine
 10
417.1735752526
 20
422.8137684211
 30
0.0
 11
417.1735752526
 21
421.3137684211
 31
0.0
  0
LINE
  5
155
330
1F
100
AcDbEntity
  8
0
  6
SLD-Durchgehend
 62
   250
420
  1644836
370
    25
100
AcDbLine
 10
413.1735752526
 20
421.3137684211
 30
0.0
 11
413.1735752526
 21
422.8137684211
 31
0.0
  0
LINE
  5
156
330
1F
100
AcDbEntity
  8
0
  6
SLD-Durchgehend
 62
   250
420
  1644836
370
    25
100
AcDbLine
 10
317.1735752526
 20
422.8137684211
 30
0.0
 11
317.1735752526
 21
421.3137684211
 31
0.0
  0
LINE
  5
157
330
1F
100
AcDbEntity
  8
0
  6
SLD-Durchgehend
 62
   250
420
  1644836
370
    25
100
AcDbLine
 10
313.1735752526
 20
421.3137684211
 30
0.0
 11
313.1735752526
 21
422.8137684211
 31
0.0
  0
LINE
  5
158
330
1F
100
AcDbEntity
  8
0
  6
SLD-Durchgehend
 62
   250
420
  1644836
370
    25
100
AcDbLine
 10
317.1735752526
 20
422.8137684211
 30
0.0
 11
313.1735752526
 21
422.8137684211
 31
0.0
  0
LINE
  5
159
330
1F
100
AcDbEntity
  8
0
  6
SLD-Durchgehend
 62
   250
420
  1644836
370
    25
100
AcDbLine
 10
417.1735752526
 20
422.8137684211
 30
0.0
 11
413.1735752526
 21
422.8137684211
 31
0.0
  0
LINE
  5
15A
330
1F
100
AcDbEntity
  8
0
  6
SLD-Durchgehend
 62
   250
420
  1644836
370
    25
100
AcDbLine
 10
367.1735752526
 20
422.8137684211
 30
0.0
 11
363.1735752526
 21
422.8137684211
 31
0.0
  0
LINE
  5
15B
330
1F
100
AcDbEntity
  8
0
  6
SLD-Durchgehend
 62
   250
420
  1644836
370
    25
100
AcDbLine
 10
317.1735752526
 20
421.3137684211
 30
0.0
 11
363.1735752526
 21
421.3137684211
 31
0.0
  0
LINE
  5
15C
330
1F
100
AcDbEntity
  8
0
  6
SLD-Durchgehend
 62
   250
420
  1644836
370
    25
100
AcDbLine
 10
367.1735752526
 20
421.3137684211
 30
0.0
 11
413.1735752526
 21
421.3137684211
 31
0.0
  0
LINE
  5
15D
330
1F
100
AcDbEntity
  8
0
  6
SLD-Durchgehend
 62
   250
420
  1644836
370
    25
100
AcDbLine
 10
417.1735752526
 20
421.3137684211
 30
0.0
 11
506.1735752526
 21
421.3137684211
 31
0.0
  0
LINE
  5
15E
330
1F
100
AcDbEntity
  8
0
  6
SLD-Durchgehend
 62
   250
420
  1644836
370
    25
100
AcDbLine
 10
224.1735752526
 20
421.3137684211
 30
0.0
 11
313.1735752526
 21
421.3137684211
 31
0.0
  0
LINE
  5
15F
330
1F
100
AcDbEntity
  8
0
  6
SLD-Durchgehend
 62
   250
420
  1644836
370
    25
100
AcDbLine
 10
224.1735752526
 20
425.3137684211
 30
0.0
 11
506.1735752526
 21
425.3137684211
 31
0.0
  0
LINE
  5
160
330
1F
100
AcDbEntity
  8
0
  6
SLD-Durchgehend
 62
   250
420
  1644836
370
    25
100
AcDbLine
 10
506.1735752526
 20
421.3137684211
 30
0.0
 11
506.1735752526
 21
425.3137684211
 31
0.0
  0
LINE
  5
161
330
1F
100
AcDbEntity
  8
0
  6
SLD-Durchgehend
 62
   250
420
  1644836
370
    25
100
AcDbLine
 10
224.1735752526
 20
425.3137684211
 30
0.0
 11
224.1735752526
 21
421.3137684211
 31
0.0
  0
LINE
  5
162
330
1F
100
AcDbEntity
  8
0
  6
SLD-Durchgehend
 62
   250
420
  1644836
370
    25
100
AcDbLine
 10
503.9235752526
 20
414.3137684211
 30
0.0
 11
503.9235752526
 21
418.8137684211
 31
0.0
  0
LINE
  5
163
330
1F
100
AcDbEntity
  8
0
  6
SLD-Durchgehend
 62
   250
420
  1644836
370
    25
100
AcDbLine
 10
503.4235752526
 20
419.3137684211
 30
0.0
 11
498.6735752526
 21
419.3137684211
 31
0.0
  0
LINE
  5
164
330
1F
100
AcDbEntity
  8
0
  6
SLD-Durchgehend
 62
   250
420
  1644836
370
    25
100
AcDbLine
 10
498.6735752526
 20
419.3137684211
 30
0.0
 11
498.6735752526
 21
420.3137684211
 31
0.0
  0
LINE
  5
165
330
1F
100
AcDbEntity
  8
0
  6
SLD-Durchgehend
 62
   250
420
  1644836
370
    25
100
AcDbLine
 10
503.4235752526
 20
421.3137684211
 30
0.0
 11
499.7735752526
 21
421.3137684211
 31
0.0
  0
LINE
  5
166
330
1F
100
AcDbEntity
  8
0
  6
SLD-Durchgehend
 62
   250
420
  1644836
370
    25
100
AcDbLine
 10
505.9235752526
 20
414.3137684211
 30
0.0
 11
505.9235752526
 21
418.8137684211
 31
0.0
  0
LINE
  5
167
330
1F
100
AcDbEntity
  8
0
  6
SLD-Durchgehend
 62
   250
420
  1644836
370
    25
100
AcDbLine
 10
505.9235752526
 20
414.3137684211
 30
0.0
 11
503.9235752526
 21
414.3137684211
 31
0.0
  0
LINE
  5
168
330
1F
100
AcDbEntity
  8
0
  6
SLD-Durchgehend
 62
   250
420
  1644836
370
    25
100
AcDbLine
 10
230.5735752526
 20
421.3137684211
 30
0.0
 11
226.9235752526
 21
421.3137684211
 31
0.0
  0
LINE
  5
169
330
1F
100
AcDbEntity
  8
0
  6
SLD-Durchgehend
 62
   250
420
  1644836
370
    25
100
AcDbLine
 10
231.6735752526
 20
420.3137684211
 30
0.0
 11
231.6735752526
 21
419.3137684211
 31
0.0
  0
LINE
  5
16A
330
1F
100
AcDbEntity
  8
0
  6
SLD-Durchgehend
 62
   250
420
  1644836
370
    25
100
AcDbLine
 10
231.6735752526
 20
419.3137684211
 30
0.0
 11
226.9235752526
 21
419.3137684211
 31
0.0
  0
LINE
  5
16B
330
1F
100
AcDbEntity
  8
0
  6
SLD-Durchgehend
 62
   250
420
  1644836
370
    25
100
AcDbLine
 10
226.4235752526
 20
414.3137684211
 30
0.0
 11
224.4235752526
 21
414.3137684211
 31
0.0
  0
LINE
  5
16C
330
1F
100
AcDbEntity
  8
0
  6
SLD-Durchgehend
 62
   250
420
  1644836
370
    25
100
AcDbLine
 10
224.4235752526
 20
418.8137684211
 30
0.0
 11
224.4235752526
 21
414.3137684211
 31
0.0
  0
LINE
  5
16D
330
1F
100
AcDbEntity
  8
0
  6
SLD-Durchgehend
 62
   250
420
  1644836
370
    25
100
AcDbLine
 10
226.4235752526
 20
418.8137684211
 30
0.0
 11
226.4235752526
 21
414.3137684211
 31
0.0
  0
LINE
  5
16E
330
1F
100
AcDbEntity
  8
0
  6
SLD-Durchgehend
 62
   250
420
  1644836
370
    25
100
AcDbLine
 10
413.7235752526
 20
419.3137684211
 30
0.0
 11
366.6235752526
 21
419.3137684211
 31
0.0
  0
LINE
  5
16F
330
1F
100
AcDbEntity
  8
0
  6
SLD-Durchgehend
 62
   250
420
  1644836
370
    25
100
AcDbLine
 10
366.6235752526
 20
419.3137684211
 30
0.0
 11
366.4235752526
 21
419.5137684211
 31
0.0
  0
LINE
  5
170
330
1F
100
AcDbEntity
  8
0
  6
SLD-Durchgehend
 62
   250
420
  1644836
370
    25
100
AcDbLine
 10
366.4235752526
 20
421.3137684211
 30
0.0
 11
366.4235752526
 21
419.5137684211
 31
0.0
  0
LINE
  5
171
330
1F
100
AcDbEntity
  8
0
  6
SLD-Durchgehend
 62
   250
420
  1644836
370
    25
100
AcDbLine
 10
413.9235752526
 20
421.3137684211
 30
0.0
 11
366.4235752526
 21
421.3137684211
 31
0.0
  0
LINE
  5
172
330
1F
100
AcDbEntity
  8
0
  6
SLD-Durchgehend
 62
   250
420
  1644836
370
    25
100
AcDbLine
 10
413.9235752526
 20
419.5137684211
 30
0.0
 11
413.9235752526
 21
421.3137684211
 31
0.0
  0
LINE
  5
173
330
1F
100
AcDbEntity
  8
0
  6
SLD-Durchgehend
 62
   250
420
  1644836
370
    25
100
AcDbLine
 10
413.9235752526
 20
419.5137684211
 30
0.0
 11
413.7235752526
 21
419.3137684211
 31
0.0
  0
LINE
  5
174
330
1F
100
AcDbEntity
  8
0
  6
SLD-Durchgehend
 62
   250
420
  1644836
370
    25
100
AcDbLine
 10
363.9235752526
 20
419.5137684211
 30
0.0
 11
363.9235752526
 21
421.3137684211
 31
0.0
  0
LINE
  5
175
330
1F
100
AcDbEntity
  8
0
  6
SLD-Durchgehend
 62
   250
420
  1644836
370
    25
100
AcDbLine
 10
363.9235752526
 20
419.5137684211
 30
0.0
 11
363.7235752526
 21
419.3137684211
 31
0.0
  0
LINE
  5
176
330
1F
100
AcDbEntity
  8
0
  6
SLD-Durchgehend
 62
   250
420
  1644836
370
    25
100
AcDbLine
 10
363.7235752526
 20
419.3137684211
 30
0.0
 11
316.6235752526
 21
419.3137684211
 31
0.0
  0
LINE
  5
177
330
1F
100
AcDbEntity
  8
0
  6
SLD-Durchgehend
 62
   250
420
  1644836
370
    25
100
AcDbLine
 10
316.6235752526
 20
419.3137684211
 30
0.0
 11
316.4235752526
 21
419.5137684211
 31
0.0
  0
LINE
  5
178
330
1F
100
AcDbEntity
  8
0
  6
SLD-Durchgehend
 62
   250
420
  1644836
370
    25
100
AcDbLine
 10
316.4235752526
 20
421.3137684211
 30
0.0
 11
316.4235752526
 21
419.5137684211
 31
0.0
  0
LINE
  5
179
330
1F
100
AcDbEntity
  8
0
  6
SLD-Durchgehend
 62
   250
420
  1644836
370
    25
100
AcDbLine
 10
363.9235752526
 20
421.3137684211
 30
0.0
 11
316.4235752526
 21
421.3137684211
 31
0.0
  0
LINE
  5
17A
330
1F
100
AcDbEntity
  8
0
  6
SLD-Durchgehend
 62
   250
420
  1644836
370
    25
100
AcDbLine
 10
493.6735752526
 20
420.3137684211
 30
0.0
 11
493.6735752526
 21
419.3137684211
 31
0.0
  0
LINE
  5
17B
330
1F
100
AcDbEntity
  8
0
  6
SLD-Durchgehend
 62
   250
420
  1644836
370
    25
100
AcDbLine
 10
493.6735752526
 20
419.3137684211
 30
0.0
 11
416.6235752526
 21
419.3137684211
 31
0.0
  0
LINE
  5
17C
330
1F
100
AcDbEntity
  8
0
  6
SLD-Durchgehend
 62
   250
420
  1644836
370
    25
100
AcDbLine
 10
416.6235752526
 20
419.3137684211
 30
0.0
 11
416.4235752526
 21
419.5137684211
 31
0.0
  0
LINE
  5
17D
330
1F
100
AcDbEntity
  8
0
  6
SLD-Durchgehend
 62
   250
420
  1644836
370
    25
100
AcDbLine
 10
416.4235752526
 20
421.3137684211
 30
0.0
 11
416.4235752526
 21
419.5137684211
 31
0.0
  0
LINE
  5
17E
330
1F
100
AcDbEntity
  8
0
  6
SLD-Durchgehend
 62
   250
420
  1644836
370
    25
100
AcDbLine
 10
492.5735752526
 20
421.3137684211
 30
0.0
 11
416.4235752526
 21
421.3137684211
 31
0.0
  0
LINE
  5
17F
330
1F
100
AcDbEntity
  8
0
  6
SLD-Durchgehend
 62
   250
420
  1644836
370
    25
100
AcDbLine
 10
313.9235752526
 20
421.3137684211
 30
0.0
 11
237.7735752526
 21
421.3137684211
 31
0.0
  0
LINE
  5
180
330
1F
100
AcDbEntity
  8
0
  6
SLD-Durchgehend
 62
   250
420
  1644836
370
    25
100
AcDbLine
 10
313.9235752526
 20
419.5137684211
 30
0.0
 11
313.9235752526
 21
421.3137684211
 31
0.0
  0
LINE
  5
181
330
1F
100
AcDbEntity
  8
0
  6
SLD-Durchgehend
 62
   250
420
  1644836
370
    25
100
AcDbLine
 10
313.9235752526
 20
419.5137684211
 30
0.0
 11
313.7235752526
 21
419.3137684211
 31
0.0
  0
LINE
  5
182
330
1F
100
AcDbEntity
  8
0
  6
SLD-Durchgehend
 62
   250
420
  1644836
370
    25
100
AcDbLine
 10
313.7235752526
 20
419.3137684211
 30
0.0
 11
236.6735752526
 21
419.3137684211
 31
0.0
  0
LINE
  5
183
330
1F
100
AcDbEntity
  8
0
  6
SLD-Durchgehend
 62
   250
420
  1644836
370
    25
100
AcDbLine
 10
236.6735752526
 20
419.3137684211
 30
0.0
 11
236.6735752526
 21
420.3137684211
 31
0.0
  0
LINE
  5
184
330
1F
100
AcDbEntity
  8
0
  6
SLD-Durchgehend
 62
   250
420
  1644836
370
    25
100
AcDbLine
 10
313.9235752526
 20
421.3137684211
 30
0.0
 11
316.4235752526
 21
421.3137684211
 31
0.0
  0
LINE
  5
185
330
1F
100
AcDbEntity
  8
0
  6
SLD-Durchgehend
 62
   250
420
  1644836
370
    25
100
AcDbLine
 10
313.9235752526
 20
419.5137684211
 30
0.0
 11
316.4235752526
 21
419.5137684211
 31
0.0
  0
LINE
  5
186
330
1F
100
AcDbEntity
  8
0
  6
SLD-Durchgehend
 62
   250
420
  1644836
370
    25
100
AcDbLine
 10
363.9235752526
 20
421.3137684211
 30
0.0
 11
366.4235752526
 21
421.3137684211
 31
0.0
  0
LINE
  5
187
330
1F
100
AcDbEntity
  8
0
  6
SLD-Durchgehend
 62
   250
420
  1644836
370
    25
100
AcDbLine
 10
416.6235752526
 20
419.3137684211
 30
0.0
 11
413.7235752526
 21
419.3137684211
 31
0.0
  0
LINE
  5
188
330
1F
100
AcDbEntity
  8
0
  6
SLD-Durchgehend
 62
   250
420
  1644836
370
    25
100
AcDbLine
 10
413.9235752526
 20
419.5137684211
 30
0.0
 11
416.4235752526
 21
419.5137684211
 31
0.0
  0
LINE
  5
189
330
1F
100
AcDbEntity
  8
0
  6
SLD-Durchgehend
 62
   250
420
  1644836
370
    25
100
AcDbLine
 10
413.9235752526
 20
421.3137684211
 30
0.0
 11
416.4235752526
 21
421.3137684211
 31
0.0
  0
LINE
  5
18A
330
1F
100
AcDbEntity
  8
0
  6
SLD-Durchgehend
 62
   250
420
  1644836
370
    25
100
AcDbLine
 10
316.6235752526
 20
419.3137684211
 30
0.0
 11
313.7235752526
 21
419.3137684211
 31
0.0
  0
LINE
  5
18B
330
1F
100
AcDbEntity
  8
0
  6
SLD-Durchgehend
 62
   250
420
  1644836
370
    25
100
AcDbLine
 10
364.1209818297
 20
416.3137684211
 30
0.0
 11
362.1735752526
 21
416.3137684211
 31
0.0
  0
LINE
  5
18C
330
1F
100
AcDbEntity
  8
0
  6
SLD-Durchgehend
 62
   250
420
  1644836
370
    25
100
AcDbLine
 10
362.1735752526
 20
416.3137684211
 30
0.0
 11
362.1735752526
 21
416.5137684211
 31
0.0
  0
LINE
  5
18D
330
1F
100
AcDbEntity
  8
0
  6
SLD-Durchgehend
 62
   250
420
  1644836
370
    25
100
AcDbLine
 10
362.1735752526
 20
416.5137684211
 30
0.0
 11
363.6442859307
 21
417.9844790992
 31
0.0
  0
LINE
  5
18E
330
1F
100
AcDbEntity
  8
0
  6
SLD-Durchgehend
 62
   250
420
  1644836
370
    25
100
AcDbLine
 10
363.6735752526
 20
418.0551897773
 30
0.0
 11
363.6735752526
 21
420.0072684211
 31
0.0
  0
LINE
  5
18F
330
1F
100
AcDbEntity
  8
0
  6
SLD-Durchgehend
 62
   250
420
  1644836
370
    25
100
AcDbLine
 10
363.6735752526
 20
420.0072684211
 30
0.0
 11
363.9800752526
 21
420.3137684211
 31
0.0
  0
LINE
  5
190
330
1F
100
AcDbEntity
  8
0
  6
SLD-Durchgehend
 62
   250
420
  1644836
370
    25
100
AcDbLine
 10
363.9800752526
 20
420.3137684211
 30
0.0
 11
366.3670752526
 21
420.3137684211
 31
0.0
  0
LINE
  5
191
330
1F
100
AcDbEntity
  8
0
  6
SLD-Durchgehend
 62
   250
420
  1644836
370
    25
100
AcDbLine
 10
366.3670752526
 20
420.3137684211
 30
0.0
 11
366.6735752526
 21
420.0072684211
 31
0.0
  0
LINE
  5
192
330
1F
100
AcDbEntity
  8
0
  6
SLD-Durchgehend
 62
   250
420
  1644836
370
    25
100
AcDbLine
 10
366.6735752526
 20
420.0072684211
 30
0.0
 11
366.6735752526
 21
418.0551897773
 31
0.0
  0
LINE
  5
193
330
1F
100
AcDbEntity
  8
0
  6
SLD-Durchgehend
 62
   250
420
  1644836
370
    25
100
AcDbLine
 10
366.7028645745
 20
417.9844790992
 30
0.0
 11
368.1735752526
 21
416.5137684211
 31
0.0
  0
LINE
  5
194
330
1F
100
AcDbEntity
  8
0
  6
SLD-Durchgehend
 62
   250
420
  1644836
370
    25
100
AcDbLine
 10
368.1735752526
 20
416.5137684211
 30
0.0
 11
368.1735752526
 21
416.3137684211
 31
0.0
  0
LINE
  5
195
330
1F
100
AcDbEntity
  8
0
  6
SLD-Durchgehend
 62
   250
420
  1644836
370
    25
100
AcDbLine
 10
368.1735752526
 20
416.3137684211
 30
0.0
 11
366.2261686755
 21
416.3137684211
 31
0.0
  0
LINE
  5
196
330
1F
100
AcDbEntity
  8
0
  6
SLD-Durchgehend
 62
   250
420
  1644836
370
    25
100
AcDbLine
 10
366.2261686755
 20
417.5137684211
 30
0.0
 11
366.2261686755
 21
416.3137684211
 31
0.0
  0
LINE
  5
197
330
1F
100
AcDbEntity
  8
0
  6
SLD-Durchgehend
 62
   250
420
  1644836
370
    25
100
AcDbLine
 10
366.2261686755
 20
417.5137684211
 30
0.0
 11
364.1209818297
 21
417.5137684211
 31
0.0
  0
LINE
  5
198
330
1F
100
AcDbEntity
  8
0
  6
SLD-Durchgehend
 62
   250
420
  1644836
370
    25
100
AcDbLine
 10
364.1209818297
 20
417.5137684211
 30
0.0
 11
364.1209818297
 21
416.3137684211
 31
0.0
  0
LINE
  5
199
330
1F
100
AcDbEntity
  8
0
  6
SLD-Durchgehend
 62
   250
420
  1644836
370
    25
100
AcDbLine
 10
365.9297753971
 20
417.5137684211
 30
0.0
 11
365.9297753971
 21
416.3137684211
 31
0.0
  0
LINE
  5
19A
330
1F
100
AcDbEntity
  8
0
  6
SLD-Durchgehend
 62
   250
420
  1644836
370
    25
100
AcDbLine
 10
365.9297753971
 20
416.3137684211
 30
0.0
 11
366.2261686755
 21
416.3137684211
 31
0.0
  0
LINE
  5
19B
330
1F
100
AcDbEntity
  8
0
  6
SLD-Durchgehend
 62
   250
420
  1644836
370
    25
100
AcDbLine
 10
364.801344727
 20
417.5137684211
 30
0.0
 11
364.801344727
 21
416.3137684211
 31
0.0
  0
LINE
  5
19C
330
1F
100
AcDbEntity
  8
0
  6
SLD-Durchgehend
 62
   250
420
  1644836
370
    25
100
AcDbLine
 10
364.801344727
 20
416.3137684211
 30
0.0
 11
364.1209818297
 21
416.3137684211
 31
0.0
  0
LINE
  5
19D
330
1F
100
AcDbEntity
  8
0
  6
SLD-Durchgehend
 62
   250
420
  1644836
370
    25
100
AcDbLine
 10
364.801344727
 20
416.3137684211
 30
0.0
 11
365.9297753971
 21
416.3137684211
 31
0.0
  0
LINE
  5
19E
330
1F
100
AcDbEntity
  8
0
  6
SLD-Durchgehend
 62
   250
420
  1644836
370
    25
100
AcDbLine
 10
490.2235752526
 20
419.0137684211
 30
0.0
 11
490.1235752526
 21
419.0137684211
 31
0.0
  0
LINE
  5
19F
330
1F
100
AcDbEntity
  8
0
  6
SLD-Durchgehend
 62
   250
420
  1644836
370
    25
100
AcDbLine
 10
475.4735752526
 20
419.0137684211
 30
0.0
 11
464.8735752526
 21
419.0137684211
 31
0.0
  0
LINE
  5
1A0
330
1F
100
AcDbEntity
  8
0
  6
SLD-Durchgehend
 62
   250
420
  1644836
370
    25
100
AcDbLine
 10
405.4735752526
 20
419.0137684211
 30
0.0
 11
394.8735752526
 21
419.0137684211
 31
0.0
  0
LINE
  5
1A1
330
1F
100
AcDbEntity
  8
0
  6
SLD-Durchgehend
 62
   250
420
  1644836
370
    25
100
AcDbLine
 10
335.4735752526
 20
419.0137684211
 30
0.0
 11
324.8735752526
 21
419.0137684211
 31
0.0
  0
LINE
  5
1A2
330
1F
100
AcDbEntity
  8
0
  6
SLD-Durchgehend
 62
   250
420
  1644836
370
    25
100
AcDbLine
 10
265.4735752526
 20
419.0137684211
 30
0.0
 11
254.8735752526
 21
419.0137684211
 31
0.0
  0
LINE
  5
1A3
330
1F
100
AcDbEntity
  8
0
  6
SLD-Durchgehend
 62
   250
420
  1644836
370
    25
100
AcDbLine
 10
240.2235752526
 20
419.0137684211
 30
0.0
 11
240.1235752526
 21
419.0137684211
 31
0.0
  0
LINE
  5
1A4
330
1F
100
AcDbEntity
  8
0
  6
SLD-Durchgehend
 62
   250
420
  1644836
370
    25
100
AcDbLine
 10
231.6735752526
 20
414.3137684211
 30
0.0
 11
226.4235752526
 21
414.3137684211
 31
0.0
  0
LINE
  5
1A5
330
1F
100
AcDbEntity
  8
0
  6
SLD-Durchgehend
 62
   250
420
  1644836
370
    25
100
AcDbLine
 10
227.4235752526
 20
419.3137684211
 30
0.0
 11
226.4235752526
 21
418.3137684211
 31
0.0
  0
LINE
  5
1A6
330
1F
100
AcDbEntity
  8
0
  6
SLD-Durchgehend
 62
   250
420
  1644836
370
    25
100
AcDbLine
 10
503.9235752526
 20
414.3137684211
 30
0.0
 11
498.6735752526
 21
414.3137684211
 31
0.0
  0
LINE
  5
1A7
330
1F
100
AcDbEntity
  8
0
  6
SLD-Durchgehend
 62
   250
420
  1644836
370
    25
100
AcDbLine
 10
503.9235752526
 20
418.3137684211
 30
0.0
 11
502.9235752526
 21
419.3137684211
 31
0.0
  0
LINE
  5
1A8
330
1F
100
AcDbEntity
  8
0
  6
SLD-Punktstrich
 62
   250
420
  1644836
370
    18
100
AcDbLine
 10
365.1735752526
 20
415.2521588953
 30
0.0
 11
365.1735752526
 21
427.1983474694
 31
0.0
  0
ARC
  5
1A9
330
1F
100
AcDbEntity
  8
0
  6
SLD-Durchgehend
 62
   179
420
  2171202
370
    18
100
AcDbCircle
 10
366.7735752526
 20
418.0551897773
 30
0.0
 40
0.0999999999999659
100
AcDbArc
 50
180.0
 51
224.9999999999
  0
ARC
  5
1AA
330
1F
100
AcDbEntity
  8
0
  6
SLD-Durchgehend
 62
   179
420
  2171202
370
    18
100
AcDbCircle
 10
363.5735752526
 20
418.0551897773
 30
0.0
 40
0.1000000000000227
100
AcDbArc
 50
315.0
 51
0.0
  0
ARC
  5
1AB
330
1F
100
AcDbEntity
  8
0
  6
SLD-Durchgehend
 62
   179
420
  2171202
370
    18
100
AcDbCircle
 10
226.9235752526
 20
418.8137684211
 30
0.0
 40
2.5
100
AcDbArc
 50
90.0
 51
180.0
  0
ARC
  5
1AC
330
1F
100
AcDbEntity
  8
0
  6
SLD-Durchgehend
 62
   179
420
  2171202
370
    18
100
AcDbCircle
 10
226.9235752526
 20
418.8137684211
 30
0.0
 40
0.5
100
AcDbArc
 50
90.0
 51
180.0
  0
ARC
  5
1AD
330
1F
100
AcDbEntity
  8
0
  6
SLD-Durchgehend
 62
   179
420
  2171202
370
    18
100
AcDbCircle
 10
503.4235752526
 20
418.8137684211
 30
0.0
 40
2.500000000000057
100
AcDbArc
 50
0.0
 51
90.0
  0
ARC
  5
1AE
330
1F
100
AcDbEntity
  8
0
  6
SLD-Durchgehend
 62
   179
420
  2171202
370
    18
100
AcDbCircle
 10
503.4235752526
 20
418.8137684211
 30
0.0
 40
0.5000000000000568
100
AcDbArc
 50
0.0
 51
90.0
  0
ARC
  5
1AF
330
1F
100
AcDbEntity
  8
0
  6
SLD-Durchgehend
 62
   250
420
  1644836
370
    25
100
AcDbCircle
 10
224.6735752526
 20
295.4771748303
 30
0.0
 40
0.5
100
AcDbArc
 50
180.0
 51
270.0
  0
ARC
  5
1B0
330
1F
100
AcDbEntity
  8
0
  6
SLD-Durchgehend
 62
   250
420
  1644836
370
    25
100
AcDbCircle
 10
505.6735752526
 20
295.4771748303
 30
0.0
 40
0.5
100
AcDbArc
 50
270.0
 51
0.0
  0
ARC
  5
1B1
330
1F
100
AcDbEntity
  8
0
  6
SLD-Durchgehend
 62
   250
420
  1644836
370
    25
100
AcDbCircle
 10
224.6735752526
 20
366.4771748303
 30
0.0
 40
0.5
100
AcDbArc
 50
90.0
 51
180.0
  0
ARC
  5
1B2
330
1F
100
AcDbEntity
  8
0
  6
SLD-Durchgehend
 62
   250
420
  1644836
370
    25
100
AcDbCircle
 10
505.6735752526
 20
366.4771748303
 30
0.0
 40
0.5
100
AcDbArc
 50
0.0
 51
90.0
  0
ARC
  5
1B3
330
1F
100
AcDbEntity
  8
0
  6
SLD-Durchgehend
 62
   250
420
  1644836
370
    25
100
AcDbCircle
 10
503.4235752526
 20
418.8137684211
 30
0.0
 40
0.5000000000000568
100
AcDbArc
 50
0.0
 51
90.0
  0
ARC
  5
1B4
330
1F
100
AcDbEntity
  8
0
  6
SLD-Durchgehend
 62
   250
420
  1644836
370
    25
100
AcDbCircle
 10
503.4235752526
 20
418.8137684211
 30
0.0
 40
2.500000000000057
100
AcDbArc
 50
0.0
 51
90.0
  0
ARC
  5
1B5
330
1F
100
AcDbEntity
  8
0
  6
SLD-Durchgehend
 62
   250
420
  1644836
370
    25
100
AcDbCircle
 10
226.9235752526
 20
418.8137684211
 30
0.0
 40
0.5
100
AcDbArc
 50
90.0
 51
180.0
  0
ARC
  5
1B6
330
1F
100
AcDbEntity
  8
0
  6
SLD-Durchgehend
 62
   250
420
  1644836
370
    25
100
AcDbCircle
 10
226.9235752526
 20
418.8137684211
 30
0.0
 40
2.5
100
AcDbArc
 50
90.0
 51
180.0
  0
ARC
  5
1B7
330
1F
100
AcDbEntity
  8
0
  6
SLD-Durchgehend
 62
   250
420
  1644836
370
    25
100
AcDbCircle
 10
363.5735752526
 20
418.0551897773
 30
0.0
 40
0.1000000000000227
100
AcDbArc
 50
315.0
 51
0.0
  0
ARC
  5
1B8
330
1F
100
AcDbEntity
  8
0
  6
SLD-Durchgehend
 62
   250
420
  1644836
370
    25
100
AcDbCircle
 10
366.7735752526
 20
418.0551897773
 30
0.0
 40
0.0999999999999659
100
AcDbArc
 50
180.0
 51
224.9999999999
  0
ARC
  5
1B9
330
1F
100
AcDbEntity
  8
0
  6
SLD-Durchgehend
 62
   250
420
  1644836
370
    25
100
AcDbCircle
 10
490.2235752526
 20
419.7137684211
 30
0.0
 40
0.7000000000000548
100
AcDbArc
 50
270.0
 51
325.150095421
  0
ARC
  5
1BA
330
1F
100
AcDbEntity
  8
0
  6
SLD-Durchgehend
 62
   250
420
  1644836
370
    25
100
AcDbCircle
 10
490.1235752526
 20
419.7137684211
 30
0.0
 40
0.6999999999999886
100
AcDbArc
 50
214.849904579
 51
270.0
  0
ARC
  5
1BB
330
1F
100
AcDbEntity
  8
0
  6
SLD-Durchgehend
 62
   250
420
  1644836
370
    25
100
AcDbCircle
 10
475.4735752526
 20
419.7137684211
 30
0.0
 40
0.7000000000000455
100
AcDbArc
 50
270.0
 51
325.150095421
  0
ARC
  5
1BC
330
1F
100
AcDbEntity
  8
0
  6
SLD-Durchgehend
 62
   250
420
  1644836
370
    25
100
AcDbCircle
 10
464.8735752526
 20
419.7137684211
 30
0.0
 40
0.7000000000000548
100
AcDbArc
 50
214.849904579
 51
270.0
  0
ARC
  5
1BD
330
1F
100
AcDbEntity
  8
0
  6
SLD-Durchgehend
 62
   250
420
  1644836
370
    25
100
AcDbCircle
 10
405.4735752526
 20
419.7137684211
 30
0.0
 40
0.7000000000000455
100
AcDbArc
 50
270.0
 51
325.150095421
  0
ARC
  5
1BE
330
1F
100
AcDbEntity
  8
0
  6
SLD-Durchgehend
 62
   250
420
  1644836
370
    25
100
AcDbCircle
 10
394.8735752526
 20
419.7137684211
 30
0.0
 40
0.6999999999999886
100
AcDbArc
 50
214.849904579
 51
270.0
  0
ARC
  5
1BF
330
1F
100
AcDbEntity
  8
0
  6
SLD-Durchgehend
 62
   250
420
  1644836
370
    25
100
AcDbCircle
 10
335.4735752526
 20
419.7137684211
 30
0.0
 40
0.7000000000000455
100
AcDbArc
 50
270.0
 51
325.150095421
  0
ARC
  5
1C0
330
1F
100
AcDbEntity
  8
0
  6
SLD-Durchgehend
 62
   250
420
  1644836
370
    25
100
AcDbCircle
 10
324.8735752526
 20
419.7137684211
 30
0.0
 40
0.6999999999999886
100
AcDbArc
 50
214.8499045791
 51
270.0
  0
ARC
  5
1C1
330
1F
100
AcDbEntity
  8
0
  6
SLD-Durchgehend
 62
   250
420
  1644836
370
    25
100
AcDbCircle
 10
265.4735752526
 20
419.7137684211
 30
0.0
 40
0.7000000000000548
100
AcDbArc
 50
270.0
 51
325.150095421
  0
ARC
  5
1C2
330
1F
100
AcDbEntity
  8
0
  6
SLD-Durchgehend
 62
   250
420
  1644836
370
    25
100
AcDbCircle
 10
254.8735752526
 20
419.7137684211
 30
0.0
 40
0.6999999999999886
100
AcDbArc
 50
214.849904579
 51
270.0
  0
ARC
  5
1C3
330
1F
100
AcDbEntity
  8
0
  6
SLD-Durchgehend
 62
   250
420
  1644836
370
    25
100
AcDbCircle
 10
240.2235752526
 20
419.7137684211
 30
0.0
 40
0.7000000000000082
100
AcDbArc
 50
270.0
 51
325.150095421
  0
ARC
  5
1C4
330
1F
100
AcDbEntity
  8
0
  6
SLD-Durchgehend
 62
   250
420
  1644836
370
    25
100
AcDbCircle
 10
240.1235752526
 20
419.7137684211
 30
0.0
 40
0.7000000000000082
100
AcDbArc
 50
214.849904579
 51
270.0
  0
SPLINE
  5
1C5
330
1F
100
AcDbEntity
  8
0
  6
SLD-Durchgehend
 62
   250
420
  1644836
370
    25
100
AcDbSpline
210
0.0
220
0.0
230
1.0
 70
     8
 71
     3
 72
    11
 73
     7
 74
     0
 42
0.000000001
 43
0.00000001
 40
0.0
 40
0.0
 40
0.0
 40
0.0
 40
0.2747250492094328
 40
0.5494453099087162
 40
0.7708824127484739
 40
1.0
 40
1.0
 40
1.0
 40
1.0
 10
478.8775447313448
 20
303.7399342924601
 30
0.0
 10
478.8696933658859
 20
303.7956258427791
 30
0.0
 10
478.8539907718191
 20
303.9070079727027
 30
0.0
 10
478.749332978391
 20
304.0302677738535
 30
0.0
 10
478.6232484654046
 20
304.1087216253866
 30
0.0
 10
478.5327006987754
 20
304.1220885244796
 30
0.0
 10
478.4866550437698
 20
304.1288859049898
 30
0.0
  0
SPLINE
  5
1C6
330
1F
100
AcDbEntity
  8
0
  6
SLD-Durchgehend
 62
   250
420
  1644836
370
    25
100
AcDbSpline
210
0.0
220
0.0
230
1.0
 70
     8
 71
     3
 72
    11
 73
     7
 74
     0
 42
0.000000001
 43
0.00000001
 40
0.0
 40
0.0
 40
0.0
 40
0.0
 40
0.2812497544593501
 40
0.5529773269317062
 40
0.7707968828816522
 40
1.0
 40
1.0
 40
1.0
 40
1.0
 10
478.4911994956
 20
301.8415563005
 30
0.0
 10
478.5437250399666
 20
301.8474585062198
 30
0.0
 10
478.6469977883297
 20
301.859063088589
 30
0.0
 10
478.7671668189785
 20
301.9457182538505
 30
0.0
 10
478.8467654927409
 20
302.0553318606838
 30
0.0
 10
478.8671122729368
 20
302.1363203127643
 30
0.0
 10
478.8775447313448
 20
302.177845735938
 30
0.0
  0
SPLINE
  5
1C7
330
1F
100
AcDbEntity
  8
0
  6
SLD-Durchgehend
 62
   250
420
  1644836
370
    25
100
AcDbSpline
210
0.0
220
0.0
230
1.0
 70
     8
 71
     3
 72
     9
 73
     5
 74
     0
 42
0.000000001
 43
0.00000001
 40
0.0
 40
0.0
 40
0.0
 40
0.0
 40
0.5611492448852314
 40
1.0
 40
1.0
 40
1.0
 40
1.0
 10
478.4473591617548
 20
300.9817196038
 30
0.0
 10
478.460156715616
 20
300.9813095366308
 30
0.0
 10
478.482962687428
 20
300.9805787735177
 30
0.0
 10
478.5057799005077
 20
300.9805352807209
 30
0.0
 10
478.5157932516975
 20
300.9805161938743
 30
0.0
  0
SPLINE
  5
1C8
330
1F
100
AcDbEntity
  8
0
  6
SLD-Durchgehend
 62
   250
420
  1644836
370
    25
100
AcDbSpline
210
0.0
220
0.0
230
1.0
 70
     8
 71
     3
 72
    12
 73
     8
 74
     0
 42
0.000000001
 43
0.00000001
 40
0.0
 40
0.0
 40
0.0
 40
0.0
 40
0.2177775398264646
 40
0.398464740527602
 40
0.5601427979986202
 40
0.758853842233298
 40
1.0
 40
1.0
 40
1.0
 40
1.0
 10
479.6858559376375
 20
303.7801663087896
 30
0.0
 10
479.680218087014
 20
303.9188012071246
 30
0.0
 10
479.669902584839
 20
304.1724596828205
 30
0.0
 10
479.5541834202792
 20
304.5158556142809
 30
0.0
 10
479.3318909774047
 20
304.7886445511421
 30
0.0
 10
478.9744502685795
 20
304.9587736544315
 30
0.0
 10
478.6936588204202
 20
304.9725927616207
 30
0.0
 10
478.5397184539802
 20
304.98016891267
 30
0.0
  0
SPLINE
  5
1C9
330
1F
100
AcDbEntity
  8
0
  6
SLD-Durchgehend
 62
   250
420
  1644836
370
    25
100
AcDbSpline
210
0.0
220
0.0
230
1.0
 70
     8
 71
     3
 72
    10
 73
     6
 74
     0
 42
0.000000001
 43
0.00000001
 40
0.0
 40
0.0
 40
0.0
 40
0.0
 40
0.2528872714856202
 40
0.5184621175552762
 40
1.0
 40
1.0
 40
1.0
 40
1.0
 10
479.3350643544469
 20
301.2332679118446
 30
0.0
 10
479.3952164111902
 20
301.2941630157528
 30
0.0
 10
479.5185384057339
 20
301.4190083839498
 30
0.0
 10
479.6591937833244
 20
301.7330852239178
 30
0.0
 10
479.6754063946877
 20
301.98581516257
 30
0.0
 10
479.6858559376375
 20
302.1487076349429
 30
0.0
  0
SPLINE
  5
1CA
330
1F
100
AcDbEntity
  8
0
  6
SLD-Durchgehend
 62
   250
420
  1644836
370
    25
100
AcDbSpline
210
0.0
220
0.0
230
1.0
 70
     8
 71
     3
 72
     9
 73
     5
 74
     0
 42
0.000000001
 43
0.00000001
 40
0.0
 40
0.0
 40
0.0
 40
0.0
 40
0.5967093862650633
 40
1.0
 40
1.0
 40
1.0
 40
1.0
 10
478.5157932516975
 20
300.9805161938743
 30
0.0
 10
478.6931011287299
 20
300.9895052658327
 30
0.0
 10
478.9902438938911
 20
301.0045696709942
 30
0.0
 10
479.2359666666231
 20
301.167542499724
 30
0.0
 10
479.3350643544469
 20
301.2332679118446
 30
0.0
  0
SPLINE
  5
1CB
330
1F
100
AcDbEntity
  8
0
  6
SLD-Durchgehend
 62
   250
420
  1644836
370
    25
100
AcDbSpline
210
0.0
220
0.0
230
1.0
 70
     8
 71
     3
 72
    11
 73
     7
 74
     0
 42
0.000000001
 43
0.00000001
 40
0.0
 40
0.0
 40
0.0
 40
0.0
 40
0.2919495674567601
 40
0.5660717013347737
 40
0.7792501675821264
 40
1.0
 40
1.0
 40
1.0
 40
1.0
 10
481.6949043755297
 20
304.1259453072402
 30
0.0
 10
481.6366580696074
 20
304.1192024337772
 30
0.0
 10
481.5237221753119
 20
304.1061284296389
 30
0.0
 10
481.3960751349467
 20
304.0089508183942
 30
0.0
 10
481.3194559144995
 20
303.8874733232622
 30
0.0
 10
481.3105058682422
 20
303.8011110081002
 30
0.0
 10
481.305952763
 20
303.7571764072507
 30
0.0
  0
SPLINE
  5
1CC
330
1F
100
AcDbEntity
  8
0
  6
SLD-Durchgehend
 62
   250
420
  1644836
370
    25
100
AcDbSpline
210
0.0
220
0.0
230
1.0
 70
     8
 71
     3
 72
    11
 73
     7
 74
     0
 42
0.000000001
 43
0.00000001
 40
0.0
 40
0.0
 40
0.0
 40
0.0
 40
0.2923590658637869
 40
0.5666087142990068
 40
0.780097240103215
 40
1.0
 40
1.0
 40
1.0
 40
1.0
 10
482.4754808075481
 20
303.7213554340005
 30
0.0
 10
482.4682313695206
 20
303.7824353259571
 30
0.0
 10
482.4541815409375
 20
303.9008116757678
 30
0.0
 10
482.3503498280803
 20
304.0332363993593
 30
0.0
 10
482.2226264607638
 20
304.1119721416208
 30
0.0
 10
482.1323846993945
 20
304.1212418544766
 30
0.0
 10
482.0865960251924
 20
304.1259453072402
 30
0.0
  0
SPLINE
  5
1CD
330
1F
100
AcDbEntity
  8
0
  6
SLD-Durchgehend
 62
   250
420
  1644836
370
    25
100
AcDbSpline
210
0.0
220
0.0
230
1.0
 70
     8
 71
     3
 72
    12
 73
     8
 74
     0
 42
0.000000001
 43
0.00000001
 40
0.0
 40
0.0
 40
0.0
 40
0.0
 40
0.2114134532755195
 40
0.3895527681210733
 40
0.5523169649032856
 40
0.7549862544514407
 40
1.0
 40
1.0
 40
1.0
 40
1.0
 10
483.3339812224251
 20
303.7809679492118
 30
0.0
 10
483.3274002685751
 20
303.9183043048615
 30
0.0
 10
483.3152741301984
 20
304.1713617932953
 30
0.0
 10
483.1893762100131
 20
304.5140903386348
 30
0.0
 10
482.9536034882418
 20
304.7864042563333
 30
0.0
 10
482.5823941238343
 20
304.9575791568967
 30
0.0
 10
482.2909895537078
 20
304.9721784833337
 30
0.0
 10
482.1315059021076
 20
304.9801685910045
 30
0.0
  0
SPLINE
  5
1CE
330
1F
100
AcDbEntity
  8
0
  6
SLD-Durchgehend
 62
   250
420
  1644836
370
    25
100
AcDbSpline
210
0.0
220
0.0
230
1.0
 70
     8
 71
     3
 72
    12
 73
     8
 74
     0
 42
0.000000001
 43
0.00000001
 40
0.0
 40
0.0
 40
0.0
 40
0.0
 40
0.2125693766514602
 40
0.3914658534855858
 40
0.5543778792716596
 40
0.7563584015614669
 40
1.0
 40
1.0
 40
1.0
 40
1.0
 10
481.6440466131076
 20
304.9801685910045
 30
0.0
 10
481.5074742249154
 20
304.9740908051227
 30
0.0
 10
481.2559637423218
 20
304.9628980092694
 30
0.0
 10
480.9150340352505
 20
304.8403319169817
 30
0.0
 10
480.6434262520957
 20
304.6096815675286
 30
0.0
 10
480.4714912318272
 20
304.2449880575056
 30
0.0
 10
480.4559496357029
 20
303.958125142705
 30
0.0
 10
480.4474523481
 20
303.8012843221
 30
0.0
  0
SPLINE
  5
1CF
330
1F
100
AcDbEntity
  8
0
  6
SLD-Durchgehend
 62
   250
420
  1644836
370
    25
100
AcDbSpline
210
0.0
220
0.0
230
1.0
 70
     8
 71
     3
 72
    11
 73
     7
 74
     0
 42
0.000000001
 43
0.00000001
 40
0.0
 40
0.0
 40
0.0
 40
0.0
 40
0.2709510930982639
 40
0.5362243368417778
 40
0.7543071012678952
 40
1.0
 40
1.0
 40
1.0
 40
1.0
 10
499.3614608656255
 20
303.7363253930298
 30
0.0
 10
499.35535557444
 20
303.7922118592782
 30
0.0
 10
499.3432729300049
 20
303.9028136766017
 30
0.0
 10
499.248106147035
 20
304.0328519006869
 30
0.0
 10
499.1170211280836
 20
304.1123737326241
 30
0.0
 10
499.0213312946864
 20
304.1207211575336
 30
0.0
 10
498.9706380082247
 20
304.1251433452115
 30
0.0
  0
SPLINE
  5
1D0
330
1F
100
AcDbEntity
  8
0
  6
SLD-Durchgehend
 62
   250
420
  1644836
370
    25
100
AcDbSpline
210
0.0
220
0.0
230
1.0
 70
     8
 71
     3
 72
    11
 73
     7
 74
     0
 42
0.000000001
 43
0.00000001
 40
0.0
 40
0.0
 40
0.0
 40
0.0
 40
0.2882526378998068
 40
0.5667226730080114
 40
0.7824309356463813
 40
1.0
 40
1.0
 40
1.0
 40
1.0
 10
498.9722419324
 20
303.053721996
 30
0.0
 10
499.030071647741
 20
303.0638649717188
 30
0.0
 10
499.143768476662
 20
303.0838066949013
 30
0.0
 10
499.2692120261253
 20
303.1875258179992
 30
0.0
 10
499.3470144404419
 20
303.3113062185149
 30
0.0
 10
499.3566316228853
 20
303.3987592832572
 30
0.0
 10
499.3614608656255
 20
303.4426736085298
 30
0.0
  0
SPLINE
  5
1D1
330
1F
100
AcDbEntity
  8
0
  6
SLD-Durchgehend
 62
   250
420
  1644836
370
    25
100
AcDbSpline
210
0.0
220
0.0
230
1.0
 70
     8
 71
     3
 72
    13
 73
     9
 74
     0
 42
0.000000001
 43
0.00000001
 40
0.0
 40
0.0
 40
0.0
 40
0.0
 40
0.1786987827384082
 40
0.3258270793141687
 40
0.451892746393464
 40
0.5696190978301043
 40
0.7655101285646081
 40
1.0
 40
1.0
 40
1.0
 40
1.0
 10
498.9845327972512
 20
302.2461461737
 30
0.0
 10
499.0237488027298
 20
302.2448390933288
 30
0.0
 10
499.095252571987
 20
302.2424558528095
 30
0.0
 10
499.1920531858489
 20
302.2174435203791
 30
0.0
 10
499.2678785499366
 20
302.1750541335411
 30
0.0
 10
499.3337582364619
 20
302.1025689494341
 30
0.0
 10
499.376200726476
 20
301.9864748942321
 30
0.0
 10
499.3793740743466
 20
301.8919747349331
 30
0.0
 10
499.3811030496112
 20
301.840487017674
 30
0.0
  0
SPLINE
  5
1D2
330
1F
100
AcDbEntity
  8
0
  6
SLD-Durchgehend
 62
   250
420
  1644836
370
    25
100
AcDbSpline
210
0.0
220
0.0
230
1.0
 70
     8
 71
     3
 72
    13
 73
     9
 74
     0
 42
0.000000001
 43
0.00000001
 40
0.0
 40
0.0
 40
0.0
 40
0.0
 40
0.194165726123332
 40
0.3470249713928872
 40
0.4706668946820219
 40
0.5811375112837351
 40
0.7664103779903025
 40
1.0
 40
1.0
 40
1.0
 40
1.0
 10
500.1725059698138
 20
303.8556841141029
 30
0.0
 10
500.169626271101
 20
303.9746228739766
 30
0.0
 10
500.1644794958001
 20
304.1871975675993
 30
0.0
 10
500.1057764778309
 20
304.4712352004505
 30
0.0
 10
500.0010836283992
 20
304.6877432357484
 30
0.0
 10
499.8108787442375
 20
304.8687613495467
 30
0.0
 10
499.4916645510908
 20
304.9695501010593
 30
0.0
 10
499.2353417898618
 20
304.97405019623
 30
0.0
 10
499.0923966980455
 20
304.976559792
 30
0.0
  0
SPLINE
  5
1D3
330
1F
100
AcDbEntity
  8
0
  6
SLD-Durchgehend
 62
   250
420
  1644836
370
    25
100
AcDbSpline
210
0.0
220
0.0
230
1.0
 70
     8
 71
     3
 72
     9
 73
     5
 74
     0
 42
0.000000001
 43
0.00000001
 40
0.0
 40
0.0
 40
0.0
 40
0.0
 40
0.5019771459250512
 40
1.0
 40
1.0
 40
1.0
 40
1.0
 10
500.1733079319038
 20
303.2665093003466
 30
0.0
 10
500.1732494786053
 20
303.3650935007419
 30
0.0
 10
500.1731330324703
 20
303.561485310998
 30
0.0
 10
500.1727144389523
 20
303.7578767093699
 30
0.0
 10
500.1725059698138
 20
303.8556841141029
 30
0.0
  0
SPLINE
  5
1D4
330
1F
100
AcDbEntity
  8
0
  6
SLD-Durchgehend
 62
   250
420
  1644836
370
    25
100
AcDbSpline
210
0.0
220
0.0
230
1.0
 70
     8
 71
     3
 72
    11
 73
     7
 74
     0
 42
0.000000001
 43
0.00000001
 40
0.0
 40
0.0
 40
0.0
 40
0.0
 40
0.1992186042567546
 40
0.4625865760426247
 40
0.7086378742852835
 40
1.0
 40
1.0
 40
1.0
 40
1.0
 10
499.8662901126675
 20
302.7139574219275
 30
0.0
 10
499.9024242300592
 20
302.7390202379416
 30
0.0
 10
499.9863278278424
 20
302.7972162196331
 30
0.0
 10
500.0858199118377
 20
302.9203210920619
 30
0.0
 10
500.1601432404186
 20
303.0831792618048
 30
0.0
 10
500.1686797880149
 20
303.2020582800938
 30
0.0
 10
500.1733079319038
 20
303.2665093003466
 30
0.0
  0
SPLINE
  5
1D5
330
1F
100
AcDbEntity
  8
0
  6
SLD-Durchgehend
 62
   250
420
  1644836
370
    25
100
AcDbSpline
210
0.0
220
0.0
230
1.0
 70
     8
 71
     3
 72
    12
 73
     8
 74
     0
 42
0.000000001
 43
0.00000001
 40
0.0
 40
0.0
 40
0.0
 40
0.0
 40
0.2586060014828629
 40
0.4768740222596357
 40
0.665419646065875
 40
0.8538040147583604
 40
1.0
 40
1.0
 40
1.0
 40
1.0
 10
500.1735752525991
 20
302.1520493191518
 30
0.0
 10
500.1702514907006
 20
302.2100937384386
 30
0.0
 10
500.1641224152089
 20
302.3171286700966
 30
0.0
 10
500.1125191926399
 20
302.4590024215642
 30
0.0
 10
500.0401210651007
 20
302.5715954348445
 30
0.0
 10
499.9571657921871
 20
302.6559969130975
 30
0.0
 10
499.8939238758528
 20
302.6963326076364
 30
0.0
 10
499.8662901126675
 20
302.7139574219275
 30
0.0
  0
SPLINE
  5
1D6
330
1F
100
AcDbEntity
  8
0
  6
SLD-Durchgehend
 62
   250
420
  1644836
370
    25
100
AcDbSpline
210
0.0
220
0.0
230
1.0
 70
     8
 71
     3
 72
    14
 73
    10
 74
     0
 42
0.000000001
 43
0.00000001
 40
0.0
 40
0.0
 40
0.0
 40
0.0
 40
0.1948363021374149
 40
0.3461853534454036
 40
0.4655428980217806
 40
0.5700830422527673
 40
0.6859658879948648
 40
0.826062773195104
 40
1.0
 40
1.0
 40
1.0
 40
1.0
 10
493.6770215251365
 20
303.7778937611959
 30
0.0
 10
493.6748622418206
 20
303.9064704016424
 30
0.0
 10
493.6710256248772
 20
304.1349255161642
 30
0.0
 10
493.6221321225354
 20
304.4393992416896
 30
0.0
 10
493.5275118066518
 20
304.6722921040638
 30
0.0
 10
493.3676728079616
 20
304.8380326353598
 30
0.0
 10
493.1439496860273
 20
304.9314757073216
 30
0.0
 10
492.8622021850072
 20
304.972979715509
 30
0.0
 10
492.6550034883932
 20
304.9756277239595
 30
0.0
 10
492.5402402658357
 20
304.9770944029886
 30
0.0
  0
SPLINE
  5
1D7
330
1F
100
AcDbEntity
  8
0
  6
SLD-Durchgehend
 62
   250
420
  1644836
370
    25
100
AcDbSpline
210
0.0
220
0.0
230
1.0
 70
     8
 71
     3
 72
    10
 73
     6
 74
     0
 42
0.000000001
 43
0.00000001
 40
0.0
 40
0.0
 40
0.0
 40
0.0
 40
0.180704302812266
 40
0.4132783874660447
 40
0.9999999999999999
 40
0.9999999999999999
 40
0.9999999999999999
 40
0.9999999999999999
 10
492.8010116047293
 20
304.0222231883948
 30
0.0
 10
492.8061375098665
 20
304.0147991685915
 30
0.0
 10
492.8178606718301
 20
303.9978201211362
 30
0.0
 10
492.8242979489748
 20
303.9477427736548
 30
0.0
 10
492.8242807919324
 20
303.9075726415747
 30
0.0
 10
492.8242685052724
 20
303.8788056350462
 30
0.0
  0
SPLINE
  5
1D8
330
1F
100
AcDbEntity
  8
0
  6
SLD-Durchgehend
 62
   250
420
  1644836
370
    25
100
AcDbSpline
210
0.0
220
0.0
230
1.0
 70
     8
 71
     3
 72
    10
 73
     6
 74
     0
 42
0.000000001
 43
0.00000001
 40
0.0
 40
0.0
 40
0.0
 40
0.0
 40
0.6237435782697907
 40
0.8187871131400055
 40
1.0
 40
1.0
 40
1.0
 40
1.0
 10
492.7054444559463
 20
304.0466830320693
 30
0.0
 10
492.726607284087
 20
304.0464146000717
 30
0.0
 10
492.7543876918746
 20
304.046062229854
 30
0.0
 10
492.786753165609
 20
304.0346767714062
 30
0.0
 10
492.7963767075695
 20
304.0262713928331
 30
0.0
 10
492.8010116047293
 20
304.0222231883948
 30
0.0
  0
SPLINE
  5
1D9
330
1F
100
AcDbEntity
  8
0
  6
SLD-Durchgehend
 62
   250
420
  1644836
370
    25
100
AcDbSpline
210
0.0
220
0.0
230
1.0
 70
     8
 71
     3
 72
    10
 73
     6
 74
     0
 42
0.000000001
 43
0.00000001
 40
0.0
 40
0.0
 40
0.0
 40
0.0
 40
0.2440703980435725
 40
0.5018258422752748
 40
1.0
 40
1.0
 40
1.0
 40
1.0
 10
492.0323309436405
 20
304.0224905090907
 30
0.0
 10
492.0384299866556
 20
304.0273767716798
 30
0.0
 10
492.0509700465018
 20
304.0374232699809
 30
0.0
 10
492.0822042405616
 20
304.0459983818737
 30
0.0
 10
492.1062019929151
 20
304.046411064912
 30
0.0
 10
492.1220170371138
 20
304.0466830320693
 30
0.0
  0
SPLINE
  5
1DA
330
1F
100
AcDbEntity
  8
0
  6
SLD-Durchgehend
 62
   250
420
  1644836
370
    25
100
AcDbSpline
210
0.0
220
0.0
230
1.0
 70
     8
 71
     3
 72
    10
 73
     6
 74
     0
 42
0.000000001
 43
0.00000001
 40
0.0
 40
0.0
 40
0.0
 40
0.0
 40
0.6880866687026286
 40
0.8520806273578357
 40
1.0
 40
1.0
 40
1.0
 40
1.0
 10
492.0066013266604
 20
303.8781373333065
 30
0.0
 10
492.0056711570854
 20
303.9126177853826
 30
0.0
 10
492.0045192971365
 20
303.9553160769975
 30
0.0
 10
492.0172104407473
 20
304.0047906439461
 30
0.0
 10
492.0274669674969
 20
304.0167968015192
 30
0.0
 10
492.0323309436405
 20
304.0224905090907
 30
0.0
  0
SPLINE
  5
1DB
330
1F
100
AcDbEntity
  8
0
  6
SLD-Durchgehend
 62
   250
420
  1644836
370
    25
100
AcDbSpline
210
0.0
220
0.0
230
1.0
 70
     8
 71
     3
 72
    10
 73
     6
 74
     0
 42
0.000000001
 43
0.00000001
 40
0.0
 40
0.0
 40
0.0
 40
0.0
 40
0.1894043484778802
 40
0.4199151876308934
 40
0.9999999999999999
 40
0.9999999999999999
 40
0.9999999999999999
 40
0.9999999999999999
 10
491.1106744169064
 20
304.0232943108879
 30
0.0
 10
491.1166329910773
 20
304.0157245040339
 30
0.0
 10
491.129843330814
 20
303.9989420125497
 30
0.0
 10
491.1365820712362
 20
303.9478948575585
 30
0.0
 10
491.1365172511316
 20
303.9076254113923
 30
0.0
 10
491.1364708640604
 20
303.8788074747557
 30
0.0
  0
SPLINE
  5
1DC
330
1F
100
AcDbEntity
  8
0
  6
SLD-Durchgehend
 62
   250
420
  1644836
370
    25
100
AcDbSpline
210
0.0
220
0.0
230
1.0
 70
     8
 71
     3
 72
    10
 73
     6
 74
     0
 42
0.000000001
 43
0.00000001
 40
0.0
 40
0.0
 40
0.0
 40
0.0
 40
0.2312025287503266
 40
0.4918310759404038
 40
1.0
 40
1.0
 40
1.0
 40
1.0
 10
490.3420605860691
 20
304.0228933298441
 30
0.0
 10
490.3481410035139
 20
304.0279263263545
 30
0.0
 10
490.3610757160806
 20
304.0386328878369
 30
0.0
 10
490.394691708121
 20
304.0466991094187
 30
0.0
 10
490.4205815731688
 20
304.0471733588318
 30
0.0
 10
490.4376945650261
 20
304.0474868338665
 30
0.0
  0
SPLINE
  5
1DD
330
1F
100
AcDbEntity
  8
0
  6
SLD-Durchgehend
 62
   250
420
  1644836
370
    25
100
AcDbSpline
210
0.0
220
0.0
230
1.0
 70
     8
 71
     3
 72
    10
 73
     6
 74
     0
 42
0.000000001
 43
0.00000001
 40
0.0
 40
0.0
 40
0.0
 40
0.0
 40
0.6958504163507554
 40
0.8599558154715625
 40
1.0
 40
1.0
 40
1.0
 40
1.0
 10
490.3188705157
 20
303.8794757764954
 30
0.0
 10
490.3181554393235
 20
303.9138507757081
 30
0.0
 10
490.3172717234069
 20
303.9563325789594
 30
0.0
 10
490.3288100012351
 20
304.0051854002927
 30
0.0
 10
490.337882978276
 20
304.017310422718
 30
0.0
 10
490.3420605860691
 20
304.0228933298441
 30
0.0
  0
SPLINE
  5
1DE
330
1F
100
AcDbEntity
  8
0
  6
SLD-Durchgehend
 62
   250
420
  1644836
370
    25
100
AcDbSpline
210
0.0
220
0.0
230
1.0
 70
     8
 71
     3
 72
    14
 73
    10
 74
     0
 42
0.000000001
 43
0.00000001
 40
0.0
 40
0.0
 40
0.0
 40
0.0
 40
0.1668439206458612
 40
0.3025425056681478
 40
0.4150564027276227
 40
0.5191619694587476
 40
0.6413065304085626
 40
0.7970413868896137
 40
1.0
 40
1.0
 40
1.0
 40
1.0
 10
490.5988221144789
 20
304.9768270822926
 30
0.0
 10
490.4887486946635
 20
304.9754744979095
 30
0.0
 10
490.2891496435893
 20
304.9730218207796
 30
0.0
 10
490.0170123147905
 20
304.9354020225903
 30
0.0
 10
489.7961734327255
 20
304.8521913705779
 30
0.0
 10
489.6270430152879
 20
304.6969815106506
 30
0.0
 10
489.5221405722364
 20
304.4624816097028
 30
0.0
 10
489.4686977147958
 20
304.1482743101299
 30
0.0
 10
489.4645744194262
 20
303.9115637655617
 30
0.0
 10
489.4622413457
 20
303.7776264405
 30
0.0
  0
SPLINE
  5
1DF
330
1F
100
AcDbEntity
  8
0
  6
SLD-Durchgehend
 62
   250
420
  1644836
370
    25
100
AcDbSpline
210
0.0
220
0.0
230
1.0
 70
     8
 71
     3
 72
    11
 73
     7
 74
     0
 42
0.000000001
 43
0.00000001
 40
0.0
 40
0.0
 40
0.0
 40
0.0
 40
0.1991911293572182
 40
0.4625571095361146
 40
0.7086041765618553
 40
1.0
 40
1.0
 40
1.0
 40
1.0
 10
491.5648533369567
 20
304.6698092630552
 30
0.0
 10
491.5398040261007
 20
304.7059197362576
 30
0.0
 10
491.4816350862351
 20
304.7897746557128
 30
0.0
 10
491.3586644774572
 20
304.8892946198457
 30
0.0
 10
491.1958974254651
 20
304.9636564079466
 30
0.0
 10
491.0770651864766
 20
304.9721966524733
 30
0.0
 10
491.0126356094079
 20
304.9768270822926
 30
0.0
  0
SPLINE
  5
1E0
330
1F
100
AcDbEntity
  8
0
  6
SLD-Durchgehend
 62
   250
420
  1644836
370
    25
100
AcDbSpline
210
0.0
220
0.0
230
1.0
 70
     8
 71
     3
 72
    12
 73
     8
 74
     0
 42
0.000000001
 43
0.00000001
 40
0.0
 40
0.0
 40
0.0
 40
0.0
 40
0.2585139589177122
 40
0.4767397343402944
 40
0.665291103250894
 40
0.8537276706446523
 40
1.0
 40
1.0
 40
1.0
 40
1.0
 10
492.1264941190357
 20
304.9770944029886
 30
0.0
 10
492.0684923618389
 20
304.9737700920714
 30
0.0
 10
491.9615281482506
 20
304.9676395484436
 30
0.0
 10
491.819747295658
 20
304.9160311277068
 30
0.0
 10
491.7072121933443
 20
304.8436309176951
 30
0.0
 10
491.6228396174787
 20
304.7606726423923
 30
0.0
 10
491.5824876807985
 20
304.6974419385681
 30
0.0
 10
491.5648533369567
 20
304.6698092630552
 30
0.0
  0
SPLINE
  5
1E1
330
1F
100
AcDbEntity
  8
0
  6
SLD-Durchgehend
 62
   250
420
  1644836
370
    25
100
AcDbSpline
210
0.0
220
0.0
230
1.0
 70
     8
 71
     3
 72
     9
 73
     5
 74
     0
 42
0.000000001
 43
0.00000001
 40
0.0
 40
0.0
 40
0.0
 40
0.0
 40
0.6137454904782053
 40
1.0
 40
1.0
 40
1.0
 40
1.0
 10
491.021055153607
 20
304.0474868338665
 30
0.0
 10
491.0410686109517
 20
304.0477595067434
 30
0.0
 10
491.0736773350159
 20
304.0482037835342
 30
0.0
 10
491.1003658555123
 20
304.0302348806558
 30
0.0
 10
491.1106744169064
 20
304.0232943108879
 30
0.0
  0
HATCH
  5
1E2
330
1F
100
AcDbEntity
  8
0
 62
   250
420
  1644836
100
AcDbHatch
 10
0.0
 20
0.0
 30
0.0
210
0.0
220
0.0
230
1.0
  2
ANSI31
 70
     0
 71
     0
 91
        1
 92
        0
 93
       16
 72
     1
 10
362.1735752525996
 20
416.3137684210525
 11
364.1209818297431
 21
416.3137684210525
 72
     1
 10
364.1209818297431
 20
416.3137684210525
 11
364.1209818297431
 21
417.5137684210525
 72
     1
 10
364.1209818297431
 20
417.5137684210525
 11
366.2261686754561
 21
417.5137684210525
 72
     1
 10
366.2261686754561
 20
417.5137684210525
 11
366.2261686754561
 21
416.3137684210525
 72
     1
 10
366.2261686754561
 20
416.3137684210525
 11
368.1735752525996
 21
416.3137684210525
 72
     1
 10
368.1735752525996
 20
416.3137684210525
 11
368.1735752525996
 21
416.5137684210525
 72
     1
 10
368.1735752525996
 20
416.5137684210525
 11
366.7028645744809
 21
417.9844790991713
 72
     2
 10
366.7735752525996
 20
418.0551897772898
 40
0.099999999999941
 50
135.0000000000691
 51
180.0
 73
     0
 72
     1
 10
366.6735752525996
 20
418.0551897772898
 11
366.6735752525996
 21
420.0072684210525
 72
     1
 10
366.6735752525996
 20
420.0072684210525
 11
366.3670752525996
 21
420.3137684210525
 72
     1
 10
366.3670752525996
 20
420.3137684210525
 11
363.9800752525996
 21
420.3137684210525
 72
     1
 10
363.9800752525996
 20
420.3137684210525
 11
363.6735752525996
 21
420.0072684210525
 72
     1
 10
363.6735752525996
 20
420.0072684210525
 11
363.6735752525996
 21
418.0551897772898
 72
     2
 10
363.5735752525996
 20
418.0551897772898
 40
0.0999999999999573
 50
0.0
 51
44.99999999997697
 73
     0
 72
     1
 10
363.6442859307182
 20
417.9844790991712
 11
362.1735752525996
 21
416.5137684210525
 72
     1
 10
362.1735752525996
 20
416.5137684210525
 11
362.1735752525996
 21
416.3137684210525
 97
        0
 75
     0
 76
     1
 52
0.0
 41
2.0
 77
     0
 78
     1
 53
45.0
 43
0.0
 44
0.0
 45
-4.490128060534577
 46
4.490128060534577
 79
     0
 98
        1
 10
0.0
 20
0.0
  0
HATCH
  5
1E3
330
1F
100
AcDbEntity
  8
0
 62
   250
420
  1644836
100
AcDbHatch
 10
0.0
 20
0.0
 30
0.0
210
0.0
220
0.0
230
1.0
  2
ANSI31
 70
     0
 71
     0
 91
        1
 92
        0
 93
       10
 72
     2
 10
226.9235752525997
 20
418.8137684210525
 40
2.500000000000002
 50
90.0
 51
180.0
 73
     1
 72
     1
 10
224.4235752525997
 20
418.8137684210525
 11
224.4235752525997
 21
414.3137684210525
 72
     1
 10
224.4235752525997
 20
414.3137684210525
 11
226.4235752525997
 21
414.3137684210525
 72
     1
 10
226.4235752525997
 20
414.3137684210525
 11
226.4235752525997
 21
418.8137684210525
 72
     2
 10
226.9235752525997
 20
418.8137684210525
 40
0.5000000000000004
 50
180.0
 51
270.0000000000008
 73
     0
 72
     1
 10
226.9235752525997
 20
419.3137684210525
 11
231.6735752525996
 21
419.3137684210525
 72
     1
 10
231.6735752525996
 20
419.3137684210525
 11
231.6735752525996
 21
420.3137684210525
 72
     1
 10
231.6735752525996
 20
420.3137684210525
 11
230.5735752525996
 21
420.3137684210525
 72
     1
 10
230.5735752525996
 20
420.3137684210525
 11
230.5735752525996
 21
421.3137684210525
 72
     1
 10
230.5735752525996
 20
421.3137684210525
 11
226.9235752525997
 21
421.3137684210525
 97
        0
 75
     0
 76
     1
 52
0.0
 41
2.0
 77
     0
 78
     1
 53
45.0
 43
0.0
 44
0.0
 45
-4.490128060534577
 46
4.490128060534577
 79
     0
 98
        1
 10
0.0
 20
0.0
  0
HATCH
  5
1E4
330
1F
100
AcDbEntity
  8
0
 62
   250
420
  1644836
100
AcDbHatch
 10
0.0
 20
0.0
 30
0.0
210
0.0
220
0.0
230
1.0
  2
ANSI31
 70
     0
 71
     0
 91
        1
 92
        0
 93
        6
 72
     1
 10
366.6235752525997
 20
419.3137684210525
 11
413.7235752525997
 21
419.3137684210525
 72
     1
 10
413.7235752525997
 20
419.3137684210525
 11
413.9235752525997
 21
419.5137684210525
 72
     1
 10
413.9235752525997
 20
419.5137684210525
 11
413.9235752525997
 21
421.3137684210525
 72
     1
 10
413.9235752525997
 20
421.3137684210525
 11
366.4235752525996
 21
421.3137684210525
 72
     1
 10
366.4235752525996
 20
421.3137684210525
 11
366.4235752525996
 21
419.5137684210525
 72
     1
 10
366.4235752525996
 20
419.5137684210525
 11
366.6235752525997
 21
419.3137684210525
 97
        0
 75
     0
 76
     1
 52
0.0
 41
2.0
 77
     0
 78
     1
 53
45.0
 43
0.0
 44
0.0
 45
-4.490128060534577
 46
4.490128060534577
 79
     0
 98
        1
 10
0.0
 20
0.0
  0
HATCH
  5
1E5
330
1F
100
AcDbEntity
  8
0
 62
   250
420
  1644836
100
AcDbHatch
 10
0.0
 20
0.0
 30
0.0
210
0.0
220
0.0
230
1.0
  2
ANSI31
 70
     0
 71
     0
 91
        1
 92
        0
 93
        6
 72
     1
 10
363.9235752525997
 20
419.5137684210525
 11
363.9235752525997
 21
421.3137684210525
 72
     1
 10
363.9235752525997
 20
421.3137684210525
 11
316.4235752525996
 21
421.3137684210525
 72
     1
 10
316.4235752525996
 20
421.3137684210525
 11
316.4235752525996
 21
419.5137684210525
 72
     1
 10
316.4235752525996
 20
419.5137684210525
 11
316.6235752525996
 21
419.3137684210525
 72
     1
 10
316.6235752525996
 20
419.3137684210525
 11
363.7235752525997
 21
419.3137684210525
 72
     1
 10
363.7235752525997
 20
419.3137684210525
 11
363.9235752525997
 21
419.5137684210525
 97
        0
 75
     0
 76
     1
 52
0.0
 41
2.0
 77
     0
 78
     1
 53
45.0
 43
0.0
 44
0.0
 45
-4.490128060534577
 46
4.490128060534577
 79
     0
 98
        1
 10
0.0
 20
0.0
  0
HATCH
  5
1E6
330
1F
100
AcDbEntity
  8
0
 62
   250
420
  1644836
100
AcDbHatch
 10
0.0
 20
0.0
 30
0.0
210
0.0
220
0.0
230
1.0
  2
ANSI31
 70
     0
 71
     0
 91
        1
 92
        0
 93
        7
 72
     1
 10
493.6735752525996
 20
419.3137684210525
 11
493.6735752525996
 21
420.3137684210525
 72
     1
 10
493.6735752525996
 20
420.3137684210525
 11
492.5735752525997
 21
420.3137684210525
 72
     1
 10
492.5735752525997
 20
420.3137684210525
 11
492.5735752525997
 21
421.3137684210525
 72
     1
 10
492.5735752525997
 20
421.3137684210525
 11
416.4235752525997
 21
421.3137684210525
 72
     1
 10
416.4235752525997
 20
421.3137684210525
 11
416.4235752525997
 21
419.5137684210525
 72
     1
 10
416.4235752525997
 20
419.5137684210525
 11
416.6235752525996
 21
419.3137684210525
 72
     1
 10
416.6235752525996
 20
419.3137684210525
 11
493.6735752525996
 21
419.3137684210525
 97
        0
 75
     0
 76
     1
 52
0.0
 41
2.0
 77
     0
 78
     1
 53
45.0
 43
0.0
 44
0.0
 45
-4.490128060534577
 46
4.490128060534577
 79
     0
 98
        1
 10
0.0
 20
0.0
  0
HATCH
  5
1E7
330
1F
100
AcDbEntity
  8
0
 62
   250
420
  1644836
100
AcDbHatch
 10
0.0
 20
0.0
 30
0.0
210
0.0
220
0.0
230
1.0
  2
ANSI31
 70
     0
 71
     0
 91
        1
 92
        0
 93
        7
 72
     1
 10
237.7735752525996
 20
421.3137684210525
 11
237.7735752525996
 21
420.3137684210525
 72
     1
 10
237.7735752525996
 20
420.3137684210525
 11
236.6735752525996
 21
420.3137684210525
 72
     1
 10
236.6735752525996
 20
420.3137684210525
 11
236.6735752525996
 21
419.3137684210525
 72
     1
 10
236.6735752525996
 20
419.3137684210525
 11
313.7235752525996
 21
419.3137684210525
 72
     1
 10
313.7235752525996
 20
419.3137684210525
 11
313.9235752525996
 21
419.5137684210525
 72
     1
 10
313.9235752525996
 20
419.5137684210525
 11
313.9235752525996
 21
421.3137684210525
 72
     1
 10
313.9235752525996
 20
421.3137684210525
 11
237.7735752525996
 21
421.3137684210525
 97
        0
 75
     0
 76
     1
 52
0.0
 41
2.0
 77
     0
 78
     1
 53
45.0
 43
0.0
 44
0.0
 45
-4.490128060534577
 46
4.490128060534577
 79
     0
 98
        1
 10
0.0
 20
0.0
  0
HATCH
  5
1E8
330
1F
100
AcDbEntity
  8
0
 62
   250
420
  1644836
100
AcDbHatch
 10
0.0
 20
0.0
 30
0.0
210
0.0
220
0.0
230
1.0
  2
ANSI31
 70
     0
 71
     0
 91
        1
 92
        0
 93
       10
 72
     1
 10
503.9235752525997
 20
418.8137684210525
 11
503.9235752525997
 21
414.3137684210525
 72
     1
 10
503.9235752525997
 20
414.3137684210525
 11
505.9235752525997
 21
414.3137684210525
 72
     1
 10
505.9235752525997
 20
414.3137684210525
 11
505.9235752525997
 21
418.8137684210525
 72
     2
 10
503.4235752525996
 20
418.8137684210525
 40
2.50000000000003
 50
0.0
 51
90.0
 73
     1
 72
     1
 10
503.4235752525996
 20
421.3137684210525
 11
499.7735752525996
 21
421.3137684210525
 72
     1
 10
499.7735752525996
 20
421.3137684210525
 11
499.7735752525996
 21
420.3137684210525
 72
     1
 10
499.7735752525996
 20
420.3137684210525
 11
498.6735752525996
 21
420.3137684210525
 72
     1
 10
498.6735752525996
 20
420.3137684210525
 11
498.6735752525996
 21
419.3137684210525
 72
     1
 10
498.6735752525996
 20
419.3137684210525
 11
503.4235752525996
 21
419.3137684210525
 72
     2
 10
503.4235752525996
 20
418.8137684210525
 40
0.5000000000000282
 50
270.0000000000008
 51
360.0000000000008
 73
     0
 97
        0
 75
     0
 76
     1
 52
0.0
 41
2.0
 77
     0
 78
     1
 53
45.0
 43
0.0
 44
0.0
 45
-4.490128060534577
 46
4.490128060534577
 79
     0
 98
        1
 10
0.0
 20
0.0
  0
HATCH
  5
1E9
330
1F
100
AcDbEntity
  8
0
 62
   250
420
  1644836
100
AcDbHatch
 10
0.0
 20
0.0
 30
0.0
210
0.0
220
0.0
230
1.0
  2
ANSI31
 70
     0
 71
     0
 91
        1
 92
        0
 93
       16
 72
     1
 10
413.1735752525996
 20
421.3137684210525
 11
413.1735752525996
 21
422.8137684210525
 72
     1
 10
413.1735752525996
 20
422.8137684210525
 11
417.1735752525996
 21
422.8137684210525
 72
     1
 10
417.1735752525996
 20
422.8137684210525
 11
417.1735752525996
 21
421.3137684210525
 72
     1
 10
417.1735752525996
 20
421.3137684210525
 11
506.1735752525997
 21
421.3137684210525
 72
     1
 10
506.1735752525997
 20
421.3137684210525
 11
506.1735752525997
 21
425.3137684210525
 72
     1
 10
506.1735752525997
 20
425.3137684210525
 11
224.1735752525997
 21
425.3137684210525
 72
     1
 10
224.1735752525997
 20
425.3137684210525
 11
224.1735752525997
 21
421.3137684210525
 72
     1
 10
224.1735752525997
 20
421.3137684210525
 11
313.1735752525996
 21
421.3137684210525
 72
     1
 10
313.1735752525996
 20
421.3137684210525
 11
313.1735752525996
 21
422.8137684210525
 72
     1
 10
313.1735752525996
 20
422.8137684210525
 11
317.1735752525997
 21
422.8137684210525
 72
     1
 10
317.1735752525997
 20
422.8137684210525
 11
317.1735752525997
 21
421.3137684210525
 72
     1
 10
317.1735752525997
 20
421.3137684210525
 11
363.1735752525996
 21
421.3137684210525
 72
     1
 10
363.1735752525996
 20
421.3137684210525
 11
363.1735752525996
 21
422.8137684210525
 72
     1
 10
363.1735752525996
 20
422.8137684210525
 11
367.1735752525996
 21
422.8137684210525
 72
     1
 10
367.1735752525996
 20
422.8137684210525
 11
367.1735752525996
 21
421.3137684210525
 72
     1
 10
367.1735752525996
 20
421.3137684210525
 11
413.1735752525996
 21
421.3137684210525
 97
        0
 75
     0
 76
     1
 52
0.0
 41
2.0
 77
     0
 78
     1
 53
45.0
 43
0.0
 44
0.0
 45
-4.490128060534577
 46
4.490128060534577
 79
     0
 98
        1
 10
0.0
 20
0.0
  0
HATCH
  5
1EA
330
1F
100
AcDbEntity
  8
0
 62
   250
420
  1644836
100
AcDbHatch
 10
0.0
 20
0.0
 30
0.0
210
0.0
220
0.0
230
1.0
  2
ANSI31
 70
     0
 71
     0
 91
        1
 92
        0
 93
       10
 72
     1
 10
231.6735752525996
 20
412.8514963022371
 11
232.4235752525996
 21
411.3137684210525
 72
     1
 10
232.4235752525996
 20
411.3137684210525
 11
235.9235752525996
 21
411.3137684210525
 72
     1
 10
235.9235752525996
 20
411.3137684210525
 11
236.6735752525996
 21
412.8514963022371
 72
     1
 10
236.6735752525996
 20
412.8514963022371
 11
236.6735752525996
 21
420.3137684210525
 72
     1
 10
236.6735752525996
 20
420.3137684210525
 11
237.7735752525996
 21
420.3137684210525
 72
     1
 10
237.7735752525996
 20
420.3137684210525
 11
237.7735752525996
 21
421.3137684210525
 72
     1
 10
237.7735752525996
 20
421.3137684210525
 11
230.5735752525996
 21
421.3137684210525
 72
     1
 10
230.5735752525996
 20
421.3137684210525
 11
230.5735752525996
 21
420.3137684210525
 72
     1
 10
230.5735752525996
 20
420.3137684210525
 11
231.6735752525996
 21
420.3137684210525
 72
     1
 10
231.6735752525996
 20
420.3137684210525
 11
231.6735752525996
 21
412.8514963022371
 97
        0
 75
     0
 76
     1
 52
0.0
 41
2.0
 77
     0
 78
     1
 53
45.0
 43
0.0
 44
0.0
 45
-4.490128060534577
 46
4.490128060534577
 79
     0
 98
        1
 10
0.0
 20
0.0
  0
HATCH
  5
1EB
330
1F
100
AcDbEntity
  8
0
 62
   250
420
  1644836
100
AcDbHatch
 10
0.0
 20
0.0
 30
0.0
210
0.0
220
0.0
230
1.0
  2
ANSI31
 70
     0
 71
     0
 91
        1
 92
        0
 93
       10
 72
     1
 10
493.6735752525996
 20
412.8514963022371
 11
494.4235752525996
 21
411.3137684210525
 72
     1
 10
494.4235752525996
 20
411.3137684210525
 11
497.9235752525997
 21
411.3137684210525
 72
     1
 10
497.9235752525997
 20
411.3137684210525
 11
498.6735752525996
 21
412.8514963022371
 72
     1
 10
498.6735752525996
 20
412.8514963022371
 11
498.6735752525996
 21
420.3137684210525
 72
     1
 10
498.6735752525996
 20
420.3137684210525
 11
499.7735752525996
 21
420.3137684210525
 72
     1
 10
499.7735752525996
 20
420.3137684210525
 11
499.7735752525996
 21
421.3137684210525
 72
     1
 10
499.7735752525996
 20
421.3137684210525
 11
492.5735752525997
 21
421.3137684210525
 72
     1
 10
492.5735752525997
 20
421.3137684210525
 11
492.5735752525997
 21
420.3137684210525
 72
     1
 10
492.5735752525997
 20
420.3137684210525
 11
493.6735752525996
 21
420.3137684210525
 72
     1
 10
493.6735752525996
 20
420.3137684210525
 11
493.6735752525996
 21
412.8514963022371
 97
        0
 75
     0
 76
     1
 52
0.0
 41
2.0
 77
     0
 78
     1
 53
45.0
 43
0.0
 44
0.0
 45
-4.490128060534577
 46
4.490128060534577
 79
     0
 98
        1
 10
0.0
 20
0.0
  0
HATCH
  5
1EC
330
1F
100
AcDbEntity
  8
0
 62
   250
420
  1644836
100
AcDbHatch
 10
0.0
 20
0.0
 30
0.0
210
0.0
220
0.0
230
1.0
  2
ANSI31
 70
     0
 71
     0
 91
        1
 92
        0
 93
        6
 72
     1
 10
368.4235752525996
 20
417.1637684210525
 11
368.4235752525996
 21
415.3137684210525
 72
     1
 10
368.4235752525996
 20
415.3137684210525
 11
371.1735752525996
 21
415.3137684210525
 72
     1
 10
371.1735752525996
 20
415.3137684210525
 11
371.1735752525996
 21
419.3137684210525
 72
     1
 10
371.1735752525996
 20
419.3137684210525
 11
366.7735752525996
 21
419.3137684210525
 72
     1
 10
366.7735752525996
 20
419.3137684210525
 11
366.7735752525996
 21
418.8137684210525
 72
     1
 10
366.7735752525996
 20
418.8137684210525
 11
368.4235752525996
 21
417.1637684210525
 97
        0
 75
     0
 76
     1
 52
0.0
 41
2.0
 77
     0
 78
     1
 53
45.0
 43
0.0
 44
0.0
 45
-4.490128060534577
 46
4.490128060534577
 79
     0
 98
        1
 10
0.0
 20
0.0
  0
HATCH
  5
1ED
330
1F
100
AcDbEntity
  8
0
 62
   250
420
  1644836
100
AcDbHatch
 10
0.0
 20
0.0
 30
0.0
210
0.0
220
0.0
230
1.0
  2
ANSI31
 70
     0
 71
     0
 91
        1
 92
        0
 93
        6
 72
     1
 10
363.5735752525997
 20
419.3137684210525
 11
359.1735752525996
 21
419.3137684210525
 72
     1
 10
359.1735752525996
 20
419.3137684210525
 11
359.1735752525996
 21
415.3137684210525
 72
     1
 10
359.1735752525996
 20
415.3137684210525
 11
361.9235752525997
 21
415.3137684210525
 72
     1
 10
361.9235752525997
 20
415.3137684210525
 11
361.9235752525997
 21
417.1637684210525
 72
     1
 10
361.9235752525997
 20
417.1637684210525
 11
363.5735752525997
 21
418.8137684210525
 72
     1
 10
363.5735752525997
 20
418.8137684210525
 11
363.5735752525997
 21
419.3137684210525
 97
        0
 75
     0
 76
     1
 52
0.0
 41
2.0
 77
     0
 78
     1
 53
45.0
 43
0.0
 44
0.0
 45
-4.490128060534577
 46
4.490128060534577
 79
     0
 98
        1
 10
0.0
 20
0.0
  0
DIMENSION
  5
1EE
330
1F
100
AcDbEntity
  8
0
  6
SLD-Durchgehend
 62
   250
420
  1644836
370
    18
100
AcDbDimension
280
     0
  2
_D
 10
224.1735752526
 20
438.702785439
 30
0.0
 11
365.8471198842
 21
438.702785439
 31
0.0
 70
   160
  1
<> x 282
 71
     2
 42
-1.0
 73
     0
 74
     0
 75
     0
  3
SLDDIMSTYLE0
100
AcDbAlignedDimension
 13
506.1735752526
 23
425.3137684211
 33
0.0
 14
224.1735752526
 24
425.3137684211
 34
0.0
100
AcDbRotatedDimension
  0
DIMENSION
  5
1FE
330
1F
100
AcDbEntity
  8
0
  6
SLD-Durchgehend
 62
   250
420
  1644836
370
    18
100
AcDbDimension
280
     0
  2
_D_1
 10
515.8906286948
 20
421.3137684211
 30
0.0
 11
515.8906286948
 21
401.2674220681
 31
0.0
 70
   160
  1
<>
 71
     2
 42
-1.0
 73
     0
 74
     0
 75
     0
  3
SLDDIMSTYLE0
100
AcDbAlignedDimension
 13
506.1735752526
 23
425.3137684211
 33
0.0
 14
506.1735752526
 24
421.3137684211
 34
0.0
 50
90.0
100
AcDbRotatedDimension
  0
DIMENSION
  5
20B
330
1F
100
AcDbEntity
  8
0
  6
SLD-Durchgehend
 62
   250
420
  1644836
370
    18
100
AcDbDimension
280
     0
  2
_D_2
 10
538.1735752526
 20
425.3137684211
 30
0.0
 11
538.1735752526
 21
401.2674220681
 31
0.0
 70
   160
  1
<>
 71
     2
 42
-1.0
 73
     0
 74
     0
 75
     0
  3
SLDDIMSTYLE0
100
AcDbAlignedDimension
 13
505.9235752526
 23
414.3137684211
 33
0.0
 14
506.1735752526
 24
425.3137684211
 34
0.0
 50
90.0
100
AcDbRotatedDimension
  0
ENDSEC
  0
SECTION
  2
OBJECTS
  0
DICTIONARY
  5
C
330
0
100
AcDbDictionary
281
     1
  3
ACAD_DETAILVIEWSTYLE
350
21E
  3
ACAD_GROUP
350
D
  3
ACAD_LAYOUT
350
1A
  3
ACAD_MATERIAL
350
43
  3
ACAD_MLEADERSTYLE
350
6B
  3
ACAD_MLINESTYLE
350
17
  3
ACAD_PLOTSETTINGS
350
19
  3
ACAD_PLOTSTYLENAME
350
E
  3
ACAD_SCALELIST
350
47
  3
ACAD_SECTIONVIEWSTYLE
350
21F
  3
ACAD_TABLESTYLE
350
69
  3
ACAD_VISUALSTYLE
350
2A
  3
ACDB_RECOMPOSE_DATA
350
21B
  3
AcDbVariableDictionary
350
217
  0
SUN
  5
6D
330
29
100
AcDbSun
 90
        1
290
     0
 63
     7
421
 16777215
 40
1.0
291
     1
 91
  2455826
 92
 54000000
292
     0
 70
     2
 71
   256
280
     1
  0
DICTIONARY
  5
21E
102
{ACAD_REACTORS
330
C
102
}
330
C
100
AcDbDictionary
281
     1
  0
DICTIONARY
  5
D
102
{ACAD_REACTORS
330
C
102
}
330
C
100
AcDbDictionary
281
     1
  0
DICTIONARY
  5
1A
102
{ACAD_REACTORS
330
C
102
}
330
C
100
AcDbDictionary
281
     1
  3
Layout1
350
1E
  3
Layout2
350
26
  3
Model
350
22
  0
DICTIONARY
  5
43
102
{ACAD_REACTORS
330
C
102
}
330
C
100
AcDbDictionary
281
     1
  3
ByBlock
350
45
  3
ByLayer
350
44
  3
Global
350
46
  0
DICTIONARY
  5
6B
102
{ACAD_REACTORS
330
C
102
}
330
C
100
AcDbDictionary
281
     1
  3
Standard
350
6C
  0
DICTIONARY
  5
17
102
{ACAD_REACTORS
330
C
102
}
330
C
100
AcDbDictionary
281
     1
  3
Standard
350
18
  0
DICTIONARY
  5
19
102
{ACAD_REACTORS
330
C
102
}
330
C
100
AcDbDictionary
281
     1
  0
ACDBDICTIONARYWDFLT
  5
E
102
{ACAD_REACTORS
330
C
102
}
330
C
100
AcDbDictionary
281
     1
  3
Normal
350
F
100
AcDbDictionaryWithDefault
340
F
  0
DICTIONARY
  5
47
102
{ACAD_REACTORS
330
C
102
}
330
C
100
AcDbDictionary
281
     1
  3
A0
350
48
  3
A1
350
49
  3
A2
350
4A
  3
A3
350
4B
  3
A4
350
4C
  3
A5
350
4D
  3
A6
350
4E
  3
A7
350
4F
  3
A8
350
50
  3
A9
350
51
  3
B0
350
52
  3
B1
350
53
  3
B2
350
54
  3
B3
350
55
  3
B4
350
56
  3
B5
350
57
  3
B6
350
58
  3
B7
350
59
  3
B8
350
5A
  3
B9
350
5B
  3
C0
350
5C
  3
C1
350
5D
  3
C2
350
5E
  3
C3
350
5F
  3
C4
350
60
  3
C5
350
61
  3
C6
350
62
  3
C7
350
63
  3
C8
350
64
  3
C9
350
65
  3
D0
350
66
  3
D1
350
67
  3
D2
350
68
  0
DICTIONARY
  5
21F
102
{ACAD_REACTORS
330
C
102
}
330
C
100
AcDbDictionary
281
     1
  0
DICTIONARY
  5
69
102
{ACAD_REACTORS
330
C
102
}
330
C
100
AcDbDictionary
281
     1
  3
Standard
350
6A
  0
DICTIONARY
  5
2A
102
{ACAD_REACTORS
330
C
102
}
330
C
100
AcDbDictionary
281
     1
  3
2dWireframe
350
2F
  3
Basic
350
32
  3
Brighten
350
36
  3
ColorChange
350
3A
  3
Conceptual
350
34
  3
Dim
350
35
  3
EdgeColorOff
350
3D
  3
Facepattern
350
39
  3
Flat
350
2B
  3
FlatWithEdges
350
2C
  3
Gouraud
350
2D
  3
GouraudWithEdges
350
2E
  3
Hidden
350
31
  3
JitterOff
350
3B
  3
Linepattern
350
38
  3
OverhangOff
350
3C
  3
Realistic
350
33
  3
Shaded
350
42
  3
Shaded with edges
350
41
  3
Shades of Gray
350
3E
  3
Sketchy
350
3F
  3
Thicken
350
37
  3
Wireframe
350
30
  3
X-Ray
350
40
  0
XRECORD
  5
21B
102
{ACAD_REACTORS
330
C
102
}
330
C
100
AcDbXrecord
280
     1
 90
        1
330
6A
  0
DICTIONARY
  5
217
102
{ACAD_REACTORS
330
C
102
}
330
C
100
AcDbDictionary
281
     1
  3
CANNOSCALE
350
218
  3
CMLEADERSTYLE
350
21D
  3
CTABLESTYLE
350
21C
  3
SECTIONTHICKNESSINC
350
220
  0
LAYOUT
  5
1E
102
{ACAD_REACTORS
330
1A
102
}
330
1A
100
AcDbPlotSettings
  1

  2
none_device
  4

  6

 40
0.0
 41
0.0
 42
0.0
 43
0.0
 44
0.0
 45
0.0
 46
0.0
 47
0.0
 48
0.0
 49
0.0
140
0.0
141
0.0
142
1.0
143
1.0
 70
   688
 72
     1
 73
     0
 74
     5
  7

 75
    16
 76
     0
 77
     2
 78
   300
147
1.0
148
0.0
149
0.0
100
AcDbLayout
  1
Layout1
 70
     1
 71
     1
 10
0.0
 20
0.0
 11
420.0
 21
297.0
 12
0.0
 22
0.0
 32
0.0
 14
1.0000000000E+20
 24
1.0000000000E+20
 34
1.0000000000E+20
 15
-1.0000000000E+20
 25
-1.0000000000E+20
 35
-1.0000000000E+20
146
0.0
 13
0.0
 23
0.0
 33
0.0
 16
1.0
 26
0.0
 36
0.0
 17
0.0
 27
1.0
 37
0.0
 76
     0
330
1B
  0
LAYOUT
  5
26
102
{ACAD_REACTORS
330
1A
102
}
330
1A
100
AcDbPlotSettings
  1

  2
none_device
  4

  6

 40
0.0
 41
0.0
 42
0.0
 43
0.0
 44
0.0
 45
0.0
 46
0.0
 47
0.0
 48
0.0
 49
0.0
140
0.0
141
0.0
142
1.0
143
1.0
 70
   688
 72
     1
 73
     0
 74
     5
  7

 75
    16
 76
     0
 77
     2
 78
   300
147
1.0
148
0.0
149
0.0
100
AcDbLayout
  1
Layout2
 70
     1
 71
     2
 10
0.0
 20
0.0
 11
0.0
 21
0.0
 12
0.0
 22
0.0
 32
0.0
 14
0.0
 24
0.0
 34
0.0
 15
0.0
 25
0.0
 35
0.0
146
0.0
 13
0.0
 23
0.0
 33
0.0
 16
1.0
 26
0.0
 36
0.0
 17
0.0
 27
1.0
 37
0.0
 76
     0
330
23
  0
LAYOUT
  5
22
102
{ACAD_REACTORS
330
1A
102
}
330
1A
100
AcDbPlotSettings
  1

  2
none_device
  4
Letter_(8.50_x_11.00_Inches)
  6

 40
6.35
 41
6.35
 42
6.35000508
 43
6.35000508
 44
215.9
 45
279.4
 46
0.0
 47
0.0
 48
0.0
 49
0.0
140
0.0
141
0.0
142
1.0
143
1.0
 70
  1712
 72
     1
 73
     0
 74
     0
  7

 75
     0
 76
     0
 77
     2
 78
   300
147
1.0
148
0.0
149
0.0
100
AcDbLayout
  1
Model
 70
     1
 71
     0
 10
0.0
 20
0.0
 11
840.0
 21
594.0
 12
0.0
 22
0.0
 32
0.0
 14
0.0
 24
0.0
 34
0.0
 15
840.0
 25
594.0
 35
0.0
146
0.0
 13
0.0
 23
0.0
 33
0.0
 16
1.0
 26
0.0
 36
0.0
 17
0.0
 27
1.0
 37
0.0
 76
     0
330
1F
331
29
  0
MATERIAL
  5
45
102
{ACAD_REACTORS
330
43
102
}
330
43
100
AcDbMaterial
  1
ByBlock
 72
     1
 94
      127
  0
MATERIAL
  5
44
102
{ACAD_REACTORS
330
43
102
}
330
43
100
AcDbMaterial
  1
ByLayer
 72
     1
 94
      127
  0
MATERIAL
  5
46
102
{ACAD_REACTORS
330
43
102
}
330
43
100
AcDbMaterial
  1
Global
 72
     1
 94
      127
  0
MLEADERSTYLE
  5
6C
102
{ACAD_REACTORS
330
6B
102
}
330
6B
100
AcDbMLeaderStyle
179
     2
170
     2
171
     1
172
     0
 90
        2
 40
0.0
 41
0.0
173
     1
 91
-1056964608
340
14
 92
       -2
290
     1
 42
2.0
291
     1
 43
8.0
  3
Standard
341
0
 44
4.0
300

342
11
174
     1
178
     6
175
     1
176
     0
 93
-1056964608
 45
4.0
292
     0
297
     0
 46
4.0
343
0
 94
-1056964608
 47
1.0
 49
1.0
140
1.0
293
     1
141
0.0
294
     1
177
     0
142
1.0
295
     0
296
     0
143
3.75
271
     0
272
     9
273
     9
298
     0
  0
MLINESTYLE
  5
18
102
{ACAD_REACTORS
330
17
102
}
330
17
100
AcDbMlineStyle
  2
Standard
 70
     0
  3

 62
   256
 51
90.0
 52
90.0
 71
     2
 49
0.5
 62
   256
  6
BYLAYER
 49
-0.5
 62
   256
  6
BYLAYER
  0
ACDBPLACEHOLDER
  5
F
102
{ACAD_REACTORS
330
E
102
}
330
E
  0
SCALE
  5
48
102
{ACAD_REACTORS
330
47
102
}
330
47
100
AcDbScale
 70
     0
300
1:1
140
1.0
141
1.0
290
     1
  0
SCALE
  5
49
102
{ACAD_REACTORS
330
47
102
}
330
47
100
AcDbScale
 70
     0
300
1:2
140
1.0
141
2.0
290
     0
  0
SCALE
  5
4A
102
{ACAD_REACTORS
330
47
102
}
330
47
100
AcDbScale
 70
     0
300
1:4
140
1.0
141
4.0
290
     0
  0
SCALE
  5
4B
102
{ACAD_REACTORS
330
47
102
}
330
47
100
AcDbScale
 70
     0
300
1:5
140
1.0
141
5.0
290
     0
  0
SCALE
  5
4C
102
{ACAD_REACTORS
330
47
102
}
330
47
100
AcDbScale
 70
     0
300
1:8
140
1.0
141
8.0
290
     0
  0
SCALE
  5
4D
102
{ACAD_REACTORS
330
47
102
}
330
47
100
AcDbScale
 70
     0
300
1:10
140
1.0
141
10.0
290
     0
  0
SCALE
  5
4E
102
{ACAD_REACTORS
330
47
102
}
330
47
100
AcDbScale
 70
     0
300
1:16
140
1.0
141
16.0
290
     0
  0
SCALE
  5
4F
102
{ACAD_REACTORS
330
47
102
}
330
47
100
AcDbScale
 70
     0
300
1:20
140
1.0
141
20.0
290
     0
  0
SCALE
  5
50
102
{ACAD_REACTORS
330
47
102
}
330
47
100
AcDbScale
 70
     0
300
1:30
140
1.0
141
30.0
290
     0
  0
SCALE
  5
51
102
{ACAD_REACTORS
330
47
102
}
330
47
100
AcDbScale
 70
     0
300
1:40
140
1.0
141
40.0
290
     0
  0
SCALE
  5
52
102
{ACAD_REACTORS
330
47
102
}
330
47
100
AcDbScale
 70
     0
300
1:50
140
1.0
141
50.0
290
     0
  0
SCALE
  5
53
102
{ACAD_REACTORS
330
47
102
}
330
47
100
AcDbScale
 70
     0
300
1:100
140
1.0
141
100.0
290
     0
  0
SCALE
  5
54
102
{ACAD_REACTORS
330
47
102
}
330
47
100
AcDbScale
 70
     0
300
2:1
140
2.0
141
1.0
290
     0
  0
SCALE
  5
55
102
{ACAD_REACTORS
330
47
102
}
330
47
100
AcDbScale
 70
     0
300
4:1
140
4.0
141
1.0
290
     0
  0
SCALE
  5
56
102
{ACAD_REACTORS
330
47
102
}
330
47
100
AcDbScale
 70
     0
300
8:1
140
8.0
141
1.0
290
     0
  0
SCALE
  5
57
102
{ACAD_REACTORS
330
47
102
}
330
47
100
AcDbScale
 70
     0
300
10:1
140
10.0
141
1.0
290
     0
  0
SCALE
  5
58
102
{ACAD_REACTORS
330
47
102
}
330
47
100
AcDbScale
 70
     0
300
100:1
140
100.0
141
1.0
290
     0
  0
SCALE
  5
59
102
{ACAD_REACTORS
330
47
102
}
330
47
100
AcDbScale
 70
     0
300
1/128" = 1'-0"
140
0.0078125
141
12.0
290
     0
  0
SCALE
  5
5A
102
{ACAD_REACTORS
330
47
102
}
330
47
100
AcDbScale
 70
     0
300
1/64" = 1'-0"
140
0.015625
141
12.0
290
     0
  0
SCALE
  5
5B
102
{ACAD_REACTORS
330
47
102
}
330
47
100
AcDbScale
 70
     0
300
1/32" = 1'-0"
140
0.03125
141
12.0
290
     0
  0
SCALE
  5
5C
102
{ACAD_REACTORS
330
47
102
}
330
47
100
AcDbScale
 70
     0
300
1/16" = 1'-0"
140
0.0625
141
12.0
290
     0
  0
SCALE
  5
5D
102
{ACAD_REACTORS
330
47
102
}
330
47
100
AcDbScale
 70
     0
300
3/32" = 1'-0"
140
0.09375
141
12.0
290
     0
  0
SCALE
  5
5E
102
{ACAD_REACTORS
330
47
102
}
330
47
100
AcDbScale
 70
     0
300
1/8" = 1'-0"
140
0.125
141
12.0
290
     0
  0
SCALE
  5
5F
102
{ACAD_REACTORS
330
47
102
}
330
47
100
AcDbScale
 70
     0
300
3/16" = 1'-0"
140
0.1875
141
12.0
290
     0
  0
SCALE
  5
60
102
{ACAD_REACTORS
330
47
102
}
330
47
100
AcDbScale
 70
     0
300
1/4" = 1'-0"
140
0.25
141
12.0
290
     0
  0
SCALE
  5
61
102
{ACAD_REACTORS
330
47
102
}
330
47
100
AcDbScale
 70
     0
300
3/8" = 1'-0"
140
0.375
141
12.0
290
     0
  0
SCALE
  5
62
102
{ACAD_REACTORS
330
47
102
}
330
47
100
AcDbScale
 70
     0
300
1/2" = 1'-0"
140
0.5
141
12.0
290
     0
  0
SCALE
  5
63
102
{ACAD_REACTORS
330
47
102
}
330
47
100
AcDbScale
 70
     0
300
3/4" = 1'-0"
140
0.75
141
12.0
290
     0
  0
SCALE
  5
64
102
{ACAD_REACTORS
330
47
102
}
330
47
100
AcDbScale
 70
     0
300
1" = 1'-0"
140
1.0
141
12.0
290
     0
  0
SCALE
  5
65
102
{ACAD_REACTORS
330
47
102
}
330
47
100
AcDbScale
 70
     0
300
1-1/2" = 1'-0"
140
1.5
141
12.0
290
     0
  0
SCALE
  5
66
102
{ACAD_REACTORS
330
47
102
}
330
47
100
AcDbScale
 70
     0
300
3" = 1'-0"
140
3.0
141
12.0
290
     0
  0
SCALE
  5
67
102
{ACAD_REACTORS
330
47
102
}
330
47
100
AcDbScale
 70
     0
300
6" = 1'-0"
140
6.0
141
12.0
290
     0
  0
SCALE
  5
68
102
{ACAD_REACTORS
330
47
102
}
330
47
100
AcDbScale
 70
     0
300
1'-0" = 1'-0"
140
12.0
141
12.0
290
     0
  0
TABLESTYLE
  5
6A
102
{ACAD_REACTORS
330
69
102
}
102
{ACAD_XDICTIONARY
360
219
102
}
330
69
100
AcDbTableStyle
  3
Standard
 70
     0
 71
     0
 40
0.06
 41
0.06
280
     0
281
     0
  7
Standard
140
4.5
170
     2
 62
     0
 63
   257
283
     0
 90
        4
 91
        0
  1

274
    -2
284
     1
 64
     0
275
    -2
285
     1
 65
     0
276
    -2
286
     1
 66
     0
277
    -2
287
     1
 67
     0
278
    -2
288
     1
 68
     0
279
    -2
289
     1
 69
     0
  7
Standard
140
6.0
170
     5
 62
     0
 63
   257
283
     0
 90
        4
 91
        0
  1

274
    -2
284
     1
 64
     0
275
    -2
285
     1
 65
     0
276
    -2
286
     1
 66
     0
277
    -2
287
     1
 67
     0
278
    -2
288
     1
 68
     0
279
    -2
289
     1
 69
     0
  7
Standard
140
4.5
170
     5
 62
     0
 63
   257
283
     0
 90
        4
 91
        0
  1

274
    -2
284
     1
 64
     0
275
    -2
285
     1
 65
     0
276
    -2
286
     1
 66
     0
277
    -2
287
     1
 67
     0
278
    -2
288
     1
 68
     0
279
    -2
289
     1
 69
     0
  0
VISUALSTYLE
  5
2F
102
{ACAD_REACTORS
330
2A
102
}
330
2A
100
AcDbVisualStyle
  2
2dWireframe
 70
     4
177
     3
291
     0
 70
    58
 90
        0
176
     1
 90
        2
176
     1
 90
        0
176
     1
 90
        0
176
     1
 40
0.6
176
     1
 40
30.0
176
     1
 62
     7
420
 16777215
176
     1
 90
        1
176
     1
 90
        4
176
     1
 62
     7
176
     1
 62
   257
176
     1
 90
        1
176
     1
 90
        1
176
     1
 40
1.0
176
     1
 90
        0
176
     1
 62
   257
176
     1
 40
1.0
176
     1
 90
        1
176
     1
 90
        6
176
     1
 90
        2
176
     1
 62
     7
176
     1
 90
        5
176
     1
 90
        0
176
     1
 90
        0
176
     1
290
     0
176
     1
 90
        1
176
     1
 40
0.0
176
     1
 90
        0
176
     1
290
     1
176
     1
290
     1
176
     1
290
     0
176
     1
290
     0
176
     1
290
     0
176
     1
290
     0
176
     1
290
     0
176
     1
290
     0
176
     1
290
     0
176
     1
 90
       50
176
     1
 40
0.0
176
     1
 40
1.0
176
     1
 90
        0
176
     1
 62
    18
420
        0
176
     1
 90
       50
176
     1
 90
        3
176
     1
 62
     5
420
      255
176
     1
290
     0
176
     1
 90
       50
176
     1
 90
       50
176
     1
 90
       50
176
     1
290
     0
176
     1
 90
       50
176
     1
 62
   256
176
     0
 40
1.0
176
     0
 90
        2
176
     1
  1
strokes_ogs.tif
176
     1
290
     0
176
     1
 40
1.0
176
     1
 40
1.0
176
     1
  0
VISUALSTYLE
  5
32
102
{ACAD_REACTORS
330
2A
102
}
330
2A
100
AcDbVisualStyle
  2
Basic
 70
     7
177
     3
291
     1
 70
    58
 90
        1
176
     1
 90
        0
176
     1
 90
        1
176
     1
 90
        0
176
     1
 40
0.6
176
     1
 40
30.0
176
     1
 62
     7
420
 16777215
176
     1
 90
        0
176
     1
 90
        4
176
     1
 62
     7
176
     1
 62
   257
176
     1
 90
        1
176
     1
 90
        1
176
     1
 40
1.0
176
     1
 90
        8
176
     1
 62
     7
176
     1
 40
1.0
176
     1
 90
        1
176
     1
 90
        6
176
     1
 90
        2
176
     1
 62
     7
176
     1
 90
        5
176
     1
 90
        0
176
     1
 90
        0
176
     1
290
     0
176
     1
 90
        1
176
     1
 40
0.0
176
     1
 90
        0
176
     1
290
     0
176
     1
290
     1
176
     1
290
     1
176
     1
290
     0
176
     1
290
     0
176
     1
290
     0
176
     1
290
     0
176
     1
290
     0
176
     1
290
     0
176
     1
 90
       50
176
     1
 40
0.0
176
     1
 40
1.0
176
     1
 90
        0
176
     1
 62
    18
420
        0
176
     1
 90
       50
176
     1
 90
        3
176
     1
 62
     5
420
      255
176
     1
290
     0
176
     1
 90
       50
176
     1
 90
       50
176
     1
 90
       50
176
     1
290
     0
176
     1
 90
       50
176
     1
 62
   256
176
     0
 40
1.0
176
     0
 90
        2
176
     1
  1
strokes_ogs.tif
176
     1
290
     0
176
     1
 40
1.0
176
     1
 40
1.0
176
     1
  0
VISUALSTYLE
  5
36
102
{ACAD_REACTORS
330
2A
102
}
330
2A
100
AcDbVisualStyle
  2
Brighten
 70
    12
177
     3
291
     1
 70
    58
 90
        2
176
     1
 90
        2
176
     1
 90
        0
176
     1
 90
        0
176
     1
 40
0.6
176
     1
 40
30.0
176
     1
 62
     7
420
 16777215
176
     1
 90
        1
176
     1
 90
        4
176
     1
 62
     7
176
     1
 62
   257
176
     1
 90
        1
176
     1
 90
        1
176
     1
 40
1.0
176
     1
 90
        8
176
     1
 62
     7
176
     1
 40
1.0
176
     1
 90
        1
176
     1
 90
        6
176
     1
 90
        2
176
     1
 62
     7
176
     1
 90
        5
176
     1
 90
        0
176
     1
 90
        0
176
     1
290
     0
176
     1
 90
        1
176
     1
 40
50.0
176
     1
 90
        0
176
     1
290
     0
176
     1
290
     1
176
     1
290
     1
176
     1
290
     0
176
     1
290
     0
176
     1
290
     0
176
     1
290
     0
176
     1
290
     0
176
     1
290
     0
176
     1
 90
       50
176
     1
 40
0.0
176
     1
 40
1.0
176
     1
 90
        0
176
     1
 62
    18
420
        0
176
     1
 90
       50
176
     1
 90
        3
176
     1
 62
     5
420
      255
176
     1
290
     0
176
     1
 90
       50
176
     1
 90
       50
176
     1
 90
       50
176
     1
290
     0
176
     1
 90
       50
176
     1
 62
   256
176
     0
 40
1.0
176
     0
 90
        2
176
     1
  1
strokes_ogs.tif
176
     1
290
     0
176
     1
 40
1.0
176
     1
 40
1.0
176
     1
  0
VISUALSTYLE
  5
3A
102
{ACAD_REACTORS
330
2A
102
}
330
2A
100
AcDbVisualStyle
  2
ColorChange
 70
    16
177
     3
291
     1
 70
    58
 90
        2
176
     1
 90
        2
176
     1
 90
        3
176
     1
 90
        0
176
     1
 40
0.6
176
     1
 40
30.0
176
     1
 62
     8
420
  8421504
176
     1
 90
        1
176
     1
 90
        4
176
     1
 62
     7
176
     1
 62
   257
176
     1
 90
        1
176
     1
 90
        1
176
     1
 40
1.0
176
     1
 90
        8
176
     1
 62
     8
420
  8421504
176
     1
 40
1.0
176
     1
 90
        1
176
     1
 90
        6
176
     1
 90
        2
176
     1
 62
     7
176
     1
 90
        5
176
     1
 90
        0
176
     1
 90
        0
176
     1
290
     0
176
     1
 90
        1
176
     1
 40
0.0
176
     1
 90
        0
176
     1
290
     0
176
     1
290
     1
176
     1
290
     1
176
     1
290
     0
176
     1
290
     0
176
     1
290
     0
176
     1
290
     0
176
     1
290
     0
176
     1
290
     0
176
     1
 90
       50
176
     1
 40
0.0
176
     1
 40
1.0
176
     1
 90
        0
176
     1
 62
    18
420
        0
176
     1
 90
       50
176
     1
 90
        3
176
     1
 62
     5
420
      255
176
     1
290
     0
176
     1
 90
       50
176
     1
 90
       50
176
     1
 90
       50
176
     1
290
     0
176
     1
 90
       50
176
     1
 62
   256
176
     0
 40
1.0
176
     0
 90
        2
176
     1
  1
strokes_ogs.tif
176
     1
290
     0
176
     1
 40
1.0
176
     1
 40
1.0
176
     1
  0
VISUALSTYLE
  5
34
102
{ACAD_REACTORS
330
2A
102
}
330
2A
100
AcDbVisualStyle
  2
Conceptual
 70
     9
177
     3
291
     0
 70
    58
 90
        3
176
     1
 90
        2
176
     1
 90
        0
176
     1
 90
        0
176
     1
 40
0.6
176
     1
 40
30.0
176
     1
 62
     7
420
 16777215
176
     1
 90
        2
176
     1
 90
        2
176
     1
 62
     7
176
     1
 62
   257
176
     1
 90
        1
176
     1
 90
        1
176
     1
 40
179.0
176
     1
 90
        8
176
     1
 62
     7
176
     1
 40
1.0
176
     1
 90
        1
176
     1
 90
        6
176
     1
 90
        2
176
     1
 62
     7
176
     1
 90
        3
176
     1
 90
        0
176
     1
 90
        0
176
     1
290
     0
176
     1
 90
        1
176
     1
 40
0.0
176
     1
 90
        0
176
     1
290
     0
176
     1
290
     1
176
     1
290
     1
176
     1
290
     0
176
     1
290
     0
176
     1
290
     0
176
     1
290
     0
176
     1
290
     0
176
     1
290
     0
176
     1
 90
       50
176
     1
 40
0.0
176
     1
 40
1.0
176
     1
 90
        0
176
     1
 62
    18
420
        0
176
     1
 90
       50
176
     1
 90
        3
176
     1
 62
     5
420
      255
176
     1
290
     0
176
     1
 90
       50
176
     1
 90
       50
176
     1
 90
       50
176
     1
290
     0
176
     1
 90
       50
176
     1
 62
   256
176
     0
 40
1.0
176
     0
 90
        2
176
     1
  1
strokes_ogs.tif
176
     1
290
     0
176
     1
 40
1.0
176
     1
 40
1.0
176
     1
  0
VISUALSTYLE
  5
35
102
{ACAD_REACTORS
330
2A
102
}
330
2A
100
AcDbVisualStyle
  2
Dim
 70
    11
177
     3
291
     1
 70
    58
 90
        2
176
     1
 90
        2
176
     1
 90
        0
176
     1
 90
        0
176
     1
 40
0.6
176
     1
 40
30.0
176
     1
 62
     7
420
 16777215
176
     1
 90
        1
176
     1
 90
        4
176
     1
 62
     7
176
     1
 62
   257
176
     1
 90
        1
176
     1
 90
        1
176
     1
 40
1.0
176
     1
 90
        8
176
     1
 62
     7
176
     1
 40
1.0
176
     1
 90
        1
176
     1
 90
        6
176
     1
 90
        2
176
     1
 62
     7
176
     1
 90
        5
176
     1
 90
        0
176
     1
 90
        0
176
     1
290
     0
176
     1
 90
        1
176
     1
 40
-50.0
176
     1
 90
        0
176
     1
290
     0
176
     1
290
     1
176
     1
290
     1
176
     1
290
     0
176
     1
290
     0
176
     1
290
     0
176
     1
290
     0
176
     1
290
     0
176
     1
290
     0
176
     1
 90
       50
176
     1
 40
0.0
176
     1
 40
1.0
176
     1
 90
        0
176
     1
 62
    18
420
        0
176
     1
 90
       50
176
     1
 90
        3
176
     1
 62
     5
420
      255
176
     1
290
     0
176
     1
 90
       50
176
     1
 90
       50
176
     1
 90
       50
176
     1
290
     0
176
     1
 90
       50
176
     1
 62
   256
176
     0
 40
1.0
176
     0
 90
        2
176
     1
  1
strokes_ogs.tif
176
     1
290
     0
176
     1
 40
1.0
176
     1
 40
1.0
176
     1
  0
VISUALSTYLE
  5
3D
102
{ACAD_REACTORS
330
2A
102
}
330
2A
100
AcDbVisualStyle
  2
EdgeColorOff
 70
    22
177
     3
291
     1
 70
    58
 90
        2
176
     0
 90
        2
176
     0
 90
        0
176
     0
 90
        0
176
     0
 40
0.6
176
     0
 40
30.0
176
     0
 62
     7
420
 16777215
176
     0
 90
        1
176
     0
 90
        4
176
     0
 62
     7
176
     0
 62
   257
176
     0
 90
        1
176
     0
 90
        1
176
     0
 40
1.0
176
     0
 90
        8
176
     2
 62
     7
176
     0
 40
1.0
176
     0
 90
        1
176
     0
 90
        6
176
     0
 90
        2
176
     0
 62
     7
176
     0
 90
        5
176
     0
 90
        0
176
     0
 90
        0
176
     0
290
     0
176
     0
 90
        1
176
     0
 40
0.0
176
     0
 90
        0
176
     0
290
     0
176
     0
290
     1
176
     0
290
     1
176
     0
290
     0
176
     0
290
     0
176
     0
290
     0
176
     0
290
     0
176
     0
290
     0
176
     0
290
     0
176
     0
 90
       50
176
     0
 40
0.0
176
     0
 40
1.0
176
     0
 90
        0
176
     0
 62
    18
420
        0
176
     0
 90
       50
176
     0
 90
        3
176
     0
 62
     5
420
      255
176
     0
290
     0
176
     0
 90
       50
176
     0
 90
       50
176
     0
 90
       50
176
     0
290
     0
176
     0
 90
       50
176
     0
 62
   256
176
     0
 40
1.0
176
     0
 90
        2
176
     0
  1
strokes_ogs.tif
176
     0
290
     0
176
     0
 40
1.0
176
     0
 40
1.0
176
     0
  0
VISUALSTYLE
  5
39
102
{ACAD_REACTORS
330
2A
102
}
330
2A
100
AcDbVisualStyle
  2
Facepattern
 70
    15
177
     3
291
     1
 70
    58
 90
        2
176
     1
 90
        2
176
     1
 90
        0
176
     1
 90
        0
176
     1
 40
0.6
176
     1
 40
30.0
176
     1
 62
     7
420
 16777215
176
     1
 90
        1
176
     1
 90
        4
176
     1
 62
     7
176
     1
 62
   257
176
     1
 90
        1
176
     1
 90
        1
176
     1
 40
1.0
176
     1
 90
        8
176
     1
 62
     7
176
     1
 40
1.0
176
     1
 90
        1
176
     1
 90
        6
176
     1
 90
        2
176
     1
 62
     7
176
     1
 90
        5
176
     1
 90
        0
176
     1
 90
        0
176
     1
290
     0
176
     1
 90
        1
176
     1
 40
0.0
176
     1
 90
        0
176
     1
290
     0
176
     1
290
     1
176
     1
290
     1
176
     1
290
     0
176
     1
290
     0
176
     1
290
     0
176
     1
290
     0
176
     1
290
     0
176
     1
290
     0
176
     1
 90
       50
176
     1
 40
0.0
176
     1
 40
1.0
176
     1
 90
        0
176
     1
 62
    18
420
        0
176
     1
 90
       50
176
     1
 90
        3
176
     1
 62
     5
420
      255
176
     1
290
     0
176
     1
 90
       50
176
     1
 90
       50
176
     1
 90
       50
176
     1
290
     0
176
     1
 90
       50
176
     1
 62
   256
176
     0
 40
1.0
176
     0
 90
        2
176
     1
  1
strokes_ogs.tif
176
     1
290
     0
176
     1
 40
1.0
176
     1
 40
1.0
176
     1
  0
VISUALSTYLE
  5
2B
102
{ACAD_REACTORS
330
2A
102
}
330
2A
100
AcDbVisualStyle
  2
Flat
 70
     0
177
     3
291
     1
 70
    58
 90
        2
176
     1
 90
        1
176
     1
 90
        1
176
     1
 90
        2
176
     1
 40
0.6
176
     1
 40
30.0
176
     1
 62
     7
420
 16777215
176
     1
 90
        0
176
     1
 90
        0
176
     1
 62
     7
176
     1
 62
   257
176
     1
 90
        1
176
     1
 90
        1
176
     1
 40
1.0
176
     1
 90
        8
176
     1
 62
     7
176
     1
 40
1.0
176
     1
 90
        1
176
     1
 90
        6
176
     1
 90
        2
176
     1
 62
     7
176
     1
 90
        5
176
     1
 90
        0
176
     1
 90
        0
176
     1
290
     0
176
     1
 90
       13
176
     1
 40
0.0
176
     1
 90
        0
176
     1
290
     0
176
     1
290
     1
176
     1
290
     1
176
     1
290
     0
176
     1
290
     0
176
     1
290
     0
176
     1
290
     0
176
     1
290
     0
176
     1
290
     0
176
     1
 90
       50
176
     1
 40
0.0
176
     1
 40
1.0
176
     1
 90
        0
176
     1
 62
    18
420
        0
176
     1
 90
       50
176
     1
 90
        3
176
     1
 62
     5
420
      255
176
     1
290
     0
176
     1
 90
       50
176
     1
 90
       50
176
     1
 90
       50
176
     1
290
     0
176
     1
 90
       50
176
     1
 62
   256
176
     0
 40
1.0
176
     0
 90
        2
176
     1
  1
strokes_ogs.tif
176
     1
290
     0
176
     1
 40
1.0
176
     1
 40
1.0
176
     1
  0
VISUALSTYLE
  5
2C
102
{ACAD_REACTORS
330
2A
102
}
330
2A
100
AcDbVisualStyle
  2
FlatWithEdges
 70
     1
177
     3
291
     1
 70
    58
 90
        2
176
     1
 90
        1
176
     1
 90
        1
176
     1
 90
        2
176
     1
 40
0.6
176
     1
 40
30.0
176
     1
 62
     7
420
 16777215
176
     1
 90
        1
176
     1
 90
        0
176
     1
 62
     7
176
     1
 62
   257
176
     1
 90
        1
176
     1
 90
        1
176
     1
 40
1.0
176
     1
 90
        0
176
     1
 62
   257
176
     1
 40
1.0
176
     1
 90
        1
176
     1
 90
        6
176
     1
 90
        2
176
     1
 62
     7
176
     1
 90
        5
176
     1
 90
        0
176
     1
 90
        0
176
     1
290
     0
176
     1
 90
       13
176
     1
 40
0.0
176
     1
 90
        0
176
     1
290
     0
176
     1
290
     1
176
     1
290
     1
176
     1
290
     0
176
     1
290
     0
176
     1
290
     0
176
     1
290
     0
176
     1
290
     0
176
     1
290
     0
176
     1
 90
       50
176
     1
 40
0.0
176
     1
 40
1.0
176
     1
 90
        0
176
     1
 62
    18
420
        0
176
     1
 90
       50
176
     1
 90
        3
176
     1
 62
     5
420
      255
176
     1
290
     0
176
     1
 90
       50
176
     1
 90
       50
176
     1
 90
       50
176
     1
290
     0
176
     1
 90
       50
176
     1
 62
   256
176
     0
 40
1.0
176
     0
 90
        2
176
     1
  1
strokes_ogs.tif
176
     1
290
     0
176
     1
 40
1.0
176
     1
 40
1.0
176
     1
  0
VISUALSTYLE
  5
2D
102
{ACAD_REACTORS
330
2A
102
}
330
2A
100
AcDbVisualStyle
  2
Gouraud
 70
     2
177
     3
291
     1
 70
    58
 90
        2
176
     1
 90
        2
176
     1
 90
        1
176
     1
 90
        2
176
     1
 40
0.6
176
     1
 40
30.0
176
     1
 62
     7
420
 16777215
176
     1
 90
        0
176
     1
 90
        0
176
     1
 62
     7
176
     1
 62
   257
176
     1
 90
        1
176
     1
 90
        1
176
     1
 40
1.0
176
     1
 90
        0
176
     1
 62
     7
176
     1
 40
1.0
176
     1
 90
        1
176
     1
 90
        6
176
     1
 90
        2
176
     1
 62
     7
176
     1
 90
        5
176
     1
 90
        0
176
     1
 90
        0
176
     1
290
     0
176
     1
 90
       13
176
     1
 40
0.0
176
     1
 90
        0
176
     1
290
     0
176
     1
290
     1
176
     1
290
     1
176
     1
290
     0
176
     1
290
     0
176
     1
290
     0
176
     1
290
     0
176
     1
290
     0
176
     1
290
     0
176
     1
 90
       50
176
     1
 40
0.0
176
     1
 40
1.0
176
     1
 90
        0
176
     1
 62
    18
420
        0
176
     1
 90
       50
176
     1
 90
        3
176
     1
 62
     5
420
      255
176
     1
290
     0
176
     1
 90
       50
176
     1
 90
       50
176
     1
 90
       50
176
     1
290
     0
176
     1
 90
       50
176
     1
 62
   256
176
     0
 40
1.0
176
     0
 90
        2
176
     1
  1
strokes_ogs.tif
176
     1
290
     0
176
     1
 40
1.0
176
     1
 40
1.0
176
     1
  0
VISUALSTYLE
  5
2E
102
{ACAD_REACTORS
330
2A
102
}
330
2A
100
AcDbVisualStyle
  2
GouraudWithEdges
 70
     3
177
     3
291
     1
 70
    58
 90
        2
176
     1
 90
        2
176
     1
 90
        1
176
     1
 90
        2
176
     1
 40
0.6
176
     1
 40
30.0
176
     1
 62
     7
420
 16777215
176
     1
 90
        1
176
     1
 90
        0
176
     1
 62
     7
176
     1
 62
   257
176
     1
 90
        1
176
     1
 90
        1
176
     1
 40
1.0
176
     1
 90
        0
176
     1
 62
   257
176
     1
 40
1.0
176
     1
 90
        1
176
     1
 90
        6
176
     1
 90
        2
176
     1
 62
     7
176
     1
 90
        5
176
     1
 90
        0
176
     1
 90
        0
176
     1
290
     0
176
     1
 90
       13
176
     1
 40
0.0
176
     1
 90
        0
176
     1
290
     0
176
     1
290
     1
176
     1
290
     1
176
     1
290
     0
176
     1
290
     0
176
     1
290
     0
176
     1
290
     0
176
     1
290
     0
176
     1
290
     0
176
     1
 90
       50
176
     1
 40
0.0
176
     1
 40
1.0
176
     1
 90
        0
176
     1
 62
    18
420
        0
176
     1
 90
       50
176
     1
 90
        3
176
     1
 62
     5
420
      255
176
     1
290
     0
176
     1
 90
       50
176
     1
 90
       50
176
     1
 90
       50
176
     1
290
     0
176
     1
 90
       50
176
     1
 62
   256
176
     0
 40
1.0
176
     0
 90
        2
176
     1
  1
strokes_ogs.tif
176
     1
290
     0
176
     1
 40
1.0
176
     1
 40
1.0
176
     1
  0
VISUALSTYLE
  5
31
102
{ACAD_REACTORS
330
2A
102
}
330
2A
100
AcDbVisualStyle
  2
Hidden
 70
     6
177
     3
291
     0
 70
    58
 90
        1
176
     1
 90
        2
176
     1
 90
        2
176
     1
 90
        0
176
     1
 40
0.6
176
     1
 40
30.0
176
     1
 62
     7
420
 16777215
176
     1
 90
        2
176
     1
 90
        2
176
     1
 62
     7
176
     1
 62
   257
176
     1
 90
        2
176
     1
 90
        1
176
     1
 40
40.0
176
     1
 90
        0
176
     1
 62
   257
176
     1
 40
1.0
176
     1
 90
        1
176
     1
 90
        6
176
     1
 90
        2
176
     1
 62
     7
176
     1
 90
        3
176
     1
 90
        0
176
     1
 90
        0
176
     1
290
     0
176
     1
 90
        1
176
     1
 40
0.0
176
     1
 90
        0
176
     1
290
     0
176
     1
290
     1
176
     1
290
     1
176
     1
290
     0
176
     1
290
     0
176
     1
290
     0
176
     1
290
     0
176
     1
290
     0
176
     1
290
     0
176
     1
 90
       50
176
     1
 40
0.0
176
     1
 40
1.0
176
     1
 90
        0
176
     1
 62
    18
420
        0
176
     1
 90
       50
176
     1
 90
        3
176
     1
 62
     5
420
      255
176
     1
290
     0
176
     1
 90
       50
176
     1
 90
       50
176
     1
 90
       50
176
     1
290
     0
176
     1
 90
       50
176
     1
 62
   256
176
     0
 40
1.0
176
     0
 90
        2
176
     1
  1
strokes_ogs.tif
176
     1
290
     0
176
     1
 40
1.0
176
     1
 40
1.0
176
     1
  0
VISUALSTYLE
  5
3B
102
{ACAD_REACTORS
330
2A
102
}
330
2A
100
AcDbVisualStyle
  2
JitterOff
 70
    20
177
     3
291
     1
 70
    58
 90
        2
176
     0
 90
        2
176
     0
 90
        0
176
     0
 90
        0
176
     0
 40
0.6
176
     0
 40
30.0
176
     0
 62
     7
420
 16777215
176
     0
 90
        1
176
     0
 90
        4
176
     0
 62
     7
176
     0
 62
   257
176
     0
 90
        1
176
     0
 90
        1
176
     0
 40
1.0
176
     0
 90
       10
176
     2
 62
     7
176
     0
 40
1.0
176
     0
 90
        1
176
     0
 90
        6
176
     0
 90
        2
176
     0
 62
     7
176
     0
 90
        5
176
     0
 90
        0
176
     0
 90
        0
176
     0
290
     0
176
     0
 90
        1
176
     0
 40
0.0
176
     0
 90
        0
176
     0
290
     0
176
     0
290
     1
176
     0
290
     1
176
     0
290
     0
176
     0
290
     0
176
     0
290
     0
176
     0
290
     0
176
     0
290
     0
176
     0
290
     0
176
     0
 90
       50
176
     0
 40
0.0
176
     0
 40
1.0
176
     0
 90
        0
176
     0
 62
    18
420
        0
176
     0
 90
       50
176
     0
 90
        3
176
     0
 62
     5
420
      255
176
     0
290
     0
176
     0
 90
       50
176
     0
 90
       50
176
     0
 90
       50
176
     0
290
     0
176
     0
 90
       50
176
     0
 62
   256
176
     0
 40
1.0
176
     0
 90
        2
176
     0
  1
strokes_ogs.tif
176
     0
290
     0
176
     0
 40
1.0
176
     0
 40
1.0
176
     0
  0
VISUALSTYLE
  5
38
102
{ACAD_REACTORS
330
2A
102
}
330
2A
100
AcDbVisualStyle
  2
Linepattern
 70
    14
177
     3
291
     1
 70
    58
 90
        2
176
     1
 90
        2
176
     1
 90
        0
176
     1
 90
        0
176
     1
 40
0.6
176
     1
 40
30.0
176
     1
 62
     7
420
 16777215
176
     1
 90
        1
176
     1
 90
        4
176
     1
 62
     7
176
     1
 62
   257
176
     1
 90
        7
176
     1
 90
        7
176
     1
 40
1.0
176
     1
 90
        8
176
     1
 62
     7
176
     1
 40
1.0
176
     1
 90
        1
176
     1
 90
        6
176
     1
 90
        2
176
     1
 62
     7
176
     1
 90
        5
176
     1
 90
        0
176
     1
 90
        0
176
     1
290
     0
176
     1
 90
        1
176
     1
 40
0.0
176
     1
 90
        0
176
     1
290
     0
176
     1
290
     1
176
     1
290
     1
176
     1
290
     0
176
     1
290
     0
176
     1
290
     0
176
     1
290
     0
176
     1
290
     0
176
     1
290
     0
176
     1
 90
       50
176
     1
 40
0.0
176
     1
 40
1.0
176
     1
 90
        0
176
     1
 62
    18
420
        0
176
     1
 90
       50
176
     1
 90
        3
176
     1
 62
     5
420
      255
176
     1
290
     0
176
     1
 90
       50
176
     1
 90
       50
176
     1
 90
       50
176
     1
290
     0
176
     1
 90
       50
176
     1
 62
   256
176
     0
 40
1.0
176
     0
 90
        2
176
     1
  1
strokes_ogs.tif
176
     1
290
     0
176
     1
 40
1.0
176
     1
 40
1.0
176
     1
  0
VISUALSTYLE
  5
3C
102
{ACAD_REACTORS
330
2A
102
}
330
2A
100
AcDbVisualStyle
  2
OverhangOff
 70
    21
177
     3
291
     1
 70
    58
 90
        2
176
     0
 90
        2
176
     0
 90
        0
176
     0
 90
        0
176
     0
 40
0.6
176
     0
 40
30.0
176
     0
 62
     7
420
 16777215
176
     0
 90
        1
176
     0
 90
        4
176
     0
 62
     7
176
     0
 62
   257
176
     0
 90
        1
176
     0
 90
        1
176
     0
 40
1.0
176
     0
 90
        9
176
     2
 62
     7
176
     0
 40
1.0
176
     0
 90
        1
176
     0
 90
        6
176
     0
 90
        2
176
     0
 62
     7
176
     0
 90
        5
176
     0
 90
        0
176
     0
 90
        0
176
     0
290
     0
176
     0
 90
        1
176
     0
 40
0.0
176
     0
 90
        0
176
     0
290
     0
176
     0
290
     1
176
     0
290
     1
176
     0
290
     0
176
     0
290
     0
176
     0
290
     0
176
     0
290
     0
176
     0
290
     0
176
     0
290
     0
176
     0
 90
       50
176
     0
 40
0.0
176
     0
 40
1.0
176
     0
 90
        0
176
     0
 62
    18
420
        0
176
     0
 90
       50
176
     0
 90
        3
176
     0
 62
     5
420
      255
176
     0
290
     0
176
     0
 90
       50
176
     0
 90
       50
176
     0
 90
       50
176
     0
290
     0
176
     0
 90
       50
176
     0
 62
   256
176
     0
 40
1.0
176
     0
 90
        2
176
     0
  1
strokes_ogs.tif
176
     0
290
     0
176
     0
 40
1.0
176
     0
 40
1.0
176
     0
  0
VISUALSTYLE
  5
33
102
{ACAD_REACTORS
330
2A
102
}
330
2A
100
AcDbVisualStyle
  2
Realistic
 70
     8
177
     3
291
     0
 70
    58
 90
        2
176
     1
 90
        3
176
     1
 90
        0
176
     1
 90
        2
176
     1
 40
0.6
176
     1
 40
30.0
176
     1
 62
     7
420
 16777215
176
     1
 90
        0
176
     1
 90
        0
176
     1
 62
     7
176
     1
 62
   257
176
     1
 90
        1
176
     1
 90
        1
176
     1
 40
1.0
176
     1
 90
        8
176
     1
 62
   257
176
     1
 40
1.0
176
     1
 90
        1
176
     1
 90
        6
176
     1
 90
        2
176
     1
 62
     7
176
     1
 90
        3
176
     1
 90
        0
176
     1
 90
        0
176
     1
290
     0
176
     1
 90
       13
176
     1
 40
0.0
176
     1
 90
        0
176
     1
290
     0
176
     1
290
     1
176
     1
290
     1
176
     1
290
     0
176
     1
290
     0
176
     1
290
     0
176
     1
290
     0
176
     1
290
     0
176
     1
290
     0
176
     1
 90
       50
176
     1
 40
0.0
176
     1
 40
1.0
176
     1
 90
        0
176
     1
 62
    18
420
        0
176
     1
 90
       50
176
     1
 90
        3
176
     1
 62
     5
420
      255
176
     1
290
     0
176
     1
 90
       50
176
     1
 90
       50
176
     1
 90
       50
176
     1
290
     0
176
     1
 90
       50
176
     1
 62
   256
176
     0
 40
1.0
176
     0
 90
        2
176
     1
  1
strokes_ogs.tif
176
     1
290
     0
176
     1
 40
1.0
176
     1
 40
1.0
176
     1
  0
VISUALSTYLE
  5
42
102
{ACAD_REACTORS
330
2A
102
}
330
2A
100
AcDbVisualStyle
  2
Shaded
 70
    27
177
     3
291
     0
 70
    58
 90
        2
176
     1
 90
        2
176
     1
 90
        1
176
     1
 90
        2
176
     1
 40
0.6
176
     1
 40
30.0
176
     1
 62
     7
420
 16777215
176
     1
 90
        0
176
     1
 90
        4
176
     1
 62
     7
176
     1
 62
   257
176
     1
 90
        1
176
     1
 90
        1
176
     1
 40
1.0
176
     1
 90
        8
176
     1
 62
   257
176
     1
 40
1.0
176
     1
 90
        1
176
     1
 90
        6
176
     1
 90
        2
176
     1
 62
     8
420
  7895160
176
     1
 90
        3
176
     1
 90
        0
176
     1
 90
        0
176
     1
290
     0
176
     1
 90
        5
176
     1
 40
0.0
176
     1
 90
        0
176
     1
290
     0
176
     1
290
     1
176
     1
290
     1
176
     1
290
     0
176
     1
290
     0
176
     1
290
     0
176
     1
290
     0
176
     1
290
     0
176
     1
290
     0
176
     1
 90
       50
176
     1
 40
0.0
176
     1
 40
1.0
176
     1
 90
        0
176
     1
 62
    18
420
        0
176
     1
 90
       50
176
     1
 90
        3
176
     1
 62
     5
420
      255
176
     1
290
     0
176
     1
 90
       50
176
     1
 90
       50
176
     1
 90
       50
176
     1
290
     0
176
     1
 90
       50
176
     1
 62
   256
176
     0
 40
1.0
176
     0
 90
        2
176
     1
  1
strokes_ogs.tif
176
     1
290
     0
176
     1
 40
1.0
176
     1
 40
1.0
176
     1
  0
VISUALSTYLE
  5
41
102
{ACAD_REACTORS
330
2A
102
}
330
2A
100
AcDbVisualStyle
  2
Shaded with edges
 70
    26
177
     3
291
     0
 70
    58
 90
        2
176
     1
 90
        2
176
     1
 90
        1
176
     1
 90
        2
176
     1
 40
0.6
176
     1
 40
30.0
176
     1
 62
     7
420
 16777215
176
     1
 90
        1
176
     1
 90
       10
176
     1
 62
     7
176
     1
 62
   257
176
     1
 90
        2
176
     1
 90
        1
176
     1
 40
1.0
176
     1
 90
        8
176
     1
 62
   257
176
     1
 40
1.0
176
     1
 90
        1
176
     1
 90
        6
176
     1
 90
        2
176
     1
 62
     7
176
     1
 90
        3
176
     1
 90
        0
176
     1
 90
        0
176
     1
290
     0
176
     1
 90
        5
176
     1
 40
0.0
176
     1
 90
        0
176
     1
290
     0
176
     1
290
     1
176
     1
290
     1
176
     1
290
     0
176
     1
290
     0
176
     1
290
     0
176
     1
290
     0
176
     1
290
     0
176
     1
290
     0
176
     1
 90
       50
176
     1
 40
0.0
176
     1
 40
1.0
176
     1
 90
        0
176
     1
 62
    18
420
        0
176
     1
 90
       50
176
     1
 90
        3
176
     1
 62
     5
420
      255
176
     1
290
     0
176
     1
 90
       50
176
     1
 90
       50
176
     1
 90
       50
176
     1
290
     0
176
     1
 90
       50
176
     1
 62
   256
176
     0
 40
1.0
176
     0
 90
        2
176
     1
  1
strokes_ogs.tif
176
     1
290
     0
176
     1
 40
1.0
176
     1
 40
1.0
176
     1
  0
VISUALSTYLE
  5
3E
102
{ACAD_REACTORS
330
2A
102
}
330
2A
100
AcDbVisualStyle
  2
Shades of Gray
 70
    23
177
     3
291
     0
 70
    58
 90
        2
176
     1
 90
        2
176
     1
 90
        3
176
     1
 90
        0
176
     1
 40
0.6
176
     1
 40
30.0
176
     1
 62
     7
420
 16777215
176
     1
 90
        2
176
     1
 90
        2
176
     1
 62
     7
176
     1
 62
     7
176
     1
 90
        1
176
     1
 90
        1
176
     1
 40
40.0
176
     1
 90
        8
176
     1
 62
     7
176
     1
 40
1.0
176
     1
 90
        1
176
     1
 90
        6
176
     1
 90
        2
176
     1
 62
     7
176
     1
 90
        3
176
     1
 90
        0
176
     1
 90
        0
176
     1
290
     0
176
     1
 90
        1
176
     1
 40
0.0
176
     1
 90
        0
176
     1
290
     0
176
     1
290
     1
176
     1
290
     1
176
     1
290
     0
176
     1
290
     0
176
     1
290
     0
176
     1
290
     0
176
     1
290
     0
176
     1
290
     0
176
     1
 90
       50
176
     1
 40
0.0
176
     1
 40
1.0
176
     1
 90
        0
176
     1
 62
    18
420
        0
176
     1
 90
       50
176
     1
 90
        3
176
     1
 62
     5
420
      255
176
     1
290
     0
176
     1
 90
       50
176
     1
 90
       50
176
     1
 90
       50
176
     1
290
     0
176
     1
 90
       50
176
     1
 62
   256
176
     0
 40
1.0
176
     0
 90
        2
176
     1
  1
strokes_ogs.tif
176
     1
290
     0
176
     1
 40
1.0
176
     1
 40
1.0
176
     1
  0
VISUALSTYLE
  5
3F
102
{ACAD_REACTORS
330
2A
102
}
330
2A
100
AcDbVisualStyle
  2
Sketchy
 70
    24
177
     3
291
     0
 70
    58
 90
        1
176
     1
 90
        2
176
     1
 90
        2
176
     1
 90
        0
176
     1
 40
0.6
176
     1
 40
30.0
176
     1
 62
     7
420
 16777215
176
     1
 90
        2
176
     1
 90
        2
176
     1
 62
     7
176
     1
 62
     7
176
     1
 90
        1
176
     1
 90
        1
176
     1
 40
40.0
176
     1
 90
       11
176
     1
 62
     7
176
     1
 40
1.0
176
     1
 90
        1
176
     1
 90
        6
176
     1
 90
        2
176
     1
 62
     7
176
     1
 90
        6
176
     1
 90
        0
176
     1
 90
        0
176
     1
290
     0
176
     1
 90
        1
176
     1
 40
0.0
176
     1
 90
        0
176
     1
290
     0
176
     1
290
     1
176
     1
290
     1
176
     1
290
     0
176
     1
290
     0
176
     1
290
     0
176
     1
290
     0
176
     1
290
     0
176
     1
290
     0
176
     1
 90
       50
176
     1
 40
0.0
176
     1
 40
1.0
176
     1
 90
        0
176
     1
 62
    18
420
        0
176
     1
 90
       50
176
     1
 90
        3
176
     1
 62
     5
420
      255
176
     1
290
     0
176
     1
 90
       50
176
     1
 90
       50
176
     1
 90
       50
176
     1
290
     0
176
     1
 90
       50
176
     1
 62
   256
176
     0
 40
1.0
176
     0
 90
        2
176
     1
  1
strokes_ogs.tif
176
     1
290
     0
176
     1
 40
1.0
176
     1
 40
1.0
176
     1
  0
VISUALSTYLE
  5
37
102
{ACAD_REACTORS
330
2A
102
}
330
2A
100
AcDbVisualStyle
  2
Thicken
 70
    13
177
     3
291
     1
 70
    58
 90
        2
176
     1
 90
        2
176
     1
 90
        0
176
     1
 90
        0
176
     1
 40
0.6
176
     1
 40
30.0
176
     1
 62
     7
420
 16777215
176
     1
 90
        1
176
     1
 90
        4
176
     1
 62
     7
176
     1
 62
   257
176
     1
 90
        1
176
     1
 90
        1
176
     1
 40
1.0
176
     1
 90
       12
176
     1
 62
     7
176
     1
 40
1.0
176
     1
 90
        1
176
     1
 90
        6
176
     1
 90
        2
176
     1
 62
     7
176
     1
 90
        5
176
     1
 90
        0
176
     1
 90
        0
176
     1
290
     0
176
     1
 90
        1
176
     1
 40
0.0
176
     1
 90
        0
176
     1
290
     0
176
     1
290
     1
176
     1
290
     1
176
     1
290
     0
176
     1
290
     0
176
     1
290
     0
176
     1
290
     0
176
     1
290
     0
176
     1
290
     0
176
     1
 90
       50
176
     1
 40
0.0
176
     1
 40
1.0
176
     1
 90
        0
176
     1
 62
    18
420
        0
176
     1
 90
       50
176
     1
 90
        3
176
     1
 62
     5
420
      255
176
     1
290
     0
176
     1
 90
       50
176
     1
 90
       50
176
     1
 90
       50
176
     1
290
     0
176
     1
 90
       50
176
     1
 62
   256
176
     0
 40
1.0
176
     0
 90
        2
176
     1
  1
strokes_ogs.tif
176
     1
290
     0
176
     1
 40
1.0
176
     1
 40
1.0
176
     1
  0
VISUALSTYLE
  5
30
102
{ACAD_REACTORS
330
2A
102
}
330
2A
100
AcDbVisualStyle
  2
Wireframe
 70
     5
177
     3
291
     0
 70
    58
 90
        0
176
     1
 90
        2
176
     1
 90
        0
176
     1
 90
        0
176
     1
 40
0.6
176
     1
 40
30.0
176
     1
 62
     7
420
 16777215
176
     1
 90
        1
176
     1
 90
        4
176
     1
 62
     7
176
     1
 62
   257
176
     1
 90
        1
176
     1
 90
        1
176
     1
 40
1.0
176
     1
 90
        0
176
     1
 62
   257
176
     1
 40
1.0
176
     1
 90
        1
176
     1
 90
        6
176
     1
 90
        2
176
     1
 62
     7
176
     1
 90
        3
176
     1
 90
        0
176
     1
 90
        0
176
     1
290
     0
176
     1
 90
        1
176
     1
 40
0.0
176
     1
 90
        0
176
     1
290
     0
176
     1
290
     1
176
     1
290
     1
176
     1
290
     0
176
     1
290
     0
176
     1
290
     0
176
     1
290
     0
176
     1
290
     0
176
     1
290
     0
176
     1
 90
       50
176
     1
 40
0.0
176
     1
 40
1.0
176
     1
 90
        0
176
     1
 62
    18
420
        0
176
     1
 90
       50
176
     1
 90
        3
176
     1
 62
     5
420
      255
176
     1
290
     0
176
     1
 90
       50
176
     1
 90
       50
176
     1
 90
       50
176
     1
290
     0
176
     1
 90
       50
176
     1
 62
   256
176
     0
 40
1.0
176
     0
 90
        2
176
     1
  1
strokes_ogs.tif
176
     1
290
     0
176
     1
 40
1.0
176
     1
 40
1.0
176
     1
  0
VISUALSTYLE
  5
40
102
{ACAD_REACTORS
330
2A
102
}
330
2A
100
AcDbVisualStyle
  2
X-Ray
 70
    25
177
     3
291
     0
 70
    58
 90
        2
176
     1
 90
        2
176
     1
 90
        1
176
     1
 90
        1
176
     1
 40
0.5
176
     1
 40
30.0
176
     1
 62
     7
420
 16777215
176
     1
 90
        1
176
     1
 90
        0
176
     1
 62
     7
176
     1
 62
   257
176
     1
 90
        1
176
     1
 90
        1
176
     1
 40
1.0
176
     1
 90
        8
176
     1
 62
     7
176
     1
 40
1.0
176
     1
 90
        1
176
     1
 90
        6
176
     1
 90
        2
176
     1
 62
     7
176
     1
 90
        3
176
     1
 90
        0
176
     1
 90
        0
176
     1
290
     0
176
     1
 90
       13
176
     1
 40
0.0
176
     1
 90
        0
176
     1
290
     0
176
     1
290
     1
176
     1
290
     1
176
     1
290
     0
176
     1
290
     0
176
     1
290
     0
176
     1
290
     0
176
     1
290
     0
176
     1
290
     0
176
     1
 90
       50
176
     1
 40
0.0
176
     1
 40
1.0
176
     1
 90
        0
176
     1
 62
    18
420
        0
176
     1
 90
       50
176
     1
 90
        3
176
     1
 62
     5
420
      255
176
     1
290
     0
176
     1
 90
       50
176
     1
 90
       50
176
     1
 90
       50
176
     1
290
     0
176
     1
 90
       50
176
     1
 62
   256
176
     0
 40
1.0
176
     0
 90
        2
176
     1
  1
strokes_ogs.tif
176
     1
290
     0
176
     1
 40
1.0
176
     1
 40
1.0
176
     1
  0
DICTIONARYVAR
  5
218
102
{ACAD_REACTORS
330
217
102
}
330
217
100
DictionaryVariables
280
     0
  1
1:1
  0
DICTIONARYVAR
  5
21D
102
{ACAD_REACTORS
330
217
102
}
330
217
100
DictionaryVariables
280
     0
  1
Standard
  0
DICTIONARYVAR
  5
21C
102
{ACAD_REACTORS
330
217
102
}
330
217
100
DictionaryVariables
280
     0
  1
Standard
  0
DICTIONARYVAR
  5
220
102
{ACAD_REACTORS
330
217
102
}
330
217
100
DictionaryVariables
280
     0
  1
6.000000
  0
DICTIONARY
  5
219
330
6A
100
AcDbDictionary
280
     1
281
     1
  3
ACAD_ROUNDTRIP_2008_TABLESTYLE_CELLSTYLEMAP
360
21A
  0
CELLSTYLEMAP
  5
21A
102
{ACAD_REACTORS
330
219
102
}
330
219
100
AcDbCellStyleMap
 90
        3
300
CELLSTYLE
  1
TABLEFORMAT_BEGIN
 90
        5
170
     1
 91
        0
 92
    32768
 62
   257
 93
        1
300
CONTENTFORMAT
  1
CONTENTFORMAT_BEGIN
 90
        0
 91
        0
 92
        4
 93
        0
300

 40
0.0
140
1.0
 94
        5
 62
     0
340
11
144
6.0
309
CONTENTFORMAT_END
171
     1
301
MARGIN
  1
CELLMARGIN_BEGIN
 40
1.5
 40
1.5
 40
1.5
 40
1.5
 40
1.5
 40
1.5
309
CELLMARGIN_END
 94
        6
 95
        1
302
GRIDFORMAT
  1
GRIDFORMAT_BEGIN
 90
        0
 91
        1
 62
     0
 92
       -2
340
14
 93
        0
 40
0.045
309
GRIDFORMAT_END
 95
        2
302
GRIDFORMAT
  1
GRIDFORMAT_BEGIN
 90
        0
 91
        1
 62
     0
 92
       -2
340
14
 93
        0
 40
0.045
309
GRIDFORMAT_END
 95
        4
302
GRIDFORMAT
  1
GRIDFORMAT_BEGIN
 90
        0
 91
        1
 62
     0
 92
       -2
340
14
 93
        0
 40
0.045
309
GRIDFORMAT_END
 95
        8
302
GRIDFORMAT
  1
GRIDFORMAT_BEGIN
 90
        0
 91
        1
 62
     0
 92
       -2
340
14
 93
        0
 40
0.045
309
GRIDFORMAT_END
 95
       16
302
GRIDFORMAT
  1
GRIDFORMAT_BEGIN
 90
        0
 91
        1
 62
     0
 92
       -2
340
14
 93
        0
 40
0.045
309
GRIDFORMAT_END
 95
       32
302
GRIDFORMAT
  1
GRIDFORMAT_BEGIN
 90
        0
 91
        1
 62
     0
 92
       -2
340
14
 93
        0
 40
0.045
309
GRIDFORMAT_END
309
TABLEFORMAT_END
  1
CELLSTYLE_BEGIN
 90
        1
 91
        1
300
_TITLE
309
CELLSTYLE_END
300
CELLSTYLE
  1
TABLEFORMAT_BEGIN
 90
        5
170
     1
 91
        0
 92
        0
 62
   257
 93
        1
300
CONTENTFORMAT
  1
CONTENTFORMAT_BEGIN
 90
        0
 91
        0
 92
        4
 93
        0
300

 40
0.0
140
1.0
 94
        5
 62
     0
340
11
144
4.5
309
CONTENTFORMAT_END
171
     1
301
MARGIN
  1
CELLMARGIN_BEGIN
 40
1.5
 40
1.5
 40
1.5
 40
1.5
 40
1.5
 40
1.5
309
CELLMARGIN_END
 94
        6
 95
        1
302
GRIDFORMAT
  1
GRIDFORMAT_BEGIN
 90
        0
 91
        1
 62
     0
 92
       -2
340
14
 93
        0
 40
0.045
309
GRIDFORMAT_END
 95
        2
302
GRIDFORMAT
  1
GRIDFORMAT_BEGIN
 90
        0
 91
        1
 62
     0
 92
       -2
340
14
 93
        0
 40
0.045
309
GRIDFORMAT_END
 95
        4
302
GRIDFORMAT
  1
GRIDFORMAT_BEGIN
 90
        0
 91
        1
 62
     0
 92
       -2
340
14
 93
        0
 40
0.045
309
GRIDFORMAT_END
 95
        8
302
GRIDFORMAT
  1
GRIDFORMAT_BEGIN
 90
        0
 91
        1
 62
     0
 92
       -2
340
14
 93
        0
 40
0.045
309
GRIDFORMAT_END
 95
       16
302
GRIDFORMAT
  1
GRIDFORMAT_BEGIN
 90
        0
 91
        1
 62
     0
 92
       -2
340
14
 93
        0
 40
0.045
309
GRIDFORMAT_END
 95
       32
302
GRIDFORMAT
  1
GRIDFORMAT_BEGIN
 90
        0
 91
        1
 62
     0
 92
       -2
340
14
 93
        0
 40
0.045
309
GRIDFORMAT_END
309
TABLEFORMAT_END
  1
CELLSTYLE_BEGIN
 90
        2
 91
        1
300
_HEADER
309
CELLSTYLE_END
300
CELLSTYLE
  1
TABLEFORMAT_BEGIN
 90
        5
170
     1
 91
        0
 92
        0
 62
   257
 93
        1
300
CONTENTFORMAT
  1
CONTENTFORMAT_BEGIN
 90
        0
 91
        0
 92
        4
 93
        0
300

 40
0.0
140
1.0
 94
        2
 62
     0
340
11
144
4.5
309
CONTENTFORMAT_END
171
     1
301
MARGIN
  1
CELLMARGIN_BEGIN
 40
1.5
 40
1.5
 40
1.5
 40
1.5
 40
1.5
 40
1.5
309
CELLMARGIN_END
 94
        6
 95
        1
302
GRIDFORMAT
  1
GRIDFORMAT_BEGIN
 90
        0
 91
        1
 62
     0
 92
       -2
340
14
 93
        0
 40
0.045
309
GRIDFORMAT_END
 95
        2
302
GRIDFORMAT
  1
GRIDFORMAT_BEGIN
 90
        0
 91
        1
 62
     0
 92
       -2
340
14
 93
        0
 40
0.045
309
GRIDFORMAT_END
 95
        4
302
GRIDFORMAT
  1
GRIDFORMAT_BEGIN
 90
        0
 91
        1
 62
     0
 92
       -2
340
14
 93
        0
 40
0.045
309
GRIDFORMAT_END
 95
        8
302
GRIDFORMAT
  1
GRIDFORMAT_BEGIN
 90
        0
 91
        1
 62
     0
 92
       -2
340
14
 93
        0
 40
0.045
309
GRIDFORMAT_END
 95
       16
302
GRIDFORMAT
  1
GRIDFORMAT_BEGIN
 90
        0
 91
        1
 62
     0
 92
       -2
340
14
 93
        0
 40
0.045
309
GRIDFORMAT_END
 95
       32
302
GRIDFORMAT
  1
GRIDFORMAT_BEGIN
 90
        0
 91
        1
 62
     0
 92
       -2
340
14
 93
        0
 40
0.045
309
GRIDFORMAT_END
309
TABLEFORMAT_END
  1
CELLSTYLE_BEGIN
 90
        3
 91
        2
300
_DATA
309
CELLSTYLE_END
  0
ENDSEC
  0
EOF
