  0
SECTION
  2
HEADER
  9
$ACADVER
  1
AC1009
  9
$INSBASE
 10
25.121819
 20
177.06
 30
0.0
  9
$EXTMIN
 10
25.121819
 20
177.06
 30
0.0
  9
$EXTMAX
 10
865.121819
 20
771.06
 30
0.0
  9
$LIMMIN
 10
25.121819
 20
177.06
  9
$LIMMAX
 10
865.121819
 20
771.06
  9
$ORTHOMODE
 70
     0
  9
$REGENMODE
 70
     1
  9
$FILLMODE
 70
     1
  9
$QTEXTMODE
 70
     0
  9
$MIRRTEXT
 70
     1
  9
$DRAGMODE
 70
     2
  9
$LTSCALE
 40
2.0
  9
$OSMODE
 70
     0
  9
$ATTMODE
 70
     1
  9
$TEXTSIZE
 40
0.2
  9
$TRACEWID
 40
0.05
  9
$TEXTSTYLE
  7
STANDARD
  9
$CLAYER
  8
0
  9
$CELTYPE
  6
BYLAYER
  9
$CECOLOR
 62
     7
  9
$DIMSCALE
 40
2.0
  9
$DIMASZ
 40
3.5
  9
$DIMEXO
 40
0.0625
  9
$DIMDLI
 40
0.38
  9
$DIMRND
 40
0.0
  9
$DIMDLE
 40
0.0
  9
$DIMEXE
 40
0.18
  9
$DIMTP
 40
0.0
  9
$DIMTM
 40
0.0
  9
$DIMTXT
 40
3.5
  9
$DIMCEN
 40
0.09
  9
$DIMTSZ
 40
0.0
  9
$DIMTOL
 70
     0
  9
$DIMLIM
 70
     0
  9
$DIMTIH
 70
     1
  9
$DIMTOH
 70
     1
  9
$DIMSE1
 70
     0
  9
$DIMSE2
 70
     0
  9
$DIMTAD
 70
     1
  9
$DIMZIN
 70
     0
  9
$DIMBLK
  1

  9
$DIMASO
 70
     1
  9
$DIMSHO
 70
     1
  9
$DIMPOST
  1

  9
$DIMAPOST
  1

  9
$DIMALT
 70
     0
  9
$DIMALTD
 70
     2
  9
$DIMALTF
 40
25.4
  9
$DIMLFAC
 40
1.0
  9
$DIMTOFL
 70
     0
  9
$DIMTVP
 40
0.0
  9
$DIMTIX
 70
     0
  9
$DIMSOXD
 70
     0
  9
$DIMSAH
 70
     0
  9
$DIMBLK1
  1

  9
$DIMBLK2
  1

  9
$DIMSTYLE
  2
STANDARD
  9
$DIMCLRD
 70
     0
  9
$DIMCLRE
 70
     0
  9
$DIMCLRT
 70
     0
  9
$DIMTFAC
 40
1.0
  9
$DIMGAP
 40
0.09
  9
$LUNITS
 70
     2
  9
$LUPREC
 70
     2
  9
$AXISMODE
 70
     0
  9
$AXISUNIT
 10
0.0
 20
0.0
  9
$SKETCHINC
 40
0.1
  9
$FILLETRAD
 40
0.0
  9
$AUNITS
 70
     0
  9
$AUPREC
 70
     0
  9
$MENU
  1
acad
  9
$ELEVATION
 40
0.0
  9
$PELEVATION
 40
0.0
  9
$THICKNESS
 40
0.0
  9
$LIMCHECK
 70
     0
  9
$BLIPMODE
 70
     1
  9
$CHAMFERA
 40
0.0
  9
$CHAMFERB
 40
0.0
  9
$SKPOLY
 70
     0
  9
$TDCREATE
 40
0.000000000
  9
$TDUPDATE
 40
0.000000000
  9
$TDINDWG
 40
0.0000000000
  9
$TDUSRTIMER
 40
0.0000000000
  9
$USRTIMER
 70
     1
  9
$ANGBASE
 50
0.0
  9
$ANGDIR
 70
     0
  9
$PDMODE
 70
     0
  9
$PDSIZE
 40
0.0
  9
$PLINEWID
 40
0.0
  9
$COORDS
 70
     0
  9
$SPLFRAME
 70
     0
  9
$SPLINETYPE
 70
     6
  9
$SPLINESEGS
 70
     8
  9
$ATTDIA
 70
     0
  9
$ATTREQ
 70
     1
  9
$HANDLING
 70
     1
  9
$HANDSEED
  5
FB
  9
$SURFTAB1
 70
     6
  9
$SURFTAB2
 70
     6
  9
$SURFTYPE
 70
     6
  9
$SURFU
 70
     6
  9
$SURFV
 70
     6
  9
$UCSNAME
  2

  9
$UCSORG
 10
0.0
 20
0.0
 30
0.0
  9
$UCSXDIR
 10
1.0
 20
0.0
 30
0.0
  9
$UCSYDIR
 10
0.0
 20
1.0
 30
0.0
  9
$PUCSNAME
  2

  9
$PUCSORG
 10
0.0
 20
0.0
 30
0.0
  9
$PUCSXDIR
 10
1.0
 20
0.0
 30
0.0
  9
$PUCSYDIR
 10
0.0
 20
1.0
 30
0.0
  9
$USERI1
 70
     0
  9
$USERI2
 70
     0
  9
$USERI3
 70
     0
  9
$USERI4
 70
     0
  9
$USERI5
 70
     0
  9
$USERR1
 40
0.0
  9
$USERR2
 40
0.0
  9
$USERR3
 40
0.0
  9
$USERR4
 40
0.0
  9
$USERR5
 40
0.0
  9
$WORLDVIEW
 70
     1
  9
$SHADEDGE
 70
     3
  9
$SHADEDIF
 70
    70
  9
$TILEMODE
 70
     1
  9
$MAXACTVP
 70
    16
  9
$PINSBASE
 10
0.0
 20
0.0
 30
0.0
  9
$PLIMCHECK
 70
     0
  9
$PEXTMIN
 10
1.000000E+20
 20
1.000000E+20
 30
1.000000E+20
  9
$PEXTMAX
 10
-1.000000E+20
 20
-1.000000E+20
 30
-1.000000E+20
  9
$PLIMMIN
 10
25.121819
 20
177.06
  9
$PLIMMAX
 10
865.121819
 20
771.06
  9
$UNITMODE
 70
     0
  9
$VISRETAIN
 70
     0
  9
$PLINEGEN
 70
     1
  9
$PSLTSCALE
 70
     0
  9
$TREEDEPTH
 70
  3020
  9
$DWGCODEPAGE
  3
dos850
  0
ENDSEC
  0
SECTION
  2
TABLES
  0
TABLE
  2
VPORT
 70
     1
  0
VPORT
  2
*ACTIVE
 70
     0
 10
0.0
 20
0.0
 11
1.0
 21
1.0
 12
420.0
 22
297.0
 13
0.0
 23
0.0
 14
1.0
 24
1.0
 15
0.0
 25
0.0
 16
0.0
 26
0.0
 36
1.0
 17
25.121819
 27
177.06
 37
0.0
 40
594.0
 41
1.604229
 42
50.0
 43
0.0
 44
0.0
 50
0.0
 51
0.0
 71
     0
 72
   100
 73
     1
 74
     1
 75
     0
 76
     0
 77
     0
 78
     0
  0
ENDTAB
  0
TABLE
  2
LTYPE
 70
     2
  0
LTYPE
  2
CONTINUOUS
 70
    64
  3
Solid line
 72
    65
 73
     0
 40
0.0
  0
LTYPE
  2
DASHDOT
 70
    64
  3
__ . __ . __ . __ . __
 72
    65
 73
     4
 40
7.5
 49
5.0
 49
-1.25
 49
0.0
 49
-1.25
  0
ENDTAB
  0
TABLE
  2
LAYER
 70
     9
  0
LAYER
  2
0
 70
     0
 62
     7
  6
CONTINUOUS
  0
LAYER
  2
LC-INFO-1-2-MM-A3-0
 70
     1
 62
    -1
  6
CONTINUOUS
  0
LAYER
  2
LC-004-003-MTH-0
 70
     0
 62
     2
  6
CONTINUOUS
  0
LAYER
  2
LC-005-003-MTG-0
 70
     0
 62
     2
  6
CONTINUOUS
  0
LAYER
  2
LC-003-003-----0
 70
     0
 62
     2
  6
CONTINUOUS
  0
LAYER
  2
LC-007-005-----0
 70
     0
 62
     2
  6
CONTINUOUS
  0
LAYER
  2
LC-002-000-----0
 70
     0
 62
     7
  6
CONTINUOUS
  0
LAYER
  2
LC-001-002-----0
 70
     0
 62
     1
  6
CONTINUOUS
  0
LAYER
  2
LC-000
 70
     0
 62
     7
  6
CONTINUOUS
  0
ENDTAB
  0
TABLE
  2
STYLE
 70
     4
  0
STYLE
  2
STANDARD
 70
     0
 40
0.0
 41
1.0
 50
0.0
 71
     0
 42
0.0
  3
txt
  4

  0
STYLE
  2
LC-TXTSTYLE-150-400-0-0-A1
 70
    64
 40
0.0
 41
1.0
 50
15.0
 71
     0
 42
3.5
  3
Arial
  4

  0
STYLE
  2
LC-STANDARD
 70
    64
 40
0.0
 41
1.0
 50
0.0
 71
     0
 42
3.5
  3
MONOTXT
  4

  0
STYLE
  2
LC-TXTSTYLE-0-400-0-0-DIN3
 70
    64
 40
0.0
 41
1.0
 50
0.0
 71
     0
 42
3.5
  3
MONOTXT
  4

  0
ENDTAB
  0
TABLE
  2
VIEW
 70
     0
  0
ENDTAB
  0
TABLE
  2
UCS
 70
     0
  0
ENDTAB
  0
TABLE
  2
APPID
 70
     1
  0
APPID
  2
ACAD
 70
     0
  0
ENDTAB
  0
TABLE
  2
DIMSTYLE
 70
     3
  0
DIMSTYLE
  2
STANDARD
 70
     0
  3

  4

  5

  6

  7

 40
1.0
 41
0.18
 42
0.0625
 43
0.38
 44
0.18
 45
0.0
 46
0.0
 47
0.0
 48
0.0
 71
     0
 72
     0
 73
     1
 74
     1
 75
     0
 76
     0
 77
     0
 78
     0
140
0.18
141
0.09
142
0.0
143
25.4
144
1.0
145
0.0
146
1.0
147
0.09
170
     0
171
     2
172
     0
173
     0
174
     0
175
     0
176
     0
177
     0
178
     0
  0
DIMSTYLE
  2
LC-STANDARD
 70
     0
  3

  4

  5

  6

  7

 40
1.0
 41
3.5
 42
0.0
 43
7.5
 44
1.8
 45
0.0
 46
0.0
 47
0.0
 48
0.0
 71
     0
 72
     0
 73
     0
 74
     0
 75
     0
 76
     0
 77
     1
 78
     8
140
3.5
141
0.0
142
0.0
143
25.4
144
1.0
145
0.0
146
0.71
147
1.5
170
     0
171
     2
172
     1
173
     0
174
     0
175
     0
176
     0
177
     0
178
     3
  0
DIMSTYLE
  2
LC-DIM-L-0140-02-02
 70
     0
  3

  4

  5

  6

  7

 40
2.0
 41
3.5
 42
0.0
 43
7.5
 44
1.8
 45
0.0
 46
0.0
 47
0.0
 48
0.0
 71
     0
 72
     0
 73
     0
 74
     0
 75
     0
 76
     0
 77
     1
 78
     8
140
14.0
141
0.0
142
0.0
143
25.4
144
1.0
145
0.0
146
0.71
147
1.5
170
     0
171
     2
172
     0
173
     0
174
     0
175
     0
176
     2
177
     2
178
     8
  0
ENDTAB
  0
ENDSEC
  0
SECTION
  2
BLOCKS
  0
BLOCK
  8
0
  5
24
  2
BLK1
 70
    64
 10
0.0
 20
0.0
 30
0.0
  3
BLK1
  0
ENDBLK
  8
0
  5
25
  0
BLOCK
  8
0
  5
27
  2
*D1
 70
    65
 10
0.0
 20
0.0
 30
0.0
  3
*D1
  0
LINE
  8
LC-004-003-MTH-0
  6
CONTINUOUS
  5
29
 10
233.614068
 20
502.995631
 30
0.0
 11
233.614068
 21
445.2
 31
0.0
  0
LINE
  8
LC-004-003-MTH-0
  6
CONTINUOUS
  5
2A
 10
598.614068
 20
502.995631
 30
0.0
 11
598.614068
 21
445.2
 31
0.0
  0
LINE
  8
LC-005-003-MTG-0
  6
CONTINUOUS
  5
2C
 10
233.614068
 20
462.0
 30
0.0
 11
598.614068
 21
462.0
 31
0.0
  0
LINE
  8
LC-003-003-----0
  6
CONTINUOUS
  5
2E
 10
261.374524
 20
465.654733
 30
0.0
 11
233.614068
 21
462.0
 31
0.0
  0
LINE
  8
LC-003-003-----0
  6
CONTINUOUS
  5
2F
 10
233.614068
 20
462.0
 30
0.0
 11
261.374524
 21
458.345267
 31
0.0
  0
LINE
  8
LC-003-003-----0
  6
CONTINUOUS
  5
30
 10
261.374524
 20
458.345267
 30
0.0
 11
261.374524
 21
465.654733
 31
0.0
  0
LINE
  8
LC-003-003-----0
  6
CONTINUOUS
  5
31
 10
261.436805
 20
464.704503
 30
0.0
 11
240.894068
 21
462.0
 31
0.0
  0
LINE
  8
LC-003-003-----0
  6
CONTINUOUS
  5
32
 10
240.894068
 20
462.0
 30
0.0
 11
261.436805
 21
459.295497
 31
0.0
  0
LINE
  8
LC-003-003-----0
  6
CONTINUOUS
  5
33
 10
261.499087
 20
463.754272
 30
0.0
 11
248.174068
 21
462.0
 31
0.0
  0
LINE
  8
LC-003-003-----0
  6
CONTINUOUS
  5
34
 10
248.174068
 20
462.0
 30
0.0
 11
261.499087
 21
460.245728
 31
0.0
  0
LINE
  8
LC-003-003-----0
  6
CONTINUOUS
  5
35
 10
261.561368
 20
462.804041
 30
0.0
 11
255.454068
 21
462.0
 31
0.0
  0
LINE
  8
LC-003-003-----0
  6
CONTINUOUS
  5
36
 10
255.454068
 20
462.0
 30
0.0
 11
261.561368
 21
461.195959
 31
0.0
  0
LINE
  8
LC-003-003-----0
  6
CONTINUOUS
  5
37
 10
570.853612
 20
458.345267
 30
0.0
 11
598.614068
 21
462.0
 31
0.0
  0
LINE
  8
LC-003-003-----0
  6
CONTINUOUS
  5
38
 10
598.614068
 20
462.0
 30
0.0
 11
570.853612
 21
465.654733
 31
0.0
  0
LINE
  8
LC-003-003-----0
  6
CONTINUOUS
  5
39
 10
570.853612
 20
465.654733
 30
0.0
 11
570.853612
 21
458.345267
 31
0.0
  0
LINE
  8
LC-003-003-----0
  6
CONTINUOUS
  5
3A
 10
570.79133
 20
459.295497
 30
0.0
 11
591.334068
 21
462.0
 31
0.0
  0
LINE
  8
LC-003-003-----0
  6
CONTINUOUS
  5
3B
 10
591.334068
 20
462.0
 30
0.0
 11
570.79133
 21
464.704503
 31
0.0
  0
LINE
  8
LC-003-003-----0
  6
CONTINUOUS
  5
3C
 10
570.729049
 20
460.245728
 30
0.0
 11
584.054068
 21
462.0
 31
0.0
  0
LINE
  8
LC-003-003-----0
  6
CONTINUOUS
  5
3D
 10
584.054068
 20
462.0
 30
0.0
 11
570.729049
 21
463.754272
 31
0.0
  0
LINE
  8
LC-003-003-----0
  6
CONTINUOUS
  5
3E
 10
570.666767
 20
461.195959
 30
0.0
 11
576.774068
 21
462.0
 31
0.0
  0
LINE
  8
LC-003-003-----0
  6
CONTINUOUS
  5
3F
 10
576.774068
 20
462.0
 30
0.0
 11
570.666767
 21
462.804041
 31
0.0
  0
TEXT
  8
LC-003-003-----0
  6
CONTINUOUS
 62
     8
  5
40
 10
394.058928
 20
469.827554
 30
0.0
 40
28.0
  1
362
 41
0.9
 51
15.0
  7
LC-TXTSTYLE-150-400-0-0-A0
 72
     1
 11
420.462228
 21
469.827554
 31
0.0
  0
ENDBLK
  8
0
  5
41
  0
BLOCK
  8
0
  5
43
  2
*D2
 70
    65
 10
0.0
 20
0.0
 30
0.0
  3
*D2
  0
LINE
  8
LC-004-003-MTH-0
  6
CONTINUOUS
  5
44
 10
598.614068
 20
502.995631
 30
0.0
 11
646.8
 21
502.995631
 31
0.0
  0
LINE
  8
LC-004-003-MTH-0
  6
CONTINUOUS
  5
45
 10
566.114068
 20
592.495633
 30
0.0
 11
646.8
 21
592.495633
 31
0.0
  0
LINE
  8
LC-005-003-MTG-0
  6
CONTINUOUS
  5
46
 10
630.0
 20
502.995631
 30
0.0
 11
630.0
 21
592.495633
 31
0.0
  0
LINE
  8
LC-003-003-----0
  6
CONTINUOUS
  5
47
 10
626.345267
 20
530.756087
 30
0.0
 11
630.0
 21
502.995631
 31
0.0
  0
LINE
  8
LC-003-003-----0
  6
CONTINUOUS
  5
48
 10
630.0
 20
502.995631
 30
0.0
 11
633.654733
 21
530.756087
 31
0.0
  0
LINE
  8
LC-003-003-----0
  6
CONTINUOUS
  5
49
 10
633.654733
 20
530.756087
 30
0.0
 11
626.345267
 21
530.756087
 31
0.0
  0
LINE
  8
LC-003-003-----0
  6
CONTINUOUS
  5
4A
 10
627.295497
 20
530.818369
 30
0.0
 11
630.0
 21
510.275631
 31
0.0
  0
LINE
  8
LC-003-003-----0
  6
CONTINUOUS
  5
4B
 10
630.0
 20
510.275631
 30
0.0
 11
632.704503
 21
530.818369
 31
0.0
  0
LINE
  8
LC-003-003-----0
  6
CONTINUOUS
  5
4C
 10
628.245728
 20
530.88065
 30
0.0
 11
630.0
 21
517.555631
 31
0.0
  0
LINE
  8
LC-003-003-----0
  6
CONTINUOUS
  5
4D
 10
630.0
 20
517.555631
 30
0.0
 11
631.754272
 21
530.88065
 31
0.0
  0
LINE
  8
LC-003-003-----0
  6
CONTINUOUS
  5
4E
 10
629.195959
 20
530.942931
 30
0.0
 11
630.0
 21
524.835631
 31
0.0
  0
LINE
  8
LC-003-003-----0
  6
CONTINUOUS
  5
4F
 10
630.0
 20
524.835631
 30
0.0
 11
630.804041
 21
530.942931
 31
0.0
  0
LINE
  8
LC-003-003-----0
  6
CONTINUOUS
  5
50
 10
633.654733
 20
564.735177
 30
0.0
 11
630.0
 21
592.495633
 31
0.0
  0
LINE
  8
LC-003-003-----0
  6
CONTINUOUS
  5
51
 10
630.0
 20
592.495633
 30
0.0
 11
626.345267
 21
564.735177
 31
0.0
  0
LINE
  8
LC-003-003-----0
  6
CONTINUOUS
  5
52
 10
626.345267
 20
564.735177
 30
0.0
 11
633.654733
 21
564.735177
 31
0.0
  0
LINE
  8
LC-003-003-----0
  6
CONTINUOUS
  5
53
 10
632.704503
 20
564.672895
 30
0.0
 11
630.0
 21
585.215633
 31
0.0
  0
LINE
  8
LC-003-003-----0
  6
CONTINUOUS
  5
54
 10
630.0
 20
585.215633
 30
0.0
 11
627.295497
 21
564.672895
 31
0.0
  0
LINE
  8
LC-003-003-----0
  6
CONTINUOUS
  5
55
 10
631.754272
 20
564.610614
 30
0.0
 11
630.0
 21
577.935633
 31
0.0
  0
LINE
  8
LC-003-003-----0
  6
CONTINUOUS
  5
56
 10
630.0
 20
577.935633
 30
0.0
 11
628.245728
 21
564.610614
 31
0.0
  0
LINE
  8
LC-003-003-----0
  6
CONTINUOUS
  5
57
 10
630.804041
 20
564.548333
 30
0.0
 11
630.0
 21
570.655633
 31
0.0
  0
LINE
  8
LC-003-003-----0
  6
CONTINUOUS
  5
58
 10
630.0
 20
570.655633
 30
0.0
 11
629.195959
 21
564.548333
 31
0.0
  0
TEXT
  8
LC-003-003-----0
  6
CONTINUOUS
 62
     8
  5
59
 10
622.172446
 20
525.690492
 30
0.0
 40
28.0
  1
100
 50
90.0
 41
0.9
 51
15.0
  7
LC-TXTSTYLE-150-400-0-0-A0
 72
     1
 11
622.172446
 21
552.093792
 31
0.0
  0
ENDBLK
  8
0
  5
5A
  0
BLOCK
  8
0
  5
5C
  2
*X3
 70
    65
 10
253.614068
 20
502.995633
 30
0.0
  3
*X3
  0
LINE
  8
LC-007-005-----0
  6
CONTINUOUS
  5
5E
 10
265.407754
 20
502.995633
 30
0.0
 11
266.114068
 21
503.701946
 31
0.0
  0
LINE
  8
LC-007-005-----0
  6
CONTINUOUS
  5
5F
 10
262.614068
 20
508.687228
 30
0.0
 11
266.114068
 21
512.187228
 31
0.0
  0
LINE
  8
LC-007-005-----0
  6
CONTINUOUS
  5
60
 10
262.614068
 20
517.172509
 30
0.0
 11
266.114068
 21
520.672509
 31
0.0
  0
LINE
  8
LC-007-005-----0
  6
CONTINUOUS
  5
61
 10
262.614068
 20
525.65779
 30
0.0
 11
266.114068
 21
529.15779
 31
0.0
  0
LINE
  8
LC-007-005-----0
  6
CONTINUOUS
  5
62
 10
262.614068
 20
534.143072
 30
0.0
 11
266.114068
 21
537.643072
 31
0.0
  0
LINE
  8
LC-007-005-----0
  6
CONTINUOUS
  5
63
 10
300.966631
 20
572.495635
 30
0.0
 11
307.614068
 21
579.143072
 31
0.0
  0
LINE
  8
LC-007-005-----0
  6
CONTINUOUS
  5
64
 10
262.614068
 20
542.628353
 30
0.0
 11
266.114068
 21
546.128353
 31
0.0
  0
LINE
  8
LC-007-005-----0
  6
CONTINUOUS
  5
65
 10
292.481349
 20
572.495634
 30
0.0
 11
305.48135
 21
585.495635
 31
0.0
  0
LINE
  8
LC-007-005-----0
  6
CONTINUOUS
  5
66
 10
262.614068
 20
551.113634
 30
0.0
 11
266.114068
 21
554.613634
 31
0.0
  0
LINE
  8
LC-007-005-----0
  6
CONTINUOUS
  5
67
 10
283.996067
 20
572.495634
 30
0.0
 11
296.996068
 21
585.495635
 31
0.0
  0
LINE
  8
LC-007-005-----0
  6
CONTINUOUS
  5
68
 10
262.614068
 20
559.598916
 30
0.0
 11
266.114068
 21
563.098916
 31
0.0
  0
LINE
  8
LC-007-005-----0
  6
CONTINUOUS
  5
69
 10
275.510785
 20
572.495633
 30
0.0
 11
295.114068
 21
592.098916
 31
0.0
  0
LINE
  8
LC-007-005-----0
  6
CONTINUOUS
  5
6A
 10
262.614068
 20
568.084197
 30
0.0
 11
266.114068
 21
571.584197
 31
0.0
  0
LINE
  8
LC-007-005-----0
  6
CONTINUOUS
  5
6B
 10
267.025504
 20
572.495633
 30
0.0
 11
287.025505
 21
592.495634
 31
0.0
  0
LINE
  8
LC-007-005-----0
  6
CONTINUOUS
  5
6C
 10
258.540222
 20
572.495632
 30
0.0
 11
278.540223
 21
592.495634
 31
0.0
  0
LINE
  8
LC-007-005-----0
  6
CONTINUOUS
  5
6D
 10
253.614068
 20
576.05476
 30
0.0
 11
263.054941
 21
585.495633
 31
0.0
  0
LINE
  8
LC-007-005-----0
  6
CONTINUOUS
  5
6E
 10
266.114093
 20
588.554785
 30
0.0
 11
270.054941
 21
592.495633
 31
0.0
  0
LINE
  8
LC-007-005-----0
  6
CONTINUOUS
  5
6F
 10
253.614068
 20
584.540041
 30
0.0
 11
254.569659
 21
585.495632
 31
0.0
  0
ENDBLK
  8
0
  5
70
  0
BLOCK
  8
0
  5
72
  2
BLK2
 70
    64
 10
0.0
 20
0.0
 30
0.0
  3
BLK2
  0
ENDBLK
  8
0
  5
73
  0
BLOCK
  8
0
  5
75
  2
*X5
 70
    65
 10
524.614068
 20
502.995633
 30
0.0
  3
*X5
  0
LINE
  8
LC-007-005-----0
  6
CONTINUOUS
  5
76
 10
566.114068
 20
506.717098
 30
0.0
 11
569.614068
 21
510.217098
 31
0.0
  0
LINE
  8
LC-007-005-----0
  6
CONTINUOUS
  5
77
 10
566.114068
 20
515.20238
 30
0.0
 11
569.614068
 21
518.70238
 31
0.0
  0
LINE
  8
LC-007-005-----0
  6
CONTINUOUS
  5
78
 10
566.114068
 20
523.687661
 30
0.0
 11
569.614068
 21
527.187661
 31
0.0
  0
LINE
  8
LC-007-005-----0
  6
CONTINUOUS
  5
79
 10
566.114068
 20
532.172942
 30
0.0
 11
569.614068
 21
535.672942
 31
0.0
  0
LINE
  8
LC-007-005-----0
  6
CONTINUOUS
  5
7A
 10
566.114068
 20
540.658224
 30
0.0
 11
569.614068
 21
544.158224
 31
0.0
  0
LINE
  8
LC-007-005-----0
  6
CONTINUOUS
  5
7B
 10
566.114068
 20
549.143505
 30
0.0
 11
569.614068
 21
552.643505
 31
0.0
  0
LINE
  8
LC-007-005-----0
  6
CONTINUOUS
  5
7C
 10
566.114068
 20
557.628786
 30
0.0
 11
569.614068
 21
561.128786
 31
0.0
  0
LINE
  8
LC-007-005-----0
  6
CONTINUOUS
  5
7D
 10
566.114068
 20
566.114068
 30
0.0
 11
569.614068
 21
569.614068
 31
0.0
  0
LINE
  8
LC-007-005-----0
  6
CONTINUOUS
  5
7E
 10
572.495633
 20
572.495633
 30
0.0
 11
578.614068
 21
578.614068
 31
0.0
  0
LINE
  8
LC-007-005-----0
  6
CONTINUOUS
  5
7F
 10
564.010352
 20
572.495633
 30
0.0
 11
577.010351
 21
585.495632
 31
0.0
  0
LINE
  8
LC-007-005-----0
  6
CONTINUOUS
  5
80
 10
555.525071
 20
572.495634
 30
0.0
 11
568.52507
 21
585.495633
 31
0.0
  0
LINE
  8
LC-007-005-----0
  6
CONTINUOUS
  5
81
 10
547.03979
 20
572.495634
 30
0.0
 11
566.114042
 21
591.569886
 31
0.0
  0
LINE
  8
LC-007-005-----0
  6
CONTINUOUS
  5
82
 10
538.554509
 20
572.495635
 30
0.0
 11
558.554508
 21
592.495633
 31
0.0
  0
LINE
  8
LC-007-005-----0
  6
CONTINUOUS
  5
83
 10
530.069228
 20
572.495635
 30
0.0
 11
550.069227
 21
592.495634
 31
0.0
  0
LINE
  8
LC-007-005-----0
  6
CONTINUOUS
  5
84
 10
524.614068
 20
575.525756
 30
0.0
 11
534.583947
 21
585.495635
 31
0.0
  0
LINE
  8
LC-007-005-----0
  6
CONTINUOUS
  5
85
 10
537.114068
 20
588.025756
 30
0.0
 11
541.583946
 21
592.495634
 31
0.0
  0
LINE
  8
LC-007-005-----0
  6
CONTINUOUS
  5
86
 10
524.614068
 20
584.011037
 30
0.0
 11
526.098666
 21
585.495635
 31
0.0
  0
ENDBLK
  8
0
  5
87
  0
BLOCK
  8
0
  5
89
  2
*D6
 70
    65
 10
0.0
 20
0.0
 30
0.0
  3
*D6
  0
LINE
  8
LC-004-003-MTH-0
  6
CONTINUOUS
  5
8A
 10
253.614068
 20
585.495632
 30
0.0
 11
253.614068
 21
683.2
 31
0.0
  0
LINE
  8
LC-004-003-MTH-0
  6
CONTINUOUS
  5
8B
 10
578.614017
 20
585.495632
 30
0.0
 11
578.614017
 21
683.2
 31
0.0
  0
LINE
  8
LC-005-003-MTG-0
  6
CONTINUOUS
  5
8C
 10
253.614068
 20
666.4
 30
0.0
 11
578.614017
 21
666.4
 31
0.0
  0
LINE
  8
LC-003-003-----0
  6
CONTINUOUS
  5
8D
 10
281.374524
 20
670.054733
 30
0.0
 11
253.614068
 21
666.4
 31
0.0
  0
LINE
  8
LC-003-003-----0
  6
CONTINUOUS
  5
8E
 10
253.614068
 20
666.4
 30
0.0
 11
281.374524
 21
662.745267
 31
0.0
  0
LINE
  8
LC-003-003-----0
  6
CONTINUOUS
  5
8F
 10
281.374524
 20
662.745267
 30
0.0
 11
281.374524
 21
670.054733
 31
0.0
  0
LINE
  8
LC-003-003-----0
  6
CONTINUOUS
  5
90
 10
281.436805
 20
669.104503
 30
0.0
 11
260.894068
 21
666.4
 31
0.0
  0
LINE
  8
LC-003-003-----0
  6
CONTINUOUS
  5
91
 10
260.894068
 20
666.4
 30
0.0
 11
281.436805
 21
663.695497
 31
0.0
  0
LINE
  8
LC-003-003-----0
  6
CONTINUOUS
  5
92
 10
281.499087
 20
668.154272
 30
0.0
 11
268.174068
 21
666.4
 31
0.0
  0
LINE
  8
LC-003-003-----0
  6
CONTINUOUS
  5
93
 10
268.174068
 20
666.4
 30
0.0
 11
281.499087
 21
664.645728
 31
0.0
  0
LINE
  8
LC-003-003-----0
  6
CONTINUOUS
  5
94
 10
281.561368
 20
667.204041
 30
0.0
 11
275.454068
 21
666.4
 31
0.0
  0
LINE
  8
LC-003-003-----0
  6
CONTINUOUS
  5
95
 10
275.454068
 20
666.4
 30
0.0
 11
281.561368
 21
665.595959
 31
0.0
  0
LINE
  8
LC-003-003-----0
  6
CONTINUOUS
  5
96
 10
550.853561
 20
662.745267
 30
0.0
 11
578.614017
 21
666.4
 31
0.0
  0
LINE
  8
LC-003-003-----0
  6
CONTINUOUS
  5
97
 10
578.614017
 20
666.4
 30
0.0
 11
550.853561
 21
670.054733
 31
0.0
  0
LINE
  8
LC-003-003-----0
  6
CONTINUOUS
  5
98
 10
550.853561
 20
670.054733
 30
0.0
 11
550.853561
 21
662.745267
 31
0.0
  0
LINE
  8
LC-003-003-----0
  6
CONTINUOUS
  5
99
 10
550.791279
 20
663.695497
 30
0.0
 11
571.334017
 21
666.4
 31
0.0
  0
LINE
  8
LC-003-003-----0
  6
CONTINUOUS
  5
9A
 10
571.334017
 20
666.4
 30
0.0
 11
550.791279
 21
669.104503
 31
0.0
  0
LINE
  8
LC-003-003-----0
  6
CONTINUOUS
  5
9B
 10
550.728998
 20
664.645728
 30
0.0
 11
564.054017
 21
666.4
 31
0.0
  0
LINE
  8
LC-003-003-----0
  6
CONTINUOUS
  5
9C
 10
564.054017
 20
666.4
 30
0.0
 11
550.728998
 21
668.154272
 31
0.0
  0
LINE
  8
LC-003-003-----0
  6
CONTINUOUS
  5
9D
 10
550.666717
 20
665.595959
 30
0.0
 11
556.774017
 21
666.4
 31
0.0
  0
LINE
  8
LC-003-003-----0
  6
CONTINUOUS
  5
9E
 10
556.774017
 20
666.4
 30
0.0
 11
550.666717
 21
667.204041
 31
0.0
  0
TEXT
  8
LC-003-003-----0
  6
CONTINUOUS
 62
     8
  5
9F
 10
394.058902
 20
674.227554
 30
0.0
 40
28.0
  1
325
 41
0.9
 51
15.0
  7
LC-TXTSTYLE-150-400-0-0-A0
 72
     1
 11
420.462202
 21
674.227554
 31
0.0
  0
ENDBLK
  8
0
  5
A0
  0
BLOCK
  8
0
  5
A2
  2
*D7
 70
    65
 10
0.0
 20
0.0
 30
0.0
  3
*D7
  0
LINE
  8
LC-004-003-MTH-0
  6
CONTINUOUS
  5
A3
 10
295.114068
 20
592.495635
 30
0.0
 11
295.114068
 21
644.0
 31
0.0
  0
LINE
  8
LC-004-003-MTH-0
  6
CONTINUOUS
  5
A4
 10
537.114017
 20
592.495635
 30
0.0
 11
537.114017
 21
644.0
 31
0.0
  0
LINE
  8
LC-005-003-MTG-0
  6
CONTINUOUS
  5
A5
 10
295.114068
 20
627.2
 30
0.0
 11
537.114017
 21
627.2
 31
0.0
  0
LINE
  8
LC-003-003-----0
  6
CONTINUOUS
  5
A6
 10
322.874524
 20
630.854733
 30
0.0
 11
295.114068
 21
627.2
 31
0.0
  0
LINE
  8
LC-003-003-----0
  6
CONTINUOUS
  5
A7
 10
295.114068
 20
627.2
 30
0.0
 11
322.874524
 21
623.545267
 31
0.0
  0
LINE
  8
LC-003-003-----0
  6
CONTINUOUS
  5
A8
 10
322.874524
 20
623.545267
 30
0.0
 11
322.874524
 21
630.854733
 31
0.0
  0
LINE
  8
LC-003-003-----0
  6
CONTINUOUS
  5
A9
 10
322.936805
 20
629.904503
 30
0.0
 11
302.394068
 21
627.2
 31
0.0
  0
LINE
  8
LC-003-003-----0
  6
CONTINUOUS
  5
AA
 10
302.394068
 20
627.2
 30
0.0
 11
322.936805
 21
624.495497
 31
0.0
  0
LINE
  8
LC-003-003-----0
  6
CONTINUOUS
  5
AB
 10
322.999087
 20
628.954272
 30
0.0
 11
309.674068
 21
627.2
 31
0.0
  0
LINE
  8
LC-003-003-----0
  6
CONTINUOUS
  5
AC
 10
309.674068
 20
627.2
 30
0.0
 11
322.999087
 21
625.445728
 31
0.0
  0
LINE
  8
LC-003-003-----0
  6
CONTINUOUS
  5
AD
 10
323.061368
 20
628.004041
 30
0.0
 11
316.954068
 21
627.2
 31
0.0
  0
LINE
  8
LC-003-003-----0
  6
CONTINUOUS
  5
AE
 10
316.954068
 20
627.2
 30
0.0
 11
323.061368
 21
626.395959
 31
0.0
  0
LINE
  8
LC-003-003-----0
  6
CONTINUOUS
  5
AF
 10
509.353561
 20
623.545267
 30
0.0
 11
537.114017
 21
627.2
 31
0.0
  0
LINE
  8
LC-003-003-----0
  6
CONTINUOUS
  5
B0
 10
537.114017
 20
627.2
 30
0.0
 11
509.353561
 21
630.854733
 31
0.0
  0
LINE
  8
LC-003-003-----0
  6
CONTINUOUS
  5
B1
 10
509.353561
 20
630.854733
 30
0.0
 11
509.353561
 21
623.545267
 31
0.0
  0
LINE
  8
LC-003-003-----0
  6
CONTINUOUS
  5
B2
 10
509.291279
 20
624.495497
 30
0.0
 11
529.834017
 21
627.2
 31
0.0
  0
LINE
  8
LC-003-003-----0
  6
CONTINUOUS
  5
B3
 10
529.834017
 20
627.2
 30
0.0
 11
509.291279
 21
629.904503
 31
0.0
  0
LINE
  8
LC-003-003-----0
  6
CONTINUOUS
  5
B4
 10
509.228998
 20
625.445728
 30
0.0
 11
522.554017
 21
627.2
 31
0.0
  0
LINE
  8
LC-003-003-----0
  6
CONTINUOUS
  5
B5
 10
522.554017
 20
627.2
 30
0.0
 11
509.228998
 21
628.954272
 31
0.0
  0
LINE
  8
LC-003-003-----0
  6
CONTINUOUS
  5
B6
 10
509.166717
 20
626.395959
 30
0.0
 11
515.274017
 21
627.2
 31
0.0
  0
LINE
  8
LC-003-003-----0
  6
CONTINUOUS
  5
B7
 10
515.274017
 20
627.2
 30
0.0
 11
509.166717
 21
628.004041
 31
0.0
  0
TEXT
  8
LC-003-003-----0
  6
CONTINUOUS
 62
     8
  5
B8
 10
394.058902
 20
635.027554
 30
0.0
 40
28.0
  1
240
 41
0.9
 51
15.0
  7
LC-TXTSTYLE-150-400-0-0-A0
 72
     1
 11
420.462202
 21
635.027554
 31
0.0
  0
ENDBLK
  8
0
  5
B9
  0
ENDSEC
  0
SECTION
  2
ENTITIES
  0
VIEWPORT
  8
LC-000
  5
F5
 67
     1
 68
     1
 10
420.0
 20
297.0
 30
0.0
 40
840.0
 41
594.0
 69
     1
1001
ACAD
1000
MVIEW
1002
{
1070
    16
1010
0.0
1020
0.0
1030
0.0
1010
0.0
1020
0.0
1030
1.0
1040
0.0
1040
594.0
1040
420.0
1040
297.0
1040
50.0
1040
0.0
1040
0.0
1070
     0
1070
   100
1070
     1
1070
     1
1070
     0
1070
     0
1070
     0
1070
     0
1040
0.0
1040
0.0
1040
0.0
1040
1.0
1040
1.0
1040
0.0
1040
0.0
1070
     0
1002
{
1002
}
1002
}
  0
VIEWPORT
  8
0
  5
F6
 67
     1
 68
     1
 10
0.0
 20
0.0
 30
0.0
 40
0.0
 41
0.0
 69
     1
1001
ACAD
1000
MVIEW
1002
{
1070
    16
1010
0.0
1020
0.0
1030
0.0
1010
0.0
1020
0.0
1030
1.0
1040
0.0
1040
594.0
1040
0.0
1040
0.0
1040
50.0
1040
0.0
1040
0.0
1070
     0
1070
   100
1070
     0
1070
     1
1070
     0
1070
     0
1070
     0
1070
     0
1040
0.0
1040
0.0
1040
0.0
1040
0.5
1040
0.5
1040
0.5
1040
0.5
1070
     0
1002
{
1002
}
1002
}
  0
INSERT
  8
LC-002-000-----0
  5
BB
  2
BLK1
 10
0.0
 20
0.0
 30
0.0
  0
DIMENSION
  8
LC-003-003-----0
  6
CONTINUOUS
  5
BC
  2
*D1
 10
416.114068
 20
462.0
 30
0.0
 11
416.114068
 21
462.0
 31
0.0
  1
362
 13
233.614068
 23
502.995631
 33
0.0
 14
598.614068
 24
502.995631
 34
0.0
  3
LC-DIM-L-0140-02-02
  0
DIMENSION
  8
LC-003-003-----0
  6
CONTINUOUS
  5
BD
  2
*D2
 10
630.0
 20
547.745632
 30
0.0
 11
630.0
 21
547.745632
 31
0.0
  1
100
 13
566.114068
 23
592.495633
 33
0.0
 14
598.614068
 24
502.995631
 34
0.0
 50
90.0
  3
LC-DIM-L-0140-02-02
  0
INSERT
  8
LC-007-005-----0
  6
CONTINUOUS
  5
BE
  2
*X3
 10
253.614068
 20
502.995633
 30
0.0
  0
INSERT
  8
LC-002-000-----0
  5
BF
  2
BLK2
 10
0.0
 20
0.0
 30
0.0
  0
INSERT
  8
LC-007-005-----0
  6
CONTINUOUS
  5
C0
  2
*X5
 10
524.614068
 20
502.995633
 30
0.0
  0
DIMENSION
  8
LC-003-003-----0
  6
CONTINUOUS
  5
C1
  2
*D6
 10
416.114042
 20
666.4
 30
0.0
 11
416.114042
 21
666.4
 31
0.0
 13
253.614068
 23
585.495632
 33
0.0
 14
578.614017
 24
585.495632
 34
0.0
  3
LC-DIM-L-0140-02-02
  0
DIMENSION
  8
LC-003-003-----0
  6
CONTINUOUS
  5
C2
  2
*D7
 10
416.114042
 20
627.2
 30
0.0
 11
416.114042
 21
627.2
 31
0.0
  1
240
 13
295.114068
 23
592.495635
 33
0.0
 14
537.114017
 24
592.495635
 34
0.0
  3
LC-DIM-L-0140-02-02
  0
LINE
  8
LC-001-002-----0
  6
CONTINUOUS
  5
C4
 10
266.114068
 20
572.495633
 30
0.0
 11
266.114068
 21
502.995633
 31
0.0
  0
LINE
  8
LC-001-002-----0
  6
CONTINUOUS
  5
C5
 10
566.114068
 20
572.495633
 30
0.0
 11
566.114068
 21
502.995633
 31
0.0
  0
LINE
  8
LC-001-002-----0
  6
CONTINUOUS
  5
C6
 10
233.614068
 20
502.995631
 30
0.0
 11
233.614068
 21
509.495633
 31
0.0
  0
LINE
  8
LC-001-002-----0
  6
CONTINUOUS
  5
C7
 10
598.614068
 20
502.995631
 30
0.0
 11
598.614068
 21
509.495633
 31
0.0
  0
LINE
  8
LC-001-002-----0
  6
CONTINUOUS
  5
C8
 10
416.114068
 20
572.495642
 30
0.0
 11
566.114068
 21
572.495633
 31
0.0
  0
LINE
  8
LC-001-002-----0
  6
CONTINUOUS
  5
C9
 10
569.614068
 20
572.495633
 30
0.0
 11
578.614068
 21
572.495632
 31
0.0
  0
LINE
  8
LC-001-002-----0
  6
CONTINUOUS
 62
     2
  5
CA
 10
566.084302
 20
570.995633
 30
0.0
 11
567.584302
 21
572.495633
 31
0.0
  0
LINE
  8
LC-001-002-----0
  6
CONTINUOUS
 62
     2
  5
CB
 10
385.378527
 20
640.38
 30
0.0
 11
370.378527
 21
640.38
 31
0.0
  0
LINE
  8
LC-001-002-----0
  6
CONTINUOUS
 62
     2
  5
CC
 10
370.378527
 20
640.38
 30
0.0
 11
370.378527
 21
655.38
 31
0.0
  0
LINE
  8
LC-001-002-----0
  6
CONTINUOUS
 62
     2
  5
CD
 10
385.378527
 20
655.38
 30
0.0
 11
370.378527
 21
655.38
 31
0.0
  0
LINE
  8
LC-001-002-----0
  6
CONTINUOUS
 62
     2
  5
CE
 10
385.378527
 20
640.38
 30
0.0
 11
385.378527
 21
655.38
 31
0.0
  0
LINE
  8
LC-001-002-----0
  6
CONTINUOUS
 62
     2
  5
CF
 10
387.241307
 20
489.357113
 30
0.0
 11
372.241307
 21
489.357113
 31
0.0
  0
LINE
  8
LC-001-002-----0
  6
CONTINUOUS
 62
     2
  5
D0
 10
387.241307
 20
474.357113
 30
0.0
 11
387.241307
 21
489.357113
 31
0.0
  0
LINE
  8
LC-001-002-----0
  6
CONTINUOUS
 62
     2
  5
D1
 10
387.241307
 20
474.357113
 30
0.0
 11
372.241307
 21
474.357113
 31
0.0
  0
LINE
  8
LC-001-002-----0
  6
CONTINUOUS
 62
     2
  5
D2
 10
372.241307
 20
474.357113
 30
0.0
 11
372.241307
 21
489.357113
 31
0.0
  0
LINE
  8
LC-001-002-----0
  6
CONTINUOUS
  5
D3
 10
262.614068
 20
502.995632
 30
0.0
 11
262.614068
 21
572.495633
 31
0.0
  0
LINE
  8
LC-001-002-----0
  6
CONTINUOUS
  5
D4
 10
416.114068
 20
572.495642
 30
0.0
 11
266.114068
 21
572.495633
 31
0.0
  0
LINE
  8
LC-001-002-----0
  6
CONTINUOUS
  5
D5
 10
253.614068
 20
509.495633
 30
0.0
 11
253.614068
 21
585.495632
 31
0.0
  0
LINE
  8
LC-001-002-----0
  6
CONTINUOUS
  5
D6
 10
566.114068
 20
502.995651
 30
0.0
 11
233.614068
 21
502.995631
 31
0.0
  0
LINE
  8
LC-001-002-----0
  6
DASHDOT
 62
     2
  5
D8
 10
416.11339
 20
145.497748
 30
0.0
 11
416.11339
 21
105.340714
 31
0.0
  0
LINE
  8
LC-001-002-----0
  6
CONTINUOUS
 62
     2
  5
D9
 10
416.11339
 20
106.225828
 30
0.0
 11
425.429998
 21
105.547756
 31
0.0
  0
LINE
  8
LC-001-002-----0
  6
CONTINUOUS
  5
DA
 10
253.614068
 20
509.495633
 30
0.0
 11
233.614068
 21
509.495633
 31
0.0
  0
LINE
  8
LC-001-002-----0
  6
CONTINUOUS
  5
DB
 10
295.114068
 20
585.495633
 30
0.0
 11
295.114068
 21
592.495633
 31
0.0
  0
LINE
  8
LC-001-002-----0
  6
CONTINUOUS
  5
DC
 10
416.114068
 20
585.495642
 30
0.0
 11
295.114068
 21
585.495635
 31
0.0
  0
LINE
  8
LC-001-002-----0
  6
CONTINUOUS
  5
DD
 10
307.614068
 20
572.495635
 30
0.0
 11
307.614068
 21
585.495635
 31
0.0
  0
LINE
  8
LC-001-002-----0
  6
CONTINUOUS
  5
DE
 10
262.614068
 20
572.495633
 30
0.0
 11
253.614068
 21
572.495632
 31
0.0
  0
LINE
  8
LC-001-002-----0
  6
CONTINUOUS
  5
DF
 10
566.114068
 20
502.995633
 30
0.0
 11
598.614068
 21
502.995631
 31
0.0
  0
LINE
  8
LC-001-002-----0
  6
CONTINUOUS
  5
E0
 10
253.614068
 20
572.495632
 30
0.0
 11
253.614068
 21
585.495632
 31
0.0
  0
LINE
  8
LC-001-002-----0
  6
CONTINUOUS
  5
E1
 10
416.114068
 20
592.495642
 30
0.0
 11
266.114068
 21
592.495633
 31
0.0
  0
LINE
  8
LC-001-002-----0
  6
DASHDOT
 62
     2
  5
E2
 10
416.113999
 20
572.495642
 30
0.0
 11
416.114036
 21
502.995642
 31
0.0
  0
LINE
  8
LC-001-002-----0
  6
DASHDOT
 62
     2
  5
E3
 10
416.114068
 20
572.495642
 30
0.0
 11
416.114068
 21
592.495642
 31
0.0
  0
LINE
  8
LC-001-002-----0
  6
CONTINUOUS
  5
E4
 10
569.614068
 20
502.995632
 30
0.0
 11
569.614068
 21
572.495633
 31
0.0
  0
LINE
  8
LC-001-002-----0
  6
CONTINUOUS
  5
E5
 10
578.614068
 20
509.495633
 30
0.0
 11
578.614068
 21
585.495632
 31
0.0
  0
LINE
  8
LC-001-002-----0
  6
CONTINUOUS
  5
E6
 10
578.614068
 20
572.495632
 30
0.0
 11
578.614068
 21
585.495632
 31
0.0
  0
LINE
  8
LC-001-002-----0
  6
CONTINUOUS
  5
E7
 10
578.614068
 20
509.495633
 30
0.0
 11
598.614068
 21
509.495633
 31
0.0
  0
LINE
  8
LC-001-002-----0
  6
CONTINUOUS
  5
E8
 10
266.114068
 20
585.495633
 30
0.0
 11
266.114068
 21
592.495633
 31
0.0
  0
LINE
  8
LC-001-002-----0
  6
CONTINUOUS
  5
E9
 10
266.114068
 20
585.495633
 30
0.0
 11
253.614068
 21
585.495632
 31
0.0
  0
LINE
  8
LC-001-002-----0
  6
CONTINUOUS
  5
EA
 10
537.114068
 20
585.495633
 30
0.0
 11
537.114068
 21
592.495633
 31
0.0
  0
LINE
  8
LC-001-002-----0
  6
CONTINUOUS
  5
EB
 10
566.114068
 20
585.495633
 30
0.0
 11
566.114068
 21
592.495633
 31
0.0
  0
LINE
  8
LC-001-002-----0
  6
CONTINUOUS
  5
EC
 10
416.114068
 20
592.495642
 30
0.0
 11
566.114068
 21
592.495633
 31
0.0
  0
LINE
  8
LC-001-002-----0
  6
CONTINUOUS
  5
ED
 10
416.114068
 20
585.495642
 30
0.0
 11
537.114068
 21
585.495635
 31
0.0
  0
LINE
  8
LC-001-002-----0
  6
CONTINUOUS
  5
EE
 10
524.614068
 20
572.495635
 30
0.0
 11
524.614068
 21
585.495635
 31
0.0
  0
LINE
  8
LC-001-002-----0
  6
CONTINUOUS
  5
EF
 10
566.114068
 20
585.495633
 30
0.0
 11
578.614068
 21
585.495632
 31
0.0
  0
LINE
  8
LC-001-002-----0
  6
CONTINUOUS
 62
     2
  5
F0
 10
385.378527
 20
679.58
 30
0.0
 11
370.378527
 21
679.58
 31
0.0
  0
LINE
  8
LC-001-002-----0
  6
CONTINUOUS
 62
     2
  5
F1
 10
370.378527
 20
679.58
 30
0.0
 11
370.378527
 21
694.58
 31
0.0
  0
LINE
  8
LC-001-002-----0
  6
CONTINUOUS
 62
     2
  5
F2
 10
385.378527
 20
694.58
 30
0.0
 11
370.378527
 21
694.58
 31
0.0
  0
LINE
  8
LC-001-002-----0
  6
CONTINUOUS
 62
     2
  5
F3
 10
385.378527
 20
679.58
 30
0.0
 11
385.378527
 21
694.58
 31
0.0
  0
ENDSEC
  0
EOF
