  0
SECTION
  2
HEADER
  9
$ACADVER
  1
AC1009
  9
$INSBASE
 10
0.0
 20
0.0
 30
0.0
  9
$EXTMIN
 10
-210.0
 20
-148.5
 30
0.0
  9
$EXTMAX
 10
630.0
 20
445.5
 30
0.0
  9
$LIMMIN
 10
-210.0
 20
-148.5
  9
$LIMMAX
 10
630.0
 20
445.5
  9
$ORTHOMODE
 70
     0
  9
$REGENMODE
 70
     1
  9
$FILLMODE
 70
     1
  9
$QTEXTMODE
 70
     0
  9
$MIRRTEXT
 70
     1
  9
$DRAGMODE
 70
     2
  9
$LTSCALE
 40
2.0
  9
$OSMODE
 70
     0
  9
$ATTMODE
 70
     1
  9
$TEXTSIZE
 40
0.2
  9
$TRACEWID
 40
0.05
  9
$TEXTSTYLE
  7
STANDARD
  9
$CLAYER
  8
0
  9
$CELTYPE
  6
BYLAYER
  9
$CECOLOR
 62
     7
  9
$DIMSCALE
 40
2.0
  9
$DIMASZ
 40
3.5
  9
$DIMEXO
 40
0.0625
  9
$DIMDLI
 40
0.38
  9
$DIMRND
 40
0.0
  9
$DIMDLE
 40
0.0
  9
$DIMEXE
 40
0.18
  9
$DIMTP
 40
0.0
  9
$DIMTM
 40
0.0
  9
$DIMTXT
 40
3.5
  9
$DIMCEN
 40
0.09
  9
$DIMTSZ
 40
0.0
  9
$DIMTOL
 70
     0
  9
$DIMLIM
 70
     0
  9
$DIMTIH
 70
     1
  9
$DIMTOH
 70
     1
  9
$DIMSE1
 70
     0
  9
$DIMSE2
 70
     0
  9
$DIMTAD
 70
     1
  9
$DIMZIN
 70
     0
  9
$DIMBLK
  1

  9
$DIMASO
 70
     1
  9
$DIMSHO
 70
     1
  9
$DIMPOST
  1

  9
$DIMAPOST
  1

  9
$DIMALT
 70
     0
  9
$DIMALTD
 70
     2
  9
$DIMALTF
 40
25.4
  9
$DIMLFAC
 40
1.0
  9
$DIMTOFL
 70
     0
  9
$DIMTVP
 40
0.0
  9
$DIMTIX
 70
     0
  9
$DIMSOXD
 70
     0
  9
$DIMSAH
 70
     0
  9
$DIMBLK1
  1

  9
$DIMBLK2
  1

  9
$DIMSTYLE
  2
STANDARD
  9
$DIMCLRD
 70
     0
  9
$DIMCLRE
 70
     0
  9
$DIMCLRT
 70
     0
  9
$DIMTFAC
 40
1.0
  9
$DIMGAP
 40
0.09
  9
$LUNITS
 70
     2
  9
$LUPREC
 70
     2
  9
$AXISMODE
 70
     0
  9
$AXISUNIT
 10
0.0
 20
0.0
  9
$SKETCHINC
 40
0.1
  9
$FILLETRAD
 40
0.0
  9
$AUNITS
 70
     0
  9
$AUPREC
 70
     0
  9
$MENU
  1
acad
  9
$ELEVATION
 40
0.0
  9
$PELEVATION
 40
0.0
  9
$THICKNESS
 40
0.0
  9
$LIMCHECK
 70
     0
  9
$BLIPMODE
 70
     1
  9
$CHAMFERA
 40
0.0
  9
$CHAMFERB
 40
0.0
  9
$SKPOLY
 70
     0
  9
$TDCREATE
 40
0.000000000
  9
$TDUPDATE
 40
0.000000000
  9
$TDINDWG
 40
0.0000000000
  9
$TDUSRTIMER
 40
0.0000000000
  9
$USRTIMER
 70
     1
  9
$ANGBASE
 50
0.0
  9
$ANGDIR
 70
     0
  9
$PDMODE
 70
     0
  9
$PDSIZE
 40
0.0
  9
$PLINEWID
 40
0.0
  9
$COORDS
 70
     0
  9
$SPLFRAME
 70
     0
  9
$SPLINETYPE
 70
     6
  9
$SPLINESEGS
 70
     8
  9
$ATTDIA
 70
     0
  9
$ATTREQ
 70
     1
  9
$HANDLING
 70
     1
  9
$HANDSEED
  5
3FA
  9
$SURFTAB1
 70
     6
  9
$SURFTAB2
 70
     6
  9
$SURFTYPE
 70
     6
  9
$SURFU
 70
     6
  9
$SURFV
 70
     6
  9
$UCSNAME
  2

  9
$UCSORG
 10
0.0
 20
0.0
 30
0.0
  9
$UCSXDIR
 10
1.0
 20
0.0
 30
0.0
  9
$UCSYDIR
 10
0.0
 20
1.0
 30
0.0
  9
$PUCSNAME
  2

  9
$PUCSORG
 10
0.0
 20
0.0
 30
0.0
  9
$PUCSXDIR
 10
1.0
 20
0.0
 30
0.0
  9
$PUCSYDIR
 10
0.0
 20
1.0
 30
0.0
  9
$USERI1
 70
     0
  9
$USERI2
 70
     0
  9
$USERI3
 70
     0
  9
$USERI4
 70
     0
  9
$USERI5
 70
     0
  9
$USERR1
 40
0.0
  9
$USERR2
 40
0.0
  9
$USERR3
 40
0.0
  9
$USERR4
 40
0.0
  9
$USERR5
 40
0.0
  9
$WORLDVIEW
 70
     1
  9
$SHADEDGE
 70
     3
  9
$SHADEDIF
 70
    70
  9
$TILEMODE
 70
     1
  9
$MAXACTVP
 70
    16
  9
$PINSBASE
 10
0.0
 20
0.0
 30
0.0
  9
$PLIMCHECK
 70
     0
  9
$PEXTMIN
 10
1.000000E+20
 20
1.000000E+20
 30
1.000000E+20
  9
$PEXTMAX
 10
-1.000000E+20
 20
-1.000000E+20
 30
-1.000000E+20
  9
$PLIMMIN
 10
-210.0
 20
-148.5
  9
$PLIMMAX
 10
630.0
 20
445.5
  9
$UNITMODE
 70
     0
  9
$VISRETAIN
 70
     0
  9
$PLINEGEN
 70
     1
  9
$PSLTSCALE
 70
     0
  9
$TREEDEPTH
 70
  3020
  9
$DWGCODEPAGE
  3
dos850
  0
ENDSEC
  0
SECTION
  2
TABLES
  0
TABLE
  2
VPORT
 70
     1
  0
VPORT
  2
*ACTIVE
 70
     0
 10
0.0
 20
0.0
 11
1.0
 21
1.0
 12
420.0
 22
297.0
 13
0.0
 23
0.0
 14
1.0
 24
1.0
 15
0.0
 25
0.0
 16
0.0
 26
0.0
 36
1.0
 17
-210.0
 27
-148.5
 37
0.0
 40
594.0
 41
1.604229
 42
50.0
 43
0.0
 44
0.0
 50
0.0
 51
0.0
 71
     0
 72
   100
 73
     1
 74
     1
 75
     0
 76
     0
 77
     0
 78
     0
  0
ENDTAB
  0
TABLE
  2
LTYPE
 70
     4
  0
LTYPE
  2
CONTINUOUS
 70
    64
  3
Solid line
 72
    65
 73
     0
 40
0.0
  0
LTYPE
  2
DASHED
 70
    64
  3
__ __ __ __ __
 72
    65
 73
     2
 40
6.25
 49
5.0
 49
-1.25
  0
LTYPE
  2
DASHDOT
 70
    64
  3
__ . __ . __ . __ . __
 72
    65
 73
     4
 40
7.5
 49
5.0
 49
-1.25
 49
0.0
 49
-1.25
  0
LTYPE
  2
CENTER
 70
    64
  3
__ . __ . __ . __ . __
 72
    65
 73
     4
 40
7.5
 49
5.0
 49
-1.25
 49
0.0
 49
-1.25
  0
ENDTAB
  0
TABLE
  2
LAYER
 70
    11
  0
LAYER
  2
0
 70
     0
 62
     7
  6
CONTINUOUS
  0
LAYER
  2
LC-INFO-1-2-MM-A3-0
 70
     1
 62
    -1
  6
CONTINUOUS
  0
LAYER
  2
LC-004-005-----0
 70
     0
 62
     2
  6
CONTINUOUS
  0
LAYER
  2
LC-007-003-MTH-0
 70
     0
 62
     2
  6
CONTINUOUS
  0
LAYER
  2
LC-008-003-MTG-0
 70
     0
 62
     2
  6
CONTINUOUS
  0
LAYER
  2
LC-006-003-----0
 70
     0
 62
     2
  6
CONTINUOUS
  0
LAYER
  2
LC-001-000-----0
 70
     0
 62
     7
  6
CONTINUOUS
  0
LAYER
  2
LC-002-002-----0
 70
     0
 62
     1
  6
CONTINUOUS
  0
LAYER
  2
LC-003-002-RND-0
 70
     0
 62
     1
  6
CONTINUOUS
  0
LAYER
  2
LC-005-006-MLN-0
 70
     0
 62
     2
  6
CENTER
  0
LAYER
  2
LC-000
 70
     0
 62
     7
  6
CONTINUOUS
  0
ENDTAB
  0
TABLE
  2
STYLE
 70
     3
  0
STYLE
  2
STANDARD
 70
     0
 40
0.0
 41
1.0
 50
0.0
 71
     0
 42
0.0
  3
txt
  4

  0
STYLE
  2
LC-TXTSTYLE-150-400-0-0-A1
 70
    64
 40
0.0
 41
1.0
 50
15.0
 71
     0
 42
3.5
  3
Arial
  4

  0
STYLE
  2
LC-STANDARD
 70
    64
 40
0.0
 41
1.0
 50
0.0
 71
     0
 42
3.5
  3
MONOTXT
  4

  0
ENDTAB
  0
TABLE
  2
VIEW
 70
     0
  0
ENDTAB
  0
TABLE
  2
UCS
 70
     0
  0
ENDTAB
  0
TABLE
  2
APPID
 70
     1
  0
APPID
  2
ACAD
 70
     0
  0
ENDTAB
  0
TABLE
  2
DIMSTYLE
 70
     5
  0
DIMSTYLE
  2
STANDARD
 70
     0
  3

  4

  5

  6

  7

 40
1.0
 41
0.18
 42
0.0625
 43
0.38
 44
0.18
 45
0.0
 46
0.0
 47
0.0
 48
0.0
 71
     0
 72
     0
 73
     1
 74
     1
 75
     0
 76
     0
 77
     0
 78
     0
140
0.18
141
0.09
142
0.0
143
25.4
144
1.0
145
0.0
146
1.0
147
0.09
170
     0
171
     2
172
     0
173
     0
174
     0
175
     0
176
     0
177
     0
178
     0
  0
DIMSTYLE
  2
LC-STANDARD
 70
     0
  3

  4

  5

  6

  7

 40
1.0
 41
3.5
 42
0.0
 43
7.5
 44
1.8
 45
0.0
 46
0.0
 47
0.0
 48
0.0
 71
     0
 72
     0
 73
     0
 74
     0
 75
     0
 76
     0
 77
     1
 78
     8
140
3.5
141
0.0
142
0.0
143
25.4
144
1.0
145
0.0
146
0.71
147
1.5
170
     0
171
     2
172
     1
173
     0
174
     0
175
     0
176
     0
177
     0
178
     3
  0
DIMSTYLE
  2
LC-DIM-L-0140-01-02
 70
     0
  3

  4

  5

  6

  7

 40
2.0
 41
3.5
 42
0.0
 43
7.5
 44
1.8
 45
0.0
 46
0.0
 47
0.0
 48
0.0
 71
     0
 72
     0
 73
     0
 74
     0
 75
     0
 76
     0
 77
     1
 78
     8
140
14.0
141
0.0
142
0.0
143
25.4
144
1.0
145
0.0
146
0.71
147
1.5
170
     0
171
     2
172
     0
173
     0
174
     0
175
     0
176
     2
177
     2
178
     8
  0
DIMSTYLE
  2
LC-DIM-L-0140-00-02
 70
     0
  3

  4

  5

  6

  7

 40
2.0
 41
3.5
 42
0.0
 43
7.5
 44
1.8
 45
0.0
 46
0.0
 47
0.0
 48
0.0
 71
     0
 72
     0
 73
     0
 74
     0
 75
     0
 76
     0
 77
     1
 78
     8
140
14.0
141
0.0
142
0.0
143
25.4
144
1.0
145
0.0
146
0.71
147
1.5
170
     0
171
     2
172
     0
173
     0
174
     0
175
     0
176
     2
177
     2
178
     8
  0
DIMSTYLE
  2
LC-DIM-L-0140-02-02
 70
     0
  3

  4

  5

  6

  7

 40
2.0
 41
3.5
 42
0.0
 43
7.5
 44
1.8
 45
0.0
 46
0.0
 47
0.0
 48
0.0
 71
     0
 72
     0
 73
     0
 74
     0
 75
     0
 76
     0
 77
     1
 78
     8
140
14.0
141
0.0
142
0.0
143
25.4
144
1.0
145
0.0
146
0.71
147
1.5
170
     0
171
     2
172
     0
173
     0
174
     0
175
     0
176
     2
177
     2
178
     8
  0
ENDTAB
  0
ENDSEC
  0
SECTION
  2
BLOCKS
  0
BLOCK
  8
0
  5
25
  2
BLK1
 70
    64
 10
0.0
 20
0.0
 30
0.0
  3
BLK1
  0
ENDBLK
  8
0
  5
26
  0
BLOCK
  8
0
  5
28
  2
*X1
 70
    65
 10
90.972422
 20
211.58
 30
0.0
  3
*X1
  0
LINE
  8
LC-004-005-----0
  6
CONTINUOUS
  5
2A
 10
183.295729
 20
211.58
 30
0.0
 11
185.407835
 21
213.692106
 31
0.0
  0
LINE
  8
LC-004-005-----0
  6
CONTINUOUS
  5
2B
 10
180.467302
 20
211.58
 30
0.0
 11
185.180729
 21
216.293427
 31
0.0
  0
LINE
  8
LC-004-005-----0
  6
CONTINUOUS
  5
2C
 10
179.972422
 20
213.913547
 30
0.0
 11
185.90378
 21
219.844905
 31
0.0
  0
LINE
  8
LC-004-005-----0
  6
CONTINUOUS
  5
2D
 10
179.972422
 20
216.741975
 30
0.0
 11
185.855499
 21
222.625051
 31
0.0
  0
LINE
  8
LC-004-005-----0
  6
CONTINUOUS
  5
2E
 10
179.972422
 20
219.570402
 30
0.0
 11
185.807218
 21
225.405197
 31
0.0
  0
LINE
  8
LC-004-005-----0
  6
CONTINUOUS
  5
2F
 10
178.807923
 20
221.23433
 30
0.0
 11
185.758936
 21
228.185343
 31
0.0
  0
LINE
  8
LC-004-005-----0
  6
CONTINUOUS
  5
30
 10
176.577213
 20
221.832047
 30
0.0
 11
185.710655
 21
230.965489
 31
0.0
  0
LINE
  8
LC-004-005-----0
  6
CONTINUOUS
  5
31
 10
174.346502
 20
222.429764
 30
0.0
 11
178.446739
 21
226.53
 31
0.0
  0
LINE
  8
LC-004-005-----0
  6
CONTINUOUS
  5
32
 10
179.274486
 20
227.357747
 30
0.0
 11
185.662374
 21
233.745635
 31
0.0
  0
LINE
  8
LC-004-005-----0
  6
CONTINUOUS
  5
33
 10
171.61831
 20
222.529998
 30
0.0
 11
175.618312
 21
226.53
 31
0.0
  0
LINE
  8
LC-004-005-----0
  6
CONTINUOUS
  5
34
 10
179.225975
 20
230.137663
 30
0.0
 11
185.614093
 21
236.525781
 31
0.0
  0
LINE
  8
LC-004-005-----0
  6
CONTINUOUS
  5
35
 10
168.789883
 20
222.529998
 30
0.0
 11
172.789885
 21
226.53
 31
0.0
  0
LINE
  8
LC-004-005-----0
  6
CONTINUOUS
  5
36
 10
179.177465
 20
232.91758
 30
0.0
 11
185.565812
 21
239.305927
 31
0.0
  0
LINE
  8
LC-004-005-----0
  6
CONTINUOUS
  5
37
 10
165.961456
 20
222.529998
 30
0.0
 11
169.961458
 21
226.53
 31
0.0
  0
LINE
  8
LC-004-005-----0
  6
CONTINUOUS
  5
38
 10
179.128954
 20
235.697497
 30
0.0
 11
185.517531
 21
242.086073
 31
0.0
  0
LINE
  8
LC-004-005-----0
  6
CONTINUOUS
  5
39
 10
163.133029
 20
222.529998
 30
0.0
 11
167.13303
 21
226.53
 31
0.0
  0
LINE
  8
LC-004-005-----0
  6
CONTINUOUS
  5
3A
 10
179.080444
 20
238.477414
 30
0.0
 11
185.46925
 21
244.866219
 31
0.0
  0
LINE
  8
LC-004-005-----0
  6
CONTINUOUS
  5
3B
 10
160.304602
 20
222.529998
 30
0.0
 11
164.304603
 21
226.53
 31
0.0
  0
LINE
  8
LC-004-005-----0
  6
CONTINUOUS
  5
3C
 10
179.031934
 20
241.25733
 30
0.0
 11
185.420968
 21
247.646365
 31
0.0
  0
LINE
  8
LC-004-005-----0
  6
CONTINUOUS
  5
3D
 10
157.476175
 20
222.529999
 30
0.0
 11
161.476176
 21
226.53
 31
0.0
  0
LINE
  8
LC-004-005-----0
  6
CONTINUOUS
  5
3E
 10
178.983423
 20
244.037247
 30
0.0
 11
179.625776
 21
244.6796
 31
0.0
  0
LINE
  8
LC-004-005-----0
  6
CONTINUOUS
  5
3F
 10
181.046821
 20
246.100645
 30
0.0
 11
185.372687
 21
250.426511
 31
0.0
  0
LINE
  8
LC-004-005-----0
  6
CONTINUOUS
  5
40
 10
154.647748
 20
222.529999
 30
0.0
 11
158.647749
 21
226.53
 31
0.0
  0
LINE
  8
LC-004-005-----0
  6
CONTINUOUS
  5
41
 10
181.203251
 20
249.085502
 30
0.0
 11
185.297349
 21
253.1796
 31
0.0
  0
LINE
  8
LC-004-005-----0
  6
CONTINUOUS
  5
42
 10
151.819321
 20
222.529999
 30
0.0
 11
155.819322
 21
226.53
 31
0.0
  0
LINE
  8
LC-004-005-----0
  6
CONTINUOUS
  5
43
 10
181.359681
 20
252.070359
 30
0.0
 11
182.43907
 21
253.149749
 31
0.0
  0
LINE
  8
LC-004-005-----0
  6
CONTINUOUS
  5
44
 10
148.990894
 20
222.529999
 30
0.0
 11
152.990895
 21
226.53
 31
0.0
  0
LINE
  8
LC-004-005-----0
  6
CONTINUOUS
  5
45
 10
146.162467
 20
222.529999
 30
0.0
 11
150.162468
 21
226.53
 31
0.0
  0
LINE
  8
LC-004-005-----0
  6
CONTINUOUS
  5
46
 10
143.33404
 20
222.529999
 30
0.0
 11
147.334041
 21
226.53
 31
0.0
  0
LINE
  8
LC-004-005-----0
  6
CONTINUOUS
  5
47
 10
140.505613
 20
222.529999
 30
0.0
 11
144.505613
 21
226.53
 31
0.0
  0
LINE
  8
LC-004-005-----0
  6
CONTINUOUS
  5
48
 10
137.677186
 20
222.529999
 30
0.0
 11
141.677186
 21
226.53
 31
0.0
  0
LINE
  8
LC-004-005-----0
  6
CONTINUOUS
  5
49
 10
134.848758
 20
222.529999
 30
0.0
 11
138.848759
 21
226.53
 31
0.0
  0
LINE
  8
LC-004-005-----0
  6
CONTINUOUS
  5
4A
 10
132.020331
 20
222.529999
 30
0.0
 11
136.020332
 21
226.53
 31
0.0
  0
LINE
  8
LC-004-005-----0
  6
CONTINUOUS
  5
4B
 10
129.191904
 20
222.53
 30
0.0
 11
133.191905
 21
226.53
 31
0.0
  0
LINE
  8
LC-004-005-----0
  6
CONTINUOUS
  5
4C
 10
126.363477
 20
222.53
 30
0.0
 11
130.363478
 21
226.53
 31
0.0
  0
LINE
  8
LC-004-005-----0
  6
CONTINUOUS
  5
4D
 10
123.53505
 20
222.53
 30
0.0
 11
127.535051
 21
226.53
 31
0.0
  0
LINE
  8
LC-004-005-----0
  6
CONTINUOUS
  5
4E
 10
120.706623
 20
222.53
 30
0.0
 11
124.706624
 21
226.53
 31
0.0
  0
LINE
  8
LC-004-005-----0
  6
CONTINUOUS
  5
4F
 10
117.878196
 20
222.53
 30
0.0
 11
121.878196
 21
226.53
 31
0.0
  0
LINE
  8
LC-004-005-----0
  6
CONTINUOUS
  5
50
 10
115.976792
 20
223.457023
 30
0.0
 11
119.972422
 21
227.452653
 31
0.0
  0
LINE
  8
LC-004-005-----0
  6
CONTINUOUS
  5
51
 10
115.976792
 20
226.28545
 30
0.0
 11
119.972422
 21
230.28108
 31
0.0
  0
LINE
  8
LC-004-005-----0
  6
CONTINUOUS
  5
52
 10
115.976792
 20
229.113877
 30
0.0
 11
119.66961
 21
232.806695
 31
0.0
  0
LINE
  8
LC-004-005-----0
  6
CONTINUOUS
  5
53
 10
115.293711
 20
231.259223
 30
0.0
 11
118.452686
 21
234.418198
 31
0.0
  0
LINE
  8
LC-004-005-----0
  6
CONTINUOUS
  5
54
 10
112.486061
 20
231.28
 30
0.0
 11
116.456644
 21
235.250583
 31
0.0
  0
LINE
  8
LC-004-005-----0
  6
CONTINUOUS
  5
55
 10
101.157634
 20
222.78
 30
0.0
 11
103.972422
 21
225.594788
 31
0.0
  0
LINE
  8
LC-004-005-----0
  6
CONTINUOUS
  5
56
 10
109.657634
 20
231.28
 30
0.0
 11
113.657634
 21
235.28
 31
0.0
  0
LINE
  8
LC-004-005-----0
  6
CONTINUOUS
  5
57
 10
98.329207
 20
222.78
 30
0.0
 11
103.972422
 21
228.423215
 31
0.0
  0
LINE
  8
LC-004-005-----0
  6
CONTINUOUS
  5
58
 10
107.152999
 20
231.603793
 30
0.0
 11
110.829207
 21
235.28
 31
0.0
  0
LINE
  8
LC-004-005-----0
  6
CONTINUOUS
  5
59
 10
95.500779
 20
222.78
 30
0.0
 11
99.500779
 21
226.78
 31
0.0
  0
LINE
  8
LC-004-005-----0
  6
CONTINUOUS
  5
5A
 10
99.972422
 20
227.251643
 30
0.0
 11
108.000779
 21
235.28
 31
0.0
  0
LINE
  8
LC-004-005-----0
  6
CONTINUOUS
  5
5B
 10
92.672352
 20
222.78
 30
0.0
 11
96.672352
 21
226.78
 31
0.0
  0
LINE
  8
LC-004-005-----0
  6
CONTINUOUS
  5
5C
 10
99.972422
 20
230.08007
 30
0.0
 11
105.172352
 21
235.28
 31
0.0
  0
LINE
  8
LC-004-005-----0
  6
CONTINUOUS
  5
5D
 10
90.972422
 20
223.908497
 30
0.0
 11
93.843925
 21
226.78
 31
0.0
  0
LINE
  8
LC-004-005-----0
  6
CONTINUOUS
  5
5E
 10
100.875321
 20
233.811395
 30
0.0
 11
101.441027
 21
234.377101
 31
0.0
  0
LINE
  8
LC-004-005-----0
  6
CONTINUOUS
  5
5F
 10
90.972422
 20
226.736924
 30
0.0
 11
91.015498
 21
226.78
 31
0.0
  0
ENDBLK
  8
0
  5
60
  0
BLOCK
  8
0
  5
62
  2
BLK2
 70
    64
 10
0.0
 20
0.0
 30
0.0
  3
BLK2
  0
ENDBLK
  8
0
  5
63
  0
BLOCK
  8
0
  5
65
  2
*X3
 70
    65
 10
104.976792
 20
223.28
 30
0.0
  3
*X3
  0
LINE
  8
LC-004-005-----0
  6
CONTINUOUS
  5
66
 10
112.972988
 20
223.281646
 30
0.0
 11
112.974277
 21
223.282935
 31
0.0
  0
LINE
  8
LC-004-005-----0
  6
CONTINUOUS
  5
67
 10
107.051072
 20
225.845012
 30
0.0
 11
112.486061
 21
231.28
 31
0.0
  0
ENDBLK
  8
0
  5
68
  0
BLOCK
  8
0
  5
6A
  2
*X4
 70
    65
 10
104.976792
 20
51.78
 30
0.0
  3
*X4
  0
LINE
  8
LC-004-005-----0
  6
CONTINUOUS
  5
6B
 10
111.576881
 20
52.179911
 30
0.0
 11
115.776868
 21
56.379899
 31
0.0
  0
LINE
  8
LC-004-005-----0
  6
CONTINUOUS
  5
6C
 10
104.976792
 20
54.065104
 30
0.0
 11
109.829234
 21
58.917545
 31
0.0
  0
ENDBLK
  8
0
  5
6D
  0
BLOCK
  8
0
  5
6F
  2
BLK3
 70
    64
 10
0.0
 20
0.0
 30
0.0
  3
BLK3
  0
ENDBLK
  8
0
  5
70
  0
BLOCK
  8
0
  5
72
  2
*X6
 70
    65
 10
-270.473096
 20
-110.45957
 30
0.0
  3
*X6
  0
LINE
  8
LC-004-005-----0
  6
CONTINUOUS
  5
73
 10
216.283251
 20
72.033467
 30
0.0
 11
217.542079
 21
73.292295
 31
0.0
  0
LINE
  8
LC-004-005-----0
  6
CONTINUOUS
  5
74
 10
220.294149
 20
76.044366
 30
0.0
 11
221.691662
 21
77.441878
 31
0.0
  0
LINE
  8
LC-004-005-----0
  6
CONTINUOUS
  5
75
 10
203.036898
 20
61.615542
 30
0.0
 11
203.581583
 21
62.160227
 31
0.0
  0
LINE
  8
LC-004-005-----0
  6
CONTINUOUS
  5
76
 10
212.849331
 20
71.427975
 30
0.0
 11
214.082134
 21
72.660778
 31
0.0
  0
LINE
  8
LC-004-005-----0
  6
CONTINUOUS
  5
77
 10
221.264963
 20
79.843607
 30
0.0
 11
222.625366
 21
81.204009
 31
0.0
  0
LINE
  8
LC-004-005-----0
  6
CONTINUOUS
  5
78
 10
200.658887
 20
62.065958
 30
0.0
 11
201.382757
 21
62.789828
 31
0.0
  0
LINE
  8
LC-004-005-----0
  6
CONTINUOUS
  5
79
 10
209.415411
 20
70.822482
 30
0.0
 11
210.648214
 21
72.055285
 31
0.0
  0
LINE
  8
LC-004-005-----0
  6
CONTINUOUS
  5
7A
 10
222.152403
 20
83.559473
 30
0.0
 11
223.479729
 21
84.8868
 31
0.0
  0
LINE
  8
LC-004-005-----0
  6
CONTINUOUS
  5
7B
 10
200.081583
 20
64.317082
 30
0.0
 11
201.081583
 21
65.317082
 31
0.0
  0
LINE
  8
LC-004-005-----0
  6
CONTINUOUS
  5
7C
 10
205.981491
 20
70.216989
 30
0.0
 11
207.214294
 21
71.449792
 31
0.0
  0
LINE
  8
LC-004-005-----0
  6
CONTINUOUS
  5
7D
 10
222.963495
 20
87.198993
 30
0.0
 11
224.260327
 21
88.495825
 31
0.0
  0
LINE
  8
LC-004-005-----0
  6
CONTINUOUS
  5
7E
 10
200.094634
 20
67.158559
 30
0.0
 11
203.780374
 21
70.8443
 31
0.0
  0
LINE
  8
LC-004-005-----0
  6
CONTINUOUS
  5
7F
 10
223.703459
 20
90.767384
 30
0.0
 11
224.972068
 21
92.035993
 31
0.0
  0
LINE
  8
LC-004-005-----0
  6
CONTINUOUS
  5
80
 10
224.3769
 20
94.269252
 30
0.0
 11
225.619299
 21
95.511651
 31
0.0
  0
LINE
  8
LC-004-005-----0
  6
CONTINUOUS
  5
81
 10
224.98791
 20
97.70869
 30
0.0
 11
226.205891
 21
98.92667
 31
0.0
  0
LINE
  8
LC-004-005-----0
  6
CONTINUOUS
  5
82
 10
225.540145
 20
101.089351
 30
0.0
 11
226.735312
 21
102.284519
 31
0.0
  0
LINE
  8
LC-004-005-----0
  6
CONTINUOUS
  5
83
 10
226.036884
 20
104.414518
 30
0.0
 11
227.210682
 21
105.588316
 31
0.0
  0
LINE
  8
LC-004-005-----0
  6
CONTINUOUS
  5
84
 10
226.481087
 20
107.687148
 30
0.0
 11
227.634819
 21
108.84088
 31
0.0
  0
LINE
  8
LC-004-005-----0
  6
CONTINUOUS
  5
85
 10
226.875431
 20
110.909919
 30
0.0
 11
228.010281
 21
112.044769
 31
0.0
  0
LINE
  8
LC-004-005-----0
  6
CONTINUOUS
  5
86
 10
227.222351
 20
114.085266
 30
0.0
 11
228.339396
 21
115.202311
 31
0.0
  0
LINE
  8
LC-004-005-----0
  6
CONTINUOUS
  5
87
 10
227.524068
 20
117.215411
 30
0.0
 11
228.624291
 21
118.315633
 31
0.0
  0
LINE
  8
LC-004-005-----0
  6
CONTINUOUS
  5
88
 10
227.782614
 20
120.302383
 30
0.0
 11
228.866916
 21
121.386685
 31
0.0
  0
LINE
  8
LC-004-005-----0
  6
CONTINUOUS
  5
89
 10
227.999854
 20
123.34805
 30
0.0
 11
229.069064
 21
124.417261
 31
0.0
  0
LINE
  8
LC-004-005-----0
  6
CONTINUOUS
  5
8A
 10
228.177505
 20
126.354129
 30
0.0
 11
229.232388
 21
127.409011
 31
0.0
  0
LINE
  8
LC-004-005-----0
  6
CONTINUOUS
  5
8B
 10
228.317153
 20
129.322203
 30
0.0
 11
229.358414
 21
130.363465
 31
0.0
  0
LINE
  8
LC-004-005-----0
  6
CONTINUOUS
  5
8C
 10
228.420263
 20
132.253741
 30
0.0
 11
229.448557
 21
133.282035
 31
0.0
  0
LINE
  8
LC-004-005-----0
  6
CONTINUOUS
  5
8D
 10
228.488196
 20
135.150101
 30
0.0
 11
229.50413
 21
136.166035
 31
0.0
  0
LINE
  8
LC-004-005-----0
  6
CONTINUOUS
  5
8E
 10
228.522216
 20
138.012548
 30
0.0
 11
229.526355
 21
139.016687
 31
0.0
  0
LINE
  8
LC-004-005-----0
  6
CONTINUOUS
  5
8F
 10
228.523501
 20
140.84226
 30
0.0
 11
229.516373
 21
141.835132
 31
0.0
  0
LINE
  8
LC-004-005-----0
  6
CONTINUOUS
  5
90
 10
228.493148
 20
143.640335
 30
0.0
 11
229.475245
 21
144.622431
 31
0.0
  0
LINE
  8
LC-004-005-----0
  6
CONTINUOUS
  5
91
 10
228.432186
 20
146.407799
 30
0.0
 11
229.403969
 21
147.379583
 31
0.0
  0
LINE
  8
LC-004-005-----0
  6
CONTINUOUS
  5
92
 10
230.93508
 20
148.910694
 30
0.0
 11
232.330782
 21
150.306395
 31
0.0
  0
LINE
  8
LC-004-005-----0
  6
CONTINUOUS
  5
93
 10
232.793569
 20
150.769182
 30
0.0
 11
233.635208
 21
151.610822
 31
0.0
  0
LINE
  8
LC-004-005-----0
  6
CONTINUOUS
  5
94
 10
232.220992
 20
153.025032
 30
0.0
 11
233.037487
 21
153.841528
 31
0.0
  0
LINE
  8
LC-004-005-----0
  6
CONTINUOUS
  5
95
 10
231.623271
 20
155.255738
 30
0.0
 11
232.439767
 21
156.072234
 31
0.0
  0
LINE
  8
LC-004-005-----0
  6
CONTINUOUS
  5
96
 10
231.02555
 20
157.486445
 30
0.0
 11
231.842046
 21
158.30294
 31
0.0
  0
LINE
  8
LC-004-005-----0
  6
CONTINUOUS
  5
97
 10
230.427829
 20
159.717151
 30
0.0
 11
231.244325
 21
160.533647
 31
0.0
  0
LINE
  8
LC-004-005-----0
  6
CONTINUOUS
  5
98
 10
229.830108
 20
161.947857
 30
0.0
 11
230.646604
 21
162.764353
 31
0.0
  0
LINE
  8
LC-004-005-----0
  6
CONTINUOUS
  5
99
 10
229.232387
 20
164.178564
 30
0.0
 11
230.048883
 21
164.995059
 31
0.0
  0
LINE
  8
LC-004-005-----0
  6
CONTINUOUS
  5
9A
 10
228.634667
 20
166.40927
 30
0.0
 11
229.451162
 21
167.225766
 31
0.0
  0
LINE
  8
LC-004-005-----0
  6
CONTINUOUS
  5
9B
 10
228.036946
 20
168.639976
 30
0.0
 11
228.853442
 21
169.456472
 31
0.0
  0
LINE
  8
LC-004-005-----0
  6
CONTINUOUS
  5
9C
 10
227.439225
 20
170.870682
 30
0.0
 11
229.449156
 21
172.880614
 31
0.0
  0
LINE
  8
LC-004-005-----0
  6
CONTINUOUS
  5
9D
 10
226.841504
 20
173.101389
 30
0.0
 11
228.148376
 21
174.408261
 31
0.0
  0
LINE
  8
LC-004-005-----0
  6
CONTINUOUS
  5
9E
 10
226.243783
 20
175.332095
 30
0.0
 11
227.060279
 21
176.14859
 31
0.0
  0
LINE
  8
LC-004-005-----0
  6
CONTINUOUS
  5
9F
 10
225.646062
 20
177.562801
 30
0.0
 11
226.462558
 21
178.379297
 31
0.0
  0
LINE
  8
LC-004-005-----0
  6
CONTINUOUS
  5
A0
 10
225.048341
 20
179.793507
 30
0.0
 11
225.864837
 21
180.610003
 31
0.0
  0
LINE
  8
LC-004-005-----0
  6
CONTINUOUS
  5
A1
 10
224.450621
 20
182.024214
 30
0.0
 11
225.267116
 21
182.840709
 31
0.0
  0
LINE
  8
LC-004-005-----0
  6
CONTINUOUS
  5
A2
 10
223.8529
 20
184.25492
 30
0.0
 11
224.669395
 21
185.071416
 31
0.0
  0
LINE
  8
LC-004-005-----0
  6
CONTINUOUS
  5
A3
 10
223.255179
 20
186.485626
 30
0.0
 11
224.071675
 21
187.302122
 31
0.0
  0
LINE
  8
LC-004-005-----0
  6
CONTINUOUS
  5
A4
 10
222.657458
 20
188.716333
 30
0.0
 11
223.473954
 21
189.532828
 31
0.0
  0
LINE
  8
LC-004-005-----0
  6
CONTINUOUS
  5
A5
 10
222.059737
 20
190.947039
 30
0.0
 11
222.876233
 21
191.763534
 31
0.0
  0
LINE
  8
LC-004-005-----0
  6
CONTINUOUS
  5
A6
 10
221.462016
 20
193.177745
 30
0.0
 11
222.278512
 21
193.994241
 31
0.0
  0
LINE
  8
LC-004-005-----0
  6
CONTINUOUS
  5
A7
 10
220.864295
 20
195.408451
 30
0.0
 11
221.680791
 21
196.224947
 31
0.0
  0
LINE
  8
LC-004-005-----0
  6
CONTINUOUS
  5
A8
 10
220.266575
 20
197.639158
 30
0.0
 11
221.08307
 21
198.455653
 31
0.0
  0
LINE
  8
LC-004-005-----0
  6
CONTINUOUS
  5
A9
 10
219.668854
 20
199.869864
 30
0.0
 11
220.48535
 21
200.68636
 31
0.0
  0
LINE
  8
LC-004-005-----0
  6
CONTINUOUS
  5
AA
 10
219.071133
 20
202.10057
 30
0.0
 11
219.887629
 21
202.917066
 31
0.0
  0
LINE
  8
LC-004-005-----0
  6
CONTINUOUS
  5
AB
 10
218.360997
 20
204.218862
 30
0.0
 11
219.087658
 21
204.945522
 31
0.0
  0
LINE
  8
LC-004-005-----0
  6
CONTINUOUS
  5
AC
 10
216.957782
 20
205.644073
 30
0.0
 11
217.682139
 21
206.36843
 31
0.0
  0
LINE
  8
LC-004-005-----0
  6
CONTINUOUS
  5
AD
 10
214.781964
 20
206.296683
 30
0.0
 11
215.645182
 21
207.159901
 31
0.0
  0
LINE
  8
LC-004-005-----0
  6
CONTINUOUS
  5
AE
 10
212.377508
 20
206.720654
 30
0.0
 11
213.240726
 21
207.583872
 31
0.0
  0
LINE
  8
LC-004-005-----0
  6
CONTINUOUS
  5
AF
 10
209.973051
 20
207.144624
 30
0.0
 11
210.836269
 21
208.007842
 31
0.0
  0
LINE
  8
LC-004-005-----0
  6
CONTINUOUS
  5
B0
 10
207.568595
 20
207.568595
 30
0.0
 11
208.431813
 21
208.431813
 31
0.0
  0
LINE
  8
LC-004-005-----0
  6
CONTINUOUS
  5
B1
 10
205.164138
 20
207.992565
 30
0.0
 11
206.027356
 21
208.855783
 31
0.0
  0
LINE
  8
LC-004-005-----0
  6
CONTINUOUS
  5
B2
 10
202.799377
 20
208.456231
 30
0.0
 11
203.6229
 21
209.279754
 31
0.0
  0
LINE
  8
LC-004-005-----0
  6
CONTINUOUS
  5
B3
 10
211.54939
 20
217.206244
 30
0.0
 11
212.822077
 21
218.478932
 31
0.0
  0
LINE
  8
LC-004-005-----0
  6
CONTINUOUS
  5
B4
 10
214.369179
 20
220.026033
 30
0.0
 11
215.620376
 21
221.277231
 31
0.0
  0
LINE
  8
LC-004-005-----0
  6
CONTINUOUS
  5
B5
 10
201.096879
 20
209.582161
 30
0.0
 11
201.805516
 21
210.290797
 31
0.0
  0
LINE
  8
LC-004-005-----0
  6
CONTINUOUS
  5
B6
 10
208.449782
 20
216.935064
 30
0.0
 11
209.549845
 21
218.035127
 31
0.0
  0
LINE
  8
LC-004-005-----0
  6
CONTINUOUS
  5
B7
 10
214.620376
 20
223.105658
 30
0.0
 11
215.620376
 21
224.105658
 31
0.0
  0
LINE
  8
LC-004-005-----0
  6
CONTINUOUS
  5
B8
 10
200.157226
 20
211.470934
 30
0.0
 11
201.081583
 21
212.395292
 31
0.0
  0
LINE
  8
LC-004-005-----0
  6
CONTINUOUS
  5
B9
 10
205.350175
 20
216.663883
 30
0.0
 11
206.450238
 21
217.763946
 31
0.0
  0
LINE
  8
LC-004-005-----0
  6
CONTINUOUS
  5
BA
 10
214.620376
 20
225.934085
 30
0.0
 11
215.620376
 21
226.934085
 31
0.0
  0
LINE
  8
LC-004-005-----0
  6
CONTINUOUS
  5
BB
 10
200.081583
 20
214.223719
 30
0.0
 11
201.081583
 21
215.223719
 31
0.0
  0
LINE
  8
LC-004-005-----0
  6
CONTINUOUS
  5
BC
 10
202.250567
 20
216.392703
 30
0.0
 11
203.35063
 21
217.492766
 31
0.0
  0
LINE
  8
LC-004-005-----0
  6
CONTINUOUS
  5
BD
 10
214.378923
 20
228.521059
 30
0.0
 11
215.15913
 21
229.301266
 31
0.0
  0
LINE
  8
LC-004-005-----0
  6
CONTINUOUS
  5
BE
 10
213.624173
 20
230.594735
 30
0.0
 11
214.40438
 21
231.374942
 31
0.0
  0
LINE
  8
LC-004-005-----0
  6
CONTINUOUS
  5
BF
 10
212.869422
 20
232.668412
 30
0.0
 11
213.649629
 21
233.448619
 31
0.0
  0
LINE
  8
LC-004-005-----0
  6
CONTINUOUS
  5
C0
 10
212.114671
 20
234.742088
 30
0.0
 11
212.894879
 21
235.522296
 31
0.0
  0
LINE
  8
LC-004-005-----0
  6
CONTINUOUS
  5
C1
 10
211.359921
 20
236.815765
 30
0.0
 11
212.140128
 21
237.595972
 31
0.0
  0
LINE
  8
LC-004-005-----0
  6
CONTINUOUS
  5
C2
 10
203.896092
 20
232.180363
 30
0.0
 11
204.610223
 21
232.894494
 31
0.0
  0
LINE
  8
LC-004-005-----0
  6
CONTINUOUS
  5
C3
 10
210.477519
 20
238.76179
 30
0.0
 11
211.19165
 21
239.475921
 31
0.0
  0
LINE
  8
LC-004-005-----0
  6
CONTINUOUS
  5
C4
 10
202.578061
 20
233.690759
 30
0.0
 11
203.316503
 21
234.429202
 31
0.0
  0
LINE
  8
LC-004-005-----0
  6
CONTINUOUS
  5
C5
 10
208.942812
 20
240.05551
 30
0.0
 11
209.681254
 21
240.793952
 31
0.0
  0
LINE
  8
LC-004-005-----0
  6
CONTINUOUS
  5
C6
 10
201.900949
 20
235.842074
 30
0.0
 11
202.920623
 21
236.861748
 31
0.0
  0
LINE
  8
LC-004-005-----0
  6
CONTINUOUS
  5
C7
 10
206.510265
 20
240.451391
 30
0.0
 11
207.529939
 21
241.471065
 31
0.0
  0
ENDBLK
  8
0
  5
C8
  0
BLOCK
  8
0
  5
CA
  2
BLK4
 70
    64
 10
0.0
 20
0.0
 30
0.0
  3
BLK4
  0
ENDBLK
  8
0
  5
CB
  0
BLOCK
  8
0
  5
CD
  2
BLK5
 70
    64
 10
0.0
 20
0.0
 30
0.0
  3
BLK5
  0
ENDBLK
  8
0
  5
CE
  0
BLOCK
  8
0
  5
D0
  2
BLK6
 70
    64
 10
0.0
 20
0.0
 30
0.0
  3
BLK6
  0
ENDBLK
  8
0
  5
D1
  0
BLOCK
  8
0
  5
D3
  2
*X10
 70
    65
 10
177.785225
 20
244.67963
 30
0.0
  3
*X10
  0
LINE
  8
LC-004-005-----0
  6
CONTINUOUS
  5
D4
 10
188.236229
 20
255.826829
 30
0.0
 11
186.88243
 21
257.180629
 31
0.0
  0
LINE
  8
LC-004-005-----0
  6
DASHED
  5
D6
 10
188.423253
 20
249.982951
 30
0.0
 11
185.332481
 21
253.073723
 31
0.0
  0
LINE
  8
LC-004-005-----0
  6
DASHED
  5
D7
 10
185.225576
 20
253.180629
 30
0.0
 11
181.225576
 21
257.180629
 31
0.0
  0
LINE
  8
LC-004-005-----0
  6
DASHED
  5
D8
 10
188.516765
 20
247.061012
 30
0.0
 11
185.420741
 21
250.157036
 31
0.0
  0
LINE
  8
LC-004-005-----0
  6
DASHED
  5
D9
 10
183.271041
 20
252.306736
 30
0.0
 11
182.43907
 21
253.138707
 31
0.0
  0
LINE
  8
LC-004-005-----0
  6
DASHED
  5
DA
 10
182.397149
 20
253.180629
 30
0.0
 11
178.545985
 21
257.031792
 31
0.0
  0
LINE
  8
LC-004-005-----0
  6
CONTINUOUS
  5
DB
 10
181.075222
 20
248.845701
 30
0.0
 11
178.016681
 21
251.904242
 31
0.0
  0
LINE
  8
LC-004-005-----0
  6
CONTINUOUS
  5
DC
 10
180.990613
 20
246.101883
 30
0.0
 11
177.928879
 21
249.163617
 31
0.0
  0
ENDBLK
  8
0
  5
DD
  0
BLOCK
  8
0
  5
DF
  2
BLK7
 70
    64
 10
0.0
 20
0.0
 30
0.0
  3
BLK7
  0
ENDBLK
  8
0
  5
E0
  0
BLOCK
  8
0
  5
E2
  2
*X12
 70
    65
 10
185.577817
 20
219.189324
 30
0.0
  3
*X12
  0
LINE
  8
LC-004-005-----0
  6
CONTINUOUS
  5
E3
 10
212.520097
 20
223.833806
 30
0.0
 11
214.079622
 21
225.39333
 31
0.0
  0
LINE
  8
LC-004-005-----0
  6
CONTINUOUS
  5
E4
 10
206.762748
 20
223.733311
 30
0.0
 11
211.561277
 21
228.531839
 31
0.0
  0
LINE
  8
LC-004-005-----0
  6
CONTINUOUS
  5
E5
 10
197.735288
 20
220.362705
 30
0.0
 11
205.803927
 21
228.431344
 31
0.0
  0
LINE
  8
LC-004-005-----0
  6
CONTINUOUS
  5
E6
 10
190.921889
 20
219.20616
 30
0.0
 11
200.046578
 21
228.33085
 31
0.0
  0
LINE
  8
LC-004-005-----0
  6
CONTINUOUS
  5
E7
 10
190.508621
 20
224.449746
 30
0.0
 11
194.289229
 21
228.230355
 31
0.0
  0
LINE
  8
LC-004-005-----0
  6
CONTINUOUS
  5
E8
 10
185.847531
 20
225.445511
 30
0.0
 11
189.779507
 21
229.377487
 31
0.0
  0
LINE
  8
LC-004-005-----0
  6
CONTINUOUS
  5
E9
 10
185.750484
 20
231.005318
 30
0.0
 11
189.682461
 21
234.937295
 31
0.0
  0
LINE
  8
LC-004-005-----0
  6
CONTINUOUS
  5
EA
 10
191.749696
 20
237.00453
 30
0.0
 11
194.105934
 21
239.360768
 31
0.0
  0
LINE
  8
LC-004-005-----0
  6
CONTINUOUS
  5
EB
 10
185.653437
 20
236.565126
 30
0.0
 11
190.064028
 21
240.975716
 31
0.0
  0
ENDBLK
  8
0
  5
EC
  0
BLOCK
  8
0
  5
EE
  2
*X13
 70
    65
 10
188.859414
 20
49.215949
 30
0.0
  3
*X13
  0
LINE
  8
LC-004-005-----0
  6
CONTINUOUS
  5
EF
 10
207.904571
 20
49.512652
 30
0.0
 11
212.7031
 21
54.311181
 31
0.0
  0
LINE
  8
LC-004-005-----0
  6
CONTINUOUS
  5
F0
 10
202.147222
 20
49.412157
 30
0.0
 11
206.94575
 21
54.210686
 31
0.0
  0
LINE
  8
LC-004-005-----0
  6
CONTINUOUS
  5
F1
 10
196.389873
 20
49.311662
 30
0.0
 11
203.032265
 21
55.954054
 31
0.0
  0
LINE
  8
LC-004-005-----0
  6
CONTINUOUS
  5
F2
 10
190.651464
 20
49.230108
 30
0.0
 11
194.413132
 21
52.991776
 31
0.0
  0
LINE
  8
LC-004-005-----0
  6
CONTINUOUS
  5
F3
 10
195.833987
 20
54.412631
 30
0.0
 11
199.392799
 21
57.971443
 31
0.0
  0
LINE
  8
LC-004-005-----0
  6
CONTINUOUS
  5
F4
 10
192.787958
 20
57.023456
 30
0.0
 11
193.999864
 21
58.235362
 31
0.0
  0
ENDBLK
  8
0
  5
F5
  0
BLOCK
  8
0
  5
F7
  2
BLK8
 70
    64
 10
0.0
 20
0.0
 30
0.0
  3
BLK8
  0
ENDBLK
  8
0
  5
F8
  0
BLOCK
  8
0
  5
FA
  2
*X15
 70
    65
 10
184.497402
 20
52.912288
 30
0.0
  3
*X15
  0
LINE
  8
LC-004-005-----0
  6
CONTINUOUS
  5
FB
 10
210.961143
 20
221.788207
 30
0.0
 11
209.026532
 21
223.722818
 31
0.0
  0
LINE
  8
LC-004-005-----0
  6
DASHED
  5
FC
 10
207.42751
 20
219.664986
 30
0.0
 11
203.466725
 21
223.625771
 31
0.0
  0
LINE
  8
LC-004-005-----0
  6
DASHED
  5
FD
 10
205.660694
 20
218.603375
 30
0.0
 11
201.618569
 21
222.645499
 31
0.0
  0
LINE
  8
LC-004-005-----0
  6
CONTINUOUS
  5
FE
 10
201.317854
 20
217.289361
 30
0.0
 11
198.084936
 21
220.522278
 31
0.0
  0
LINE
  8
LC-004-005-----0
  6
CONTINUOUS
  5
FF
 10
200.081583
 20
215.697204
 30
0.0
 11
196.31812
 21
219.460668
 31
0.0
  0
LINE
  8
LC-004-005-----0
  6
CONTINUOUS
  5
100
 10
192.893282
 20
222.885505
 30
0.0
 11
191.314966
 21
224.463821
 31
0.0
  0
LINE
  8
LC-004-005-----0
  6
DASHED
  5
101
 10
196.826611
 20
213.295322
 30
0.0
 11
190.965027
 21
219.156906
 31
0.0
  0
LINE
  8
LC-004-005-----0
  6
DASHED
  5
102
 10
189.940017
 20
220.181916
 30
0.0
 11
186.310836
 21
223.811097
 31
0.0
  0
LINE
  8
LC-004-005-----0
  6
DASHED
  5
103
 10
195.059794
 20
212.233712
 30
0.0
 11
185.918583
 21
221.374923
 31
0.0
  0
LINE
  8
LC-004-005-----0
  6
CONTINUOUS
  5
104
 10
189.948622
 20
211.688029
 30
0.0
 11
186.019078
 21
215.617573
 31
0.0
  0
LINE
  8
LC-004-005-----0
  6
CONTINUOUS
  5
105
 10
185.545323
 20
216.091329
 30
0.0
 11
184.580493
 21
217.056159
 31
0.0
  0
LINE
  8
LC-004-005-----0
  6
CONTINUOUS
  5
106
 10
187.168719
 20
211.639506
 30
0.0
 11
186.069326
 21
212.738899
 31
0.0
  0
LINE
  8
LC-004-005-----0
  6
CONTINUOUS
  5
107
 10
184.75331
 20
214.054915
 30
0.0
 11
184.557791
 21
214.250434
 31
0.0
  0
LINE
  8
LC-004-005-----0
  6
CONTINUOUS
  5
108
 10
211.531413
 20
54.340736
 30
0.0
 11
204.141926
 21
61.730224
 31
0.0
  0
LINE
  8
LC-004-005-----0
  6
CONTINUOUS
  5
109
 10
208.75151
 20
54.292213
 30
0.0
 11
201.226742
 21
61.816981
 31
0.0
  0
LINE
  8
LC-004-005-----0
  6
CONTINUOUS
  5
10A
 10
200.147731
 20
62.895992
 30
0.0
 11
197.795763
 21
65.24796
 31
0.0
  0
LINE
  8
LC-004-005-----0
  6
DASHED
  5
10B
 10
199.332482
 20
58.054387
 30
0.0
 11
191.690671
 21
65.696197
 31
0.0
  0
LINE
  8
LC-004-005-----0
  6
DASHED
  5
10C
 10
196.234073
 20
58.324368
 30
0.0
 11
188.910767
 21
65.647674
 31
0.0
  0
LINE
  8
LC-004-005-----0
  6
CONTINUOUS
  5
10D
 10
195.857882
 20
53.043705
 30
0.0
 11
193.180901
 21
55.720686
 31
0.0
  0
LINE
  8
LC-004-005-----0
  6
CONTINUOUS
  5
10E
 10
192.804121
 20
56.097465
 30
0.0
 11
187.934825
 21
60.966762
 31
0.0
  0
LINE
  8
LC-004-005-----0
  6
CONTINUOUS
  5
10F
 10
193.104231
 20
52.968929
 30
0.0
 11
188.782688
 21
57.290472
 31
0.0
  0
ENDBLK
  8
0
  5
110
  0
BLOCK
  8
0
  5
112
  2
BLK9
 70
    64
 10
0.0
 20
0.0
 30
0.0
  3
BLK9
  0
ENDBLK
  8
0
  5
113
  0
BLOCK
  8
0
  5
115
  2
*X17
 70
    65
 10
174.78335
 20
241.041412
 30
0.0
  3
*X17
  0
LINE
  8
LC-004-005-----0
  6
CONTINUOUS
  5
116
 10
252.86692
 20
264.180629
 30
0.0
 11
254.78335
 21
266.097058
 31
0.0
  0
LINE
  8
LC-004-005-----0
  6
CONTINUOUS
  5
117
 10
250.038493
 20
264.180629
 30
0.0
 11
254.78335
 21
268.925486
 31
0.0
  0
LINE
  8
LC-004-005-----0
  6
CONTINUOUS
  5
118
 10
247.210066
 20
264.180629
 30
0.0
 11
252.710066
 21
269.680629
 31
0.0
  0
LINE
  8
LC-004-005-----0
  6
CONTINUOUS
  5
119
 10
244.381639
 20
264.180629
 30
0.0
 11
249.881639
 21
269.680629
 31
0.0
  0
LINE
  8
LC-004-005-----0
  6
CONTINUOUS
  5
11A
 10
241.553212
 20
264.180629
 30
0.0
 11
247.053212
 21
269.680629
 31
0.0
  0
LINE
  8
LC-004-005-----0
  6
CONTINUOUS
  5
11B
 10
238.724784
 20
264.180629
 30
0.0
 11
244.224784
 21
269.680629
 31
0.0
  0
LINE
  8
LC-004-005-----0
  6
CONTINUOUS
  5
11C
 10
235.896357
 20
264.180629
 30
0.0
 11
241.396357
 21
269.680629
 31
0.0
  0
LINE
  8
LC-004-005-----0
  6
CONTINUOUS
  5
11D
 10
233.06793
 20
264.180629
 30
0.0
 11
238.56793
 21
269.680629
 31
0.0
  0
LINE
  8
LC-004-005-----0
  6
CONTINUOUS
  5
11E
 10
230.239503
 20
264.180629
 30
0.0
 11
235.739503
 21
269.680629
 31
0.0
  0
LINE
  8
LC-004-005-----0
  6
CONTINUOUS
  5
11F
 10
227.411076
 20
264.180629
 30
0.0
 11
232.911076
 21
269.680629
 31
0.0
  0
LINE
  8
LC-004-005-----0
  6
CONTINUOUS
  5
120
 10
224.582649
 20
264.180629
 30
0.0
 11
230.082649
 21
269.680629
 31
0.0
  0
LINE
  8
LC-004-005-----0
  6
CONTINUOUS
  5
121
 10
221.754222
 20
264.180629
 30
0.0
 11
227.254222
 21
269.680629
 31
0.0
  0
LINE
  8
LC-004-005-----0
  6
CONTINUOUS
  5
122
 10
218.925795
 20
264.180629
 30
0.0
 11
224.425795
 21
269.680629
 31
0.0
  0
LINE
  8
LC-004-005-----0
  6
CONTINUOUS
  5
123
 10
216.097367
 20
264.180629
 30
0.0
 11
221.597367
 21
269.680629
 31
0.0
  0
LINE
  8
LC-004-005-----0
  6
CONTINUOUS
  5
124
 10
190.129724
 20
241.041412
 30
0.0
 11
190.479748
 21
241.391436
 31
0.0
  0
LINE
  8
LC-004-005-----0
  6
CONTINUOUS
  5
125
 10
213.26894
 20
264.180629
 30
0.0
 11
218.76894
 21
269.680629
 31
0.0
  0
LINE
  8
LC-004-005-----0
  6
CONTINUOUS
  5
126
 10
188.405868
 20
242.145984
 30
0.0
 11
190.573919
 21
244.314034
 31
0.0
  0
LINE
  8
LC-004-005-----0
  6
CONTINUOUS
  5
127
 10
210.440513
 20
264.180629
 30
0.0
 11
215.940513
 21
269.680629
 31
0.0
  0
LINE
  8
LC-004-005-----0
  6
CONTINUOUS
  5
128
 10
188.578036
 20
245.146579
 30
0.0
 11
190.66809
 21
247.236633
 31
0.0
  0
LINE
  8
LC-004-005-----0
  6
CONTINUOUS
  5
129
 10
207.612086
 20
264.180629
 30
0.0
 11
213.112086
 21
269.680629
 31
0.0
  0
LINE
  8
LC-004-005-----0
  6
CONTINUOUS
  5
12A
 10
188.490324
 20
247.887293
 30
0.0
 11
190.762262
 21
250.159231
 31
0.0
  0
LINE
  8
LC-004-005-----0
  6
CONTINUOUS
  5
12B
 10
204.783659
 20
264.180629
 30
0.0
 11
210.283659
 21
269.680629
 31
0.0
  0
LINE
  8
LC-004-005-----0
  6
CONTINUOUS
  5
12C
 10
188.402611
 20
250.628007
 30
0.0
 11
190.856433
 21
253.08183
 31
0.0
  0
LINE
  8
LC-004-005-----0
  6
CONTINUOUS
  5
12D
 10
201.955232
 20
264.180629
 30
0.0
 11
207.455232
 21
269.680629
 31
0.0
  0
LINE
  8
LC-004-005-----0
  6
CONTINUOUS
  5
12E
 10
188.314898
 20
253.368722
 30
0.0
 11
190.950604
 21
256.004428
 31
0.0
  0
LINE
  8
LC-004-005-----0
  6
CONTINUOUS
  5
12F
 10
199.126805
 20
264.180629
 30
0.0
 11
204.626805
 21
269.680629
 31
0.0
  0
LINE
  8
LC-004-005-----0
  6
CONTINUOUS
  5
130
 10
188.227185
 20
256.109436
 30
0.0
 11
191.044776
 21
258.927027
 31
0.0
  0
LINE
  8
LC-004-005-----0
  6
CONTINUOUS
  5
131
 10
196.298378
 20
264.180629
 30
0.0
 11
201.798378
 21
269.680629
 31
0.0
  0
LINE
  8
LC-004-005-----0
  6
CONTINUOUS
  5
132
 10
175.469951
 20
246.180629
 30
0.0
 11
177.867119
 21
248.577798
 31
0.0
  0
LINE
  8
LC-004-005-----0
  6
CONTINUOUS
  5
133
 10
186.469951
 20
257.180629
 30
0.0
 11
191.138947
 21
261.849625
 31
0.0
  0
LINE
  8
LC-004-005-----0
  6
CONTINUOUS
  5
134
 10
193.469951
 20
264.180629
 30
0.0
 11
198.969951
 21
269.680629
 31
0.0
  0
LINE
  8
LC-004-005-----0
  6
CONTINUOUS
  5
135
 10
174.860851
 20
248.399956
 30
0.0
 11
177.96956
 21
251.508665
 31
0.0
  0
LINE
  8
LC-004-005-----0
  6
CONTINUOUS
  5
136
 10
183.641523
 20
257.180629
 30
0.0
 11
196.141523
 21
269.680629
 31
0.0
  0
LINE
  8
LC-004-005-----0
  6
CONTINUOUS
  5
137
 10
174.963195
 20
251.330728
 30
0.0
 11
178.072001
 21
254.439533
 31
0.0
  0
LINE
  8
LC-004-005-----0
  6
CONTINUOUS
  5
138
 10
180.813096
 20
257.180629
 30
0.0
 11
193.313096
 21
269.680629
 31
0.0
  0
LINE
  8
LC-004-005-----0
  6
CONTINUOUS
  5
139
 10
175.06554
 20
254.2615
 30
0.0
 11
183.484669
 21
262.680629
 31
0.0
  0
LINE
  8
LC-004-005-----0
  6
CONTINUOUS
  5
13A
 10
185.97586
 20
265.171819
 30
0.0
 11
190.484669
 21
269.680629
 31
0.0
  0
LINE
  8
LC-004-005-----0
  6
CONTINUOUS
  5
13B
 10
175.167885
 20
257.192272
 30
0.0
 11
180.656242
 21
262.680629
 31
0.0
  0
LINE
  8
LC-004-005-----0
  6
CONTINUOUS
  5
13C
 10
186.006827
 20
268.031214
 30
0.0
 11
187.625275
 21
269.649661
 31
0.0
  0
LINE
  8
LC-004-005-----0
  6
CONTINUOUS
  5
13D
 10
175.411421
 20
260.264235
 30
0.0
 11
177.655847
 21
262.508661
 31
0.0
  0
ENDBLK
  8
0
  5
13E
  0
BLOCK
  8
0
  5
140
  2
*X18
 70
    65
 10
-745.21665
 20
-336.874315
 30
0.0
  3
*X18
  0
LINE
  8
LC-004-005-----0
  6
CONTINUOUS
  5
141
 10
240.012994
 20
47.67995
 30
0.0
 11
241.661309
 21
49.328265
 31
0.0
  0
LINE
  8
LC-004-005-----0
  6
CONTINUOUS
  5
142
 10
237.184569
 20
47.679952
 30
0.0
 11
242.505013
 21
53.000396
 31
0.0
  0
LINE
  8
LC-004-005-----0
  6
CONTINUOUS
  5
143
 10
234.356144
 20
47.679954
 30
0.0
 11
240.856139
 21
54.179949
 31
0.0
  0
LINE
  8
LC-004-005-----0
  6
CONTINUOUS
  5
144
 10
231.527719
 20
47.679956
 30
0.0
 11
238.027714
 21
54.179951
 31
0.0
  0
LINE
  8
LC-004-005-----0
  6
CONTINUOUS
  5
145
 10
228.699294
 20
47.679958
 30
0.0
 11
235.199289
 21
54.179953
 31
0.0
  0
LINE
  8
LC-004-005-----0
  6
CONTINUOUS
  5
146
 10
225.870869
 20
47.67996
 30
0.0
 11
232.370864
 21
54.179956
 31
0.0
  0
LINE
  8
LC-004-005-----0
  6
CONTINUOUS
  5
147
 10
218.249443
 20
42.886961
 30
0.0
 11
220.775395
 21
45.412913
 31
0.0
  0
LINE
  8
LC-004-005-----0
  6
CONTINUOUS
  5
148
 10
223.042444
 20
47.679963
 30
0.0
 11
229.542439
 21
54.179958
 31
0.0
  0
LINE
  8
LC-004-005-----0
  6
CONTINUOUS
  5
149
 10
215.214779
 20
42.680724
 30
0.0
 11
226.714014
 21
54.17996
 31
0.0
  0
LINE
  8
LC-004-005-----0
  6
CONTINUOUS
  5
14A
 10
212.386336
 20
42.680708
 30
0.0
 11
223.88559
 21
54.179962
 31
0.0
  0
LINE
  8
LC-004-005-----0
  6
CONTINUOUS
  5
14B
 10
209.557893
 20
42.680692
 30
0.0
 11
221.057165
 21
54.179964
 31
0.0
  0
LINE
  8
LC-004-005-----0
  6
CONTINUOUS
  5
14C
 10
206.72945
 20
42.680676
 30
0.0
 11
218.22874
 21
54.179966
 31
0.0
  0
LINE
  8
LC-004-005-----0
  6
CONTINUOUS
  5
14D
 10
203.901007
 20
42.68066
 30
0.0
 11
210.783246
 21
49.5629
 31
0.0
  0
LINE
  8
LC-004-005-----0
  6
CONTINUOUS
  5
14E
 10
214.48163
 20
53.261284
 30
0.0
 11
215.400315
 21
54.179969
 31
0.0
  0
LINE
  8
LC-004-005-----0
  6
CONTINUOUS
  5
14F
 10
201.072563
 20
42.680644
 30
0.0
 11
207.904571
 21
49.512652
 31
0.0
  0
LINE
  8
LC-004-005-----0
  6
CONTINUOUS
  5
150
 10
198.24412
 20
42.680629
 30
0.0
 11
205.025897
 21
49.462405
 31
0.0
  0
LINE
  8
LC-004-005-----0
  6
CONTINUOUS
  5
151
 10
195.415677
 20
42.680613
 30
0.0
 11
202.147222
 21
49.412157
 31
0.0
  0
LINE
  8
LC-004-005-----0
  6
CONTINUOUS
  5
152
 10
192.587234
 20
42.680597
 30
0.0
 11
199.268548
 21
49.36191
 31
0.0
  0
LINE
  8
LC-004-005-----0
  6
CONTINUOUS
  5
153
 10
189.758791
 20
42.680581
 30
0.0
 11
196.389873
 21
49.311662
 31
0.0
  0
LINE
  8
LC-004-005-----0
  6
CONTINUOUS
  5
154
 10
186.930348
 20
42.680565
 30
0.0
 11
193.511198
 21
49.261415
 31
0.0
  0
LINE
  8
LC-004-005-----0
  6
CONTINUOUS
  5
155
 10
184.563189
 20
43.141833
 30
0.0
 11
190.647227
 21
49.22587
 31
0.0
  0
LINE
  8
LC-004-005-----0
  6
CONTINUOUS
  5
156
 10
183.081831
 20
44.488902
 30
0.0
 11
189.014078
 21
50.421149
 31
0.0
  0
LINE
  8
LC-004-005-----0
  6
CONTINUOUS
  5
157
 10
182.427661
 20
46.663159
 30
0.0
 11
188.816707
 21
53.052205
 31
0.0
  0
LINE
  8
LC-004-005-----0
  6
CONTINUOUS
  5
158
 10
182.379151
 20
49.443076
 30
0.0
 11
188.767534
 21
55.831459
 31
0.0
  0
LINE
  8
LC-004-005-----0
  6
CONTINUOUS
  5
159
 10
182.330641
 20
52.222993
 30
0.0
 11
188.718362
 21
58.610714
 31
0.0
  0
LINE
  8
LC-004-005-----0
  6
CONTINUOUS
  5
15A
 10
182.28213
 20
55.00291
 30
0.0
 11
187.38733
 21
60.108109
 31
0.0
  0
LINE
  8
LC-004-005-----0
  6
CONTINUOUS
  5
15B
 10
181.480793
 20
57.03
 30
0.0
 11
187.21277
 21
62.761977
 31
0.0
  0
LINE
  8
LC-004-005-----0
  6
CONTINUOUS
  5
15C
 10
187.956286
 20
63.505493
 30
0.0
 11
188.620017
 21
64.169223
 31
0.0
  0
LINE
  8
LC-004-005-----0
  6
CONTINUOUS
  5
15D
 10
178.652366
 20
57.03
 30
0.0
 11
187.302366
 21
65.68
 31
0.0
  0
LINE
  8
LC-004-005-----0
  6
CONTINUOUS
  5
15E
 10
175.823939
 20
57.03
 30
0.0
 11
184.473939
 21
65.68
 31
0.0
  0
LINE
  8
LC-004-005-----0
  6
CONTINUOUS
  5
15F
 10
172.995512
 20
57.03
 30
0.0
 11
178.102045
 21
62.136533
 31
0.0
  0
LINE
  8
LC-004-005-----0
  6
CONTINUOUS
  5
160
 10
179.97243
 20
64.006918
 30
0.0
 11
181.645512
 21
65.68
 31
0.0
  0
LINE
  8
LC-004-005-----0
  6
CONTINUOUS
  5
161
 10
170.167085
 20
57.03
 30
0.0
 11
174.238342
 21
61.101257
 31
0.0
  0
LINE
  8
LC-004-005-----0
  6
CONTINUOUS
  5
162
 10
167.338658
 20
57.03
 30
0.0
 11
171.33866
 21
61.030002
 31
0.0
  0
LINE
  8
LC-004-005-----0
  6
CONTINUOUS
  5
163
 10
164.510231
 20
57.03
 30
0.0
 11
168.510233
 21
61.030002
 31
0.0
  0
LINE
  8
LC-004-005-----0
  6
CONTINUOUS
  5
164
 10
161.681804
 20
57.03
 30
0.0
 11
165.681805
 21
61.030002
 31
0.0
  0
LINE
  8
LC-004-005-----0
  6
CONTINUOUS
  5
165
 10
158.853376
 20
57.03
 30
0.0
 11
162.853378
 21
61.030002
 31
0.0
  0
LINE
  8
LC-004-005-----0
  6
CONTINUOUS
  5
166
 10
156.024949
 20
57.03
 30
0.0
 11
160.024951
 21
61.030002
 31
0.0
  0
LINE
  8
LC-004-005-----0
  6
CONTINUOUS
  5
167
 10
153.196522
 20
57.03
 30
0.0
 11
157.196524
 21
61.030001
 31
0.0
  0
LINE
  8
LC-004-005-----0
  6
CONTINUOUS
  5
168
 10
150.368095
 20
57.03
 30
0.0
 11
154.368096
 21
61.030001
 31
0.0
  0
LINE
  8
LC-004-005-----0
  6
CONTINUOUS
  5
169
 10
147.539668
 20
57.03
 30
0.0
 11
151.539669
 21
61.030001
 31
0.0
  0
LINE
  8
LC-004-005-----0
  6
CONTINUOUS
  5
16A
 10
144.711241
 20
57.03
 30
0.0
 11
148.711242
 21
61.030001
 31
0.0
  0
LINE
  8
LC-004-005-----0
  6
CONTINUOUS
  5
16B
 10
141.882814
 20
57.03
 30
0.0
 11
145.882815
 21
61.030001
 31
0.0
  0
LINE
  8
LC-004-005-----0
  6
CONTINUOUS
  5
16C
 10
139.054387
 20
57.03
 30
0.0
 11
143.054388
 21
61.030001
 31
0.0
  0
LINE
  8
LC-004-005-----0
  6
CONTINUOUS
  5
16D
 10
136.225959
 20
57.03
 30
0.0
 11
140.22596
 21
61.030001
 31
0.0
  0
LINE
  8
LC-004-005-----0
  6
CONTINUOUS
  5
16E
 10
133.397532
 20
57.03
 30
0.0
 11
137.397533
 21
61.030001
 31
0.0
  0
LINE
  8
LC-004-005-----0
  6
CONTINUOUS
  5
16F
 10
130.569105
 20
57.03
 30
0.0
 11
134.569106
 21
61.030001
 31
0.0
  0
LINE
  8
LC-004-005-----0
  6
CONTINUOUS
  5
170
 10
127.740678
 20
57.03
 30
0.0
 11
131.740679
 21
61.030001
 31
0.0
  0
LINE
  8
LC-004-005-----0
  6
CONTINUOUS
  5
171
 10
116.166986
 20
48.284735
 30
0.0
 11
119.967687
 21
52.085436
 31
0.0
  0
LINE
  8
LC-004-005-----0
  6
CONTINUOUS
  5
172
 10
124.912251
 20
57.03
 30
0.0
 11
128.912251
 21
61.03
 31
0.0
  0
LINE
  8
LC-004-005-----0
  6
CONTINUOUS
  5
173
 10
113.333824
 20
48.28
 30
0.0
 11
119.972422
 21
54.918598
 31
0.0
  0
LINE
  8
LC-004-005-----0
  6
CONTINUOUS
  5
174
 10
122.083824
 20
57.03
 30
0.0
 11
126.083824
 21
61.03
 31
0.0
  0
LINE
  8
LC-004-005-----0
  6
CONTINUOUS
  5
175
 10
110.505397
 20
48.28
 30
0.0
 11
114.012499
 21
51.787103
 31
0.0
  0
LINE
  8
LC-004-005-----0
  6
CONTINUOUS
  5
176
 10
115.969689
 20
53.744293
 30
0.0
 11
123.255397
 21
61.03
 31
0.0
  0
LINE
  8
LC-004-005-----0
  6
CONTINUOUS
  5
177
 10
107.67697
 20
48.28
 30
0.0
 11
111.576881
 21
52.179911
 31
0.0
  0
LINE
  8
LC-004-005-----0
  6
CONTINUOUS
  5
178
 10
115.976792
 20
56.579822
 30
0.0
 11
120.42697
 21
61.03
 31
0.0
  0
LINE
  8
LC-004-005-----0
  6
CONTINUOUS
  5
179
 10
104.848542
 20
48.28
 30
0.0
 11
108.662667
 21
52.094125
 31
0.0
  0
LINE
  8
LC-004-005-----0
  6
CONTINUOUS
  5
17A
 10
115.976792
 20
59.40825
 30
0.0
 11
117.598543
 21
61.03
 31
0.0
  0
LINE
  8
LC-004-005-----0
  6
CONTINUOUS
  5
17B
 10
102.359654
 20
48.619538
 30
0.0
 11
105.888277
 21
52.148162
 31
0.0
  0
LINE
  8
LC-004-005-----0
  6
CONTINUOUS
  5
17C
 10
100.780696
 20
49.869008
 30
0.0
 11
104.222786
 21
53.311097
 31
0.0
  0
LINE
  8
LC-004-005-----0
  6
CONTINUOUS
  5
17D
 10
99.989886
 20
51.906625
 30
0.0
 11
103.972422
 21
55.889161
 31
0.0
  0
LINE
  8
LC-004-005-----0
  6
CONTINUOUS
  5
17E
 10
99.972422
 20
54.717588
 30
0.0
 11
103.972422
 21
58.717588
 31
0.0
  0
LINE
  8
LC-004-005-----0
  6
CONTINUOUS
  5
17F
 10
99.206407
 20
56.78
 30
0.0
 11
103.206407
 21
60.78
 31
0.0
  0
LINE
  8
LC-004-005-----0
  6
CONTINUOUS
  5
180
 10
96.37798
 20
56.78
 30
0.0
 11
100.37798
 21
60.78
 31
0.0
  0
LINE
  8
LC-004-005-----0
  6
CONTINUOUS
  5
181
 10
93.549553
 20
56.78
 30
0.0
 11
97.549553
 21
60.78
 31
0.0
  0
LINE
  8
LC-004-005-----0
  6
CONTINUOUS
  5
182
 10
90.972422
 20
57.031296
 30
0.0
 11
94.721125
 21
60.78
 31
0.0
  0
LINE
  8
LC-004-005-----0
  6
CONTINUOUS
  5
183
 10
90.972422
 20
59.859724
 30
0.0
 11
91.892698
 21
60.78
 31
0.0
  0
ENDBLK
  8
0
  5
184
  0
BLOCK
  8
0
  5
186
  2
*D19
 70
    65
 10
0.0
 20
0.0
 30
0.0
  3
*D19
  0
LINE
  8
LC-007-003-MTH-0
  6
CONTINUOUS
  5
188
 10
104.976792
 20
61.03
 30
0.0
 11
61.6
 21
61.03
 31
0.0
  0
LINE
  8
LC-007-003-MTH-0
  6
CONTINUOUS
  5
189
 10
104.976792
 20
222.53
 30
0.0
 11
61.6
 21
222.53
 31
0.0
  0
LINE
  8
LC-008-003-MTG-0
  6
CONTINUOUS
  5
18B
 10
78.4
 20
61.03
 30
0.0
 11
78.4
 21
222.53
 31
0.0
  0
LINE
  8
LC-006-003-----0
  6
CONTINUOUS
  5
18D
 10
74.745267
 20
88.790456
 30
0.0
 11
78.4
 21
61.03
 31
0.0
  0
LINE
  8
LC-006-003-----0
  6
CONTINUOUS
  5
18E
 10
78.4
 20
61.03
 30
0.0
 11
82.054733
 21
88.790456
 31
0.0
  0
LINE
  8
LC-006-003-----0
  6
CONTINUOUS
  5
18F
 10
82.054733
 20
88.790456
 30
0.0
 11
74.745267
 21
88.790456
 31
0.0
  0
LINE
  8
LC-006-003-----0
  6
CONTINUOUS
  5
190
 10
75.695497
 20
88.852738
 30
0.0
 11
78.4
 21
68.31
 31
0.0
  0
LINE
  8
LC-006-003-----0
  6
CONTINUOUS
  5
191
 10
78.4
 20
68.31
 30
0.0
 11
81.104503
 21
88.852738
 31
0.0
  0
LINE
  8
LC-006-003-----0
  6
CONTINUOUS
  5
192
 10
76.645728
 20
88.915019
 30
0.0
 11
78.4
 21
75.59
 31
0.0
  0
LINE
  8
LC-006-003-----0
  6
CONTINUOUS
  5
193
 10
78.4
 20
75.59
 30
0.0
 11
80.154272
 21
88.915019
 31
0.0
  0
LINE
  8
LC-006-003-----0
  6
CONTINUOUS
  5
194
 10
77.595959
 20
88.9773
 30
0.0
 11
78.4
 21
82.87
 31
0.0
  0
LINE
  8
LC-006-003-----0
  6
CONTINUOUS
  5
195
 10
78.4
 20
82.87
 30
0.0
 11
79.204041
 21
88.9773
 31
0.0
  0
LINE
  8
LC-006-003-----0
  6
CONTINUOUS
  5
196
 10
82.054733
 20
194.769544
 30
0.0
 11
78.4
 21
222.53
 31
0.0
  0
LINE
  8
LC-006-003-----0
  6
CONTINUOUS
  5
197
 10
78.4
 20
222.53
 30
0.0
 11
74.745267
 21
194.769544
 31
0.0
  0
LINE
  8
LC-006-003-----0
  6
CONTINUOUS
  5
198
 10
74.745267
 20
194.769544
 30
0.0
 11
82.054733
 21
194.769544
 31
0.0
  0
LINE
  8
LC-006-003-----0
  6
CONTINUOUS
  5
199
 10
81.104503
 20
194.707262
 30
0.0
 11
78.4
 21
215.25
 31
0.0
  0
LINE
  8
LC-006-003-----0
  6
CONTINUOUS
  5
19A
 10
78.4
 20
215.25
 30
0.0
 11
75.695497
 21
194.707262
 31
0.0
  0
LINE
  8
LC-006-003-----0
  6
CONTINUOUS
  5
19B
 10
80.154272
 20
194.644981
 30
0.0
 11
78.4
 21
207.97
 31
0.0
  0
LINE
  8
LC-006-003-----0
  6
CONTINUOUS
  5
19C
 10
78.4
 20
207.97
 30
0.0
 11
76.645728
 21
194.644981
 31
0.0
  0
LINE
  8
LC-006-003-----0
  6
CONTINUOUS
  5
19D
 10
79.204041
 20
194.5827
 30
0.0
 11
78.4
 21
200.69
 31
0.0
  0
LINE
  8
LC-006-003-----0
  6
CONTINUOUS
  5
19E
 10
78.4
 20
200.69
 30
0.0
 11
77.595959
 21
194.5827
 31
0.0
  0
TEXT
  8
LC-006-003-----0
  6
CONTINUOUS
 62
     8
  5
19F
 10
70.572446
 20
96.92201
 30
0.0
 40
28.0
  1
DN150
 50
90.0
 41
0.9
 51
15.0
  7
LC-TXTSTYLE-150-400-0-0-A0
 72
     1
 11
70.572446
 21
146.12816
 31
0.0
  0
ENDBLK
  8
0
  5
1A0
  0
BLOCK
  8
0
  5
1A2
  2
*D20
 70
    65
 10
0.0
 20
0.0
 30
0.0
  3
*D20
  0
LINE
  8
LC-007-003-MTH-0
  6
CONTINUOUS
  5
1A3
 10
174.78335
 20
246.180629
 30
0.0
 11
174.78335
 21
330.4
 31
0.0
  0
LINE
  8
LC-007-003-MTH-0
  6
CONTINUOUS
  5
1A4
 10
254.78335
 20
269.680629
 30
0.0
 11
254.78335
 21
330.4
 31
0.0
  0
LINE
  8
LC-008-003-MTG-0
  6
CONTINUOUS
  5
1A5
 10
174.78335
 20
313.6
 30
0.0
 11
254.78335
 21
313.6
 31
0.0
  0
LINE
  8
LC-006-003-----0
  6
CONTINUOUS
  5
1A6
 10
202.543806
 20
317.254733
 30
0.0
 11
174.78335
 21
313.6
 31
0.0
  0
LINE
  8
LC-006-003-----0
  6
CONTINUOUS
  5
1A7
 10
174.78335
 20
313.6
 30
0.0
 11
202.543806
 21
309.945267
 31
0.0
  0
LINE
  8
LC-006-003-----0
  6
CONTINUOUS
  5
1A8
 10
202.543806
 20
309.945267
 30
0.0
 11
202.543806
 21
317.254733
 31
0.0
  0
LINE
  8
LC-006-003-----0
  6
CONTINUOUS
  5
1A9
 10
202.606087
 20
316.304503
 30
0.0
 11
182.06335
 21
313.6
 31
0.0
  0
LINE
  8
LC-006-003-----0
  6
CONTINUOUS
  5
1AA
 10
182.06335
 20
313.6
 30
0.0
 11
202.606087
 21
310.895497
 31
0.0
  0
LINE
  8
LC-006-003-----0
  6
CONTINUOUS
  5
1AB
 10
202.668369
 20
315.354272
 30
0.0
 11
189.34335
 21
313.6
 31
0.0
  0
LINE
  8
LC-006-003-----0
  6
CONTINUOUS
  5
1AC
 10
189.34335
 20
313.6
 30
0.0
 11
202.668369
 21
311.845728
 31
0.0
  0
LINE
  8
LC-006-003-----0
  6
CONTINUOUS
  5
1AD
 10
202.73065
 20
314.404041
 30
0.0
 11
196.62335
 21
313.6
 31
0.0
  0
LINE
  8
LC-006-003-----0
  6
CONTINUOUS
  5
1AE
 10
196.62335
 20
313.6
 30
0.0
 11
202.73065
 21
312.795959
 31
0.0
  0
LINE
  8
LC-006-003-----0
  6
CONTINUOUS
  5
1AF
 10
227.022894
 20
309.945267
 30
0.0
 11
254.78335
 21
313.6
 31
0.0
  0
LINE
  8
LC-006-003-----0
  6
CONTINUOUS
  5
1B0
 10
254.78335
 20
313.6
 30
0.0
 11
227.022894
 21
317.254733
 31
0.0
  0
LINE
  8
LC-006-003-----0
  6
CONTINUOUS
  5
1B1
 10
227.022894
 20
317.254733
 30
0.0
 11
227.022894
 21
309.945267
 31
0.0
  0
LINE
  8
LC-006-003-----0
  6
CONTINUOUS
  5
1B2
 10
226.960612
 20
310.895497
 30
0.0
 11
247.50335
 21
313.6
 31
0.0
  0
LINE
  8
LC-006-003-----0
  6
CONTINUOUS
  5
1B3
 10
247.50335
 20
313.6
 30
0.0
 11
226.960612
 21
316.304503
 31
0.0
  0
LINE
  8
LC-006-003-----0
  6
CONTINUOUS
  5
1B4
 10
226.898331
 20
311.845728
 30
0.0
 11
240.22335
 21
313.6
 31
0.0
  0
LINE
  8
LC-006-003-----0
  6
CONTINUOUS
  5
1B5
 10
240.22335
 20
313.6
 30
0.0
 11
226.898331
 21
315.354272
 31
0.0
  0
LINE
  8
LC-006-003-----0
  6
CONTINUOUS
  5
1B6
 10
226.83605
 20
312.795959
 30
0.0
 11
232.94335
 21
313.6
 31
0.0
  0
LINE
  8
LC-006-003-----0
  6
CONTINUOUS
  5
1B7
 10
232.94335
 20
313.6
 30
0.0
 11
226.83605
 21
314.404041
 31
0.0
  0
TEXT
  8
LC-006-003-----0
  6
CONTINUOUS
 62
     8
  5
1B8
 10
201.52931
 20
321.427554
 30
0.0
 40
28.0
  1
80
 41
0.9
 51
15.0
  7
LC-TXTSTYLE-150-400-0-0-A0
 72
     1
 11
219.13151
 21
321.427554
 31
0.0
  0
ENDBLK
  8
0
  5
1B9
  0
BLOCK
  8
0
  5
1BB
  2
*D21
 70
    65
 10
0.0
 20
0.0
 30
0.0
  3
*D21
  0
LINE
  8
LC-007-003-MTH-0
  6
CONTINUOUS
  5
1BC
 10
90.972422
 20
222.78
 30
0.0
 11
90.972422
 21
369.6
 31
0.0
  0
LINE
  8
LC-007-003-MTH-0
  6
CONTINUOUS
  5
1BD
 10
254.78335
 20
269.680629
 30
0.0
 11
254.78335
 21
369.6
 31
0.0
  0
LINE
  8
LC-008-003-MTG-0
  6
CONTINUOUS
  5
1BE
 10
90.972422
 20
352.8
 30
0.0
 11
254.78335
 21
352.8
 31
0.0
  0
LINE
  8
LC-006-003-----0
  6
CONTINUOUS
  5
1BF
 10
118.732878
 20
356.454733
 30
0.0
 11
90.972422
 21
352.8
 31
0.0
  0
LINE
  8
LC-006-003-----0
  6
CONTINUOUS
  5
1C0
 10
90.972422
 20
352.8
 30
0.0
 11
118.732878
 21
349.145267
 31
0.0
  0
LINE
  8
LC-006-003-----0
  6
CONTINUOUS
  5
1C1
 10
118.732878
 20
349.145267
 30
0.0
 11
118.732878
 21
356.454733
 31
0.0
  0
LINE
  8
LC-006-003-----0
  6
CONTINUOUS
  5
1C2
 10
118.79516
 20
355.504503
 30
0.0
 11
98.252422
 21
352.8
 31
0.0
  0
LINE
  8
LC-006-003-----0
  6
CONTINUOUS
  5
1C3
 10
98.252422
 20
352.8
 30
0.0
 11
118.79516
 21
350.095497
 31
0.0
  0
LINE
  8
LC-006-003-----0
  6
CONTINUOUS
  5
1C4
 10
118.857441
 20
354.554272
 30
0.0
 11
105.532422
 21
352.8
 31
0.0
  0
LINE
  8
LC-006-003-----0
  6
CONTINUOUS
  5
1C5
 10
105.532422
 20
352.8
 30
0.0
 11
118.857441
 21
351.045728
 31
0.0
  0
LINE
  8
LC-006-003-----0
  6
CONTINUOUS
  5
1C6
 10
118.919722
 20
353.604041
 30
0.0
 11
112.812422
 21
352.8
 31
0.0
  0
LINE
  8
LC-006-003-----0
  6
CONTINUOUS
  5
1C7
 10
112.812422
 20
352.8
 30
0.0
 11
118.919722
 21
351.995959
 31
0.0
  0
LINE
  8
LC-006-003-----0
  6
CONTINUOUS
  5
1C8
 10
227.022894
 20
349.145267
 30
0.0
 11
254.78335
 21
352.8
 31
0.0
  0
LINE
  8
LC-006-003-----0
  6
CONTINUOUS
  5
1C9
 10
254.78335
 20
352.8
 30
0.0
 11
227.022894
 21
356.454733
 31
0.0
  0
LINE
  8
LC-006-003-----0
  6
CONTINUOUS
  5
1CA
 10
227.022894
 20
356.454733
 30
0.0
 11
227.022894
 21
349.145267
 31
0.0
  0
LINE
  8
LC-006-003-----0
  6
CONTINUOUS
  5
1CB
 10
226.960612
 20
350.095497
 30
0.0
 11
247.50335
 21
352.8
 31
0.0
  0
LINE
  8
LC-006-003-----0
  6
CONTINUOUS
  5
1CC
 10
247.50335
 20
352.8
 30
0.0
 11
226.960612
 21
355.504503
 31
0.0
  0
LINE
  8
LC-006-003-----0
  6
CONTINUOUS
  5
1CD
 10
226.898331
 20
351.045728
 30
0.0
 11
240.22335
 21
352.8
 31
0.0
  0
LINE
  8
LC-006-003-----0
  6
CONTINUOUS
  5
1CE
 10
240.22335
 20
352.8
 30
0.0
 11
226.898331
 21
354.554272
 31
0.0
  0
LINE
  8
LC-006-003-----0
  6
CONTINUOUS
  5
1CF
 10
226.83605
 20
351.995959
 30
0.0
 11
232.94335
 21
352.8
 31
0.0
  0
LINE
  8
LC-006-003-----0
  6
CONTINUOUS
  5
1D0
 10
232.94335
 20
352.8
 30
0.0
 11
226.83605
 21
353.604041
 31
0.0
  0
TEXT
  8
LC-006-003-----0
  6
CONTINUOUS
 62
     8
  5
1D1
 10
150.822746
 20
360.627554
 30
0.0
 40
28.0
  1
164
 41
0.9
 51
15.0
  7
LC-TXTSTYLE-150-400-0-0-A0
 72
     1
 11
177.226046
 21
360.627554
 31
0.0
  0
ENDBLK
  8
0
  5
1D2
  0
BLOCK
  8
0
  5
1D4
  2
*D22
 70
    65
 10
0.0
 20
0.0
 30
0.0
  3
*D22
  0
LINE
  8
LC-007-003-MTH-0
  6
CONTINUOUS
  5
1D5
 10
201.708933
 20
42.680648
 30
0.0
 11
408.8
 21
42.680648
 31
0.0
  0
LINE
  8
LC-007-003-MTH-0
  6
CONTINUOUS
  5
1D6
 10
254.78335
 20
269.680629
 30
0.0
 11
408.8
 21
269.680629
 31
0.0
  0
LINE
  8
LC-008-003-MTG-0
  6
CONTINUOUS
  5
1D7
 10
392.0
 20
42.680648
 30
0.0
 11
392.0
 21
269.680629
 31
0.0
  0
LINE
  8
LC-006-003-----0
  6
CONTINUOUS
  5
1D8
 10
388.345267
 20
70.441104
 30
0.0
 11
392.0
 21
42.680648
 31
0.0
  0
LINE
  8
LC-006-003-----0
  6
CONTINUOUS
  5
1D9
 10
392.0
 20
42.680648
 30
0.0
 11
395.654733
 21
70.441104
 31
0.0
  0
LINE
  8
LC-006-003-----0
  6
CONTINUOUS
  5
1DA
 10
395.654733
 20
70.441104
 30
0.0
 11
388.345267
 21
70.441104
 31
0.0
  0
LINE
  8
LC-006-003-----0
  6
CONTINUOUS
  5
1DB
 10
389.295497
 20
70.503386
 30
0.0
 11
392.0
 21
49.960648
 31
0.0
  0
LINE
  8
LC-006-003-----0
  6
CONTINUOUS
  5
1DC
 10
392.0
 20
49.960648
 30
0.0
 11
394.704503
 21
70.503386
 31
0.0
  0
LINE
  8
LC-006-003-----0
  6
CONTINUOUS
  5
1DD
 10
390.245728
 20
70.565667
 30
0.0
 11
392.0
 21
57.240648
 31
0.0
  0
LINE
  8
LC-006-003-----0
  6
CONTINUOUS
  5
1DE
 10
392.0
 20
57.240648
 30
0.0
 11
393.754272
 21
70.565667
 31
0.0
  0
LINE
  8
LC-006-003-----0
  6
CONTINUOUS
  5
1DF
 10
391.195959
 20
70.627948
 30
0.0
 11
392.0
 21
64.520648
 31
0.0
  0
LINE
  8
LC-006-003-----0
  6
CONTINUOUS
  5
1E0
 10
392.0
 20
64.520648
 30
0.0
 11
392.804041
 21
70.627948
 31
0.0
  0
LINE
  8
LC-006-003-----0
  6
CONTINUOUS
  5
1E1
 10
395.654733
 20
241.920173
 30
0.0
 11
392.0
 21
269.680629
 31
0.0
  0
LINE
  8
LC-006-003-----0
  6
CONTINUOUS
  5
1E2
 10
392.0
 20
269.680629
 30
0.0
 11
388.345267
 21
241.920173
 31
0.0
  0
LINE
  8
LC-006-003-----0
  6
CONTINUOUS
  5
1E3
 10
388.345267
 20
241.920173
 30
0.0
 11
395.654733
 21
241.920173
 31
0.0
  0
LINE
  8
LC-006-003-----0
  6
CONTINUOUS
  5
1E4
 10
394.704503
 20
241.857891
 30
0.0
 11
392.0
 21
262.400629
 31
0.0
  0
LINE
  8
LC-006-003-----0
  6
CONTINUOUS
  5
1E5
 10
392.0
 20
262.400629
 30
0.0
 11
389.295497
 21
241.857891
 31
0.0
  0
LINE
  8
LC-006-003-----0
  6
CONTINUOUS
  5
1E6
 10
393.754272
 20
241.79561
 30
0.0
 11
392.0
 21
255.120629
 31
0.0
  0
LINE
  8
LC-006-003-----0
  6
CONTINUOUS
  5
1E7
 10
392.0
 20
255.120629
 30
0.0
 11
390.245728
 21
241.79561
 31
0.0
  0
LINE
  8
LC-006-003-----0
  6
CONTINUOUS
  5
1E8
 10
392.804041
 20
241.733328
 30
0.0
 11
392.0
 21
247.840629
 31
0.0
  0
LINE
  8
LC-006-003-----0
  6
CONTINUOUS
  5
1E9
 10
392.0
 20
247.840629
 30
0.0
 11
391.195959
 21
241.733328
 31
0.0
  0
TEXT
  8
LC-006-003-----0
  6
CONTINUOUS
 62
     8
  5
1EA
 10
384.172446
 20
134.125498
 30
0.0
 40
28.0
  1
227
 50
90.0
 41
0.9
 51
15.0
  7
LC-TXTSTYLE-150-400-0-0-A0
 72
     1
 11
384.172446
 21
160.528798
 31
0.0
  0
ENDBLK
  8
0
  5
1EB
  0
BLOCK
  8
0
  5
1ED
  2
*D23
 70
    65
 10
0.0
 20
0.0
 30
0.0
  3
*D23
  0
LINE
  8
LC-007-003-MTH-0
  6
CONTINUOUS
  5
1EE
 10
90.972422
 20
226.78
 30
0.0
 11
90.972422
 21
416.8
 31
0.0
  0
LINE
  8
LC-007-003-MTH-0
  6
CONTINUOUS
  5
1EF
 10
356.645743
 20
145.89807
 30
0.0
 11
356.645743
 21
416.8
 31
0.0
  0
LINE
  8
LC-008-003-MTG-0
  6
CONTINUOUS
  5
1F0
 10
90.972422
 20
400.0
 30
0.0
 11
356.645743
 21
400.0
 31
0.0
  0
LINE
  8
LC-006-003-----0
  6
CONTINUOUS
  5
1F1
 10
118.732878
 20
403.654733
 30
0.0
 11
90.972422
 21
400.0
 31
0.0
  0
LINE
  8
LC-006-003-----0
  6
CONTINUOUS
  5
1F2
 10
90.972422
 20
400.0
 30
0.0
 11
118.732878
 21
396.345267
 31
0.0
  0
LINE
  8
LC-006-003-----0
  6
CONTINUOUS
  5
1F3
 10
118.732878
 20
396.345267
 30
0.0
 11
118.732878
 21
403.654733
 31
0.0
  0
LINE
  8
LC-006-003-----0
  6
CONTINUOUS
  5
1F4
 10
118.79516
 20
402.704503
 30
0.0
 11
98.252422
 21
400.0
 31
0.0
  0
LINE
  8
LC-006-003-----0
  6
CONTINUOUS
  5
1F5
 10
98.252422
 20
400.0
 30
0.0
 11
118.79516
 21
397.295497
 31
0.0
  0
LINE
  8
LC-006-003-----0
  6
CONTINUOUS
  5
1F6
 10
118.857441
 20
401.754272
 30
0.0
 11
105.532422
 21
400.0
 31
0.0
  0
LINE
  8
LC-006-003-----0
  6
CONTINUOUS
  5
1F7
 10
105.532422
 20
400.0
 30
0.0
 11
118.857441
 21
398.245728
 31
0.0
  0
LINE
  8
LC-006-003-----0
  6
CONTINUOUS
  5
1F8
 10
118.919722
 20
400.804041
 30
0.0
 11
112.812422
 21
400.0
 31
0.0
  0
LINE
  8
LC-006-003-----0
  6
CONTINUOUS
  5
1F9
 10
112.812422
 20
400.0
 30
0.0
 11
118.919722
 21
399.195959
 31
0.0
  0
LINE
  8
LC-006-003-----0
  6
CONTINUOUS
  5
1FA
 10
328.885287
 20
396.345267
 30
0.0
 11
356.645743
 21
400.0
 31
0.0
  0
LINE
  8
LC-006-003-----0
  6
CONTINUOUS
  5
1FB
 10
356.645743
 20
400.0
 30
0.0
 11
328.885287
 21
403.654733
 31
0.0
  0
LINE
  8
LC-006-003-----0
  6
CONTINUOUS
  5
1FC
 10
328.885287
 20
403.654733
 30
0.0
 11
328.885287
 21
396.345267
 31
0.0
  0
LINE
  8
LC-006-003-----0
  6
CONTINUOUS
  5
1FD
 10
328.823006
 20
397.295497
 30
0.0
 11
349.365743
 21
400.0
 31
0.0
  0
LINE
  8
LC-006-003-----0
  6
CONTINUOUS
  5
1FE
 10
349.365743
 20
400.0
 30
0.0
 11
328.823006
 21
402.704503
 31
0.0
  0
LINE
  8
LC-006-003-----0
  6
CONTINUOUS
  5
1FF
 10
328.760724
 20
398.245728
 30
0.0
 11
342.085743
 21
400.0
 31
0.0
  0
LINE
  8
LC-006-003-----0
  6
CONTINUOUS
  5
200
 10
342.085743
 20
400.0
 30
0.0
 11
328.760724
 21
401.754272
 31
0.0
  0
LINE
  8
LC-006-003-----0
  6
CONTINUOUS
  5
201
 10
328.698443
 20
399.195959
 30
0.0
 11
334.805743
 21
400.0
 31
0.0
  0
LINE
  8
LC-006-003-----0
  6
CONTINUOUS
  5
202
 10
334.805743
 20
400.0
 30
0.0
 11
328.698443
 21
400.804041
 31
0.0
  0
TEXT
  8
LC-006-003-----0
  6
CONTINUOUS
 62
     8
  5
203
 10
201.753942
 20
407.827554
 30
0.0
 40
28.0
  1
266
 41
0.9
 51
15.0
  7
LC-TXTSTYLE-150-400-0-0-A0
 72
     1
 11
228.157242
 21
407.827554
 31
0.0
  0
ENDBLK
  8
0
  5
204
  0
ENDSEC
  0
SECTION
  2
ENTITIES
  0
VIEWPORT
  8
LC-000
  5
3ED
 67
     1
 68
     1
 10
420.0
 20
297.0
 30
0.0
 40
840.0
 41
594.0
 69
     1
1001
ACAD
1000
MVIEW
1002
{
1070
    16
1010
0.0
1020
0.0
1030
0.0
1010
0.0
1020
0.0
1030
1.0
1040
0.0
1040
594.0
1040
420.0
1040
297.0
1040
50.0
1040
0.0
1040
0.0
1070
     0
1070
   100
1070
     1
1070
     1
1070
     0
1070
     0
1070
     0
1070
     0
1040
0.0
1040
0.0
1040
0.0
1040
1.0
1040
1.0
1040
0.0
1040
0.0
1070
     0
1002
{
1002
}
1002
}
  0
VIEWPORT
  8
0
  5
3EE
 67
     1
 68
     1
 10
0.0
 20
0.0
 30
0.0
 40
0.0
 41
0.0
 69
     1
1001
ACAD
1000
MVIEW
1002
{
1070
    16
1010
0.0
1020
0.0
1030
0.0
1010
0.0
1020
0.0
1030
1.0
1040
0.0
1040
594.0
1040
0.0
1040
0.0
1040
50.0
1040
0.0
1040
0.0
1070
     0
1070
   100
1070
     0
1070
     1
1070
     0
1070
     0
1070
     0
1070
     0
1040
0.0
1040
0.0
1040
0.0
1040
0.5
1040
0.5
1040
0.5
1040
0.5
1070
     0
1002
{
1002
}
1002
}
  0
INSERT
  8
LC-001-000-----0
  5
206
  2
BLK1
 10
0.0
 20
0.0
 30
0.0
  0
INSERT
  8
LC-004-005-----0
  6
CONTINUOUS
  5
207
  2
*X1
 10
90.972422
 20
211.58
 30
0.0
  0
INSERT
  8
LC-001-000-----0
  5
208
  2
BLK2
 10
0.0
 20
0.0
 30
0.0
  0
INSERT
  8
LC-004-005-----0
  6
CONTINUOUS
  5
209
  2
*X3
 10
104.976792
 20
223.28
 30
0.0
  0
INSERT
  8
LC-004-005-----0
  6
CONTINUOUS
  5
20A
  2
*X4
 10
104.976792
 20
51.78
 30
0.0
  0
INSERT
  8
LC-001-000-----0
  5
20B
  2
BLK3
 10
0.0
 20
0.0
 30
0.0
  0
INSERT
  8
LC-004-005-----0
  6
CONTINUOUS
  5
20C
  2
*X6
 10
-270.473096
 20
-110.45957
 30
0.0
  0
INSERT
  8
LC-001-000-----0
  5
20D
  2
BLK4
 10
0.0
 20
0.0
 30
0.0
  0
INSERT
  8
LC-001-000-----0
  5
20E
  2
BLK5
 10
0.0
 20
0.0
 30
0.0
  0
INSERT
  8
LC-001-000-----0
  5
20F
  2
BLK6
 10
0.0
 20
0.0
 30
0.0
  0
INSERT
  8
LC-004-005-----0
  6
CONTINUOUS
  5
210
  2
*X10
 10
177.785225
 20
244.67963
 30
0.0
  0
INSERT
  8
LC-001-000-----0
  5
211
  2
BLK7
 10
0.0
 20
0.0
 30
0.0
  0
INSERT
  8
LC-004-005-----0
  6
CONTINUOUS
  5
212
  2
*X12
 10
185.577817
 20
219.189324
 30
0.0
  0
INSERT
  8
LC-004-005-----0
  6
CONTINUOUS
  5
213
  2
*X13
 10
188.859414
 20
49.215949
 30
0.0
  0
INSERT
  8
LC-001-000-----0
  5
214
  2
BLK8
 10
0.0
 20
0.0
 30
0.0
  0
INSERT
  8
LC-004-005-----0
  6
CONTINUOUS
  5
215
  2
*X15
 10
184.497402
 20
52.912288
 30
0.0
  0
INSERT
  8
LC-001-000-----0
  5
216
  2
BLK9
 10
0.0
 20
0.0
 30
0.0
  0
INSERT
  8
LC-004-005-----0
  6
CONTINUOUS
  5
217
  2
*X17
 10
174.78335
 20
241.041412
 30
0.0
  0
INSERT
  8
LC-004-005-----0
  6
CONTINUOUS
  5
218
  2
*X18
 10
-745.21665
 20
-336.874315
 30
0.0
  0
DIMENSION
  8
LC-006-003-----0
  6
CONTINUOUS
  5
219
  2
*D19
 10
78.4
 20
141.78
 30
0.0
 11
78.4
 21
141.78
 31
0.0
  1
DN150
 13
115.976792
 23
222.53
 33
0.0
 14
115.976792
 24
61.03
 34
0.0
 50
90.0
  3
LC-DIM-L-0140-01-02
  0
DIMENSION
  8
LC-006-003-----0
  6
CONTINUOUS
  5
21A
  2
*D20
 10
214.78335
 20
313.6
 30
0.0
 11
214.78335
 21
313.6
 31
0.0
 13
254.78335
 23
269.680629
 33
0.0
 14
174.78335
 24
246.180629
 34
0.0
  3
LC-DIM-L-0140-01-02
  0
DIMENSION
  8
LC-006-003-----0
  6
CONTINUOUS
  5
21B
  2
*D21
 10
172.877886
 20
352.8
 30
0.0
 11
172.877886
 21
352.8
 31
0.0
 13
90.972422
 23
222.78
 33
0.0
 14
254.78335
 24
269.680629
 34
0.0
  3
LC-DIM-L-0140-00-02
  0
DIMENSION
  8
LC-006-003-----0
  6
CONTINUOUS
  5
21C
  2
*D22
 10
392.0
 20
156.180638
 30
0.0
 11
392.0
 21
156.180638
 31
0.0
 13
254.78335
 23
269.680629
 33
0.0
 14
201.708933
 24
42.680648
 34
0.0
 50
90.0
  3
LC-DIM-L-0140-01-02
  0
DIMENSION
  8
LC-006-003-----0
  6
CONTINUOUS
  5
21D
  2
*D23
 10
223.809083
 20
400.0
 30
0.0
 11
223.809083
 21
400.0
 31
0.0
  1
266
 13
90.972422
 23
226.78
 33
0.0
 14
356.645743
 24
145.89807
 34
0.0
  3
LC-DIM-L-0140-02-02
  0
LINE
  8
LC-002-002-----0
  6
CONTINUOUS
  5
21F
 10
103.972422
 20
229.28
 30
0.0
 11
103.972422
 21
60.78
 31
0.0
  0
LINE
  8
LC-002-002-----0
  6
CONTINUOUS
  5
220
 10
90.972422
 20
222.78
 30
0.0
 11
90.972422
 21
60.78
 31
0.0
  0
LINE
  8
LC-002-002-----0
  6
CONTINUOUS
  5
221
 10
182.246757
 20
57.03
 30
0.0
 11
119.972422
 21
57.03
 31
0.0
  0
LINE
  8
LC-002-002-----0
  6
CONTINUOUS
  5
222
 10
173.972422
 20
61.030002
 30
0.0
 11
115.976792
 21
61.03
 31
0.0
  0
LINE
  8
LC-002-002-----0
  6
CONTINUOUS
  5
223
 10
99.972422
 20
231.28
 30
0.0
 11
99.972422
 21
226.78
 31
0.0
  0
LINE
  8
LC-002-002-----0
  6
CONTINUOUS
  5
224
 10
99.972422
 20
52.28
 30
0.0
 11
99.972422
 21
56.78
 31
0.0
  0
LINE
  8
LC-002-002-----0
  6
CONTINUOUS
  5
225
 10
179.972422
 20
211.68
 30
0.0
 11
179.972422
 21
220.922304
 31
0.0
  0
LINE
  8
LC-002-002-----0
  6
CONTINUOUS
  5
226
 10
185.324876
 20
253.1796
 30
0.0
 11
185.937831
 21
217.884143
 31
0.0
  0
LINE
  8
LC-002-002-----0
  6
CONTINUOUS
  5
227
 10
185.973084
 20
215.854217
 30
0.0
 11
185.981243
 21
215.384392
 31
0.0
  0
LINE
  8
LC-002-002-----0
  6
CONTINUOUS
  5
228
 10
186.016491
 20
213.354722
 30
0.0
 11
186.045575
 21
211.68
 31
0.0
  0
LINE
  8
LC-002-002-----0
  6
CONTINUOUS
  5
229
 10
220.98163
 20
47.179965
 30
0.0
 11
220.98163
 21
46.680726
 31
0.0
  0
ARC
  8
LC-003-002-RND-0
  6
CONTINUOUS
  5
22B
 10
190.849514
 20
51.215614
 30
0.0
 40
2.0
 50
180.999727
 51
271.0001
  0
LINE
  8
LC-002-002-----0
  6
CONTINUOUS
  5
22C
 10
212.516539
 20
49.593547
 30
0.0
 11
212.146264
 21
49.587083
 31
0.0
  0
LINE
  8
LC-002-002-----0
  6
CONTINUOUS
  5
22D
 10
190.922141
 20
49.216577
 30
0.0
 11
190.884422
 21
49.215919
 31
0.0
  0
LINE
  8
LC-002-002-----0
  6
CONTINUOUS
  5
22E
 10
214.48163
 20
242.679814
 30
0.0
 11
214.48163
 21
236.869153
 31
0.0
  0
LINE
  8
LC-002-002-----0
  6
CONTINUOUS
  5
22F
 10
214.48163
 20
235.563743
 30
0.0
 11
214.48163
 21
231.162696
 31
0.0
  0
LINE
  8
LC-002-002-----0
  6
CONTINUOUS
  5
230
 10
214.48163
 20
228.238871
 30
0.0
 11
214.48163
 21
220.488135
 31
0.0
  0
LINE
  8
LC-002-002-----0
  6
CONTINUOUS
  5
231
 10
214.48163
 20
217.7878
 30
0.0
 11
214.48163
 21
216.473173
 31
0.0
  0
LINE
  8
LC-002-002-----0
  6
CONTINUOUS
  5
232
 10
214.48163
 20
209.473173
 30
0.0
 11
214.48163
 21
207.365067
 31
0.0
  0
LINE
  8
LC-002-002-----0
  6
CONTINUOUS
  5
233
 10
214.48163
 20
71.715793
 30
0.0
 11
214.48163
 21
54.179969
 31
0.0
  0
LINE
  8
LC-002-002-----0
  6
CONTINUOUS
  5
234
 10
186.045567
 20
211.68
 30
0.0
 11
188.593311
 21
65.68
 31
0.0
  0
ARC
  8
LC-003-002-RND-0
  6
CONTINUOUS
  5
235
 10
212.48163
 20
51.593242
 30
0.0
 40
2.0
 50
271.0001
 51
0.0
  0
LINE
  8
LC-002-002-----0
  6
CONTINUOUS
  5
236
 10
214.48163
 20
54.179969
 30
0.0
 11
242.769852
 21
54.179948
 31
0.0
  0
LINE
  8
LC-002-002-----0
  6
CONTINUOUS
  5
237
 10
221.481631
 20
47.679964
 30
0.0
 11
241.273105
 21
47.679949
 31
0.0
  0
ARC
  8
LC-003-002-RND-0
  6
CONTINUOUS
  5
238
 10
216.98163
 20
46.680726
 30
0.0
 40
4.0
 50
270.00034
 51
0.0
  0
ARC
  8
LC-003-002-RND-0
  6
CONTINUOUS
  5
239
 10
221.48163
 20
47.179965
 30
0.0
 40
0.5
 50
89.999955
 51
180.0
  0
LINE
  8
LC-002-002-----0
  6
CONTINUOUS
  5
23A
 10
186.427989
 20
42.680562
 30
0.0
 11
216.989876
 21
42.680734
 31
0.0
  0
ARC
  8
LC-003-002-RND-0
  6
CONTINUOUS
  5
23B
 10
105.972422
 20
54.28
 30
0.0
 40
2.0
 50
180.0
 51
260.792472
  0
LINE
  8
LC-002-002-----0
  6
CONTINUOUS
  5
23C
 10
119.972422
 20
226.53
 30
0.0
 11
119.972422
 21
231.28
 31
0.0
  0
LINE
  8
LC-002-002-----0
  6
CONTINUOUS
  5
23D
 10
119.972422
 20
57.03
 30
0.0
 11
119.972422
 21
52.28
 31
0.0
  0
ARC
  8
LC-003-002-RND-0
  6
CONTINUOUS
  5
23E
 10
186.427967
 20
46.680562
 30
0.0
 40
4.0
 50
180.999727
 51
270.000323
  0
LINE
  8
LC-002-002-----0
  6
CONTINUOUS
  5
23F
 10
180.972347
 20
244.6796
 30
0.0
 11
178.972442
 21
244.6796
 31
0.0
  0
LINE
  8
LC-002-002-----0
  6
CONTINUOUS
  5
240
 10
113.476792
 20
52.28
 30
0.0
 11
112.476792
 21
52.28
 31
0.0
  0
LINE
  8
LC-002-002-----0
  6
CONTINUOUS
  5
241
 10
111.476792
 20
52.28
 30
0.0
 11
109.476792
 21
52.28
 31
0.0
  0
LINE
  8
LC-002-002-----0
  6
CONTINUOUS
  5
242
 10
108.476792
 20
52.28
 30
0.0
 11
107.476792
 21
52.28
 31
0.0
  0
LINE
  8
LC-002-002-----0
  6
CONTINUOUS
  5
243
 10
90.972422
 20
56.78
 30
0.0
 11
90.972422
 21
60.78
 31
0.0
  0
LINE
  8
LC-002-002-----0
  6
CONTINUOUS
  5
244
 10
115.972422
 20
48.28
 30
0.0
 11
103.972422
 21
48.28
 31
0.0
  0
LINE
  8
LC-002-002-----0
  6
CONTINUOUS
  5
245
 10
103.972422
 20
60.78
 30
0.0
 11
90.972422
 21
60.78
 31
0.0
  0
ARC
  8
LC-003-002-RND-0
  6
CONTINUOUS
  5
246
 10
105.972422
 20
229.28
 30
0.0
 40
2.0
 50
99.207521
 51
180.0
  0
LINE
  8
LC-002-002-----0
  6
CONTINUOUS
  5
247
 10
182.246757
 20
57.03
 30
0.0
 11
182.428576
 21
46.610771
 31
0.0
  0
LINE
  8
LC-002-002-----0
  6
CONTINUOUS
  5
248
 10
115.972422
 20
235.28
 30
0.0
 11
103.972422
 21
235.28
 31
0.0
  0
LINE
  8
LC-002-002-----0
  6
CONTINUOUS
  5
249
 10
188.593287
 20
65.68
 30
0.0
 11
188.624655
 21
63.907089
 31
0.0
  0
LINE
  8
LC-002-002-----0
  6
CONTINUOUS
  5
24A
 10
188.660558
 20
61.877781
 30
0.0
 11
188.668873
 21
61.407823
 31
0.0
  0
LINE
  8
LC-002-002-----0
  6
CONTINUOUS
  5
24B
 10
188.704789
 20
59.377829
 30
0.0
 11
188.849818
 21
51.180719
 31
0.0
  0
LINE
  8
LC-002-002-----0
  6
CONTINUOUS
  5
24C
 10
173.972422
 20
222.529998
 30
0.0
 11
173.972422
 21
61.030004
 31
0.0
  0
LINE
  8
LC-002-002-----0
  6
CONTINUOUS
  5
24D
 10
173.97243
 20
61.030006
 30
0.0
 11
179.97243
 21
62.637701
 31
0.0
  0
LINE
  8
LC-002-002-----0
  6
CONTINUOUS
  5
24E
 10
179.28893
 20
226.53
 30
0.0
 11
119.972422
 21
226.53
 31
0.0
  0
LINE
  8
LC-002-002-----0
  6
CONTINUOUS
  5
24F
 10
99.972422
 20
56.78
 30
0.0
 11
90.972422
 21
56.78
 31
0.0
  0
LINE
  8
LC-002-002-----0
  6
CONTINUOUS
  5
250
 10
173.972422
 20
222.529998
 30
0.0
 11
179.972422
 21
220.922304
 31
0.0
  0
LINE
  8
LC-002-002-----0
  6
CONTINUOUS
  5
251
 10
179.972423
 20
138.58
 30
0.0
 11
179.97243
 21
62.637701
 31
0.0
  0
LINE
  8
LC-002-002-----0
  6
CONTINUOUS
  5
252
 10
173.972422
 20
222.529998
 30
0.0
 11
115.976792
 21
222.53
 31
0.0
  0
LINE
  8
LC-002-002-----0
  6
CONTINUOUS
  5
253
 10
179.972422
 20
138.58
 30
0.0
 11
179.972422
 21
211.68
 31
0.0
  0
ARC
  8
LC-003-002-RND-0
  6
CONTINUOUS
  5
254
 10
181.892296
 20
252.6796
 30
0.0
 40
0.5
 50
90.0
 51
176.999997
  0
ARC
  8
LC-003-002-RND-0
  6
CONTINUOUS
  5
255
 10
115.972422
 20
231.28
 30
0.0
 40
4.0
 50
0.0
 51
90.0
  0
ARC
  8
LC-002-002-----0
  6
CONTINUOUS
  5
256
 10
215.98158
 20
242.679814
 30
0.0
 40
1.49995
 50
0.0
 51
180.0
  0
ARC
  8
LC-002-002-----0
  6
CONTINUOUS
  5
257
 10
246.231731
 20
242.429764
 30
0.0
 40
1.75
 50
0.0
 51
180.0
  0
LINE
  8
LC-002-002-----0
  6
CONTINUOUS
  5
258
 10
222.972232
 20
253.180629
 30
0.0
 11
222.972232
 21
253.179764
 31
0.0
  0
LINE
  8
LC-002-002-----0
  6
CONTINUOUS
 62
     2
  5
259
 10
221.972232
 20
270.179764
 30
0.0
 11
221.972232
 21
269.680629
 31
0.0
  0
LINE
  8
LC-002-002-----0
  6
CONTINUOUS
 62
     2
  5
25A
 10
221.972232
 20
253.180629
 30
0.0
 11
221.972232
 21
253.179764
 31
0.0
  0
LINE
  8
LC-002-002-----0
  6
CONTINUOUS
  5
25B
 10
221.97204
 20
270.179764
 30
0.0
 11
215.972424
 21
270.179764
 31
0.0
  0
LINE
  8
LC-002-002-----0
  6
CONTINUOUS
  5
25C
 10
215.473289
 20
269.680629
 30
0.0
 11
215.972424
 21
270.179764
 31
0.0
  0
LINE
  8
LC-002-002-----0
  6
CONTINUOUS
  5
25D
 10
222.471175
 20
269.680629
 30
0.0
 11
221.97204
 21
270.179764
 31
0.0
  0
LINE
  8
LC-002-002-----0
  6
CONTINUOUS
 62
     2
  5
25E
 10
215.972232
 20
270.179764
 30
0.0
 11
215.972232
 21
269.680629
 31
0.0
  0
LINE
  8
LC-002-002-----0
  6
CONTINUOUS
 62
     2
  5
25F
 10
215.972232
 20
253.180629
 30
0.0
 11
215.972232
 21
253.179764
 31
0.0
  0
LINE
  8
LC-002-002-----0
  6
CONTINUOUS
  5
260
 10
214.972232
 20
253.180629
 30
0.0
 11
214.972232
 21
253.179764
 31
0.0
  0
LINE
  8
LC-002-002-----0
  6
CONTINUOUS
  5
261
 10
185.324876
 20
253.1796
 30
0.0
 11
185.329277
 21
253.1796
 31
0.0
  0
LINE
  8
LC-002-002-----0
  6
CONTINUOUS
  5
262
 10
190.835107
 20
253.179627
 30
0.0
 11
218.972232
 21
253.179763
 31
0.0
  0
ARC
  8
LC-003-002-RND-0
  6
CONTINUOUS
  5
263
 10
103.972422
 20
231.28
 30
0.0
 40
4.0
 50
90.0
 51
180.0
  0
ARC
  8
LC-003-002-RND-0
  6
CONTINUOUS
  5
264
 10
115.972422
 20
52.28
 30
0.0
 40
4.0
 50
270.0
 51
360.0
  0
ARC
  8
LC-003-002-RND-0
  6
CONTINUOUS
  5
265
 10
103.972422
 20
52.28
 30
0.0
 40
4.0
 50
180.0
 51
270.0
  0
LINE
  8
LC-002-002-----0
  6
CONTINUOUS
  5
266
 10
247.981731
 20
242.429764
 30
0.0
 11
247.981731
 21
200.66822
 31
0.0
  0
LINE
  8
LC-002-002-----0
  6
CONTINUOUS
  5
267
 10
247.981731
 20
151.449296
 30
0.0
 11
247.981731
 21
111.648896
 31
0.0
  0
LINE
  8
LC-002-002-----0
  6
CONTINUOUS
  5
268
 10
244.481731
 20
242.429764
 30
0.0
 11
244.481731
 21
204.168205
 31
0.0
  0
LINE
  8
LC-002-002-----0
  6
CONTINUOUS
  5
269
 10
244.481731
 20
157.511473
 30
0.0
 11
244.481731
 21
111.648896
 31
0.0
  0
LINE
  8
LC-002-002-----0
  6
CONTINUOUS
  5
26A
 10
217.48153
 20
242.679814
 30
0.0
 11
217.48153
 21
234.351925
 31
0.0
  0
LINE
  8
LC-002-002-----0
  6
CONTINUOUS
  5
26B
 10
217.48153
 20
233.046515
 30
0.0
 11
217.48153
 21
221.109127
 31
0.0
  0
LINE
  8
LC-002-002-----0
  6
CONTINUOUS
  5
26C
 10
217.48153
 20
219.888353
 30
0.0
 11
217.48153
 21
211.277194
 31
0.0
  0
LINE
  8
LC-002-002-----0
  6
CONTINUOUS
  5
26D
 10
247.981731
 20
111.648896
 30
0.0
 11
244.481731
 21
111.648896
 31
0.0
  0
LINE
  8
LC-002-002-----0
  6
CONTINUOUS
  5
26E
 10
113.476792
 20
231.28
 30
0.0
 11
112.476792
 21
231.28
 31
0.0
  0
LINE
  8
LC-002-002-----0
  6
CONTINUOUS
  5
26F
 10
111.476792
 20
231.28
 30
0.0
 11
109.476792
 21
231.28
 31
0.0
  0
LINE
  8
LC-002-002-----0
  6
CONTINUOUS
  5
270
 10
108.476792
 20
231.28
 30
0.0
 11
107.476792
 21
231.28
 31
0.0
  0
LINE
  8
LC-002-002-----0
  6
CONTINUOUS
  5
271
 10
90.972422
 20
226.78
 30
0.0
 11
90.972422
 21
222.78
 31
0.0
  0
LINE
  8
LC-005-006-MLN-0
  6
DASHDOT
  5
275
 10
218.972232
 20
291.680602
 30
0.0
 11
218.972232
 21
259.680629
 31
0.0
  0
LINE
  8
LC-002-002-----0
  6
CONTINUOUS
  5
276
 10
103.972422
 20
222.78
 30
0.0
 11
90.972422
 21
222.78
 31
0.0
  0
LINE
  8
LC-002-002-----0
  6
CONTINUOUS
  5
277
 10
180.972347
 20
244.6796
 30
0.0
 11
181.392981
 21
252.705768
 31
0.0
  0
LINE
  8
LC-002-002-----0
  6
CONTINUOUS
  5
278
 10
181.892296
 20
253.1796
 30
0.0
 11
182.43907
 21
253.1796
 31
0.0
  0
LINE
  8
LC-002-002-----0
  6
CONTINUOUS
  5
279
 10
183.43907
 20
253.1796
 30
0.0
 11
185.324876
 21
253.1796
 31
0.0
  0
LINE
  8
LC-002-002-----0
  6
CONTINUOUS
  5
27A
 10
218.972232
 20
253.179763
 30
0.0
 11
254.78335
 21
253.179958
 31
0.0
  0
LINE
  8
LC-002-002-----0
  6
CONTINUOUS
  5
27B
 10
99.972422
 20
226.78
 30
0.0
 11
90.972422
 21
226.78
 31
0.0
  0
LINE
  8
LC-002-002-----0
  6
CONTINUOUS
  5
27C
 10
214.48163
 20
54.179969
 30
0.0
 11
214.48163
 21
51.593242
 31
0.0
  0
LINE
  8
LC-002-002-----0
  6
CONTINUOUS
  5
27D
 10
103.972422
 20
60.78
 30
0.0
 11
103.972422
 21
54.28
 31
0.0
  0
LINE
  8
LC-002-002-----0
  6
CONTINUOUS
  5
27E
 10
178.972214
 20
244.6796
 30
0.0
 11
179.28893
 21
226.53
 31
0.0
  0
LINE
  8
LC-002-002-----0
  6
CONTINUOUS
  5
27F
 10
186.088613
 20
211.620656
 30
0.0
 11
179.972422
 21
211.620656
 31
0.0
  0
LINE
  8
LC-002-002-----0
  6
CONTINUOUS
  5
280
 10
188.636017
 20
65.68
 30
0.0
 11
179.97243
 21
65.68
 31
0.0
  0
LINE
  8
LC-002-002-----0
  6
CONTINUOUS
  5
281
 10
106.976792
 20
231.78
 30
0.0
 11
107.476792
 21
231.28
 31
0.0
  0
LINE
  8
LC-002-002-----0
  6
CONTINUOUS
  5
282
 10
113.476792
 20
231.28
 30
0.0
 11
113.976792
 21
231.78
 31
0.0
  0
LINE
  8
LC-002-002-----0
  6
CONTINUOUS
  5
283
 10
111.976792
 20
231.78
 30
0.0
 11
112.476792
 21
231.28
 31
0.0
  0
LINE
  8
LC-002-002-----0
  6
CONTINUOUS
  5
284
 10
108.476792
 20
231.28
 30
0.0
 11
108.976792
 21
231.78
 31
0.0
  0
LINE
  8
LC-002-002-----0
  6
CONTINUOUS
  5
285
 10
111.476792
 20
231.28
 30
0.0
 11
111.976792
 21
231.78
 31
0.0
  0
LINE
  8
LC-002-002-----0
  6
CONTINUOUS
  5
286
 10
108.976792
 20
231.78
 30
0.0
 11
109.476792
 21
231.28
 31
0.0
  0
ARC
  8
LC-003-002-RND-0
  6
CONTINUOUS
  5
287
 10
106.976792
 20
229.78
 30
0.0
 40
2.0
 50
90.0
 51
180.0
  0
LINE
  8
LC-002-002-----0
  6
CONTINUOUS
  5
288
 10
115.976792
 20
229.78
 30
0.0
 11
115.976792
 21
227.78
 31
0.0
  0
LINE
  8
LC-002-002-----0
  6
CONTINUOUS
  5
289
 10
114.976792
 20
226.78
 30
0.0
 11
109.976792
 21
226.78
 31
0.0
  0
LINE
  8
LC-002-002-----0
  6
CONTINUOUS
  5
28A
 10
109.976792
 20
226.78
 30
0.0
 11
112.976792
 21
223.28
 31
0.0
  0
LINE
  8
LC-002-002-----0
  6
CONTINUOUS
  5
28B
 10
112.976792
 20
223.28
 30
0.0
 11
105.529578
 21
226.503607
 31
0.0
  0
LINE
  8
LC-002-002-----0
  6
CONTINUOUS
  5
28C
 10
104.976792
 20
227.398034
 30
0.0
 11
104.976792
 21
229.78
 31
0.0
  0
LINE
  8
LC-002-002-----0
  6
CONTINUOUS
  5
28D
 10
115.976792
 20
227.78
 30
0.0
 11
115.976792
 21
141.78
 31
0.0
  0
ARC
  8
LC-003-002-RND-0
  6
CONTINUOUS
  5
28E
 10
114.976792
 20
227.78
 30
0.0
 40
1.0
 50
270.0
 51
0.0
  0
ARC
  8
LC-003-002-RND-0
  6
CONTINUOUS
  5
28F
 10
113.976792
 20
229.78
 30
0.0
 40
2.0
 50
0.0
 51
90.0
  0
LINE
  8
LC-002-002-----0
  6
CONTINUOUS
  5
290
 10
107.476792
 20
231.28
 30
0.0
 11
108.476792
 21
231.28
 31
0.0
  0
ARC
  8
LC-003-002-RND-0
  6
CONTINUOUS
  5
291
 10
105.976792
 20
227.398034
 30
0.0
 40
1.0
 50
180.0
 51
243.434949
  0
LINE
  8
LC-002-002-----0
  6
CONTINUOUS
  5
292
 10
112.976792
 20
223.28
 30
0.0
 11
112.976792
 21
141.78
 31
0.0
  0
LINE
  8
LC-002-002-----0
  6
CONTINUOUS
  5
293
 10
104.976792
 20
227.398034
 30
0.0
 11
104.976792
 21
141.78
 31
0.0
  0
LINE
  8
LC-002-002-----0
  6
CONTINUOUS
  5
294
 10
109.476792
 20
231.28
 30
0.0
 11
111.476792
 21
231.28
 31
0.0
  0
LINE
  8
LC-002-002-----0
  6
CONTINUOUS
  5
295
 10
112.476792
 20
231.28
 30
0.0
 11
113.476792
 21
231.28
 31
0.0
  0
LINE
  8
LC-002-002-----0
  6
CONTINUOUS
  5
296
 10
106.976792
 20
51.78
 30
0.0
 11
107.476792
 21
52.28
 31
0.0
  0
LINE
  8
LC-002-002-----0
  6
CONTINUOUS
  5
297
 10
113.476792
 20
52.28
 30
0.0
 11
113.976792
 21
51.78
 31
0.0
  0
LINE
  8
LC-002-002-----0
  6
CONTINUOUS
  5
298
 10
111.976792
 20
51.78
 30
0.0
 11
112.476792
 21
52.28
 31
0.0
  0
LINE
  8
LC-002-002-----0
  6
CONTINUOUS
  5
299
 10
108.476792
 20
52.28
 30
0.0
 11
108.976792
 21
51.78
 31
0.0
  0
LINE
  8
LC-002-002-----0
  6
CONTINUOUS
  5
29A
 10
111.476792
 20
52.28
 30
0.0
 11
111.976792
 21
51.78
 31
0.0
  0
LINE
  8
LC-002-002-----0
  6
CONTINUOUS
  5
29B
 10
108.976792
 20
51.78
 30
0.0
 11
109.476792
 21
52.28
 31
0.0
  0
ARC
  8
LC-003-002-RND-0
  6
CONTINUOUS
  5
29C
 10
106.976792
 20
53.78
 30
0.0
 40
2.0
 50
180.0
 51
270.0
  0
LINE
  8
LC-002-002-----0
  6
CONTINUOUS
  5
29D
 10
115.976792
 20
53.78
 30
0.0
 11
115.976792
 21
55.78
 31
0.0
  0
LINE
  8
LC-002-002-----0
  6
CONTINUOUS
  5
29E
 10
114.976792
 20
56.78
 30
0.0
 11
109.976792
 21
56.78
 31
0.0
  0
LINE
  8
LC-002-002-----0
  6
CONTINUOUS
  5
29F
 10
109.976792
 20
56.78
 30
0.0
 11
112.976792
 21
60.28
 31
0.0
  0
LINE
  8
LC-002-002-----0
  6
CONTINUOUS
  5
2A0
 10
112.976792
 20
60.28
 30
0.0
 11
105.529578
 21
57.056393
 31
0.0
  0
LINE
  8
LC-002-002-----0
  6
CONTINUOUS
  5
2A1
 10
104.976792
 20
56.161966
 30
0.0
 11
104.976792
 21
53.78
 31
0.0
  0
LINE
  8
LC-002-002-----0
  6
CONTINUOUS
  5
2A2
 10
115.976792
 20
55.78
 30
0.0
 11
115.976792
 21
141.78
 31
0.0
  0
ARC
  8
LC-003-002-RND-0
  6
CONTINUOUS
  5
2A3
 10
114.976792
 20
55.78
 30
0.0
 40
1.0
 50
0.0
 51
90.0
  0
ARC
  8
LC-003-002-RND-0
  6
CONTINUOUS
  5
2A4
 10
113.976792
 20
53.78
 30
0.0
 40
2.0
 50
270.0
 51
0.0
  0
LINE
  8
LC-002-002-----0
  6
CONTINUOUS
  5
2A5
 10
107.476792
 20
52.28
 30
0.0
 11
108.476792
 21
52.28
 31
0.0
  0
ARC
  8
LC-003-002-RND-0
  6
CONTINUOUS
  5
2A6
 10
105.976792
 20
56.161966
 30
0.0
 40
1.0
 50
116.565051
 51
180.0
  0
LINE
  8
LC-002-002-----0
  6
CONTINUOUS
  5
2A7
 10
112.976792
 20
60.28
 30
0.0
 11
112.976792
 21
141.78
 31
0.0
  0
LINE
  8
LC-002-002-----0
  6
CONTINUOUS
  5
2A8
 10
104.976792
 20
56.161966
 30
0.0
 11
104.976792
 21
141.78
 31
0.0
  0
LINE
  8
LC-002-002-----0
  6
CONTINUOUS
  5
2A9
 10
109.476792
 20
52.28
 30
0.0
 11
111.476792
 21
52.28
 31
0.0
  0
LINE
  8
LC-002-002-----0
  6
CONTINUOUS
  5
2AA
 10
112.476792
 20
52.28
 30
0.0
 11
113.476792
 21
52.28
 31
0.0
  0
LINE
  8
LC-002-002-----0
  6
CONTINUOUS
  5
2AB
 10
203.386991
 20
208.305924
 30
0.0
 11
215.594161
 21
206.153471
 31
0.0
  0
LINE
  8
LC-002-002-----0
  6
CONTINUOUS
  5
2AC
 10
203.580952
 20
209.28715
 30
0.0
 11
215.767809
 21
207.138279
 31
0.0
  0
ARC
  8
LC-003-002-RND-0
  6
CONTINUOUS
  5
2AD
 10
204.081583
 20
66.835704
 30
0.0
 40
3.0
 50
100.0
 51
180.0
  0
ARC
  8
LC-003-002-RND-0
  6
CONTINUOUS
  5
2AE
 10
204.081583
 20
66.835704
 30
0.0
 40
4.0
 50
100.0
 51
180.0
  0
ARC
  8
LC-003-002-RND-0
  6
CONTINUOUS
  5
2AF
 10
216.446975
 20
77.139469
 30
0.0
 40
4.0
 50
280.0
 51
345.244321
  0
ARC
  8
LC-003-002-RND-0
  6
CONTINUOUS
  5
2B0
 10
204.081583
 20
212.245155
 30
0.0
 40
3.0
 50
180.0
 51
260.0
  0
LINE
  8
LC-002-002-----0
  6
CONTINUOUS
  5
2B1
 10
203.386991
 20
70.774935
 30
0.0
 11
217.141568
 21
73.200238
 31
0.0
  0
LINE
  8
LC-002-002-----0
  6
CONTINUOUS
  5
2B2
 10
200.081583
 20
63.248595
 30
0.0
 11
200.081583
 21
66.835704
 31
0.0
  0
LINE
  8
LC-002-002-----0
  6
CONTINUOUS
  5
2B3
 10
201.45085
 20
61.754303
 30
0.0
 11
203.581583
 21
61.567888
 31
0.0
  0
ARC
  8
LC-003-002-RND-0
  6
CONTINUOUS
  5
2B4
 10
201.581583
 20
63.248595
 30
0.0
 40
0.5
 50
180.0
 51
265.0
  0
LINE
  8
LC-002-002-----0
  6
CONTINUOUS
  5
2B5
 10
203.581583
 20
216.509152
 30
0.0
 11
203.581583
 21
209.287039
 31
0.0
  0
ARC
  8
LC-003-002-RND-0
  6
CONTINUOUS
  5
2B6
 10
204.081583
 20
212.245155
 30
0.0
 40
4.0
 50
180.0
 51
260.0
  0
LINE
  8
LC-002-002-----0
  6
CONTINUOUS
  5
2B7
 10
203.580952
 20
69.793709
 30
0.0
 11
217.315216
 21
72.215431
 31
0.0
  0
LINE
  8
LC-002-002-----0
  6
CONTINUOUS
  5
2B8
 10
201.538006
 20
62.750498
 30
0.0
 11
203.57207
 21
62.572541
 31
0.0
  0
LINE
  8
LC-002-002-----0
  6
CONTINUOUS
  5
2B9
 10
201.081583
 20
63.248595
 30
0.0
 11
201.081583
 21
66.835704
 31
0.0
  0
ARC
  8
LC-002-002-----0
  6
CONTINUOUS
  5
2BA
 10
-20.473096
 20
139.54043
 30
0.0
 40
249.0
 50
345.244321
 51
1.957484
  0
LINE
  8
LC-002-002-----0
  6
CONTINUOUS
  5
2BB
 10
229.750854
 20
148.593379
 30
0.0
 11
232.68048
 21
149.378376
 31
0.0
  0
LINE
  8
LC-002-002-----0
  6
CONTINUOUS
  5
2BC
 10
229.492493
 20
149.545872
 30
0.0
 11
232.425048
 21
150.331654
 31
0.0
  0
ARC
  8
LC-003-002-RND-0
  6
CONTINUOUS
  5
2BD
 10
216.446975
 20
77.139469
 30
0.0
 40
5.0
 50
280.0
 51
345.244321
  0
LINE
  8
LC-002-002-----0
  6
CONTINUOUS
  5
2BE
 10
214.620376
 20
221.227734
 30
0.0
 11
214.620376
 21
227.857666
 31
0.0
  0
LINE
  8
LC-002-002-----0
  6
CONTINUOUS
  5
2BF
 10
200.081583
 20
215.832264
 30
0.0
 11
200.081583
 21
212.245155
 31
0.0
  0
LINE
  8
LC-002-002-----0
  6
CONTINUOUS
  5
2C0
 10
201.45085
 20
217.326556
 30
0.0
 11
211.881844
 21
218.23915
 31
0.0
  0
ARC
  8
LC-003-002-RND-0
  6
CONTINUOUS
  5
2C1
 10
201.581583
 20
63.248595
 30
0.0
 40
1.5
 50
180.0
 51
265.0
  0
ARC
  8
LC-003-002-RND-0
  6
CONTINUOUS
  5
2C2
 10
214.899568
 20
202.21424
 30
0.0
 40
5.0
 50
15.000117
 51
80.0
  0
LINE
  8
LC-002-002-----0
  6
CONTINUOUS
  5
2C3
 10
233.741136
 20
151.215495
 30
0.0
 11
228.584352
 21
170.460718
 31
0.0
  0
LINE
  8
LC-002-002-----0
  6
CONTINUOUS
  5
2C4
 10
232.7786
 20
150.944027
 30
0.0
 11
218.763269
 21
203.249524
 31
0.0
  0
ARC
  8
LC-003-002-RND-0
  6
CONTINUOUS
  5
2C5
 10
214.899568
 20
202.21424
 30
0.0
 40
4.0
 50
15.000118
 51
80.0
  0
LINE
  8
LC-002-002-----0
  6
CONTINUOUS
  5
2C6
 10
201.538006
 20
216.330362
 30
0.0
 11
211.968999
 21
217.242955
 31
0.0
  0
LINE
  8
LC-002-002-----0
  6
CONTINUOUS
  5
2C7
 10
201.081583
 20
215.832264
 30
0.0
 11
201.081583
 21
212.245155
 31
0.0
  0
LINE
  8
LC-002-002-----0
  6
CONTINUOUS
  5
2C8
 10
215.620376
 20
221.227734
 30
0.0
 11
215.620376
 21
228.033991
 31
0.0
  0
ARC
  8
LC-002-002-----0
  6
CONTINUOUS
  5
2C9
 10
207.081583
 20
236.29043
 30
0.0
 40
5.2
 50
19.999851
 51
240.0
  0
LINE
  8
LC-002-002-----0
  6
CONTINUOUS
  5
2CA
 10
215.620376
 20
228.033991
 30
0.0
 11
211.96799
 21
238.068922
 31
0.0
  0
LINE
  8
LC-002-002-----0
  6
CONTINUOUS
  5
2CB
 10
214.620376
 20
227.857666
 30
0.0
 11
211.028296
 21
237.726904
 31
0.0
  0
ARC
  8
LC-002-002-----0
  6
CONTINUOUS
  5
2CC
 10
207.081583
 20
236.29043
 30
0.0
 40
4.2
 50
19.979579
 51
240.0
  0
LINE
  8
LC-002-002-----0
  6
CONTINUOUS
  5
2CD
 10
200.081583
 20
212.245155
 30
0.0
 11
200.081583
 21
66.835704
 31
0.0
  0
LINE
  8
LC-002-002-----0
  6
CONTINUOUS
  5
2CE
 10
227.405569
 20
174.859961
 30
0.0
 11
219.729195
 21
203.508345
 31
0.0
  0
ARC
  8
LC-003-002-RND-0
  6
CONTINUOUS
  5
2CF
 10
201.581583
 20
215.832264
 30
0.0
 40
0.5
 50
95.0
 51
180.0
  0
ARC
  8
LC-003-002-RND-0
  6
CONTINUOUS
  5
2D0
 10
201.581583
 20
215.832264
 30
0.0
 40
1.5
 50
95.0
 51
180.0
  0
ARC
  8
LC-003-002-RND-0
  6
CONTINUOUS
  5
2D1
 10
211.620376
 20
221.227734
 30
0.0
 40
3.0
 50
275.0
 51
360.0
  0
LINE
  8
LC-002-002-----0
  6
CONTINUOUS
  5
2D2
 10
204.481583
 20
231.787098
 30
0.0
 11
204.981583
 21
232.653123
 31
0.0
  0
ARC
  8
LC-003-002-RND-0
  6
CONTINUOUS
  5
2D3
 10
211.620376
 20
221.227734
 30
0.0
 40
4.0
 50
275.0
 51
360.0
  0
LINE
  8
LC-002-002-----0
  6
CONTINUOUS
  5
2D4
 10
203.581583
 20
69.793821
 30
0.0
 11
203.581583
 21
61.567888
 31
0.0
  0
ARC
  8
LC-002-002-----0
  6
CONTINUOUS
  5
2D5
 10
-20.473096
 20
139.54043
 30
0.0
 40
250.0
 50
345.244321
 51
1.960558
  0
ARC
  8
LC-002-002-----0
  6
CONTINUOUS
  5
2D6
 10
227.481436
 20
172.522739
 30
0.0
 40
2.0
 50
309.371929
 51
80.628314
  0
ARC
  8
LC-003-002-RND-0
  6
CONTINUOUS
  5
2D7
 10
227.888532
 20
174.989371
 30
0.0
 40
0.5
 50
195.000117
 51
260.628314
  0
ARC
  8
LC-003-002-RND-0
  6
CONTINUOUS
  5
2D8
 10
229.067315
 20
170.590128
 30
0.0
 40
0.5
 50
129.371929
 51
195.000117
  0
ARC
  8
LC-003-002-RND-0
  6
CONTINUOUS
  5
2D9
 10
232.295637
 20
150.814617
 30
0.0
 40
0.5
 50
285.000118
 51
15.000118
  0
ARC
  8
LC-003-002-RND-0
  6
CONTINUOUS
  5
2DA
 10
229.880265
 20
148.110416
 30
0.0
 40
0.5
 50
105.000118
 51
181.960558
  0
ARC
  8
LC-003-002-RND-0
  6
CONTINUOUS
  5
2DB
 10
232.292248
 20
150.827264
 30
0.0
 40
1.5
 50
285.000118
 51
15.000117
  0
ARC
  8
LC-003-002-RND-0
  6
CONTINUOUS
  5
2DC
 10
229.880724
 20
148.096984
 30
0.0
 40
1.5
 50
105.000118
 51
181.957484
  0
LINE
  8
LC-002-002-----0
  6
CONTINUOUS
  5
2DD
 10
177.783333
 20
246.180629
 30
0.0
 11
178.167809
 21
257.180629
 31
0.0
  0
ARC
  8
LC-003-002-RND-0
  6
CONTINUOUS
  5
2DE
 10
187.97586
 20
267.680629
 30
0.0
 40
2.0
 50
90.0
 51
180.0
  0
LINE
  8
LC-002-002-----0
  6
CONTINUOUS
  5
2DF
 10
178.705603
 20
257.180629
 30
0.0
 11
178.167809
 21
257.180629
 31
0.0
  0
LINE
  8
LC-002-002-----0
  6
CONTINUOUS
  5
2E0
 10
174.78335
 20
246.180629
 30
0.0
 11
175.241585
 21
259.302777
 31
0.0
  0
ARC
  8
LC-003-002-RND-0
  6
CONTINUOUS
  5
2E1
 10
178.739453
 20
259.180629
 30
0.0
 40
3.5
 50
90.0
 51
178.0
  0
LINE
  8
LC-002-002-----0
  6
CONTINUOUS
  5
2E2
 10
191.151862
 20
262.250428
 30
0.0
 11
190.468469
 21
241.041412
 31
0.0
  0
LINE
  8
LC-002-002-----0
  6
CONTINUOUS
  5
2E3
 10
188.440523
 20
241.041412
 30
0.0
 11
188.326373
 21
244.679765
 31
0.0
  0
LINE
  8
LC-002-002-----0
  6
CONTINUOUS
  5
2E4
 10
187.942036
 20
256.929985
 30
0.0
 11
187.934172
 21
257.180629
 31
0.0
  0
LINE
  8
LC-002-002-----0
  6
CONTINUOUS
  5
2E5
 10
188.440523
 20
241.041412
 30
0.0
 11
190.468469
 21
241.041412
 31
0.0
  0
LINE
  8
LC-002-002-----0
  6
CONTINUOUS
  5
2E6
 10
187.97586
 20
269.680629
 30
0.0
 11
254.78335
 21
269.680629
 31
0.0
  0
LINE
  8
LC-002-002-----0
  6
CONTINUOUS
  5
2E7
 10
187.934172
 20
257.180629
 30
0.0
 11
187.691392
 21
257.180629
 31
0.0
  0
LINE
  8
LC-002-002-----0
  6
CONTINUOUS
  5
2E8
 10
185.97586
 20
262.680629
 30
0.0
 11
185.97586
 21
267.680629
 31
0.0
  0
LINE
  8
LC-002-002-----0
  6
CONTINUOUS
  5
2E9
 10
185.97586
 20
262.680629
 30
0.0
 11
178.739453
 21
262.680629
 31
0.0
  0
LINE
  8
LC-002-002-----0
  6
CONTINUOUS
  5
2EA
 10
177.783333
 20
246.180629
 30
0.0
 11
174.80081
 21
246.180629
 31
0.0
  0
LINE
  8
LC-002-002-----0
  6
CONTINUOUS
  5
2EB
 10
190.835137
 20
253.180629
 30
0.0
 11
254.78335
 21
253.180629
 31
0.0
  0
LINE
  8
LC-002-002-----0
  6
CONTINUOUS
  5
2EC
 10
254.78335
 20
264.180629
 30
0.0
 11
193.150643
 21
264.180629
 31
0.0
  0
ARC
  8
LC-003-002-RND-0
  6
CONTINUOUS
  5
2ED
 10
193.150643
 20
262.180629
 30
0.0
 40
2.0
 50
90.0
 51
178.0
  0
LINE
  8
LC-002-002-----0
  6
CONTINUOUS
  5
2EE
 10
217.531415
 20
273.430629
 30
0.0
 11
220.531415
 21
273.430629
 31
0.0
  0
ARC
  8
LC-002-002-----0
  6
CONTINUOUS
  5
2EF
 10
217.531415
 20
274.430629
 30
0.0
 40
1.0
 50
180.0
 51
270.000058
  0
LINE
  8
LC-002-002-----0
  6
CONTINUOUS
  5
2F0
 10
216.531415
 20
277.430629
 30
0.0
 11
216.531415
 21
274.430629
 31
0.0
  0
ARC
  8
LC-002-002-----0
  6
CONTINUOUS
  5
2F1
 10
220.531415
 20
274.430629
 30
0.0
 40
1.0
 50
270.000058
 51
0.0
  0
LINE
  8
LC-002-002-----0
  6
CONTINUOUS
  5
2F2
 10
221.531415
 20
274.430629
 30
0.0
 11
221.531415
 21
277.430629
 31
0.0
  0
ARC
  8
LC-002-002-----0
  6
CONTINUOUS
  5
2F3
 10
220.531415
 20
277.430629
 30
0.0
 40
1.0
 50
0.0
 51
90.0
  0
LINE
  8
LC-002-002-----0
  6
CONTINUOUS
  5
2F4
 10
220.531415
 20
278.430629
 30
0.0
 11
217.531415
 21
278.430629
 31
0.0
  0
ARC
  8
LC-002-002-----0
  6
CONTINUOUS
  5
2F5
 10
217.531415
 20
277.430629
 30
0.0
 40
1.0
 50
90.0
 51
179.999848
  0
ARC
  8
LC-002-002-----0
  6
CONTINUOUS
  5
2F6
 10
214.531415
 20
276.797281
 30
0.0
 40
2.0
 50
0.0
 51
79.660109
  0
LINE
  8
LC-002-002-----0
  6
CONTINUOUS
  5
2F7
 10
239.531415
 20
274.900397
 30
0.0
 11
239.531415
 21
276.96086
 31
0.0
  0
ARC
  8
LC-002-002-----0
  6
CONTINUOUS
  5
2F8
 10
237.531415
 20
274.900397
 30
0.0
 40
2.0
 50
286.72686
 51
0.0
  0
ARC
  8
LC-002-002-----0
  6
CONTINUOUS
  5
2F9
 10
219.031415
 20
336.459475
 30
0.0
 40
66.278846
 50
253.273047
 51
286.726801
  0
ARC
  8
LC-002-002-----0
  6
CONTINUOUS
  5
2FA
 10
237.531632
 20
275.064138
 30
0.0
 40
2.0
 50
280.339912
 51
359.999963
  0
ARC
  8
LC-002-002-----0
  6
CONTINUOUS
  5
2FB
 10
237.531415
 20
276.96086
 30
0.0
 40
2.0
 50
0.0
 51
73.273199
  0
ARC
  8
LC-002-002-----0
  6
CONTINUOUS
  5
2FC
 10
219.031415
 20
215.401782
 30
0.0
 40
66.278846
 50
73.273199
 51
106.726782
  0
ARC
  8
LC-002-002-----0
  6
CONTINUOUS
  5
2FD
 10
237.531634
 20
276.797442
 30
0.0
 40
2.0
 50
359.999963
 51
79.659997
  0
ARC
  8
LC-002-002-----0
  6
CONTINUOUS
  5
2FE
 10
230.531658
 20
313.430795
 30
0.0
 40
41.0
 50
259.65992
 51
280.339853
  0
ARC
  8
LC-002-002-----0
  6
CONTINUOUS
  5
2FF
 10
223.531632
 20
275.064147
 30
0.0
 40
2.0
 50
179.999963
 51
259.659995
  0
ARC
  8
LC-002-002-----0
  6
CONTINUOUS
  5
300
 10
223.531634
 20
276.797452
 30
0.0
 40
2.0
 50
100.339835
 51
179.999963
  0
ARC
  8
LC-002-002-----0
  6
CONTINUOUS
  5
301
 10
230.531609
 20
238.430795
 30
0.0
 40
41.0
 50
79.660072
 51
100.339835
  0
LINE
  8
LC-002-002-----0
  6
CONTINUOUS
  5
302
 10
228.531629
 20
269.680629
 30
0.0
 11
228.53163
 21
270.865165
 31
0.0
  0
LINE
  8
LC-002-002-----0
  6
CONTINUOUS
  5
303
 10
198.531415
 20
274.900397
 30
0.0
 11
198.531415
 21
276.96086
 31
0.0
  0
ARC
  8
LC-002-002-----0
  6
CONTINUOUS
  5
304
 10
200.531415
 20
274.900397
 30
0.0
 40
2.0
 50
180.0
 51
253.273047
  0
ARC
  8
LC-002-002-----0
  6
CONTINUOUS
  5
305
 10
200.531415
 20
276.96086
 30
0.0
 40
2.0
 50
106.726782
 51
180.0
  0
ARC
  8
LC-002-002-----0
  6
CONTINUOUS
  5
306
 10
200.531415
 20
275.063976
 30
0.0
 40
2.0
 50
180.0
 51
259.659957
  0
ARC
  8
LC-002-002-----0
  6
CONTINUOUS
  5
307
 10
207.531415
 20
313.430629
 30
0.0
 40
41.0
 50
259.660109
 51
280.339949
  0
ARC
  8
LC-002-002-----0
  6
CONTINUOUS
  5
308
 10
200.531415
 20
276.797281
 30
0.0
 40
2.0
 50
100.339872
 51
180.0
  0
ARC
  8
LC-002-002-----0
  6
CONTINUOUS
  5
309
 10
207.531415
 20
238.430629
 30
0.0
 40
41.0
 50
79.660109
 51
100.339891
  0
ARC
  8
LC-002-002-----0
  6
CONTINUOUS
  5
30A
 10
214.531415
 20
275.063976
 30
0.0
 40
2.0
 50
280.339949
 51
0.0
  0
LINE
  8
LC-002-002-----0
  6
CONTINUOUS
  5
30B
 10
209.531415
 20
269.680629
 30
0.0
 11
209.531415
 21
270.864998
 31
0.0
  0
LINE
  8
LC-002-002-----0
  6
CONTINUOUS
  5
30C
 10
209.531415
 20
269.680629
 30
0.0
 11
209.531415
 21
270.864998
 31
0.0
  0
ARC
  8
LC-002-002-----0
  6
CONTINUOUS
  5
30D
 10
219.031415
 20
336.459475
 30
0.0
 40
66.278846
 50
253.273199
 51
261.759194
  0
ARC
  8
LC-002-002-----0
  6
CONTINUOUS
  5
30E
 10
200.531415
 20
274.900397
 30
0.0
 40
2.0
 50
180.0
 51
253.273199
  0
LINE
  8
LC-002-002-----0
  6
CONTINUOUS
  5
30F
 10
198.531415
 20
274.900397
 30
0.0
 11
198.531415
 21
276.96086
 31
0.0
  0
ARC
  8
LC-002-002-----0
  6
CONTINUOUS
  5
310
 10
200.531415
 20
276.96086
 30
0.0
 40
2.0
 50
106.726801
 51
180.0
  0
ARC
  8
LC-002-002-----0
  6
CONTINUOUS
  5
311
 10
219.031415
 20
215.401782
 30
0.0
 40
66.278846
 50
73.273199
 51
106.726801
  0
ARC
  8
LC-002-002-----0
  6
CONTINUOUS
  5
312
 10
237.531415
 20
276.96086
 30
0.0
 40
2.0
 50
360.0
 51
73.273199
  0
LINE
  8
LC-002-002-----0
  6
CONTINUOUS
  5
313
 10
239.531415
 20
276.96086
 30
0.0
 11
239.531415
 21
274.900397
 31
0.0
  0
ARC
  8
LC-002-002-----0
  6
CONTINUOUS
  5
314
 10
237.531415
 20
274.900397
 30
0.0
 40
2.0
 50
286.726801
 51
360.0
  0
ARC
  8
LC-002-002-----0
  6
CONTINUOUS
  5
315
 10
219.031415
 20
336.459475
 30
0.0
 40
66.278846
 50
278.240993
 51
286.726801
  0
LINE
  8
LC-002-002-----0
  6
CONTINUOUS
  5
316
 10
228.53163
 20
270.865029
 30
0.0
 11
228.531629
 21
269.680629
 31
0.0
  0
LINE
  8
LC-002-002-----0
  6
CONTINUOUS
  5
317
 10
188.392911
 20
244.680628
 30
0.0
 11
188.592946
 21
244.680628
 31
0.0
  0
LINE
  8
LC-002-002-----0
  6
CONTINUOUS
  5
318
 10
187.472949
 20
257.180629
 30
0.0
 11
187.691392
 21
257.180629
 31
0.0
  0
LINE
  8
LC-002-002-----0
  6
CONTINUOUS
  5
319
 10
181.208895
 20
253.180629
 30
0.0
 11
182.43907
 21
253.180629
 31
0.0
  0
LINE
  8
LC-002-002-----0
  6
CONTINUOUS
  5
31A
 10
177.785225
 20
244.67963
 30
0.0
 11
178.169712
 21
256.680934
 31
0.0
  0
LINE
  8
LC-002-002-----0
  6
CONTINUOUS
  5
31B
 10
178.705603
 20
257.180629
 30
0.0
 11
187.691392
 21
257.180629
 31
0.0
  0
LINE
  8
LC-002-002-----0
  6
CONTINUOUS
  5
31C
 10
188.209484
 20
256.662536
 30
0.0
 11
188.59298
 21
244.67963
 31
0.0
  0
LINE
  8
LC-002-002-----0
  6
CONTINUOUS
  5
31D
 10
179.909901
 20
244.67963
 30
0.0
 11
177.785225
 21
244.67963
 31
0.0
  0
LINE
  8
LC-002-002-----0
  6
CONTINUOUS
  5
31E
 10
178.169712
 20
256.680934
 30
0.0
 11
178.705603
 21
257.180629
 31
0.0
  0
LINE
  8
LC-002-002-----0
  6
CONTINUOUS
  5
31F
 10
187.691392
 20
257.180629
 30
0.0
 11
188.209484
 21
256.662536
 31
0.0
  0
LINE
  8
LC-002-002-----0
  6
CONTINUOUS
  5
320
 10
186.627933
 20
244.680628
 30
0.0
 11
188.59298
 21
244.680628
 31
0.0
  0
LINE
  8
LC-002-002-----0
  6
CONTINUOUS
  5
321
 10
181.208895
 20
253.180629
 30
0.0
 11
180.981683
 21
245.679019
 31
0.0
  0
LINE
  8
LC-002-002-----0
  6
CONTINUOUS
  5
322
 10
185.329246
 20
253.180629
 30
0.0
 11
185.556217
 21
245.680019
 31
0.0
  0
ARC
  8
LC-002-002-----0
  6
CONTINUOUS
  5
323
 10
182.93907
 20
252.680629
 30
0.0
 40
0.5
 50
180.0
 51
0.0
  0
LINE
  8
LC-002-002-----0
  6
CONTINUOUS
  5
324
 10
182.43907
 20
252.680629
 30
0.0
 11
182.43907
 21
253.180629
 31
0.0
  0
LINE
  8
LC-002-002-----0
  6
CONTINUOUS
  5
325
 10
183.43907
 20
252.680629
 30
0.0
 11
183.43907
 21
253.180629
 31
0.0
  0
LINE
  8
LC-002-002-----0
  6
CONTINUOUS
  5
326
 10
183.43907
 20
253.180629
 30
0.0
 11
185.329246
 21
253.180629
 31
0.0
  0
LINE
  8
LC-002-002-----0
  6
CONTINUOUS
  5
327
 10
185.556217
 20
245.680019
 30
0.0
 11
186.627933
 21
244.680628
 31
0.0
  0
LINE
  8
LC-002-002-----0
  6
CONTINUOUS
  5
328
 10
180.981683
 20
245.679019
 30
0.0
 11
179.909901
 21
244.67963
 31
0.0
  0
LINE
  8
LC-002-002-----0
  6
CONTINUOUS
  5
329
 10
180.981718
 20
245.680019
 30
0.0
 11
180.981683
 21
245.680019
 31
0.0
  0
ARC
  8
LC-003-002-RND-0
  6
CONTINUOUS
  5
32A
 10
212.109376
 20
51.586352
 30
0.0
 40
2.0
 50
271.0
 51
360.0
  0
LINE
  8
LC-002-002-----0
  6
CONTINUOUS
  5
32B
 10
202.077673
 20
241.185415
 30
0.0
 11
203.087055
 21
241.185415
 31
0.0
  0
LINE
  8
LC-002-002-----0
  6
CONTINUOUS
  5
32C
 10
212.14428
 20
49.586657
 30
0.0
 11
190.923929
 21
49.216254
 31
0.0
  0
LINE
  8
LC-002-002-----0
  6
CONTINUOUS
  5
32D
 10
214.077823
 20
235.90258
 30
0.0
 11
214.078445
 21
232.270448
 31
0.0
  0
LINE
  8
LC-002-002-----0
  6
CONTINUOUS
  5
32E
 10
214.078945
 20
229.345247
 30
0.0
 11
214.080614
 21
219.600431
 31
0.0
  0
LINE
  8
LC-002-002-----0
  6
CONTINUOUS
  5
32F
 10
214.080972
 20
217.507256
 30
0.0
 11
214.08103
 21
217.167033
 31
0.0
  0
LINE
  8
LC-002-002-----0
  6
CONTINUOUS
  5
330
 10
214.082229
 20
210.164957
 30
0.0
 11
214.082696
 21
207.43541
 31
0.0
  0
LINE
  8
LC-002-002-----0
  6
CONTINUOUS
  5
331
 10
214.105941
 20
71.649549
 30
0.0
 11
214.109376
 21
51.586352
 31
0.0
  0
ARC
  8
LC-002-002-----0
  6
CONTINUOUS
  5
332
 10
207.081583
 20
236.29043
 30
0.0
 40
4.2
 50
1.0
 51
19.979579
  0
ARC
  8
LC-002-002-----0
  6
CONTINUOUS
  5
333
 10
207.081583
 20
236.29043
 30
0.0
 40
4.2
 50
270.0
 51
1.0
  0
LINE
  8
LC-002-002-----0
  6
CONTINUOUS
  5
334
 10
214.079077
 20
228.575788
 30
0.0
 11
189.800898
 21
228.15201
 31
0.0
  0
LINE
  8
LC-002-002-----0
  6
CONTINUOUS
  5
335
 10
198.766575
 20
58.318565
 30
0.0
 11
192.76718
 21
58.213845
 31
0.0
  0
LINE
  8
LC-002-002-----0
  6
CONTINUOUS
  5
336
 10
192.810811
 20
55.714226
 30
0.0
 11
192.76718
 21
58.213845
 31
0.0
  0
LINE
  8
LC-002-002-----0
  6
CONTINUOUS
  5
337
 10
189.859262
 20
52.912288
 30
0.0
 11
188.859414
 21
52.894835
 31
0.0
  0
LINE
  8
LC-002-002-----0
  6
CONTINUOUS
  5
338
 10
214.108905
 20
54.335719
 30
0.0
 11
213.994112
 21
54.333715
 31
0.0
  0
LINE
  8
LC-002-002-----0
  6
CONTINUOUS
  5
339
 10
206.287431
 20
54.199195
 30
0.0
 11
206.200842
 21
54.197683
 31
0.0
  0
LINE
  8
LC-002-002-----0
  6
CONTINUOUS
  5
33A
 10
206.200842
 20
54.197683
 30
0.0
 11
198.766575
 21
58.318565
 31
0.0
  0
LINE
  8
LC-002-002-----0
  6
CONTINUOUS
  5
33B
 10
195.956738
 20
219.294044
 30
0.0
 11
189.957342
 21
219.189324
 31
0.0
  0
LINE
  8
LC-002-002-----0
  6
CONTINUOUS
  5
33C
 10
185.577817
 20
240.897409
 30
0.0
 11
185.883779
 21
223.368867
 31
0.0
  0
LINE
  8
LC-002-002-----0
  6
CONTINUOUS
  5
33D
 10
186.015357
 20
215.830785
 30
0.0
 11
186.022714
 21
215.40931
 31
0.0
  0
LINE
  8
LC-002-002-----0
  6
CONTINUOUS
  5
33E
 10
186.058988
 20
213.331166
 30
0.0
 11
188.666753
 21
63.932384
 31
0.0
  0
LINE
  8
LC-002-002-----0
  6
CONTINUOUS
  5
33F
 10
188.703027
 20
61.85424
 30
0.0
 11
188.710384
 21
61.432765
 31
0.0
  0
LINE
  8
LC-002-002-----0
  6
CONTINUOUS
  5
340
 10
188.746658
 20
59.354621
 30
0.0
 11
188.889329
 21
51.181045
 31
0.0
  0
ARC
  8
LC-002-002-----0
  6
CONTINUOUS
  5
341
 10
207.081583
 20
236.29043
 30
0.0
 40
7.0
 50
7.975225
 51
135.630443
  0
LINE
  8
LC-002-002-----0
  6
CONTINUOUS
  5
342
 10
185.577817
 20
240.897409
 30
0.0
 11
202.077673
 21
241.185415
 31
0.0
  0
LINE
  8
LC-002-002-----0
  6
CONTINUOUS
  5
343
 10
189.647018
 20
236.967828
 30
0.0
 11
189.800898
 21
228.15201
 31
0.0
  0
LINE
  8
LC-002-002-----0
  6
CONTINUOUS
  5
344
 10
207.192223
 20
229.951876
 30
0.0
 11
209.517319
 21
229.992461
 31
0.0
  0
LINE
  8
LC-002-002-----0
  6
CONTINUOUS
  5
345
 10
211.039272
 20
228.522728
 30
0.0
 11
209.517319
 21
229.992461
 31
0.0
  0
ARC
  8
LC-002-002-----0
  6
CONTINUOUS
  5
346
 10
207.081583
 20
236.29043
 30
0.0
 40
6.339519
 50
129.057464
 51
271.0
  0
LINE
  8
LC-002-002-----0
  6
CONTINUOUS
  5
347
 10
189.913711
 20
221.688943
 30
0.0
 11
189.957342
 21
219.189324
 31
0.0
  0
LINE
  8
LC-002-002-----0
  6
CONTINUOUS
  5
348
 10
186.866174
 20
224.386167
 30
0.0
 11
185.866327
 21
224.368715
 31
0.0
  0
ARC
  8
LC-003-002-RND-0
  6
CONTINUOUS
  5
349
 10
193.637682
 20
237.537562
 30
0.0
 40
0.5
 50
271.0
 51
1.0
  0
ARC
  8
LC-003-002-RND-0
  6
CONTINUOUS
  5
34A
 10
193.585325
 20
240.537105
 30
0.0
 40
0.5
 50
1.0
 51
91.0
  0
LINE
  8
LC-002-002-----0
  6
CONTINUOUS
  5
34B
 10
189.647018
 20
236.967828
 30
0.0
 11
193.646408
 21
237.037638
 31
0.0
  0
ARC
  8
LC-003-002-RND-0
  6
CONTINUOUS
  5
34C
 10
190.889024
 20
51.215949
 30
0.0
 40
2.0
 50
181.0
 51
271.0
  0
LINE
  8
LC-002-002-----0
  6
CONTINUOUS
  5
34D
 10
194.085249
 20
240.545831
 30
0.0
 11
194.137606
 21
237.546288
 31
0.0
  0
LINE
  8
LC-002-002-----0
  6
CONTINUOUS
  5
34E
 10
192.913255
 20
221.741301
 30
0.0
 11
189.913711
 21
221.688943
 31
0.0
  0
LINE
  8
LC-002-002-----0
  6
CONTINUOUS
  5
34F
 10
214.079884
 20
223.861032
 30
0.0
 11
211.035929
 21
223.8079
 31
0.0
  0
LINE
  8
LC-002-002-----0
  6
CONTINUOUS
  5
350
 10
203.329248
 20
223.673379
 30
0.0
 11
203.242659
 21
223.671868
 31
0.0
  0
LINE
  8
LC-002-002-----0
  6
CONTINUOUS
  5
351
 10
203.242659
 20
223.671868
 30
0.0
 11
195.956738
 21
219.294044
 31
0.0
  0
LINE
  8
LC-002-002-----0
  6
CONTINUOUS
  5
352
 10
195.956738
 20
219.294044
 30
0.0
 11
195.956734
 21
219.294042
 31
0.0
  0
LINE
  8
LC-005-006-MLN-0
  6
DASHDOT
  5
353
 10
221.279421
 20
236.538254
 30
0.0
 11
192.883746
 21
236.042606
 31
0.0
  0
LINE
  8
LC-005-006-MLN-0
  6
DASHDOT
  5
354
 10
206.833759
 20
250.488267
 30
0.0
 11
207.329408
 21
222.092593
 31
0.0
  0
LINE
  8
LC-002-002-----0
  6
CONTINUOUS
  5
355
 10
203.242659
 20
223.671868
 30
0.0
 11
203.243521
 21
223.622456
 31
0.0
  0
LINE
  8
LC-002-002-----0
  6
CONTINUOUS
  5
356
 10
206.199969
 20
54.247676
 30
0.0
 11
206.200842
 21
54.197683
 31
0.0
  0
LINE
  8
LC-002-002-----0
  6
CONTINUOUS
  5
357
 10
211.070041
 20
221.853639
 30
0.0
 11
203.891012
 21
217.540043
 31
0.0
  0
LINE
  8
LC-002-002-----0
  6
CONTINUOUS
  5
358
 10
200.081583
 20
215.251107
 30
0.0
 11
194.277378
 21
211.763588
 31
0.0
  0
LINE
  8
LC-002-002-----0
  6
CONTINUOUS
  5
359
 10
186.088845
 20
211.620657
 30
0.0
 11
194.277378
 21
211.763588
 31
0.0
  0
LINE
  8
LC-002-002-----0
  6
CONTINUOUS
  5
35A
 10
213.960001
 20
56.287976
 30
0.0
 11
203.581583
 21
62.040827
 31
0.0
  0
LINE
  8
LC-002-002-----0
  6
CONTINUOUS
  5
35B
 10
200.081583
 20
63.980909
 30
0.0
 11
196.825429
 21
65.785825
 31
0.0
  0
LINE
  8
LC-002-002-----0
  6
CONTINUOUS
  5
35C
 10
188.636896
 20
65.642893
 30
0.0
 11
196.825429
 21
65.785825
 31
0.0
  0
LINE
  8
LC-002-002-----0
  6
CONTINUOUS
  5
35D
 10
211.035929
 20
223.8079
 30
0.0
 11
211.134274
 21
218.173746
 31
0.0
  0
LINE
  8
LC-002-002-----0
  6
CONTINUOUS
  5
35E
 10
211.151769
 20
217.171457
 30
0.0
 11
211.166238
 21
216.342518
 31
0.0
  0
LINE
  8
LC-002-002-----0
  6
CONTINUOUS
  5
35F
 10
211.185257
 20
215.252945
 30
0.0
 11
211.313188
 21
207.923748
 31
0.0
  0
LINE
  8
LC-002-002-----0
  6
CONTINUOUS
  5
360
 10
213.693134
 20
71.57676
 30
0.0
 11
213.994112
 21
54.333715
 31
0.0
  0
LINE
  8
LC-002-002-----0
  6
CONTINUOUS
  5
361
 10
194.277378
 20
211.763588
 30
0.0
 11
196.825429
 21
65.785825
 31
0.0
  0
LINE
  8
LC-002-002-----0
  6
CONTINUOUS
  5
362
 10
195.956738
 20
219.294044
 30
0.0
 11
189.957342
 21
219.189324
 31
0.0
  0
LINE
  8
LC-002-002-----0
  6
CONTINUOUS
  5
363
 10
189.913711
 20
221.688943
 30
0.0
 11
189.957342
 21
219.189324
 31
0.0
  0
LINE
  8
LC-002-002-----0
  6
CONTINUOUS
  5
364
 10
192.86526
 20
224.490882
 30
0.0
 11
192.913255
 21
221.741301
 31
0.0
  0
LINE
  8
LC-002-002-----0
  6
CONTINUOUS
  5
365
 10
192.86526
 20
224.490882
 30
0.0
 11
186.866174
 21
224.386167
 31
0.0
  0
LINE
  8
LC-002-002-----0
  6
CONTINUOUS
  5
366
 10
192.913255
 20
221.741301
 30
0.0
 11
189.913711
 21
221.688943
 31
0.0
  0
LINE
  8
LC-002-002-----0
  6
CONTINUOUS
  5
367
 10
211.035929
 20
223.8079
 30
0.0
 11
203.329248
 21
223.673379
 31
0.0
  0
LINE
  8
LC-002-002-----0
  6
CONTINUOUS
  5
368
 10
186.866174
 20
224.386167
 30
0.0
 11
185.883779
 21
223.368867
 31
0.0
  0
LINE
  8
LC-002-002-----0
  6
CONTINUOUS
  5
369
 10
184.686522
 20
214.606445
 30
0.0
 11
186.022714
 21
215.40931
 31
0.0
  0
LINE
  8
LC-002-002-----0
  6
CONTINUOUS
  5
36A
 10
184.695591
 20
214.086909
 30
0.0
 11
186.058988
 21
213.331166
 31
0.0
  0
LINE
  8
LC-002-002-----0
  6
CONTINUOUS
  5
36B
 10
198.766575
 20
58.318565
 30
0.0
 11
192.76718
 21
58.213845
 31
0.0
  0
LINE
  8
LC-002-002-----0
  6
CONTINUOUS
  5
36C
 10
192.810811
 20
55.714226
 30
0.0
 11
192.76718
 21
58.213845
 31
0.0
  0
LINE
  8
LC-002-002-----0
  6
CONTINUOUS
  5
36D
 10
195.858348
 20
53.017002
 30
0.0
 11
195.810354
 21
55.766583
 31
0.0
  0
LINE
  8
LC-002-002-----0
  6
CONTINUOUS
  5
36E
 10
195.858348
 20
53.017002
 30
0.0
 11
189.859262
 21
52.912288
 31
0.0
  0
LINE
  8
LC-002-002-----0
  6
CONTINUOUS
  5
36F
 10
184.642891
 20
217.106064
 30
0.0
 11
185.979083
 21
217.908929
 31
0.0
  0
LINE
  8
LC-002-002-----0
  6
CONTINUOUS
  5
370
 10
184.65196
 20
216.586528
 30
0.0
 11
186.015357
 21
215.830785
 31
0.0
  0
LINE
  8
LC-002-002-----0
  6
CONTINUOUS
  5
371
 10
195.810354
 20
55.766583
 30
0.0
 11
192.810811
 21
55.714226
 31
0.0
  0
LINE
  8
LC-002-002-----0
  6
CONTINUOUS
  5
372
 10
213.994112
 20
54.333715
 30
0.0
 11
206.287431
 21
54.199195
 31
0.0
  0
ARC
  8
LC-003-002-RND-0
  6
CONTINUOUS
  5
373
 10
184.797402
 20
216.848914
 30
0.0
 40
0.3
 50
121.0
 51
241.0
  0
ARC
  8
LC-003-002-RND-0
  6
CONTINUOUS
  5
374
 10
184.841033
 20
214.349295
 30
0.0
 40
0.3
 50
121.0
 51
241.0
  0
LINE
  8
LC-002-002-----0
  6
CONTINUOUS
  5
375
 10
186.022714
 20
215.40931
 30
0.0
 11
186.015357
 21
215.830785
 31
0.0
  0
LINE
  8
LC-002-002-----0
  6
CONTINUOUS
  5
376
 10
186.058988
 20
213.331166
 30
0.0
 11
188.666753
 21
63.932384
 31
0.0
  0
LINE
  8
LC-002-002-----0
  6
CONTINUOUS
  5
377
 10
185.883779
 20
223.368867
 30
0.0
 11
185.979083
 21
217.908929
 31
0.0
  0
LINE
  8
LC-002-002-----0
  6
CONTINUOUS
  5
378
 10
189.859262
 20
52.912288
 30
0.0
 11
188.841962
 21
53.894683
 31
0.0
  0
LINE
  8
LC-002-002-----0
  6
CONTINUOUS
  5
379
 10
187.33963
 20
62.609983
 30
0.0
 11
188.703027
 21
61.85424
 31
0.0
  0
LINE
  8
LC-002-002-----0
  6
CONTINUOUS
  5
37A
 10
203.329248
 20
223.673379
 30
0.0
 11
196.043327
 21
219.295555
 31
0.0
  0
LINE
  8
LC-002-002-----0
  6
CONTINUOUS
  5
37B
 10
187.330562
 20
63.12952
 30
0.0
 11
188.666753
 21
63.932384
 31
0.0
  0
LINE
  8
LC-002-002-----0
  6
CONTINUOUS
  5
37C
 10
187.383261
 20
60.110364
 30
0.0
 11
188.746658
 21
59.354621
 31
0.0
  0
LINE
  8
LC-002-002-----0
  6
CONTINUOUS
  5
37D
 10
187.374193
 20
60.6299
 30
0.0
 11
188.710384
 21
61.432765
 31
0.0
  0
ARC
  8
LC-003-002-RND-0
  6
CONTINUOUS
  5
37E
 10
187.528704
 20
60.37275
 30
0.0
 40
0.3
 50
121.0
 51
241.0
  0
ARC
  8
LC-003-002-RND-0
  6
CONTINUOUS
  5
37F
 10
187.485073
 20
62.872369
 30
0.0
 40
0.3
 50
121.0
 51
241.0
  0
LINE
  8
LC-002-002-----0
  6
CONTINUOUS
  5
380
 10
188.703027
 20
61.85424
 30
0.0
 11
188.710384
 21
61.432765
 31
0.0
  0
LINE
  8
LC-002-002-----0
  6
CONTINUOUS
  5
381
 10
188.841962
 20
53.894683
 30
0.0
 11
188.746658
 21
59.354621
 31
0.0
  0
LINE
  8
LC-002-002-----0
  6
CONTINUOUS
  5
382
 10
206.287431
 20
54.199195
 30
0.0
 11
198.853164
 21
58.320077
 31
0.0
  0
LINE
  8
LC-002-002-----0
  6
DASHED
  5
383
 10
217.874225
 20
210.207841
 30
0.0
 11
229.522171
 21
214.447346
 31
0.0
  0
LINE
  8
LC-002-002-----0
  6
DASHED
  5
384
 10
217.551587
 20
211.154588
 30
0.0
 11
229.180151
 21
215.387039
 31
0.0
  0
ARC
  8
LC-002-002-----0
  6
DASHED
  5
385
 10
289.21087
 20
88.038333
 30
0.0
 40
3.0
 50
130.0
 51
210.0
  0
ARC
  8
LC-002-002-----0
  6
DASHED
  5
386
 10
289.21087
 20
88.038333
 30
0.0
 40
4.0
 50
130.0
 51
210.0
  0
ARC
  8
LC-002-002-----0
  6
DASHED
  5
387
 10
294.767731
 20
103.144351
 30
0.0
 40
4.0
 50
310.0
 51
15.244321
  0
ARC
  8
LC-002-002-----0
  6
DASHED
  5
388
 10
216.506145
 20
213.966611
 30
0.0
 40
3.0
 50
210.0
 51
290.0
  0
LINE
  8
LC-002-002-----0
  6
DASHED
  5
389
 10
286.63972
 20
91.102511
 30
0.0
 11
297.338881
 21
100.080173
 31
0.0
  0
LINE
  8
LC-002-002-----0
  6
DASHED
  5
38A
 10
287.540323
 20
82.931805
 30
0.0
 11
285.746768
 21
86.038333
 31
0.0
  0
LINE
  8
LC-002-002-----0
  6
DASHED
  5
38B
 10
289.473288
 20
82.322344
 30
0.0
 11
291.411765
 21
83.22627
 31
0.0
  0
ARC
  8
LC-002-002-----0
  6
DASHED
  5
38C
 10
288.839361
 20
83.681805
 30
0.0
 40
0.5
 50
210.0
 51
295.0
  0
LINE
  8
LC-002-002-----0
  6
DASHED
  5
38D
 10
213.941134
 20
217.40934
 30
0.0
 11
217.55219
 21
211.154807
 31
0.0
  0
ARC
  8
LC-002-002-----0
  6
DASHED
  5
38E
 10
216.506145
 20
213.966611
 30
0.0
 40
4.0
 50
210.0
 51
290.0
  0
LINE
  8
LC-002-002-----0
  6
DASHED
  5
38F
 10
287.298308
 20
90.349724
 30
0.0
 11
297.981669
 21
99.314129
 31
0.0
  0
LINE
  8
LC-002-002-----0
  6
DASHED
  5
390
 10
289.05067
 20
83.228651
 30
0.0
 11
290.901201
 21
84.091568
 31
0.0
  0
LINE
  8
LC-002-002-----0
  6
DASHED
  5
391
 10
288.406348
 20
83.431805
 30
0.0
 11
286.612794
 21
86.538333
 31
0.0
  0
ARC
  8
LC-002-002-----0
  6
DASHED
  5
392
 10
58.38845
 20
38.725132
 30
0.0
 40
249.0
 50
15.244321
 51
31.957484
  0
LINE
  8
LC-002-002-----0
  6
DASHED
  5
393
 10
270.562274
 20
171.677191
 30
0.0
 11
272.706905
 21
173.821832
 31
0.0
  0
LINE
  8
LC-002-002-----0
  6
DASHED
  5
394
 10
269.862279
 20
172.372894
 30
0.0
 11
272.009055
 21
174.519678
 31
0.0
  0
ARC
  8
LC-002-002-----0
  6
DASHED
  5
395
 10
294.767731
 20
103.144351
 30
0.0
 40
5.0
 50
310.0
 51
15.244321
  0
LINE
  8
LC-002-002-----0
  6
DASHED
  5
396
 10
221.141718
 20
227.015149
 30
0.0
 11
217.826752
 21
232.756838
 31
0.0
  0
LINE
  8
LC-002-002-----0
  6
DASHED
  5
397
 10
211.248488
 20
215.073139
 30
0.0
 11
213.042043
 21
211.966611
 31
0.0
  0
LINE
  8
LC-002-002-----0
  6
DASHED
  5
398
 10
211.687162
 20
217.051867
 30
0.0
 11
220.264371
 21
223.057693
 31
0.0
  0
ARC
  8
LC-002-002-----0
  6
DASHED
  5
399
 10
288.839361
 20
83.681805
 30
0.0
 40
1.5
 50
210.0
 51
295.0
  0
ARC
  8
LC-002-002-----0
  6
DASHED
  5
39A
 10
230.890252
 20
210.688576
 30
0.0
 40
5.0
 50
45.000117
 51
110.0
  0
LINE
  8
LC-002-002-----0
  6
DASHED
  5
39B
 10
272.706901
 20
175.943152
 30
0.0
 11
258.618384
 21
190.031611
 31
0.0
  0
LINE
  8
LC-002-002-----0
  6
DASHED
  5
39C
 10
272.009054
 20
175.226785
 30
0.0
 11
233.718673
 21
213.517009
 31
0.0
  0
ARC
  8
LC-002-002-----0
  6
DASHED
  5
39D
 10
230.890252
 20
210.688576
 30
0.0
 40
4.0
 50
45.000118
 51
110.0
  0
LINE
  8
LC-002-002-----0
  6
DASHED
  5
39E
 10
212.260738
 20
216.232715
 30
0.0
 11
220.837947
 21
222.238541
 31
0.0
  0
LINE
  8
LC-002-002-----0
  6
DASHED
  5
39F
 10
212.114514
 20
215.573139
 30
0.0
 11
213.908068
 21
212.466611
 31
0.0
  0
LINE
  8
LC-002-002-----0
  6
DASHED
  5
3A0
 10
222.007743
 20
227.515149
 30
0.0
 11
218.604614
 21
233.409541
 31
0.0
  0
ARC
  8
LC-002-002-----0
  6
DASHED
  5
3A1
 10
207.081583
 20
236.29043
 30
0.0
 40
5.2
 50
49.999851
 51
270.0
  0
LINE
  8
LC-002-002-----0
  6
DASHED
  5
3A2
 10
218.604614
 20
233.409541
 30
0.0
 11
210.424089
 21
240.273852
 31
0.0
  0
LINE
  8
LC-002-002-----0
  6
DASHED
  5
3A3
 10
217.826752
 20
232.756838
 30
0.0
 11
209.7813
 21
239.507809
 31
0.0
  0
ARC
  8
LC-002-002-----0
  6
DASHED
  5
3A4
 10
207.081583
 20
236.29043
 30
0.0
 40
4.2
 50
49.979579
 51
270.0
  0
LINE
  8
LC-002-002-----0
  6
DASHED
  5
3A5
 10
213.042043
 20
211.966611
 30
0.0
 11
285.746768
 21
86.038333
 31
0.0
  0
LINE
  8
LC-002-002-----0
  6
DASHED
  5
3A6
 10
255.397906
 20
193.252076
 30
0.0
 11
234.425778
 21
214.224117
 31
0.0
  0
ARC
  8
LC-002-002-----0
  6
DASHED
  5
3A7
 10
212.547527
 20
215.823139
 30
0.0
 40
0.5
 50
125.0
 51
210.0
  0
ARC
  8
LC-002-002-----0
  6
DASHED
  5
3A8
 10
212.547527
 20
215.823139
 30
0.0
 40
1.5
 50
125.0
 51
210.0
  0
ARC
  8
LC-002-002-----0
  6
DASHED
  5
3A9
 10
218.543641
 20
225.515149
 30
0.0
 40
3.0
 50
305.0
 51
30.0
  0
LINE
  8
LC-002-002-----0
  6
DASHED
  5
3AA
 10
207.081583
 20
231.09043
 30
0.0
 11
207.081583
 21
232.09043
 31
0.0
  0
ARC
  8
LC-002-002-----0
  6
DASHED
  5
3AB
 10
218.543641
 20
225.515149
 30
0.0
 40
4.0
 50
305.0
 51
30.0
  0
LINE
  8
LC-002-002-----0
  6
DASHED
  5
3AC
 10
287.298799
 20
90.350137
 30
0.0
 11
291.411765
 21
83.22627
 31
0.0
  0
ARC
  8
LC-002-002-----0
  6
DASHED
  5
3AD
 10
58.38845
 20
38.725132
 30
0.0
 40
250.0
 50
15.244321
 51
31.960558
  0
ARC
  8
LC-002-002-----0
  6
DASHED
  5
3AE
 10
256.632219
 20
191.265916
 30
0.0
 40
2.0
 50
339.371929
 51
110.628314
  0
ARC
  8
LC-002-002-----0
  6
DASHED
  5
3AF
 10
255.751458
 20
193.60563
 30
0.0
 40
0.5
 50
225.000117
 51
290.628314
  0
ARC
  8
LC-002-002-----0
  6
DASHED
  5
3B0
 10
258.971936
 20
190.385165
 30
0.0
 40
0.5
 50
159.371929
 51
225.000117
  0
ARC
  8
LC-002-002-----0
  6
DASHED
  5
3B1
 10
271.655501
 20
174.873231
 30
0.0
 40
0.5
 50
315.000118
 51
45.000118
  0
ARC
  8
LC-002-002-----0
  6
DASHED
  5
3B2
 10
270.915828
 20
171.323639
 30
0.0
 40
0.5
 50
135.000118
 51
211.960558
  0
ARC
  8
LC-002-002-----0
  6
DASHED
  5
3B3
 10
271.646243
 20
174.88249
 30
0.0
 40
1.5
 50
315.000118
 51
45.000117
  0
ARC
  8
LC-002-002-----0
  6
DASHED
  5
3B4
 10
270.922942
 20
171.312236
 30
0.0
 40
1.5
 50
135.000118
 51
211.957484
  0
LINE
  8
LC-002-002-----0
  6
DASHED
  5
3B5
 10
229.46958
 20
219.098566
 30
0.0
 11
237.437244
 21
228.594058
 31
0.0
  0
LINE
  8
LC-002-002-----0
  6
DASHED
  5
3B6
 10
228.716794
 20
219.757154
 30
0.0
 11
236.6712
 21
229.236846
 31
0.0
  0
ARC
  8
LC-002-002-----0
  6
DASHED
  5
3B7
 10
352.333681
 20
148.964991
 30
0.0
 40
3.0
 50
160.0
 51
240.0
  0
ARC
  8
LC-002-002-----0
  6
DASHED
  5
3B8
 10
352.333681
 20
148.964991
 30
0.0
 40
4.0
 50
160.0
 51
240.0
  0
ARC
  8
LC-002-002-----0
  6
DASHED
  5
3B9
 10
349.593054
 20
164.825617
 30
0.0
 40
4.0
 50
340.0
 51
45.244321
  0
ARC
  8
LC-002-002-----0
  6
DASHED
  5
3BA
 10
226.405402
 20
221.669716
 30
0.0
 40
3.0
 50
240.0
 51
320.0
  0
LINE
  8
LC-002-002-----0
  6
DASHED
  5
3BB
 10
348.57491
 20
150.333071
 30
0.0
 11
353.351825
 21
163.457536
 31
0.0
  0
LINE
  8
LC-002-002-----0
  6
DASHED
  5
3BC
 10
353.440208
 20
143.707335
 30
0.0
 11
350.333681
 21
145.500889
 31
0.0
  0
LINE
  8
LC-002-002-----0
  6
DASHED
  5
3BD
 10
355.418936
 20
144.146008
 30
0.0
 11
356.645743
 21
145.89807
 31
0.0
  0
ARC
  8
LC-002-002-----0
  6
DASHED
  5
3BE
 10
354.190208
 20
145.006373
 30
0.0
 40
0.5
 50
240.0
 51
325.0
  0
LINE
  8
LC-002-002-----0
  6
DASHED
  5
3BF
 10
222.462673
 20
223.368702
 30
0.0
 11
228.717206
 21
219.757646
 31
0.0
  0
ARC
  8
LC-002-002-----0
  6
DASHED
  5
3C0
 10
226.405402
 20
221.669716
 30
0.0
 40
4.0
 50
240.0
 51
320.0
  0
LINE
  8
LC-002-002-----0
  6
DASHED
  5
3C1
 10
349.521657
 20
150.010434
 30
0.0
 11
354.291517
 21
163.115516
 31
0.0
  0
LINE
  8
LC-002-002-----0
  6
DASHED
  5
3C2
 10
354.599784
 20
144.719585
 30
0.0
 11
355.770932
 21
146.392158
 31
0.0
  0
LINE
  8
LC-002-002-----0
  6
DASHED
  5
3C3
 10
353.940208
 20
144.57336
 30
0.0
 11
350.833681
 21
146.366915
 31
0.0
  0
ARC
  8
LC-002-002-----0
  6
DASHED
  5
3C4
 10
177.092202
 20
-9.152703
 30
0.0
 40
249.0
 50
45.244321
 51
61.957484
  0
LINE
  8
LC-002-002-----0
  6
DASHED
  5
3C5
 10
294.364093
 20
212.074069
 30
0.0
 11
295.149078
 21
215.003698
 31
0.0
  0
LINE
  8
LC-002-002-----0
  6
DASHED
  5
3C6
 10
293.410029
 20
212.326568
 30
0.0
 11
294.195799
 21
215.259126
 31
0.0
  0
ARC
  8
LC-002-002-----0
  6
DASHED
  5
3C7
 10
349.593054
 20
164.825617
 30
0.0
 40
5.0
 50
340.0
 51
45.244321
  0
LINE
  8
LC-002-002-----0
  6
DASHED
  5
3C8
 10
223.895657
 20
235.287868
 30
0.0
 11
218.153968
 21
238.602834
 31
0.0
  0
LINE
  8
LC-002-002-----0
  6
DASHED
  5
3C9
 10
221.298875
 20
219.999169
 30
0.0
 11
224.405402
 21
218.205615
 31
0.0
  0
LINE
  8
LC-002-002-----0
  6
DASHED
  5
3CA
 10
220.689413
 20
221.932135
 30
0.0
 11
220.829551
 21
222.232662
 31
0.0
  0
LINE
  8
LC-002-002-----0
  6
DASHED
  5
3CB
 10
222.485999
 20
225.784926
 30
0.0
 11
225.114581
 21
231.421937
 31
0.0
  0
ARC
  8
LC-002-002-----0
  6
DASHED
  5
3CC
 10
354.190208
 20
145.006373
 30
0.0
 40
1.5
 50
240.0
 51
325.0
  0
ARC
  8
LC-002-002-----0
  6
DASHED
  5
3CD
 10
240.501422
 20
226.022908
 30
0.0
 40
5.0
 50
75.000117
 51
140.0
  0
LINE
  8
LC-002-002-----0
  6
DASHED
  5
3CE
 10
294.088414
 20
216.840813
 30
0.0
 11
274.843171
 21
221.997518
 31
0.0
  0
LINE
  8
LC-002-002-----0
  6
DASHED
  5
3CF
 10
293.842244
 20
215.871497
 30
0.0
 11
241.53669
 21
229.886613
 31
0.0
  0
ARC
  8
LC-002-002-----0
  6
DASHED
  5
3D0
 10
240.501422
 20
226.022908
 30
0.0
 40
4.0
 50
75.000118
 51
140.0
  0
LINE
  8
LC-002-002-----0
  6
DASHED
  5
3D1
 10
221.595721
 20
221.509516
 30
0.0
 11
226.020888
 21
230.999319
 31
0.0
  0
LINE
  8
LC-002-002-----0
  6
DASHED
  5
3D2
 10
221.798875
 20
220.865195
 30
0.0
 11
224.905402
 21
219.07164
 31
0.0
  0
LINE
  8
LC-002-002-----0
  6
DASHED
  5
3D3
 10
224.395657
 20
236.153894
 30
0.0
 11
218.501266
 21
239.557022
 31
0.0
  0
LINE
  8
LC-002-002-----0
  6
DASHED
  5
3D4
 10
218.501266
 20
239.557022
 30
0.0
 11
212.425018
 21
240.628445
 31
0.0
  0
LINE
  8
LC-002-002-----0
  6
DASHED
  5
3D5
 10
218.153968
 20
238.602834
 30
0.0
 11
213.247799
 21
239.467937
 31
0.0
  0
LINE
  8
LC-002-002-----0
  6
DASHED
  5
3D6
 10
224.405402
 20
218.205615
 30
0.0
 11
229.263908
 21
215.400555
 31
0.0
  0
LINE
  8
LC-002-002-----0
  6
DASHED
  5
3D7
 10
238.693584
 20
209.956329
 30
0.0
 11
350.333681
 21
145.500889
 31
0.0
  0
LINE
  8
LC-002-002-----0
  6
DASHED
  5
3D8
 10
270.443923
 20
223.176283
 30
0.0
 11
241.795507
 21
230.85254
 31
0.0
  0
ARC
  8
LC-002-002-----0
  6
DASHED
  5
3D9
 10
222.048875
 20
221.298207
 30
0.0
 40
0.5
 50
155.0
 51
240.0
  0
ARC
  8
LC-002-002-----0
  6
DASHED
  5
3DA
 10
222.048875
 20
221.298207
 30
0.0
 40
1.5
 50
155.0
 51
240.0
  0
ARC
  8
LC-002-002-----0
  6
DASHED
  5
3DB
 10
222.395657
 20
232.689792
 30
0.0
 40
3.0
 50
335.0
 51
60.0
  0
ARC
  8
LC-002-002-----0
  6
DASHED
  5
3DC
 10
222.395657
 20
232.689792
 30
0.0
 40
4.0
 50
335.0
 51
60.0
  0
LINE
  8
LC-002-002-----0
  6
DASHED
  5
3DD
 10
349.521877
 20
150.011036
 30
0.0
 11
356.645743
 21
145.89807
 31
0.0
  0
ARC
  8
LC-002-002-----0
  6
DASHED
  5
3DE
 10
177.092202
 20
-9.152703
 30
0.0
 40
250.0
 50
45.244321
 51
61.960558
  0
ARC
  8
LC-002-002-----0
  6
DASHED
  5
3DF
 10
272.50595
 20
222.073375
 30
0.0
 40
2.0
 50
9.371929
 51
140.628314
  0
ARC
  8
LC-002-002-----0
  6
DASHED
  5
3E0
 10
270.573332
 20
223.659246
 30
0.0
 40
0.5
 50
255.000117
 51
320.628314
  0
ARC
  8
LC-002-002-----0
  6
DASHED
  5
3E1
 10
274.97258
 20
222.480481
 30
0.0
 40
0.5
 50
189.371929
 51
255.000117
  0
ARC
  8
LC-002-002-----0
  6
DASHED
  5
3E2
 10
293.712836
 20
215.388534
 30
0.0
 40
0.5
 50
345.000118
 51
75.000118
  0
ARC
  8
LC-002-002-----0
  6
DASHED
  5
3E3
 10
294.847056
 20
211.94466
 30
0.0
 40
0.5
 50
165.000118
 51
241.960558
  0
ARC
  8
LC-002-002-----0
  6
DASHED
  5
3E4
 10
293.700189
 20
215.391923
 30
0.0
 40
1.5
 50
345.000118
 51
75.000117
  0
ARC
  8
LC-002-002-----0
  6
DASHED
  5
3E5
 10
294.858919
 20
211.938342
 30
0.0
 40
1.5
 50
165.000118
 51
241.957484
  0
LINE
  8
LC-005-006-MLN-0
  6
DASHDOT
  5
3E6
 10
2341750602.704241
 20
27518068.168042
 30
0.0
 11
2341750602.704241
 21
-27517703.888079
 31
0.0
  0
LINE
  8
LC-005-006-MLN-0
  6
DASHDOT
  5
3E7
 10
80.972422
 20
141.78
 30
0.0
 11
264.327504
 21
141.78
 31
0.0
  0
LINE
  8
LC-002-002-----0
  6
CONTINUOUS
  5
3E8
 10
254.78335
 20
253.180629
 30
0.0
 11
254.78335
 21
269.680629
 31
0.0
  0
LINE
  8
LC-002-002-----0
  6
CONTINUOUS
  5
3E9
 10
254.78335
 20
193.866629
 30
0.0
 11
254.78335
 21
253.179958
 31
0.0
  0
LINE
  8
LC-002-002-----0
  6
CONTINUOUS
  5
3EA
 10
254.78335
 20
253.179958
 30
0.0
 11
254.78335
 21
253.180629
 31
0.0
  0
ARC
  8
LC-002-002-----0
  6
CONTINUOUS
  5
3EB
 10
-245.21665
 20
163.125685
 30
0.0
 40
500.0
 50
346.650437
 51
357.412324
  0
ENDSEC
  0
EOF
