  0
SECTION
  2
HEADER
  9
$ACADVER
  1
AC1015
  9
$ACADMAINTVER
 70
     6
  9
$DWGCODEPAGE
  3
ANSI_1252
  9
$INSBASE
 10
0.0
 20
0.0
 30
0.0
  9
$EXTMIN
 10
-234.726912
 20
-157.242727
 30
0.0
  9
$EXTMAX
 10
605.273088
 20
436.757273
 30
0.0
  9
$LIMMIN
 10
-234.726912
 20
-157.242727
  9
$LIMMAX
 10
605.273088
 20
436.757273
  9
$ORTHOMODE
 70
     0
  9
$REGENMODE
 70
     1
  9
$FILLMODE
 70
     1
  9
$QTEXTMODE
 70
     0
  9
$MIRRTEXT
 70
     1
  9
$LTSCALE
 40
2.0
  9
$ATTMODE
 70
     1
  9
$TEXTSIZE
 40
2.5
  9
$TRACEWID
 40
1.0
  9
$TEXTSTYLE
  7
Standard
  9
$CLAYER
  8
0
  9
$CELTYPE
  6
ByLayer
  9
$CECOLOR
 62
     7
  9
$CELTSCALE
 40
1.0
  9
$DISPSILH
 70
     0
  9
$DIMSCALE
 40
2.0
  9
$DIMASZ
 40
3.5
  9
$DIMEXO
 40
0.625
  9
$DIMDLI
 40
3.75
  9
$DIMRND
 40
0.0
  9
$DIMDLE
 40
0.0
  9
$DIMEXE
 40
1.25
  9
$DIMTP
 40
0.0
  9
$DIMTM
 40
0.0
  9
$DIMTXT
 40
3.5
  9
$DIMCEN
 40
2.5
  9
$DIMTSZ
 40
0.0
  9
$DIMTOL
 70
     0
  9
$DIMLIM
 70
     0
  9
$DIMTIH
 70
     0
  9
$DIMTOH
 70
     0
  9
$DIMSE1
 70
     0
  9
$DIMSE2
 70
     0
  9
$DIMTAD
 70
     1
  9
$DIMZIN
 70
     8
  9
$DIMBLK
  1

  9
$DIMASO
 70
     1
  9
$DIMSHO
 70
     1
  9
$DIMPOST
  1

  9
$DIMAPOST
  1

  9
$DIMALT
 70
     0
  9
$DIMALTD
 70
     3
  9
$DIMALTF
 40
0.03937
  9
$DIMLFAC
 40
1.0
  9
$DIMTOFL
 70
     1
  9
$DIMTVP
 40
0.0
  9
$DIMTIX
 70
     0
  9
$DIMSOXD
 70
     0
  9
$DIMSAH
 70
     0
  9
$DIMBLK1
  1

  9
$DIMBLK2
  1

  9
$DIMSTYLE
  2
ISO-25
  9
$DIMCLRD
 70
     0
  9
$DIMCLRE
 70
     0
  9
$DIMCLRT
 70
     0
  9
$DIMTFAC
 40
1.0
  9
$DIMGAP
 40
0.625
  9
$DIMJUST
 70
     0
  9
$DIMSD1
 70
     0
  9
$DIMSD2
 70
     0
  9
$DIMTOLJ
 70
     0
  9
$DIMTZIN
 70
     8
  9
$DIMALTZ
 70
     0
  9
$DIMALTTZ
 70
     0
  9
$DIMUPT
 70
     0
  9
$DIMDEC
 70
     2
  9
$DIMTDEC
 70
     2
  9
$DIMALTU
 70
     2
  9
$DIMALTTD
 70
     3
  9
$DIMTXSTY
  7
Standard
  9
$DIMAUNIT
 70
     0
  9
$DIMADEC
 70
     0
  9
$DIMALTRND
 40
0.0
  9
$DIMAZIN
 70
     0
  9
$DIMDSEP
 70
    44
  9
$DIMATFIT
 70
     3
  9
$DIMFRAC
 70
     0
  9
$DIMLDRBLK
  1

  9
$DIMLUNIT
 70
     2
  9
$DIMLWD
 70
    -2
  9
$DIMLWE
 70
    -2
  9
$DIMTMOVE
 70
     0
  9
$LUNITS
 70
     2
  9
$LUPREC
 70
     4
  9
$SKETCHINC
 40
1.0
  9
$FILLETRAD
 40
10.0
  9
$AUNITS
 70
     0
  9
$AUPREC
 70
     0
  9
$MENU
  1
.
  9
$ELEVATION
 40
0.0
  9
$PELEVATION
 40
0.0
  9
$THICKNESS
 40
0.0
  9
$LIMCHECK
 70
     0
  9
$CHAMFERA
 40
10.0
  9
$CHAMFERB
 40
10.0
  9
$CHAMFERC
 40
20.0
  9
$CHAMFERD
 40
0.0
  9
$SKPOLY
 70
     0
  9
$TDCREATE
 40
2456056.443992824
  9
$TDUCREATE
 40
2456056.360659491
  9
$TDUPDATE
 40
2456056.443992836
  9
$TDUUPDATE
 40
2456056.360659502
  9
$TDINDWG
 40
0.0000000116
  9
$TDUSRTIMER
 40
0.0000000116
  9
$USRTIMER
 70
     1
  9
$ANGBASE
 50
0.0
  9
$ANGDIR
 70
     0
  9
$PDMODE
 70
     0
  9
$PDSIZE
 40
0.0
  9
$PLINEWID
 40
0.0
  9
$SPLFRAME
 70
     0
  9
$SPLINETYPE
 70
     6
  9
$SPLINESEGS
 70
     8
  9
$HANDSEED
  5
599
  9
$SURFTAB1
 70
     6
  9
$SURFTAB2
 70
     6
  9
$SURFTYPE
 70
     6
  9
$SURFU
 70
     6
  9
$SURFV
 70
     6
  9
$UCSBASE
  2

  9
$UCSNAME
  2

  9
$UCSORG
 10
0.0
 20
0.0
 30
0.0
  9
$UCSXDIR
 10
1.0
 20
0.0
 30
0.0
  9
$UCSYDIR
 10
0.0
 20
1.0
 30
0.0
  9
$UCSORTHOREF
  2

  9
$UCSORTHOVIEW
 70
     0
  9
$UCSORGTOP
 10
0.0
 20
0.0
 30
0.0
  9
$UCSORGBOTTOM
 10
0.0
 20
0.0
 30
0.0
  9
$UCSORGLEFT
 10
0.0
 20
0.0
 30
0.0
  9
$UCSORGRIGHT
 10
0.0
 20
0.0
 30
0.0
  9
$UCSORGFRONT
 10
0.0
 20
0.0
 30
0.0
  9
$UCSORGBACK
 10
0.0
 20
0.0
 30
0.0
  9
$PUCSBASE
  2

  9
$PUCSNAME
  2

  9
$PUCSORG
 10
0.0
 20
0.0
 30
0.0
  9
$PUCSXDIR
 10
1.0
 20
0.0
 30
0.0
  9
$PUCSYDIR
 10
0.0
 20
1.0
 30
0.0
  9
$PUCSORTHOREF
  2

  9
$PUCSORTHOVIEW
 70
     0
  9
$PUCSORGTOP
 10
0.0
 20
0.0
 30
0.0
  9
$PUCSORGBOTTOM
 10
0.0
 20
0.0
 30
0.0
  9
$PUCSORGLEFT
 10
0.0
 20
0.0
 30
0.0
  9
$PUCSORGRIGHT
 10
0.0
 20
0.0
 30
0.0
  9
$PUCSORGFRONT
 10
0.0
 20
0.0
 30
0.0
  9
$PUCSORGBACK
 10
0.0
 20
0.0
 30
0.0
  9
$USERI1
 70
     0
  9
$USERI2
 70
     0
  9
$USERI3
 70
     0
  9
$USERI4
 70
     0
  9
$USERI5
 70
     0
  9
$USERR1
 40
0.0
  9
$USERR2
 40
0.0
  9
$USERR3
 40
0.0
  9
$USERR4
 40
0.0
  9
$USERR5
 40
0.0
  9
$WORLDVIEW
 70
     1
  9
$SHADEDGE
 70
     3
  9
$SHADEDIF
 70
    70
  9
$TILEMODE
 70
     1
  9
$MAXACTVP
 70
    64
  9
$PINSBASE
 10
0.0
 20
0.0
 30
0.0
  9
$PLIMCHECK
 70
     0
  9
$PEXTMIN
 10
-234.726912
 20
-157.242727
 30
0.0
  9
$PEXTMAX
 10
605.273088
 20
436.757273
 30
0.0
  9
$PLIMMIN
 10
-234.726912
 20
-157.242727
  9
$PLIMMAX
 10
605.273088
 20
436.757273
  9
$UNITMODE
 70
     0
  9
$VISRETAIN
 70
     1
  9
$PLINEGEN
 70
     0
  9
$PSLTSCALE
 70
     1
  9
$TREEDEPTH
 70
  3020
  9
$CMLSTYLE
  2
Standard
  9
$CMLJUST
 70
     0
  9
$CMLSCALE
 40
20.0
  9
$PROXYGRAPHICS
 70
     1
  9
$MEASUREMENT
 70
     1
  9
$CELWEIGHT
370
    -1
  9
$ENDCAPS
280
     0
  9
$JOINSTYLE
280
     0
  9
$LWDISPLAY
290
     0
  9
$INSUNITS
 70
     4
  9
$HYPERLINKBASE
  1

  9
$STYLESHEET
  1

  9
$XEDIT
290
     1
  9
$CEPSNTYPE
380
     0
  9
$PSTYLEMODE
290
     1
  9
$FINGERPRINTGUID
  2
{FAEB1C30-E019-11D5-929B-00C0DF256EC4}
  9
$VERSIONGUID
  2
{FAEB1C32-E019-11D5-929B-00C0DF256EC4}
  9
$EXTNAMES
290
     1
  9
$PSVPSCALE
 40
0.0
  9
$OLESTARTUP
290
     0
  0
ENDSEC
  0
SECTION
  2
CLASSES
  0
CLASS
  1
ACDBDICTIONARYWDFLT
  2
AcDbDictionaryWithDefault
  3
ObjectDBX Classes
 90
        0
280
     0
281
     0
  0
CLASS
  1
ACDBPLACEHOLDER
  2
AcDbPlaceHolder
  3
ObjectDBX Classes
 90
        0
280
     0
281
     0
  0
CLASS
  1
LAYOUT
  2
AcDbLayout
  3
ObjectDBX Classes
 90
        0
280
     0
281
     0
  0
ENDSEC
  0
SECTION
  2
TABLES
  0
TABLE
  2
VPORT
  5
8
330
0
100
AcDbSymbolTable
 70
     2
  0
VPORT
  5
29
330
8
100
AcDbSymbolTableRecord
100
AcDbViewportTableRecord
  2
*ACTIVE
 70
     0
 10
0.0
 20
0.0
 11
1.0
 21
1.0
 12
185.273088
 22
139.757273
 13
0.0
 23
0.0
 14
1.0
 24
1.0
 15
0.0
 25
0.0
 16
0.0
 26
0.0
 36
1.0
 17
0.0
 27
0.0
 37
0.0
 40
594.0
 41
1.414141
 42
50.0
 43
0.0
 44
0.0
 50
0.0
 51
0.0
 71
    16
 72
   100
 73
     1
 74
     0
 75
     0
 76
     0
 77
     0
 78
     0
281
     0
 65
     0
110
0.0
120
0.0
130
0.0
111
1.0
121
0.0
131
0.0
112
0.0
122
1.0
132
0.0
 79
     0
146
0.0
  0
ENDTAB
  0
TABLE
  2
LTYPE
  5
5
330
0
100
AcDbSymbolTable
 70
     3
  0
LTYPE
  5
14
330
5
100
AcDbSymbolTableRecord
100
AcDbLinetypeTableRecord
  2
ByBlock
 70
     0
  3

 72
    65
 73
     0
 40
0.0
  0
LTYPE
  5
15
330
5
100
AcDbSymbolTableRecord
100
AcDbLinetypeTableRecord
  2
ByLayer
 70
     0
  3

 72
    65
 73
     0
 40
0.0
  0
LTYPE
  5
16
330
5
100
AcDbSymbolTableRecord
100
AcDbLinetypeTableRecord
  2
Continuous
 70
     0
  3
Solid line
 72
    65
 73
     0
 40
0.0
  0
LTYPE
  5
2A
330
5
100
AcDbSymbolTableRecord
100
AcDbLinetypeTableRecord
  2
DASHED
 70
     0
  3
__ __ __ __ __
 72
    65
 73
     2
 40
6.25
 49
5.0
 74
     4
 75
     0
340
0
 46
1.0
 50
0.0
 44
0.0
 45
0.0
 49
-1.25
 74
     4
 75
     0
340
0
 46
1.0
 50
0.0
 44
0.0
 45
0.0
  0
LTYPE
  5
49E
330
5
100
AcDbSymbolTableRecord
100
AcDbLinetypeTableRecord
  2
DASHDOT
 70
     0
  3
__ . __ . __ . __ . __
 72
    65
 73
     4
 40
7.5
 49
5.0
 74
     4
 75
     0
340
0
 46
1.0
 50
0.0
 44
0.0
 45
0.0
 49
-1.25
 74
     4
 75
     0
340
0
 46
1.0
 50
0.0
 44
0.0
 45
0.0
 49
0.0
 74
     4
 75
     0
340
0
 46
1.0
 50
0.0
 44
0.0
 45
0.0
 49
-1.25
 74
     4
 75
     0
340
0
 46
1.0
 50
0.0
 44
0.0
 45
0.0
  0
ENDTAB
  0
TABLE
  2
LAYER
  5
2
330
0
100
AcDbSymbolTable
 70
     8
  0
LAYER
  5
10
330
2
100
AcDbSymbolTableRecord
100
AcDbLayerTableRecord
  2
0
 70
     0
 62
     7
  6
Continuous
370
    -3
390
F
  0
LAYER
  5
2B
330
2
100
AcDbSymbolTableRecord
100
AcDbLayerTableRecord
  2
LC-INFO-1-2-mm-A3-0
 70
     1
 62
     7
  6
ByBlock
370
    -3
390
F
  0
LAYER
  5
2C
330
2
100
AcDbSymbolTableRecord
100
AcDbLayerTableRecord
  2
LC-CUT-HIDDEN
 70
     0
 62
     7
  6
DASHED
370
    -3
390
F
  0
LAYER
  5
2D
330
2
100
AcDbSymbolTableRecord
100
AcDbLayerTableRecord
  2
LC-VIEWPORT
 70
     0
 62
     7
  6
ByBlock
370
    -3
390
F
  0
LAYER
  5
2E
330
2
100
AcDbSymbolTableRecord
100
AcDbLayerTableRecord
  2
LC-3D-HIDDEN
 70
     0
 62
     9
  6
DASHED
370
    -3
390
F
  0
LAYER
  5
30
330
2
100
AcDbSymbolTableRecord
100
AcDbLayerTableRecord
  2
LC-001-100-D00-0
 70
     0
 62
     1
  6
ByBlock
370
    -3
390
F
  0
LAYER
  5
4A2
330
2
100
AcDbSymbolTableRecord
100
AcDbLayerTableRecord
  2
LC-002-003-----0
 70
     0
 62
     2
  6
ByBlock
370
    -3
390
F
  0
LAYER
  5
4A4
330
2
100
AcDbSymbolTableRecord
100
AcDbLayerTableRecord
  2
Defpoints
 70
     0
 62
     7
  6
Continuous
290
     0
370
    -3
390
F
  0
ENDTAB
  0
TABLE
  2
STYLE
  5
3
330
0
100
AcDbSymbolTable
 70
     3
  0
STYLE
  5
11
330
3
100
AcDbSymbolTableRecord
100
AcDbTextStyleTableRecord
  2
Standard
 70
     0
 40
0.0
 41
1.0
 50
0.0
 71
     0
 42
2.5
  3
txt
  4

  0
STYLE
  5
2F
330
3
100
AcDbSymbolTableRecord
100
AcDbTextStyleTableRecord
  2
LCTX15-400-0-0-Arial
 70
     0
 40
0.0
 41
0.8
 50
0.0
 71
     0
 42
3.5
  3

  4

1001
ACAD
1000
Arial
1071
 16777218
  0
STYLE
  5
4A0
330
3
100
AcDbSymbolTableRecord
100
AcDbTextStyleTableRecord
  2
LCTX15-400-0-0pDIN-Schrift
 70
     0
 40
2.5
 41
0.8
 50
15.0
 71
     0
 42
3.5
  3
STANDARD
  4

  0
ENDTAB
  0
TABLE
  2
VIEW
  5
6
330
0
100
AcDbSymbolTable
 70
     0
  0
ENDTAB
  0
TABLE
  2
UCS
  5
7
330
0
100
AcDbSymbolTable
 70
     0
  0
ENDTAB
  0
TABLE
  2
APPID
  5
9
330
0
100
AcDbSymbolTable
 70
     1
  0
APPID
  5
12
330
9
100
AcDbSymbolTableRecord
100
AcDbRegAppTableRecord
  2
ACAD
 70
     0
  0
ENDTAB
  0
TABLE
  2
DIMSTYLE
  5
A
330
0
100
AcDbSymbolTable
 70
     2
100
AcDbDimStyleTable
  0
DIMSTYLE
105
27
330
A
100
AcDbSymbolTableRecord
100
AcDbDimStyleTableRecord
  2
ISO-25
 70
     0
 41
2.5
 42
0.625
 43
3.75
 44
1.25
 73
     0
 74
     0
 77
     1
 78
     8
140
2.5
141
2.5
143
0.03937
147
0.625
171
     3
172
     1
271
     2
272
     2
274
     3
278
    44
283
     0
284
     8
340
11
  0
DIMSTYLE
105
4A1
102
{ACAD_REACTORS
330
4A3
330
4B1
330
4BE
330
4CB
330
4D8
330
559
330
566
102
}
330
A
100
AcDbSymbolTableRecord
100
AcDbDimStyleTableRecord
  2
LC-DIM-L-0140-02-02
 70
     0
 40
2.0
 41
14.0
 42
0.0
 43
7.5
 44
1.8
 73
     0
 74
     0
 77
     1
 78
     8
 79
     2
140
14.0
141
0.0
146
0.71
147
1.5
176
     2
177
     2
178
     2
179
     2
271
     2
278
    44
289
     1
340
4A0
  0
ENDTAB
  0
TABLE
  2
BLOCK_RECORD
  5
1
330
0
100
AcDbSymbolTable
 70
    41
  0
BLOCK_RECORD
  5
1F
330
1
100
AcDbSymbolTableRecord
100
AcDbBlockTableRecord
  2
*Model_Space
340
22
  0
BLOCK_RECORD
  5
1B
330
1
100
AcDbSymbolTableRecord
100
AcDbBlockTableRecord
  2
*Paper_Space
340
1E
  0
BLOCK_RECORD
  5
23
330
1
100
AcDbSymbolTableRecord
100
AcDbBlockTableRecord
  2
*Paper_Space0
340
26
  0
BLOCK_RECORD
  5
63
330
1
100
AcDbSymbolTableRecord
100
AcDbBlockTableRecord
  2
POLY1
340
0
102
{BLKREFS
331
74
102
}
  0
BLOCK_RECORD
  5
76
330
1
100
AcDbSymbolTableRecord
100
AcDbBlockTableRecord
  2
POLY2
340
0
102
{BLKREFS
331
87
102
}
  0
BLOCK_RECORD
  5
1AE
330
1
100
AcDbSymbolTableRecord
100
AcDbBlockTableRecord
  2
POLY3
340
0
102
{BLKREFS
331
1BB
102
}
  0
BLOCK_RECORD
  5
1BD
330
1
100
AcDbSymbolTableRecord
100
AcDbBlockTableRecord
  2
POLY4
340
0
102
{BLKREFS
331
1C8
102
}
  0
BLOCK_RECORD
  5
1C9
330
1
100
AcDbSymbolTableRecord
100
AcDbBlockTableRecord
  2
POLY5
340
0
102
{BLKREFS
331
1D8
102
}
  0
BLOCK_RECORD
  5
1DB
330
1
100
AcDbSymbolTableRecord
100
AcDbBlockTableRecord
  2
POLY6
340
0
102
{BLKREFS
331
1E8
102
}
  0
BLOCK_RECORD
  5
1EA
330
1
100
AcDbSymbolTableRecord
100
AcDbBlockTableRecord
  2
POLY7
340
0
102
{BLKREFS
331
1F5
102
}
  0
BLOCK_RECORD
  5
1F6
330
1
100
AcDbSymbolTableRecord
100
AcDbBlockTableRecord
  2
POLY8
340
0
102
{BLKREFS
331
205
102
}
  0
BLOCK_RECORD
  5
20F
330
1
100
AcDbSymbolTableRecord
100
AcDbBlockTableRecord
  2
POLY9
340
0
102
{BLKREFS
331
21E
102
}
  0
BLOCK_RECORD
  5
220
330
1
100
AcDbSymbolTableRecord
100
AcDbBlockTableRecord
  2
POLY10
340
0
102
{BLKREFS
331
22F
102
}
  0
BLOCK_RECORD
  5
234
330
1
100
AcDbSymbolTableRecord
100
AcDbBlockTableRecord
  2
POLY11
340
0
102
{BLKREFS
331
23F
102
}
  0
BLOCK_RECORD
  5
371
330
1
100
AcDbSymbolTableRecord
100
AcDbBlockTableRecord
  2
POLY12
340
0
102
{BLKREFS
331
37C
102
}
  0
BLOCK_RECORD
  5
37E
330
1
100
AcDbSymbolTableRecord
100
AcDbBlockTableRecord
  2
POLY13
340
0
102
{BLKREFS
331
389
102
}
  0
BLOCK_RECORD
  5
390
330
1
100
AcDbSymbolTableRecord
100
AcDbBlockTableRecord
  2
POLY14
340
0
102
{BLKREFS
331
39B
102
}
  0
BLOCK_RECORD
  5
39C
330
1
100
AcDbSymbolTableRecord
100
AcDbBlockTableRecord
  2
POLY15
340
0
102
{BLKREFS
331
3A7
102
}
  0
BLOCK_RECORD
  5
3A8
330
1
100
AcDbSymbolTableRecord
100
AcDbBlockTableRecord
  2
POLY16
340
0
102
{BLKREFS
331
3B3
102
}
  0
BLOCK_RECORD
  5
3B5
330
1
100
AcDbSymbolTableRecord
100
AcDbBlockTableRecord
  2
KLON1
340
0
102
{BLKREFS
331
3BA
102
}
  0
BLOCK_RECORD
  5
3BB
330
1
100
AcDbSymbolTableRecord
100
AcDbBlockTableRecord
  2
KLON2
340
0
102
{BLKREFS
331
3C0
102
}
  0
BLOCK_RECORD
  5
3C1
330
1
100
AcDbSymbolTableRecord
100
AcDbBlockTableRecord
  2
KLON3
340
0
102
{BLKREFS
331
3EF
102
}
  0
BLOCK_RECORD
  5
3F0
330
1
100
AcDbSymbolTableRecord
100
AcDbBlockTableRecord
  2
KLON4
340
0
102
{BLKREFS
331
41D
102
}
  0
BLOCK_RECORD
  5
41E
330
1
100
AcDbSymbolTableRecord
100
AcDbBlockTableRecord
  2
KLON5
340
0
102
{BLKREFS
331
423
102
}
  0
BLOCK_RECORD
  5
424
330
1
100
AcDbSymbolTableRecord
100
AcDbBlockTableRecord
  2
KLON6
340
0
102
{BLKREFS
331
429
102
}
  0
BLOCK_RECORD
  5
42A
330
1
100
AcDbSymbolTableRecord
100
AcDbBlockTableRecord
  2
KLON7
340
0
102
{BLKREFS
331
437
102
}
  0
BLOCK_RECORD
  5
438
330
1
100
AcDbSymbolTableRecord
100
AcDbBlockTableRecord
  2
KLON8
340
0
102
{BLKREFS
331
449
102
}
  0
BLOCK_RECORD
  5
44A
330
1
100
AcDbSymbolTableRecord
100
AcDbBlockTableRecord
  2
KLON9
340
0
102
{BLKREFS
331
451
102
}
  0
BLOCK_RECORD
  5
454
330
1
100
AcDbSymbolTableRecord
100
AcDbBlockTableRecord
  2
KLON10
340
0
102
{BLKREFS
331
471
102
}
  0
BLOCK_RECORD
  5
472
330
1
100
AcDbSymbolTableRecord
100
AcDbBlockTableRecord
  2
KLON11
340
0
102
{BLKREFS
331
47C
102
}
  0
BLOCK_RECORD
  5
47E
330
1
100
AcDbSymbolTableRecord
100
AcDbBlockTableRecord
  2
KLON12
340
0
102
{BLKREFS
331
485
102
}
  0
BLOCK_RECORD
  5
486
330
1
100
AcDbSymbolTableRecord
100
AcDbBlockTableRecord
  2
KLON13
340
0
102
{BLKREFS
331
490
102
}
  0
BLOCK_RECORD
  5
491
330
1
100
AcDbSymbolTableRecord
100
AcDbBlockTableRecord
  2
KLON14
340
0
102
{BLKREFS
331
49B
102
}
  0
BLOCK_RECORD
  5
4A5
330
1
100
AcDbSymbolTableRecord
100
AcDbBlockTableRecord
  2
*D31
340
0
  0
BLOCK_RECORD
  5
4B2
330
1
100
AcDbSymbolTableRecord
100
AcDbBlockTableRecord
  2
*D32
340
0
  0
BLOCK_RECORD
  5
4BF
330
1
100
AcDbSymbolTableRecord
100
AcDbBlockTableRecord
  2
*D33
340
0
  0
BLOCK_RECORD
  5
4CC
330
1
100
AcDbSymbolTableRecord
100
AcDbBlockTableRecord
  2
*D34
340
0
  0
BLOCK_RECORD
  5
4D9
330
1
100
AcDbSymbolTableRecord
100
AcDbBlockTableRecord
  2
*D35
340
0
  0
BLOCK_RECORD
  5
4F1
330
1
100
AcDbSymbolTableRecord
100
AcDbBlockTableRecord
  2
KLON15
340
0
102
{BLKREFS
331
4F8
102
}
  0
BLOCK_RECORD
  5
531
330
1
100
AcDbSymbolTableRecord
100
AcDbBlockTableRecord
  2
KLON16
340
0
102
{BLKREFS
331
538
102
}
  0
BLOCK_RECORD
  5
54F
330
1
100
AcDbSymbolTableRecord
100
AcDbBlockTableRecord
  2
KLON17
340
0
102
{BLKREFS
331
556
102
}
  0
BLOCK_RECORD
  5
55A
330
1
100
AcDbSymbolTableRecord
100
AcDbBlockTableRecord
  2
*D39
340
0
  0
BLOCK_RECORD
  5
567
330
1
100
AcDbSymbolTableRecord
100
AcDbBlockTableRecord
  2
*D40
340
0
  0
ENDTAB
  0
ENDSEC
  0
SECTION
  2
BLOCKS
  0
BLOCK
  5
20
330
1F
100
AcDbEntity
  8
0
100
AcDbBlockBegin
  2
*Model_Space
 70
     0
 71
     0
 10
0.0
 20
0.0
 30
0.0
  3
*Model_Space
  1

  0
ENDBLK
  5
21
330
1F
100
AcDbEntity
  8
0
100
AcDbBlockEnd
  0
BLOCK
  5
1C
330
1B
100
AcDbEntity
 67
     1
  8
0
100
AcDbBlockBegin
  2
*Paper_Space
 70
     0
 71
     0
 10
0.0
 20
0.0
 30
0.0
  3
*Paper_Space
  1

  0
ENDBLK
  5
1D
330
1B
100
AcDbEntity
 67
     1
  8
0
100
AcDbBlockEnd
  0
BLOCK
  5
24
330
23
100
AcDbEntity
  8
0
100
AcDbBlockBegin
  2
*Paper_Space0
 70
     0
 71
     0
 10
0.0
 20
0.0
 30
0.0
  3
*Paper_Space0
  1

  0
ENDBLK
  5
25
330
23
100
AcDbEntity
  8
0
100
AcDbBlockEnd
  0
BLOCK
  5
64
330
63
100
AcDbEntity
  8
0
100
AcDbBlockBegin
  2
POLY1
 70
     0
 71
     0
 10
0.0
 20
0.0
 30
0.0
  3
POLY1
  1

  4
POLY1
  0
LINE
  5
66
330
63
100
AcDbEntity
  8
LC-001-100-D00-0
 62
     7
370
    50
100
AcDbLine
 10
83.885865
 20
214.815274
 30
0.0
 11
83.885865
 21
214.815274
 31
0.0
  0
LINE
  5
67
330
63
100
AcDbEntity
  8
LC-001-100-D00-0
 62
     7
370
    50
100
AcDbLine
 10
83.885865
 20
214.815274
 30
0.0
 11
83.886028
 21
214.812511
 31
0.0
  0
LINE
  5
68
330
63
100
AcDbEntity
  8
LC-001-100-D00-0
 62
     7
370
    50
100
AcDbLine
 10
83.886028
 20
214.812511
 30
0.0
 11
83.886028
 21
214.812511
 31
0.0
  0
LINE
  5
69
330
63
100
AcDbEntity
  8
LC-001-100-D00-0
 62
     7
370
    50
100
AcDbLine
 10
83.886028
 20
214.812511
 30
0.0
 11
83.886354
 21
214.806984
 31
0.0
  0
LINE
  5
6A
330
63
100
AcDbEntity
  8
LC-001-100-D00-0
 62
     7
370
    50
100
AcDbLine
 10
83.886354
 20
214.806984
 30
0.0
 11
83.886354
 21
214.806984
 31
0.0
  0
LINE
  5
6B
330
63
100
AcDbEntity
  8
LC-001-100-D00-0
 62
     7
370
    50
100
AcDbLine
 10
83.886354
 20
214.806984
 30
0.0
 11
83.886905
 21
214.763879
 31
0.0
  0
LINE
  5
6C
330
63
100
AcDbEntity
  8
LC-001-100-D00-0
 62
     7
370
    50
100
AcDbLine
 10
83.886905
 20
214.763879
 30
0.0
 11
83.886905
 21
214.763879
 31
0.0
  0
LINE
  5
6D
330
63
100
AcDbEntity
  8
LC-001-100-D00-0
 62
     7
370
    50
100
AcDbLine
 10
83.886905
 20
214.763879
 30
0.0
 11
83.887388
 21
214.700444
 31
0.0
  0
LINE
  5
6E
330
63
100
AcDbEntity
  8
LC-001-100-D00-0
 62
     7
370
    50
100
AcDbLine
 10
83.887388
 20
214.700444
 30
0.0
 11
83.887388
 21
214.700444
 31
0.0
  0
LINE
  5
6F
330
63
100
AcDbEntity
  8
LC-001-100-D00-0
 62
     7
370
    50
100
AcDbLine
 10
83.887388
 20
214.700444
 30
0.0
 11
83.887644
 21
214.63015
 31
0.0
  0
LINE
  5
70
330
63
100
AcDbEntity
  8
LC-001-100-D00-0
 62
     7
370
    50
100
AcDbLine
 10
83.887644
 20
214.63015
 30
0.0
 11
83.887644
 21
214.63015
 31
0.0
  0
LINE
  5
71
330
63
100
AcDbEntity
  8
LC-001-100-D00-0
 62
     7
370
    50
100
AcDbLine
 10
83.887644
 20
214.63015
 30
0.0
 11
83.887677
 21
214.583703
 31
0.0
  0
LINE
  5
72
330
63
100
AcDbEntity
  8
LC-001-100-D00-0
 62
     7
370
    50
100
AcDbLine
 10
83.887677
 20
214.583703
 30
0.0
 11
83.887677
 21
214.583703
 31
0.0
  0
LINE
  5
73
330
63
100
AcDbEntity
  8
LC-001-100-D00-0
 62
     7
370
    50
100
AcDbLine
 10
83.887677
 20
214.583703
 30
0.0
 11
83.887691
 21
214.565274
 31
0.0
  0
ENDBLK
  5
65
330
63
100
AcDbEntity
  8
0
100
AcDbBlockEnd
  0
BLOCK
  5
77
330
76
100
AcDbEntity
  8
0
100
AcDbBlockBegin
  2
POLY2
 70
     0
 71
     0
 10
0.0
 20
0.0
 30
0.0
  3
POLY2
  1

  4
POLY2
  0
LINE
  5
79
330
76
100
AcDbEntity
  8
LC-001-100-D00-0
 62
     7
370
    50
100
AcDbLine
 10
83.887691
 20
210.065276
 30
0.0
 11
83.887691
 21
210.065276
 31
0.0
  0
LINE
  5
7A
330
76
100
AcDbEntity
  8
LC-001-100-D00-0
 62
     7
370
    50
100
AcDbLine
 10
83.887691
 20
210.065276
 30
0.0
 11
83.887665
 21
210.03717
 31
0.0
  0
LINE
  5
7B
330
76
100
AcDbEntity
  8
LC-001-100-D00-0
 62
     7
370
    50
100
AcDbLine
 10
83.887665
 20
210.03717
 30
0.0
 11
83.887665
 21
210.03717
 31
0.0
  0
LINE
  5
7C
330
76
100
AcDbEntity
  8
LC-001-100-D00-0
 62
     7
370
    50
100
AcDbLine
 10
83.887665
 20
210.03717
 30
0.0
 11
83.887614
 21
209.980959
 31
0.0
  0
LINE
  5
7D
330
76
100
AcDbEntity
  8
LC-001-100-D00-0
 62
     7
370
    50
100
AcDbLine
 10
83.887614
 20
209.980959
 30
0.0
 11
83.887614
 21
209.980959
 31
0.0
  0
LINE
  5
7E
330
76
100
AcDbEntity
  8
LC-001-100-D00-0
 62
     7
370
    50
100
AcDbLine
 10
83.887614
 20
209.980959
 30
0.0
 11
83.887237
 21
209.906041
 31
0.0
  0
LINE
  5
7F
330
76
100
AcDbEntity
  8
LC-001-100-D00-0
 62
     7
370
    50
100
AcDbLine
 10
83.887237
 20
209.906041
 30
0.0
 11
83.887237
 21
209.906041
 31
0.0
  0
LINE
  5
80
330
76
100
AcDbEntity
  8
LC-001-100-D00-0
 62
     7
370
    50
100
AcDbLine
 10
83.887237
 20
209.906041
 30
0.0
 11
83.88672
 21
209.849501
 31
0.0
  0
LINE
  5
81
330
76
100
AcDbEntity
  8
LC-001-100-D00-0
 62
     7
370
    50
100
AcDbLine
 10
83.88672
 20
209.849501
 30
0.0
 11
83.88672
 21
209.849501
 31
0.0
  0
LINE
  5
82
330
76
100
AcDbEntity
  8
LC-001-100-D00-0
 62
     7
370
    50
100
AcDbLine
 10
83.88672
 20
209.849501
 30
0.0
 11
83.886234
 21
209.819543
 31
0.0
  0
LINE
  5
83
330
76
100
AcDbEntity
  8
LC-001-100-D00-0
 62
     7
370
    50
100
AcDbLine
 10
83.886234
 20
209.819543
 30
0.0
 11
83.886234
 21
209.819543
 31
0.0
  0
LINE
  5
84
330
76
100
AcDbEntity
  8
LC-001-100-D00-0
 62
     7
370
    50
100
AcDbLine
 10
83.886234
 20
209.819543
 30
0.0
 11
83.88597
 21
209.816488
 31
0.0
  0
LINE
  5
85
330
76
100
AcDbEntity
  8
LC-001-100-D00-0
 62
     7
370
    50
100
AcDbLine
 10
83.88597
 20
209.816488
 30
0.0
 11
83.88597
 21
209.816488
 31
0.0
  0
LINE
  5
86
330
76
100
AcDbEntity
  8
LC-001-100-D00-0
 62
     7
370
    50
100
AcDbLine
 10
83.88597
 20
209.816488
 30
0.0
 11
83.885865
 21
209.815275
 31
0.0
  0
ENDBLK
  5
78
330
76
100
AcDbEntity
  8
0
100
AcDbBlockEnd
  0
BLOCK
  5
1AF
330
1AE
100
AcDbEntity
  8
0
100
AcDbBlockBegin
  2
POLY3
 70
     0
 71
     0
 10
0.0
 20
0.0
 30
0.0
  3
POLY3
  1

  4
POLY3
  0
LINE
  5
1B1
330
1AE
100
AcDbEntity
  8
LC-001-100-D00-0
 62
     7
370
    50
100
AcDbLine
 10
68.228798
 20
304.515277
 30
0.0
 11
68.228798
 21
304.515277
 31
0.0
  0
LINE
  5
1B2
330
1AE
100
AcDbEntity
  8
LC-001-100-D00-0
 62
     7
370
    50
100
AcDbLine
 10
68.228798
 20
304.515277
 30
0.0
 11
68.144549
 21
304.515277
 31
0.0
  0
LINE
  5
1B3
330
1AE
100
AcDbEntity
  8
LC-001-100-D00-0
 62
     7
370
    50
100
AcDbLine
 10
68.144549
 20
304.515277
 30
0.0
 11
68.144549
 21
304.515277
 31
0.0
  0
LINE
  5
1B4
330
1AE
100
AcDbEntity
  8
LC-001-100-D00-0
 62
     7
370
    50
100
AcDbLine
 10
68.144549
 20
304.515277
 30
0.0
 11
67.975605
 21
304.515277
 31
0.0
  0
LINE
  5
1B5
330
1AE
100
AcDbEntity
  8
LC-001-100-D00-0
 62
     7
370
    50
100
AcDbLine
 10
67.975605
 20
304.515277
 30
0.0
 11
67.975605
 21
304.515277
 31
0.0
  0
LINE
  5
1B6
330
1AE
100
AcDbEntity
  8
LC-001-100-D00-0
 62
     7
370
    50
100
AcDbLine
 10
67.975605
 20
304.515277
 30
0.0
 11
67.73349
 21
304.515277
 31
0.0
  0
LINE
  5
1B7
330
1AE
100
AcDbEntity
  8
LC-001-100-D00-0
 62
     7
370
    50
100
AcDbLine
 10
67.73349
 20
304.515277
 30
0.0
 11
67.73349
 21
304.515277
 31
0.0
  0
LINE
  5
1B8
330
1AE
100
AcDbEntity
  8
LC-001-100-D00-0
 62
     7
370
    50
100
AcDbLine
 10
67.73349
 20
304.515277
 30
0.0
 11
67.607075
 21
304.515277
 31
0.0
  0
LINE
  5
1B9
330
1AE
100
AcDbEntity
  8
LC-001-100-D00-0
 62
     7
370
    50
100
AcDbLine
 10
67.607075
 20
304.515277
 30
0.0
 11
67.607075
 21
304.515277
 31
0.0
  0
LINE
  5
1BA
330
1AE
100
AcDbEntity
  8
LC-001-100-D00-0
 62
     7
370
    50
100
AcDbLine
 10
67.607075
 20
304.515277
 30
0.0
 11
67.529799
 21
304.515277
 31
0.0
  0
ENDBLK
  5
1B0
330
1AE
100
AcDbEntity
  8
0
100
AcDbBlockEnd
  0
BLOCK
  5
1BE
330
1BD
100
AcDbEntity
  8
0
100
AcDbBlockBegin
  2
POLY4
 70
     0
 71
     0
 10
0.0
 20
0.0
 30
0.0
  3
POLY4
  1

  4
POLY4
  0
LINE
  5
1C0
330
1BD
100
AcDbEntity
  8
LC-001-100-D00-0
 62
     7
370
    50
100
AcDbLine
 10
65.233158
 20
304.515277
 30
0.0
 11
65.233158
 21
304.515277
 31
0.0
  0
LINE
  5
1C1
330
1BD
100
AcDbEntity
  8
LC-001-100-D00-0
 62
     7
370
    50
100
AcDbLine
 10
65.233158
 20
304.515277
 30
0.0
 11
65.07634
 21
304.515277
 31
0.0
  0
LINE
  5
1C2
330
1BD
100
AcDbEntity
  8
LC-001-100-D00-0
 62
     7
370
    50
100
AcDbLine
 10
65.07634
 20
304.515277
 30
0.0
 11
65.07634
 21
304.515277
 31
0.0
  0
LINE
  5
1C3
330
1BD
100
AcDbEntity
  8
LC-001-100-D00-0
 62
     7
370
    50
100
AcDbLine
 10
65.07634
 20
304.515277
 30
0.0
 11
64.796839
 21
304.515277
 31
0.0
  0
LINE
  5
1C4
330
1BD
100
AcDbEntity
  8
LC-001-100-D00-0
 62
     7
370
    50
100
AcDbLine
 10
64.796839
 20
304.515277
 30
0.0
 11
64.796839
 21
304.515277
 31
0.0
  0
LINE
  5
1C5
330
1BD
100
AcDbEntity
  8
LC-001-100-D00-0
 62
     7
370
    50
100
AcDbLine
 10
64.796839
 20
304.515277
 30
0.0
 11
64.656513
 21
304.515277
 31
0.0
  0
LINE
  5
1C6
330
1BD
100
AcDbEntity
  8
LC-001-100-D00-0
 62
     7
370
    50
100
AcDbLine
 10
64.656513
 20
304.515277
 30
0.0
 11
64.656513
 21
304.515277
 31
0.0
  0
LINE
  5
1C7
330
1BD
100
AcDbEntity
  8
LC-001-100-D00-0
 62
     7
370
    50
100
AcDbLine
 10
64.656513
 20
304.515277
 30
0.0
 11
64.594919
 21
304.515277
 31
0.0
  0
ENDBLK
  5
1BF
330
1BD
100
AcDbEntity
  8
0
100
AcDbBlockEnd
  0
BLOCK
  5
1CA
330
1C9
100
AcDbEntity
  8
0
100
AcDbBlockBegin
  2
POLY5
 70
     0
 71
     0
 10
0.0
 20
0.0
 30
0.0
  3
POLY5
  1

  4
POLY5
  0
LINE
  5
1CC
330
1C9
100
AcDbEntity
  8
LC-001-100-D00-0
 62
     7
370
    50
100
AcDbLine
 10
68.771059
 20
304.515277
 30
0.0
 11
68.771059
 21
304.515277
 31
0.0
  0
LINE
  5
1CD
330
1C9
100
AcDbEntity
  8
LC-001-100-D00-0
 62
     7
370
    50
100
AcDbLine
 10
68.771059
 20
304.515277
 30
0.0
 11
68.752797
 21
304.515277
 31
0.0
  0
LINE
  5
1CE
330
1C9
100
AcDbEntity
  8
LC-001-100-D00-0
 62
     7
370
    50
100
AcDbLine
 10
68.752797
 20
304.515277
 30
0.0
 11
68.752797
 21
304.515277
 31
0.0
  0
LINE
  5
1CF
330
1C9
100
AcDbEntity
  8
LC-001-100-D00-0
 62
     7
370
    50
100
AcDbLine
 10
68.752797
 20
304.515277
 30
0.0
 11
68.716283
 21
304.515277
 31
0.0
  0
LINE
  5
1D0
330
1C9
100
AcDbEntity
  8
LC-001-100-D00-0
 62
     7
370
    50
100
AcDbLine
 10
68.716283
 20
304.515277
 30
0.0
 11
68.716283
 21
304.515277
 31
0.0
  0
LINE
  5
1D1
330
1C9
100
AcDbEntity
  8
LC-001-100-D00-0
 62
     7
370
    50
100
AcDbLine
 10
68.716283
 20
304.515277
 30
0.0
 11
68.573335
 21
304.515277
 31
0.0
  0
LINE
  5
1D2
330
1C9
100
AcDbEntity
  8
LC-001-100-D00-0
 62
     7
370
    50
100
AcDbLine
 10
68.573335
 20
304.515277
 30
0.0
 11
68.573335
 21
304.515277
 31
0.0
  0
LINE
  5
1D3
330
1C9
100
AcDbEntity
  8
LC-001-100-D00-0
 62
     7
370
    50
100
AcDbLine
 10
68.573335
 20
304.515277
 30
0.0
 11
68.410192
 21
304.515277
 31
0.0
  0
LINE
  5
1D4
330
1C9
100
AcDbEntity
  8
LC-001-100-D00-0
 62
     7
370
    50
100
AcDbLine
 10
68.410192
 20
304.515277
 30
0.0
 11
68.410192
 21
304.515277
 31
0.0
  0
LINE
  5
1D5
330
1C9
100
AcDbEntity
  8
LC-001-100-D00-0
 62
     7
370
    50
100
AcDbLine
 10
68.410192
 20
304.515277
 30
0.0
 11
68.289256
 21
304.515277
 31
0.0
  0
LINE
  5
1D6
330
1C9
100
AcDbEntity
  8
LC-001-100-D00-0
 62
     7
370
    50
100
AcDbLine
 10
68.289256
 20
304.515277
 30
0.0
 11
68.289256
 21
304.515277
 31
0.0
  0
LINE
  5
1D7
330
1C9
100
AcDbEntity
  8
LC-001-100-D00-0
 62
     7
370
    50
100
AcDbLine
 10
68.289256
 20
304.515277
 30
0.0
 11
68.228798
 21
304.515277
 31
0.0
  0
ENDBLK
  5
1CB
330
1C9
100
AcDbEntity
  8
0
100
AcDbBlockEnd
  0
BLOCK
  5
1DC
330
1DB
100
AcDbEntity
  8
0
100
AcDbBlockBegin
  2
POLY6
 70
     0
 71
     0
 10
0.0
 20
0.0
 30
0.0
  3
POLY6
  1

  4
POLY6
  0
LINE
  5
1DE
330
1DB
100
AcDbEntity
  8
LC-001-100-D00-0
 62
     7
370
    50
100
AcDbLine
 10
239.252144
 20
304.515277
 30
0.0
 11
239.252144
 21
304.515277
 31
0.0
  0
LINE
  5
1DF
330
1DB
100
AcDbEntity
  8
LC-001-100-D00-0
 62
     7
370
    50
100
AcDbLine
 10
239.252144
 20
304.515277
 30
0.0
 11
239.172037
 21
304.515277
 31
0.0
  0
LINE
  5
1E0
330
1DB
100
AcDbEntity
  8
LC-001-100-D00-0
 62
     7
370
    50
100
AcDbLine
 10
239.172037
 20
304.515277
 30
0.0
 11
239.172037
 21
304.515277
 31
0.0
  0
LINE
  5
1E1
330
1DB
100
AcDbEntity
  8
LC-001-100-D00-0
 62
     7
370
    50
100
AcDbLine
 10
239.172037
 20
304.515277
 30
0.0
 11
239.011272
 21
304.515277
 31
0.0
  0
LINE
  5
1E2
330
1DB
100
AcDbEntity
  8
LC-001-100-D00-0
 62
     7
370
    50
100
AcDbLine
 10
239.011272
 20
304.515277
 30
0.0
 11
239.011272
 21
304.515277
 31
0.0
  0
LINE
  5
1E3
330
1DB
100
AcDbEntity
  8
LC-001-100-D00-0
 62
     7
370
    50
100
AcDbLine
 10
239.011272
 20
304.515277
 30
0.0
 11
238.830428
 21
304.515277
 31
0.0
  0
LINE
  5
1E4
330
1DB
100
AcDbEntity
  8
LC-001-100-D00-0
 62
     7
370
    50
100
AcDbLine
 10
238.830428
 20
304.515277
 30
0.0
 11
238.830428
 21
304.515277
 31
0.0
  0
LINE
  5
1E5
330
1DB
100
AcDbEntity
  8
LC-001-100-D00-0
 62
     7
370
    50
100
AcDbLine
 10
238.830428
 20
304.515277
 30
0.0
 11
238.72864
 21
304.515277
 31
0.0
  0
LINE
  5
1E6
330
1DB
100
AcDbEntity
  8
LC-001-100-D00-0
 62
     7
370
    50
100
AcDbLine
 10
238.72864
 20
304.515277
 30
0.0
 11
238.72864
 21
304.515277
 31
0.0
  0
LINE
  5
1E7
330
1DB
100
AcDbEntity
  8
LC-001-100-D00-0
 62
     7
370
    50
100
AcDbLine
 10
238.72864
 20
304.515277
 30
0.0
 11
238.666372
 21
304.515277
 31
0.0
  0
ENDBLK
  5
1DD
330
1DB
100
AcDbEntity
  8
0
100
AcDbBlockEnd
  0
BLOCK
  5
1EB
330
1EA
100
AcDbEntity
  8
0
100
AcDbBlockBegin
  2
POLY7
 70
     0
 71
     0
 10
0.0
 20
0.0
 30
0.0
  3
POLY7
  1

  4
POLY7
  0
LINE
  5
1ED
330
1EA
100
AcDbEntity
  8
LC-001-100-D00-0
 62
     7
370
    50
100
AcDbLine
 10
236.288937
 20
304.515277
 30
0.0
 11
236.288937
 21
304.515277
 31
0.0
  0
LINE
  5
1EE
330
1EA
100
AcDbEntity
  8
LC-001-100-D00-0
 62
     7
370
    50
100
AcDbLine
 10
236.288937
 20
304.515277
 30
0.0
 11
236.065364
 21
304.515277
 31
0.0
  0
LINE
  5
1EF
330
1EA
100
AcDbEntity
  8
LC-001-100-D00-0
 62
     7
370
    50
100
AcDbLine
 10
236.065364
 20
304.515277
 30
0.0
 11
236.065364
 21
304.515277
 31
0.0
  0
LINE
  5
1F0
330
1EA
100
AcDbEntity
  8
LC-001-100-D00-0
 62
     7
370
    50
100
AcDbLine
 10
236.065364
 20
304.515277
 30
0.0
 11
235.667097
 21
304.515277
 31
0.0
  0
LINE
  5
1F1
330
1EA
100
AcDbEntity
  8
LC-001-100-D00-0
 62
     7
370
    50
100
AcDbLine
 10
235.667097
 20
304.515277
 30
0.0
 11
235.667097
 21
304.515277
 31
0.0
  0
LINE
  5
1F2
330
1EA
100
AcDbEntity
  8
LC-001-100-D00-0
 62
     7
370
    50
100
AcDbLine
 10
235.667097
 20
304.515277
 30
0.0
 11
235.540969
 21
304.515277
 31
0.0
  0
LINE
  5
1F3
330
1EA
100
AcDbEntity
  8
LC-001-100-D00-0
 62
     7
370
    50
100
AcDbLine
 10
235.540969
 20
304.515277
 30
0.0
 11
235.540969
 21
304.515277
 31
0.0
  0
LINE
  5
1F4
330
1EA
100
AcDbEntity
  8
LC-001-100-D00-0
 62
     7
370
    50
100
AcDbLine
 10
235.540969
 20
304.515277
 30
0.0
 11
235.485645
 21
304.515277
 31
0.0
  0
ENDBLK
  5
1EC
330
1EA
100
AcDbEntity
  8
0
100
AcDbBlockEnd
  0
BLOCK
  5
1F7
330
1F6
100
AcDbEntity
  8
0
100
AcDbBlockBegin
  2
POLY8
 70
     0
 71
     0
 10
0.0
 20
0.0
 30
0.0
  3
POLY8
  1

  4
POLY8
  0
LINE
  5
1F9
330
1F6
100
AcDbEntity
  8
LC-001-100-D00-0
 62
     7
370
    50
100
AcDbLine
 10
239.690999
 20
304.515277
 30
0.0
 11
239.690999
 21
304.515277
 31
0.0
  0
LINE
  5
1FA
330
1F6
100
AcDbEntity
  8
LC-001-100-D00-0
 62
     7
370
    50
100
AcDbLine
 10
239.690999
 20
304.515277
 30
0.0
 11
239.686585
 21
304.515277
 31
0.0
  0
LINE
  5
1FB
330
1F6
100
AcDbEntity
  8
LC-001-100-D00-0
 62
     7
370
    50
100
AcDbLine
 10
239.686585
 20
304.515277
 30
0.0
 11
239.686585
 21
304.515277
 31
0.0
  0
LINE
  5
1FC
330
1F6
100
AcDbEntity
  8
LC-001-100-D00-0
 62
     7
370
    50
100
AcDbLine
 10
239.686585
 20
304.515277
 30
0.0
 11
239.677776
 21
304.515277
 31
0.0
  0
LINE
  5
1FD
330
1F6
100
AcDbEntity
  8
LC-001-100-D00-0
 62
     7
370
    50
100
AcDbLine
 10
239.677776
 20
304.515277
 30
0.0
 11
239.677776
 21
304.515277
 31
0.0
  0
LINE
  5
1FE
330
1F6
100
AcDbEntity
  8
LC-001-100-D00-0
 62
     7
370
    50
100
AcDbLine
 10
239.677776
 20
304.515277
 30
0.0
 11
239.581063
 21
304.515277
 31
0.0
  0
LINE
  5
1FF
330
1F6
100
AcDbEntity
  8
LC-001-100-D00-0
 62
     7
370
    50
100
AcDbLine
 10
239.581063
 20
304.515277
 30
0.0
 11
239.581063
 21
304.515277
 31
0.0
  0
LINE
  5
200
330
1F6
100
AcDbEntity
  8
LC-001-100-D00-0
 62
     7
370
    50
100
AcDbLine
 10
239.581063
 20
304.515277
 30
0.0
 11
239.427851
 21
304.515277
 31
0.0
  0
LINE
  5
201
330
1F6
100
AcDbEntity
  8
LC-001-100-D00-0
 62
     7
370
    50
100
AcDbLine
 10
239.427851
 20
304.515277
 30
0.0
 11
239.427851
 21
304.515277
 31
0.0
  0
LINE
  5
202
330
1F6
100
AcDbEntity
  8
LC-001-100-D00-0
 62
     7
370
    50
100
AcDbLine
 10
239.427851
 20
304.515277
 30
0.0
 11
239.310722
 21
304.515277
 31
0.0
  0
LINE
  5
203
330
1F6
100
AcDbEntity
  8
LC-001-100-D00-0
 62
     7
370
    50
100
AcDbLine
 10
239.310722
 20
304.515277
 30
0.0
 11
239.310722
 21
304.515277
 31
0.0
  0
LINE
  5
204
330
1F6
100
AcDbEntity
  8
LC-001-100-D00-0
 62
     7
370
    50
100
AcDbLine
 10
239.310722
 20
304.515277
 30
0.0
 11
239.252144
 21
304.515277
 31
0.0
  0
ENDBLK
  5
1F8
330
1F6
100
AcDbEntity
  8
0
100
AcDbBlockEnd
  0
BLOCK
  5
210
330
20F
100
AcDbEntity
  8
0
100
AcDbBlockBegin
  2
POLY9
 70
     0
 71
     0
 10
0.0
 20
0.0
 30
0.0
  3
POLY9
  1

  4
POLY9
  0
LINE
  5
212
330
20F
100
AcDbEntity
  8
LC-001-100-D00-0
 62
     7
370
    50
100
AcDbLine
 10
62.626788
 20
304.515277
 30
0.0
 11
62.626788
 21
304.515277
 31
0.0
  0
LINE
  5
213
330
20F
100
AcDbEntity
  8
LC-001-100-D00-0
 62
     7
370
    50
100
AcDbLine
 10
62.626788
 20
304.515277
 30
0.0
 11
62.593972
 21
304.515277
 31
0.0
  0
LINE
  5
214
330
20F
100
AcDbEntity
  8
LC-001-100-D00-0
 62
     7
370
    50
100
AcDbLine
 10
62.593972
 20
304.515277
 30
0.0
 11
62.593972
 21
304.515277
 31
0.0
  0
LINE
  5
215
330
20F
100
AcDbEntity
  8
LC-001-100-D00-0
 62
     7
370
    50
100
AcDbLine
 10
62.593972
 20
304.515277
 30
0.0
 11
62.528194
 21
304.515277
 31
0.0
  0
LINE
  5
216
330
20F
100
AcDbEntity
  8
LC-001-100-D00-0
 62
     7
370
    50
100
AcDbLine
 10
62.528194
 20
304.515277
 30
0.0
 11
62.528194
 21
304.515277
 31
0.0
  0
LINE
  5
217
330
20F
100
AcDbEntity
  8
LC-001-100-D00-0
 62
     7
370
    50
100
AcDbLine
 10
62.528194
 20
304.515277
 30
0.0
 11
62.173526
 21
304.515277
 31
0.0
  0
LINE
  5
218
330
20F
100
AcDbEntity
  8
LC-001-100-D00-0
 62
     7
370
    50
100
AcDbLine
 10
62.173526
 20
304.515277
 30
0.0
 11
62.173526
 21
304.515277
 31
0.0
  0
LINE
  5
219
330
20F
100
AcDbEntity
  8
LC-001-100-D00-0
 62
     7
370
    50
100
AcDbLine
 10
62.173526
 20
304.515277
 30
0.0
 11
61.79544
 21
304.515277
 31
0.0
  0
LINE
  5
21A
330
20F
100
AcDbEntity
  8
LC-001-100-D00-0
 62
     7
370
    50
100
AcDbLine
 10
61.79544
 20
304.515277
 30
0.0
 11
61.79544
 21
304.515277
 31
0.0
  0
LINE
  5
21B
330
20F
100
AcDbEntity
  8
LC-001-100-D00-0
 62
     7
370
    50
100
AcDbLine
 10
61.79544
 20
304.515277
 30
0.0
 11
61.544516
 21
304.515277
 31
0.0
  0
LINE
  5
21C
330
20F
100
AcDbEntity
  8
LC-001-100-D00-0
 62
     7
370
    50
100
AcDbLine
 10
61.544516
 20
304.515277
 30
0.0
 11
61.544516
 21
304.515277
 31
0.0
  0
LINE
  5
21D
330
20F
100
AcDbEntity
  8
LC-001-100-D00-0
 62
     7
370
    50
100
AcDbLine
 10
61.544516
 20
304.515277
 30
0.0
 11
61.41899
 21
304.515277
 31
0.0
  0
ENDBLK
  5
211
330
20F
100
AcDbEntity
  8
0
100
AcDbBlockEnd
  0
BLOCK
  5
221
330
220
100
AcDbEntity
  8
0
100
AcDbBlockBegin
  2
POLY10
 70
     0
 71
     0
 10
0.0
 20
0.0
 30
0.0
  3
POLY10
  1

  4
POLY10
  0
LINE
  5
223
330
220
100
AcDbEntity
  8
LC-001-100-D00-0
 62
     7
370
    50
100
AcDbLine
 10
61.41899
 20
304.515277
 30
0.0
 11
61.41899
 21
304.515277
 31
0.0
  0
LINE
  5
224
330
220
100
AcDbEntity
  8
LC-001-100-D00-0
 62
     7
370
    50
100
AcDbLine
 10
61.41899
 20
304.515277
 30
0.0
 11
61.264583
 21
304.515277
 31
0.0
  0
LINE
  5
225
330
220
100
AcDbEntity
  8
LC-001-100-D00-0
 62
     7
370
    50
100
AcDbLine
 10
61.264583
 20
304.515277
 30
0.0
 11
61.264583
 21
304.515277
 31
0.0
  0
LINE
  5
226
330
220
100
AcDbEntity
  8
LC-001-100-D00-0
 62
     7
370
    50
100
AcDbLine
 10
61.264583
 20
304.515277
 30
0.0
 11
60.955851
 21
304.515277
 31
0.0
  0
LINE
  5
227
330
220
100
AcDbEntity
  8
LC-001-100-D00-0
 62
     7
370
    50
100
AcDbLine
 10
60.955851
 20
304.515277
 30
0.0
 11
60.955851
 21
304.515277
 31
0.0
  0
LINE
  5
228
330
220
100
AcDbEntity
  8
LC-001-100-D00-0
 62
     7
370
    50
100
AcDbLine
 10
60.955851
 20
304.515277
 30
0.0
 11
60.600412
 21
304.515277
 31
0.0
  0
LINE
  5
229
330
220
100
AcDbEntity
  8
LC-001-100-D00-0
 62
     7
370
    50
100
AcDbLine
 10
60.600412
 20
304.515277
 30
0.0
 11
60.600412
 21
304.515277
 31
0.0
  0
LINE
  5
22A
330
220
100
AcDbEntity
  8
LC-001-100-D00-0
 62
     7
370
    50
100
AcDbLine
 10
60.600412
 20
304.515277
 30
0.0
 11
60.369018
 21
304.515277
 31
0.0
  0
LINE
  5
22B
330
220
100
AcDbEntity
  8
LC-001-100-D00-0
 62
     7
370
    50
100
AcDbLine
 10
60.369018
 20
304.515277
 30
0.0
 11
60.369018
 21
304.515277
 31
0.0
  0
LINE
  5
22C
330
220
100
AcDbEntity
  8
LC-001-100-D00-0
 62
     7
370
    50
100
AcDbLine
 10
60.369018
 20
304.515277
 30
0.0
 11
60.352843
 21
304.515277
 31
0.0
  0
LINE
  5
22D
330
220
100
AcDbEntity
  8
LC-001-100-D00-0
 62
     7
370
    50
100
AcDbLine
 10
60.352843
 20
304.515277
 30
0.0
 11
60.352843
 21
304.515277
 31
0.0
  0
LINE
  5
22E
330
220
100
AcDbEntity
  8
LC-001-100-D00-0
 62
     7
370
    50
100
AcDbLine
 10
60.352843
 20
304.515277
 30
0.0
 11
60.344757
 21
304.515277
 31
0.0
  0
ENDBLK
  5
222
330
220
100
AcDbEntity
  8
0
100
AcDbBlockEnd
  0
BLOCK
  5
235
330
234
100
AcDbEntity
  8
0
100
AcDbBlockBegin
  2
POLY11
 70
     0
 71
     0
 10
0.0
 20
0.0
 30
0.0
  3
POLY11
  1

  4
POLY11
  0
LINE
  5
237
330
234
100
AcDbEntity
  8
LC-001-100-D00-0
 62
     7
370
    50
100
AcDbLine
 10
70.715124
 20
304.515277
 30
0.0
 11
70.715124
 21
304.515277
 31
0.0
  0
LINE
  5
238
330
234
100
AcDbEntity
  8
LC-001-100-D00-0
 62
     7
370
    50
100
AcDbLine
 10
70.715124
 20
304.515277
 30
0.0
 11
70.68677
 21
304.515277
 31
0.0
  0
LINE
  5
239
330
234
100
AcDbEntity
  8
LC-001-100-D00-0
 62
     7
370
    50
100
AcDbLine
 10
70.68677
 20
304.515277
 30
0.0
 11
70.68677
 21
304.515277
 31
0.0
  0
LINE
  5
23A
330
234
100
AcDbEntity
  8
LC-001-100-D00-0
 62
     7
370
    50
100
AcDbLine
 10
70.68677
 20
304.515277
 30
0.0
 11
70.650302
 21
304.515277
 31
0.0
  0
LINE
  5
23B
330
234
100
AcDbEntity
  8
LC-001-100-D00-0
 62
     7
370
    50
100
AcDbLine
 10
70.650302
 20
304.515277
 30
0.0
 11
70.650302
 21
304.515277
 31
0.0
  0
LINE
  5
23C
330
234
100
AcDbEntity
  8
LC-001-100-D00-0
 62
     7
370
    50
100
AcDbLine
 10
70.650302
 20
304.515277
 30
0.0
 11
70.48587
 21
304.515277
 31
0.0
  0
LINE
  5
23D
330
234
100
AcDbEntity
  8
LC-001-100-D00-0
 62
     7
370
    50
100
AcDbLine
 10
70.48587
 20
304.515277
 30
0.0
 11
70.48587
 21
304.515277
 31
0.0
  0
LINE
  5
23E
330
234
100
AcDbEntity
  8
LC-001-100-D00-0
 62
     7
370
    50
100
AcDbLine
 10
70.48587
 20
304.515277
 30
0.0
 11
70.449287
 21
304.515277
 31
0.0
  0
ENDBLK
  5
236
330
234
100
AcDbEntity
  8
0
100
AcDbBlockEnd
  0
BLOCK
  5
372
330
371
100
AcDbEntity
  8
0
100
AcDbBlockBegin
  2
POLY12
 70
     0
 71
     0
 10
0.0
 20
0.0
 30
0.0
  3
POLY12
  1

  4
POLY12
  0
LINE
  5
374
330
371
100
AcDbEntity
  8
LC-001-100-D00-0
 62
     7
370
    50
100
AcDbLine
 10
152.634845
 20
306.894273
 30
0.0
 11
152.634845
 21
306.894273
 31
0.0
  0
LINE
  5
375
330
371
100
AcDbEntity
  8
LC-001-100-D00-0
 62
     7
370
    50
100
AcDbLine
 10
152.634845
 20
306.894273
 30
0.0
 11
152.634845
 21
306.902685
 31
0.0
  0
LINE
  5
376
330
371
100
AcDbEntity
  8
LC-001-100-D00-0
 62
     7
370
    50
100
AcDbLine
 10
152.634845
 20
306.902685
 30
0.0
 11
152.634845
 21
306.902685
 31
0.0
  0
LINE
  5
377
330
371
100
AcDbEntity
  8
LC-001-100-D00-0
 62
     7
370
    50
100
AcDbLine
 10
152.634845
 20
306.902685
 30
0.0
 11
152.634845
 21
306.914091
 31
0.0
  0
LINE
  5
378
330
371
100
AcDbEntity
  8
LC-001-100-D00-0
 62
     7
370
    50
100
AcDbLine
 10
152.634845
 20
306.914091
 30
0.0
 11
152.634845
 21
306.914091
 31
0.0
  0
LINE
  5
379
330
371
100
AcDbEntity
  8
LC-001-100-D00-0
 62
     7
370
    50
100
AcDbLine
 10
152.634845
 20
306.914091
 30
0.0
 11
152.634845
 21
306.91503
 31
0.0
  0
LINE
  5
37A
330
371
100
AcDbEntity
  8
LC-001-100-D00-0
 62
     7
370
    50
100
AcDbLine
 10
152.634845
 20
306.91503
 30
0.0
 11
152.634845
 21
306.91503
 31
0.0
  0
LINE
  5
37B
330
371
100
AcDbEntity
  8
LC-001-100-D00-0
 62
     7
370
    50
100
AcDbLine
 10
152.634845
 20
306.91503
 30
0.0
 11
152.634845
 21
306.915276
 31
0.0
  0
ENDBLK
  5
373
330
371
100
AcDbEntity
  8
0
100
AcDbBlockEnd
  0
BLOCK
  5
37F
330
37E
100
AcDbEntity
  8
0
100
AcDbBlockBegin
  2
POLY13
 70
     0
 71
     0
 10
0.0
 20
0.0
 30
0.0
  3
POLY13
  1

  4
POLY13
  0
LINE
  5
381
330
37E
100
AcDbEntity
  8
LC-001-100-D00-0
 62
     7
370
    50
100
AcDbLine
 10
151.634845
 20
306.915276
 30
0.0
 11
151.634845
 21
306.915276
 31
0.0
  0
LINE
  5
382
330
37E
100
AcDbEntity
  8
LC-001-100-D00-0
 62
     7
370
    50
100
AcDbLine
 10
151.634845
 20
306.915276
 30
0.0
 11
151.634845
 21
306.913287
 31
0.0
  0
LINE
  5
383
330
37E
100
AcDbEntity
  8
LC-001-100-D00-0
 62
     7
370
    50
100
AcDbLine
 10
151.634845
 20
306.913287
 30
0.0
 11
151.634845
 21
306.913287
 31
0.0
  0
LINE
  5
384
330
37E
100
AcDbEntity
  8
LC-001-100-D00-0
 62
     7
370
    50
100
AcDbLine
 10
151.634845
 20
306.913287
 30
0.0
 11
151.634845
 21
306.91059
 31
0.0
  0
LINE
  5
385
330
37E
100
AcDbEntity
  8
LC-001-100-D00-0
 62
     7
370
    50
100
AcDbLine
 10
151.634845
 20
306.91059
 30
0.0
 11
151.634845
 21
306.91059
 31
0.0
  0
LINE
  5
386
330
37E
100
AcDbEntity
  8
LC-001-100-D00-0
 62
     7
370
    50
100
AcDbLine
 10
151.634845
 20
306.91059
 30
0.0
 11
151.634845
 21
306.897666
 31
0.0
  0
LINE
  5
387
330
37E
100
AcDbEntity
  8
LC-001-100-D00-0
 62
     7
370
    50
100
AcDbLine
 10
151.634845
 20
306.897666
 30
0.0
 11
151.634845
 21
306.897666
 31
0.0
  0
LINE
  5
388
330
37E
100
AcDbEntity
  8
LC-001-100-D00-0
 62
     7
370
    50
100
AcDbLine
 10
151.634845
 20
306.897666
 30
0.0
 11
151.634845
 21
306.894273
 31
0.0
  0
ENDBLK
  5
380
330
37E
100
AcDbEntity
  8
0
100
AcDbBlockEnd
  0
BLOCK
  5
391
330
390
100
AcDbEntity
  8
0
100
AcDbBlockBegin
  2
POLY14
 70
     0
 71
     0
 10
0.0
 20
0.0
 30
0.0
  3
POLY14
  1

  4
POLY14
  0
LINE
  5
393
330
390
100
AcDbEntity
  8
LC-001-100-D00-0
 62
     7
370
    50
100
AcDbLine
 10
149.182412
 20
211.715274
 30
0.0
 11
149.182412
 21
211.715274
 31
0.0
  0
LINE
  5
394
330
390
100
AcDbEntity
  8
LC-001-100-D00-0
 62
     7
370
    50
100
AcDbLine
 10
149.182412
 20
211.715274
 30
0.0
 11
149.159492
 21
211.717263
 31
0.0
  0
LINE
  5
395
330
390
100
AcDbEntity
  8
LC-001-100-D00-0
 62
     7
370
    50
100
AcDbLine
 10
149.159492
 20
211.717263
 30
0.0
 11
149.159492
 21
211.717263
 31
0.0
  0
LINE
  5
396
330
390
100
AcDbEntity
  8
LC-001-100-D00-0
 62
     7
370
    50
100
AcDbLine
 10
149.159492
 20
211.717263
 30
0.0
 11
149.128414
 21
211.71996
 31
0.0
  0
LINE
  5
397
330
390
100
AcDbEntity
  8
LC-001-100-D00-0
 62
     7
370
    50
100
AcDbLine
 10
149.128414
 20
211.71996
 30
0.0
 11
149.128414
 21
211.71996
 31
0.0
  0
LINE
  5
398
330
390
100
AcDbEntity
  8
LC-001-100-D00-0
 62
     7
370
    50
100
AcDbLine
 10
149.128414
 20
211.71996
 30
0.0
 11
149.100274
 21
211.732884
 31
0.0
  0
LINE
  5
399
330
390
100
AcDbEntity
  8
LC-001-100-D00-0
 62
     7
370
    50
100
AcDbLine
 10
149.100274
 20
211.732884
 30
0.0
 11
149.100274
 21
211.732884
 31
0.0
  0
LINE
  5
39A
330
390
100
AcDbEntity
  8
LC-001-100-D00-0
 62
     7
370
    50
100
AcDbLine
 10
149.100274
 20
211.732884
 30
0.0
 11
149.092887
 21
211.736277
 31
0.0
  0
ENDBLK
  5
392
330
390
100
AcDbEntity
  8
0
100
AcDbBlockEnd
  0
BLOCK
  5
39D
330
39C
100
AcDbEntity
  8
0
100
AcDbBlockBegin
  2
POLY15
 70
     0
 71
     0
 10
0.0
 20
0.0
 30
0.0
  3
POLY15
  1

  4
POLY15
  0
LINE
  5
39F
330
39C
100
AcDbEntity
  8
LC-001-100-D00-0
 62
     7
370
    50
100
AcDbLine
 10
155.031245
 20
211.736277
 30
0.0
 11
155.031245
 21
211.736277
 31
0.0
  0
LINE
  5
3A0
330
39C
100
AcDbEntity
  8
LC-001-100-D00-0
 62
     7
370
    50
100
AcDbLine
 10
155.031245
 20
211.736277
 30
0.0
 11
155.009801
 21
211.727865
 31
0.0
  0
LINE
  5
3A1
330
39C
100
AcDbEntity
  8
LC-001-100-D00-0
 62
     7
370
    50
100
AcDbLine
 10
155.009801
 20
211.727865
 30
0.0
 11
155.009801
 21
211.727865
 31
0.0
  0
LINE
  5
3A2
330
39C
100
AcDbEntity
  8
LC-001-100-D00-0
 62
     7
370
    50
100
AcDbLine
 10
155.009801
 20
211.727865
 30
0.0
 11
154.980725
 21
211.716459
 31
0.0
  0
LINE
  5
3A3
330
39C
100
AcDbEntity
  8
LC-001-100-D00-0
 62
     7
370
    50
100
AcDbLine
 10
154.980725
 20
211.716459
 30
0.0
 11
154.980725
 21
211.716459
 31
0.0
  0
LINE
  5
3A4
330
39C
100
AcDbEntity
  8
LC-001-100-D00-0
 62
     7
370
    50
100
AcDbLine
 10
154.980725
 20
211.716459
 30
0.0
 11
154.949831
 21
211.71552
 31
0.0
  0
LINE
  5
3A5
330
39C
100
AcDbEntity
  8
LC-001-100-D00-0
 62
     7
370
    50
100
AcDbLine
 10
154.949831
 20
211.71552
 30
0.0
 11
154.949831
 21
211.71552
 31
0.0
  0
LINE
  5
3A6
330
39C
100
AcDbEntity
  8
LC-001-100-D00-0
 62
     7
370
    50
100
AcDbLine
 10
154.949831
 20
211.71552
 30
0.0
 11
154.941721
 21
211.715274
 31
0.0
  0
ENDBLK
  5
39E
330
39C
100
AcDbEntity
  8
0
100
AcDbBlockEnd
  0
BLOCK
  5
3A9
330
3A8
100
AcDbEntity
  8
0
100
AcDbBlockBegin
  2
POLY16
 70
     0
 71
     0
 10
0.0
 20
0.0
 30
0.0
  3
POLY16
  1

  4
POLY16
  0
LINE
  5
3AB
330
3A8
100
AcDbEntity
  8
LC-001-100-D00-0
 62
     7
370
    50
100
AcDbLine
 10
155.087278
 20
211.715274
 30
0.0
 11
155.087278
 21
211.715274
 31
0.0
  0
LINE
  5
3AC
330
3A8
100
AcDbEntity
  8
LC-001-100-D00-0
 62
     7
370
    50
100
AcDbLine
 10
155.087278
 20
211.715274
 30
0.0
 11
155.110198
 21
211.717263
 31
0.0
  0
LINE
  5
3AD
330
3A8
100
AcDbEntity
  8
LC-001-100-D00-0
 62
     7
370
    50
100
AcDbLine
 10
155.110198
 20
211.717263
 30
0.0
 11
155.110198
 21
211.717263
 31
0.0
  0
LINE
  5
3AE
330
3A8
100
AcDbEntity
  8
LC-001-100-D00-0
 62
     7
370
    50
100
AcDbLine
 10
155.110198
 20
211.717263
 30
0.0
 11
155.141275
 21
211.71996
 31
0.0
  0
LINE
  5
3AF
330
3A8
100
AcDbEntity
  8
LC-001-100-D00-0
 62
     7
370
    50
100
AcDbLine
 10
155.141275
 20
211.71996
 30
0.0
 11
155.141275
 21
211.71996
 31
0.0
  0
LINE
  5
3B0
330
3A8
100
AcDbEntity
  8
LC-001-100-D00-0
 62
     7
370
    50
100
AcDbLine
 10
155.141275
 20
211.71996
 30
0.0
 11
155.169416
 21
211.732884
 31
0.0
  0
LINE
  5
3B1
330
3A8
100
AcDbEntity
  8
LC-001-100-D00-0
 62
     7
370
    50
100
AcDbLine
 10
155.169416
 20
211.732884
 30
0.0
 11
155.169416
 21
211.732884
 31
0.0
  0
LINE
  5
3B2
330
3A8
100
AcDbEntity
  8
LC-001-100-D00-0
 62
     7
370
    50
100
AcDbLine
 10
155.169416
 20
211.732884
 30
0.0
 11
155.176802
 21
211.736277
 31
0.0
  0
ENDBLK
  5
3AA
330
3A8
100
AcDbEntity
  8
0
100
AcDbBlockEnd
  0
BLOCK
  5
3B6
330
3B5
100
AcDbEntity
  8
0
100
AcDbBlockBegin
  2
KLON1
 70
     0
 71
     0
 10
0.0
 20
0.0
 30
0.0
  3
KLON1
  1

  4
KLON1
  0
LINE
  5
3B8
330
3B5
100
AcDbEntity
  8
LC-001-100-D00-0
 62
     7
370
    50
100
AcDbLine
 10
330.469967
 20
203.315275
 30
0.0
 11
332.048497
 21
204.893805
 31
0.0
  0
LINE
  5
3B9
330
3B5
100
AcDbEntity
  8
LC-001-100-D00-0
 62
     7
370
    50
100
AcDbLine
 10
321.489711
 20
203.315275
 30
0.0
 11
324.489711
 21
206.315275
 31
0.0
  0
ENDBLK
  5
3B7
330
3B5
100
AcDbEntity
  8
0
100
AcDbBlockEnd
  0
BLOCK
  5
3BC
330
3BB
100
AcDbEntity
  8
0
100
AcDbBlockBegin
  2
KLON2
 70
     0
 71
     0
 10
0.0
 20
0.0
 30
0.0
  3
KLON2
  1

  4
KLON2
  0
LINE
  5
3BE
330
3BB
100
AcDbEntity
  8
LC-001-100-D00-0
 62
     7
370
    50
100
AcDbLine
 10
-19.760022
 20
203.315275
 30
0.0
 11
-16.760022
 21
206.315275
 31
0.0
  0
LINE
  5
3BF
330
3BB
100
AcDbEntity
  8
LC-001-100-D00-0
 62
     7
370
    50
100
AcDbLine
 10
-27.865155
 20
204.190398
 30
0.0
 11
-25.740278
 21
206.315275
 31
0.0
  0
ENDBLK
  5
3BD
330
3BB
100
AcDbEntity
  8
0
100
AcDbBlockEnd
  0
BLOCK
  5
3C2
330
3C1
100
AcDbEntity
  8
0
100
AcDbBlockBegin
  2
KLON3
 70
     0
 71
     0
 10
0.0
 20
0.0
 30
0.0
  3
KLON3
  1

  4
KLON3
  0
LINE
  5
3C4
330
3C1
100
AcDbEntity
  8
LC-001-100-D00-0
 62
     7
370
    25
100
AcDbLine
 10
116.969967
 20
-10.184725
 30
0.0
 11
118.134845
 21
-9.019847
 31
0.0
  0
LINE
  5
3C5
330
3C1
100
AcDbEntity
  8
LC-001-100-D00-0
 62
     7
370
    25
100
AcDbLine
 10
114.634845
 20
-3.539591
 30
0.0
 11
118.134845
 21
-0.039591
 31
0.0
  0
LINE
  5
3C6
330
3C1
100
AcDbEntity
  8
LC-001-100-D00-0
 62
     7
370
    25
100
AcDbLine
 10
114.634845
 20
5.440665
 30
0.0
 11
118.134845
 21
8.940665
 31
0.0
  0
LINE
  5
3C7
330
3C1
100
AcDbEntity
  8
LC-001-100-D00-0
 62
     7
370
    25
100
AcDbLine
 10
114.634845
 20
14.420921
 30
0.0
 11
118.134845
 21
17.920921
 31
0.0
  0
LINE
  5
3C8
330
3C1
100
AcDbEntity
  8
LC-001-100-D00-0
 62
     7
370
    25
100
AcDbLine
 10
114.634845
 20
23.401177
 30
0.0
 11
118.134845
 21
26.901177
 31
0.0
  0
LINE
  5
3C9
330
3C1
100
AcDbEntity
  8
LC-001-100-D00-0
 62
     7
370
    25
100
AcDbLine
 10
114.634845
 20
32.381434
 30
0.0
 11
118.134845
 21
35.881434
 31
0.0
  0
LINE
  5
3CA
330
3C1
100
AcDbEntity
  8
LC-001-100-D00-0
 62
     7
370
    25
100
AcDbLine
 10
114.634845
 20
41.36169
 30
0.0
 11
118.134845
 21
44.86169
 31
0.0
  0
LINE
  5
3CB
330
3C1
100
AcDbEntity
  8
LC-001-100-D00-0
 62
     7
370
    25
100
AcDbLine
 10
114.634845
 20
50.341946
 30
0.0
 11
118.134845
 21
53.841946
 31
0.0
  0
LINE
  5
3CC
330
3C1
100
AcDbEntity
  8
LC-001-100-D00-0
 62
     7
370
    25
100
AcDbLine
 10
114.634845
 20
59.322202
 30
0.0
 11
118.134845
 21
62.822202
 31
0.0
  0
LINE
  5
3CD
330
3C1
100
AcDbEntity
  8
LC-001-100-D00-0
 62
     7
370
    25
100
AcDbLine
 10
114.634845
 20
68.302458
 30
0.0
 11
118.134845
 21
71.802458
 31
0.0
  0
LINE
  5
3CE
330
3C1
100
AcDbEntity
  8
LC-001-100-D00-0
 62
     7
370
    25
100
AcDbLine
 10
114.634845
 20
77.282714
 30
0.0
 11
118.134845
 21
80.782714
 31
0.0
  0
LINE
  5
3CF
330
3C1
100
AcDbEntity
  8
LC-001-100-D00-0
 62
     7
370
    25
100
AcDbLine
 10
114.634845
 20
86.26297
 30
0.0
 11
118.134845
 21
89.76297
 31
0.0
  0
LINE
  5
3D0
330
3C1
100
AcDbEntity
  8
LC-001-100-D00-0
 62
     7
370
    25
100
AcDbLine
 10
114.634845
 20
95.243226
 30
0.0
 11
118.134845
 21
98.743226
 31
0.0
  0
LINE
  5
3D1
330
3C1
100
AcDbEntity
  8
LC-001-100-D00-0
 62
     7
370
    25
100
AcDbLine
 10
114.634845
 20
104.223482
 30
0.0
 11
118.134845
 21
107.723482
 31
0.0
  0
LINE
  5
3D2
330
3C1
100
AcDbEntity
  8
LC-001-100-D00-0
 62
     7
370
    25
100
AcDbLine
 10
114.634845
 20
113.203739
 30
0.0
 11
118.134845
 21
116.703739
 31
0.0
  0
LINE
  5
3D3
330
3C1
100
AcDbEntity
  8
LC-001-100-D00-0
 62
     7
370
    25
100
AcDbLine
 10
111.766125
 20
119.315275
 30
0.0
 11
114.766125
 21
122.315275
 31
0.0
  0
LINE
  5
3D4
330
3C1
100
AcDbEntity
  8
LC-001-100-D00-0
 62
     7
370
    25
100
AcDbLine
 10
102.785869
 20
119.315275
 30
0.0
 11
105.785869
 21
122.315275
 31
0.0
  0
LINE
  5
3D5
330
3C1
100
AcDbEntity
  8
LC-001-100-D00-0
 62
     7
370
    25
100
AcDbLine
 10
93.805613
 20
119.315275
 30
0.0
 11
96.805613
 21
122.315275
 31
0.0
  0
LINE
  5
3D6
330
3C1
100
AcDbEntity
  8
LC-001-100-D00-0
 62
     7
370
    25
100
AcDbLine
 10
85.634845
 20
120.124763
 30
0.0
 11
88.634845
 21
123.124763
 31
0.0
  0
LINE
  5
3D7
330
3C1
100
AcDbEntity
  8
LC-001-100-D00-0
 62
     7
370
    25
100
AcDbLine
 10
85.634845
 20
129.105019
 30
0.0
 11
88.634845
 21
132.105019
 31
0.0
  0
LINE
  5
3D8
330
3C1
100
AcDbEntity
  8
LC-001-100-D00-0
 62
     7
370
    25
100
AcDbLine
 10
72.134845
 20
124.585275
 30
0.0
 11
75.034753
 21
127.485183
 31
0.0
  0
LINE
  5
3D9
330
3C1
100
AcDbEntity
  8
LC-001-100-D00-0
 62
     7
370
    25
100
AcDbLine
 10
85.634845
 20
138.085275
 30
0.0
 11
88.634845
 21
141.085275
 31
0.0
  0
LINE
  5
3DA
330
3C1
100
AcDbEntity
  8
LC-001-100-D00-0
 62
     7
370
    25
100
AcDbLine
 10
72.134845
 20
133.565531
 30
0.0
 11
75.089948
 21
136.520634
 31
0.0
  0
LINE
  5
3DB
330
3C1
100
AcDbEntity
  8
LC-001-100-D00-0
 62
     7
370
    25
100
AcDbLine
 10
85.634845
 20
147.065531
 30
0.0
 11
88.634845
 21
150.065531
 31
0.0
  0
LINE
  5
3DC
330
3C1
100
AcDbEntity
  8
LC-001-100-D00-0
 62
     7
370
    25
100
AcDbLine
 10
72.134845
 20
142.545788
 30
0.0
 11
75.145143
 21
145.556086
 31
0.0
  0
LINE
  5
3DD
330
3C1
100
AcDbEntity
  8
LC-001-100-D00-0
 62
     7
370
    25
100
AcDbLine
 10
84.604332
 20
155.015275
 30
0.0
 11
88.025057
 21
158.436
 31
0.0
  0
LINE
  5
3DE
330
3C1
100
AcDbEntity
  8
LC-001-100-D00-0
 62
     7
370
    25
100
AcDbLine
 10
72.134845
 20
151.526044
 30
0.0
 11
75.200338
 21
154.591537
 31
0.0
  0
LINE
  5
3DF
330
3C1
100
AcDbEntity
  8
LC-001-100-D00-0
 62
     7
370
    25
100
AcDbLine
 10
79.834845
 20
159.226044
 30
0.0
 11
82.634845
 21
162.026044
 31
0.0
  0
LINE
  5
3E0
330
3C1
100
AcDbEntity
  8
LC-001-100-D00-0
 62
     7
370
    25
100
AcDbLine
 10
72.134845
 20
160.5063
 30
0.0
 11
75.255533
 21
163.626988
 31
0.0
  0
LINE
  5
3E1
330
3C1
100
AcDbEntity
  8
LC-001-100-D00-0
 62
     7
370
    25
100
AcDbLine
 10
79.801165
 20
168.17262
 30
0.0
 11
82.634845
 21
171.0063
 31
0.0
  0
LINE
  5
3E2
330
3C1
100
AcDbEntity
  8
LC-001-100-D00-0
 62
     7
370
    25
100
AcDbLine
 10
72.134845
 20
169.486556
 30
0.0
 11
75.634845
 21
172.986556
 31
0.0
  0
LINE
  5
3E3
330
3C1
100
AcDbEntity
  8
LC-001-100-D00-0
 62
     7
370
    25
100
AcDbLine
 10
72.134845
 20
178.466812
 30
0.0
 11
77.007934
 21
183.339901
 31
0.0
  0
LINE
  5
3E4
330
3C1
100
AcDbEntity
  8
LC-001-100-D00-0
 62
     7
370
    25
100
AcDbLine
 10
71.52478
 20
186.837003
 30
0.0
 11
73.720932
 21
189.033155
 31
0.0
  0
LINE
  5
3E5
330
3C1
100
AcDbEntity
  8
LC-001-100-D00-0
 62
     7
370
    25
100
AcDbLine
 10
70.634845
 20
194.927324
 30
0.0
 11
73.384845
 21
197.677324
 31
0.0
  0
LINE
  5
3E6
330
3C1
100
AcDbEntity
  8
LC-001-100-D00-0
 62
     7
370
    25
100
AcDbLine
 10
69.838692
 20
203.111428
 30
0.0
 11
72.899773
 21
206.172508
 31
0.0
  0
LINE
  5
3E7
330
3C1
100
AcDbEntity
  8
LC-001-100-D00-0
 62
     7
370
    25
100
AcDbLine
 10
61.062283
 20
203.315275
 30
0.0
 11
64.062283
 21
206.315275
 31
0.0
  0
LINE
  5
3E8
330
3C1
100
AcDbEntity
  8
LC-001-100-D00-0
 62
     7
370
    25
100
AcDbLine
 10
52.082027
 20
203.315275
 30
0.0
 11
55.082027
 21
206.315275
 31
0.0
  0
LINE
  5
3E9
330
3C1
100
AcDbEntity
  8
LC-001-100-D00-0
 62
     7
370
    25
100
AcDbLine
 10
43.101771
 20
203.315275
 30
0.0
 11
46.101771
 21
206.315275
 31
0.0
  0
LINE
  5
3EA
330
3C1
100
AcDbEntity
  8
LC-001-100-D00-0
 62
     7
370
    25
100
AcDbLine
 10
34.121515
 20
203.315275
 30
0.0
 11
37.121515
 21
206.315275
 31
0.0
  0
LINE
  5
3EB
330
3C1
100
AcDbEntity
  8
LC-001-100-D00-0
 62
     7
370
    25
100
AcDbLine
 10
25.141259
 20
203.315275
 30
0.0
 11
28.141259
 21
206.315275
 31
0.0
  0
LINE
  5
3EC
330
3C1
100
AcDbEntity
  8
LC-001-100-D00-0
 62
     7
370
    25
100
AcDbLine
 10
16.161003
 20
203.315275
 30
0.0
 11
19.161003
 21
206.315275
 31
0.0
  0
LINE
  5
3ED
330
3C1
100
AcDbEntity
  8
LC-001-100-D00-0
 62
     7
370
    25
100
AcDbLine
 10
7.180747
 20
203.315275
 30
0.0
 11
10.180747
 21
206.315275
 31
0.0
  0
LINE
  5
3EE
330
3C1
100
AcDbEntity
  8
LC-001-100-D00-0
 62
     7
370
    25
100
AcDbLine
 10
-1.799509
 20
203.315275
 30
0.0
 11
1.200491
 21
206.315275
 31
0.0
  0
ENDBLK
  5
3C3
330
3C1
100
AcDbEntity
  8
0
100
AcDbBlockEnd
  0
BLOCK
  5
3F1
330
3F0
100
AcDbEntity
  8
0
100
AcDbBlockBegin
  2
KLON4
 70
     0
 71
     0
 10
0.0
 20
0.0
 30
0.0
  3
KLON4
  1

  4
KLON4
  0
LINE
  5
3F3
330
3F0
100
AcDbEntity
  8
LC-001-100-D00-0
 62
     7
370
    25
100
AcDbLine
 10
186.134845
 20
-3.88164
 30
0.0
 11
189.634845
 21
-0.38164
 31
0.0
  0
LINE
  5
3F4
330
3F0
100
AcDbEntity
  8
LC-001-100-D00-0
 62
     7
370
    25
100
AcDbLine
 10
186.134845
 20
5.098616
 30
0.0
 11
189.634845
 21
8.598616
 31
0.0
  0
LINE
  5
3F5
330
3F0
100
AcDbEntity
  8
LC-001-100-D00-0
 62
     7
370
    25
100
AcDbLine
 10
186.134845
 20
14.078872
 30
0.0
 11
189.634845
 21
17.578872
 31
0.0
  0
LINE
  5
3F6
330
3F0
100
AcDbEntity
  8
LC-001-100-D00-0
 62
     7
370
    25
100
AcDbLine
 10
186.134845
 20
23.059128
 30
0.0
 11
189.634845
 21
26.559128
 31
0.0
  0
LINE
  5
3F7
330
3F0
100
AcDbEntity
  8
LC-001-100-D00-0
 62
     7
370
    25
100
AcDbLine
 10
186.134845
 20
32.039385
 30
0.0
 11
189.634845
 21
35.539385
 31
0.0
  0
LINE
  5
3F8
330
3F0
100
AcDbEntity
  8
LC-001-100-D00-0
 62
     7
370
    25
100
AcDbLine
 10
186.134845
 20
41.019641
 30
0.0
 11
189.634845
 21
44.519641
 31
0.0
  0
LINE
  5
3F9
330
3F0
100
AcDbEntity
  8
LC-001-100-D00-0
 62
     7
370
    25
100
AcDbLine
 10
186.134845
 20
49.999897
 30
0.0
 11
189.634845
 21
53.499897
 31
0.0
  0
LINE
  5
3FA
330
3F0
100
AcDbEntity
  8
LC-001-100-D00-0
 62
     7
370
    25
100
AcDbLine
 10
186.134845
 20
58.980153
 30
0.0
 11
189.634845
 21
62.480153
 31
0.0
  0
LINE
  5
3FB
330
3F0
100
AcDbEntity
  8
LC-001-100-D00-0
 62
     7
370
    25
100
AcDbLine
 10
186.134845
 20
67.960409
 30
0.0
 11
189.634845
 21
71.460409
 31
0.0
  0
LINE
  5
3FC
330
3F0
100
AcDbEntity
  8
LC-001-100-D00-0
 62
     7
370
    25
100
AcDbLine
 10
186.134845
 20
76.940665
 30
0.0
 11
189.634845
 21
80.440665
 31
0.0
  0
LINE
  5
3FD
330
3F0
100
AcDbEntity
  8
LC-001-100-D00-0
 62
     7
370
    25
100
AcDbLine
 10
229.280137
 20
120.085957
 30
0.0
 11
232.134845
 21
122.940665
 31
0.0
  0
LINE
  5
3FE
330
3F0
100
AcDbEntity
  8
LC-001-100-D00-0
 62
     7
370
    25
100
AcDbLine
 10
186.134845
 20
85.920921
 30
0.0
 11
189.634845
 21
89.420921
 31
0.0
  0
LINE
  5
3FF
330
3F0
100
AcDbEntity
  8
LC-001-100-D00-0
 62
     7
370
    25
100
AcDbLine
 10
229.225612
 20
129.011689
 30
0.0
 11
232.134845
 21
131.920921
 31
0.0
  0
LINE
  5
400
330
3F0
100
AcDbEntity
  8
LC-001-100-D00-0
 62
     7
370
    25
100
AcDbLine
 10
303.529199
 20
203.315275
 30
0.0
 11
306.529199
 21
206.315275
 31
0.0
  0
LINE
  5
401
330
3F0
100
AcDbEntity
  8
LC-001-100-D00-0
 62
     7
370
    25
100
AcDbLine
 10
186.134845
 20
94.901177
 30
0.0
 11
189.634845
 21
98.401177
 31
0.0
  0
LINE
  5
402
330
3F0
100
AcDbEntity
  8
LC-001-100-D00-0
 62
     7
370
    25
100
AcDbLine
 10
210.548943
 20
119.315275
 30
0.0
 11
213.548943
 21
122.315275
 31
0.0
  0
LINE
  5
403
330
3F0
100
AcDbEntity
  8
LC-001-100-D00-0
 62
     7
370
    25
100
AcDbLine
 10
215.634845
 20
124.401177
 30
0.0
 11
218.634845
 21
127.401177
 31
0.0
  0
LINE
  5
404
330
3F0
100
AcDbEntity
  8
LC-001-100-D00-0
 62
     7
370
    25
100
AcDbLine
 10
229.171087
 20
137.93742
 30
0.0
 11
232.134845
 21
140.901177
 31
0.0
  0
LINE
  5
405
330
3F0
100
AcDbEntity
  8
LC-001-100-D00-0
 62
     7
370
    25
100
AcDbLine
 10
294.548943
 20
203.315275
 30
0.0
 11
297.548943
 21
206.315275
 31
0.0
  0
LINE
  5
406
330
3F0
100
AcDbEntity
  8
LC-001-100-D00-0
 62
     7
370
    25
100
AcDbLine
 10
186.134845
 20
103.881434
 30
0.0
 11
189.634845
 21
107.381434
 31
0.0
  0
LINE
  5
407
330
3F0
100
AcDbEntity
  8
LC-001-100-D00-0
 62
     7
370
    25
100
AcDbLine
 10
201.568686
 20
119.315275
 30
0.0
 11
204.568686
 21
122.315275
 31
0.0
  0
LINE
  5
408
330
3F0
100
AcDbEntity
  8
LC-001-100-D00-0
 62
     7
370
    25
100
AcDbLine
 10
215.634845
 20
133.381434
 30
0.0
 11
218.634845
 21
136.381434
 31
0.0
  0
LINE
  5
409
330
3F0
100
AcDbEntity
  8
LC-001-100-D00-0
 62
     7
370
    25
100
AcDbLine
 10
229.116562
 20
146.863151
 30
0.0
 11
232.134845
 21
149.881434
 31
0.0
  0
LINE
  5
40A
330
3F0
100
AcDbEntity
  8
LC-001-100-D00-0
 62
     7
370
    25
100
AcDbLine
 10
285.568686
 20
203.315275
 30
0.0
 11
288.568686
 21
206.315275
 31
0.0
  0
LINE
  5
40B
330
3F0
100
AcDbEntity
  8
LC-001-100-D00-0
 62
     7
370
    25
100
AcDbLine
 10
186.134845
 20
112.86169
 30
0.0
 11
189.634845
 21
116.36169
 31
0.0
  0
LINE
  5
40C
330
3F0
100
AcDbEntity
  8
LC-001-100-D00-0
 62
     7
370
    25
100
AcDbLine
 10
192.58843
 20
119.315275
 30
0.0
 11
195.58843
 21
122.315275
 31
0.0
  0
LINE
  5
40D
330
3F0
100
AcDbEntity
  8
LC-001-100-D00-0
 62
     7
370
    25
100
AcDbLine
 10
215.634845
 20
142.36169
 30
0.0
 11
218.634845
 21
145.36169
 31
0.0
  0
LINE
  5
40E
330
3F0
100
AcDbEntity
  8
LC-001-100-D00-0
 62
     7
370
    25
100
AcDbLine
 10
229.062038
 20
155.788882
 30
0.0
 11
232.134845
 21
158.86169
 31
0.0
  0
LINE
  5
40F
330
3F0
100
AcDbEntity
  8
LC-001-100-D00-0
 62
     7
370
    25
100
AcDbLine
 10
276.58843
 20
203.315275
 30
0.0
 11
279.58843
 21
206.315275
 31
0.0
  0
LINE
  5
410
330
3F0
100
AcDbEntity
  8
LC-001-100-D00-0
 62
     7
370
    25
100
AcDbLine
 10
186.134845
 20
121.841946
 30
0.0
 11
186.608174
 21
122.315275
 31
0.0
  0
LINE
  5
411
330
3F0
100
AcDbEntity
  8
LC-001-100-D00-0
 62
     7
370
    25
100
AcDbLine
 10
215.634845
 20
151.341946
 30
0.0
 11
218.726589
 21
154.43369
 31
0.0
  0
LINE
  5
412
330
3F0
100
AcDbEntity
  8
LC-001-100-D00-0
 62
     7
370
    25
100
AcDbLine
 10
219.21643
 20
154.923531
 30
0.0
 11
224.434845
 21
160.141946
 31
0.0
  0
LINE
  5
413
330
3F0
100
AcDbEntity
  8
LC-001-100-D00-0
 62
     7
370
    25
100
AcDbLine
 10
229.007513
 20
164.714614
 30
0.0
 11
232.134845
 21
167.841946
 31
0.0
  0
LINE
  5
414
330
3F0
100
AcDbEntity
  8
LC-001-100-D00-0
 62
     7
370
    25
100
AcDbLine
 10
267.608174
 20
203.315275
 30
0.0
 11
270.608174
 21
206.315275
 31
0.0
  0
LINE
  5
415
330
3F0
100
AcDbEntity
  8
LC-001-100-D00-0
 62
     7
370
    25
100
AcDbLine
 10
221.634845
 20
166.322202
 30
0.0
 11
226.827918
 21
171.515275
 31
0.0
  0
LINE
  5
416
330
3F0
100
AcDbEntity
  8
LC-001-100-D00-0
 62
     7
370
    25
100
AcDbLine
 10
228.634845
 20
173.322202
 30
0.0
 11
232.134845
 21
176.822202
 31
0.0
  0
LINE
  5
417
330
3F0
100
AcDbEntity
  8
LC-001-100-D00-0
 62
     7
370
    25
100
AcDbLine
 10
258.627918
 20
203.315275
 30
0.0
 11
261.627918
 21
206.315275
 31
0.0
  0
LINE
  5
418
330
3F0
100
AcDbEntity
  8
LC-001-100-D00-0
 62
     7
370
    25
100
AcDbLine
 10
227.634845
 20
181.302458
 30
0.0
 11
232.165061
 21
185.832674
 31
0.0
  0
LINE
  5
419
330
3F0
100
AcDbEntity
  8
LC-001-100-D00-0
 62
     7
370
    25
100
AcDbLine
 10
249.647662
 20
203.315275
 30
0.0
 11
252.647662
 21
206.315275
 31
0.0
  0
LINE
  5
41A
330
3F0
100
AcDbEntity
  8
LC-001-100-D00-0
 62
     7
370
    25
100
AcDbLine
 10
230.884845
 20
193.532714
 30
0.0
 11
233.634845
 21
196.282714
 31
0.0
  0
LINE
  5
41B
330
3F0
100
AcDbEntity
  8
LC-001-100-D00-0
 62
     7
370
    25
100
AcDbLine
 10
240.667406
 20
203.315275
 30
0.0
 11
243.667406
 21
206.315275
 31
0.0
  0
LINE
  5
41C
330
3F0
100
AcDbEntity
  8
LC-001-100-D00-0
 62
     7
370
    25
100
AcDbLine
 10
230.884845
 20
202.51297
 30
0.0
 11
234.68715
 21
206.315275
 31
0.0
  0
ENDBLK
  5
3F2
330
3F0
100
AcDbEntity
  8
0
100
AcDbBlockEnd
  0
BLOCK
  5
41F
330
41E
100
AcDbEntity
  8
0
100
AcDbBlockBegin
  2
KLON5
 70
     0
 71
     0
 10
0.0
 20
0.0
 30
0.0
  3
KLON5
  1

  4
KLON5
  0
LINE
  5
421
330
41E
100
AcDbEntity
  8
LC-001-100-D00-0
 62
     7
370
    50
100
AcDbLine
 10
226.827918
 20
171.515275
 30
0.0
 11
229.384845
 21
174.072202
 31
0.0
  0
LINE
  5
422
330
41E
100
AcDbEntity
  8
LC-001-100-D00-0
 62
     7
370
    50
100
AcDbLine
 10
217.104443
 20
170.772056
 30
0.0
 11
223.347662
 21
177.015275
 31
0.0
  0
ENDBLK
  5
420
330
41E
100
AcDbEntity
  8
0
100
AcDbBlockEnd
  0
BLOCK
  5
425
330
424
100
AcDbEntity
  8
0
100
AcDbBlockBegin
  2
KLON6
 70
     0
 71
     0
 10
0.0
 20
0.0
 30
0.0
  3
KLON6
  1

  4
KLON6
  0
LINE
  5
427
330
424
100
AcDbEntity
  8
LC-001-100-D00-0
 62
     7
370
    50
100
AcDbLine
 10
83.384845
 20
171.7563
 30
0.0
 11
86.635842
 21
175.007297
 31
0.0
  0
LINE
  5
428
330
424
100
AcDbEntity
  8
LC-001-100-D00-0
 62
     7
370
    50
100
AcDbLine
 10
75.024204
 20
172.375915
 30
0.0
 11
79.663564
 21
177.015275
 31
0.0
  0
ENDBLK
  5
426
330
424
100
AcDbEntity
  8
0
100
AcDbBlockEnd
  0
BLOCK
  5
42B
330
42A
100
AcDbEntity
  8
0
100
AcDbBlockBegin
  2
KLON7
 70
     0
 71
     0
 10
0.0
 20
0.0
 30
0.0
  3
KLON7
  1

  4
KLON7
  0
LINE
  5
42D
330
42A
100
AcDbEntity
  8
LC-001-100-D00-0
 62
     7
370
    25
100
AcDbLine
 10
42.161003
 20
229.315275
 30
0.0
 11
46.070554
 21
233.224826
 31
0.0
  0
LINE
  5
42E
330
42A
100
AcDbEntity
  8
LC-001-100-D00-0
 62
     7
370
    25
100
AcDbLine
 10
33.180747
 20
229.315275
 30
0.0
 11
47.992993
 21
244.127521
 31
0.0
  0
LINE
  5
42F
330
42A
100
AcDbEntity
  8
LC-001-100-D00-0
 62
     7
370
    25
100
AcDbLine
 10
34.012273
 20
239.127057
 30
0.0
 11
49.915432
 21
255.030217
 31
0.0
  0
LINE
  5
430
330
42A
100
AcDbEntity
  8
LC-001-100-D00-0
 62
     7
370
    25
100
AcDbLine
 10
35.934712
 20
250.029753
 30
0.0
 11
51.837872
 21
265.932912
 31
0.0
  0
LINE
  5
431
330
42A
100
AcDbEntity
  8
LC-001-100-D00-0
 62
     7
370
    25
100
AcDbLine
 10
37.857152
 20
260.932448
 30
0.0
 11
53.760311
 21
276.835608
 31
0.0
  0
LINE
  5
432
330
42A
100
AcDbEntity
  8
LC-001-100-D00-0
 62
     7
370
    25
100
AcDbLine
 10
39.779591
 20
271.835144
 30
0.0
 11
55.68275
 21
287.738303
 31
0.0
  0
LINE
  5
433
330
42A
100
AcDbEntity
  8
LC-001-100-D00-0
 62
     7
370
    25
100
AcDbLine
 10
69.509722
 20
301.565275
 30
0.0
 11
72.259722
 21
304.315275
 31
0.0
  0
LINE
  5
434
330
42A
100
AcDbEntity
  8
LC-001-100-D00-0
 62
     7
370
    25
100
AcDbLine
 10
41.70203
 20
282.737839
 30
0.0
 11
57.60519
 21
298.640999
 31
0.0
  0
LINE
  5
435
330
42A
100
AcDbEntity
  8
LC-001-100-D00-0
 62
     7
370
    25
100
AcDbLine
 10
60.529466
 20
301.565275
 30
0.0
 11
63.479466
 21
304.515275
 31
0.0
  0
LINE
  5
436
330
42A
100
AcDbEntity
  8
LC-001-100-D00-0
 62
     7
370
    25
100
AcDbLine
 10
43.62447
 20
293.640535
 30
0.0
 11
54.29921
 21
304.315275
 31
0.0
  0
ENDBLK
  5
42C
330
42A
100
AcDbEntity
  8
0
100
AcDbBlockEnd
  0
BLOCK
  5
439
330
438
100
AcDbEntity
  8
0
100
AcDbBlockBegin
  2
KLON8
 70
     0
 71
     0
 10
0.0
 20
0.0
 30
0.0
  3
KLON8
  1

  4
KLON8
  0
LINE
  5
43B
330
438
100
AcDbEntity
  8
LC-001-100-D00-0
 62
     7
370
    25
100
AcDbLine
 10
266.667406
 20
229.315275
 30
0.0
 11
271.190037
 21
233.837906
 31
0.0
  0
LINE
  5
43C
330
438
100
AcDbEntity
  8
LC-001-100-D00-0
 62
     7
370
    25
100
AcDbLine
 10
258.544406
 20
230.172531
 30
0.0
 11
269.84393
 21
241.472056
 31
0.0
  0
LINE
  5
43D
330
438
100
AcDbEntity
  8
LC-001-100-D00-0
 62
     7
370
    25
100
AcDbLine
 10
257.362312
 20
237.970693
 30
0.0
 11
268.497824
 21
249.106205
 31
0.0
  0
LINE
  5
43E
330
438
100
AcDbEntity
  8
LC-001-100-D00-0
 62
     7
370
    25
100
AcDbLine
 10
256.016205
 20
245.604843
 30
0.0
 11
267.151717
 21
256.740355
 31
0.0
  0
LINE
  5
43F
330
438
100
AcDbEntity
  8
LC-001-100-D00-0
 62
     7
370
    25
100
AcDbLine
 10
254.670099
 20
253.238992
 30
0.0
 11
265.805611
 21
264.374504
 31
0.0
  0
LINE
  5
440
330
438
100
AcDbEntity
  8
LC-001-100-D00-0
 62
     7
370
    25
100
AcDbLine
 10
253.323992
 20
260.873142
 30
0.0
 11
264.459504
 21
272.008654
 31
0.0
  0
LINE
  5
441
330
438
100
AcDbEntity
  8
LC-001-100-D00-0
 62
     7
370
    25
100
AcDbLine
 10
251.977886
 20
268.507292
 30
0.0
 11
263.113398
 21
279.642804
 31
0.0
  0
LINE
  5
442
330
438
100
AcDbEntity
  8
LC-001-100-D00-0
 62
     7
370
    25
100
AcDbLine
 10
250.631779
 20
276.141441
 30
0.0
 11
261.767291
 21
287.276953
 31
0.0
  0
LINE
  5
443
330
438
100
AcDbEntity
  8
LC-001-100-D00-0
 62
     7
370
    25
100
AcDbLine
 10
249.285673
 20
283.775591
 30
0.0
 11
260.421185
 21
294.911103
 31
0.0
  0
LINE
  5
444
330
438
100
AcDbEntity
  8
LC-001-100-D00-0
 62
     7
370
    25
100
AcDbLine
 10
247.939566
 20
291.40974
 30
0.0
 11
258.774747
 21
302.244921
 31
0.0
  0
LINE
  5
445
330
438
100
AcDbEntity
  8
LC-001-100-D00-0
 62
     7
370
    25
100
AcDbLine
 10
246.59346
 20
299.04389
 30
0.0
 11
251.864845
 21
304.315275
 31
0.0
  0
LINE
  5
446
330
438
100
AcDbEntity
  8
LC-001-100-D00-0
 62
     7
370
    25
100
AcDbLine
 10
240.134588
 20
301.565275
 30
0.0
 11
242.884588
 21
304.315275
 31
0.0
  0
LINE
  5
447
330
438
100
AcDbEntity
  8
LC-001-100-D00-0
 62
     7
370
    25
100
AcDbLine
 10
231.154332
 20
301.565275
 30
0.0
 11
233.904332
 21
304.315275
 31
0.0
  0
LINE
  5
448
330
438
100
AcDbEntity
  8
LC-001-100-D00-0
 62
     7
370
    25
100
AcDbLine
 10
233.924196
 20
304.335138
 30
0.0
 11
234.104332
 21
304.515275
 31
0.0
  0
ENDBLK
  5
43A
330
438
100
AcDbEntity
  8
0
100
AcDbBlockEnd
  0
BLOCK
  5
44B
330
44A
100
AcDbEntity
  8
0
100
AcDbBlockBegin
  2
KLON9
 70
     0
 71
     0
 10
0.0
 20
0.0
 30
0.0
  3
KLON9
  1

  4
KLON9
  0
LINE
  5
44D
330
44A
100
AcDbEntity
  8
LC-001-100-D00-0
 62
     7
370
    50
100
AcDbLine
 10
161.04254
 20
294.315275
 30
0.0
 11
163.136633
 21
296.409368
 31
0.0
  0
LINE
  5
44E
330
44A
100
AcDbEntity
  8
LC-001-100-D00-0
 62
     7
370
    50
100
AcDbLine
 10
152.062283
 20
294.315275
 30
0.0
 11
162.062283
 21
304.315275
 31
0.0
  0
LINE
  5
44F
330
44A
100
AcDbEntity
  8
LC-001-100-D00-0
 62
     7
370
    50
100
AcDbLine
 10
143.082027
 20
294.315275
 30
0.0
 11
153.082027
 21
304.315275
 31
0.0
  0
LINE
  5
450
330
44A
100
AcDbEntity
  8
LC-001-100-D00-0
 62
     7
370
    50
100
AcDbLine
 10
141.133057
 20
301.346561
 30
0.0
 11
144.101771
 21
304.315275
 31
0.0
  0
ENDBLK
  5
44C
330
44A
100
AcDbEntity
  8
0
100
AcDbBlockEnd
  0
BLOCK
  5
455
330
454
100
AcDbEntity
  8
0
100
AcDbBlockBegin
  2
KLON10
 70
     0
 71
     0
 10
0.0
 20
0.0
 30
0.0
  3
KLON10
  1

  4
KLON10
  0
LINE
  5
457
330
454
100
AcDbEntity
  8
LC-001-100-D00-0
 62
     7
370
    25
100
AcDbLine
 10
249.238168
 20
247.807062
 30
0.0
 11
251.134845
 21
249.703739
 31
0.0
  0
LINE
  5
458
330
454
100
AcDbEntity
  8
LC-001-100-D00-0
 62
     7
370
    25
100
AcDbLine
 10
221.766125
 20
229.315275
 30
0.0
 11
229.134845
 21
236.683995
 31
0.0
  0
LINE
  5
459
330
454
100
AcDbEntity
  8
LC-001-100-D00-0
 62
     7
370
    25
100
AcDbLine
 10
237.266125
 20
244.815275
 30
0.0
 11
242.266125
 21
249.815275
 31
0.0
  0
LINE
  5
45A
330
454
100
AcDbEntity
  8
LC-001-100-D00-0
 62
     7
370
    25
100
AcDbLine
 10
212.785869
 20
229.315275
 30
0.0
 11
233.285869
 21
249.815275
 31
0.0
  0
LINE
  5
45B
330
454
100
AcDbEntity
  8
LC-001-100-D00-0
 62
     7
370
    25
100
AcDbLine
 10
203.805613
 20
229.315275
 30
0.0
 11
224.305613
 21
249.815275
 31
0.0
  0
LINE
  5
45C
330
454
100
AcDbEntity
  8
LC-001-100-D00-0
 62
     7
370
    25
100
AcDbLine
 10
198.15906
 20
232.648978
 30
0.0
 11
215.325357
 21
249.815275
 31
0.0
  0
LINE
  5
45D
330
454
100
AcDbEntity
  8
LC-001-100-D00-0
 62
     7
370
    25
100
AcDbLine
 10
216.884845
 20
251.374763
 30
0.0
 11
221.325357
 21
255.815275
 31
0.0
  0
LINE
  5
45E
330
454
100
AcDbEntity
  8
LC-001-100-D00-0
 62
     7
370
    25
100
AcDbLine
 10
194.872058
 20
238.342232
 30
0.0
 11
206.345101
 21
249.815275
 31
0.0
  0
LINE
  5
45F
330
454
100
AcDbEntity
  8
LC-001-100-D00-0
 62
     7
370
    25
100
AcDbLine
 10
191.499845
 20
243.950275
 30
0.0
 11
197.364845
 21
249.815275
 31
0.0
  0
LINE
  5
460
330
454
100
AcDbEntity
  8
LC-001-100-D00-0
 62
     7
370
    25
100
AcDbLine
 10
183.384588
 20
244.815275
 30
0.0
 11
188.384588
 21
249.815275
 31
0.0
  0
LINE
  5
461
330
454
100
AcDbEntity
  8
LC-001-100-D00-0
 62
     7
370
    25
100
AcDbLine
 10
174.404332
 20
244.815275
 30
0.0
 11
179.404332
 21
249.815275
 31
0.0
  0
LINE
  5
462
330
454
100
AcDbEntity
  8
LC-001-100-D00-0
 62
     7
370
    25
100
AcDbLine
 10
165.424076
 20
244.815275
 30
0.0
 11
170.424076
 21
249.815275
 31
0.0
  0
LINE
  5
463
330
454
100
AcDbEntity
  8
LC-001-100-D00-0
 62
     7
370
    25
100
AcDbLine
 10
156.44382
 20
244.815275
 30
0.0
 11
161.44382
 21
249.815275
 31
0.0
  0
LINE
  5
464
330
454
100
AcDbEntity
  8
LC-001-100-D00-0
 62
     7
370
    25
100
AcDbLine
 10
147.463564
 20
244.815275
 30
0.0
 11
152.463564
 21
249.815275
 31
0.0
  0
LINE
  5
465
330
454
100
AcDbEntity
  8
LC-001-100-D00-0
 62
     7
370
    25
100
AcDbLine
 10
138.483308
 20
244.815275
 30
0.0
 11
143.483308
 21
249.815275
 31
0.0
  0
LINE
  5
466
330
454
100
AcDbEntity
  8
LC-001-100-D00-0
 62
     7
370
    25
100
AcDbLine
 10
129.503052
 20
244.815275
 30
0.0
 11
134.503052
 21
249.815275
 31
0.0
  0
LINE
  5
467
330
454
100
AcDbEntity
  8
LC-001-100-D00-0
 62
     7
370
    25
100
AcDbLine
 10
120.522796
 20
244.815275
 30
0.0
 11
125.522796
 21
249.815275
 31
0.0
  0
LINE
  5
468
330
454
100
AcDbEntity
  8
LC-001-100-D00-0
 62
     7
370
    25
100
AcDbLine
 10
96.04254
 20
229.315275
 30
0.0
 11
116.54254
 21
249.815275
 31
0.0
  0
LINE
  5
469
330
454
100
AcDbEntity
  8
LC-001-100-D00-0
 62
     7
370
    25
100
AcDbLine
 10
87.062283
 20
229.315275
 30
0.0
 11
107.562283
 21
249.815275
 31
0.0
  0
LINE
  5
46A
330
454
100
AcDbEntity
  8
LC-001-100-D00-0
 62
     7
370
    25
100
AcDbLine
 10
78.082027
 20
229.315275
 30
0.0
 11
98.582027
 21
249.815275
 31
0.0
  0
LINE
  5
46B
330
454
100
AcDbEntity
  8
LC-001-100-D00-0
 62
     7
370
    25
100
AcDbLine
 10
75.134845
 20
235.348349
 30
0.0
 11
89.601771
 21
249.815275
 31
0.0
  0
LINE
  5
46C
330
454
100
AcDbEntity
  8
LC-001-100-D00-0
 62
     7
370
    25
100
AcDbLine
 10
75.12818
 20
244.32194
 30
0.0
 11
80.621515
 21
249.815275
 31
0.0
  0
LINE
  5
46D
330
454
100
AcDbEntity
  8
LC-001-100-D00-0
 62
     7
370
    25
100
AcDbLine
 10
82.884845
 20
252.078605
 30
0.0
 11
86.621515
 21
255.815275
 31
0.0
  0
LINE
  5
46E
330
454
100
AcDbEntity
  8
LC-001-100-D00-0
 62
     7
370
    25
100
AcDbLine
 10
66.641259
 20
244.815275
 30
0.0
 11
71.641259
 21
249.815275
 31
0.0
  0
LINE
  5
46F
330
454
100
AcDbEntity
  8
LC-001-100-D00-0
 62
     7
370
    25
100
AcDbLine
 10
59.464876
 20
246.619148
 30
0.0
 11
62.661003
 21
249.815275
 31
0.0
  0
LINE
  5
470
330
454
100
AcDbEntity
  8
LC-001-100-D00-0
 62
     7
370
    25
100
AcDbLine
 10
53.134845
 20
249.269373
 30
0.0
 11
53.680747
 21
249.815275
 31
0.0
  0
ENDBLK
  5
456
330
454
100
AcDbEntity
  8
0
100
AcDbBlockEnd
  0
BLOCK
  5
473
330
472
100
AcDbEntity
  8
0
100
AcDbBlockBegin
  2
KLON11
 70
     0
 71
     0
 10
0.0
 20
0.0
 30
0.0
  3
KLON11
  1

  4
KLON11
  0
LINE
  5
475
330
472
100
AcDbEntity
  8
LC-001-100-D00-0
 62
     7
370
    25
100
AcDbLine
 10
110.746381
 20
109.315275
 30
0.0
 11
113.246381
 21
111.815275
 31
0.0
  0
LINE
  5
476
330
472
100
AcDbEntity
  8
LC-001-100-D00-0
 62
     7
370
    25
100
AcDbLine
 10
101.766125
 20
109.315275
 30
0.0
 11
104.266125
 21
111.815275
 31
0.0
  0
LINE
  5
477
330
472
100
AcDbEntity
  8
LC-001-100-D00-0
 62
     7
370
    25
100
AcDbLine
 10
90.285869
 20
106.815275
 30
0.0
 11
95.285869
 21
111.815275
 31
0.0
  0
LINE
  5
478
330
472
100
AcDbEntity
  8
LC-001-100-D00-0
 62
     7
370
    25
100
AcDbLine
 10
83.805613
 20
109.315275
 30
0.0
 11
86.305613
 21
111.815275
 31
0.0
  0
LINE
  5
479
330
472
100
AcDbEntity
  8
LC-001-100-D00-0
 62
     7
370
    25
100
AcDbLine
 10
75.985532
 20
110.47545
 30
0.0
 11
77.964902
 21
112.45482
 31
0.0
  0
LINE
  5
47A
330
472
100
AcDbEntity
  8
LC-001-100-D00-0
 62
     7
370
    25
100
AcDbLine
 10
72.287869
 20
115.758043
 30
0.0
 11
77.134845
 21
120.605019
 31
0.0
  0
LINE
  5
47B
330
472
100
AcDbEntity
  8
LC-001-100-D00-0
 62
     7
370
    25
100
AcDbLine
 10
74.634845
 20
127.085275
 30
0.0
 11
75.864845
 21
128.315275
 31
0.0
  0
ENDBLK
  5
474
330
472
100
AcDbEntity
  8
0
100
AcDbBlockEnd
  0
BLOCK
  5
47F
330
47E
100
AcDbEntity
  8
0
100
AcDbBlockBegin
  2
KLON12
 70
     0
 71
     0
 10
0.0
 20
0.0
 30
0.0
  3
KLON12
  1

  4
KLON12
  0
LINE
  5
481
330
47E
100
AcDbEntity
  8
LC-001-100-D00-0
 62
     7
370
    25
100
AcDbLine
 10
216.009455
 20
106.815275
 30
0.0
 11
221.009455
 21
111.815275
 31
0.0
  0
LINE
  5
482
330
47E
100
AcDbEntity
  8
LC-001-100-D00-0
 62
     7
370
    25
100
AcDbLine
 10
227.134845
 20
117.940665
 30
0.0
 11
229.634845
 21
120.440665
 31
0.0
  0
LINE
  5
483
330
47E
100
AcDbEntity
  8
LC-001-100-D00-0
 62
     7
370
    25
100
AcDbLine
 10
209.529199
 20
109.315275
 30
0.0
 11
212.029199
 21
111.815275
 31
0.0
  0
LINE
  5
484
330
47E
100
AcDbEntity
  8
LC-001-100-D00-0
 62
     7
370
    25
100
AcDbLine
 10
227.434845
 20
127.220921
 30
0.0
 11
228.529199
 21
128.315275
 31
0.0
  0
ENDBLK
  5
480
330
47E
100
AcDbEntity
  8
0
100
AcDbBlockEnd
  0
BLOCK
  5
487
330
486
100
AcDbEntity
  8
0
100
AcDbBlockBegin
  2
KLON13
 70
     0
 71
     0
 10
0.0
 20
0.0
 30
0.0
  3
KLON13
  1

  4
KLON13
  0
LINE
  5
489
330
486
100
AcDbEntity
  8
LC-001-100-D00-0
 62
     7
370
    25
100
AcDbLine
 10
215.901125
 20
178.548995
 30
0.0
 11
220.634845
 21
183.282714
 31
0.0
  0
LINE
  5
48A
330
486
100
AcDbEntity
  8
LC-001-100-D00-0
 62
     7
370
    25
100
AcDbLine
 10
226.167406
 20
188.815275
 30
0.0
 11
229.134845
 21
191.782714
 31
0.0
  0
LINE
  5
48B
330
486
100
AcDbEntity
  8
LC-001-100-D00-0
 62
     7
370
    25
100
AcDbLine
 10
215.634845
 20
187.26297
 30
0.0
 11
222.134845
 21
193.76297
 31
0.0
  0
LINE
  5
48C
330
486
100
AcDbEntity
  8
LC-001-100-D00-0
 62
     7
370
    25
100
AcDbLine
 10
215.634845
 20
196.243226
 30
0.0
 11
222.134845
 21
202.743226
 31
0.0
  0
LINE
  5
48D
330
486
100
AcDbEntity
  8
LC-001-100-D00-0
 62
     7
370
    25
100
AcDbLine
 10
222.206894
 20
202.815275
 30
0.0
 11
225.706894
 21
206.315275
 31
0.0
  0
LINE
  5
48E
330
486
100
AcDbEntity
  8
LC-001-100-D00-0
 62
     7
370
    25
100
AcDbLine
 10
215.634845
 20
205.223482
 30
0.0
 11
219.384845
 21
208.973482
 31
0.0
  0
LINE
  5
48F
330
486
100
AcDbEntity
  8
LC-001-100-D00-0
 62
     7
370
    25
100
AcDbLine
 10
215.634845
 20
214.203739
 30
0.0
 11
219.384845
 21
217.953739
 31
0.0
  0
ENDBLK
  5
488
330
486
100
AcDbEntity
  8
0
100
AcDbBlockEnd
  0
BLOCK
  5
492
330
491
100
AcDbEntity
  8
0
100
AcDbBlockBegin
  2
KLON14
 70
     0
 71
     0
 10
0.0
 20
0.0
 30
0.0
  3
KLON14
  1

  4
KLON14
  0
LINE
  5
494
330
491
100
AcDbEntity
  8
LC-001-100-D00-0
 62
     7
370
    25
100
AcDbLine
 10
83.634845
 20
180.986556
 30
0.0
 11
88.634845
 21
185.986556
 31
0.0
  0
LINE
  5
495
330
491
100
AcDbEntity
  8
LC-001-100-D00-0
 62
     7
370
    25
100
AcDbLine
 10
82.483308
 20
188.815275
 30
0.0
 11
88.634845
 21
194.966812
 31
0.0
  0
LINE
  5
496
330
491
100
AcDbEntity
  8
LC-001-100-D00-0
 62
     7
370
    25
100
AcDbLine
 10
75.134845
 20
190.447068
 30
0.0
 11
77.003052
 21
192.315275
 31
0.0
  0
LINE
  5
497
330
491
100
AcDbEntity
  8
LC-001-100-D00-0
 62
     7
370
    25
100
AcDbLine
 10
82.134845
 20
197.447068
 30
0.0
 11
88.634845
 21
203.947068
 31
0.0
  0
LINE
  5
498
330
491
100
AcDbEntity
  8
LC-001-100-D00-0
 62
     7
370
    25
100
AcDbLine
 10
78.522796
 20
202.815275
 30
0.0
 11
82.022796
 21
206.315275
 31
0.0
  0
LINE
  5
499
330
491
100
AcDbEntity
  8
LC-001-100-D00-0
 62
     7
370
    25
100
AcDbLine
 10
84.884845
 20
209.177324
 30
0.0
 11
88.634845
 21
212.927324
 31
0.0
  0
LINE
  5
49A
330
491
100
AcDbEntity
  8
LC-001-100-D00-0
 62
     7
370
    25
100
AcDbLine
 10
84.884845
 20
218.15758
 30
0.0
 11
87.088692
 21
220.361428
 31
0.0
  0
ENDBLK
  5
493
330
491
100
AcDbEntity
  8
0
100
AcDbBlockEnd
  0
BLOCK
  5
4AF
330
4A5
100
AcDbEntity
  8
0
100
AcDbBlockBegin
  2
*D31
 70
     1
 71
     0
 10
0.0
 20
0.0
 30
0.0
  3
*D31
  1

  0
LINE
  5
4A6
330
4A5
100
AcDbEntity
  8
LC-002-003-----0
 62
     2
370
    -2
100
AcDbLine
 10
-27.865162
 20
203.315273
 30
0.0
 11
-27.865162
 21
386.303273
 31
0.0
  0
LINE
  5
4A7
330
4A5
100
AcDbEntity
  8
LC-002-003-----0
 62
     2
370
    -2
100
AcDbLine
 10
332.134852
 20
203.315273
 30
0.0
 11
332.134852
 21
386.303273
 31
0.0
  0
LINE
  5
4A8
330
4A5
100
AcDbEntity
  8
LC-002-003-----0
 62
     2
370
    -2
100
AcDbLine
 10
0.134838
 20
382.703273
 30
0.0
 11
304.134852
 21
382.703273
 31
0.0
  0
SOLID
  5
4A9
330
4A5
100
AcDbEntity
  8
LC-002-003-----0
 62
     2
100
AcDbTrace
 10
0.134838
 20
387.36994
 30
0.0
 11
0.134838
 21
378.036607
 31
0.0
 12
-27.865162
 22
382.703273
 32
0.0
 13
-27.865162
 23
382.703273
 33
0.0
  0
SOLID
  5
4AA
330
4A5
100
AcDbEntity
  8
LC-002-003-----0
 62
     2
100
AcDbTrace
 10
304.134852
 20
378.036607
 30
0.0
 11
304.134852
 21
387.36994
 31
0.0
 12
332.134852
 22
382.703273
 32
0.0
 13
332.134852
 23
382.703273
 33
0.0
  0
MTEXT
  5
4AB
330
4A5
100
AcDbEntity
  8
LC-002-003-----0
 62
     2
100
AcDbMText
 10
141.937925
 20
413.503273
 30
0.0
 40
28.0
 41
0.0
 71
     5
 72
     1
  1
%%c\A1;360
  7
LCTX15-400-0-0pDIN-Schrift
 73
     1
 44
1.0
  0
POINT
  5
4AC
330
4A5
100
AcDbEntity
  8
Defpoints
 62
     0
100
AcDbPoint
 10
-27.865162
 20
203.315273
 30
0.0
  0
POINT
  5
4AD
330
4A5
100
AcDbEntity
  8
Defpoints
 62
     0
100
AcDbPoint
 10
332.134852
 20
203.315273
 30
0.0
  0
POINT
  5
4AE
330
4A5
100
AcDbEntity
  8
Defpoints
 62
     0
100
AcDbPoint
 10
332.134852
 20
382.703273
 30
0.0
  0
ENDBLK
  5
4B0
330
4A5
100
AcDbEntity
  8
0
100
AcDbBlockEnd
  0
BLOCK
  5
4BC
330
4B2
100
AcDbEntity
  8
0
100
AcDbBlockBegin
  2
*D32
 70
     1
 71
     0
 10
0.0
 20
0.0
 30
0.0
  3
*D32
  1

  0
LINE
  5
4B3
330
4B2
100
AcDbEntity
  8
LC-002-003-----0
 62
     2
370
    -2
100
AcDbLine
 10
72.134847
 20
119.315275
 30
0.0
 11
72.134847
 21
-112.134727
 31
0.0
  0
LINE
  5
4B4
330
4B2
100
AcDbEntity
  8
LC-002-003-----0
 62
     2
370
    -2
100
AcDbLine
 10
232.134843
 20
119.315275
 30
0.0
 11
232.134843
 21
-112.134727
 31
0.0
  0
LINE
  5
4B5
330
4B2
100
AcDbEntity
  8
LC-002-003-----0
 62
     2
370
    -2
100
AcDbLine
 10
100.134847
 20
-108.534727
 30
0.0
 11
204.134843
 21
-108.534727
 31
0.0
  0
SOLID
  5
4B6
330
4B2
100
AcDbEntity
  8
LC-002-003-----0
 62
     2
100
AcDbTrace
 10
100.134847
 20
-103.86806
 30
0.0
 11
100.134847
 21
-113.201393
 31
0.0
 12
72.134847
 22
-108.534727
 32
0.0
 13
72.134847
 23
-108.534727
 33
0.0
  0
SOLID
  5
4B7
330
4B2
100
AcDbEntity
  8
LC-002-003-----0
 62
     2
100
AcDbTrace
 10
204.134843
 20
-113.201393
 30
0.0
 11
204.134843
 21
-103.86806
 31
0.0
 12
232.134843
 22
-108.534727
 32
0.0
 13
232.134843
 23
-108.534727
 33
0.0
  0
MTEXT
  5
4B8
330
4B2
100
AcDbEntity
  8
LC-002-003-----0
 62
     2
100
AcDbMText
 10
144.591098
 20
-77.734727
 30
0.0
 40
28.0
 41
0.0
 71
     5
 72
     1
  1
%%c\A1;160
  7
LCTX15-400-0-0pDIN-Schrift
 73
     1
 44
1.0
  0
POINT
  5
4B9
330
4B2
100
AcDbEntity
  8
Defpoints
 62
     0
100
AcDbPoint
 10
72.134847
 20
119.315275
 30
0.0
  0
POINT
  5
4BA
330
4B2
100
AcDbEntity
  8
Defpoints
 62
     0
100
AcDbPoint
 10
232.134843
 20
119.315275
 30
0.0
  0
POINT
  5
4BB
330
4B2
100
AcDbEntity
  8
Defpoints
 62
     0
100
AcDbPoint
 10
232.134843
 20
-108.534727
 30
0.0
  0
ENDBLK
  5
4BD
330
4B2
100
AcDbEntity
  8
0
100
AcDbBlockEnd
  0
BLOCK
  5
4C9
330
4BF
100
AcDbEntity
  8
0
100
AcDbBlockBegin
  2
*D33
 70
     1
 71
     0
 10
0.0
 20
0.0
 30
0.0
  3
*D33
  1

  0
LINE
  5
4C0
330
4BF
100
AcDbEntity
  8
LC-002-003-----0
 62
     2
370
    -2
100
AcDbLine
 10
114.634845
 20
-3.539591
 30
0.0
 11
114.634845
 21
-50.952727
 31
0.0
  0
LINE
  5
4C1
330
4BF
100
AcDbEntity
  8
LC-002-003-----0
 62
     2
370
    -2
100
AcDbLine
 10
189.634846
 20
-5.184717
 30
0.0
 11
189.634846
 21
-50.952727
 31
0.0
  0
LINE
  5
4C2
330
4BF
100
AcDbEntity
  8
LC-002-003-----0
 62
     2
370
    -2
100
AcDbLine
 10
142.634845
 20
-47.352727
 30
0.0
 11
161.634846
 21
-47.352727
 31
0.0
  0
SOLID
  5
4C3
330
4BF
100
AcDbEntity
  8
LC-002-003-----0
 62
     2
100
AcDbTrace
 10
142.634845
 20
-42.68606
 30
0.0
 11
142.634845
 21
-52.019393
 31
0.0
 12
114.634845
 22
-47.352727
 32
0.0
 13
114.634845
 23
-47.352727
 33
0.0
  0
SOLID
  5
4C4
330
4BF
100
AcDbEntity
  8
LC-002-003-----0
 62
     2
100
AcDbTrace
 10
161.634846
 20
-52.019393
 30
0.0
 11
161.634846
 21
-42.68606
 31
0.0
 12
189.634846
 22
-47.352727
 32
0.0
 13
189.634846
 23
-47.352727
 33
0.0
  0
MTEXT
  5
4C5
330
4BF
100
AcDbEntity
  8
LC-002-003-----0
 62
     2
100
AcDbMText
 10
155.203791
 20
-16.552727
 30
0.0
 40
28.0
 41
0.0
 71
     5
 72
     1
  1
\A1;DN70
  7
LCTX15-400-0-0pDIN-Schrift
 73
     1
 44
1.0
  0
POINT
  5
4C6
330
4BF
100
AcDbEntity
  8
Defpoints
 62
     0
100
AcDbPoint
 10
114.634845
 20
-3.539591
 30
0.0
  0
POINT
  5
4C7
330
4BF
100
AcDbEntity
  8
Defpoints
 62
     0
100
AcDbPoint
 10
189.634846
 20
-5.184717
 30
0.0
  0
POINT
  5
4C8
330
4BF
100
AcDbEntity
  8
Defpoints
 62
     0
100
AcDbPoint
 10
189.634846
 20
-47.352727
 30
0.0
  0
ENDBLK
  5
4CA
330
4BF
100
AcDbEntity
  8
0
100
AcDbBlockEnd
  0
BLOCK
  5
4D6
330
4CC
100
AcDbEntity
  8
0
100
AcDbBlockBegin
  2
*D34
 70
     1
 71
     0
 10
0.0
 20
0.0
 30
0.0
  3
*D34
  1

  0
LINE
  5
4CD
330
4CC
100
AcDbEntity
  8
LC-002-003-----0
 62
     2
370
    -2
100
AcDbLine
 10
-25.740278
 20
206.315275
 30
0.0
 11
25.260738
 21
206.315275
 31
0.0
  0
LINE
  5
4CE
330
4CC
100
AcDbEntity
  8
LC-002-003-----0
 62
     2
370
    -2
100
AcDbLine
 10
80.134848
 20
109.315269
 30
0.0
 11
18.060738
 21
109.315269
 31
0.0
  0
LINE
  5
4CF
330
4CC
100
AcDbEntity
  8
LC-002-003-----0
 62
     2
370
    -2
100
AcDbLine
 10
21.660738
 20
178.315275
 30
0.0
 11
21.660738
 21
137.315269
 31
0.0
  0
SOLID
  5
4D0
330
4CC
100
AcDbEntity
  8
LC-002-003-----0
 62
     2
100
AcDbTrace
 10
26.327405
 20
178.315275
 30
0.0
 11
16.994072
 21
178.315275
 31
0.0
 12
21.660738
 22
206.315275
 32
0.0
 13
21.660738
 23
206.315275
 33
0.0
  0
SOLID
  5
4D1
330
4CC
100
AcDbEntity
  8
LC-002-003-----0
 62
     2
100
AcDbTrace
 10
16.994072
 20
137.315269
 30
0.0
 11
26.327405
 21
137.315269
 31
0.0
 12
21.660738
 22
109.315269
 32
0.0
 13
21.660738
 23
109.315269
 33
0.0
  0
MTEXT
  5
4D2
330
4CC
100
AcDbEntity
  8
LC-002-003-----0
 62
     2
100
AcDbMText
 10
-9.139262
 20
147.479273
 30
0.0
 40
28.0
 41
0.0
 71
     5
 72
     1
  1
\A1;97
  7
LCTX15-400-0-0pDIN-Schrift
 11
6.123031769111886E-17
 21
1.0
 31
0.0
 73
     1
 44
1.0
  0
POINT
  5
4D3
330
4CC
100
AcDbEntity
  8
Defpoints
 62
     0
100
AcDbPoint
 10
-25.740278
 20
206.315275
 30
0.0
  0
POINT
  5
4D4
330
4CC
100
AcDbEntity
  8
Defpoints
 62
     0
100
AcDbPoint
 10
80.134848
 20
109.315269
 30
0.0
  0
POINT
  5
4D5
330
4CC
100
AcDbEntity
  8
Defpoints
 62
     0
100
AcDbPoint
 10
21.660738
 20
109.315269
 30
0.0
  0
ENDBLK
  5
4D7
330
4CC
100
AcDbEntity
  8
0
100
AcDbBlockEnd
  0
BLOCK
  5
4E3
330
4D9
100
AcDbEntity
  8
0
100
AcDbBlockBegin
  2
*D35
 70
     1
 71
     0
 10
0.0
 20
0.0
 30
0.0
  3
*D35
  1

  0
LINE
  5
4DA
330
4D9
100
AcDbEntity
  8
LC-002-003-----0
 62
     2
370
    -2
100
AcDbLine
 10
-25.740278
 20
206.315275
 30
0.0
 11
-95.14132
 21
206.315275
 31
0.0
  0
LINE
  5
4DB
330
4D9
100
AcDbEntity
  8
LC-002-003-----0
 62
     2
370
    -2
100
AcDbLine
 10
118.134843
 20
-10.184712
 30
0.0
 11
-95.14132
 21
-10.184712
 31
0.0
  0
LINE
  5
4DC
330
4D9
100
AcDbEntity
  8
LC-002-003-----0
 62
     2
370
    -2
100
AcDbLine
 10
-91.54132
 20
178.315275
 30
0.0
 11
-91.54132
 21
17.815288
 31
0.0
  0
SOLID
  5
4DD
330
4D9
100
AcDbEntity
  8
LC-002-003-----0
 62
     2
100
AcDbTrace
 10
-86.874653
 20
178.315275
 30
0.0
 11
-96.207986
 21
178.315275
 31
0.0
 12
-91.54132
 22
206.315275
 32
0.0
 13
-91.54132
 23
206.315275
 33
0.0
  0
SOLID
  5
4DE
330
4D9
100
AcDbEntity
  8
LC-002-003-----0
 62
     2
100
AcDbTrace
 10
-96.207986
 20
17.815288
 30
0.0
 11
-86.874653
 21
17.815288
 31
0.0
 12
-91.54132
 22
-10.184712
 32
0.0
 13
-91.54132
 23
-10.184712
 33
0.0
  0
MTEXT
  5
4DF
330
4D9
100
AcDbEntity
  8
LC-002-003-----0
 62
     2
100
AcDbMText
 10
-122.34132
 20
87.485273
 30
0.0
 40
28.0
 41
0.0
 71
     5
 72
     1
  1
\A1;216,5
  7
LCTX15-400-0-0pDIN-Schrift
 11
6.123031769111886E-17
 21
1.0
 31
0.0
 73
     1
 44
1.0
  0
POINT
  5
4E0
330
4D9
100
AcDbEntity
  8
Defpoints
 62
     0
100
AcDbPoint
 10
-25.740278
 20
206.315275
 30
0.0
  0
POINT
  5
4E1
330
4D9
100
AcDbEntity
  8
Defpoints
 62
     0
100
AcDbPoint
 10
118.134843
 20
-10.184712
 30
0.0
  0
POINT
  5
4E2
330
4D9
100
AcDbEntity
  8
Defpoints
 62
     0
100
AcDbPoint
 10
-91.54132
 20
-10.184712
 30
0.0
  0
ENDBLK
  5
4E4
330
4D9
100
AcDbEntity
  8
0
100
AcDbBlockEnd
  0
BLOCK
  5
4F2
330
4F1
100
AcDbEntity
  8
0
100
AcDbBlockBegin
  2
KLON15
 70
     0
 71
     0
 10
0.0
 20
0.0
 30
0.0
  3
KLON15
  1

  4
KLON15
  0
LINE
  5
4F4
330
4F1
100
AcDbEntity
  8
LC-001-100-D00-0
 62
     7
370
    25
100
AcDbLine
 10
222.702017
 20
133.015275
 30
0.0
 11
227.134846
 21
137.448103
 31
0.0
  0
LINE
  5
4F5
330
4F1
100
AcDbEntity
  8
LC-001-100-D00-0
 62
     7
370
    25
100
AcDbLine
 10
219.336566
 20
134.139952
 30
0.0
 11
227.134846
 21
141.938231
 31
0.0
  0
LINE
  5
4F6
330
4F1
100
AcDbEntity
  8
LC-001-100-D00-0
 62
     7
370
    25
100
AcDbLine
 10
219.134846
 20
138.428359
 30
0.0
 11
225.653374
 21
144.946888
 31
0.0
  0
LINE
  5
4F7
330
4F1
100
AcDbEntity
  8
LC-001-100-D00-0
 62
     7
370
    25
100
AcDbLine
 10
219.134846
 20
142.918487
 30
0.0
 11
221.231633
 21
145.015275
 31
0.0
  0
ENDBLK
  5
4F3
330
4F1
100
AcDbEntity
  8
0
100
AcDbBlockEnd
  0
BLOCK
  5
532
330
531
100
AcDbEntity
  8
0
100
AcDbBlockBegin
  2
KLON16
 70
     0
 71
     0
 10
0.0
 20
0.0
 30
0.0
  3
KLON16
  1

  4
KLON16
  0
LINE
  5
534
330
531
100
AcDbEntity
  8
LC-001-100-D00-0
 62
     7
370
    25
100
AcDbLine
 10
225.064531
 20
192.315272
 30
0.0
 11
220.793207
 21
196.586596
 31
0.0
  0
LINE
  5
535
330
531
100
AcDbEntity
  8
LC-001-100-D00-0
 62
     7
370
    25
100
AcDbLine
 10
229.400995
 20
192.468936
 30
0.0
 11
220.798933
 21
201.070998
 31
0.0
  0
LINE
  5
536
330
531
100
AcDbEntity
  8
LC-001-100-D00-0
 62
     7
370
    25
100
AcDbLine
 10
230.726083
 20
195.633976
 30
0.0
 11
224.294787
 21
202.065272
 31
0.0
  0
LINE
  5
537
330
531
100
AcDbEntity
  8
LC-001-100-D00-0
 62
     7
370
    25
100
AcDbLine
 10
230.529632
 20
200.320555
 30
0.0
 11
228.784915
 21
202.065272
 31
0.0
  0
ENDBLK
  5
533
330
531
100
AcDbEntity
  8
0
100
AcDbBlockEnd
  0
BLOCK
  5
550
330
54F
100
AcDbEntity
  8
0
100
AcDbBlockBegin
  2
KLON17
 70
     0
 71
     0
 10
0.0
 20
0.0
 30
0.0
  3
KLON17
  1

  4
KLON17
  0
LINE
  5
552
330
54F
100
AcDbEntity
  8
LC-001-100-D00-0
 62
     7
370
    25
100
AcDbLine
 10
79.205159
 20
192.315272
 30
0.0
 11
83.476483
 21
196.586596
 31
0.0
  0
LINE
  5
553
330
54F
100
AcDbEntity
  8
LC-001-100-D00-0
 62
     7
370
    25
100
AcDbLine
 10
74.868695
 20
192.468936
 30
0.0
 11
83.470757
 21
201.070998
 31
0.0
  0
LINE
  5
554
330
54F
100
AcDbEntity
  8
LC-001-100-D00-0
 62
     7
370
    25
100
AcDbLine
 10
73.543607
 20
195.633976
 30
0.0
 11
79.974903
 21
202.065272
 31
0.0
  0
LINE
  5
555
330
54F
100
AcDbEntity
  8
LC-001-100-D00-0
 62
     7
370
    25
100
AcDbLine
 10
73.740058
 20
200.320555
 30
0.0
 11
75.484775
 21
202.065272
 31
0.0
  0
ENDBLK
  5
551
330
54F
100
AcDbEntity
  8
0
100
AcDbBlockEnd
  0
BLOCK
  5
564
330
55A
100
AcDbEntity
  8
0
100
AcDbBlockBegin
  2
*D39
 70
     1
 71
     0
 10
0.0
 20
0.0
 30
0.0
  3
*D39
  1

  0
LINE
  5
55B
330
55A
100
AcDbEntity
  8
LC-002-003-----0
 62
     2
370
    -2
100
AcDbLine
 10
21.134848
 20
229.887948
 30
0.0
 11
21.134848
 21
323.78754
 31
0.0
  0
LINE
  5
55C
330
55A
100
AcDbEntity
  8
LC-002-003-----0
 62
     2
370
    -2
100
AcDbLine
 10
283.134852
 20
229.887948
 30
0.0
 11
283.134852
 21
323.78754
 31
0.0
  0
LINE
  5
55D
330
55A
100
AcDbEntity
  8
LC-002-003-----0
 62
     2
370
    -2
100
AcDbLine
 10
49.134848
 20
320.18754
 30
0.0
 11
255.134852
 21
320.18754
 31
0.0
  0
SOLID
  5
55E
330
55A
100
AcDbEntity
  8
LC-002-003-----0
 62
     2
100
AcDbTrace
 10
49.134848
 20
324.854206
 30
0.0
 11
49.134848
 21
315.520873
 31
0.0
 12
21.134848
 22
320.18754
 32
0.0
 13
21.134848
 23
320.18754
 33
0.0
  0
SOLID
  5
55F
330
55A
100
AcDbEntity
  8
LC-002-003-----0
 62
     2
100
AcDbTrace
 10
255.134852
 20
315.520873
 30
0.0
 11
255.134852
 21
324.854206
 31
0.0
 12
283.134852
 22
320.18754
 32
0.0
 13
283.134852
 23
320.18754
 33
0.0
  0
MTEXT
  5
560
330
55A
100
AcDbEntity
  8
LC-002-003-----0
 62
     2
100
AcDbMText
 10
148.173371
 20
350.98754
 30
0.0
 40
28.0
 41
0.0
 71
     5
 72
     1
  1
%%c\A1;262
  7
LCTX15-400-0-0pDIN-Schrift
 73
     1
 44
1.0
  0
POINT
  5
561
330
55A
100
AcDbEntity
  8
Defpoints
 62
     0
100
AcDbPoint
 10
21.134848
 20
229.887948
 30
0.0
  0
POINT
  5
562
330
55A
100
AcDbEntity
  8
Defpoints
 62
     0
100
AcDbPoint
 10
283.134852
 20
229.887948
 30
0.0
  0
POINT
  5
563
330
55A
100
AcDbEntity
  8
Defpoints
 62
     0
100
AcDbPoint
 10
283.134852
 20
320.18754
 30
0.0
  0
ENDBLK
  5
565
330
55A
100
AcDbEntity
  8
0
100
AcDbBlockEnd
  0
BLOCK
  5
572
330
567
100
AcDbEntity
  8
0
100
AcDbBlockBegin
  2
*D40
 70
     1
 71
     0
 10
0.0
 20
0.0
 30
0.0
  3
*D40
  1

  0
LINE
  5
568
330
567
100
AcDbEntity
  8
LC-002-003-----0
 62
     2
370
    -2
100
AcDbLine
 10
-24.86515
 20
206.315276
 30
0.0
 11
-46.905081
 21
206.315276
 31
0.0
  0
LINE
  5
569
330
567
100
AcDbEntity
  8
LC-002-003-----0
 62
     2
370
    -2
100
AcDbLine
 10
23.657063
 20
232.96319
 30
0.0
 11
-46.905081
 21
232.96319
 31
0.0
  0
LINE
  5
56A
330
567
100
AcDbEntity
  8
LC-002-003-----0
 62
     2
370
    -2
100
AcDbLine
 10
-43.305081
 20
178.315276
 30
0.0
 11
-43.305081
 21
150.315276
 31
0.0
  0
LINE
  5
56B
330
567
100
AcDbEntity
  8
LC-002-003-----0
 62
     2
370
    -2
100
AcDbLine
 10
-43.305081
 20
260.96319
 30
0.0
 11
-43.305081
 21
325.74293
 31
0.0
  0
SOLID
  5
56C
330
567
100
AcDbEntity
  8
LC-002-003-----0
 62
     2
100
AcDbTrace
 10
-38.638415
 20
178.315276
 30
0.0
 11
-47.971748
 21
178.315276
 31
0.0
 12
-43.305081
 22
206.315276
 32
0.0
 13
-43.305081
 23
206.315276
 33
0.0
  0
SOLID
  5
56D
330
567
100
AcDbEntity
  8
LC-002-003-----0
 62
     2
100
AcDbTrace
 10
-47.971748
 20
260.96319
 30
0.0
 11
-38.638415
 21
260.96319
 31
0.0
 12
-43.305081
 22
232.96319
 32
0.0
 13
-43.305081
 23
232.96319
 33
0.0
  0
MTEXT
  5
56E
330
567
100
AcDbEntity
  8
LC-002-003-----0
 62
     2
100
AcDbMText
 10
-74.105081
 20
266.72754
 30
0.0
 40
28.0
 41
0.0
 71
     5
 72
     1
  1
\A1;28-68
  7
LCTX15-400-0-0pDIN-Schrift
 11
6.123031769111886E-17
 21
1.0
 31
0.0
 73
     1
 44
1.0
  0
POINT
  5
56F
330
567
100
AcDbEntity
  8
Defpoints
 62
     0
100
AcDbPoint
 10
-24.86515
 20
206.315276
 30
0.0
  0
POINT
  5
570
330
567
100
AcDbEntity
  8
Defpoints
 62
     0
100
AcDbPoint
 10
23.657063
 20
232.96319
 30
0.0
  0
POINT
  5
571
330
567
100
AcDbEntity
  8
Defpoints
 62
     0
100
AcDbPoint
 10
-43.305081
 20
232.96319
 30
0.0
  0
ENDBLK
  5
573
330
567
100
AcDbEntity
  8
0
100
AcDbBlockEnd
  0
ENDSEC
  0
SECTION
  2
ENTITIES
  0
LINE
  5
31
330
1F
100
AcDbEntity
  8
LC-001-100-D00-0
 62
     7
370
    50
100
AcDbLine
 10
74.961552
 20
255.815275
 30
0.0
 11
74.961552
 21
249.815275
 31
0.0
  0
LINE
  5
32
330
1F
100
AcDbEntity
  8
LC-001-100-D00-0
 62
     7
370
    50
100
AcDbLine
 10
229.308138
 20
249.815275
 30
0.0
 11
229.308138
 21
255.815275
 31
0.0
  0
LINE
  5
33
330
1F
100
AcDbEntity
  8
LC-001-100-D00-0
 62
     7
370
    50
100
AcDbLine
 10
93.401754
 20
249.815275
 30
0.0
 11
93.401754
 21
255.815275
 31
0.0
  0
LINE
  5
34
330
1F
100
AcDbEntity
  8
LC-001-100-D00-0
 62
     7
370
    50
100
AcDbLine
 10
210.867936
 20
255.815275
 30
0.0
 11
210.867936
 21
249.815275
 31
0.0
  0
LINE
  5
35
330
1F
100
AcDbEntity
  8
LC-001-100-D00-0
 62
     7
370
    50
100
AcDbLine
 10
158.384845
 20
249.815275
 30
0.0
 11
157.884845
 21
250.315275
 31
0.0
  0
LINE
  5
36
330
1F
100
AcDbEntity
  8
LC-001-100-D00-0
 62
     7
370
    50
100
AcDbLine
 10
146.384845
 20
250.315275
 30
0.0
 11
145.884845
 21
249.815275
 31
0.0
  0
LINE
  5
37
330
1F
100
AcDbEntity
  8
LC-001-100-D00-0
 62
     7
370
    50
100
AcDbLine
 10
145.884845
 20
244.815275
 30
0.0
 11
146.384845
 21
244.315275
 31
0.0
  0
LINE
  5
38
330
1F
100
AcDbEntity
  8
LC-001-100-D00-0
 62
     7
370
    50
100
AcDbLine
 10
157.884845
 20
244.315275
 30
0.0
 11
158.384845
 21
244.815275
 31
0.0
  0
LINE
  5
39
330
1F
100
AcDbEntity
  8
LC-001-100-D00-0
 62
     7
370
    50
100
AcDbLine
 10
157.884845
 20
250.315275
 30
0.0
 11
157.884845
 21
287.815273
 31
0.0
  0
LINE
  5
3A
330
1F
100
AcDbEntity
  8
LC-001-100-D00-0
 62
     7
370
    50
100
AcDbLine
 10
146.384845
 20
287.815273
 30
0.0
 11
146.384845
 21
250.315275
 31
0.0
  0
LINE
  5
3B
330
1F
100
AcDbEntity
  8
LC-001-100-D00-0
 62
     7
370
    50
100
AcDbLine
 10
146.384845
 20
244.315275
 30
0.0
 11
146.384845
 21
221.315274
 31
0.0
  0
LINE
  5
3C
330
1F
100
AcDbEntity
  8
LC-001-100-D00-0
 62
     7
370
    50
100
AcDbLine
 10
157.884845
 20
221.315274
 30
0.0
 11
157.884845
 21
244.315275
 31
0.0
  0
LINE
  5
3D
330
1F
100
AcDbEntity
  8
LC-001-100-D00-0
 62
     7
370
    50
100
AcDbLine
 10
92.634844
 20
255.815275
 30
0.0
 11
92.634844
 21
294.315275
 31
0.0
  0
LINE
  5
3E
330
1F
100
AcDbEntity
  8
LC-001-100-D00-0
 62
     7
370
    50
100
AcDbLine
 10
86.634846
 20
294.315275
 30
0.0
 11
86.634846
 21
255.815275
 31
0.0
  0
LINE
  5
3F
330
1F
100
AcDbEntity
  8
LC-001-100-D00-0
 62
     7
370
    50
100
AcDbLine
 10
217.634844
 20
255.815275
 30
0.0
 11
217.634844
 21
294.315275
 31
0.0
  0
LINE
  5
40
330
1F
100
AcDbEntity
  8
LC-001-100-D00-0
 62
     7
370
    50
100
AcDbLine
 10
211.634846
 20
294.315275
 30
0.0
 11
211.634846
 21
255.815275
 31
0.0
  0
LINE
  5
41
330
1F
100
AcDbEntity
  8
LC-001-100-D00-0
 62
     7
370
    50
100
AcDbLine
 10
240.943642
 20
304.515277
 30
0.0
 11
240.943642
 21
304.540273
 31
0.0
  0
LINE
  5
42
330
1F
100
AcDbEntity
  8
LC-001-100-D00-0
 62
     7
370
    50
100
AcDbLine
 10
63.344048
 20
304.540273
 30
0.0
 11
63.344048
 21
304.515277
 31
0.0
  0
LINE
  5
43
330
1F
100
AcDbEntity
  8
LC-001-100-D00-0
 62
     7
370
    50
100
AcDbLine
 10
233.565705
 20
304.540273
 30
0.0
 11
233.565705
 21
304.315273
 31
0.0
  0
LINE
  5
44
330
1F
100
AcDbEntity
  8
LC-001-100-D00-0
 62
     7
370
    50
100
AcDbLine
 10
70.72922
 20
304.315273
 30
0.0
 11
70.72922
 21
304.540273
 31
0.0
  0
LINE
  5
45
330
1F
100
AcDbEntity
  8
LC-001-100-D00-0
 62
     7
370
    50
100
AcDbLine
 10
64.320983
 20
304.540273
 30
0.0
 11
64.320983
 21
304.515277
 31
0.0
  0
LINE
  5
46
330
1F
100
AcDbEntity
  8
LC-001-100-D00-0
 62
     7
370
    50
100
AcDbLine
 10
71.64398
 20
304.315273
 30
0.0
 11
71.64398
 21
304.540273
 31
0.0
  0
LINE
  5
47
330
1F
100
AcDbEntity
  8
LC-001-100-D00-0
 62
     7
370
    50
100
AcDbLine
 10
238.271164
 20
304.515277
 30
0.0
 11
238.271164
 21
304.540273
 31
0.0
  0
LINE
  5
48
330
1F
100
AcDbEntity
  8
LC-001-100-D00-0
 62
     7
370
    50
100
AcDbLine
 10
231.026368
 20
304.540273
 30
0.0
 11
231.026368
 21
304.315273
 31
0.0
  0
LINE
  5
49
330
1F
100
AcDbEntity
  8
LC-001-100-D00-0
 62
     7
370
    50
100
AcDbLine
 10
66.146666
 20
304.540273
 30
0.0
 11
66.146666
 21
304.515277
 31
0.0
  0
LINE
  5
4A
330
1F
100
AcDbEntity
  8
LC-001-100-D00-0
 62
     7
370
    50
100
AcDbLine
 10
146.134845
 20
294.315275
 30
0.0
 11
146.134845
 21
287.815273
 31
0.0
  0
LINE
  5
4B
330
1F
100
AcDbEntity
  8
LC-001-100-D00-0
 62
     7
370
    50
100
AcDbLine
 10
158.134845
 20
287.815273
 30
0.0
 11
158.134845
 21
294.315275
 31
0.0
  0
LINE
  5
4C
330
1F
100
AcDbEntity
  8
LC-001-100-D00-0
 62
     7
370
    50
100
AcDbLine
 10
161.134845
 20
215.715275
 30
0.0
 11
161.134845
 21
217.315276
 31
0.0
  0
LINE
  5
4D
330
1F
100
AcDbEntity
  8
LC-001-100-D00-0
 62
     7
370
    50
100
AcDbLine
 10
143.134845
 20
217.315276
 30
0.0
 11
143.134845
 21
215.715275
 31
0.0
  0
LINE
  5
4E
330
1F
100
AcDbEntity
  8
LC-001-100-D00-0
 62
     7
370
    50
100
AcDbLine
 10
146.884845
 20
305.715275
 30
0.0
 11
146.884845
 21
304.315273
 31
0.0
  0
LINE
  5
4F
330
1F
100
AcDbEntity
  8
LC-001-100-D00-0
 62
     7
370
    50
100
AcDbLine
 10
157.384845
 20
304.315273
 30
0.0
 11
157.384845
 21
305.715275
 31
0.0
  0
ARC
  5
50
330
1F
100
AcDbEntity
  8
LC-001-100-D00-0
 62
     7
370
    50
100
AcDbCircle
 10
147.084845
 20
305.715275
 30
0.0
 40
0.2000000000000455
100
AcDbArc
 50
90.0
 51
180.0
  0
ARC
  5
51
330
1F
100
AcDbEntity
  8
LC-001-100-D00-0
 62
     7
370
    50
100
AcDbCircle
 10
157.184845
 20
305.715275
 30
0.0
 40
0.2000000000000455
100
AcDbArc
 50
0.0
 51
90.0
  0
ARC
  5
52
330
1F
100
AcDbEntity
  8
LC-001-100-D00-0
 62
     7
370
    50
100
AcDbCircle
 10
152.134845
 20
300.790275
 30
0.0
 40
6.820236432852029
100
AcDbArc
 50
116.493736
 51
131.284711
  0
ARC
  5
53
330
1F
100
AcDbEntity
  8
LC-001-100-D00-0
 62
     7
370
    50
100
AcDbCircle
 10
152.134845
 20
300.790275
 30
0.0
 40
6.82023643285201
100
AcDbArc
 50
48.715289
 51
63.506264
  0
ARC
  5
54
330
1F
100
AcDbEntity
  8
LC-001-100-D00-0
 62
     7
370
    50
100
AcDbCircle
 10
155.088132
 20
306.715275
 30
0.0
 40
0.2000000000000533
100
AcDbArc
 50
63.506264
 51
90.0
  0
ARC
  5
55
330
1F
100
AcDbEntity
  8
LC-001-100-D00-0
 62
     7
370
    50
100
AcDbCircle
 10
149.181558
 20
306.715275
 30
0.0
 40
0.2000000000000455
100
AcDbArc
 50
90.0
 51
116.493736
  0
LINE
  5
56
330
1F
100
AcDbEntity
  8
LC-001-100-D00-0
 62
     7
370
    50
100
AcDbLine
 10
157.384845
 20
212.915276
 30
0.0
 11
157.384845
 21
215.715275
 31
0.0
  0
LINE
  5
57
330
1F
100
AcDbEntity
  8
LC-001-100-D00-0
 62
     7
370
    50
100
AcDbLine
 10
146.884845
 20
215.715275
 30
0.0
 11
146.884845
 21
212.915276
 31
0.0
  0
ARC
  5
58
330
1F
100
AcDbEntity
  8
LC-001-100-D00-0
 62
     7
370
    50
100
AcDbCircle
 10
157.184845
 20
212.915275
 30
0.0
 40
0.2000000000001023
100
AcDbArc
 50
270.0
 51
0.0
  0
ARC
  5
59
330
1F
100
AcDbEntity
  8
LC-001-100-D00-0
 62
     7
370
    50
100
AcDbCircle
 10
147.084845
 20
212.915275
 30
0.0
 40
0.2000000000000455
100
AcDbArc
 50
180.0
 51
270.0
  0
ARC
  5
5A
330
1F
100
AcDbEntity
  8
LC-001-100-D00-0
 62
     7
370
    50
100
AcDbCircle
 10
152.134845
 20
217.840275
 30
0.0
 40
6.820236432852004
100
AcDbArc
 50
300.242262
 51
311.284711
  0
ARC
  5
5B
330
1F
100
AcDbEntity
  8
LC-001-100-D00-0
 62
     7
370
    50
100
AcDbCircle
 10
152.134845
 20
217.840275
 30
0.0
 40
6.820236432851929
100
AcDbArc
 50
228.715289
 51
239.757738
  0
LINE
  5
5C
330
1F
100
AcDbEntity
  8
LC-001-100-D00-0
 62
     7
370
    50
100
AcDbLine
 10
222.134845
 20
202.815276
 30
0.0
 11
222.134845
 21
192.315273
 31
0.0
  0
LINE
  5
5D
330
1F
100
AcDbEntity
  8
LC-001-100-D00-0
 62
     7
370
    50
100
AcDbLine
 10
82.134845
 20
192.315273
 30
0.0
 11
82.134845
 21
202.815276
 31
0.0
  0
LINE
  5
5E
330
1F
100
AcDbEntity
  8
LC-001-100-D00-0
 62
     7
370
    50
100
AcDbLine
 10
228.134843
 20
202.815276
 30
0.0
 11
222.134845
 21
202.815276
 31
0.0
  0
LINE
  5
5F
330
1F
100
AcDbEntity
  8
LC-001-100-D00-0
 62
     7
370
    50
100
AcDbLine
 10
222.134845
 20
192.315273
 30
0.0
 11
228.262911
 21
192.315273
 31
0.0
  0
LINE
  5
60
330
1F
100
AcDbEntity
  8
LC-001-100-D00-0
 62
     7
370
    50
100
AcDbLine
 10
82.134845
 20
202.815276
 30
0.0
 11
76.134847
 21
202.815276
 31
0.0
  0
LINE
  5
61
330
1F
100
AcDbEntity
  8
LC-001-100-D00-0
 62
     7
370
    50
100
AcDbLine
 10
76.006779
 20
192.315273
 30
0.0
 11
82.134845
 21
192.315273
 31
0.0
  0
LINE
  5
62
330
1F
100
AcDbEntity
  8
LC-001-100-D00-0
 62
     7
370
    50
100
AcDbLine
 10
83.884844
 20
214.815274
 30
0.0
 11
83.884844
 21
216.815275
 31
0.0
  0
INSERT
  5
74
330
1F
100
AcDbEntity
  8
LC-001-100-D00-0
 62
     7
370
    50
100
AcDbBlockReference
  2
POLY1
 10
0.0
 20
0.0
 30
0.0
  0
LINE
  5
75
330
1F
100
AcDbEntity
  8
LC-001-100-D00-0
 62
     7
370
    50
100
AcDbLine
 10
83.887691
 20
214.565274
 30
0.0
 11
83.887691
 21
210.065276
 31
0.0
  0
INSERT
  5
87
330
1F
100
AcDbEntity
  8
LC-001-100-D00-0
 62
     7
370
    50
100
AcDbBlockReference
  2
POLY2
 10
0.0
 20
0.0
 30
0.0
  0
LINE
  5
88
330
1F
100
AcDbEntity
  8
LC-001-100-D00-0
 62
     7
370
    50
100
AcDbLine
 10
83.884844
 20
207.815275
 30
0.0
 11
83.884844
 21
209.815275
 31
0.0
  0
LINE
  5
89
330
1F
100
AcDbEntity
  8
LC-001-100-D00-0
 62
     7
370
    50
100
AcDbLine
 10
220.384845
 20
216.815275
 30
0.0
 11
220.384845
 21
207.815275
 31
0.0
  0
LINE
  5
8A
330
1F
100
AcDbEntity
  8
LC-001-100-D00-0
 62
     7
370
    50
100
AcDbLine
 10
84.884847
 20
209.815275
 30
0.0
 11
84.884847
 21
207.815275
 31
0.0
  0
LINE
  5
8B
330
1F
100
AcDbEntity
  8
LC-001-100-D00-0
 62
     7
370
    50
100
AcDbLine
 10
84.885867
 20
209.815275
 30
0.0
 11
84.884847
 21
209.815275
 31
0.0
  0
LINE
  5
8C
330
1F
100
AcDbEntity
  8
LC-001-100-D00-0
 62
     7
370
    50
100
AcDbLine
 10
84.884847
 20
214.815274
 30
0.0
 11
84.885867
 21
214.815274
 31
0.0
  0
LINE
  5
8D
330
1F
100
AcDbEntity
  8
LC-001-100-D00-0
 62
     7
370
    50
100
AcDbLine
 10
84.884847
 20
216.815275
 30
0.0
 11
84.884847
 21
214.815274
 31
0.0
  0
LINE
  5
8E
330
1F
100
AcDbEntity
  8
LC-001-100-D00-0
 62
     7
370
    50
100
AcDbLine
 10
219.384843
 20
207.815275
 30
0.0
 11
219.384843
 21
216.815275
 31
0.0
  0
LINE
  5
8F
330
1F
100
AcDbEntity
  8
LC-001-100-D00-0
 62
     7
370
    50
100
AcDbLine
 10
220.384845
 20
207.815275
 30
0.0
 11
219.384843
 21
207.815275
 31
0.0
  0
LINE
  5
90
330
1F
100
AcDbEntity
  8
LC-001-100-D00-0
 62
     7
370
    50
100
AcDbLine
 10
219.384843
 20
216.815275
 30
0.0
 11
220.384845
 21
216.815275
 31
0.0
  0
LINE
  5
91
330
1F
100
AcDbEntity
  8
LC-001-100-D00-0
 62
     7
370
    50
100
AcDbLine
 10
83.884844
 20
209.815275
 30
0.0
 11
84.884847
 21
209.815275
 31
0.0
  0
LINE
  5
92
330
1F
100
AcDbEntity
  8
LC-001-100-D00-0
 62
     7
370
    50
100
AcDbLine
 10
84.884847
 20
207.815275
 30
0.0
 11
83.884844
 21
207.815275
 31
0.0
  0
LINE
  5
93
330
1F
100
AcDbEntity
  8
LC-001-100-D00-0
 62
     7
370
    50
100
AcDbLine
 10
84.884847
 20
214.815274
 30
0.0
 11
83.884844
 21
214.815274
 31
0.0
  0
LINE
  5
94
330
1F
100
AcDbEntity
  8
LC-001-100-D00-0
 62
     7
370
    50
100
AcDbLine
 10
83.884844
 20
216.815275
 30
0.0
 11
84.884847
 21
216.815275
 31
0.0
  0
LINE
  5
95
330
1F
100
AcDbEntity
  8
LC-001-100-D00-0
 62
     7
370
    50
100
AcDbLine
 10
84.884847
 20
206.315276
 30
0.0
 11
84.884847
 21
220.815275
 31
0.0
  0
LINE
  5
96
330
1F
100
AcDbEntity
  8
LC-001-100-D00-0
 62
     7
370
    50
100
AcDbLine
 10
84.884847
 20
220.815275
 30
0.0
 11
86.634846
 21
220.815275
 31
0.0
  0
LINE
  5
97
330
1F
100
AcDbEntity
  8
LC-001-100-D00-0
 62
     7
370
    50
100
AcDbLine
 10
86.634846
 20
220.815275
 30
0.0
 11
88.634843
 21
218.815275
 31
0.0
  0
LINE
  5
98
330
1F
100
AcDbEntity
  8
LC-001-100-D00-0
 62
     7
370
    50
100
AcDbLine
 10
88.634843
 20
218.815275
 30
0.0
 11
88.634843
 21
178.815276
 31
0.0
  0
LINE
  5
99
330
1F
100
AcDbEntity
  8
LC-001-100-D00-0
 62
     7
370
    50
100
AcDbLine
 10
88.634843
 20
178.815276
 30
0.0
 11
86.634846
 21
176.815272
 31
0.0
  0
LINE
  5
9A
330
1F
100
AcDbEntity
  8
LC-001-100-D00-0
 62
     7
370
    50
100
AcDbLine
 10
83.634848
 20
176.815272
 30
0.0
 11
83.634848
 21
188.815274
 31
0.0
  0
LINE
  5
9B
330
1F
100
AcDbEntity
  8
LC-001-100-D00-0
 62
     7
370
    50
100
AcDbLine
 10
83.634848
 20
188.815274
 30
0.0
 11
75.134845
 21
188.815274
 31
0.0
  0
LINE
  5
9C
330
1F
100
AcDbEntity
  8
LC-001-100-D00-0
 62
     7
370
    50
100
AcDbLine
 10
75.134845
 20
188.815274
 30
0.0
 11
75.134845
 21
192.315273
 31
0.0
  0
LINE
  5
9D
330
1F
100
AcDbEntity
  8
LC-001-100-D00-0
 62
     7
370
    50
100
AcDbLine
 10
75.134845
 20
192.315273
 30
0.0
 11
82.134845
 21
192.315273
 31
0.0
  0
LINE
  5
9E
330
1F
100
AcDbEntity
  8
LC-001-100-D00-0
 62
     7
370
    50
100
AcDbLine
 10
82.134845
 20
202.815276
 30
0.0
 11
75.134845
 21
202.815276
 31
0.0
  0
LINE
  5
9F
330
1F
100
AcDbEntity
  8
LC-001-100-D00-0
 62
     7
370
    50
100
AcDbLine
 10
75.134845
 20
202.815276
 30
0.0
 11
75.134845
 21
206.315276
 31
0.0
  0
LINE
  5
A0
330
1F
100
AcDbEntity
  8
LC-001-100-D00-0
 62
     7
370
    50
100
AcDbLine
 10
75.134845
 20
206.315276
 30
0.0
 11
84.884847
 21
206.315276
 31
0.0
  0
LINE
  5
A1
330
1F
100
AcDbEntity
  8
LC-001-100-D00-0
 62
     7
370
    50
100
AcDbLine
 10
86.634846
 20
176.815272
 30
0.0
 11
83.634848
 21
176.815272
 31
0.0
  0
LINE
  5
A2
330
1F
100
AcDbEntity
  8
LC-001-100-D00-0
 62
     7
370
    50
100
AcDbLine
 10
229.134845
 20
206.315276
 30
0.0
 11
229.134845
 21
202.815276
 31
0.0
  0
LINE
  5
A3
330
1F
100
AcDbEntity
  8
LC-001-100-D00-0
 62
     7
370
    50
100
AcDbLine
 10
229.134845
 20
202.815276
 30
0.0
 11
222.134845
 21
202.815276
 31
0.0
  0
LINE
  5
A4
330
1F
100
AcDbEntity
  8
LC-001-100-D00-0
 62
     7
370
    50
100
AcDbLine
 10
222.134845
 20
192.315273
 30
0.0
 11
229.134845
 21
192.315273
 31
0.0
  0
LINE
  5
A5
330
1F
100
AcDbEntity
  8
LC-001-100-D00-0
 62
     7
370
    50
100
AcDbLine
 10
229.134845
 20
192.315273
 30
0.0
 11
229.134845
 21
188.815274
 31
0.0
  0
LINE
  5
A6
330
1F
100
AcDbEntity
  8
LC-001-100-D00-0
 62
     7
370
    50
100
AcDbLine
 10
229.134845
 20
188.815274
 30
0.0
 11
220.634842
 21
188.815274
 31
0.0
  0
LINE
  5
A7
330
1F
100
AcDbEntity
  8
LC-001-100-D00-0
 62
     7
370
    50
100
AcDbLine
 10
220.634842
 20
188.815274
 30
0.0
 11
220.634842
 21
176.815272
 31
0.0
  0
LINE
  5
A8
330
1F
100
AcDbEntity
  8
LC-001-100-D00-0
 62
     7
370
    50
100
AcDbLine
 10
217.634844
 20
176.815272
 30
0.0
 11
215.634847
 21
178.815276
 31
0.0
  0
LINE
  5
A9
330
1F
100
AcDbEntity
  8
LC-001-100-D00-0
 62
     7
370
    50
100
AcDbLine
 10
215.634847
 20
178.815276
 30
0.0
 11
215.634847
 21
218.815275
 31
0.0
  0
LINE
  5
AA
330
1F
100
AcDbEntity
  8
LC-001-100-D00-0
 62
     7
370
    50
100
AcDbLine
 10
215.634847
 20
218.815275
 30
0.0
 11
217.634844
 21
220.815275
 31
0.0
  0
LINE
  5
AB
330
1F
100
AcDbEntity
  8
LC-001-100-D00-0
 62
     7
370
    50
100
AcDbLine
 10
217.634844
 20
220.815275
 30
0.0
 11
219.384843
 21
220.815275
 31
0.0
  0
LINE
  5
AC
330
1F
100
AcDbEntity
  8
LC-001-100-D00-0
 62
     7
370
    50
100
AcDbLine
 10
219.384843
 20
220.815275
 30
0.0
 11
219.384843
 21
206.315276
 31
0.0
  0
LINE
  5
AD
330
1F
100
AcDbEntity
  8
LC-001-100-D00-0
 62
     7
370
    50
100
AcDbLine
 10
219.384843
 20
206.315276
 30
0.0
 11
229.134845
 21
206.315276
 31
0.0
  0
LINE
  5
AE
330
1F
100
AcDbEntity
  8
LC-001-100-D00-0
 62
     7
370
    50
100
AcDbLine
 10
220.634842
 20
176.815272
 30
0.0
 11
217.634844
 21
176.815272
 31
0.0
  0
LINE
  5
AF
330
1F
100
AcDbEntity
  8
LC-001-100-D00-0
 62
     7
370
    50
100
AcDbLine
 10
217.634844
 20
176.815272
 30
0.0
 11
216.634842
 21
176.815272
 31
0.0
  0
LINE
  5
B0
330
1F
100
AcDbEntity
  8
LC-001-100-D00-0
 62
     7
370
    50
100
AcDbLine
 10
87.634848
 20
176.815272
 30
0.0
 11
86.634846
 21
176.815272
 31
0.0
  0
LINE
  5
B1
330
1F
100
AcDbEntity
  8
LC-001-100-D00-0
 62
     7
370
    50
100
AcDbLine
 10
86.634846
 20
220.815275
 30
0.0
 11
87.634848
 21
220.815275
 31
0.0
  0
LINE
  5
B2
330
1F
100
AcDbEntity
  8
LC-001-100-D00-0
 62
     7
370
    50
100
AcDbLine
 10
216.634842
 20
220.815275
 30
0.0
 11
217.634844
 21
220.815275
 31
0.0
  0
LINE
  5
B3
330
1F
100
AcDbEntity
  8
LC-001-100-D00-0
 62
     7
370
    50
100
AcDbLine
 10
84.884847
 20
218.815275
 30
0.0
 11
81.998819
 21
218.815275
 31
0.0
  0
LINE
  5
B4
330
1F
100
AcDbEntity
  8
LC-001-100-D00-0
 62
     7
370
    50
100
AcDbLine
 10
81.998819
 20
218.815275
 30
0.0
 11
81.998819
 21
220.815275
 31
0.0
  0
LINE
  5
B5
330
1F
100
AcDbEntity
  8
LC-001-100-D00-0
 62
     7
370
    50
100
AcDbLine
 10
84.884847
 20
220.815275
 30
0.0
 11
81.998819
 21
220.815275
 31
0.0
  0
LINE
  5
B6
330
1F
100
AcDbEntity
  8
LC-001-100-D00-0
 62
     7
370
    50
100
AcDbLine
 10
222.270871
 20
218.815275
 30
0.0
 11
222.270871
 21
220.815275
 31
0.0
  0
LINE
  5
B7
330
1F
100
AcDbEntity
  8
LC-001-100-D00-0
 62
     7
370
    50
100
AcDbLine
 10
222.270871
 20
218.815275
 30
0.0
 11
219.384843
 21
218.815275
 31
0.0
  0
LINE
  5
B8
330
1F
100
AcDbEntity
  8
LC-001-100-D00-0
 62
     7
370
    50
100
AcDbLine
 10
222.270871
 20
220.815275
 30
0.0
 11
219.384843
 21
220.815275
 31
0.0
  0
LINE
  5
B9
330
1F
100
AcDbEntity
  8
LC-001-100-D00-0
 62
     7
370
    50
100
AcDbLine
 10
220.634842
 20
180.565276
 30
0.0
 11
223.941879
 21
180.565276
 31
0.0
  0
LINE
  5
BA
330
1F
100
AcDbEntity
  8
LC-001-100-D00-0
 62
     7
370
    50
100
AcDbLine
 10
223.941879
 20
180.565276
 30
0.0
 11
223.941879
 21
177.015275
 31
0.0
  0
LINE
  5
BB
330
1F
100
AcDbEntity
  8
LC-001-100-D00-0
 62
     7
370
    50
100
AcDbLine
 10
80.327811
 20
180.565276
 30
0.0
 11
83.634848
 21
180.565276
 31
0.0
  0
LINE
  5
BC
330
1F
100
AcDbEntity
  8
LC-001-100-D00-0
 62
     7
370
    50
100
AcDbLine
 10
80.327811
 20
180.565276
 30
0.0
 11
80.327811
 21
177.015275
 31
0.0
  0
ARC
  5
BD
330
1F
100
AcDbEntity
  8
LC-001-100-D00-0
 62
     7
370
    50
100
AcDbCircle
 10
83.806418
 20
227.315275
 30
0.0
 40
2.000000000000016
100
AcDbArc
 50
45.0
 51
90.0
  0
LINE
  5
BE
330
1F
100
AcDbEntity
  8
LC-001-100-D00-0
 62
     7
370
    50
100
AcDbLine
 10
92.04906
 20
221.901061
 30
0.0
 11
85.220629
 21
228.729489
 31
0.0
  0
ARC
  5
BF
330
1F
100
AcDbEntity
  8
LC-001-100-D00-0
 62
     7
370
    50
100
AcDbCircle
 10
90.634845
 20
220.486848
 30
0.0
 40
2.0
100
AcDbArc
 50
0.0
 51
45.0
  0
LINE
  5
C0
330
1F
100
AcDbEntity
  8
LC-001-100-D00-0
 62
     7
370
    50
100
AcDbLine
 10
92.634844
 20
159.315274
 30
0.0
 11
92.634844
 21
220.486848
 31
0.0
  0
LINE
  5
C1
330
1F
100
AcDbEntity
  8
LC-001-100-D00-0
 62
     7
370
    50
100
AcDbLine
 10
89.634845
 20
159.315274
 30
0.0
 11
87.634848
 21
161.315278
 31
0.0
  0
LINE
  5
C2
330
1F
100
AcDbEntity
  8
LC-001-100-D00-0
 62
     7
370
    50
100
AcDbLine
 10
87.634848
 20
221.365527
 30
0.0
 11
87.634848
 21
161.315278
 31
0.0
  0
LINE
  5
C3
330
1F
100
AcDbEntity
  8
LC-001-100-D00-0
 62
     7
370
    50
100
AcDbLine
 10
83.185101
 20
225.815274
 30
0.0
 11
87.634848
 21
221.365527
 31
0.0
  0
LINE
  5
C4
330
1F
100
AcDbEntity
  8
LC-001-100-D00-0
 62
     7
370
    50
100
AcDbLine
 10
28.634848
 20
225.815274
 30
0.0
 11
83.185101
 21
225.815274
 31
0.0
  0
LINE
  5
C5
330
1F
100
AcDbEntity
  8
LC-001-100-D00-0
 62
     7
370
    50
100
AcDbLine
 10
27.895706
 20
228.573772
 30
0.0
 11
28.634848
 21
225.815274
 31
0.0
  0
LINE
  5
C6
330
1F
100
AcDbEntity
  8
LC-001-100-D00-0
 62
     7
370
    50
100
AcDbLine
 10
21.134848
 20
229.88795
 30
0.0
 11
27.895706
 21
228.573772
 31
0.0
  0
LINE
  5
C7
330
1F
100
AcDbEntity
  8
LC-001-100-D00-0
 62
     7
370
    50
100
AcDbLine
 10
32.134848
 20
231.315275
 30
0.0
 11
23.513562
 21
232.991083
 31
0.0
  0
LINE
  5
C8
330
1F
100
AcDbEntity
  8
LC-001-100-D00-0
 62
     7
370
    50
100
AcDbLine
 10
32.134848
 20
229.315276
 30
0.0
 11
32.134848
 21
231.315275
 31
0.0
  0
LINE
  5
C9
330
1F
100
AcDbEntity
  8
LC-001-100-D00-0
 62
     7
370
    50
100
AcDbLine
 10
83.80642
 20
229.315276
 30
0.0
 11
32.134848
 21
229.315276
 31
0.0
  0
LINE
  5
CA
330
1F
100
AcDbEntity
  8
LC-001-100-D00-0
 62
     7
370
    50
100
AcDbLine
 10
89.634845
 20
159.315274
 30
0.0
 11
92.634844
 21
159.315274
 31
0.0
  0
LINE
  5
CB
330
1F
100
AcDbEntity
  8
LC-001-100-D00-0
 62
     7
370
    50
100
AcDbLine
 10
216.634842
 20
161.315278
 30
0.0
 11
214.634845
 21
159.315274
 31
0.0
  0
LINE
  5
CC
330
1F
100
AcDbEntity
  8
LC-001-100-D00-0
 62
     7
370
    50
100
AcDbLine
 10
276.373984
 20
228.573772
 30
0.0
 11
283.134842
 21
229.88795
 31
0.0
  0
LINE
  5
CD
330
1F
100
AcDbEntity
  8
LC-001-100-D00-0
 62
     7
370
    50
100
AcDbLine
 10
275.634842
 20
225.815274
 30
0.0
 11
276.373984
 21
228.573772
 31
0.0
  0
LINE
  5
CE
330
1F
100
AcDbEntity
  8
LC-001-100-D00-0
 62
     7
370
    50
100
AcDbLine
 10
221.084589
 20
225.815274
 30
0.0
 11
275.634842
 21
225.815274
 31
0.0
  0
LINE
  5
CF
330
1F
100
AcDbEntity
  8
LC-001-100-D00-0
 62
     7
370
    50
100
AcDbLine
 10
216.634842
 20
221.365527
 30
0.0
 11
221.084589
 21
225.815274
 31
0.0
  0
LINE
  5
D0
330
1F
100
AcDbEntity
  8
LC-001-100-D00-0
 62
     7
370
    50
100
AcDbLine
 10
216.634842
 20
161.315278
 30
0.0
 11
216.634842
 21
221.365527
 31
0.0
  0
LINE
  5
D1
330
1F
100
AcDbEntity
  8
LC-001-100-D00-0
 62
     7
370
    15
100
AcDbLine
 10
211.634846
 20
220.486848
 30
0.0
 11
211.634846
 21
159.315274
 31
0.0
  0
ARC
  5
D2
330
1F
100
AcDbEntity
  8
LC-001-100-D00-0
 62
     7
370
    50
100
AcDbCircle
 10
213.634845
 20
220.486848
 30
0.0
 40
2.000000000000016
100
AcDbArc
 50
135.0
 51
180.0
  0
LINE
  5
D3
330
1F
100
AcDbEntity
  8
LC-001-100-D00-0
 62
     7
370
    50
100
AcDbLine
 10
219.049061
 20
228.729489
 30
0.0
 11
212.22063
 21
221.901061
 31
0.0
  0
ARC
  5
D4
330
1F
100
AcDbEntity
  8
LC-001-100-D00-0
 62
     7
370
    50
100
AcDbCircle
 10
220.463272
 20
227.315275
 30
0.0
 40
2.0
100
AcDbArc
 50
90.0
 51
135.0
  0
LINE
  5
D5
330
1F
100
AcDbEntity
  8
LC-001-100-D00-0
 62
     7
370
    50
100
AcDbLine
 10
272.134842
 20
229.315276
 30
0.0
 11
220.46327
 21
229.315276
 31
0.0
  0
LINE
  5
D6
330
1F
100
AcDbEntity
  8
LC-001-100-D00-0
 62
     7
370
    50
100
AcDbLine
 10
272.134842
 20
231.315275
 30
0.0
 11
272.134842
 21
229.315276
 31
0.0
  0
LINE
  5
D7
330
1F
100
AcDbEntity
  8
LC-001-100-D00-0
 62
     7
370
    50
100
AcDbLine
 10
211.634846
 20
159.315274
 30
0.0
 11
214.634845
 21
159.315274
 31
0.0
  0
LINE
  5
D8
330
1F
100
AcDbEntity
  8
LC-001-100-D00-0
 62
     7
370
    50
100
AcDbLine
 10
92.634844
 20
159.315274
 30
0.0
 11
211.634846
 21
159.315274
 31
0.0
  0
LINE
  5
D9
330
1F
100
AcDbEntity
  8
LC-001-100-D00-0
 62
     7
370
    50
100
AcDbLine
 10
163.134845
 20
221.315274
 30
0.0
 11
163.134845
 21
221.901061
 31
0.0
  0
LINE
  5
DA
330
1F
100
AcDbEntity
  8
LC-001-100-D00-0
 62
     7
370
    50
100
AcDbLine
 10
141.134845
 20
221.901061
 30
0.0
 11
141.134845
 21
221.315274
 31
0.0
  0
LINE
  5
DB
330
1F
100
AcDbEntity
  8
LC-001-100-D00-0
 62
     7
370
    50
100
AcDbLine
 10
104.185915
 20
229.315276
 30
0.0
 11
146.384845
 21
229.315276
 31
0.0
  0
LINE
  5
DC
330
1F
100
AcDbEntity
  8
LC-001-100-D00-0
 62
     7
370
    50
100
AcDbLine
 10
157.884845
 20
229.315276
 30
0.0
 11
200.083775
 21
229.315276
 31
0.0
  0
LINE
  5
DD
330
1F
100
AcDbEntity
  8
LC-001-100-D00-0
 62
     7
370
    50
100
AcDbLine
 10
32.134848
 20
231.315275
 30
0.0
 11
32.627219
 21
231.315275
 31
0.0
  0
LINE
  5
DE
330
1F
100
AcDbEntity
  8
LC-001-100-D00-0
 62
     7
370
    50
100
AcDbLine
 10
271.634841
 20
231.315275
 30
0.0
 11
272.134842
 21
231.315275
 31
0.0
  0
LINE
  5
DF
330
1F
100
AcDbEntity
  8
LC-001-100-D00-0
 62
     7
370
    50
100
AcDbLine
 10
110.369762
 20
235.202881
 30
0.0
 11
114.135215
 21
235.202881
 31
0.0
  0
LINE
  5
E0
330
1F
100
AcDbEntity
  8
LC-001-100-D00-0
 62
     7
370
    50
100
AcDbLine
 10
120.750884
 20
235.202881
 30
0.0
 11
126.11142
 21
235.202881
 31
0.0
  0
LINE
  5
E1
330
1F
100
AcDbEntity
  8
LC-001-100-D00-0
 62
     7
370
    50
100
AcDbLine
 10
131.475855
 20
235.202881
 30
0.0
 11
138.372743
 21
235.202881
 31
0.0
  0
LINE
  5
E2
330
1F
100
AcDbEntity
  8
LC-001-100-D00-0
 62
     7
370
    50
100
AcDbLine
 10
142.42717
 20
235.202881
 30
0.0
 11
146.384845
 21
235.202881
 31
0.0
  0
LINE
  5
E3
330
1F
100
AcDbEntity
  8
LC-001-100-D00-0
 62
     7
370
    50
100
AcDbLine
 10
157.884845
 20
235.202881
 30
0.0
 11
161.84252
 21
235.202881
 31
0.0
  0
LINE
  5
E4
330
1F
100
AcDbEntity
  8
LC-001-100-D00-0
 62
     7
370
    50
100
AcDbLine
 10
165.896947
 20
235.202881
 30
0.0
 11
172.793835
 21
235.202881
 31
0.0
  0
LINE
  5
E5
330
1F
100
AcDbEntity
  8
LC-001-100-D00-0
 62
     7
370
    50
100
AcDbLine
 10
178.15827
 20
235.202881
 30
0.0
 11
183.518806
 21
235.202881
 31
0.0
  0
LINE
  5
E6
330
1F
100
AcDbEntity
  8
LC-001-100-D00-0
 62
     7
370
    50
100
AcDbLine
 10
190.134475
 20
235.202881
 30
0.0
 11
193.899928
 21
235.202881
 31
0.0
  0
LINE
  5
E7
330
1F
100
AcDbEntity
  8
LC-001-100-D00-0
 62
     7
370
    50
100
AcDbLine
 10
111.11412
 20
241.315275
 30
0.0
 11
114.468267
 21
241.315275
 31
0.0
  0
LINE
  5
E8
330
1F
100
AcDbEntity
  8
LC-001-100-D00-0
 62
     7
370
    50
100
AcDbLine
 10
121.083936
 20
241.315275
 30
0.0
 11
126.335503
 21
241.315275
 31
0.0
  0
LINE
  5
E9
330
1F
100
AcDbEntity
  8
LC-001-100-D00-0
 62
     7
370
    50
100
AcDbLine
 10
131.699938
 20
241.315275
 30
0.0
 11
138.485401
 21
241.315275
 31
0.0
  0
LINE
  5
EA
330
1F
100
AcDbEntity
  8
LC-001-100-D00-0
 62
     7
370
    50
100
AcDbLine
 10
142.539829
 20
241.315275
 30
0.0
 11
146.384845
 21
241.315275
 31
0.0
  0
LINE
  5
EB
330
1F
100
AcDbEntity
  8
LC-001-100-D00-0
 62
     7
370
    50
100
AcDbLine
 10
157.884845
 20
241.315275
 30
0.0
 11
161.729861
 21
241.315275
 31
0.0
  0
LINE
  5
EC
330
1F
100
AcDbEntity
  8
LC-001-100-D00-0
 62
     7
370
    50
100
AcDbLine
 10
165.784289
 20
241.315275
 30
0.0
 11
172.569752
 21
241.315275
 31
0.0
  0
LINE
  5
ED
330
1F
100
AcDbEntity
  8
LC-001-100-D00-0
 62
     7
370
    50
100
AcDbLine
 10
177.934186
 20
241.315275
 30
0.0
 11
183.185754
 21
241.315275
 31
0.0
  0
LINE
  5
EE
330
1F
100
AcDbEntity
  8
LC-001-100-D00-0
 62
     7
370
    50
100
AcDbLine
 10
189.801423
 20
241.315275
 30
0.0
 11
193.15557
 21
241.315275
 31
0.0
  0
LINE
  5
EF
330
1F
100
AcDbEntity
  8
LC-001-100-D00-0
 62
     7
370
    50
100
AcDbLine
 10
163.134845
 20
217.315276
 30
0.0
 11
163.134845
 21
221.315274
 31
0.0
  0
LINE
  5
F0
330
1F
100
AcDbEntity
  8
LC-001-100-D00-0
 62
     7
370
    50
100
AcDbLine
 10
141.134845
 20
217.315276
 30
0.0
 11
163.134845
 21
217.315276
 31
0.0
  0
LINE
  5
F1
330
1F
100
AcDbEntity
  8
LC-001-100-D00-0
 62
     7
370
    50
100
AcDbLine
 10
141.134845
 20
217.315276
 30
0.0
 11
141.134845
 21
221.315274
 31
0.0
  0
LINE
  5
F2
330
1F
100
AcDbEntity
  8
LC-001-100-D00-0
 62
     7
370
    50
100
AcDbLine
 10
141.134845
 20
221.315274
 30
0.0
 11
163.134845
 21
221.315274
 31
0.0
  0
ARC
  5
F3
330
1F
100
AcDbEntity
  8
LC-001-100-D00-0
 62
     7
370
    50
100
AcDbCircle
 10
224.134845
 20
117.315275
 30
0.0
 40
8.000000000000057
100
AcDbArc
 50
270.0
 51
0.0
  0
ARC
  5
F4
330
1F
100
AcDbEntity
  8
LC-001-100-D00-0
 62
     7
370
    50
100
AcDbCircle
 10
80.134845
 20
117.315275
 30
0.0
 40
8.000000000000057
100
AcDbArc
 50
180.0
 51
270.0
  0
LINE
  5
F5
330
1F
100
AcDbEntity
  8
LC-001-100-D00-0
 62
     7
370
    50
100
AcDbLine
 10
232.134843
 20
119.315275
 30
0.0
 11
232.134843
 21
117.31527
 31
0.0
  0
LINE
  5
F6
330
1F
100
AcDbEntity
  8
LC-001-100-D00-0
 62
     7
370
    50
100
AcDbLine
 10
72.134847
 20
117.31527
 30
0.0
 11
72.134847
 21
119.315275
 31
0.0
  0
LINE
  5
F7
330
1F
100
AcDbEntity
  8
LC-001-100-D00-0
 62
     7
370
    50
100
AcDbLine
 10
229.634846
 20
128.315278
 30
0.0
 11
229.634846
 21
119.315275
 31
0.0
  0
LINE
  5
F8
330
1F
100
AcDbEntity
  8
LC-001-100-D00-0
 62
     7
370
    50
100
AcDbLine
 10
74.634844
 20
119.315275
 30
0.0
 11
74.634844
 21
128.315278
 31
0.0
  0
LINE
  5
F9
330
1F
100
AcDbEntity
  8
LC-001-100-D00-0
 62
     7
370
    50
100
AcDbLine
 10
227.434846
 20
126.815275
 30
0.0
 11
227.434846
 21
128.315278
 31
0.0
  0
LINE
  5
FA
330
1F
100
AcDbEntity
  8
LC-001-100-D00-0
 62
     7
370
    50
100
AcDbLine
 10
76.834844
 20
128.315278
 30
0.0
 11
76.834844
 21
126.815275
 31
0.0
  0
LINE
  5
FB
330
1F
100
AcDbEntity
  8
LC-001-100-D00-0
 62
     7
370
    50
100
AcDbLine
 10
76.834844
 20
128.315278
 30
0.0
 11
85.634844
 21
128.315278
 31
0.0
  0
LINE
  5
FC
330
1F
100
AcDbEntity
  8
LC-001-100-D00-0
 62
     7
370
    50
100
AcDbLine
 10
218.634846
 20
128.315278
 30
0.0
 11
227.434846
 21
128.315278
 31
0.0
  0
LINE
  5
FD
330
1F
100
AcDbEntity
  8
LC-001-100-D00-0
 62
     7
370
    50
100
AcDbLine
 10
227.134848
 20
114.315279
 30
0.0
 11
227.134848
 21
126.815275
 31
0.0
  0
LINE
  5
FE
330
1F
100
AcDbEntity
  8
LC-001-100-D00-0
 62
     7
370
    50
100
AcDbLine
 10
77.134842
 20
126.815275
 30
0.0
 11
77.134842
 21
114.315279
 31
0.0
  0
LINE
  5
FF
330
1F
100
AcDbEntity
  8
LC-001-100-D00-0
 62
     7
370
    50
100
AcDbLine
 10
77.134842
 20
126.815275
 30
0.0
 11
85.634844
 21
126.815275
 31
0.0
  0
LINE
  5
100
330
1F
100
AcDbEntity
  8
LC-001-100-D00-0
 62
     7
370
    50
100
AcDbLine
 10
218.634846
 20
126.815275
 30
0.0
 11
227.134848
 21
126.815275
 31
0.0
  0
ARC
  5
101
330
1F
100
AcDbEntity
  8
LC-001-100-D00-0
 62
     7
370
    50
100
AcDbCircle
 10
224.634845
 20
114.315275
 30
0.0
 40
2.499999999999943
100
AcDbArc
 50
270.0
 51
0.0
  0
ARC
  5
102
330
1F
100
AcDbEntity
  8
LC-001-100-D00-0
 62
     7
370
    50
100
AcDbCircle
 10
79.634845
 20
114.315275
 30
0.0
 40
2.499999999999943
100
AcDbArc
 50
180.0
 51
270.0
  0
LINE
  5
103
330
1F
100
AcDbEntity
  8
LC-001-100-D00-0
 62
     7
370
    50
100
AcDbLine
 10
189.634846
 20
109.315269
 30
0.0
 11
189.634846
 21
111.815282
 31
0.0
  0
LINE
  5
104
330
1F
100
AcDbEntity
  8
LC-001-100-D00-0
 62
     7
370
    50
100
AcDbLine
 10
114.634843
 20
111.815282
 30
0.0
 11
114.634843
 21
109.315269
 31
0.0
  0
LINE
  5
105
330
1F
100
AcDbEntity
  8
LC-001-100-D00-0
 62
     7
370
    50
100
AcDbLine
 10
94.631946
 20
106.815272
 30
0.0
 11
94.631946
 21
109.315269
 31
0.0
  0
LINE
  5
106
330
1F
100
AcDbEntity
  8
LC-001-100-D00-0
 62
     7
370
    50
100
AcDbLine
 10
84.631445
 20
106.815272
 30
0.0
 11
94.631946
 21
106.815272
 31
0.0
  0
LINE
  5
107
330
1F
100
AcDbEntity
  8
LC-001-100-D00-0
 62
     7
370
    50
100
AcDbLine
 10
84.631445
 20
109.315269
 30
0.0
 11
84.631445
 21
106.815272
 31
0.0
  0
LINE
  5
108
330
1F
100
AcDbEntity
  8
LC-001-100-D00-0
 62
     7
370
    50
100
AcDbLine
 10
84.631445
 20
109.315269
 30
0.0
 11
80.134848
 21
109.315269
 31
0.0
  0
LINE
  5
109
330
1F
100
AcDbEntity
  8
LC-001-100-D00-0
 62
     7
370
    50
100
AcDbLine
 10
114.634843
 20
109.315269
 30
0.0
 11
94.631946
 21
109.315269
 31
0.0
  0
LINE
  5
10A
330
1F
100
AcDbEntity
  8
LC-001-100-D00-0
 62
     7
370
    50
100
AcDbLine
 10
79.634847
 20
111.815282
 30
0.0
 11
114.634843
 21
111.815282
 31
0.0
  0
LINE
  5
10B
330
1F
100
AcDbEntity
  8
LC-001-100-D00-0
 62
     7
370
    50
100
AcDbLine
 10
76.834844
 20
126.815275
 30
0.0
 11
77.134842
 21
126.815275
 31
0.0
  0
LINE
  5
10C
330
1F
100
AcDbEntity
  8
LC-001-100-D00-0
 62
     7
370
    50
100
AcDbLine
 10
74.634844
 20
128.315278
 30
0.0
 11
76.834844
 21
128.315278
 31
0.0
  0
LINE
  5
10D
330
1F
100
AcDbEntity
  8
LC-001-100-D00-0
 62
     7
370
    50
100
AcDbLine
 10
72.134847
 20
119.315275
 30
0.0
 11
74.634844
 21
119.315275
 31
0.0
  0
LINE
  5
10E
330
1F
100
AcDbEntity
  8
LC-001-100-D00-0
 62
     7
370
    50
100
AcDbLine
 10
209.637744
 20
109.315269
 30
0.0
 11
209.637744
 21
106.815272
 31
0.0
  0
LINE
  5
10F
330
1F
100
AcDbEntity
  8
LC-001-100-D00-0
 62
     7
370
    50
100
AcDbLine
 10
204.103282
 20
111.815282
 30
0.0
 11
204.103282
 21
109.315269
 31
0.0
  0
LINE
  5
110
330
1F
100
AcDbEntity
  8
LC-001-100-D00-0
 62
     7
370
    50
100
AcDbLine
 10
219.638245
 20
106.815272
 30
0.0
 11
219.638245
 21
109.315269
 31
0.0
  0
LINE
  5
111
330
1F
100
AcDbEntity
  8
LC-001-100-D00-0
 62
     7
370
    50
100
AcDbLine
 10
209.637744
 20
106.815272
 30
0.0
 11
219.638245
 21
106.815272
 31
0.0
  0
LINE
  5
112
330
1F
100
AcDbEntity
  8
LC-001-100-D00-0
 62
     7
370
    50
100
AcDbLine
 10
209.637744
 20
109.315269
 30
0.0
 11
204.103282
 21
109.315269
 31
0.0
  0
LINE
  5
113
330
1F
100
AcDbEntity
  8
LC-001-100-D00-0
 62
     7
370
    50
100
AcDbLine
 10
224.134842
 20
109.315269
 30
0.0
 11
219.638245
 21
109.315269
 31
0.0
  0
LINE
  5
114
330
1F
100
AcDbEntity
  8
LC-001-100-D00-0
 62
     7
370
    50
100
AcDbLine
 10
204.103282
 20
111.815282
 30
0.0
 11
224.634843
 21
111.815282
 31
0.0
  0
LINE
  5
115
330
1F
100
AcDbEntity
  8
LC-001-100-D00-0
 62
     7
370
    50
100
AcDbLine
 10
227.134848
 20
126.815275
 30
0.0
 11
227.434846
 21
126.815275
 31
0.0
  0
LINE
  5
116
330
1F
100
AcDbEntity
  8
LC-001-100-D00-0
 62
     7
370
    50
100
AcDbLine
 10
227.434846
 20
128.315278
 30
0.0
 11
229.634846
 21
128.315278
 31
0.0
  0
LINE
  5
117
330
1F
100
AcDbEntity
  8
LC-001-100-D00-0
 62
     7
370
    50
100
AcDbLine
 10
229.634846
 20
119.315275
 30
0.0
 11
232.134843
 21
119.315275
 31
0.0
  0
LINE
  5
118
330
1F
100
AcDbEntity
  8
LC-001-100-D00-0
 62
     7
370
    50
100
AcDbLine
 10
196.16157
 20
109.315269
 30
0.0
 11
196.16157
 21
111.815282
 31
0.0
  0
LINE
  5
119
330
1F
100
AcDbEntity
  8
LC-001-100-D00-0
 62
     7
370
    50
100
AcDbLine
 10
196.16157
 20
109.315269
 30
0.0
 11
204.103282
 21
109.315269
 31
0.0
  0
LINE
  5
11A
330
1F
100
AcDbEntity
  8
LC-001-100-D00-0
 62
     7
370
    50
100
AcDbLine
 10
196.16157
 20
111.815282
 30
0.0
 11
204.103282
 21
111.815282
 31
0.0
  0
LINE
  5
11B
330
1F
100
AcDbEntity
  8
LC-001-100-D00-0
 62
     7
370
    50
100
AcDbLine
 10
196.16157
 20
109.315269
 30
0.0
 11
189.634846
 21
109.315269
 31
0.0
  0
LINE
  5
11C
330
1F
100
AcDbEntity
  8
LC-001-100-D00-0
 62
     7
370
    50
100
AcDbLine
 10
189.634846
 20
111.815282
 30
0.0
 11
196.16157
 21
111.815282
 31
0.0
  0
LINE
  5
11D
330
1F
100
AcDbEntity
  8
LC-001-100-D00-0
 62
     7
370
    50
100
AcDbLine
 10
84.628204
 20
106.815272
 30
0.0
 11
84.628204
 21
109.315269
 31
0.0
  0
LINE
  5
11E
330
1F
100
AcDbEntity
  8
LC-001-100-D00-0
 62
     7
370
    50
100
AcDbLine
 10
84.631445
 20
106.815272
 30
0.0
 11
84.628204
 21
106.815272
 31
0.0
  0
LINE
  5
11F
330
1F
100
AcDbEntity
  8
LC-001-100-D00-0
 62
     7
370
    50
100
AcDbLine
 10
209.621904
 20
106.815272
 30
0.0
 11
209.621904
 21
109.315269
 31
0.0
  0
LINE
  5
120
330
1F
100
AcDbEntity
  8
LC-001-100-D00-0
 62
     7
370
    50
100
AcDbLine
 10
209.637744
 20
106.815272
 30
0.0
 11
209.621904
 21
106.815272
 31
0.0
  0
LINE
  5
121
330
1F
100
AcDbEntity
  8
LC-001-100-D00-0
 62
     7
370
    50
100
AcDbLine
 10
216.884846
 20
255.815275
 30
0.0
 11
216.884846
 21
249.815275
 31
0.0
  0
LINE
  5
122
330
1F
100
AcDbEntity
  8
LC-001-100-D00-0
 62
     7
370
    50
100
AcDbLine
 10
221.384847
 20
255.815275
 30
0.0
 11
216.884846
 21
255.815275
 31
0.0
  0
LINE
  5
123
330
1F
100
AcDbEntity
  8
LC-001-100-D00-0
 62
     7
370
    50
100
AcDbLine
 10
221.384847
 20
249.815275
 30
0.0
 11
221.384847
 21
255.815275
 31
0.0
  0
LINE
  5
124
330
1F
100
AcDbEntity
  8
LC-001-100-D00-0
 62
     7
370
    50
100
AcDbLine
 10
221.384847
 20
249.815275
 30
0.0
 11
251.134844
 21
249.815275
 31
0.0
  0
LINE
  5
125
330
1F
100
AcDbEntity
  8
LC-001-100-D00-0
 62
     7
370
    50
100
AcDbLine
 10
251.134844
 20
248.315275
 30
0.0
 11
251.134844
 21
249.815275
 31
0.0
  0
LINE
  5
126
330
1F
100
AcDbEntity
  8
LC-001-100-D00-0
 62
     7
370
    50
100
AcDbLine
 10
251.134844
 20
248.315275
 30
0.0
 11
238.072665
 21
244.815275
 31
0.0
  0
LINE
  5
127
330
1F
100
AcDbEntity
  8
LC-001-100-D00-0
 62
     7
370
    50
100
AcDbLine
 10
229.634846
 20
244.815275
 30
0.0
 11
238.072665
 21
244.815275
 31
0.0
  0
LINE
  5
128
330
1F
100
AcDbEntity
  8
LC-001-100-D00-0
 62
     7
370
    50
100
AcDbLine
 10
229.134845
 20
244.315275
 30
0.0
 11
229.634846
 21
244.815275
 31
0.0
  0
LINE
  5
129
330
1F
100
AcDbEntity
  8
LC-001-100-D00-0
 62
     7
370
    50
100
AcDbLine
 10
229.134845
 20
244.315275
 30
0.0
 11
229.134845
 21
229.315276
 31
0.0
  0
LINE
  5
12A
330
1F
100
AcDbEntity
  8
LC-001-100-D00-0
 62
     7
370
    50
100
AcDbLine
 10
229.134845
 20
229.315276
 30
0.0
 11
200.083775
 21
229.315276
 31
0.0
  0
LINE
  5
12B
330
1F
100
AcDbEntity
  8
LC-001-100-D00-0
 62
     7
370
    50
100
AcDbLine
 10
200.083775
 20
229.315276
 30
0.0
 11
191.817859
 21
243.632262
 31
0.0
  0
LINE
  5
12C
330
1F
100
AcDbEntity
  8
LC-001-100-D00-0
 62
     7
370
    50
100
AcDbLine
 10
190.634845
 20
244.815275
 30
0.0
 11
191.817859
 21
243.632262
 31
0.0
  0
LINE
  5
12D
330
1F
100
AcDbEntity
  8
LC-001-100-D00-0
 62
     7
370
    50
100
AcDbLine
 10
113.634845
 20
244.815275
 30
0.0
 11
190.634845
 21
244.815275
 31
0.0
  0
LINE
  5
12E
330
1F
100
AcDbEntity
  8
LC-001-100-D00-0
 62
     7
370
    50
100
AcDbLine
 10
112.451831
 20
243.632262
 30
0.0
 11
113.634845
 21
244.815275
 31
0.0
  0
LINE
  5
12F
330
1F
100
AcDbEntity
  8
LC-001-100-D00-0
 62
     7
370
    50
100
AcDbLine
 10
112.451831
 20
243.632262
 30
0.0
 11
104.185915
 21
229.315276
 31
0.0
  0
LINE
  5
130
330
1F
100
AcDbEntity
  8
LC-001-100-D00-0
 62
     7
370
    50
100
AcDbLine
 10
104.185915
 20
229.315276
 30
0.0
 11
75.134845
 21
229.315276
 31
0.0
  0
LINE
  5
131
330
1F
100
AcDbEntity
  8
LC-001-100-D00-0
 62
     7
370
    50
100
AcDbLine
 10
75.134845
 20
229.315276
 30
0.0
 11
75.134845
 21
244.315275
 31
0.0
  0
LINE
  5
132
330
1F
100
AcDbEntity
  8
LC-001-100-D00-0
 62
     7
370
    50
100
AcDbLine
 10
74.634844
 20
244.815275
 30
0.0
 11
75.134845
 21
244.315275
 31
0.0
  0
LINE
  5
133
330
1F
100
AcDbEntity
  8
LC-001-100-D00-0
 62
     7
370
    50
100
AcDbLine
 10
66.197025
 20
244.815275
 30
0.0
 11
74.634844
 21
244.815275
 31
0.0
  0
LINE
  5
134
330
1F
100
AcDbEntity
  8
LC-001-100-D00-0
 62
     7
370
    50
100
AcDbLine
 10
66.197025
 20
244.815275
 30
0.0
 11
53.134846
 21
248.315275
 31
0.0
  0
LINE
  5
135
330
1F
100
AcDbEntity
  8
LC-001-100-D00-0
 62
     7
370
    50
100
AcDbLine
 10
53.134846
 20
249.815275
 30
0.0
 11
53.134846
 21
248.315275
 31
0.0
  0
LINE
  5
136
330
1F
100
AcDbEntity
  8
LC-001-100-D00-0
 62
     7
370
    50
100
AcDbLine
 10
53.134846
 20
249.815275
 30
0.0
 11
82.884842
 21
249.815275
 31
0.0
  0
LINE
  5
137
330
1F
100
AcDbEntity
  8
LC-001-100-D00-0
 62
     7
370
    50
100
AcDbLine
 10
82.884842
 20
255.815275
 30
0.0
 11
82.884842
 21
249.815275
 31
0.0
  0
LINE
  5
138
330
1F
100
AcDbEntity
  8
LC-001-100-D00-0
 62
     7
370
    50
100
AcDbLine
 10
82.884842
 20
255.815275
 30
0.0
 11
87.384844
 21
255.815275
 31
0.0
  0
LINE
  5
139
330
1F
100
AcDbEntity
  8
LC-001-100-D00-0
 62
     7
370
    50
100
AcDbLine
 10
87.384844
 20
249.815275
 30
0.0
 11
87.384844
 21
255.815275
 31
0.0
  0
LINE
  5
13A
330
1F
100
AcDbEntity
  8
LC-001-100-D00-0
 62
     7
370
    50
100
AcDbLine
 10
87.384844
 20
249.815275
 30
0.0
 11
216.884846
 21
249.815275
 31
0.0
  0
LINE
  5
13B
330
1F
100
AcDbEntity
  8
LC-001-100-D00-0
 62
     7
370
    50
100
AcDbLine
 10
211.069995
 20
255.815275
 30
0.0
 11
216.884846
 21
255.815275
 31
0.0
  0
LINE
  5
13C
330
1F
100
AcDbEntity
  8
LC-001-100-D00-0
 62
     7
370
    50
100
AcDbLine
 10
87.384844
 20
255.815275
 30
0.0
 11
93.199694
 21
255.815275
 31
0.0
  0
LINE
  5
13D
330
1F
100
AcDbEntity
  8
LC-001-100-D00-0
 62
     7
370
    50
100
AcDbLine
 10
74.961552
 20
255.815275
 30
0.0
 11
79.352217
 21
255.815275
 31
0.0
  0
LINE
  5
13E
330
1F
100
AcDbEntity
  8
LC-001-100-D00-0
 62
     7
370
    50
100
AcDbLine
 10
224.917473
 20
255.815275
 30
0.0
 11
229.308138
 21
255.815275
 31
0.0
  0
LINE
  5
13F
330
1F
100
AcDbEntity
  8
LC-001-100-D00-0
 62
     7
370
    50
100
AcDbLine
 10
79.352217
 20
255.815275
 30
0.0
 11
82.826087
 21
255.815275
 31
0.0
  0
LINE
  5
140
330
1F
100
AcDbEntity
  8
LC-001-100-D00-0
 62
     7
370
    50
100
AcDbLine
 10
93.375714
 20
255.815275
 30
0.0
 11
146.384845
 21
255.815275
 31
0.0
  0
LINE
  5
141
330
1F
100
AcDbEntity
  8
LC-001-100-D00-0
 62
     7
370
    50
100
AcDbLine
 10
157.884845
 20
255.815275
 30
0.0
 11
210.893976
 21
255.815275
 31
0.0
  0
LINE
  5
142
330
1F
100
AcDbEntity
  8
LC-001-100-D00-0
 62
     7
370
    50
100
AcDbLine
 10
221.443603
 20
255.815275
 30
0.0
 11
224.917473
 21
255.815275
 31
0.0
  0
LINE
  5
143
330
1F
100
AcDbEntity
  8
LC-001-100-D00-0
 62
     7
370
    50
100
AcDbLine
 10
93.199694
 20
255.815275
 30
0.0
 11
93.401754
 21
255.815275
 31
0.0
  0
LINE
  5
144
330
1F
100
AcDbEntity
  8
LC-001-100-D00-0
 62
     7
370
    50
100
AcDbLine
 10
210.867936
 20
255.815275
 30
0.0
 11
211.069995
 21
255.815275
 31
0.0
  0
LINE
  5
145
330
1F
100
AcDbEntity
  8
LC-001-100-D00-0
 62
     7
370
    50
100
AcDbLine
 10
146.384845
 20
250.315275
 30
0.0
 11
157.884845
 21
250.315275
 31
0.0
  0
LINE
  5
146
330
1F
100
AcDbEntity
  8
LC-001-100-D00-0
 62
     7
370
    50
100
AcDbLine
 10
157.884845
 20
244.315275
 30
0.0
 11
146.384845
 21
244.315275
 31
0.0
  0
LINE
  5
147
330
1F
100
AcDbEntity
  8
LC-001-100-D00-0
 62
     7
370
    50
100
AcDbLine
 10
233.924197
 20
304.315273
 30
0.0
 11
233.924197
 21
304.515277
 31
0.0
  0
LINE
  5
148
330
1F
100
AcDbEntity
  8
LC-001-100-D00-0
 62
     7
370
    50
100
AcDbLine
 10
233.924197
 20
304.515277
 30
0.0
 11
235.498631
 21
304.515277
 31
0.0
  0
LINE
  5
149
330
1F
100
AcDbEntity
  8
LC-001-100-D00-0
 62
     7
370
    50
100
AcDbLine
 10
235.498631
 20
304.515277
 30
0.0
 11
235.498631
 21
304.315273
 31
0.0
  0
LINE
  5
14A
330
1F
100
AcDbEntity
  8
LC-001-100-D00-0
 62
     7
370
    50
100
AcDbLine
 10
236.739891
 20
304.315273
 30
0.0
 11
235.498631
 21
304.315273
 31
0.0
  0
LINE
  5
14B
330
1F
100
AcDbEntity
  8
LC-001-100-D00-0
 62
     7
370
    50
100
AcDbLine
 10
236.739891
 20
304.315273
 30
0.0
 11
236.739891
 21
304.515277
 31
0.0
  0
LINE
  5
14C
330
1F
100
AcDbEntity
  8
LC-001-100-D00-0
 62
     7
370
    50
100
AcDbLine
 10
238.579037
 20
304.515277
 30
0.0
 11
238.579037
 21
304.315273
 31
0.0
  0
LINE
  5
14D
330
1F
100
AcDbEntity
  8
LC-001-100-D00-0
 62
     7
370
    50
100
AcDbLine
 10
239.674771
 20
304.315273
 30
0.0
 11
238.579037
 21
304.315273
 31
0.0
  0
LINE
  5
14E
330
1F
100
AcDbEntity
  8
LC-001-100-D00-0
 62
     7
370
    50
100
AcDbLine
 10
239.674771
 20
304.315273
 30
0.0
 11
239.674771
 21
304.515277
 31
0.0
  0
LINE
  5
14F
330
1F
100
AcDbEntity
  8
LC-001-100-D00-0
 62
     7
370
    50
100
AcDbLine
 10
241.275461
 20
304.515277
 30
0.0
 11
241.275461
 21
304.315273
 31
0.0
  0
LINE
  5
150
330
1F
100
AcDbEntity
  8
LC-001-100-D00-0
 62
     7
370
    50
100
AcDbLine
 10
254.987026
 20
304.315273
 30
0.0
 11
241.275461
 21
304.315273
 31
0.0
  0
ARC
  5
151
330
1F
100
AcDbEntity
  8
LC-001-100-D00-0
 62
     7
370
    50
100
AcDbCircle
 10
254.987027
 20
299.815275
 30
0.0
 40
4.50000000000011
100
AcDbArc
 50
10.0
 51
90.0
  0
LINE
  5
152
330
1F
100
AcDbEntity
  8
LC-001-100-D00-0
 62
     7
370
    50
100
AcDbLine
 10
271.634841
 20
231.315275
 30
0.0
 11
259.418661
 21
300.596692
 31
0.0
  0
LINE
  5
153
330
1F
100
AcDbEntity
  8
LC-001-100-D00-0
 62
     7
370
    50
100
AcDbLine
 10
271.642471
 20
231.315275
 30
0.0
 11
271.634841
 21
231.315275
 31
0.0
  0
LINE
  5
154
330
1F
100
AcDbEntity
  8
LC-001-100-D00-0
 62
     7
370
    50
100
AcDbLine
 10
271.642471
 20
229.315276
 30
0.0
 11
271.642471
 21
231.315275
 31
0.0
  0
LINE
  5
155
330
1F
100
AcDbEntity
  8
LC-001-100-D00-0
 62
     7
370
    50
100
AcDbLine
 10
271.642471
 20
229.315276
 30
0.0
 11
258.544402
 21
229.315276
 31
0.0
  0
LINE
  5
156
330
1F
100
AcDbEntity
  8
LC-001-100-D00-0
 62
     7
370
    50
100
AcDbLine
 10
258.544402
 20
229.315276
 30
0.0
 11
258.544402
 21
231.315275
 31
0.0
  0
LINE
  5
157
330
1F
100
AcDbEntity
  8
LC-001-100-D00-0
 62
     7
370
    50
100
AcDbLine
 10
258.535841
 20
231.315275
 30
0.0
 11
258.544402
 21
231.315275
 31
0.0
  0
LINE
  5
158
330
1F
100
AcDbEntity
  8
LC-001-100-D00-0
 62
     7
370
    50
100
AcDbLine
 10
246.148871
 20
301.565275
 30
0.0
 11
258.535841
 21
231.315275
 31
0.0
  0
LINE
  5
159
330
1F
100
AcDbEntity
  8
LC-001-100-D00-0
 62
     7
370
    50
100
AcDbLine
 10
230.884844
 20
301.565275
 30
0.0
 11
246.148871
 21
301.565275
 31
0.0
  0
LINE
  5
15A
330
1F
100
AcDbEntity
  8
LC-001-100-D00-0
 62
     7
370
    50
100
AcDbLine
 10
230.884844
 20
304.315273
 30
0.0
 11
230.884844
 21
301.565275
 31
0.0
  0
LINE
  5
15B
330
1F
100
AcDbEntity
  8
LC-001-100-D00-0
 62
     7
370
    50
100
AcDbLine
 10
233.924197
 20
304.315273
 30
0.0
 11
230.884844
 21
304.315273
 31
0.0
  0
LINE
  5
15C
330
1F
100
AcDbEntity
  8
LC-001-100-D00-0
 62
     7
370
    50
100
AcDbLine
 10
239.674771
 20
304.515277
 30
0.0
 11
241.275461
 21
304.515277
 31
0.0
  0
LINE
  5
15D
330
1F
100
AcDbEntity
  8
LC-001-100-D00-0
 62
     7
370
    50
100
AcDbLine
 10
236.739891
 20
304.515277
 30
0.0
 11
238.579037
 21
304.515277
 31
0.0
  0
LINE
  5
15E
330
1F
100
AcDbEntity
  8
LC-001-100-D00-0
 62
     7
370
    50
100
AcDbLine
 10
241.282316
 20
304.515277
 30
0.0
 11
241.282316
 21
304.315273
 31
0.0
  0
LINE
  5
15F
330
1F
100
AcDbEntity
  8
LC-001-100-D00-0
 62
     7
370
    50
100
AcDbLine
 10
233.915323
 20
304.515277
 30
0.0
 11
233.915323
 21
304.315273
 31
0.0
  0
LINE
  5
160
330
1F
100
AcDbEntity
  8
LC-001-100-D00-0
 62
     7
370
    50
100
AcDbLine
 10
62.994229
 20
304.315273
 30
0.0
 11
49.282664
 21
304.315273
 31
0.0
  0
LINE
  5
161
330
1F
100
AcDbEntity
  8
LC-001-100-D00-0
 62
     7
370
    50
100
AcDbLine
 10
62.994229
 20
304.315273
 30
0.0
 11
62.994229
 21
304.515277
 31
0.0
  0
LINE
  5
162
330
1F
100
AcDbEntity
  8
LC-001-100-D00-0
 62
     7
370
    50
100
AcDbLine
 10
62.994229
 20
304.515277
 30
0.0
 11
64.594919
 21
304.515277
 31
0.0
  0
LINE
  5
163
330
1F
100
AcDbEntity
  8
LC-001-100-D00-0
 62
     7
370
    50
100
AcDbLine
 10
64.594919
 20
304.515277
 30
0.0
 11
64.594919
 21
304.315273
 31
0.0
  0
LINE
  5
164
330
1F
100
AcDbEntity
  8
LC-001-100-D00-0
 62
     7
370
    50
100
AcDbLine
 10
65.690653
 20
304.315273
 30
0.0
 11
64.594919
 21
304.315273
 31
0.0
  0
LINE
  5
165
330
1F
100
AcDbEntity
  8
LC-001-100-D00-0
 62
     7
370
    50
100
AcDbLine
 10
65.690653
 20
304.315273
 30
0.0
 11
65.690653
 21
304.515277
 31
0.0
  0
LINE
  5
166
330
1F
100
AcDbEntity
  8
LC-001-100-D00-0
 62
     7
370
    50
100
AcDbLine
 10
65.690653
 20
304.515277
 30
0.0
 11
67.529799
 21
304.515277
 31
0.0
  0
LINE
  5
167
330
1F
100
AcDbEntity
  8
LC-001-100-D00-0
 62
     7
370
    50
100
AcDbLine
 10
67.529799
 20
304.515277
 30
0.0
 11
67.529799
 21
304.315273
 31
0.0
  0
LINE
  5
168
330
1F
100
AcDbEntity
  8
LC-001-100-D00-0
 62
     7
370
    50
100
AcDbLine
 10
68.771059
 20
304.315273
 30
0.0
 11
67.529799
 21
304.315273
 31
0.0
  0
LINE
  5
169
330
1F
100
AcDbEntity
  8
LC-001-100-D00-0
 62
     7
370
    50
100
AcDbLine
 10
68.771059
 20
304.315273
 30
0.0
 11
68.771059
 21
304.515277
 31
0.0
  0
LINE
  5
16A
330
1F
100
AcDbEntity
  8
LC-001-100-D00-0
 62
     7
370
    50
100
AcDbLine
 10
68.771059
 20
304.515277
 30
0.0
 11
70.345493
 21
304.515277
 31
0.0
  0
LINE
  5
16B
330
1F
100
AcDbEntity
  8
LC-001-100-D00-0
 62
     7
370
    50
100
AcDbLine
 10
70.345493
 20
304.515277
 30
0.0
 11
70.345493
 21
304.315273
 31
0.0
  0
LINE
  5
16C
330
1F
100
AcDbEntity
  8
LC-001-100-D00-0
 62
     7
370
    50
100
AcDbLine
 10
73.384846
 20
304.315273
 30
0.0
 11
70.345493
 21
304.315273
 31
0.0
  0
LINE
  5
16D
330
1F
100
AcDbEntity
  8
LC-001-100-D00-0
 62
     7
370
    50
100
AcDbLine
 10
73.384846
 20
301.565275
 30
0.0
 11
73.384846
 21
304.315273
 31
0.0
  0
LINE
  5
16E
330
1F
100
AcDbEntity
  8
LC-001-100-D00-0
 62
     7
370
    50
100
AcDbLine
 10
58.120819
 20
301.565275
 30
0.0
 11
73.384846
 21
301.565275
 31
0.0
  0
LINE
  5
16F
330
1F
100
AcDbEntity
  8
LC-001-100-D00-0
 62
     7
370
    50
100
AcDbLine
 10
45.733849
 20
231.315275
 30
0.0
 11
58.120819
 21
301.565275
 31
0.0
  0
LINE
  5
170
330
1F
100
AcDbEntity
  8
LC-001-100-D00-0
 62
     7
370
    50
100
AcDbLine
 10
45.725288
 20
231.315275
 30
0.0
 11
45.733849
 21
231.315275
 31
0.0
  0
LINE
  5
171
330
1F
100
AcDbEntity
  8
LC-001-100-D00-0
 62
     7
370
    50
100
AcDbLine
 10
45.725288
 20
231.315275
 30
0.0
 11
45.725288
 21
229.315276
 31
0.0
  0
LINE
  5
172
330
1F
100
AcDbEntity
  8
LC-001-100-D00-0
 62
     7
370
    50
100
AcDbLine
 10
45.725288
 20
229.315276
 30
0.0
 11
32.627219
 21
229.315276
 31
0.0
  0
LINE
  5
173
330
1F
100
AcDbEntity
  8
LC-001-100-D00-0
 62
     7
370
    50
100
AcDbLine
 10
32.627219
 20
231.315275
 30
0.0
 11
32.627219
 21
229.315276
 31
0.0
  0
LINE
  5
174
330
1F
100
AcDbEntity
  8
LC-001-100-D00-0
 62
     7
370
    50
100
AcDbLine
 10
32.634849
 20
231.315275
 30
0.0
 11
32.627219
 21
231.315275
 31
0.0
  0
LINE
  5
175
330
1F
100
AcDbEntity
  8
LC-001-100-D00-0
 62
     7
370
    50
100
AcDbLine
 10
44.851029
 20
300.596692
 30
0.0
 11
32.634849
 21
231.315275
 31
0.0
  0
ARC
  5
176
330
1F
100
AcDbEntity
  8
LC-001-100-D00-0
 62
     7
370
    50
100
AcDbCircle
 10
49.282663
 20
299.815275
 30
0.0
 40
4.500000000000114
100
AcDbArc
 50
90.0
 51
170.0
  0
LINE
  5
177
330
1F
100
AcDbEntity
  8
LC-001-100-D00-0
 62
     7
370
    50
100
AcDbLine
 10
45.733849
 20
231.315275
 30
0.0
 11
46.175608
 21
231.315275
 31
0.0
  0
LINE
  5
178
330
1F
100
AcDbEntity
  8
LC-001-100-D00-0
 62
     7
370
    50
100
AcDbLine
 10
46.457836
 20
231.315275
 30
0.0
 11
47.778288
 21
231.315275
 31
0.0
  0
LINE
  5
179
330
1F
100
AcDbEntity
  8
LC-001-100-D00-0
 62
     7
370
    50
100
AcDbLine
 10
48.339644
 20
231.315275
 30
0.0
 11
50.524311
 21
231.315275
 31
0.0
  0
LINE
  5
17A
330
1F
100
AcDbEntity
  8
LC-001-100-D00-0
 62
     7
370
    50
100
AcDbLine
 10
51.358657
 20
231.315275
 30
0.0
 11
54.3836
 21
231.315275
 31
0.0
  0
LINE
  5
17B
330
1F
100
AcDbEntity
  8
LC-001-100-D00-0
 62
     7
370
    50
100
AcDbLine
 10
55.481793
 20
231.315275
 30
0.0
 11
59.31388
 21
231.315275
 31
0.0
  0
LINE
  5
17C
330
1F
100
AcDbEntity
  8
LC-001-100-D00-0
 62
     7
370
    50
100
AcDbLine
 10
60.663881
 20
231.315275
 30
0.0
 11
65.26112
 21
231.315275
 31
0.0
  0
LINE
  5
17D
330
1F
100
AcDbEntity
  8
LC-001-100-D00-0
 62
     7
370
    50
100
AcDbLine
 10
66.848138
 20
231.315275
 30
0.0
 11
72.160171
 21
231.315275
 31
0.0
  0
LINE
  5
17E
330
1F
100
AcDbEntity
  8
LC-001-100-D00-0
 62
     7
370
    50
100
AcDbLine
 10
73.966818
 20
231.315275
 30
0.0
 11
75.134845
 21
231.315275
 31
0.0
  0
LINE
  5
17F
330
1F
100
AcDbEntity
  8
LC-001-100-D00-0
 62
     7
370
    50
100
AcDbLine
 10
105.340617
 20
231.315275
 30
0.0
 11
107.624376
 21
231.315275
 31
0.0
  0
LINE
  5
180
330
1F
100
AcDbEntity
  8
LC-001-100-D00-0
 62
     7
370
    50
100
AcDbLine
 10
110.090947
 20
231.315275
 30
0.0
 11
117.971202
 21
231.315275
 31
0.0
  0
LINE
  5
181
330
1F
100
AcDbEntity
  8
LC-001-100-D00-0
 62
     7
370
    50
100
AcDbLine
 10
120.539056
 20
231.315275
 30
0.0
 11
128.692334
 21
231.315275
 31
0.0
  0
LINE
  5
182
330
1F
100
AcDbEntity
  8
LC-001-100-D00-0
 62
     7
370
    50
100
AcDbLine
 10
131.333332
 20
231.315275
 30
0.0
 11
139.670308
 21
231.315275
 31
0.0
  0
LINE
  5
183
330
1F
100
AcDbEntity
  8
LC-001-100-D00-0
 62
     7
370
    50
100
AcDbLine
 10
142.355516
 20
231.315275
 30
0.0
 11
146.384845
 21
231.315275
 31
0.0
  0
LINE
  5
184
330
1F
100
AcDbEntity
  8
LC-001-100-D00-0
 62
     7
370
    50
100
AcDbLine
 10
157.884845
 20
231.315275
 30
0.0
 11
161.914173
 21
231.315275
 31
0.0
  0
LINE
  5
185
330
1F
100
AcDbEntity
  8
LC-001-100-D00-0
 62
     7
370
    50
100
AcDbLine
 10
164.599382
 20
231.315275
 30
0.0
 11
172.936357
 21
231.315275
 31
0.0
  0
LINE
  5
186
330
1F
100
AcDbEntity
  8
LC-001-100-D00-0
 62
     7
370
    50
100
AcDbLine
 10
175.577355
 20
231.315275
 30
0.0
 11
183.730634
 21
231.315275
 31
0.0
  0
LINE
  5
187
330
1F
100
AcDbEntity
  8
LC-001-100-D00-0
 62
     7
370
    50
100
AcDbLine
 10
186.298488
 20
231.315275
 30
0.0
 11
194.178743
 21
231.315275
 31
0.0
  0
LINE
  5
188
330
1F
100
AcDbEntity
  8
LC-001-100-D00-0
 62
     7
370
    50
100
AcDbLine
 10
196.645314
 20
231.315275
 30
0.0
 11
198.929073
 21
231.315275
 31
0.0
  0
LINE
  5
189
330
1F
100
AcDbEntity
  8
LC-001-100-D00-0
 62
     7
370
    50
100
AcDbLine
 10
229.134845
 20
231.315275
 30
0.0
 11
230.302872
 21
231.315275
 31
0.0
  0
LINE
  5
18A
330
1F
100
AcDbEntity
  8
LC-001-100-D00-0
 62
     7
370
    50
100
AcDbLine
 10
232.109519
 20
231.315275
 30
0.0
 11
237.421552
 21
231.315275
 31
0.0
  0
LINE
  5
18B
330
1F
100
AcDbEntity
  8
LC-001-100-D00-0
 62
     7
370
    50
100
AcDbLine
 10
239.00857
 20
231.315275
 30
0.0
 11
243.605809
 21
231.315275
 31
0.0
  0
LINE
  5
18C
330
1F
100
AcDbEntity
  8
LC-001-100-D00-0
 62
     7
370
    50
100
AcDbLine
 10
244.95581
 20
231.315275
 30
0.0
 11
248.787897
 21
231.315275
 31
0.0
  0
LINE
  5
18D
330
1F
100
AcDbEntity
  8
LC-001-100-D00-0
 62
     7
370
    50
100
AcDbLine
 10
249.88609
 20
231.315275
 30
0.0
 11
252.911033
 21
231.315275
 31
0.0
  0
LINE
  5
18E
330
1F
100
AcDbEntity
  8
LC-001-100-D00-0
 62
     7
370
    50
100
AcDbLine
 10
253.745379
 20
231.315275
 30
0.0
 11
255.930046
 21
231.315275
 31
0.0
  0
LINE
  5
18F
330
1F
100
AcDbEntity
  8
LC-001-100-D00-0
 62
     7
370
    50
100
AcDbLine
 10
256.491402
 20
231.315275
 30
0.0
 11
257.811854
 21
231.315275
 31
0.0
  0
LINE
  5
190
330
1F
100
AcDbEntity
  8
LC-001-100-D00-0
 62
     7
370
    50
100
AcDbLine
 10
258.094082
 20
231.315275
 30
0.0
 11
258.535841
 21
231.315275
 31
0.0
  0
LINE
  5
191
330
1F
100
AcDbEntity
  8
LC-001-100-D00-0
 62
     7
370
    50
100
AcDbLine
 10
184.059197
 20
294.315275
 30
0.0
 11
184.059197
 21
304.315273
 31
0.0
  0
LINE
  5
192
330
1F
100
AcDbEntity
  8
LC-001-100-D00-0
 62
     7
370
    50
100
AcDbLine
 10
184.059197
 20
294.315275
 30
0.0
 11
163.136633
 21
294.315275
 31
0.0
  0
LINE
  5
193
330
1F
100
AcDbEntity
  8
LC-001-100-D00-0
 62
     7
370
    50
100
AcDbLine
 10
163.136633
 20
294.315275
 30
0.0
 11
163.136633
 21
304.315273
 31
0.0
  0
LINE
  5
194
330
1F
100
AcDbEntity
  8
LC-001-100-D00-0
 62
     7
370
    50
100
AcDbLine
 10
184.059197
 20
304.315273
 30
0.0
 11
163.136633
 21
304.315273
 31
0.0
  0
LINE
  5
195
330
1F
100
AcDbEntity
  8
LC-001-100-D00-0
 62
     7
370
    50
100
AcDbLine
 10
141.133057
 20
294.315275
 30
0.0
 11
141.133057
 21
304.315273
 31
0.0
  0
LINE
  5
196
330
1F
100
AcDbEntity
  8
LC-001-100-D00-0
 62
     7
370
    50
100
AcDbLine
 10
163.136633
 20
294.315275
 30
0.0
 11
141.133057
 21
294.315275
 31
0.0
  0
LINE
  5
197
330
1F
100
AcDbEntity
  8
LC-001-100-D00-0
 62
     7
370
    50
100
AcDbLine
 10
163.136633
 20
304.315273
 30
0.0
 11
141.133057
 21
304.315273
 31
0.0
  0
LINE
  5
198
330
1F
100
AcDbEntity
  8
LC-001-100-D00-0
 62
     7
370
    50
100
AcDbLine
 10
117.634846
 20
294.315275
 30
0.0
 11
117.634846
 21
304.315273
 31
0.0
  0
LINE
  5
199
330
1F
100
AcDbEntity
  8
LC-001-100-D00-0
 62
     7
370
    50
100
AcDbLine
 10
120.134843
 20
294.315275
 30
0.0
 11
120.134843
 21
304.315273
 31
0.0
  0
LINE
  5
19A
330
1F
100
AcDbEntity
  8
LC-001-100-D00-0
 62
     7
370
    50
100
AcDbLine
 10
120.134843
 20
294.315275
 30
0.0
 11
117.634846
 21
294.315275
 31
0.0
  0
LINE
  5
19B
330
1F
100
AcDbEntity
  8
LC-001-100-D00-0
 62
     7
370
    50
100
AcDbLine
 10
120.134843
 20
304.315273
 30
0.0
 11
117.634846
 21
304.315273
 31
0.0
  0
LINE
  5
19C
330
1F
100
AcDbEntity
  8
LC-001-100-D00-0
 62
     7
370
    50
100
AcDbLine
 10
186.634844
 20
304.315273
 30
0.0
 11
186.634844
 21
294.315275
 31
0.0
  0
LINE
  5
19D
330
1F
100
AcDbEntity
  8
LC-001-100-D00-0
 62
     7
370
    50
100
AcDbLine
 10
184.134846
 20
304.315273
 30
0.0
 11
184.134846
 21
294.315275
 31
0.0
  0
LINE
  5
19E
330
1F
100
AcDbEntity
  8
LC-001-100-D00-0
 62
     7
370
    50
100
AcDbLine
 10
186.634844
 20
294.315275
 30
0.0
 11
184.134846
 21
294.315275
 31
0.0
  0
LINE
  5
19F
330
1F
100
AcDbEntity
  8
LC-001-100-D00-0
 62
     7
370
    50
100
AcDbLine
 10
186.634844
 20
304.315273
 30
0.0
 11
184.134846
 21
304.315273
 31
0.0
  0
LINE
  5
1A0
330
1F
100
AcDbEntity
  8
LC-001-100-D00-0
 62
     7
370
    50
100
AcDbLine
 10
120.210493
 20
294.315275
 30
0.0
 11
120.210493
 21
304.315273
 31
0.0
  0
LINE
  5
1A1
330
1F
100
AcDbEntity
  8
LC-001-100-D00-0
 62
     7
370
    50
100
AcDbLine
 10
120.210493
 20
294.315275
 30
0.0
 11
141.133057
 21
294.315275
 31
0.0
  0
LINE
  5
1A2
330
1F
100
AcDbEntity
  8
LC-001-100-D00-0
 62
     7
370
    50
100
AcDbLine
 10
120.210493
 20
304.315273
 30
0.0
 11
141.133057
 21
304.315273
 31
0.0
  0
LINE
  5
1A3
330
1F
100
AcDbEntity
  8
LC-001-100-D00-0
 62
     7
370
    50
100
AcDbLine
 10
184.134846
 20
294.315275
 30
0.0
 11
184.059197
 21
294.315275
 31
0.0
  0
LINE
  5
1A4
330
1F
100
AcDbEntity
  8
LC-001-100-D00-0
 62
     7
370
    50
100
AcDbLine
 10
184.134846
 20
304.315273
 30
0.0
 11
184.059197
 21
304.315273
 31
0.0
  0
LINE
  5
1A5
330
1F
100
AcDbEntity
  8
LC-001-100-D00-0
 62
     7
370
    50
100
AcDbLine
 10
120.210493
 20
294.315275
 30
0.0
 11
120.134843
 21
294.315275
 31
0.0
  0
LINE
  5
1A6
330
1F
100
AcDbEntity
  8
LC-001-100-D00-0
 62
     7
370
    50
100
AcDbLine
 10
120.210493
 20
304.315273
 30
0.0
 11
120.134843
 21
304.315273
 31
0.0
  0
LINE
  5
1A7
330
1F
100
AcDbEntity
  8
LC-001-100-D00-0
 62
     7
370
    50
100
AcDbLine
 10
230.565304
 20
304.315273
 30
0.0
 11
230.565304
 21
301.565275
 31
0.0
  0
LINE
  5
1A8
330
1F
100
AcDbEntity
  8
LC-001-100-D00-0
 62
     7
370
    50
100
AcDbLine
 10
230.884844
 20
301.565275
 30
0.0
 11
230.565304
 21
301.565275
 31
0.0
  0
LINE
  5
1A9
330
1F
100
AcDbEntity
  8
LC-001-100-D00-0
 62
     7
370
    50
100
AcDbLine
 10
230.884844
 20
304.315273
 30
0.0
 11
230.565304
 21
304.315273
 31
0.0
  0
LINE
  5
1AA
330
1F
100
AcDbEntity
  8
LC-001-100-D00-0
 62
     7
370
    50
100
AcDbLine
 10
73.704386
 20
304.315273
 30
0.0
 11
73.704386
 21
301.565275
 31
0.0
  0
LINE
  5
1AB
330
1F
100
AcDbEntity
  8
LC-001-100-D00-0
 62
     7
370
    50
100
AcDbLine
 10
73.704386
 20
301.565275
 30
0.0
 11
73.384846
 21
301.565275
 31
0.0
  0
LINE
  5
1AC
330
1F
100
AcDbEntity
  8
LC-001-100-D00-0
 62
     7
370
    50
100
AcDbLine
 10
73.704386
 20
304.315273
 30
0.0
 11
73.384846
 21
304.315273
 31
0.0
  0
LINE
  5
1AD
330
1F
100
AcDbEntity
  8
LC-001-100-D00-0
 62
     7
370
    50
100
AcDbLine
 10
68.228798
 20
304.515277
 30
0.0
 11
68.228798
 21
304.315273
 31
0.0
  0
INSERT
  5
1BB
330
1F
100
AcDbEntity
  8
LC-001-100-D00-0
 62
     7
370
    50
100
AcDbBlockReference
  2
POLY3
 10
0.0
 20
0.0
 30
0.0
  0
LINE
  5
1BC
330
1F
100
AcDbEntity
  8
LC-001-100-D00-0
 62
     7
370
    50
100
AcDbLine
 10
65.233158
 20
304.515277
 30
0.0
 11
65.233158
 21
304.315273
 31
0.0
  0
INSERT
  5
1C8
330
1F
100
AcDbEntity
  8
LC-001-100-D00-0
 62
     7
370
    50
100
AcDbBlockReference
  2
POLY4
 10
0.0
 20
0.0
 30
0.0
  0
INSERT
  5
1D8
330
1F
100
AcDbEntity
  8
LC-001-100-D00-0
 62
     7
370
    50
100
AcDbBlockReference
  2
POLY5
 10
0.0
 20
0.0
 30
0.0
  0
LINE
  5
1D9
330
1F
100
AcDbEntity
  8
LC-001-100-D00-0
 62
     7
370
    50
100
AcDbLine
 10
238.666372
 20
304.515277
 30
0.0
 11
238.579037
 21
304.515277
 31
0.0
  0
LINE
  5
1DA
330
1F
100
AcDbEntity
  8
LC-001-100-D00-0
 62
     7
370
    50
100
AcDbLine
 10
239.252144
 20
304.515277
 30
0.0
 11
239.252144
 21
304.315273
 31
0.0
  0
INSERT
  5
1E8
330
1F
100
AcDbEntity
  8
LC-001-100-D00-0
 62
     7
370
    50
100
AcDbBlockReference
  2
POLY6
 10
0.0
 20
0.0
 30
0.0
  0
LINE
  5
1E9
330
1F
100
AcDbEntity
  8
LC-001-100-D00-0
 62
     7
370
    50
100
AcDbLine
 10
236.288937
 20
304.515277
 30
0.0
 11
236.288937
 21
304.315273
 31
0.0
  0
INSERT
  5
1F5
330
1F
100
AcDbEntity
  8
LC-001-100-D00-0
 62
     7
370
    50
100
AcDbBlockReference
  2
POLY7
 10
0.0
 20
0.0
 30
0.0
  0
INSERT
  5
205
330
1F
100
AcDbEntity
  8
LC-001-100-D00-0
 62
     7
370
    50
100
AcDbBlockReference
  2
POLY8
 10
0.0
 20
0.0
 30
0.0
  0
LINE
  5
206
330
1F
100
AcDbEntity
  8
LC-001-100-D00-0
 62
     7
370
    50
100
AcDbLine
 10
58.515632
 20
301.565275
 30
0.0
 11
57.244265
 21
294.315275
 31
0.0
  0
LINE
  5
207
330
1F
100
AcDbEntity
  8
LC-001-100-D00-0
 62
     7
370
    50
100
AcDbLine
 10
117.634846
 20
294.315275
 30
0.0
 11
57.244265
 21
294.315275
 31
0.0
  0
LINE
  5
208
330
1F
100
AcDbEntity
  8
LC-001-100-D00-0
 62
     7
370
    50
100
AcDbLine
 10
117.634846
 20
304.315273
 30
0.0
 11
73.704386
 21
304.315273
 31
0.0
  0
LINE
  5
209
330
1F
100
AcDbEntity
  8
LC-001-100-D00-0
 62
     7
370
    50
100
AcDbLine
 10
245.754057
 20
301.565275
 30
0.0
 11
247.025425
 21
294.315275
 31
0.0
  0
LINE
  5
20A
330
1F
100
AcDbEntity
  8
LC-001-100-D00-0
 62
     7
370
    50
100
AcDbLine
 10
186.634844
 20
294.315275
 30
0.0
 11
247.025425
 21
294.315275
 31
0.0
  0
LINE
  5
20B
330
1F
100
AcDbEntity
  8
LC-001-100-D00-0
 62
     7
370
    50
100
AcDbLine
 10
186.634844
 20
304.315273
 30
0.0
 11
230.565304
 21
304.315273
 31
0.0
  0
LINE
  5
20C
330
1F
100
AcDbEntity
  8
LC-001-100-D00-0
 62
     7
370
    50
100
AcDbLine
 10
65.690653
 20
304.515277
 30
0.0
 11
65.315278
 21
304.515277
 31
0.0
  0
LINE
  5
20D
330
1F
100
AcDbEntity
  8
LC-001-100-D00-0
 62
     7
370
    50
100
AcDbLine
 10
61.41899
 20
304.515277
 30
0.0
 11
61.41899
 21
304.315273
 31
0.0
  0
LINE
  5
20E
330
1F
100
AcDbEntity
  8
LC-001-100-D00-0
 62
     7
370
    50
100
AcDbLine
 10
62.626788
 20
304.515277
 30
0.0
 11
62.626788
 21
304.315273
 31
0.0
  0
INSERT
  5
21E
330
1F
100
AcDbEntity
  8
LC-001-100-D00-0
 62
     7
370
    50
100
AcDbBlockReference
  2
POLY9
 10
0.0
 20
0.0
 30
0.0
  0
LINE
  5
21F
330
1F
100
AcDbEntity
  8
LC-001-100-D00-0
 62
     7
370
    50
100
AcDbLine
 10
60.344757
 20
304.515277
 30
0.0
 11
60.344757
 21
304.315273
 31
0.0
  0
INSERT
  5
22F
330
1F
100
AcDbEntity
  8
LC-001-100-D00-0
 62
     7
370
    50
100
AcDbBlockReference
  2
POLY10
 10
0.0
 20
0.0
 30
0.0
  0
LINE
  5
230
330
1F
100
AcDbEntity
  8
LC-001-100-D00-0
 62
     7
370
    50
100
AcDbLine
 10
236.739891
 20
304.515277
 30
0.0
 11
236.463951
 21
304.515277
 31
0.0
  0
LINE
  5
231
330
1F
100
AcDbEntity
  8
LC-001-100-D00-0
 62
     7
370
    50
100
AcDbLine
 10
233.904282
 20
304.515277
 30
0.0
 11
233.904282
 21
304.315273
 31
0.0
  0
LINE
  5
232
330
1F
100
AcDbEntity
  8
LC-001-100-D00-0
 62
     7
370
    50
100
AcDbLine
 10
233.572284
 20
304.515277
 30
0.0
 11
233.572284
 21
304.315273
 31
0.0
  0
LINE
  5
233
330
1F
100
AcDbEntity
  8
LC-001-100-D00-0
 62
     7
370
    50
100
AcDbLine
 10
233.729275
 20
304.515277
 30
0.0
 11
233.572284
 21
304.515277
 31
0.0
  0
INSERT
  5
23F
330
1F
100
AcDbEntity
  8
LC-001-100-D00-0
 62
     7
370
    50
100
AcDbBlockReference
  2
POLY11
 10
0.0
 20
0.0
 30
0.0
  0
LINE
  5
240
330
1F
100
AcDbEntity
  8
LC-001-100-D00-0
 62
     7
370
    50
100
AcDbLine
 10
70.715124
 20
304.515277
 30
0.0
 11
70.715124
 21
304.315273
 31
0.0
  0
LINE
  5
241
330
1F
100
AcDbEntity
  8
LC-001-100-D00-0
 62
     7
370
    50
100
AcDbLine
 10
46.175608
 20
231.315275
 30
0.0
 11
58.494726
 21
301.565275
 31
0.0
  0
LINE
  5
242
330
1F
100
AcDbEntity
  8
LC-001-100-D00-0
 62
     7
370
    50
100
AcDbLine
 10
46.457836
 20
231.315275
 30
0.0
 11
57.50558
 21
294.315275
 31
0.0
  0
LINE
  5
243
330
1F
100
AcDbEntity
  8
LC-001-100-D00-0
 62
     7
370
    50
100
AcDbLine
 10
46.175608
 20
231.315275
 30
0.0
 11
46.457836
 21
231.315275
 31
0.0
  0
LINE
  5
244
330
1F
100
AcDbEntity
  8
LC-001-100-D00-0
 62
     7
370
    50
100
AcDbLine
 10
258.094082
 20
231.315275
 30
0.0
 11
245.774964
 21
301.565275
 31
0.0
  0
LINE
  5
245
330
1F
100
AcDbEntity
  8
LC-001-100-D00-0
 62
     7
370
    50
100
AcDbLine
 10
257.811854
 20
231.315275
 30
0.0
 11
258.094082
 21
231.315275
 31
0.0
  0
LINE
  5
246
330
1F
100
AcDbEntity
  8
LC-001-100-D00-0
 62
     7
370
    50
100
AcDbLine
 10
257.811854
 20
231.315275
 30
0.0
 11
246.76411
 21
294.315275
 31
0.0
  0
LINE
  5
247
330
1F
100
AcDbEntity
  8
LC-001-100-D00-0
 62
     7
370
    50
100
AcDbLine
 10
233.17966
 20
304.515277
 30
0.0
 11
233.17966
 21
304.315273
 31
0.0
  0
LINE
  5
248
330
1F
100
AcDbEntity
  8
LC-001-100-D00-0
 62
     7
370
    50
100
AcDbLine
 10
233.39727
 20
304.515277
 30
0.0
 11
233.17966
 21
304.515277
 31
0.0
  0
LINE
  5
249
330
1F
100
AcDbEntity
  8
LC-001-100-D00-0
 62
     7
370
    50
100
AcDbLine
 10
233.498307
 20
304.515277
 30
0.0
 11
233.498307
 21
304.315273
 31
0.0
  0
LINE
  5
24A
330
1F
100
AcDbEntity
  8
LC-001-100-D00-0
 62
     7
370
    50
100
AcDbLine
 10
71.596147
 20
304.515277
 30
0.0
 11
71.596147
 21
304.315273
 31
0.0
  0
LINE
  5
24B
330
1F
100
AcDbEntity
  8
LC-001-100-D00-0
 62
     7
370
    50
100
AcDbLine
 10
71.596147
 20
304.515277
 30
0.0
 11
71.065122
 21
304.515277
 31
0.0
  0
LINE
  5
24C
330
1F
100
AcDbEntity
  8
LC-001-100-D00-0
 62
     7
370
    50
100
AcDbLine
 10
232.490854
 20
304.515277
 30
0.0
 11
232.490854
 21
304.315273
 31
0.0
  0
LINE
  5
24D
330
1F
100
AcDbEntity
  8
LC-001-100-D00-0
 62
     7
370
    50
100
AcDbLine
 10
232.746536
 20
304.515277
 30
0.0
 11
232.746536
 21
304.315273
 31
0.0
  0
LINE
  5
24E
330
1F
100
AcDbEntity
  8
LC-001-100-D00-0
 62
     7
370
    50
100
AcDbLine
 10
232.746536
 20
304.515277
 30
0.0
 11
232.490854
 21
304.515277
 31
0.0
  0
LINE
  5
24F
330
1F
100
AcDbEntity
  8
LC-001-100-D00-0
 62
     7
370
    50
100
AcDbLine
 10
233.17966
 20
304.515277
 30
0.0
 11
232.746536
 21
304.515277
 31
0.0
  0
LINE
  5
250
330
1F
100
AcDbEntity
  8
LC-001-100-D00-0
 62
     7
370
    50
100
AcDbLine
 10
242.277259
 20
304.515277
 30
0.0
 11
242.277259
 21
304.315273
 31
0.0
  0
LINE
  5
251
330
1F
100
AcDbEntity
  8
LC-001-100-D00-0
 62
     7
370
    50
100
AcDbLine
 10
242.277259
 20
304.515277
 30
0.0
 11
241.292255
 21
304.515277
 31
0.0
  0
LINE
  5
252
330
1F
100
AcDbEntity
  8
LC-001-100-D00-0
 62
     7
370
    50
100
AcDbLine
 10
231.761457
 20
304.515277
 30
0.0
 11
231.761457
 21
304.315273
 31
0.0
  0
LINE
  5
253
330
1F
100
AcDbEntity
  8
LC-001-100-D00-0
 62
     7
370
    50
100
AcDbLine
 10
232.150698
 20
304.515277
 30
0.0
 11
231.761457
 21
304.515277
 31
0.0
  0
LINE
  5
254
330
1F
100
AcDbEntity
  8
LC-001-100-D00-0
 62
     7
370
    50
100
AcDbLine
 10
232.150698
 20
304.515277
 30
0.0
 11
232.150698
 21
304.315273
 31
0.0
  0
LINE
  5
255
330
1F
100
AcDbEntity
  8
LC-001-100-D00-0
 62
     7
370
    50
100
AcDbLine
 10
232.490854
 20
304.515277
 30
0.0
 11
232.150698
 21
304.515277
 31
0.0
  0
LINE
  5
256
330
1F
100
AcDbEntity
  8
LC-001-100-D00-0
 62
     7
370
    50
100
AcDbLine
 10
47.778288
 20
231.315275
 30
0.0
 11
48.339644
 21
231.315275
 31
0.0
  0
LINE
  5
257
330
1F
100
AcDbEntity
  8
LC-001-100-D00-0
 62
     7
370
    50
100
AcDbLine
 10
47.778288
 20
231.315275
 30
0.0
 11
58.644133
 21
294.315275
 31
0.0
  0
LINE
  5
258
330
1F
100
AcDbEntity
  8
LC-001-100-D00-0
 62
     7
370
    50
100
AcDbLine
 10
48.339644
 20
231.315275
 30
0.0
 11
59.205497
 21
294.315275
 31
0.0
  0
LINE
  5
259
330
1F
100
AcDbEntity
  8
LC-001-100-D00-0
 62
     7
370
    50
100
AcDbLine
 10
256.491402
 20
231.315275
 30
0.0
 11
245.625557
 21
294.315275
 31
0.0
  0
LINE
  5
25A
330
1F
100
AcDbEntity
  8
LC-001-100-D00-0
 62
     7
370
    50
100
AcDbLine
 10
255.930046
 20
231.315275
 30
0.0
 11
256.491402
 21
231.315275
 31
0.0
  0
LINE
  5
25B
330
1F
100
AcDbEntity
  8
LC-001-100-D00-0
 62
     7
370
    50
100
AcDbLine
 10
255.930046
 20
231.315275
 30
0.0
 11
245.064193
 21
294.315275
 31
0.0
  0
LINE
  5
25C
330
1F
100
AcDbEntity
  8
LC-001-100-D00-0
 62
     7
370
    50
100
AcDbLine
 10
72.267728
 20
304.515277
 30
0.0
 11
72.267728
 21
304.315273
 31
0.0
  0
LINE
  5
25D
330
1F
100
AcDbEntity
  8
LC-001-100-D00-0
 62
     7
370
    50
100
AcDbLine
 10
72.664605
 20
304.515277
 30
0.0
 11
72.267728
 21
304.515277
 31
0.0
  0
LINE
  5
25E
330
1F
100
AcDbEntity
  8
LC-001-100-D00-0
 62
     7
370
    50
100
AcDbLine
 10
72.664605
 20
304.515277
 30
0.0
 11
72.664605
 21
304.315273
 31
0.0
  0
LINE
  5
25F
330
1F
100
AcDbEntity
  8
LC-001-100-D00-0
 62
     7
370
    50
100
AcDbLine
 10
72.267728
 20
304.515277
 30
0.0
 11
71.771154
 21
304.515277
 31
0.0
  0
LINE
  5
260
330
1F
100
AcDbEntity
  8
LC-001-100-D00-0
 62
     7
370
    50
100
AcDbLine
 10
231.108906
 20
304.515277
 30
0.0
 11
231.108906
 21
304.315273
 31
0.0
  0
LINE
  5
261
330
1F
100
AcDbEntity
  8
LC-001-100-D00-0
 62
     7
370
    50
100
AcDbLine
 10
231.483096
 20
304.515277
 30
0.0
 11
231.108906
 21
304.515277
 31
0.0
  0
LINE
  5
262
330
1F
100
AcDbEntity
  8
LC-001-100-D00-0
 62
     7
370
    50
100
AcDbLine
 10
73.28281
 20
304.515277
 30
0.0
 11
73.28281
 21
304.315273
 31
0.0
  0
LINE
  5
263
330
1F
100
AcDbEntity
  8
LC-001-100-D00-0
 62
     7
370
    50
100
AcDbLine
 10
73.28281
 20
304.515277
 30
0.0
 11
72.664605
 21
304.515277
 31
0.0
  0
LINE
  5
264
330
1F
100
AcDbEntity
  8
LC-001-100-D00-0
 62
     7
370
    50
100
AcDbLine
 10
73.675873
 20
304.515277
 30
0.0
 11
73.675873
 21
304.315273
 31
0.0
  0
LINE
  5
265
330
1F
100
AcDbEntity
  8
LC-001-100-D00-0
 62
     7
370
    50
100
AcDbLine
 10
73.675873
 20
304.515277
 30
0.0
 11
73.28281
 21
304.515277
 31
0.0
  0
LINE
  5
266
330
1F
100
AcDbEntity
  8
LC-001-100-D00-0
 62
     7
370
    50
100
AcDbLine
 10
51.358657
 20
231.315275
 30
0.0
 11
54.163294
 21
248.039703
 31
0.0
  0
LINE
  5
267
330
1F
100
AcDbEntity
  8
LC-001-100-D00-0
 62
     7
370
    50
100
AcDbLine
 10
54.461049
 20
249.815275
 30
0.0
 11
61.923565
 21
294.315275
 31
0.0
  0
LINE
  5
268
330
1F
100
AcDbEntity
  8
LC-001-100-D00-0
 62
     7
370
    50
100
AcDbLine
 10
50.524311
 20
231.315275
 30
0.0
 11
51.358657
 21
231.315275
 31
0.0
  0
LINE
  5
269
330
1F
100
AcDbEntity
  8
LC-001-100-D00-0
 62
     7
370
    50
100
AcDbLine
 10
50.524311
 20
231.315275
 30
0.0
 11
53.364823
 21
248.253652
 31
0.0
  0
LINE
  5
26A
330
1F
100
AcDbEntity
  8
LC-001-100-D00-0
 62
     7
370
    50
100
AcDbLine
 10
53.626703
 20
249.815275
 30
0.0
 11
61.089219
 21
294.315275
 31
0.0
  0
LINE
  5
26B
330
1F
100
AcDbEntity
  8
LC-001-100-D00-0
 62
     7
370
    50
100
AcDbLine
 10
253.745379
 20
231.315275
 30
0.0
 11
250.904867
 21
248.253652
 31
0.0
  0
LINE
  5
26C
330
1F
100
AcDbEntity
  8
LC-001-100-D00-0
 62
     7
370
    50
100
AcDbLine
 10
250.642987
 20
249.815275
 30
0.0
 11
243.18047
 21
294.315275
 31
0.0
  0
LINE
  5
26D
330
1F
100
AcDbEntity
  8
LC-001-100-D00-0
 62
     7
370
    50
100
AcDbLine
 10
252.911033
 20
231.315275
 30
0.0
 11
253.745379
 21
231.315275
 31
0.0
  0
LINE
  5
26E
330
1F
100
AcDbEntity
  8
LC-001-100-D00-0
 62
     7
370
    50
100
AcDbLine
 10
252.911033
 20
231.315275
 30
0.0
 11
250.106396
 21
248.039703
 31
0.0
  0
LINE
  5
26F
330
1F
100
AcDbEntity
  8
LC-001-100-D00-0
 62
     7
370
    50
100
AcDbLine
 10
249.808641
 20
249.815275
 30
0.0
 11
242.346125
 21
294.315275
 31
0.0
  0
LINE
  5
270
330
1F
100
AcDbEntity
  8
LC-001-100-D00-0
 62
     7
370
    50
100
AcDbLine
 10
54.3836
 20
231.315275
 30
0.0
 11
56.957038
 21
247.291122
 31
0.0
  0
LINE
  5
271
330
1F
100
AcDbEntity
  8
LC-001-100-D00-0
 62
     7
370
    50
100
AcDbLine
 10
57.363631
 20
249.815275
 30
0.0
 11
64.531812
 21
294.315275
 31
0.0
  0
LINE
  5
272
330
1F
100
AcDbEntity
  8
LC-001-100-D00-0
 62
     7
370
    50
100
AcDbLine
 10
54.3836
 20
231.315275
 30
0.0
 11
55.481793
 21
231.315275
 31
0.0
  0
LINE
  5
273
330
1F
100
AcDbEntity
  8
LC-001-100-D00-0
 62
     7
370
    50
100
AcDbLine
 10
55.481793
 20
231.315275
 30
0.0
 11
58.009783
 21
247.009038
 31
0.0
  0
LINE
  5
274
330
1F
100
AcDbEntity
  8
LC-001-100-D00-0
 62
     7
370
    50
100
AcDbLine
 10
58.461824
 20
249.815275
 30
0.0
 11
65.630006
 21
294.315275
 31
0.0
  0
LINE
  5
275
330
1F
100
AcDbEntity
  8
LC-001-100-D00-0
 62
     7
370
    50
100
AcDbLine
 10
249.88609
 20
231.315275
 30
0.0
 11
247.312652
 21
247.291122
 31
0.0
  0
LINE
  5
276
330
1F
100
AcDbEntity
  8
LC-001-100-D00-0
 62
     7
370
    50
100
AcDbLine
 10
246.906059
 20
249.815275
 30
0.0
 11
239.737878
 21
294.315275
 31
0.0
  0
LINE
  5
277
330
1F
100
AcDbEntity
  8
LC-001-100-D00-0
 62
     7
370
    50
100
AcDbLine
 10
248.787897
 20
231.315275
 30
0.0
 11
249.88609
 21
231.315275
 31
0.0
  0
LINE
  5
278
330
1F
100
AcDbEntity
  8
LC-001-100-D00-0
 62
     7
370
    50
100
AcDbLine
 10
248.787897
 20
231.315275
 30
0.0
 11
246.259907
 21
247.009038
 31
0.0
  0
LINE
  5
279
330
1F
100
AcDbEntity
  8
LC-001-100-D00-0
 62
     7
370
    50
100
AcDbLine
 10
245.807866
 20
249.815275
 30
0.0
 11
238.639684
 21
294.315275
 31
0.0
  0
LINE
  5
27A
330
1F
100
AcDbEntity
  8
LC-001-100-D00-0
 62
     7
370
    50
100
AcDbLine
 10
152.134845
 20
287.815273
 30
0.0
 11
146.134845
 21
287.815273
 31
0.0
  0
LINE
  5
27B
330
1F
100
AcDbEntity
  8
LC-001-100-D00-0
 62
     7
370
    50
100
AcDbLine
 10
158.134845
 20
287.815273
 30
0.0
 11
152.134845
 21
287.815273
 31
0.0
  0
LINE
  5
27C
330
1F
100
AcDbEntity
  8
LC-001-100-D00-0
 62
     7
370
    50
100
AcDbLine
 10
60.663881
 20
231.315275
 30
0.0
 11
62.861847
 21
245.708934
 31
0.0
  0
LINE
  5
27D
330
1F
100
AcDbEntity
  8
LC-001-100-D00-0
 62
     7
370
    50
100
AcDbLine
 10
63.488895
 20
249.815275
 30
0.0
 11
70.284212
 21
294.315275
 31
0.0
  0
LINE
  5
27E
330
1F
100
AcDbEntity
  8
LC-001-100-D00-0
 62
     7
370
    50
100
AcDbLine
 10
59.31388
 20
231.315275
 30
0.0
 11
60.663881
 21
231.315275
 31
0.0
  0
LINE
  5
27F
330
1F
100
AcDbEntity
  8
LC-001-100-D00-0
 62
     7
370
    50
100
AcDbLine
 10
59.31388
 20
231.315275
 30
0.0
 11
61.564909
 21
246.056446
 31
0.0
  0
LINE
  5
280
330
1F
100
AcDbEntity
  8
LC-001-100-D00-0
 62
     7
370
    50
100
AcDbLine
 10
62.138895
 20
249.815275
 30
0.0
 11
68.934211
 21
294.315275
 31
0.0
  0
LINE
  5
281
330
1F
100
AcDbEntity
  8
LC-001-100-D00-0
 62
     7
370
    50
100
AcDbLine
 10
244.95581
 20
231.315275
 30
0.0
 11
242.704781
 21
246.056446
 31
0.0
  0
LINE
  5
282
330
1F
100
AcDbEntity
  8
LC-001-100-D00-0
 62
     7
370
    50
100
AcDbLine
 10
242.130795
 20
249.815275
 30
0.0
 11
235.335478
 21
294.315275
 31
0.0
  0
LINE
  5
283
330
1F
100
AcDbEntity
  8
LC-001-100-D00-0
 62
     7
370
    50
100
AcDbLine
 10
243.605809
 20
231.315275
 30
0.0
 11
244.95581
 21
231.315275
 31
0.0
  0
LINE
  5
284
330
1F
100
AcDbEntity
  8
LC-001-100-D00-0
 62
     7
370
    50
100
AcDbLine
 10
243.605809
 20
231.315275
 30
0.0
 11
241.407843
 21
245.708934
 31
0.0
  0
LINE
  5
285
330
1F
100
AcDbEntity
  8
LC-001-100-D00-0
 62
     7
370
    50
100
AcDbLine
 10
240.780795
 20
249.815275
 30
0.0
 11
233.985478
 21
294.315275
 31
0.0
  0
LINE
  5
286
330
1F
100
AcDbEntity
  8
LC-001-100-D00-0
 62
     7
370
    50
100
AcDbLine
 10
65.26112
 20
231.315275
 30
0.0
 11
67.186916
 21
244.815275
 31
0.0
  0
LINE
  5
287
330
1F
100
AcDbEntity
  8
LC-001-100-D00-0
 62
     7
370
    50
100
AcDbLine
 10
67.900175
 20
249.815275
 30
0.0
 11
74.248167
 21
294.315275
 31
0.0
  0
LINE
  5
288
330
1F
100
AcDbEntity
  8
LC-001-100-D00-0
 62
     7
370
    50
100
AcDbLine
 10
65.26112
 20
231.315275
 30
0.0
 11
66.848138
 21
231.315275
 31
0.0
  0
LINE
  5
289
330
1F
100
AcDbEntity
  8
LC-001-100-D00-0
 62
     7
370
    50
100
AcDbLine
 10
66.848138
 20
231.315275
 30
0.0
 11
68.773935
 21
244.815275
 31
0.0
  0
LINE
  5
28A
330
1F
100
AcDbEntity
  8
LC-001-100-D00-0
 62
     7
370
    50
100
AcDbLine
 10
69.487194
 20
249.815275
 30
0.0
 11
75.835185
 21
294.315275
 31
0.0
  0
LINE
  5
28B
330
1F
100
AcDbEntity
  8
LC-001-100-D00-0
 62
     7
370
    50
100
AcDbLine
 10
237.421552
 20
231.315275
 30
0.0
 11
239.00857
 21
231.315275
 31
0.0
  0
LINE
  5
28C
330
1F
100
AcDbEntity
  8
LC-001-100-D00-0
 62
     7
370
    50
100
AcDbLine
 10
237.421552
 20
231.315275
 30
0.0
 11
235.495755
 21
244.815275
 31
0.0
  0
LINE
  5
28D
330
1F
100
AcDbEntity
  8
LC-001-100-D00-0
 62
     7
370
    50
100
AcDbLine
 10
234.782496
 20
249.815275
 30
0.0
 11
228.434505
 21
294.315275
 31
0.0
  0
LINE
  5
28E
330
1F
100
AcDbEntity
  8
LC-001-100-D00-0
 62
     7
370
    50
100
AcDbLine
 10
239.00857
 20
231.315275
 30
0.0
 11
237.082774
 21
244.815275
 31
0.0
  0
LINE
  5
28F
330
1F
100
AcDbEntity
  8
LC-001-100-D00-0
 62
     7
370
    50
100
AcDbLine
 10
236.369515
 20
249.815275
 30
0.0
 11
230.021523
 21
294.315275
 31
0.0
  0
LINE
  5
290
330
1F
100
AcDbEntity
  8
LC-001-100-D00-0
 62
     7
370
    50
100
AcDbLine
 10
73.966818
 20
231.315275
 30
0.0
 11
75.134845
 21
240.229005
 31
0.0
  0
LINE
  5
291
330
1F
100
AcDbEntity
  8
LC-001-100-D00-0
 62
     7
370
    50
100
AcDbLine
 10
77.177213
 20
255.815275
 30
0.0
 11
82.222121
 21
294.315275
 31
0.0
  0
LINE
  5
292
330
1F
100
AcDbEntity
  8
LC-001-100-D00-0
 62
     7
370
    50
100
AcDbLine
 10
72.160171
 20
231.315275
 30
0.0
 11
73.966818
 21
231.315275
 31
0.0
  0
LINE
  5
293
330
1F
100
AcDbEntity
  8
LC-001-100-D00-0
 62
     7
370
    50
100
AcDbLine
 10
72.160171
 20
231.315275
 30
0.0
 11
73.929163
 21
244.815275
 31
0.0
  0
LINE
  5
294
330
1F
100
AcDbEntity
  8
LC-001-100-D00-0
 62
     7
370
    50
100
AcDbLine
 10
74.584344
 20
249.815275
 30
0.0
 11
74.961552
 21
252.693919
 31
0.0
  0
LINE
  5
295
330
1F
100
AcDbEntity
  8
LC-001-100-D00-0
 62
     7
370
    50
100
AcDbLine
 10
75.370559
 20
255.815275
 30
0.0
 11
80.415467
 21
294.315275
 31
0.0
  0
LINE
  5
296
330
1F
100
AcDbEntity
  8
LC-001-100-D00-0
 62
     7
370
    50
100
AcDbLine
 10
232.109519
 20
231.315275
 30
0.0
 11
230.340527
 21
244.815275
 31
0.0
  0
LINE
  5
297
330
1F
100
AcDbEntity
  8
LC-001-100-D00-0
 62
     7
370
    50
100
AcDbLine
 10
229.685346
 20
249.815275
 30
0.0
 11
229.308138
 21
252.693919
 31
0.0
  0
LINE
  5
298
330
1F
100
AcDbEntity
  8
LC-001-100-D00-0
 62
     7
370
    50
100
AcDbLine
 10
228.899131
 20
255.815275
 30
0.0
 11
223.854223
 21
294.315275
 31
0.0
  0
LINE
  5
299
330
1F
100
AcDbEntity
  8
LC-001-100-D00-0
 62
     7
370
    50
100
AcDbLine
 10
230.302872
 20
231.315275
 30
0.0
 11
232.109519
 21
231.315275
 31
0.0
  0
LINE
  5
29A
330
1F
100
AcDbEntity
  8
LC-001-100-D00-0
 62
     7
370
    50
100
AcDbLine
 10
230.302872
 20
231.315275
 30
0.0
 11
229.134845
 21
240.229005
 31
0.0
  0
LINE
  5
29B
330
1F
100
AcDbEntity
  8
LC-001-100-D00-0
 62
     7
370
    50
100
AcDbLine
 10
227.092476
 20
255.815275
 30
0.0
 11
222.047569
 21
294.315275
 31
0.0
  0
LINE
  5
29C
330
1F
100
AcDbEntity
  8
LC-001-100-D00-0
 62
     7
370
    50
100
AcDbLine
 10
82.826087
 20
255.815275
 30
0.0
 11
86.634846
 21
288.096771
 31
0.0
  0
LINE
  5
29D
330
1F
100
AcDbEntity
  8
LC-001-100-D00-0
 62
     7
370
    50
100
AcDbLine
 10
84.832581
 20
255.815275
 30
0.0
 11
86.634846
 21
271.09056
 31
0.0
  0
LINE
  5
29E
330
1F
100
AcDbEntity
  8
LC-001-100-D00-0
 62
     7
370
    50
100
AcDbLine
 10
221.443603
 20
255.815275
 30
0.0
 11
217.634844
 21
288.096771
 31
0.0
  0
LINE
  5
29F
330
1F
100
AcDbEntity
  8
LC-001-100-D00-0
 62
     7
370
    50
100
AcDbLine
 10
219.437109
 20
255.815275
 30
0.0
 11
217.634844
 21
271.09056
 31
0.0
  0
LINE
  5
2A0
330
1F
100
AcDbEntity
  8
LC-001-100-D00-0
 62
     7
370
    50
100
AcDbLine
 10
93.225321
 20
255.815275
 30
0.0
 11
97.215554
 21
294.315275
 31
0.0
  0
LINE
  5
2A1
330
1F
100
AcDbEntity
  8
LC-001-100-D00-0
 62
     7
370
    50
100
AcDbLine
 10
92.634844
 20
271.193834
 30
0.0
 11
95.031207
 21
294.315275
 31
0.0
  0
LINE
  5
2A2
330
1F
100
AcDbEntity
  8
LC-001-100-D00-0
 62
     7
370
    50
100
AcDbLine
 10
211.634846
 20
271.193834
 30
0.0
 11
209.238483
 21
294.315275
 31
0.0
  0
LINE
  5
2A3
330
1F
100
AcDbEntity
  8
LC-001-100-D00-0
 62
     7
370
    50
100
AcDbLine
 10
211.044369
 20
255.815275
 30
0.0
 11
207.054136
 21
294.315275
 31
0.0
  0
LINE
  5
2A4
330
1F
100
AcDbEntity
  8
LC-001-100-D00-0
 62
     7
370
    50
100
AcDbLine
 10
99.925218
 20
255.815275
 30
0.0
 11
103.319513
 21
294.315275
 31
0.0
  0
LINE
  5
2A5
330
1F
100
AcDbEntity
  8
LC-001-100-D00-0
 62
     7
370
    50
100
AcDbLine
 10
94.23233
 20
265.531477
 30
0.0
 11
93.375714
 21
255.815275
 31
0.0
  0
LINE
  5
2A6
330
1F
100
AcDbEntity
  8
LC-001-100-D00-0
 62
     7
370
    50
100
AcDbLine
 10
102.263486
 20
255.815275
 30
0.0
 11
105.65778
 21
294.315275
 31
0.0
  0
LINE
  5
2A7
330
1F
100
AcDbEntity
  8
LC-001-100-D00-0
 62
     7
370
    50
100
AcDbLine
 10
204.344472
 20
255.815275
 30
0.0
 11
200.950177
 21
294.315275
 31
0.0
  0
LINE
  5
2A8
330
1F
100
AcDbEntity
  8
LC-001-100-D00-0
 62
     7
370
    50
100
AcDbLine
 10
210.03736
 20
265.531477
 30
0.0
 11
210.893976
 21
255.815275
 31
0.0
  0
LINE
  5
2A9
330
1F
100
AcDbEntity
  8
LC-001-100-D00-0
 62
     7
370
    50
100
AcDbLine
 10
202.006204
 20
255.815275
 30
0.0
 11
198.611909
 21
294.315275
 31
0.0
  0
LINE
  5
2AA
330
1F
100
AcDbEntity
  8
LC-001-100-D00-0
 62
     7
370
    50
100
AcDbLine
 10
107.624376
 20
231.315275
 30
0.0
 11
107.948301
 21
235.831919
 31
0.0
  0
LINE
  5
2AB
330
1F
100
AcDbEntity
  8
LC-001-100-D00-0
 62
     7
370
    50
100
AcDbLine
 10
109.38148
 20
255.815275
 30
0.0
 11
112.14265
 21
294.315275
 31
0.0
  0
LINE
  5
2AC
330
1F
100
AcDbEntity
  8
LC-001-100-D00-0
 62
     7
370
    50
100
AcDbLine
 10
106.814803
 20
294.315275
 30
0.0
 11
104.053637
 21
255.815275
 31
0.0
  0
LINE
  5
2AD
330
1F
100
AcDbEntity
  8
LC-001-100-D00-0
 62
     7
370
    50
100
AcDbLine
 10
110.090947
 20
231.315275
 30
0.0
 11
110.764733
 21
240.71012
 31
0.0
  0
LINE
  5
2AE
330
1F
100
AcDbEntity
  8
LC-001-100-D00-0
 62
     7
370
    50
100
AcDbLine
 10
111.848054
 20
255.815275
 30
0.0
 11
114.609221
 21
294.315275
 31
0.0
  0
LINE
  5
2AF
330
1F
100
AcDbEntity
  8
LC-001-100-D00-0
 62
     7
370
    50
100
AcDbLine
 10
107.624376
 20
231.315275
 30
0.0
 11
110.090947
 21
231.315275
 31
0.0
  0
LINE
  5
2B0
330
1F
100
AcDbEntity
  8
LC-001-100-D00-0
 62
     7
370
    50
100
AcDbLine
 10
196.645314
 20
231.315275
 30
0.0
 11
196.321389
 21
235.831919
 31
0.0
  0
LINE
  5
2B1
330
1F
100
AcDbEntity
  8
LC-001-100-D00-0
 62
     7
370
    50
100
AcDbLine
 10
194.88821
 20
255.815275
 30
0.0
 11
192.12704
 21
294.315275
 31
0.0
  0
LINE
  5
2B2
330
1F
100
AcDbEntity
  8
LC-001-100-D00-0
 62
     7
370
    50
100
AcDbLine
 10
194.178743
 20
231.315275
 30
0.0
 11
196.645314
 21
231.315275
 31
0.0
  0
LINE
  5
2B3
330
1F
100
AcDbEntity
  8
LC-001-100-D00-0
 62
     7
370
    50
100
AcDbLine
 10
194.178743
 20
231.315275
 30
0.0
 11
193.504957
 21
240.71012
 31
0.0
  0
LINE
  5
2B4
330
1F
100
AcDbEntity
  8
LC-001-100-D00-0
 62
     7
370
    50
100
AcDbLine
 10
192.421636
 20
255.815275
 30
0.0
 11
189.660469
 21
294.315275
 31
0.0
  0
LINE
  5
2B5
330
1F
100
AcDbEntity
  8
LC-001-100-D00-0
 62
     7
370
    50
100
AcDbLine
 10
197.454886
 20
294.315275
 30
0.0
 11
200.216053
 21
255.815275
 31
0.0
  0
LINE
  5
2B6
330
1F
100
AcDbEntity
  8
LC-001-100-D00-0
 62
     7
370
    50
100
AcDbLine
 10
117.971202
 20
231.315275
 30
0.0
 11
118.706791
 21
244.815275
 31
0.0
  0
LINE
  5
2B7
330
1F
100
AcDbEntity
  8
LC-001-100-D00-0
 62
     7
370
    50
100
AcDbLine
 10
119.30616
 20
255.815275
 30
0.0
 11
121.403949
 21
294.315275
 31
0.0
  0
LINE
  5
2B8
330
1F
100
AcDbEntity
  8
LC-001-100-D00-0
 62
     7
370
    50
100
AcDbLine
 10
117.356135
 20
294.315275
 30
0.0
 11
115.258345
 21
255.815275
 31
0.0
  0
LINE
  5
2B9
330
1F
100
AcDbEntity
  8
LC-001-100-D00-0
 62
     7
370
    50
100
AcDbLine
 10
114.658976
 20
244.815275
 30
0.0
 11
113.923388
 21
231.315275
 31
0.0
  0
LINE
  5
2BA
330
1F
100
AcDbEntity
  8
LC-001-100-D00-0
 62
     7
370
    50
100
AcDbLine
 10
117.971202
 20
231.315275
 30
0.0
 11
120.539056
 21
231.315275
 31
0.0
  0
LINE
  5
2BB
330
1F
100
AcDbEntity
  8
LC-001-100-D00-0
 62
     7
370
    50
100
AcDbLine
 10
120.539056
 20
231.315275
 30
0.0
 11
121.274644
 21
244.815275
 31
0.0
  0
LINE
  5
2BC
330
1F
100
AcDbEntity
  8
LC-001-100-D00-0
 62
     7
370
    50
100
AcDbLine
 10
121.874012
 20
255.815275
 30
0.0
 11
123.971801
 21
294.315275
 31
0.0
  0
LINE
  5
2BD
330
1F
100
AcDbEntity
  8
LC-001-100-D00-0
 62
     7
370
    50
100
AcDbLine
 10
186.298488
 20
231.315275
 30
0.0
 11
185.562899
 21
244.815275
 31
0.0
  0
LINE
  5
2BE
330
1F
100
AcDbEntity
  8
LC-001-100-D00-0
 62
     7
370
    50
100
AcDbLine
 10
184.96353
 20
255.815275
 30
0.0
 11
182.865741
 21
294.315275
 31
0.0
  0
LINE
  5
2BF
330
1F
100
AcDbEntity
  8
LC-001-100-D00-0
 62
     7
370
    50
100
AcDbLine
 10
186.913555
 20
294.315275
 30
0.0
 11
189.011345
 21
255.815275
 31
0.0
  0
LINE
  5
2C0
330
1F
100
AcDbEntity
  8
LC-001-100-D00-0
 62
     7
370
    50
100
AcDbLine
 10
189.610714
 20
244.815275
 30
0.0
 11
190.346302
 21
231.315275
 31
0.0
  0
LINE
  5
2C1
330
1F
100
AcDbEntity
  8
LC-001-100-D00-0
 62
     7
370
    50
100
AcDbLine
 10
183.730634
 20
231.315275
 30
0.0
 11
186.298488
 21
231.315275
 31
0.0
  0
LINE
  5
2C2
330
1F
100
AcDbEntity
  8
LC-001-100-D00-0
 62
     7
370
    50
100
AcDbLine
 10
183.730634
 20
231.315275
 30
0.0
 11
182.995045
 21
244.815275
 31
0.0
  0
LINE
  5
2C3
330
1F
100
AcDbEntity
  8
LC-001-100-D00-0
 62
     7
370
    50
100
AcDbLine
 10
182.395678
 20
255.815275
 30
0.0
 11
180.297889
 21
294.315275
 31
0.0
  0
LINE
  5
2C4
330
1F
100
AcDbEntity
  8
LC-001-100-D00-0
 62
     7
370
    50
100
AcDbLine
 10
128.692334
 20
231.315275
 30
0.0
 11
129.18725
 21
244.815275
 31
0.0
  0
LINE
  5
2C5
330
1F
100
AcDbEntity
  8
LC-001-100-D00-0
 62
     7
370
    50
100
AcDbLine
 10
129.590515
 20
255.815275
 30
0.0
 11
131.001942
 21
294.315275
 31
0.0
  0
LINE
  5
2C6
330
1F
100
AcDbEntity
  8
LC-001-100-D00-0
 62
     7
370
    50
100
AcDbLine
 10
128.278507
 20
294.315275
 30
0.0
 11
126.86708
 21
255.815275
 31
0.0
  0
LINE
  5
2C7
330
1F
100
AcDbEntity
  8
LC-001-100-D00-0
 62
     7
370
    50
100
AcDbLine
 10
126.463816
 20
244.815275
 30
0.0
 11
125.9689
 21
231.315275
 31
0.0
  0
LINE
  5
2C8
330
1F
100
AcDbEntity
  8
LC-001-100-D00-0
 62
     7
370
    50
100
AcDbLine
 10
131.333332
 20
231.315275
 30
0.0
 11
131.828248
 21
244.815275
 31
0.0
  0
LINE
  5
2C9
330
1F
100
AcDbEntity
  8
LC-001-100-D00-0
 62
     7
370
    50
100
AcDbLine
 10
132.231513
 20
255.815275
 30
0.0
 11
133.642942
 21
294.315275
 31
0.0
  0
LINE
  5
2CA
330
1F
100
AcDbEntity
  8
LC-001-100-D00-0
 62
     7
370
    50
100
AcDbLine
 10
128.692334
 20
231.315275
 30
0.0
 11
131.333332
 21
231.315275
 31
0.0
  0
LINE
  5
2CB
330
1F
100
AcDbEntity
  8
LC-001-100-D00-0
 62
     7
370
    50
100
AcDbLine
 10
175.577355
 20
231.315275
 30
0.0
 11
175.082439
 21
244.815275
 31
0.0
  0
LINE
  5
2CC
330
1F
100
AcDbEntity
  8
LC-001-100-D00-0
 62
     7
370
    50
100
AcDbLine
 10
174.679175
 20
255.815275
 30
0.0
 11
173.267748
 21
294.315275
 31
0.0
  0
LINE
  5
2CD
330
1F
100
AcDbEntity
  8
LC-001-100-D00-0
 62
     7
370
    50
100
AcDbLine
 10
172.936357
 20
231.315275
 30
0.0
 11
175.577355
 21
231.315275
 31
0.0
  0
LINE
  5
2CE
330
1F
100
AcDbEntity
  8
LC-001-100-D00-0
 62
     7
370
    50
100
AcDbLine
 10
172.936357
 20
231.315275
 30
0.0
 11
172.441442
 21
244.815275
 31
0.0
  0
LINE
  5
2CF
330
1F
100
AcDbEntity
  8
LC-001-100-D00-0
 62
     7
370
    50
100
AcDbLine
 10
172.038177
 20
255.815275
 30
0.0
 11
170.626748
 21
294.315275
 31
0.0
  0
LINE
  5
2D0
330
1F
100
AcDbEntity
  8
LC-001-100-D00-0
 62
     7
370
    50
100
AcDbLine
 10
175.991183
 20
294.315275
 30
0.0
 11
177.40261
 21
255.815275
 31
0.0
  0
LINE
  5
2D1
330
1F
100
AcDbEntity
  8
LC-001-100-D00-0
 62
     7
370
    50
100
AcDbLine
 10
177.805874
 20
244.815275
 30
0.0
 11
178.30079
 21
231.315275
 31
0.0
  0
LINE
  5
2D2
330
1F
100
AcDbEntity
  8
LC-001-100-D00-0
 62
     7
370
    50
100
AcDbLine
 10
139.670308
 20
231.315275
 30
0.0
 11
142.355516
 21
231.315275
 31
0.0
  0
LINE
  5
2D3
330
1F
100
AcDbEntity
  8
LC-001-100-D00-0
 62
     7
370
    50
100
AcDbLine
 10
139.670308
 20
231.315275
 30
0.0
 11
139.919129
 21
244.815275
 31
0.0
  0
LINE
  5
2D4
330
1F
100
AcDbEntity
  8
LC-001-100-D00-0
 62
     7
370
    50
100
AcDbLine
 10
140.121872
 20
255.815275
 30
0.0
 11
140.831472
 21
294.315275
 31
0.0
  0
LINE
  5
2D5
330
1F
100
AcDbEntity
  8
LC-001-100-D00-0
 62
     7
370
    50
100
AcDbLine
 10
142.355516
 20
231.315275
 30
0.0
 11
142.604338
 21
244.815275
 31
0.0
  0
LINE
  5
2D6
330
1F
100
AcDbEntity
  8
LC-001-100-D00-0
 62
     7
370
    50
100
AcDbLine
 10
142.807081
 20
255.815275
 30
0.0
 11
143.516682
 21
294.315275
 31
0.0
  0
LINE
  5
2D7
330
1F
100
AcDbEntity
  8
LC-001-100-D00-0
 62
     7
370
    50
100
AcDbLine
 10
139.462254
 20
294.315275
 30
0.0
 11
138.752653
 21
255.815275
 31
0.0
  0
LINE
  5
2D8
330
1F
100
AcDbEntity
  8
LC-001-100-D00-0
 62
     7
370
    50
100
AcDbLine
 10
138.54991
 20
244.815275
 30
0.0
 11
138.301089
 21
231.315275
 31
0.0
  0
LINE
  5
2D9
330
1F
100
AcDbEntity
  8
LC-001-100-D00-0
 62
     7
370
    50
100
AcDbLine
 10
161.914173
 20
231.315275
 30
0.0
 11
164.599382
 21
231.315275
 31
0.0
  0
LINE
  5
2DA
330
1F
100
AcDbEntity
  8
LC-001-100-D00-0
 62
     7
370
    50
100
AcDbLine
 10
161.914173
 20
231.315275
 30
0.0
 11
161.665352
 21
244.815275
 31
0.0
  0
LINE
  5
2DB
330
1F
100
AcDbEntity
  8
LC-001-100-D00-0
 62
     7
370
    50
100
AcDbLine
 10
161.462609
 20
255.815275
 30
0.0
 11
160.753008
 21
294.315275
 31
0.0
  0
LINE
  5
2DC
330
1F
100
AcDbEntity
  8
LC-001-100-D00-0
 62
     7
370
    50
100
AcDbLine
 10
164.599382
 20
231.315275
 30
0.0
 11
164.350561
 21
244.815275
 31
0.0
  0
LINE
  5
2DD
330
1F
100
AcDbEntity
  8
LC-001-100-D00-0
 62
     7
370
    50
100
AcDbLine
 10
164.147818
 20
255.815275
 30
0.0
 11
163.438218
 21
294.315275
 31
0.0
  0
LINE
  5
2DE
330
1F
100
AcDbEntity
  8
LC-001-100-D00-0
 62
     7
370
    50
100
AcDbLine
 10
164.807436
 20
294.315275
 30
0.0
 11
165.517037
 21
255.815275
 31
0.0
  0
LINE
  5
2DF
330
1F
100
AcDbEntity
  8
LC-001-100-D00-0
 62
     7
370
    50
100
AcDbLine
 10
165.71978
 20
244.815275
 30
0.0
 11
165.968601
 21
231.315275
 31
0.0
  0
LINE
  5
2E0
330
1F
100
AcDbEntity
  8
LC-001-100-D00-0
 62
     7
370
    50
100
AcDbLine
 10
86.384842
 20
177.015275
 30
0.0
 11
87.384844
 21
169.015274
 31
0.0
  0
LINE
  5
2E1
330
1F
100
AcDbEntity
  8
LC-001-100-D00-0
 62
     7
370
    50
100
AcDbLine
 10
216.884846
 20
169.015274
 30
0.0
 11
217.884848
 21
177.015275
 31
0.0
  0
LINE
  5
2E2
330
1F
100
AcDbEntity
  8
LC-001-100-D00-0
 62
     7
370
    50
100
AcDbLine
 10
216.884846
 20
169.015274
 30
0.0
 11
216.634842
 21
169.015274
 31
0.0
  0
LINE
  5
2E3
330
1F
100
AcDbEntity
  8
LC-001-100-D00-0
 62
     7
370
    50
100
AcDbLine
 10
87.634848
 20
169.015274
 30
0.0
 11
87.384844
 21
169.015274
 31
0.0
  0
LINE
  5
2E4
330
1F
100
AcDbEntity
  8
LC-001-100-D00-0
 62
     7
370
    50
100
AcDbLine
 10
83.384843
 20
169.015274
 30
0.0
 11
83.384843
 21
173.515276
 31
0.0
  0
LINE
  5
2E5
330
1F
100
AcDbEntity
  8
LC-001-100-D00-0
 62
     7
370
    50
100
AcDbLine
 10
83.384843
 20
173.515276
 30
0.0
 11
78.884842
 21
173.515276
 31
0.0
  0
LINE
  5
2E6
330
1F
100
AcDbEntity
  8
LC-001-100-D00-0
 62
     7
370
    50
100
AcDbLine
 10
78.884842
 20
173.515276
 30
0.0
 11
78.884842
 21
171.515272
 31
0.0
  0
LINE
  5
2E7
330
1F
100
AcDbEntity
  8
LC-001-100-D00-0
 62
     7
370
    50
100
AcDbLine
 10
78.884842
 20
171.515272
 30
0.0
 11
75.884843
 21
171.515272
 31
0.0
  0
LINE
  5
2E8
330
1F
100
AcDbEntity
  8
LC-001-100-D00-0
 62
     7
370
    50
100
AcDbLine
 10
75.884843
 20
171.515272
 30
0.0
 11
74.884849
 21
172.515274
 31
0.0
  0
LINE
  5
2E9
330
1F
100
AcDbEntity
  8
LC-001-100-D00-0
 62
     7
370
    50
100
AcDbLine
 10
74.884849
 20
172.515274
 30
0.0
 11
74.884849
 21
176.015273
 31
0.0
  0
LINE
  5
2EA
330
1F
100
AcDbEntity
  8
LC-001-100-D00-0
 62
     7
370
    50
100
AcDbLine
 10
74.884849
 20
176.015273
 30
0.0
 11
75.884843
 21
176.015273
 31
0.0
  0
LINE
  5
2EB
330
1F
100
AcDbEntity
  8
LC-001-100-D00-0
 62
     7
370
    50
100
AcDbLine
 10
75.884843
 20
176.015273
 30
0.0
 11
75.884843
 21
177.015275
 31
0.0
  0
LINE
  5
2EC
330
1F
100
AcDbEntity
  8
LC-001-100-D00-0
 62
     7
370
    50
100
AcDbLine
 10
75.884843
 20
177.015275
 30
0.0
 11
86.384842
 21
177.015275
 31
0.0
  0
LINE
  5
2ED
330
1F
100
AcDbEntity
  8
LC-001-100-D00-0
 62
     7
370
    50
100
AcDbLine
 10
87.384844
 20
169.015274
 30
0.0
 11
83.384843
 21
169.015274
 31
0.0
  0
LINE
  5
2EE
330
1F
100
AcDbEntity
  8
LC-001-100-D00-0
 62
     7
370
    50
100
AcDbLine
 10
217.884848
 20
177.015275
 30
0.0
 11
228.384847
 21
177.015275
 31
0.0
  0
LINE
  5
2EF
330
1F
100
AcDbEntity
  8
LC-001-100-D00-0
 62
     7
370
    50
100
AcDbLine
 10
228.384847
 20
177.015275
 30
0.0
 11
228.384847
 21
176.015273
 31
0.0
  0
LINE
  5
2F0
330
1F
100
AcDbEntity
  8
LC-001-100-D00-0
 62
     7
370
    50
100
AcDbLine
 10
228.384847
 20
176.015273
 30
0.0
 11
229.384841
 21
176.015273
 31
0.0
  0
LINE
  5
2F1
330
1F
100
AcDbEntity
  8
LC-001-100-D00-0
 62
     7
370
    50
100
AcDbLine
 10
229.384841
 20
176.015273
 30
0.0
 11
229.384841
 21
172.515274
 31
0.0
  0
LINE
  5
2F2
330
1F
100
AcDbEntity
  8
LC-001-100-D00-0
 62
     7
370
    50
100
AcDbLine
 10
229.384841
 20
172.515274
 30
0.0
 11
228.384847
 21
171.515272
 31
0.0
  0
LINE
  5
2F3
330
1F
100
AcDbEntity
  8
LC-001-100-D00-0
 62
     7
370
    50
100
AcDbLine
 10
228.384847
 20
171.515272
 30
0.0
 11
225.384848
 21
171.515272
 31
0.0
  0
LINE
  5
2F4
330
1F
100
AcDbEntity
  8
LC-001-100-D00-0
 62
     7
370
    50
100
AcDbLine
 10
225.384848
 20
171.515272
 30
0.0
 11
225.384848
 21
173.515276
 31
0.0
  0
LINE
  5
2F5
330
1F
100
AcDbEntity
  8
LC-001-100-D00-0
 62
     7
370
    50
100
AcDbLine
 10
225.384848
 20
173.515276
 30
0.0
 11
220.884846
 21
173.515276
 31
0.0
  0
LINE
  5
2F6
330
1F
100
AcDbEntity
  8
LC-001-100-D00-0
 62
     7
370
    50
100
AcDbLine
 10
220.884846
 20
173.515276
 30
0.0
 11
220.884846
 21
169.015274
 31
0.0
  0
LINE
  5
2F7
330
1F
100
AcDbEntity
  8
LC-001-100-D00-0
 62
     7
370
    50
100
AcDbLine
 10
220.884846
 20
169.015274
 30
0.0
 11
216.884846
 21
169.015274
 31
0.0
  0
LINE
  5
2F8
330
1F
100
AcDbEntity
  8
LC-001-100-D00-0
 62
     7
370
    50
100
AcDbLine
 10
-13.115158
 20
206.315276
 30
0.0
 11
-11.86516
 21
205.065273
 31
0.0
  0
LINE
  5
2F9
330
1F
100
AcDbEntity
  8
LC-001-100-D00-0
 62
     7
370
    50
100
AcDbLine
 10
-13.115158
 20
206.315276
 30
0.0
 11
-4.615149
 21
206.315276
 31
0.0
  0
LINE
  5
2FA
330
1F
100
AcDbEntity
  8
LC-001-100-D00-0
 62
     7
370
    50
100
AcDbLine
 10
-5.865162
 20
205.065273
 30
0.0
 11
-4.615149
 21
206.315276
 31
0.0
  0
LINE
  5
2FB
330
1F
100
AcDbEntity
  8
LC-001-100-D00-0
 62
     7
370
    50
100
AcDbLine
 10
-5.865162
 20
205.065273
 30
0.0
 11
-11.86516
 21
205.065273
 31
0.0
  0
LINE
  5
2FC
330
1F
100
AcDbEntity
  8
LC-001-100-D00-0
 62
     7
370
    50
100
AcDbLine
 10
-5.865162
 20
203.315273
 30
0.0
 11
-11.86516
 21
203.315273
 31
0.0
  0
LINE
  5
2FD
330
1F
100
AcDbEntity
  8
LC-001-100-D00-0
 62
     7
370
    50
100
AcDbLine
 10
-11.86516
 20
203.315273
 30
0.0
 11
-11.86516
 21
205.065273
 31
0.0
  0
LINE
  5
2FE
330
1F
100
AcDbEntity
  8
LC-001-100-D00-0
 62
     7
370
    50
100
AcDbLine
 10
-5.865162
 20
205.065273
 30
0.0
 11
-5.865162
 21
203.315273
 31
0.0
  0
LINE
  5
2FF
330
1F
100
AcDbEntity
  8
LC-001-100-D00-0
 62
     7
370
    50
100
AcDbLine
 10
-27.865162
 20
203.315273
 30
0.0
 11
-11.86516
 21
203.315273
 31
0.0
  0
LINE
  5
300
330
1F
100
AcDbEntity
  8
LC-001-100-D00-0
 62
     7
370
    50
100
AcDbLine
 10
-27.865162
 20
204.311997
 30
0.0
 11
-27.865162
 21
203.315273
 31
0.0
  0
ARC
  5
301
330
1F
100
AcDbEntity
  8
LC-001-100-D00-0
 62
     7
370
    50
100
AcDbCircle
 10
-25.861876
 20
204.311996
 30
0.0
 40
2.003278571427359
100
AcDbArc
 50
90.0
 51
180.0
  0
LINE
  5
302
330
1F
100
AcDbEntity
  8
LC-001-100-D00-0
 62
     7
370
    50
100
AcDbLine
 10
-25.86188
 20
206.315276
 30
0.0
 11
-13.115158
 21
206.315276
 31
0.0
  0
LINE
  5
303
330
1F
100
AcDbEntity
  8
LC-001-100-D00-0
 62
     7
370
    50
100
AcDbLine
 10
233.634846
 20
188.378416
 30
0.0
 11
232.134843
 21
185.780339
 31
0.0
  0
LINE
  5
304
330
1F
100
AcDbEntity
  8
LC-001-100-D00-0
 62
     7
370
    50
100
AcDbLine
 10
232.134843
 20
119.315275
 30
0.0
 11
232.134843
 21
185.780339
 31
0.0
  0
LINE
  5
305
330
1F
100
AcDbEntity
  8
LC-001-100-D00-0
 62
     7
370
    50
100
AcDbLine
 10
229.284847
 20
119.315275
 30
0.0
 11
232.134843
 21
119.315275
 31
0.0
  0
LINE
  5
306
330
1F
100
AcDbEntity
  8
LC-001-100-D00-0
 62
     7
370
    50
100
AcDbLine
 10
228.987927
 20
167.921387
 30
0.0
 11
229.284847
 21
119.315275
 31
0.0
  0
ARC
  5
307
330
1F
100
AcDbEntity
  8
LC-001-100-D00-0
 62
     7
370
    50
100
AcDbCircle
 10
227.987942
 20
167.915275
 30
0.0
 40
1.000000000000028
100
AcDbArc
 50
0.35
 51
90.0
  0
LINE
  5
308
330
1F
100
AcDbEntity
  8
LC-001-100-D00-0
 62
     7
370
    50
100
AcDbLine
 10
225.434842
 20
168.915272
 30
0.0
 11
227.987939
 21
168.915272
 31
0.0
  0
ARC
  5
309
330
1F
100
AcDbEntity
  8
LC-001-100-D00-0
 62
     7
370
    50
100
AcDbCircle
 10
225.434845
 20
167.915275
 30
0.0
 40
1.0
100
AcDbArc
 50
90.0
 51
180.0
  0
LINE
  5
30A
330
1F
100
AcDbEntity
  8
LC-001-100-D00-0
 62
     7
370
    50
100
AcDbLine
 10
224.434847
 20
167.915278
 30
0.0
 11
224.434847
 21
157.515273
 31
0.0
  0
ARC
  5
30B
330
1F
100
AcDbEntity
  8
LC-001-100-D00-0
 62
     7
370
    50
100
AcDbCircle
 10
221.934845
 20
157.515275
 30
0.0
 40
2.5
100
AcDbArc
 50
270.0
 51
0.0
  0
LINE
  5
30C
330
1F
100
AcDbEntity
  8
LC-001-100-D00-0
 62
     7
370
    50
100
AcDbLine
 10
219.634848
 20
155.015275
 30
0.0
 11
221.934842
 21
155.015275
 31
0.0
  0
ARC
  5
30D
330
1F
100
AcDbEntity
  8
LC-001-100-D00-0
 62
     7
370
    50
100
AcDbCircle
 10
219.634845
 20
154.015275
 30
0.0
 40
1.000000000000057
100
AcDbArc
 50
90.0
 51
180.0
  0
LINE
  5
30E
330
1F
100
AcDbEntity
  8
LC-001-100-D00-0
 62
     7
370
    50
100
AcDbLine
 10
218.634846
 20
119.315275
 30
0.0
 11
218.634846
 21
154.015273
 31
0.0
  0
LINE
  5
30F
330
1F
100
AcDbEntity
  8
LC-001-100-D00-0
 62
     7
370
    50
100
AcDbLine
 10
191.634847
 20
119.315275
 30
0.0
 11
218.634846
 21
119.315275
 31
0.0
  0
LINE
  5
310
330
1F
100
AcDbEntity
  8
LC-001-100-D00-0
 62
     7
370
    50
100
AcDbLine
 10
189.634846
 20
119.051971
 30
0.0
 11
191.634847
 21
119.315275
 31
0.0
  0
LINE
  5
311
330
1F
100
AcDbEntity
  8
LC-001-100-D00-0
 62
     7
370
    50
100
AcDbLine
 10
189.634846
 20
-5.184717
 30
0.0
 11
189.634846
 21
119.051971
 31
0.0
  0
LINE
  5
312
330
1F
100
AcDbEntity
  8
LC-001-100-D00-0
 62
     7
370
    50
100
AcDbLine
 10
188.295098
 20
-10.184712
 30
0.0
 11
189.634846
 21
-5.184717
 31
0.0
  0
LINE
  5
313
330
1F
100
AcDbEntity
  8
LC-001-100-D00-0
 62
     7
370
    50
100
AcDbLine
 10
186.134847
 20
-10.184712
 30
0.0
 11
186.134847
 21
122.315273
 31
0.0
  0
LINE
  5
314
330
1F
100
AcDbEntity
  8
LC-001-100-D00-0
 62
     7
370
    50
100
AcDbLine
 10
186.134847
 20
122.315273
 30
0.0
 11
215.634847
 21
122.315273
 31
0.0
  0
LINE
  5
315
330
1F
100
AcDbEntity
  8
LC-001-100-D00-0
 62
     7
370
    50
100
AcDbLine
 10
215.634847
 20
157.515273
 30
0.0
 11
215.634847
 21
122.315273
 31
0.0
  0
ARC
  5
316
330
1F
100
AcDbEntity
  8
LC-001-100-D00-0
 62
     7
370
    50
100
AcDbCircle
 10
216.634845
 20
157.515275
 30
0.0
 40
1.0
100
AcDbArc
 50
90.0
 51
180.0
  0
LINE
  5
317
330
1F
100
AcDbEntity
  8
LC-001-100-D00-0
 62
     7
370
    50
100
AcDbLine
 10
216.634842
 20
158.515275
 30
0.0
 11
220.634842
 21
158.515275
 31
0.0
  0
ARC
  5
318
330
1F
100
AcDbEntity
  8
LC-001-100-D00-0
 62
     7
370
    50
100
AcDbCircle
 10
220.634845
 20
159.515275
 30
0.0
 40
1.0
100
AcDbArc
 50
270.0
 51
0.0
  0
LINE
  5
319
330
1F
100
AcDbEntity
  8
LC-001-100-D00-0
 62
     7
370
    50
100
AcDbLine
 10
221.634844
 20
171.515272
 30
0.0
 11
221.634844
 21
159.515277
 31
0.0
  0
LINE
  5
31A
330
1F
100
AcDbEntity
  8
LC-001-100-D00-0
 62
     7
370
    50
100
AcDbLine
 10
221.634844
 20
171.515272
 30
0.0
 11
228.634844
 21
171.515272
 31
0.0
  0
LINE
  5
31B
330
1F
100
AcDbEntity
  8
LC-001-100-D00-0
 62
     7
370
    50
100
AcDbLine
 10
228.634844
 20
171.515272
 30
0.0
 11
228.634844
 21
176.115275
 31
0.0
  0
LINE
  5
31C
330
1F
100
AcDbEntity
  8
LC-001-100-D00-0
 62
     7
370
    50
100
AcDbLine
 10
227.634842
 20
177.115277
 30
0.0
 11
228.634844
 21
176.115275
 31
0.0
  0
LINE
  5
31D
330
1F
100
AcDbEntity
  8
LC-001-100-D00-0
 62
     7
370
    50
100
AcDbLine
 10
227.634842
 20
181.315274
 30
0.0
 11
227.634842
 21
177.115277
 31
0.0
  0
LINE
  5
31E
330
1F
100
AcDbEntity
  8
LC-001-100-D00-0
 62
     7
370
    50
100
AcDbLine
 10
227.634842
 20
181.315274
 30
0.0
 11
227.134848
 21
181.603954
 31
0.0
  0
ARC
  5
31F
330
1F
100
AcDbEntity
  8
LC-001-100-D00-0
 62
     7
370
    50
100
AcDbCircle
 10
227.384845
 20
182.036963
 30
0.0
 40
0.5000000000001705
100
AcDbArc
 50
180.0
 51
240.0
  0
LINE
  5
320
330
1F
100
AcDbEntity
  8
LC-001-100-D00-0
 62
     7
370
    50
100
AcDbLine
 10
226.884844
 20
182.687074
 30
0.0
 11
226.884844
 21
182.036959
 31
0.0
  0
LINE
  5
321
330
1F
100
AcDbEntity
  8
LC-001-100-D00-0
 62
     7
370
    50
100
AcDbLine
 10
230.884844
 20
189.615276
 30
0.0
 11
226.884844
 21
182.687074
 31
0.0
  0
LINE
  5
322
330
1F
100
AcDbEntity
  8
LC-001-100-D00-0
 62
     7
370
    50
100
AcDbLine
 10
230.884844
 20
189.615276
 30
0.0
 11
230.884844
 21
205.315274
 31
0.0
  0
ARC
  5
323
330
1F
100
AcDbEntity
  8
LC-001-100-D00-0
 62
     7
370
    50
100
AcDbCircle
 10
231.884845
 20
205.315275
 30
0.0
 40
1.0
100
AcDbArc
 50
90.0
 51
180.0
  0
LINE
  5
324
330
1F
100
AcDbEntity
  8
LC-001-100-D00-0
 62
     7
370
    50
100
AcDbLine
 10
231.884846
 20
206.315276
 30
0.0
 11
308.884839
 21
206.315276
 31
0.0
  0
LINE
  5
325
330
1F
100
AcDbEntity
  8
LC-001-100-D00-0
 62
     7
370
    50
100
AcDbLine
 10
308.884839
 20
206.315276
 30
0.0
 11
310.134852
 21
205.065273
 31
0.0
  0
LINE
  5
326
330
1F
100
AcDbEntity
  8
LC-001-100-D00-0
 62
     7
370
    50
100
AcDbLine
 10
310.134852
 20
203.315273
 30
0.0
 11
310.134852
 21
205.065273
 31
0.0
  0
LINE
  5
327
330
1F
100
AcDbEntity
  8
LC-001-100-D00-0
 62
     7
370
    50
100
AcDbLine
 10
234.634848
 20
203.315273
 30
0.0
 11
310.134852
 21
203.315273
 31
0.0
  0
LINE
  5
328
330
1F
100
AcDbEntity
  8
LC-001-100-D00-0
 62
     7
370
    50
100
AcDbLine
 10
233.634846
 20
202.315275
 30
0.0
 11
234.634848
 21
203.315273
 31
0.0
  0
LINE
  5
329
330
1F
100
AcDbEntity
  8
LC-001-100-D00-0
 62
     7
370
    50
100
AcDbLine
 10
233.634846
 20
188.378416
 30
0.0
 11
233.634846
 21
202.315275
 31
0.0
  0
LINE
  5
32A
330
1F
100
AcDbEntity
  8
LC-001-100-D00-0
 62
     7
370
    50
100
AcDbLine
 10
188.295098
 20
-10.184712
 30
0.0
 11
186.134847
 21
-10.184712
 31
0.0
  0
LINE
  5
32B
330
1F
100
AcDbEntity
  8
LC-001-100-D00-0
 62
     7
370
    50
100
AcDbLine
 10
118.134843
 20
122.315273
 30
0.0
 11
118.134843
 21
-10.184712
 31
0.0
  0
LINE
  5
32C
330
1F
100
AcDbEntity
  8
LC-001-100-D00-0
 62
     7
370
    50
100
AcDbLine
 10
118.134843
 20
122.315273
 30
0.0
 11
186.134847
 21
122.315273
 31
0.0
  0
LINE
  5
32D
330
1F
100
AcDbEntity
  8
LC-001-100-D00-0
 62
     7
370
    50
100
AcDbLine
 10
118.134843
 20
-10.184712
 30
0.0
 11
186.134847
 21
-10.184712
 31
0.0
  0
LINE
  5
32E
330
1F
100
AcDbEntity
  8
LC-001-100-D00-0
 62
     7
370
    50
100
AcDbLine
 10
-4.615149
 20
206.315276
 30
0.0
 11
72.384844
 21
206.315276
 31
0.0
  0
ARC
  5
32F
330
1F
100
AcDbEntity
  8
LC-001-100-D00-0
 62
     7
370
    50
100
AcDbCircle
 10
72.384845
 20
205.315275
 30
0.0
 40
1.0
100
AcDbArc
 50
0.0
 51
90.0
  0
LINE
  5
330
330
1F
100
AcDbEntity
  8
LC-001-100-D00-0
 62
     7
370
    50
100
AcDbLine
 10
73.384846
 20
205.315274
 30
0.0
 11
73.384846
 21
189.615276
 31
0.0
  0
LINE
  5
331
330
1F
100
AcDbEntity
  8
LC-001-100-D00-0
 62
     7
370
    50
100
AcDbLine
 10
77.384846
 20
182.687074
 30
0.0
 11
73.384846
 21
189.615276
 31
0.0
  0
LINE
  5
332
330
1F
100
AcDbEntity
  8
LC-001-100-D00-0
 62
     7
370
    50
100
AcDbLine
 10
77.384846
 20
182.036959
 30
0.0
 11
77.384846
 21
182.687074
 31
0.0
  0
ARC
  5
333
330
1F
100
AcDbEntity
  8
LC-001-100-D00-0
 62
     7
370
    50
100
AcDbCircle
 10
76.884845
 20
182.036963
 30
0.0
 40
0.5000000000001963
100
AcDbArc
 50
300.0
 51
360.0
  0
LINE
  5
334
330
1F
100
AcDbEntity
  8
LC-001-100-D00-0
 62
     7
370
    50
100
AcDbLine
 10
77.134842
 20
181.603954
 30
0.0
 11
76.634848
 21
181.315274
 31
0.0
  0
LINE
  5
335
330
1F
100
AcDbEntity
  8
LC-001-100-D00-0
 62
     7
370
    50
100
AcDbLine
 10
76.634848
 20
177.115277
 30
0.0
 11
76.634848
 21
181.315274
 31
0.0
  0
LINE
  5
336
330
1F
100
AcDbEntity
  8
LC-001-100-D00-0
 62
     7
370
    50
100
AcDbLine
 10
75.634846
 20
176.115275
 30
0.0
 11
76.634848
 21
177.115277
 31
0.0
  0
LINE
  5
337
330
1F
100
AcDbEntity
  8
LC-001-100-D00-0
 62
     7
370
    50
100
AcDbLine
 10
75.634846
 20
176.115275
 30
0.0
 11
75.634846
 21
171.515272
 31
0.0
  0
LINE
  5
338
330
1F
100
AcDbEntity
  8
LC-001-100-D00-0
 62
     7
370
    50
100
AcDbLine
 10
75.634846
 20
171.515272
 30
0.0
 11
82.634846
 21
171.515272
 31
0.0
  0
LINE
  5
339
330
1F
100
AcDbEntity
  8
LC-001-100-D00-0
 62
     7
370
    50
100
AcDbLine
 10
82.634846
 20
159.515277
 30
0.0
 11
82.634846
 21
171.515272
 31
0.0
  0
ARC
  5
33A
330
1F
100
AcDbEntity
  8
LC-001-100-D00-0
 62
     7
370
    50
100
AcDbCircle
 10
83.634845
 20
159.515275
 30
0.0
 40
1.0
100
AcDbArc
 50
180.0
 51
270.0
  0
LINE
  5
33B
330
1F
100
AcDbEntity
  8
LC-001-100-D00-0
 62
     7
370
    50
100
AcDbLine
 10
83.634848
 20
158.515275
 30
0.0
 11
87.634848
 21
158.515275
 31
0.0
  0
ARC
  5
33C
330
1F
100
AcDbEntity
  8
LC-001-100-D00-0
 62
     7
370
    50
100
AcDbCircle
 10
87.634845
 20
157.515275
 30
0.0
 40
1.0
100
AcDbArc
 50
0.0
 51
90.0
  0
LINE
  5
33D
330
1F
100
AcDbEntity
  8
LC-001-100-D00-0
 62
     7
370
    50
100
AcDbLine
 10
88.634843
 20
122.315273
 30
0.0
 11
88.634843
 21
157.515273
 31
0.0
  0
LINE
  5
33E
330
1F
100
AcDbEntity
  8
LC-001-100-D00-0
 62
     7
370
    50
100
AcDbLine
 10
88.634843
 20
122.315273
 30
0.0
 11
118.134843
 21
122.315273
 31
0.0
  0
LINE
  5
33F
330
1F
100
AcDbEntity
  8
LC-001-100-D00-0
 62
     7
370
    50
100
AcDbLine
 10
114.634843
 20
-5.184717
 30
0.0
 11
115.974592
 21
-10.184712
 31
0.0
  0
LINE
  5
340
330
1F
100
AcDbEntity
  8
LC-001-100-D00-0
 62
     7
370
    50
100
AcDbLine
 10
114.634843
 20
119.051971
 30
0.0
 11
114.634843
 21
-5.184717
 31
0.0
  0
LINE
  5
341
330
1F
100
AcDbEntity
  8
LC-001-100-D00-0
 62
     7
370
    50
100
AcDbLine
 10
112.634843
 20
119.315275
 30
0.0
 11
114.634843
 21
119.051971
 31
0.0
  0
LINE
  5
342
330
1F
100
AcDbEntity
  8
LC-001-100-D00-0
 62
     7
370
    50
100
AcDbLine
 10
85.634844
 20
119.315275
 30
0.0
 11
112.634843
 21
119.315275
 31
0.0
  0
LINE
  5
343
330
1F
100
AcDbEntity
  8
LC-001-100-D00-0
 62
     7
370
    50
100
AcDbLine
 10
85.634844
 20
154.015273
 30
0.0
 11
85.634844
 21
119.315275
 31
0.0
  0
ARC
  5
344
330
1F
100
AcDbEntity
  8
LC-001-100-D00-0
 62
     7
370
    50
100
AcDbCircle
 10
84.634845
 20
154.015275
 30
0.0
 40
1.0
100
AcDbArc
 50
0.0
 51
90.0
  0
LINE
  5
345
330
1F
100
AcDbEntity
  8
LC-001-100-D00-0
 62
     7
370
    50
100
AcDbLine
 10
82.334848
 20
155.015275
 30
0.0
 11
84.634842
 21
155.015275
 31
0.0
  0
ARC
  5
346
330
1F
100
AcDbEntity
  8
LC-001-100-D00-0
 62
     7
370
    50
100
AcDbCircle
 10
82.334845
 20
157.515275
 30
0.0
 40
2.5
100
AcDbArc
 50
180.0
 51
270.0
  0
LINE
  5
347
330
1F
100
AcDbEntity
  8
LC-001-100-D00-0
 62
     7
370
    50
100
AcDbLine
 10
79.834843
 20
157.515273
 30
0.0
 11
79.834843
 21
167.915278
 31
0.0
  0
ARC
  5
348
330
1F
100
AcDbEntity
  8
LC-001-100-D00-0
 62
     7
370
    50
100
AcDbCircle
 10
78.834845
 20
167.915275
 30
0.0
 40
1.0
100
AcDbArc
 50
0.0
 51
90.0
  0
LINE
  5
349
330
1F
100
AcDbEntity
  8
LC-001-100-D00-0
 62
     7
370
    50
100
AcDbLine
 10
76.281751
 20
168.915272
 30
0.0
 11
78.834848
 21
168.915272
 31
0.0
  0
ARC
  5
34A
330
1F
100
AcDbEntity
  8
LC-001-100-D00-0
 62
     7
370
    50
100
AcDbCircle
 10
76.281748
 20
167.915275
 30
0.0
 40
1.0
100
AcDbArc
 50
90.0
 51
179.65
  0
LINE
  5
34B
330
1F
100
AcDbEntity
  8
LC-001-100-D00-0
 62
     7
370
    50
100
AcDbLine
 10
74.984843
 20
119.315275
 30
0.0
 11
75.281763
 21
167.921387
 31
0.0
  0
LINE
  5
34C
330
1F
100
AcDbEntity
  8
LC-001-100-D00-0
 62
     7
370
    50
100
AcDbLine
 10
72.134847
 20
119.315275
 30
0.0
 11
74.984843
 21
119.315275
 31
0.0
  0
LINE
  5
34D
330
1F
100
AcDbEntity
  8
LC-001-100-D00-0
 62
     7
370
    50
100
AcDbLine
 10
72.134847
 20
185.780339
 30
0.0
 11
72.134847
 21
119.315275
 31
0.0
  0
LINE
  5
34E
330
1F
100
AcDbEntity
  8
LC-001-100-D00-0
 62
     7
370
    50
100
AcDbLine
 10
72.134847
 20
185.780339
 30
0.0
 11
70.634844
 21
188.378416
 31
0.0
  0
LINE
  5
34F
330
1F
100
AcDbEntity
  8
LC-001-100-D00-0
 62
     7
370
    50
100
AcDbLine
 10
70.634844
 20
202.315275
 30
0.0
 11
70.634844
 21
188.378416
 31
0.0
  0
LINE
  5
350
330
1F
100
AcDbEntity
  8
LC-001-100-D00-0
 62
     7
370
    50
100
AcDbLine
 10
69.634842
 20
203.315273
 30
0.0
 11
70.634844
 21
202.315275
 31
0.0
  0
LINE
  5
351
330
1F
100
AcDbEntity
  8
LC-001-100-D00-0
 62
     7
370
    50
100
AcDbLine
 10
-5.865162
 20
203.315273
 30
0.0
 11
69.634842
 21
203.315273
 31
0.0
  0
LINE
  5
352
330
1F
100
AcDbEntity
  8
LC-001-100-D00-0
 62
     7
370
    50
100
AcDbLine
 10
118.134843
 20
-10.184712
 30
0.0
 11
115.974592
 21
-10.184712
 31
0.0
  0
LINE
  5
353
330
1F
100
AcDbEntity
  8
LC-001-100-D00-0
 62
     7
370
    50
100
AcDbLine
 10
76.634848
 20
181.315274
 30
0.0
 11
83.634848
 21
181.315274
 31
0.0
  0
LINE
  5
354
330
1F
100
AcDbEntity
  8
LC-001-100-D00-0
 62
     7
370
    50
100
AcDbLine
 10
220.634842
 20
181.315274
 30
0.0
 11
227.634842
 21
181.315274
 31
0.0
  0
LINE
  5
355
330
1F
100
AcDbEntity
  8
LC-001-100-D00-0
 62
     7
370
    50
100
AcDbLine
 10
76.634848
 20
177.115277
 30
0.0
 11
80.327811
 21
177.115277
 31
0.0
  0
LINE
  5
356
330
1F
100
AcDbEntity
  8
LC-001-100-D00-0
 62
     7
370
    50
100
AcDbLine
 10
223.941879
 20
177.115277
 30
0.0
 11
227.634842
 21
177.115277
 31
0.0
  0
LINE
  5
357
330
1F
100
AcDbEntity
  8
LC-001-100-D00-0
 62
     7
370
    50
100
AcDbLine
 10
75.634846
 20
176.115275
 30
0.0
 11
75.884843
 21
176.115275
 31
0.0
  0
LINE
  5
358
330
1F
100
AcDbEntity
  8
LC-001-100-D00-0
 62
     7
370
    50
100
AcDbLine
 10
228.384847
 20
176.115275
 30
0.0
 11
228.634844
 21
176.115275
 31
0.0
  0
LINE
  5
359
330
1F
100
AcDbEntity
  8
LC-001-100-D00-0
 62
     7
370
    50
100
AcDbLine
 10
73.384846
 20
189.615276
 30
0.0
 11
75.134845
 21
189.615276
 31
0.0
  0
LINE
  5
35A
330
1F
100
AcDbEntity
  8
LC-001-100-D00-0
 62
     7
370
    50
100
AcDbLine
 10
229.134845
 20
189.615276
 30
0.0
 11
230.884844
 21
189.615276
 31
0.0
  0
LINE
  5
35B
330
1F
100
AcDbEntity
  8
LC-001-100-D00-0
 62
     7
370
    50
100
AcDbLine
 10
77.384846
 20
182.687074
 30
0.0
 11
83.634848
 21
182.687074
 31
0.0
  0
LINE
  5
35C
330
1F
100
AcDbEntity
  8
LC-001-100-D00-0
 62
     7
370
    50
100
AcDbLine
 10
220.634842
 20
182.687074
 30
0.0
 11
226.884844
 21
182.687074
 31
0.0
  0
LINE
  5
35D
330
1F
100
AcDbEntity
  8
LC-001-100-D00-0
 62
     7
370
    50
100
AcDbLine
 10
82.634846
 20
171.515272
 30
0.0
 11
83.384843
 21
171.515272
 31
0.0
  0
LINE
  5
35E
330
1F
100
AcDbEntity
  8
LC-001-100-D00-0
 62
     7
370
    50
100
AcDbLine
 10
220.884846
 20
171.515272
 30
0.0
 11
221.634844
 21
171.515272
 31
0.0
  0
LINE
  5
35F
330
1F
100
AcDbEntity
  8
LC-001-100-D00-0
 62
     7
370
    50
100
AcDbLine
 10
332.134852
 20
203.315273
 30
0.0
 11
332.134852
 21
204.311997
 31
0.0
  0
ARC
  5
360
330
1F
100
AcDbEntity
  8
LC-001-100-D00-0
 62
     7
370
    50
100
AcDbCircle
 10
330.131566
 20
204.311996
 30
0.0
 40
2.003278571427359
100
AcDbArc
 50
0.0
 51
90.0
  0
LINE
  5
361
330
1F
100
AcDbEntity
  8
LC-001-100-D00-0
 62
     7
370
    50
100
AcDbLine
 10
316.134849
 20
205.065273
 30
0.0
 11
310.134852
 21
205.065273
 31
0.0
  0
LINE
  5
362
330
1F
100
AcDbEntity
  8
LC-001-100-D00-0
 62
     7
370
    50
100
AcDbLine
 10
316.134849
 20
205.065273
 30
0.0
 11
316.134849
 21
203.315273
 31
0.0
  0
LINE
  5
363
330
1F
100
AcDbEntity
  8
LC-001-100-D00-0
 62
     7
370
    50
100
AcDbLine
 10
316.134849
 20
203.315273
 30
0.0
 11
310.134852
 21
203.315273
 31
0.0
  0
LINE
  5
364
330
1F
100
AcDbEntity
  8
LC-001-100-D00-0
 62
     7
370
    50
100
AcDbLine
 10
316.134849
 20
205.065273
 30
0.0
 11
317.384848
 21
206.315276
 31
0.0
  0
LINE
  5
365
330
1F
100
AcDbEntity
  8
LC-001-100-D00-0
 62
     7
370
    50
100
AcDbLine
 10
317.384848
 20
206.315276
 30
0.0
 11
330.13157
 21
206.315276
 31
0.0
  0
LINE
  5
366
330
1F
100
AcDbEntity
  8
LC-001-100-D00-0
 62
     7
370
    50
100
AcDbLine
 10
316.134849
 20
203.315273
 30
0.0
 11
332.134852
 21
203.315273
 31
0.0
  0
LINE
  5
367
330
1F
100
AcDbEntity
  8
LC-001-100-D00-0
 62
     7
370
    50
100
AcDbLine
 10
87.634848
 20
158.515275
 30
0.0
 11
216.634842
 21
158.515275
 31
0.0
  0
LINE
  5
368
330
1F
100
AcDbEntity
  8
LC-001-100-D00-0
 62
     7
370
    50
100
AcDbLine
 10
308.884839
 20
206.315276
 30
0.0
 11
317.384848
 21
206.315276
 31
0.0
  0
LINE
  5
369
330
1F
100
AcDbEntity
  8
LC-001-100-D00-0
 62
     7
370
    50
100
AcDbLine
 10
72.384844
 20
206.315276
 30
0.0
 11
75.134845
 21
206.315276
 31
0.0
  0
LINE
  5
36A
330
1F
100
AcDbEntity
  8
LC-001-100-D00-0
 62
     7
370
    50
100
AcDbLine
 10
229.134845
 20
206.315276
 30
0.0
 11
231.884846
 21
206.315276
 31
0.0
  0
LINE
  5
36B
330
1F
100
AcDbEntity
  8
LC-001-100-D00-0
 62
     7
370
    50
100
AcDbLine
 10
161.134845
 20
215.715275
 30
0.0
 11
143.134845
 21
215.715275
 31
0.0
  0
LINE
  5
36C
330
1F
100
AcDbEntity
  8
LC-001-100-D00-0
 62
     7
370
    50
100
AcDbLine
 10
147.084845
 20
305.915274
 30
0.0
 11
157.184844
 21
305.915274
 31
0.0
  0
LINE
  5
36D
330
1F
100
AcDbEntity
  8
LC-001-100-D00-0
 62
     7
370
    50
100
AcDbLine
 10
151.634845
 20
306.894273
 30
0.0
 11
151.634845
 21
306.465056
 31
0.0
  0
ARC
  5
36E
330
1F
100
AcDbEntity
  8
LC-001-100-D00-0
 62
     7
370
    50
100
AcDbCircle
 10
152.134845
 20
300.790275
 30
0.0
 40
5.696764432553089
100
AcDbArc
 50
84.964721
 51
95.035279
  0
LINE
  5
36F
330
1F
100
AcDbEntity
  8
LC-001-100-D00-0
 62
     7
370
    50
100
AcDbLine
 10
152.634845
 20
306.465056
 30
0.0
 11
152.634845
 21
306.894273
 31
0.0
  0
LINE
  5
370
330
1F
100
AcDbEntity
  8
LC-001-100-D00-0
 62
     7
370
    50
100
AcDbLine
 10
152.634845
 20
306.915276
 30
0.0
 11
155.088132
 21
306.915276
 31
0.0
  0
INSERT
  5
37C
330
1F
100
AcDbEntity
  8
LC-001-100-D00-0
 62
     7
370
    50
100
AcDbBlockReference
  2
POLY12
 10
0.0
 20
0.0
 30
0.0
  0
LINE
  5
37D
330
1F
100
AcDbEntity
  8
LC-001-100-D00-0
 62
     7
370
    50
100
AcDbLine
 10
149.181558
 20
306.915276
 30
0.0
 11
151.634845
 21
306.915276
 31
0.0
  0
INSERT
  5
389
330
1F
100
AcDbEntity
  8
LC-001-100-D00-0
 62
     7
370
    50
100
AcDbBlockReference
  2
POLY13
 10
0.0
 20
0.0
 30
0.0
  0
LINE
  5
38A
330
1F
100
AcDbEntity
  8
LC-001-100-D00-0
 62
     7
370
    50
100
AcDbLine
 10
157.184845
 20
212.715276
 30
0.0
 11
147.084845
 21
212.715276
 31
0.0
  0
ARC
  5
38B
330
1F
100
AcDbEntity
  8
LC-001-100-D00-0
 62
     7
370
    50
100
AcDbCircle
 10
152.189574
 20
217.746653
 30
0.0
 40
6.711791631635212
100
AcDbArc
 50
296.427926
 51
303.742196
  0
ARC
  5
38C
330
1F
100
AcDbEntity
  8
LC-001-100-D00-0
 62
     7
370
    50
100
AcDbCircle
 10
155.844907
 20
212.276772
 30
0.0
 40
0.1329643086221413
100
AcDbArc
 50
236.814142
 51
303.185858
  0
ARC
  5
38D
330
1F
100
AcDbEntity
  8
LC-001-100-D00-0
 62
     7
370
    50
100
AcDbCircle
 10
152.044016
 20
217.746653
 30
0.0
 40
6.711791631635212
100
AcDbArc
 50
296.427926
 51
303.742196
  0
ARC
  5
38E
330
1F
100
AcDbEntity
  8
LC-001-100-D00-0
 62
     7
370
    50
100
AcDbCircle
 10
152.076033
 20
217.739029
 30
0.0
 40
6.703147117696457
100
AcDbArc
 50
239.756146
 51
243.574324
  0
LINE
  5
38F
330
1F
100
AcDbEntity
  8
LC-001-100-D00-0
 62
     7
370
    50
100
AcDbLine
 10
154.941721
 20
211.715274
 30
0.0
 11
149.182412
 21
211.715274
 31
0.0
  0
INSERT
  5
39B
330
1F
100
AcDbEntity
  8
LC-001-100-D00-0
 62
     7
370
    50
100
AcDbBlockReference
  2
POLY14
 10
0.0
 20
0.0
 30
0.0
  0
INSERT
  5
3A7
330
1F
100
AcDbEntity
  8
LC-001-100-D00-0
 62
     7
370
    50
100
AcDbBlockReference
  2
POLY15
 10
0.0
 20
0.0
 30
0.0
  0
INSERT
  5
3B3
330
1F
100
AcDbEntity
  8
LC-001-100-D00-0
 62
     7
370
    50
100
AcDbBlockReference
  2
POLY16
 10
0.0
 20
0.0
 30
0.0
  0
LINE
  5
3B4
330
1F
100
AcDbEntity
  8
LC-001-100-D00-0
 62
     7
370
    50
100
AcDbLine
 10
154.941721
 20
211.715274
 30
0.0
 11
155.087278
 21
211.715274
 31
0.0
  0
INSERT
  5
3BA
330
1F
100
AcDbEntity
  8
LC-001-100-D00-0
 62
     7
370
    50
100
AcDbBlockReference
  2
KLON1
 10
0.0
 20
0.0
 30
0.0
  0
INSERT
  5
3C0
330
1F
100
AcDbEntity
  8
LC-001-100-D00-0
 62
     7
370
    50
100
AcDbBlockReference
  2
KLON2
 10
0.0
 20
0.0
 30
0.0
  0
INSERT
  5
3EF
330
1F
100
AcDbEntity
  8
LC-001-100-D00-0
 62
     7
370
    25
100
AcDbBlockReference
  2
KLON3
 10
0.0
 20
0.0
 30
0.0
  0
INSERT
  5
41D
330
1F
100
AcDbEntity
  8
LC-001-100-D00-0
 62
     7
370
    25
100
AcDbBlockReference
  2
KLON4
 10
0.0
 20
0.0
 30
0.0
  0
INSERT
  5
423
330
1F
100
AcDbEntity
  8
LC-001-100-D00-0
 62
     7
370
    50
100
AcDbBlockReference
  2
KLON5
 10
0.0
 20
0.0
 30
0.0
  0
INSERT
  5
429
330
1F
100
AcDbEntity
  8
LC-001-100-D00-0
 62
     7
370
    50
100
AcDbBlockReference
  2
KLON6
 10
0.0
 20
0.0
 30
0.0
  0
INSERT
  5
437
330
1F
100
AcDbEntity
  8
LC-001-100-D00-0
 62
     7
370
    25
100
AcDbBlockReference
  2
KLON7
 10
0.0
 20
0.0
 30
0.0
  0
INSERT
  5
449
330
1F
100
AcDbEntity
  8
LC-001-100-D00-0
 62
     7
370
    25
100
AcDbBlockReference
  2
KLON8
 10
0.0
 20
0.0
 30
0.0
  0
INSERT
  5
451
330
1F
100
AcDbEntity
  8
LC-001-100-D00-0
 62
     7
370
    50
100
AcDbBlockReference
  2
KLON9
 10
0.0
 20
0.0
 30
0.0
  0
LINE
  5
452
330
1F
100
AcDbEntity
  8
LC-001-100-D00-0
 62
     7
370
    50
100
AcDbLine
 10
117.634845
 20
295.808861
 30
0.0
 11
120.134845
 21
298.308861
 31
0.0
  0
LINE
  5
453
330
1F
100
AcDbEntity
  8
LC-001-100-D00-0
 62
     7
370
    50
100
AcDbLine
 10
184.134845
 20
299.447068
 30
0.0
 11
186.634845
 21
301.947068
 31
0.0
  0
INSERT
  5
471
330
1F
100
AcDbEntity
  8
LC-001-100-D00-0
 62
     7
370
    25
100
AcDbBlockReference
  2
KLON10
 10
0.0
 20
0.0
 30
0.0
  0
INSERT
  5
47C
330
1F
100
AcDbEntity
  8
LC-001-100-D00-0
 62
     7
370
    25
100
AcDbBlockReference
  2
KLON11
 10
0.0
 20
0.0
 30
0.0
  0
LINE
  5
47D
330
1F
100
AcDbEntity
  8
LC-001-100-D00-0
 62
     7
370
    50
100
AcDbLine
 10
191.568686
 20
109.315275
 30
0.0
 11
194.068686
 21
111.815275
 31
0.0
  0
INSERT
  5
485
330
1F
100
AcDbEntity
  8
LC-001-100-D00-0
 62
     7
370
    25
100
AcDbBlockReference
  2
KLON12
 10
0.0
 20
0.0
 30
0.0
  0
INSERT
  5
490
330
1F
100
AcDbEntity
  8
LC-001-100-D00-0
 62
     7
370
    25
100
AcDbBlockReference
  2
KLON13
 10
0.0
 20
0.0
 30
0.0
  0
INSERT
  5
49B
330
1F
100
AcDbEntity
  8
LC-001-100-D00-0
 62
     7
370
    25
100
AcDbBlockReference
  2
KLON14
 10
0.0
 20
0.0
 30
0.0
  0
LINE
  5
49C
330
1F
100
AcDbEntity
  8
LC-001-100-D00-0
 62
     7
370
    50
100
AcDbLine
 10
219.384845
 20
208.973482
 30
0.0
 11
220.384845
 21
209.973482
 31
0.0
  0
LINE
  5
49D
330
1F
100
AcDbEntity
  8
LC-001-100-D00-0
 62
     7
370
    50
100
AcDbLine
 10
83.884845
 20
208.177324
 30
0.0
 11
84.884845
 21
209.177324
 31
0.0
  0
LINE
  5
49F
330
1F
100
AcDbEntity
  8
LC-001-100-D00-0
  6
DASHDOT
 62
     7
370
    25
100
AcDbLine
 10
152.134845
 20
-14.184725
 30
0.0
 11
152.134845
 21
304.315273
 31
0.0
  0
DIMENSION
  5
4A3
330
1F
100
AcDbEntity
  8
LC-002-003-----0
 62
     7
370
    25
100
AcDbDimension
  2
*D31
 10
332.134852
 20
382.703273
 30
0.0
 11
141.937925
 21
413.503273
 31
0.0
 70
   160
  1
%%c<>
 71
     5
 42
360.000014
  3
LC-DIM-L-0140-02-02
100
AcDbAlignedDimension
 13
-27.865162
 23
203.315273
 33
0.0
 14
332.134852
 24
203.315273
 34
0.0
100
AcDbRotatedDimension
  0
DIMENSION
  5
4B1
330
1F
100
AcDbEntity
  8
LC-002-003-----0
 62
     7
370
    25
100
AcDbDimension
  2
*D32
 10
232.134843
 20
-108.534727
 30
0.0
 11
144.591098
 21
-77.734727
 31
0.0
 70
   160
  1
%%c<>
 71
     5
 42
159.999996
  3
LC-DIM-L-0140-02-02
100
AcDbAlignedDimension
 13
72.134847
 23
119.315275
 33
0.0
 14
232.134843
 24
119.315275
 34
0.0
100
AcDbRotatedDimension
  0
DIMENSION
  5
4BE
330
1F
100
AcDbEntity
  8
LC-002-003-----0
 62
     7
370
    25
100
AcDbDimension
  2
*D33
 10
189.634846
 20
-47.352727
 30
0.0
 11
155.203791
 21
-16.552727
 31
0.0
 70
   160
  1
DN70
 71
     5
 42
75.000001
  3
LC-DIM-L-0140-02-02
100
AcDbAlignedDimension
 13
114.634845
 23
-3.539591
 33
0.0
 14
189.634846
 24
-5.184717
 34
0.0
100
AcDbRotatedDimension
  0
DIMENSION
  5
4CB
330
1F
100
AcDbEntity
  8
LC-002-003-----0
 62
     7
370
    25
100
AcDbDimension
  2
*D34
 10
21.660738
 20
109.315269
 30
0.0
 11
-9.139262
 21
147.479273
 31
0.0
 70
   160
 71
     5
 42
97.000006
 53
90.0
  3
LC-DIM-L-0140-02-02
100
AcDbAlignedDimension
 13
-25.740278
 23
206.315275
 33
0.0
 14
80.134848
 24
109.315269
 34
0.0
 50
90.0
100
AcDbRotatedDimension
  0
DIMENSION
  5
4D8
330
1F
100
AcDbEntity
  8
LC-002-003-----0
 62
     7
370
    25
100
AcDbDimension
  2
*D35
 10
-91.54132
 20
-10.184712
 30
0.0
 11
-122.34132
 21
87.485273
 31
0.0
 70
   160
 71
     5
 42
216.499987
 53
90.0
  3
LC-DIM-L-0140-02-02
100
AcDbAlignedDimension
 13
-25.740278
 23
206.315275
 33
0.0
 14
118.134843
 24
-10.184712
 34
0.0
 50
90.0
100
AcDbRotatedDimension
  0
ARC
  5
4E5
330
1F
100
AcDbEntity
  8
LC-001-100-D00-0
 62
     7
370
    15
100
AcDbCircle
 10
221.134846
 20
135.015275
 30
0.0
 40
2.0
100
AcDbArc
 50
180.0
 51
270.0
  0
LINE
  5
4E6
330
1F
100
AcDbEntity
  8
LC-001-100-D00-0
 62
     7
370
    15
100
AcDbLine
 10
221.134844
 20
133.015275
 30
0.0
 11
218.634847
 21
133.015275
 31
0.0
  0
ARC
  5
4E7
330
1F
100
AcDbEntity
  8
LC-001-100-D00-0
 62
     7
370
    15
100
AcDbCircle
 10
225.134846
 20
135.015275
 30
0.0
 40
2.0
100
AcDbArc
 50
270.0
 51
0.0
  0
LINE
  5
4E8
330
1F
100
AcDbEntity
  8
LC-001-100-D00-0
 62
     7
370
    15
100
AcDbLine
 10
219.134844
 20
143.015273
 30
0.0
 11
219.134844
 21
135.015272
 31
0.0
  0
ARC
  5
4E9
330
1F
100
AcDbEntity
  8
LC-001-100-D00-0
 62
     7
370
    15
100
AcDbCircle
 10
221.134846
 20
143.015275
 30
0.0
 40
2.0
100
AcDbArc
 50
90.0
 51
180.0
  0
LINE
  5
4EA
330
1F
100
AcDbEntity
  8
LC-001-100-D00-0
 62
     7
370
    15
100
AcDbLine
 10
225.134845
 20
145.015277
 30
0.0
 11
221.134844
 21
145.015277
 31
0.0
  0
ARC
  5
4EB
330
1F
100
AcDbEntity
  8
LC-001-100-D00-0
 62
     7
370
    15
100
AcDbCircle
 10
225.134846
 20
143.015275
 30
0.0
 40
2.0
100
AcDbArc
 50
0.0
 51
90.0
  0
LINE
  5
4EC
330
1F
100
AcDbEntity
  8
LC-001-100-D00-0
 62
     7
370
    15
100
AcDbLine
 10
227.134849
 20
135.015272
 30
0.0
 11
227.134849
 21
143.015273
 31
0.0
  0
LINE
  5
4ED
330
1F
100
AcDbEntity
  8
LC-001-100-D00-0
 62
     7
370
    15
100
AcDbLine
 10
221.134844
 20
133.015275
 30
0.0
 11
225.134845
 21
133.015275
 31
0.0
  0
LINE
  5
4EE
330
1F
100
AcDbEntity
  8
LC-001-100-D00-0
 62
     7
370
    15
100
AcDbLine
 10
221.134844
 20
145.015277
 30
0.0
 11
218.634847
 21
145.015277
 31
0.0
  0
LINE
  5
4EF
330
1F
100
AcDbEntity
  8
LC-001-100-D00-0
 62
     8
370
    15
100
AcDbLine
 10
219.134844
 20
135.015272
 30
0.0
 11
218.634847
 21
135.015272
 31
0.0
  0
LINE
  5
4F0
330
1F
100
AcDbEntity
  8
LC-001-100-D00-0
 62
     8
370
    15
100
AcDbLine
 10
219.134844
 20
143.015273
 30
0.0
 11
218.634847
 21
143.015273
 31
0.0
  0
INSERT
  5
4F8
330
1F
100
AcDbEntity
  8
LC-001-100-D00-0
 62
     7
370
    25
100
AcDbBlockReference
  2
KLON15
 10
0.0
 20
0.0
 30
0.0
  0
ARC
  5
4F9
330
1F
100
AcDbEntity
  8
LC-001-100-D00-0
 62
     7
370
    15
100
AcDbCircle
 10
83.134846
 20
135.015275
 30
0.0
 40
2.0
100
AcDbArc
 50
270.0
 51
0.0
  0
LINE
  5
4FA
330
1F
100
AcDbEntity
  8
LC-001-100-D00-0
 62
     7
370
    15
100
AcDbLine
 10
85.634845
 20
133.015275
 30
0.0
 11
84.134842
 21
133.015275
 31
0.0
  0
ARC
  5
4FB
330
1F
100
AcDbEntity
  8
LC-001-100-D00-0
 62
     7
370
    15
100
AcDbCircle
 10
79.134846
 20
135.015275
 30
0.0
 40
2.0
100
AcDbArc
 50
180.0
 51
270.0
  0
LINE
  5
4FC
330
1F
100
AcDbEntity
  8
LC-001-100-D00-0
 62
     7
370
    15
100
AcDbLine
 10
85.134844
 20
143.015273
 30
0.0
 11
85.134844
 21
135.015272
 31
0.0
  0
LINE
  5
4FD
330
1F
100
AcDbEntity
  8
LC-001-100-D00-0
 62
     7
370
    15
100
AcDbLine
 10
77.134843
 20
135.015272
 30
0.0
 11
77.134843
 21
143.015273
 31
0.0
  0
ARC
  5
4FE
330
1F
100
AcDbEntity
  8
LC-001-100-D00-0
 62
     7
370
    15
100
AcDbCircle
 10
79.134846
 20
143.015275
 30
0.0
 40
2.0
100
AcDbArc
 50
90.0
 51
180.0
  0
LINE
  5
4FF
330
1F
100
AcDbEntity
  8
LC-001-100-D00-0
 62
     7
370
    15
100
AcDbLine
 10
83.134848
 20
145.015277
 30
0.0
 11
79.134847
 21
145.015277
 31
0.0
  0
ARC
  5
500
330
1F
100
AcDbEntity
  8
LC-001-100-D00-0
 62
     7
370
    15
100
AcDbCircle
 10
83.134846
 20
143.015275
 30
0.0
 40
2.0
100
AcDbArc
 50
0.0
 51
90.0
  0
LINE
  5
501
330
1F
100
AcDbEntity
  8
LC-001-100-D00-0
 62
     7
370
    15
100
AcDbLine
 10
83.134848
 20
133.015275
 30
0.0
 11
84.134842
 21
133.015275
 31
0.0
  0
LINE
  5
502
330
1F
100
AcDbEntity
  8
LC-001-100-D00-0
 62
     7
370
    15
100
AcDbLine
 10
78.134845
 20
133.015275
 30
0.0
 11
79.134847
 21
133.015275
 31
0.0
  0
LINE
  5
503
330
1F
100
AcDbEntity
  8
LC-001-100-D00-0
 62
     7
370
    15
100
AcDbLine
 10
85.634845
 20
145.015277
 30
0.0
 11
83.134848
 21
145.015277
 31
0.0
  0
LINE
  5
504
330
1F
100
AcDbEntity
  8
LC-001-100-D00-0
 62
     8
370
    15
100
AcDbLine
 10
85.634845
 20
135.015272
 30
0.0
 11
85.134844
 21
135.015272
 31
0.0
  0
LINE
  5
505
330
1F
100
AcDbEntity
  8
LC-001-100-D00-0
 62
     8
370
    15
100
AcDbLine
 10
85.634845
 20
143.015273
 30
0.0
 11
85.134844
 21
143.015273
 31
0.0
  0
LINE
  5
506
330
1F
100
AcDbEntity
  8
LC-001-100-D00-0
 62
     7
370
    15
100
AcDbLine
 10
101.134847
 20
116.015278
 30
0.0
 11
101.134847
 21
-57.221449
 31
0.0
  0
LINE
  5
507
330
1F
100
AcDbEntity
  8
LC-001-100-D00-0
 62
     7
370
    15
100
AcDbLine
 10
107.134844
 20
-57.221449
 30
0.0
 11
107.134844
 21
116.015278
 31
0.0
  0
LINE
  5
508
330
1F
100
AcDbEntity
  8
LC-001-100-D00-0
 62
     7
370
    15
100
AcDbLine
 10
101.134847
 20
-57.221449
 30
0.0
 11
107.134844
 21
-57.221449
 31
0.0
  0
LINE
  5
509
330
1F
100
AcDbEntity
  8
LC-001-100-D00-0
 62
     7
370
    15
100
AcDbLine
 10
78.134845
 20
124.015272
 30
0.0
 11
78.134845
 21
133.015275
 31
0.0
  0
LINE
  5
50A
330
1F
100
AcDbEntity
  8
LC-001-100-D00-0
 62
     7
370
    15
100
AcDbLine
 10
84.134842
 20
133.015275
 30
0.0
 11
84.134842
 21
124.015272
 31
0.0
  0
ARC
  5
50B
330
1F
100
AcDbEntity
  8
LC-001-100-D00-0
 62
     7
370
    15
100
AcDbCircle
 10
85.134846
 20
124.015275
 30
0.0
 40
7.000000000000028
100
AcDbArc
 50
180.0
 51
270.0
  0
ARC
  5
50C
330
1F
100
AcDbEntity
  8
LC-001-100-D00-0
 62
     7
370
    15
100
AcDbCircle
 10
85.134846
 20
124.015275
 30
0.0
 40
1.000000000000028
100
AcDbArc
 50
180.0
 51
270.0
  0
LINE
  5
50D
330
1F
100
AcDbEntity
  8
LC-001-100-D00-0
 62
     7
370
    15
100
AcDbLine
 10
97.784842
 20
114.315279
 30
0.0
 11
97.784842
 21
111.815282
 31
0.0
  0
LINE
  5
50E
330
1F
100
AcDbEntity
  8
LC-001-100-D00-0
 62
     7
370
    15
100
AcDbLine
 10
100.584845
 20
89.315273
 30
0.0
 11
100.584845
 21
114.315279
 31
0.0
  0
LINE
  5
50F
330
1F
100
AcDbEntity
  8
LC-001-100-D00-0
 62
     7
370
    15
100
AcDbLine
 10
110.484845
 20
111.815282
 30
0.0
 11
110.484845
 21
114.315279
 31
0.0
  0
LINE
  5
510
330
1F
100
AcDbEntity
  8
LC-001-100-D00-0
 62
     7
370
    15
100
AcDbLine
 10
107.684846
 20
114.315279
 30
0.0
 11
107.684846
 21
89.315273
 31
0.0
  0
LINE
  5
511
330
1F
100
AcDbEntity
  8
LC-001-100-D00-0
 62
     7
370
    15
100
AcDbLine
 10
99.884844
 20
111.815282
 30
0.0
 11
99.884844
 21
89.315273
 31
0.0
  0
LINE
  5
512
330
1F
100
AcDbEntity
  8
LC-001-100-D00-0
 62
     7
370
    15
100
AcDbLine
 10
99.884844
 20
89.315273
 30
0.0
 11
100.584845
 21
89.315273
 31
0.0
  0
LINE
  5
513
330
1F
100
AcDbEntity
  8
LC-001-100-D00-0
 62
     7
370
    15
100
AcDbLine
 10
100.584845
 20
89.315273
 30
0.0
 11
100.584845
 21
114.315279
 31
0.0
  0
LINE
  5
514
330
1F
100
AcDbEntity
  8
LC-001-100-D00-0
 62
     7
370
    15
100
AcDbLine
 10
107.684846
 20
89.315273
 30
0.0
 11
108.384847
 21
89.315273
 31
0.0
  0
LINE
  5
515
330
1F
100
AcDbEntity
  8
LC-001-100-D00-0
 62
     7
370
    15
100
AcDbLine
 10
107.684846
 20
114.315279
 30
0.0
 11
107.684846
 21
89.315273
 31
0.0
  0
LINE
  5
516
330
1F
100
AcDbEntity
  8
LC-001-100-D00-0
 62
     7
370
    15
100
AcDbLine
 10
108.384847
 20
89.315273
 30
0.0
 11
108.384847
 21
111.815282
 31
0.0
  0
ARC
  5
517
330
1F
100
AcDbEntity
  8
LC-001-100-D00-0
 62
     7
370
    15
100
AcDbCircle
 10
100.134846
 20
116.015275
 30
0.0
 40
7.0
100
AcDbArc
 50
0.0
 51
90.0
  0
ARC
  5
518
330
1F
100
AcDbEntity
  8
LC-001-100-D00-0
 62
     7
370
    15
100
AcDbCircle
 10
100.134846
 20
116.015275
 30
0.0
 40
0.9999999999999716
100
AcDbArc
 50
0.0
 51
90.0
  0
LINE
  5
519
330
1F
100
AcDbEntity
  8
LC-001-100-D00-0
 62
     7
370
    15
100
AcDbLine
 10
100.134845
 20
123.015278
 30
0.0
 11
85.134844
 21
123.015278
 31
0.0
  0
LINE
  5
51A
330
1F
100
AcDbEntity
  8
LC-001-100-D00-0
 62
     7
370
    15
100
AcDbLine
 10
85.134844
 20
117.01528
 30
0.0
 11
100.134845
 21
117.01528
 31
0.0
  0
LINE
  5
51B
102
{ACAD_REACTORS
330
597
102
}
330
1F
100
AcDbEntity
  8
LC-001-100-D00-0
 62
     7
370
    50
100
AcDbLine
 10
228.421273
 20
192.315273
 30
0.0
 11
222.543204
 21
192.315273
 31
0.0
  0
LINE
  5
51C
102
{ACAD_REACTORS
330
597
102
}
330
1F
100
AcDbEntity
  8
LC-001-100-D00-0
 62
     7
370
    50
100
AcDbLine
 10
229.134845
 20
192.315273
 30
0.0
 11
222.543204
 21
192.315273
 31
0.0
  0
LINE
  5
51D
102
{ACAD_REACTORS
330
597
102
}
330
1F
100
AcDbEntity
  8
LC-001-100-D00-0
 62
     7
370
    50
100
AcDbLine
 10
230.893204
 20
198.130463
 30
0.0
 11
229.593204
 21
197.37991
 31
0.0
  0
LINE
  5
51E
102
{ACAD_REACTORS
330
597
102
}
330
1F
100
AcDbEntity
  8
LC-001-100-D00-0
 62
     7
370
    50
100
AcDbLine
 10
230.893204
 20
193.330463
 30
0.0
 11
229.134845
 21
192.315273
 31
0.0
  0
ARC
  5
51F
102
{ACAD_REACTORS
330
597
102
}
330
1F
100
AcDbEntity
  8
LC-001-100-D00-0
 62
     7
370
    50
100
AcDbCircle
 10
230.743207
 20
198.390272
 30
0.0
 40
0.300000000000022
100
AcDbArc
 50
300.0
 51
60.0
  0
ARC
  5
520
102
{ACAD_REACTORS
330
597
102
}
330
1F
100
AcDbEntity
  8
LC-001-100-D00-0
 62
     7
370
    50
100
AcDbCircle
 10
230.743207
 20
193.590272
 30
0.0
 40
0.300000000000022
100
AcDbArc
 50
300.0
 51
60.0
  0
LINE
  5
521
102
{ACAD_REACTORS
330
597
102
}
330
1F
100
AcDbEntity
  8
LC-001-100-D00-0
 62
     7
370
    50
100
AcDbLine
 10
229.593204
 20
194.600635
 30
0.0
 11
230.893204
 21
193.850078
 31
0.0
  0
LINE
  5
522
102
{ACAD_REACTORS
330
597
102
}
330
1F
100
AcDbEntity
  8
LC-001-100-D00-0
 62
     7
370
    50
100
AcDbLine
 10
229.593204
 20
194.97991
 30
0.0
 11
229.593204
 21
194.600635
 31
0.0
  0
LINE
  5
523
102
{ACAD_REACTORS
330
597
102
}
330
1F
100
AcDbEntity
  8
LC-001-100-D00-0
 62
     7
370
    50
100
AcDbLine
 10
230.893204
 20
195.730463
 30
0.0
 11
229.593204
 21
194.97991
 31
0.0
  0
ARC
  5
524
102
{ACAD_REACTORS
330
597
102
}
330
1F
100
AcDbEntity
  8
LC-001-100-D00-0
 62
     7
370
    50
100
AcDbCircle
 10
230.743207
 20
195.990272
 30
0.0
 40
0.300000000000022
100
AcDbArc
 50
300.0
 51
60.0
  0
LINE
  5
525
102
{ACAD_REACTORS
330
597
102
}
330
1F
100
AcDbEntity
  8
LC-001-100-D00-0
 62
     7
370
    50
100
AcDbLine
 10
229.593204
 20
197.000634
 30
0.0
 11
230.893204
 21
196.250078
 31
0.0
  0
LINE
  5
526
102
{ACAD_REACTORS
330
597
102
}
330
1F
100
AcDbEntity
  8
LC-001-100-D00-0
 62
     7
370
    50
100
AcDbLine
 10
229.593204
 20
197.37991
 30
0.0
 11
229.593204
 21
197.000634
 31
0.0
  0
LINE
  5
527
102
{ACAD_REACTORS
330
597
102
}
330
1F
100
AcDbEntity
  8
LC-001-100-D00-0
 62
     7
370
    50
100
AcDbLine
 10
229.593204
 20
199.400634
 30
0.0
 11
230.893204
 21
198.650081
 31
0.0
  0
LINE
  5
528
102
{ACAD_REACTORS
330
597
102
}
330
1F
100
AcDbEntity
  8
LC-001-100-D00-0
 62
     7
370
    50
100
AcDbLine
 10
229.593204
 20
199.77991
 30
0.0
 11
229.593204
 21
199.400634
 31
0.0
  0
LINE
  5
529
102
{ACAD_REACTORS
330
597
102
}
330
1F
100
AcDbEntity
  8
LC-001-100-D00-0
 62
     7
370
    50
100
AcDbLine
 10
230.893204
 20
200.530462
 30
0.0
 11
229.593204
 21
199.77991
 31
0.0
  0
ARC
  5
52A
102
{ACAD_REACTORS
330
597
102
}
330
1F
100
AcDbEntity
  8
LC-001-100-D00-0
 62
     7
370
    50
100
AcDbCircle
 10
230.743207
 20
200.790272
 30
0.0
 40
0.299999999999969
100
AcDbArc
 50
300.0
 51
60.0
  0
LINE
  5
52B
102
{ACAD_REACTORS
330
597
102
}
330
1F
100
AcDbEntity
  8
LC-001-100-D00-0
 62
     7
370
    50
100
AcDbLine
 10
229.134845
 20
202.065271
 30
0.0
 11
230.893204
 21
201.050081
 31
0.0
  0
LINE
  5
52C
102
{ACAD_REACTORS
330
597
102
}
330
1F
100
AcDbEntity
  8
LC-001-100-D00-0
 62
     7
370
    50
100
AcDbLine
 10
221.793206
 20
202.065271
 30
0.0
 11
229.134845
 21
202.065271
 31
0.0
  0
LINE
  5
52D
102
{ACAD_REACTORS
330
597
102
}
330
1F
100
AcDbEntity
  8
LC-001-100-D00-0
 62
     7
370
    50
100
AcDbLine
 10
220.793204
 20
201.065273
 30
0.0
 11
221.793206
 21
202.065271
 31
0.0
  0
LINE
  5
52E
102
{ACAD_REACTORS
330
597
102
}
330
1F
100
AcDbEntity
  8
LC-001-100-D00-0
 62
     7
370
    50
100
AcDbLine
 10
220.793204
 20
193.315272
 30
0.0
 11
220.793204
 21
201.065273
 31
0.0
  0
LINE
  5
52F
102
{ACAD_REACTORS
330
597
102
}
330
1F
100
AcDbEntity
  8
LC-001-100-D00-0
 62
     7
370
    50
100
AcDbLine
 10
221.793206
 20
192.315273
 30
0.0
 11
220.793204
 21
193.315272
 31
0.0
  0
LINE
  5
530
102
{ACAD_REACTORS
330
597
102
}
330
1F
100
AcDbEntity
  8
LC-001-100-D00-0
 62
     7
370
    50
100
AcDbLine
 10
229.134845
 20
192.315273
 30
0.0
 11
221.793206
 21
192.315273
 31
0.0
  0
INSERT
  5
538
102
{ACAD_REACTORS
330
597
102
}
330
1F
100
AcDbEntity
  8
LC-001-100-D00-0
 62
     7
370
    25
100
AcDbBlockReference
  2
KLON16
 10
0.0
 20
0.0
 30
0.0
  0
LINE
  5
539
102
{ACAD_REACTORS
330
598
102
}
330
1F
100
AcDbEntity
  8
LC-001-100-D00-0
 62
     7
370
    50
100
AcDbLine
 10
75.848417
 20
192.315273
 30
0.0
 11
81.726486
 21
192.315273
 31
0.0
  0
LINE
  5
53A
102
{ACAD_REACTORS
330
598
102
}
330
1F
100
AcDbEntity
  8
LC-001-100-D00-0
 62
     7
370
    50
100
AcDbLine
 10
75.134845
 20
192.315273
 30
0.0
 11
81.726486
 21
192.315273
 31
0.0
  0
LINE
  5
53B
102
{ACAD_REACTORS
330
598
102
}
330
1F
100
AcDbEntity
  8
LC-001-100-D00-0
 62
     7
370
    50
100
AcDbLine
 10
73.376486
 20
198.130463
 30
0.0
 11
74.676486
 21
197.37991
 31
0.0
  0
LINE
  5
53C
102
{ACAD_REACTORS
330
598
102
}
330
1F
100
AcDbEntity
  8
LC-001-100-D00-0
 62
     7
370
    50
100
AcDbLine
 10
73.376486
 20
193.330463
 30
0.0
 11
75.134845
 21
192.315273
 31
0.0
  0
ARC
  5
53D
102
{ACAD_REACTORS
330
598
102
}
330
1F
100
AcDbEntity
  8
LC-001-100-D00-0
 62
     7
370
    50
100
AcDbCircle
 10
73.526483
 20
198.390272
 30
0.0
 40
0.300000000000022
100
AcDbArc
 50
120.0
 51
240.0
  0
ARC
  5
53E
102
{ACAD_REACTORS
330
598
102
}
330
1F
100
AcDbEntity
  8
LC-001-100-D00-0
 62
     7
370
    50
100
AcDbCircle
 10
73.526483
 20
193.590272
 30
0.0
 40
0.300000000000022
100
AcDbArc
 50
120.0
 51
240.0
  0
LINE
  5
53F
102
{ACAD_REACTORS
330
598
102
}
330
1F
100
AcDbEntity
  8
LC-001-100-D00-0
 62
     7
370
    50
100
AcDbLine
 10
74.676486
 20
194.600635
 30
0.0
 11
73.376486
 21
193.850078
 31
0.0
  0
LINE
  5
540
102
{ACAD_REACTORS
330
598
102
}
330
1F
100
AcDbEntity
  8
LC-001-100-D00-0
 62
     7
370
    50
100
AcDbLine
 10
74.676486
 20
194.97991
 30
0.0
 11
74.676486
 21
194.600635
 31
0.0
  0
LINE
  5
541
102
{ACAD_REACTORS
330
598
102
}
330
1F
100
AcDbEntity
  8
LC-001-100-D00-0
 62
     7
370
    50
100
AcDbLine
 10
73.376486
 20
195.730463
 30
0.0
 11
74.676486
 21
194.97991
 31
0.0
  0
ARC
  5
542
102
{ACAD_REACTORS
330
598
102
}
330
1F
100
AcDbEntity
  8
LC-001-100-D00-0
 62
     7
370
    50
100
AcDbCircle
 10
73.526483
 20
195.990272
 30
0.0
 40
0.300000000000022
100
AcDbArc
 50
120.0
 51
240.0
  0
LINE
  5
543
102
{ACAD_REACTORS
330
598
102
}
330
1F
100
AcDbEntity
  8
LC-001-100-D00-0
 62
     7
370
    50
100
AcDbLine
 10
74.676486
 20
197.000634
 30
0.0
 11
73.376486
 21
196.250078
 31
0.0
  0
LINE
  5
544
102
{ACAD_REACTORS
330
598
102
}
330
1F
100
AcDbEntity
  8
LC-001-100-D00-0
 62
     7
370
    50
100
AcDbLine
 10
74.676486
 20
197.37991
 30
0.0
 11
74.676486
 21
197.000634
 31
0.0
  0
LINE
  5
545
102
{ACAD_REACTORS
330
598
102
}
330
1F
100
AcDbEntity
  8
LC-001-100-D00-0
 62
     7
370
    50
100
AcDbLine
 10
74.676486
 20
199.400634
 30
0.0
 11
73.376486
 21
198.650081
 31
0.0
  0
LINE
  5
546
102
{ACAD_REACTORS
330
598
102
}
330
1F
100
AcDbEntity
  8
LC-001-100-D00-0
 62
     7
370
    50
100
AcDbLine
 10
74.676486
 20
199.77991
 30
0.0
 11
74.676486
 21
199.400634
 31
0.0
  0
LINE
  5
547
102
{ACAD_REACTORS
330
598
102
}
330
1F
100
AcDbEntity
  8
LC-001-100-D00-0
 62
     7
370
    50
100
AcDbLine
 10
73.376486
 20
200.530462
 30
0.0
 11
74.676486
 21
199.77991
 31
0.0
  0
ARC
  5
548
102
{ACAD_REACTORS
330
598
102
}
330
1F
100
AcDbEntity
  8
LC-001-100-D00-0
 62
     7
370
    50
100
AcDbCircle
 10
73.526483
 20
200.790272
 30
0.0
 40
0.299999999999969
100
AcDbArc
 50
120.0
 51
240.0
  0
LINE
  5
549
102
{ACAD_REACTORS
330
598
102
}
330
1F
100
AcDbEntity
  8
LC-001-100-D00-0
 62
     7
370
    50
100
AcDbLine
 10
75.134845
 20
202.065271
 30
0.0
 11
73.376486
 21
201.050081
 31
0.0
  0
LINE
  5
54A
102
{ACAD_REACTORS
330
598
102
}
330
1F
100
AcDbEntity
  8
LC-001-100-D00-0
 62
     7
370
    50
100
AcDbLine
 10
82.476484
 20
202.065271
 30
0.0
 11
75.134845
 21
202.065271
 31
0.0
  0
LINE
  5
54B
102
{ACAD_REACTORS
330
598
102
}
330
1F
100
AcDbEntity
  8
LC-001-100-D00-0
 62
     7
370
    50
100
AcDbLine
 10
83.476486
 20
201.065273
 30
0.0
 11
82.476484
 21
202.065271
 31
0.0
  0
LINE
  5
54C
102
{ACAD_REACTORS
330
598
102
}
330
1F
100
AcDbEntity
  8
LC-001-100-D00-0
 62
     7
370
    50
100
AcDbLine
 10
83.476486
 20
193.315272
 30
0.0
 11
83.476486
 21
201.065273
 31
0.0
  0
LINE
  5
54D
102
{ACAD_REACTORS
330
598
102
}
330
1F
100
AcDbEntity
  8
LC-001-100-D00-0
 62
     7
370
    50
100
AcDbLine
 10
82.476484
 20
192.315273
 30
0.0
 11
83.476486
 21
193.315272
 31
0.0
  0
LINE
  5
54E
102
{ACAD_REACTORS
330
598
102
}
330
1F
100
AcDbEntity
  8
LC-001-100-D00-0
 62
     7
370
    50
100
AcDbLine
 10
75.134845
 20
192.315273
 30
0.0
 11
82.476484
 21
192.315273
 31
0.0
  0
INSERT
  5
556
102
{ACAD_REACTORS
330
598
102
}
330
1F
100
AcDbEntity
  8
LC-001-100-D00-0
 62
     7
370
    25
100
AcDbBlockReference
  2
KLON17
 10
0.0
 20
0.0
 30
0.0
  0
LINE
  5
557
330
1F
100
AcDbEntity
  8
LC-001-100-D00-0
 62
     7
370
    50
100
AcDbLine
 10
21.134848
 20
229.887948
 30
0.0
 11
21.134848
 21
231.027268
 31
0.0
  0
ARC
  5
558
330
1F
100
AcDbEntity
  8
LC-001-100-D00-0
 62
     7
370
    50
100
AcDbCircle
 10
23.13485
 20
231.027266
 30
0.0
 40
2.000000000000012
100
AcDbArc
 50
79.0
 51
180.0
  0
DIMENSION
  5
559
330
1F
100
AcDbEntity
  8
LC-002-003-----0
 62
     7
370
    25
100
AcDbDimension
  2
*D39
 10
283.134852
 20
320.18754
 30
0.0
 11
148.173371
 21
350.98754
 31
0.0
 70
   160
  1
%%c<>
 71
     5
 42
262.000004
  3
LC-DIM-L-0140-02-02
100
AcDbAlignedDimension
 13
21.134848
 23
229.887948
 33
0.0
 14
283.134852
 24
229.887948
 34
0.0
100
AcDbRotatedDimension
  0
DIMENSION
  5
566
330
1F
100
AcDbEntity
  8
LC-002-003-----0
 62
     7
370
    25
100
AcDbDimension
  2
*D40
 10
-43.305081
 20
232.96319
 30
0.0
 11
-74.105081
 21
266.72754
 31
0.0
 70
   160
  1
28-68
 71
     5
 42
26.647915
 53
90.0
  3
LC-DIM-L-0140-02-02
100
AcDbAlignedDimension
 13
-24.86515
 23
206.315276
 33
0.0
 14
23.657063
 24
232.96319
 34
0.0
 50
90.0
100
AcDbRotatedDimension
  0
LINE
  5
574
330
1F
100
AcDbEntity
  8
LC-001-100-D00-0
 62
     7
370
    50
100
AcDbLine
 10
283.134842
 20
229.887948
 30
0.0
 11
283.134842
 21
231.027268
 31
0.0
  0
ARC
  5
575
330
1F
100
AcDbEntity
  8
LC-001-100-D00-0
 62
     7
370
    50
100
AcDbCircle
 10
281.13484
 20
231.027266
 30
0.0
 40
2.0
100
AcDbArc
 50
0.0
 51
101.0
  0
LINE
  5
576
330
1F
100
AcDbEntity
  8
LC-001-100-D00-0
 62
     7
370
    50
100
AcDbLine
 10
280.756128
 20
232.991083
 30
0.0
 11
272.134842
 21
231.315275
 31
0.0
  0
LINE
  5
577
102
{ACAD_REACTORS
330
596
102
}
330
1F
100
AcDbEntity
  8
LC-001-100-D00-0
 62
     7
370
    25
100
AcDbLine
 10
89.269589
 20
159.680531
 30
0.0
 11
92.634845
 21
163.045788
 31
0.0
  0
LINE
  5
578
102
{ACAD_REACTORS
330
596
102
}
330
1F
100
AcDbEntity
  8
LC-001-100-D00-0
 62
     7
370
    25
100
AcDbLine
 10
87.634845
 20
167.026044
 30
0.0
 11
92.634845
 21
172.026044
 31
0.0
  0
LINE
  5
579
102
{ACAD_REACTORS
330
596
102
}
330
1F
100
AcDbEntity
  8
LC-001-100-D00-0
 62
     7
370
    25
100
AcDbLine
 10
87.634845
 20
176.0063
 30
0.0
 11
92.634845
 21
181.0063
 31
0.0
  0
LINE
  5
57A
102
{ACAD_REACTORS
330
596
102
}
330
1F
100
AcDbEntity
  8
LC-001-100-D00-0
 62
     7
370
    25
100
AcDbLine
 10
87.634845
 20
184.986556
 30
0.0
 11
92.634845
 21
189.986556
 31
0.0
  0
LINE
  5
57B
102
{ACAD_REACTORS
330
596
102
}
330
1F
100
AcDbEntity
  8
LC-001-100-D00-0
 62
     7
370
    25
100
AcDbLine
 10
87.634845
 20
193.966812
 30
0.0
 11
92.634845
 21
198.966812
 31
0.0
  0
LINE
  5
57C
102
{ACAD_REACTORS
330
596
102
}
330
1F
100
AcDbEntity
  8
LC-001-100-D00-0
 62
     7
370
    25
100
AcDbLine
 10
87.634845
 20
202.947068
 30
0.0
 11
92.634845
 21
207.947068
 31
0.0
  0
LINE
  5
57D
102
{ACAD_REACTORS
330
596
102
}
330
1F
100
AcDbEntity
  8
LC-001-100-D00-0
 62
     7
370
    25
100
AcDbLine
 10
87.634845
 20
211.927324
 30
0.0
 11
92.634845
 21
216.927324
 31
0.0
  0
LINE
  5
57E
102
{ACAD_REACTORS
330
596
102
}
330
1F
100
AcDbEntity
  8
LC-001-100-D00-0
 62
     7
370
    25
100
AcDbLine
 10
87.634845
 20
220.90758
 30
0.0
 11
90.338692
 21
223.611428
 31
0.0
  0
LINE
  5
57F
102
{ACAD_REACTORS
330
596
102
}
330
1F
100
AcDbEntity
  8
LC-001-100-D00-0
 62
     7
370
    25
100
AcDbLine
 10
83.37369
 20
225.626682
 30
0.0
 11
85.848564
 21
228.101556
 31
0.0
  0
LINE
  5
580
102
{ACAD_REACTORS
330
596
102
}
330
1F
100
AcDbEntity
  8
LC-001-100-D00-0
 62
     7
370
    25
100
AcDbLine
 10
74.582027
 20
225.815275
 30
0.0
 11
78.082027
 21
229.315275
 31
0.0
  0
LINE
  5
581
102
{ACAD_REACTORS
330
596
102
}
330
1F
100
AcDbEntity
  8
LC-001-100-D00-0
 62
     7
370
    25
100
AcDbLine
 10
65.601771
 20
225.815275
 30
0.0
 11
69.101771
 21
229.315275
 31
0.0
  0
LINE
  5
582
102
{ACAD_REACTORS
330
596
102
}
330
1F
100
AcDbEntity
  8
LC-001-100-D00-0
 62
     7
370
    25
100
AcDbLine
 10
56.621515
 20
225.815275
 30
0.0
 11
60.121515
 21
229.315275
 31
0.0
  0
LINE
  5
583
102
{ACAD_REACTORS
330
596
102
}
330
1F
100
AcDbEntity
  8
LC-001-100-D00-0
 62
     7
370
    25
100
AcDbLine
 10
47.641259
 20
225.815275
 30
0.0
 11
51.141259
 21
229.315275
 31
0.0
  0
LINE
  5
584
102
{ACAD_REACTORS
330
596
102
}
330
1F
100
AcDbEntity
  8
LC-001-100-D00-0
 62
     7
370
    25
100
AcDbLine
 10
38.661003
 20
225.815275
 30
0.0
 11
42.161003
 21
229.315275
 31
0.0
  0
LINE
  5
585
102
{ACAD_REACTORS
330
596
102
}
330
1F
100
AcDbEntity
  8
LC-001-100-D00-0
 62
     7
370
    25
100
AcDbLine
 10
29.680747
 20
225.815275
 30
0.0
 11
33.180747
 21
229.315275
 31
0.0
  0
LINE
  5
586
102
{ACAD_REACTORS
330
596
102
}
330
1F
100
AcDbEntity
  8
LC-001-100-D00-0
 62
     7
370
    25
100
AcDbLine
 10
24.181044
 20
229.295829
 30
0.0
 11
27.166281
 21
232.281066
 31
0.0
  0
LINE
  5
587
102
{ACAD_REACTORS
330
595
102
}
330
1F
100
AcDbEntity
  8
LC-001-100-D00-0
 62
     7
370
    25
100
AcDbLine
 10
214.627918
 20
159.315275
 30
0.0
 11
216.634845
 21
161.322202
 31
0.0
  0
LINE
  5
588
102
{ACAD_REACTORS
330
595
102
}
330
1F
100
AcDbEntity
  8
LC-001-100-D00-0
 62
     7
370
    25
100
AcDbLine
 10
211.634845
 20
165.302458
 30
0.0
 11
216.634845
 21
170.302458
 31
0.0
  0
LINE
  5
589
102
{ACAD_REACTORS
330
595
102
}
330
1F
100
AcDbEntity
  8
LC-001-100-D00-0
 62
     7
370
    25
100
AcDbLine
 10
272.147662
 20
225.815275
 30
0.0
 11
278.977797
 21
232.64541
 31
0.0
  0
LINE
  5
58A
102
{ACAD_REACTORS
330
595
102
}
330
1F
100
AcDbEntity
  8
LC-001-100-D00-0
 62
     7
370
    25
100
AcDbLine
 10
211.634845
 20
174.282714
 30
0.0
 11
216.634845
 21
179.282714
 31
0.0
  0
LINE
  5
58B
102
{ACAD_REACTORS
330
595
102
}
330
1F
100
AcDbEntity
  8
LC-001-100-D00-0
 62
     7
370
    25
100
AcDbLine
 10
263.167406
 20
225.815275
 30
0.0
 11
266.667406
 21
229.315275
 31
0.0
  0
LINE
  5
58C
102
{ACAD_REACTORS
330
595
102
}
330
1F
100
AcDbEntity
  8
LC-001-100-D00-0
 62
     7
370
    25
100
AcDbLine
 10
211.634845
 20
183.26297
 30
0.0
 11
216.634845
 21
188.26297
 31
0.0
  0
LINE
  5
58D
102
{ACAD_REACTORS
330
595
102
}
330
1F
100
AcDbEntity
  8
LC-001-100-D00-0
 62
     7
370
    25
100
AcDbLine
 10
254.18715
 20
225.815275
 30
0.0
 11
257.68715
 21
229.315275
 31
0.0
  0
LINE
  5
58E
102
{ACAD_REACTORS
330
595
102
}
330
1F
100
AcDbEntity
  8
LC-001-100-D00-0
 62
     7
370
    25
100
AcDbLine
 10
211.634845
 20
192.243226
 30
0.0
 11
216.634845
 21
197.243226
 31
0.0
  0
LINE
  5
58F
102
{ACAD_REACTORS
330
595
102
}
330
1F
100
AcDbEntity
  8
LC-001-100-D00-0
 62
     7
370
    25
100
AcDbLine
 10
245.206894
 20
225.815275
 30
0.0
 11
248.706894
 21
229.315275
 31
0.0
  0
LINE
  5
590
102
{ACAD_REACTORS
330
595
102
}
330
1F
100
AcDbEntity
  8
LC-001-100-D00-0
 62
     7
370
    25
100
AcDbLine
 10
211.634845
 20
201.223482
 30
0.0
 11
216.634845
 21
206.223482
 31
0.0
  0
LINE
  5
591
102
{ACAD_REACTORS
330
595
102
}
330
1F
100
AcDbEntity
  8
LC-001-100-D00-0
 62
     7
370
    25
100
AcDbLine
 10
236.226637
 20
225.815275
 30
0.0
 11
239.726637
 21
229.315275
 31
0.0
  0
LINE
  5
592
102
{ACAD_REACTORS
330
595
102
}
330
1F
100
AcDbEntity
  8
LC-001-100-D00-0
 62
     7
370
    25
100
AcDbLine
 10
211.634845
 20
210.203739
 30
0.0
 11
216.634845
 21
215.203739
 31
0.0
  0
LINE
  5
593
102
{ACAD_REACTORS
330
595
102
}
330
1F
100
AcDbEntity
  8
LC-001-100-D00-0
 62
     7
370
    25
100
AcDbLine
 10
227.246381
 20
225.815275
 30
0.0
 11
230.746381
 21
229.315275
 31
0.0
  0
LINE
  5
594
102
{ACAD_REACTORS
330
595
102
}
330
1F
100
AcDbEntity
  8
LC-001-100-D00-0
 62
     7
370
    25
100
AcDbLine
 10
211.634845
 20
219.183995
 30
0.0
 11
221.766125
 21
229.315275
 31
0.0
  0
ENDSEC
  0
SECTION
  2
OBJECTS
  0
DICTIONARY
  5
C
330
0
100
AcDbDictionary
281
     1
  3
ACAD_GROUP
350
D
  3
ACAD_LAYOUT
350
1A
  3
ACAD_MLINESTYLE
350
17
  3
ACAD_PLOTSETTINGS
350
19
  3
ACAD_PLOTSTYLENAME
350
E
  0
DICTIONARY
  5
D
102
{ACAD_REACTORS
330
C
102
}
330
C
100
AcDbDictionary
281
     1
  3
LCGROUP10
350
596
  3
LCGROUP11
350
595
  3
LCGROUP2457
350
597
  3
LCGROUP2481
350
598
  0
DICTIONARY
  5
1A
102
{ACAD_REACTORS
330
C
102
}
330
C
100
AcDbDictionary
281
     1
  3
Layout1
350
1E
  3
Layout2
350
26
  3
Model
350
22
  0
DICTIONARY
  5
17
102
{ACAD_REACTORS
330
C
102
}
330
C
100
AcDbDictionary
281
     1
  3
Standard
350
18
  0
DICTIONARY
  5
19
102
{ACAD_REACTORS
330
C
102
}
330
C
100
AcDbDictionary
281
     1
  0
ACDBDICTIONARYWDFLT
  5
E
102
{ACAD_REACTORS
330
C
102
}
330
C
100
AcDbDictionary
281
     1
  3
Normal
350
F
100
AcDbDictionaryWithDefault
340
F
  0
GROUP
  5
596
102
{ACAD_REACTORS
330
D
102
}
330
D
100
AcDbGroup
300
GRP10
 70
     1
 71
     1
340
577
340
578
340
579
340
57A
340
57B
340
57C
340
57D
340
57E
340
57F
340
580
340
581
340
582
340
583
340
584
340
585
340
586
  0
GROUP
  5
595
102
{ACAD_REACTORS
330
D
102
}
330
D
100
AcDbGroup
300
GRP11
 70
     1
 71
     1
340
587
340
588
340
589
340
58A
340
58B
340
58C
340
58D
340
58E
340
58F
340
590
340
591
340
592
340
593
340
594
  0
GROUP
  5
597
102
{ACAD_REACTORS
330
D
102
}
330
D
100
AcDbGroup
300
Dichtung
 70
     1
 71
     1
340
51B
340
51C
340
51D
340
51E
340
51F
340
520
340
521
340
522
340
523
340
524
340
525
340
526
340
527
340
528
340
529
340
52A
340
52B
340
52C
340
52D
340
52E
340
52F
340
530
340
538
  0
GROUP
  5
598
102
{ACAD_REACTORS
330
D
102
}
330
D
100
AcDbGroup
300
Dichtung
 70
     1
 71
     1
340
539
340
53A
340
53B
340
53C
340
53D
340
53E
340
53F
340
540
340
541
340
542
340
543
340
544
340
545
340
546
340
547
340
548
340
549
340
54A
340
54B
340
54C
340
54D
340
54E
340
556
  0
LAYOUT
  5
1E
102
{ACAD_REACTORS
330
1A
102
}
330
1A
100
AcDbPlotSettings
  1

  2

  4

  6

 40
0.0
 41
0.0
 42
0.0
 43
0.0
 44
0.0
 45
0.0
 46
0.0
 47
0.0
 48
0.0
 49
0.0
140
0.0
141
0.0
142
1.0
143
1.0
 70
   688
 72
     0
 73
     0
 74
     5
  7

 75
    16
147
1.0
148
0.0
149
0.0
100
AcDbLayout
  1
Layout1
 70
     1
 71
     1
 10
-234.726912
 20
-157.242727
 11
605.273088
 21
436.757273
 12
0.0
 22
0.0
 32
0.0
 14
-234.726912
 24
-157.242727
 34
0.0
 15
605.273088
 25
436.757273
 35
0.0
146
0.0
 13
0.0
 23
0.0
 33
0.0
 16
1.0
 26
0.0
 36
0.0
 17
0.0
 27
1.0
 37
0.0
 76
     0
330
1B
  0
LAYOUT
  5
26
102
{ACAD_REACTORS
330
1A
102
}
330
1A
100
AcDbPlotSettings
  1

  2

  4

  6

 40
0.0
 41
0.0
 42
0.0
 43
0.0
 44
0.0
 45
0.0
 46
0.0
 47
0.0
 48
0.0
 49
0.0
140
0.0
141
0.0
142
1.0
143
1.0
 70
   688
 72
     0
 73
     0
 74
     5
  7

 75
    16
147
1.0
148
0.0
149
0.0
100
AcDbLayout
  1
Layout2
 70
     1
 71
     2
 10
0.0
 20
0.0
 11
0.0
 21
0.0
 12
0.0
 22
0.0
 32
0.0
 14
0.0
 24
0.0
 34
0.0
 15
0.0
 25
0.0
 35
0.0
146
0.0
 13
0.0
 23
0.0
 33
0.0
 16
1.0
 26
0.0
 36
0.0
 17
0.0
 27
1.0
 37
0.0
 76
     0
330
23
  0
LAYOUT
  5
22
102
{ACAD_REACTORS
330
1A
102
}
330
1A
100
AcDbPlotSettings
  1

  2

  4

  6

 40
0.0
 41
0.0
 42
0.0
 43
0.0
 44
0.0
 45
0.0
 46
0.0
 47
0.0
 48
0.0
 49
0.0
140
0.0
141
0.0
142
1.0
143
1.0
 70
  1776
 72
     0
 73
     0
 74
     0
  7

 75
     0
147
1.0
148
0.0
149
0.0
100
AcDbLayout
  1
Model
 70
     1
 71
     0
 10
-234.726912
 20
-157.242727
 11
605.273088
 21
436.757273
 12
0.0
 22
0.0
 32
0.0
 14
-234.726912
 24
-157.242727
 34
0.0
 15
605.273088
 25
436.757273
 35
0.0
146
0.0
 13
0.0
 23
0.0
 33
0.0
 16
1.0
 26
0.0
 36
0.0
 17
0.0
 27
1.0
 37
0.0
 76
     0
330
1F
  0
MLINESTYLE
  5
18
102
{ACAD_REACTORS
330
17
102
}
330
17
100
AcDbMlineStyle
  2
Standard
 70
     0
  3

 62
   256
 51
90.0
 52
90.0
 71
     2
 49
0.5
 62
   256
  6
BYLAYER
 49
-0.5
 62
   256
  6
BYLAYER
  0
ACDBPLACEHOLDER
  5
F
102
{ACAD_REACTORS
330
E
102
}
330
E
  0
ENDSEC
  0
EOF
