  0
SECTION
  2
HEADER
  9
$ACADVER
  1
AC1009
  9
$INSBASE
 10
150.771152
 20
109.551
 30
0.0
  9
$EXTMIN
 10
27.771152
 20
22.551
 30
0.0
  9
$EXTMAX
 10
867.771152
 20
616.551
 30
0.0
  9
$LIMMIN
 10
27.771152
 20
22.551
  9
$LIMMAX
 10
867.771152
 20
616.551
  9
$ORTHOMODE
 70
     0
  9
$REGENMODE
 70
     1
  9
$FILLMODE
 70
     1
  9
$QTEXTMODE
 70
     0
  9
$MIRRTEXT
 70
     1
  9
$DRAGMODE
 70
     2
  9
$LTSCALE
 40
2.0
  9
$OSMODE
 70
     0
  9
$ATTMODE
 70
     1
  9
$TEXTSIZE
 40
0.2
  9
$TRACEWID
 40
0.05
  9
$TEXTSTYLE
  7
STANDARD
  9
$CLAYER
  8
0
  9
$CELTYPE
  6
BYLAYER
  9
$CECOLOR
 62
     7
  9
$DIMSCALE
 40
2.0
  9
$DIMASZ
 40
3.5
  9
$DIMEXO
 40
0.0625
  9
$DIMDLI
 40
0.38
  9
$DIMRND
 40
0.0
  9
$DIMDLE
 40
0.0
  9
$DIMEXE
 40
0.18
  9
$DIMTP
 40
0.0
  9
$DIMTM
 40
0.0
  9
$DIMTXT
 40
3.5
  9
$DIMCEN
 40
0.09
  9
$DIMTSZ
 40
0.0
  9
$DIMTOL
 70
     0
  9
$DIMLIM
 70
     0
  9
$DIMTIH
 70
     1
  9
$DIMTOH
 70
     1
  9
$DIMSE1
 70
     0
  9
$DIMSE2
 70
     0
  9
$DIMTAD
 70
     1
  9
$DIMZIN
 70
     0
  9
$DIMBLK
  1

  9
$DIMASO
 70
     1
  9
$DIMSHO
 70
     1
  9
$DIMPOST
  1

  9
$DIMAPOST
  1

  9
$DIMALT
 70
     0
  9
$DIMALTD
 70
     2
  9
$DIMALTF
 40
25.4
  9
$DIMLFAC
 40
1.0
  9
$DIMTOFL
 70
     0
  9
$DIMTVP
 40
0.0
  9
$DIMTIX
 70
     0
  9
$DIMSOXD
 70
     0
  9
$DIMSAH
 70
     0
  9
$DIMBLK1
  1

  9
$DIMBLK2
  1

  9
$DIMSTYLE
  2
STANDARD
  9
$DIMCLRD
 70
     0
  9
$DIMCLRE
 70
     0
  9
$DIMCLRT
 70
     0
  9
$DIMTFAC
 40
1.0
  9
$DIMGAP
 40
0.09
  9
$LUNITS
 70
     2
  9
$LUPREC
 70
     2
  9
$AXISMODE
 70
     0
  9
$AXISUNIT
 10
0.0
 20
0.0
  9
$SKETCHINC
 40
0.1
  9
$FILLETRAD
 40
0.0
  9
$AUNITS
 70
     0
  9
$AUPREC
 70
     0
  9
$MENU
  1
acad
  9
$ELEVATION
 40
0.0
  9
$PELEVATION
 40
0.0
  9
$THICKNESS
 40
0.0
  9
$LIMCHECK
 70
     0
  9
$BLIPMODE
 70
     1
  9
$CHAMFERA
 40
0.0
  9
$CHAMFERB
 40
0.0
  9
$SKPOLY
 70
     0
  9
$TDCREATE
 40
0.000000000
  9
$TDUPDATE
 40
0.000000000
  9
$TDINDWG
 40
0.0000000000
  9
$TDUSRTIMER
 40
0.0000000000
  9
$USRTIMER
 70
     1
  9
$ANGBASE
 50
0.0
  9
$ANGDIR
 70
     0
  9
$PDMODE
 70
     0
  9
$PDSIZE
 40
0.0
  9
$PLINEWID
 40
0.0
  9
$COORDS
 70
     0
  9
$SPLFRAME
 70
     0
  9
$SPLINETYPE
 70
     6
  9
$SPLINESEGS
 70
     8
  9
$ATTDIA
 70
     0
  9
$ATTREQ
 70
     1
  9
$HANDLING
 70
     1
  9
$HANDSEED
  5
95F
  9
$SURFTAB1
 70
     6
  9
$SURFTAB2
 70
     6
  9
$SURFTYPE
 70
     6
  9
$SURFU
 70
     6
  9
$SURFV
 70
     6
  9
$UCSNAME
  2

  9
$UCSORG
 10
0.0
 20
0.0
 30
0.0
  9
$UCSXDIR
 10
1.0
 20
0.0
 30
0.0
  9
$UCSYDIR
 10
0.0
 20
1.0
 30
0.0
  9
$PUCSNAME
  2

  9
$PUCSORG
 10
0.0
 20
0.0
 30
0.0
  9
$PUCSXDIR
 10
1.0
 20
0.0
 30
0.0
  9
$PUCSYDIR
 10
0.0
 20
1.0
 30
0.0
  9
$USERI1
 70
     0
  9
$USERI2
 70
     0
  9
$USERI3
 70
     0
  9
$USERI4
 70
     0
  9
$USERI5
 70
     0
  9
$USERR1
 40
0.0
  9
$USERR2
 40
0.0
  9
$USERR3
 40
0.0
  9
$USERR4
 40
0.0
  9
$USERR5
 40
0.0
  9
$WORLDVIEW
 70
     1
  9
$SHADEDGE
 70
     3
  9
$SHADEDIF
 70
    70
  9
$TILEMODE
 70
     1
  9
$MAXACTVP
 70
    16
  9
$PINSBASE
 10
0.0
 20
0.0
 30
0.0
  9
$PLIMCHECK
 70
     0
  9
$PEXTMIN
 10
1.000000E+20
 20
1.000000E+20
 30
1.000000E+20
  9
$PEXTMAX
 10
-1.000000E+20
 20
-1.000000E+20
 30
-1.000000E+20
  9
$PLIMMIN
 10
27.771152
 20
22.551
  9
$PLIMMAX
 10
867.771152
 20
616.551
  9
$UNITMODE
 70
     0
  9
$VISRETAIN
 70
     0
  9
$PLINEGEN
 70
     1
  9
$PSLTSCALE
 70
     0
  9
$TREEDEPTH
 70
  3020
  9
$DWGCODEPAGE
  3
dos850
  0
ENDSEC
  0
SECTION
  2
TABLES
  0
TABLE
  2
VPORT
 70
     1
  0
VPORT
  2
*ACTIVE
 70
     0
 10
0.0
 20
0.0
 11
1.0
 21
1.0
 12
420.0
 22
297.0
 13
0.0
 23
0.0
 14
1.0
 24
1.0
 15
0.0
 25
0.0
 16
0.0
 26
0.0
 36
1.0
 17
27.771152
 27
22.551
 37
0.0
 40
594.0
 41
1.604229
 42
50.0
 43
0.0
 44
0.0
 50
0.0
 51
0.0
 71
     0
 72
   100
 73
     1
 74
     1
 75
     0
 76
     0
 77
     0
 78
     0
  0
ENDTAB
  0
TABLE
  2
LTYPE
 70
     4
  0
LTYPE
  2
CONTINUOUS
 70
    64
  3
Solid line
 72
    65
 73
     0
 40
0.0
  0
LTYPE
  2
DASHED
 70
    64
  3
__ __ __ __ __
 72
    65
 73
     2
 40
6.25
 49
5.0
 49
-1.25
  0
LTYPE
  2
DASHDOT
 70
    64
  3
__ . __ . __ . __ . __
 72
    65
 73
     4
 40
7.5
 49
5.0
 49
-1.25
 49
0.0
 49
-1.25
  0
LTYPE
  2
CENTER
 70
    64
  3
__ . __ . __ . __ . __
 72
    65
 73
     4
 40
7.5
 49
5.0
 49
-1.25
 49
0.0
 49
-1.25
  0
ENDTAB
  0
TABLE
  2
LAYER
 70
    12
  0
LAYER
  2
0
 70
     0
 62
     7
  6
CONTINUOUS
  0
LAYER
  2
LC-INFO-1-2-MM-A3-0
 70
     1
 62
    -1
  6
CONTINUOUS
  0
LAYER
  2
LC-005-005-----0
 70
     0
 62
     2
  6
CONTINUOUS
  0
LAYER
  2
LC-007-003-MTH-0
 70
     0
 62
     2
  6
CONTINUOUS
  0
LAYER
  2
LC-006-003-----0
 70
     0
 62
     2
  6
CONTINUOUS
  0
LAYER
  2
LC-008-003-MTG-0
 70
     0
 62
     2
  6
CONTINUOUS
  0
LAYER
  2
LC-001-000-----0
 70
     0
 62
     7
  6
CONTINUOUS
  0
LAYER
  2
LC-002-002-----0
 70
     0
 62
     1
  6
CONTINUOUS
  0
LAYER
  2
LC-003-006-MLN-0
 70
     0
 62
     2
  6
CENTER
  0
LAYER
  2
LC-004-002-RND-0
 70
     0
 62
     1
  6
CONTINUOUS
  0
LAYER
  2
LC-009-004-----0
 70
     0
 62
     1
  6
CONTINUOUS
  0
LAYER
  2
LC-000
 70
     0
 62
     7
  6
CONTINUOUS
  0
ENDTAB
  0
TABLE
  2
STYLE
 70
     3
  0
STYLE
  2
STANDARD
 70
     0
 40
0.0
 41
1.0
 50
0.0
 71
     0
 42
0.0
  3
txt
  4

  0
STYLE
  2
LC-TXTSTYLE-150-400-0-0-A1
 70
    64
 40
0.0
 41
1.0
 50
15.0
 71
     0
 42
3.5
  3
Arial
  4

  0
STYLE
  2
LC-STANDARD
 70
    64
 40
0.0
 41
1.0
 50
0.0
 71
     0
 42
3.5
  3
MONOTXT
  4

  0
ENDTAB
  0
TABLE
  2
VIEW
 70
     0
  0
ENDTAB
  0
TABLE
  2
UCS
 70
     0
  0
ENDTAB
  0
TABLE
  2
APPID
 70
     1
  0
APPID
  2
ACAD
 70
     0
  0
ENDTAB
  0
TABLE
  2
DIMSTYLE
 70
     3
  0
DIMSTYLE
  2
STANDARD
 70
     0
  3

  4

  5

  6

  7

 40
1.0
 41
0.18
 42
0.0625
 43
0.38
 44
0.18
 45
0.0
 46
0.0
 47
0.0
 48
0.0
 71
     0
 72
     0
 73
     1
 74
     1
 75
     0
 76
     0
 77
     0
 78
     0
140
0.18
141
0.09
142
0.0
143
25.4
144
1.0
145
0.0
146
1.0
147
0.09
170
     0
171
     2
172
     0
173
     0
174
     0
175
     0
176
     0
177
     0
178
     0
  0
DIMSTYLE
  2
LC-STANDARD
 70
     0
  3

  4

  5

  6

  7

 40
1.0
 41
3.5
 42
0.0
 43
7.5
 44
1.8
 45
0.0
 46
0.0
 47
0.0
 48
0.0
 71
     0
 72
     0
 73
     0
 74
     0
 75
     0
 76
     0
 77
     1
 78
     8
140
3.5
141
0.0
142
0.0
143
25.4
144
1.0
145
0.0
146
0.71
147
1.5
170
     0
171
     2
172
     1
173
     0
174
     0
175
     0
176
     0
177
     0
178
     3
  0
DIMSTYLE
  2
LC-DIM-L-0140-02-02
 70
     0
  3

  4

  5

  6

  7

 40
2.0
 41
3.5
 42
0.0
 43
7.5
 44
1.8
 45
0.0
 46
0.0
 47
0.0
 48
0.0
 71
     0
 72
     0
 73
     0
 74
     0
 75
     0
 76
     0
 77
     1
 78
     8
140
14.0
141
0.0
142
0.0
143
25.4
144
1.0
145
0.0
146
0.71
147
1.5
170
     0
171
     2
172
     0
173
     0
174
     0
175
     0
176
     2
177
     2
178
     8
  0
ENDTAB
  0
ENDSEC
  0
SECTION
  2
BLOCKS
  0
BLOCK
  8
0
  5
23
  2
BLK1
 70
    64
 10
0.0
 20
0.0
 30
0.0
  3
BLK1
  0
ENDBLK
  8
0
  5
24
  0
BLOCK
  8
0
  5
26
  2
*X1
 70
    65
 10
266.582998
 20
216.64307
 30
0.0
  3
*X1
  0
LINE
  8
LC-005-005-----0
  6
CONTINUOUS
  5
28
 10
356.582998
 20
415.577607
 30
0.0
 11
354.560567
 21
417.600038
 31
0.0
  0
LINE
  8
LC-005-005-----0
  6
CONTINUOUS
  5
29
 10
356.582998
 20
412.74918
 30
0.0
 11
351.656084
 21
417.676094
 31
0.0
  0
LINE
  8
LC-005-005-----0
  6
CONTINUOUS
  5
2A
 10
356.582998
 20
409.920753
 30
0.0
 11
353.582998
 21
412.920753
 31
0.0
  0
LINE
  8
LC-005-005-----0
  6
CONTINUOUS
  5
2B
 10
351.833326
 20
414.670425
 30
0.0
 11
348.7516
 21
417.752151
 31
0.0
  0
LINE
  8
LC-005-005-----0
  6
CONTINUOUS
  5
2C
 10
356.582998
 20
407.092326
 30
0.0
 11
353.582998
 21
410.092326
 31
0.0
  0
LINE
  8
LC-005-005-----0
  6
CONTINUOUS
  5
2D
 10
348.928843
 20
414.746481
 30
0.0
 11
345.847116
 21
417.828207
 31
0.0
  0
LINE
  8
LC-005-005-----0
  6
CONTINUOUS
  5
2E
 10
356.582998
 20
404.263899
 30
0.0
 11
353.582998
 21
407.263899
 31
0.0
  0
LINE
  8
LC-005-005-----0
  6
CONTINUOUS
  5
2F
 10
346.024359
 20
414.822538
 30
0.0
 11
342.942633
 21
417.904264
 31
0.0
  0
LINE
  8
LC-005-005-----0
  6
CONTINUOUS
  5
30
 10
356.582998
 20
401.435472
 30
0.0
 11
353.582998
 21
404.435472
 31
0.0
  0
LINE
  8
LC-005-005-----0
  6
CONTINUOUS
  5
31
 10
343.119875
 20
414.898594
 30
0.0
 11
340.038149
 21
417.980321
 31
0.0
  0
LINE
  8
LC-005-005-----0
  6
CONTINUOUS
  5
32
 10
356.582998
 20
398.607044
 30
0.0
 11
353.582998
 21
401.607044
 31
0.0
  0
LINE
  8
LC-005-005-----0
  6
CONTINUOUS
  5
33
 10
340.215391
 20
414.974651
 30
0.0
 11
337.133665
 21
418.056377
 31
0.0
  0
LINE
  8
LC-005-005-----0
  6
CONTINUOUS
  5
34
 10
321.800998
 20
433.389044
 30
0.0
 11
320.887078
 21
434.302964
 31
0.0
  0
LINE
  8
LC-005-005-----0
  6
CONTINUOUS
  5
35
 10
356.582998
 20
395.778617
 30
0.0
 11
353.582998
 21
398.778617
 31
0.0
  0
LINE
  8
LC-005-005-----0
  6
CONTINUOUS
  5
36
 10
337.310908
 20
415.050707
 30
0.0
 11
334.229182
 21
418.132434
 31
0.0
  0
LINE
  8
LC-005-005-----0
  6
CONTINUOUS
  5
37
 10
321.832971
 20
430.528644
 30
0.0
 11
318.800998
 21
433.560617
 31
0.0
  0
LINE
  8
LC-005-005-----0
  6
CONTINUOUS
  5
38
 10
356.582998
 20
392.95019
 30
0.0
 11
353.582998
 21
395.95019
 31
0.0
  0
LINE
  8
LC-005-005-----0
  6
CONTINUOUS
  5
39
 10
334.406424
 20
415.126764
 30
0.0
 11
331.324698
 21
418.20849
 31
0.0
  0
LINE
  8
LC-005-005-----0
  6
CONTINUOUS
  5
3A
 10
321.832971
 20
427.700217
 30
0.0
 11
318.282635
 21
431.250553
 31
0.0
  0
LINE
  8
LC-005-005-----0
  6
CONTINUOUS
  5
3B
 10
356.582998
 20
390.121763
 30
0.0
 11
353.582998
 21
393.121763
 31
0.0
  0
LINE
  8
LC-005-005-----0
  6
CONTINUOUS
  5
3C
 10
331.50194
 20
415.202821
 30
0.0
 11
328.448834
 21
418.255927
 31
0.0
  0
LINE
  8
LC-005-005-----0
  6
CONTINUOUS
  5
3D
 10
321.832971
 20
424.87179
 30
0.0
 11
316.980929
 21
429.723832
 31
0.0
  0
LINE
  8
LC-005-005-----0
  6
CONTINUOUS
  5
3E
 10
356.582998
 20
387.293336
 30
0.0
 11
353.582998
 21
390.293336
 31
0.0
  0
LINE
  8
LC-005-005-----0
  6
CONTINUOUS
  5
3F
 10
328.623264
 20
415.25307
 30
0.0
 11
325.621015
 21
418.255319
 31
0.0
  0
LINE
  8
LC-005-005-----0
  6
CONTINUOUS
  5
40
 10
321.832971
 20
422.043362
 30
0.0
 11
314.382998
 21
429.493336
 31
0.0
  0
LINE
  8
LC-005-005-----0
  6
CONTINUOUS
  5
41
 10
356.582998
 20
384.464909
 30
0.0
 11
353.582998
 21
387.464909
 31
0.0
  0
LINE
  8
LC-005-005-----0
  6
CONTINUOUS
  5
42
 10
325.794837
 20
415.25307
 30
0.0
 11
322.793196
 21
418.254711
 31
0.0
  0
LINE
  8
LC-005-005-----0
  6
CONTINUOUS
  5
43
 10
321.832971
 20
419.214935
 30
0.0
 11
314.382998
 21
426.664909
 31
0.0
  0
LINE
  8
LC-005-005-----0
  6
CONTINUOUS
  5
44
 10
356.582998
 20
381.636482
 30
0.0
 11
353.582998
 21
384.636482
 31
0.0
  0
LINE
  8
LC-005-005-----0
  6
CONTINUOUS
  5
45
 10
322.96641
 20
415.25307
 30
0.0
 11
314.382998
 21
423.836482
 31
0.0
  0
LINE
  8
LC-005-005-----0
  6
CONTINUOUS
  5
46
 10
309.282998
 20
428.936482
 30
0.0
 11
308.495223
 21
429.724256
 31
0.0
  0
LINE
  8
LC-005-005-----0
  6
CONTINUOUS
  5
47
 10
356.582998
 20
378.808055
 30
0.0
 11
353.582998
 21
381.808055
 31
0.0
  0
LINE
  8
LC-005-005-----0
  6
CONTINUOUS
  5
48
 10
320.137983
 20
415.25307
 30
0.0
 11
314.382998
 21
421.008055
 31
0.0
  0
LINE
  8
LC-005-005-----0
  6
CONTINUOUS
  5
49
 10
309.282998
 20
426.108055
 30
0.0
 11
305.864998
 21
429.526055
 31
0.0
  0
LINE
  8
LC-005-005-----0
  6
CONTINUOUS
  5
4A
 10
356.582998
 20
375.979627
 30
0.0
 11
353.582998
 21
378.979627
 31
0.0
  0
LINE
  8
LC-005-005-----0
  6
CONTINUOUS
  5
4B
 10
317.309555
 20
415.25307
 30
0.0
 11
314.382998
 21
418.179627
 31
0.0
  0
LINE
  8
LC-005-005-----0
  6
CONTINUOUS
  5
4C
 10
309.282998
 20
423.279627
 30
0.0
 11
305.864998
 21
426.697627
 31
0.0
  0
LINE
  8
LC-005-005-----0
  6
CONTINUOUS
  5
4D
 10
356.582998
 20
373.1512
 30
0.0
 11
353.582998
 21
376.1512
 31
0.0
  0
LINE
  8
LC-005-005-----0
  6
CONTINUOUS
  5
4E
 10
314.974779
 20
414.75942
 30
0.0
 11
313.753645
 21
415.980553
 31
0.0
  0
LINE
  8
LC-005-005-----0
  6
CONTINUOUS
  5
4F
 10
309.282998
 20
420.4512
 30
0.0
 11
303.572942
 21
426.161256
 31
0.0
  0
LINE
  8
LC-005-005-----0
  6
CONTINUOUS
  5
50
 10
356.582998
 20
370.322773
 30
0.0
 11
353.582998
 21
373.322773
 31
0.0
  0
LINE
  8
LC-005-005-----0
  6
CONTINUOUS
  5
51
 10
312.62157
 20
414.284201
 30
0.0
 11
310.925218
 21
415.980553
 31
0.0
  0
LINE
  8
LC-005-005-----0
  6
CONTINUOUS
  5
52
 10
309.282998
 20
417.622773
 30
0.0
 11
304.214467
 21
422.691304
 31
0.0
  0
LINE
  8
LC-005-005-----0
  6
CONTINUOUS
  5
53
 10
303.289515
 20
423.616256
 30
0.0
 11
300.744515
 21
426.161256
 31
0.0
  0
LINE
  8
LC-005-005-----0
  6
CONTINUOUS
  5
54
 10
299.138467
 20
427.767304
 30
0.0
 11
297.181515
 21
429.724256
 31
0.0
  0
LINE
  8
LC-005-005-----0
  6
CONTINUOUS
  5
55
 10
356.582998
 20
367.494346
 30
0.0
 11
353.582998
 21
370.494346
 31
0.0
  0
LINE
  8
LC-005-005-----0
  6
CONTINUOUS
  5
56
 10
309.563302
 20
414.514042
 30
0.0
 11
304.214467
 21
419.862877
 31
0.0
  0
LINE
  8
LC-005-005-----0
  6
CONTINUOUS
  5
57
 10
300.461088
 20
423.616256
 30
0.0
 11
293.974358
 21
430.102986
 31
0.0
  0
LINE
  8
LC-005-005-----0
  6
CONTINUOUS
  5
58
 10
356.582998
 20
364.665919
 30
0.0
 11
353.582998
 21
367.665919
 31
0.0
  0
LINE
  8
LC-005-005-----0
  6
CONTINUOUS
  5
59
 10
305.995847
 20
415.25307
 30
0.0
 11
304.214467
 21
417.03445
 31
0.0
  0
LINE
  8
LC-005-005-----0
  6
CONTINUOUS
  5
5A
 10
297.632661
 20
423.616256
 30
0.0
 11
290.274965
 21
430.973951
 31
0.0
  0
LINE
  8
LC-005-005-----0
  6
CONTINUOUS
  5
5B
 10
356.582998
 20
361.837492
 30
0.0
 11
353.582998
 21
364.837492
 31
0.0
  0
LINE
  8
LC-005-005-----0
  6
CONTINUOUS
  5
5C
 10
290.606652
 20
427.813838
 30
0.0
 11
286.575573
 21
431.844917
 31
0.0
  0
LINE
  8
LC-005-005-----0
  6
CONTINUOUS
  5
5D
 10
356.582998
 20
359.009065
 30
0.0
 11
353.582998
 21
362.009065
 31
0.0
  0
LINE
  8
LC-005-005-----0
  6
CONTINUOUS
  5
5E
 10
286.907259
 20
428.684803
 30
0.0
 11
282.87618
 21
432.715882
 31
0.0
  0
LINE
  8
LC-005-005-----0
  6
CONTINUOUS
  5
5F
 10
356.582998
 20
356.180638
 30
0.0
 11
353.582998
 21
359.180638
 31
0.0
  0
LINE
  8
LC-005-005-----0
  6
CONTINUOUS
  5
60
 10
283.207867
 20
429.555769
 30
0.0
 11
279.176788
 21
433.586848
 31
0.0
  0
LINE
  8
LC-005-005-----0
  6
CONTINUOUS
  5
61
 10
356.582998
 20
353.35221
 30
0.0
 11
353.582998
 21
356.35221
 31
0.0
  0
LINE
  8
LC-005-005-----0
  6
CONTINUOUS
  5
62
 10
279.508474
 20
430.426734
 30
0.0
 11
275.477395
 21
434.457813
 31
0.0
  0
LINE
  8
LC-005-005-----0
  6
CONTINUOUS
  5
63
 10
356.582998
 20
350.523783
 30
0.0
 11
353.582998
 21
353.523783
 31
0.0
  0
LINE
  8
LC-005-005-----0
  6
CONTINUOUS
  5
64
 10
275.809081
 20
431.2977
 30
0.0
 11
272.51123
 21
434.595552
 31
0.0
  0
LINE
  8
LC-005-005-----0
  6
CONTINUOUS
  5
65
 10
356.582998
 20
347.695356
 30
0.0
 11
353.582998
 21
350.695356
 31
0.0
  0
LINE
  8
LC-005-005-----0
  6
CONTINUOUS
  5
66
 10
272.631698
 20
431.646656
 30
0.0
 11
269.632563
 21
434.645791
 31
0.0
  0
LINE
  8
LC-005-005-----0
  6
CONTINUOUS
  5
67
 10
356.582998
 20
344.866929
 30
0.0
 11
353.582998
 21
347.866929
 31
0.0
  0
LINE
  8
LC-005-005-----0
  6
CONTINUOUS
  5
68
 10
269.803271
 20
431.646656
 30
0.0
 11
267.574675
 21
433.875252
 31
0.0
  0
LINE
  8
LC-005-005-----0
  6
CONTINUOUS
  5
69
 10
356.582998
 20
342.038502
 30
0.0
 11
353.582998
 21
345.038502
 31
0.0
  0
LINE
  8
LC-005-005-----0
  6
CONTINUOUS
  5
6A
 10
266.974843
 20
431.646656
 30
0.0
 11
266.605785
 21
432.015715
 31
0.0
  0
LINE
  8
LC-005-005-----0
  6
CONTINUOUS
  5
6B
 10
356.582998
 20
339.210075
 30
0.0
 11
353.582998
 21
342.210075
 31
0.0
  0
LINE
  8
LC-005-005-----0
  6
CONTINUOUS
  5
6C
 10
356.582998
 20
336.381648
 30
0.0
 11
353.582998
 21
339.381648
 31
0.0
  0
LINE
  8
LC-005-005-----0
  6
CONTINUOUS
  5
6D
 10
356.582998
 20
333.553221
 30
0.0
 11
353.582998
 21
336.553221
 31
0.0
  0
LINE
  8
LC-005-005-----0
  6
CONTINUOUS
  5
6E
 10
356.582998
 20
330.724793
 30
0.0
 11
353.582998
 21
333.724793
 31
0.0
  0
LINE
  8
LC-005-005-----0
  6
CONTINUOUS
  5
6F
 10
356.582998
 20
327.896366
 30
0.0
 11
353.582998
 21
330.896366
 31
0.0
  0
LINE
  8
LC-005-005-----0
  6
CONTINUOUS
  5
70
 10
356.582998
 20
325.067939
 30
0.0
 11
353.582998
 21
328.067939
 31
0.0
  0
LINE
  8
LC-005-005-----0
  6
CONTINUOUS
  5
71
 10
356.582998
 20
322.239512
 30
0.0
 11
353.582998
 21
325.239512
 31
0.0
  0
LINE
  8
LC-005-005-----0
  6
CONTINUOUS
  5
72
 10
356.582998
 20
319.411085
 30
0.0
 11
353.582998
 21
322.411085
 31
0.0
  0
LINE
  8
LC-005-005-----0
  6
CONTINUOUS
  5
73
 10
356.582998
 20
316.582658
 30
0.0
 11
353.582998
 21
319.582658
 31
0.0
  0
LINE
  8
LC-005-005-----0
  6
CONTINUOUS
  5
74
 10
356.582998
 20
313.754231
 30
0.0
 11
353.582998
 21
316.754231
 31
0.0
  0
LINE
  8
LC-005-005-----0
  6
CONTINUOUS
  5
75
 10
356.582998
 20
310.925804
 30
0.0
 11
353.582998
 21
313.925804
 31
0.0
  0
LINE
  8
LC-005-005-----0
  6
CONTINUOUS
  5
76
 10
356.582998
 20
308.097376
 30
0.0
 11
353.582998
 21
311.097376
 31
0.0
  0
LINE
  8
LC-005-005-----0
  6
CONTINUOUS
  5
77
 10
356.582998
 20
305.268949
 30
0.0
 11
353.582998
 21
308.268949
 31
0.0
  0
LINE
  8
LC-005-005-----0
  6
CONTINUOUS
  5
78
 10
356.582998
 20
302.440522
 30
0.0
 11
353.582998
 21
305.440522
 31
0.0
  0
LINE
  8
LC-005-005-----0
  6
CONTINUOUS
  5
79
 10
356.582998
 20
299.612095
 30
0.0
 11
353.582998
 21
302.612095
 31
0.0
  0
LINE
  8
LC-005-005-----0
  6
CONTINUOUS
  5
7A
 10
356.582998
 20
296.783668
 30
0.0
 11
353.582998
 21
299.783668
 31
0.0
  0
LINE
  8
LC-005-005-----0
  6
CONTINUOUS
  5
7B
 10
356.582998
 20
293.955241
 30
0.0
 11
353.582998
 21
296.955241
 31
0.0
  0
LINE
  8
LC-005-005-----0
  6
CONTINUOUS
  5
7C
 10
356.582998
 20
291.126814
 30
0.0
 11
353.582998
 21
294.126814
 31
0.0
  0
LINE
  8
LC-005-005-----0
  6
CONTINUOUS
  5
7D
 10
356.582998
 20
288.298387
 30
0.0
 11
353.582998
 21
291.298387
 31
0.0
  0
LINE
  8
LC-005-005-----0
  6
CONTINUOUS
  5
7E
 10
356.582998
 20
285.469959
 30
0.0
 11
353.582998
 21
288.469959
 31
0.0
  0
LINE
  8
LC-005-005-----0
  6
CONTINUOUS
  5
7F
 10
356.582998
 20
282.641532
 30
0.0
 11
353.582998
 21
285.641532
 31
0.0
  0
LINE
  8
LC-005-005-----0
  6
CONTINUOUS
  5
80
 10
356.582998
 20
279.813105
 30
0.0
 11
353.582998
 21
282.813105
 31
0.0
  0
LINE
  8
LC-005-005-----0
  6
CONTINUOUS
  5
81
 10
356.582998
 20
276.984678
 30
0.0
 11
353.582998
 21
279.984678
 31
0.0
  0
LINE
  8
LC-005-005-----0
  6
CONTINUOUS
  5
82
 10
356.582998
 20
274.156251
 30
0.0
 11
353.582998
 21
277.156251
 31
0.0
  0
LINE
  8
LC-005-005-----0
  6
CONTINUOUS
  5
83
 10
356.582998
 20
271.327824
 30
0.0
 11
353.582998
 21
274.327824
 31
0.0
  0
LINE
  8
LC-005-005-----0
  6
CONTINUOUS
  5
84
 10
356.582998
 20
268.499397
 30
0.0
 11
353.582998
 21
271.499397
 31
0.0
  0
LINE
  8
LC-005-005-----0
  6
CONTINUOUS
  5
85
 10
356.582998
 20
265.67097
 30
0.0
 11
353.582998
 21
268.67097
 31
0.0
  0
LINE
  8
LC-005-005-----0
  6
CONTINUOUS
  5
86
 10
356.582998
 20
262.842542
 30
0.0
 11
353.582998
 21
265.842542
 31
0.0
  0
LINE
  8
LC-005-005-----0
  6
CONTINUOUS
  5
87
 10
356.582998
 20
260.014115
 30
0.0
 11
353.582998
 21
263.014115
 31
0.0
  0
LINE
  8
LC-005-005-----0
  6
CONTINUOUS
  5
88
 10
356.582998
 20
257.185688
 30
0.0
 11
353.582998
 21
260.185688
 31
0.0
  0
LINE
  8
LC-005-005-----0
  6
CONTINUOUS
  5
89
 10
356.582998
 20
254.357261
 30
0.0
 11
353.582998
 21
257.357261
 31
0.0
  0
LINE
  8
LC-005-005-----0
  6
CONTINUOUS
  5
8A
 10
356.582998
 20
251.528834
 30
0.0
 11
353.582998
 21
254.528834
 31
0.0
  0
LINE
  8
LC-005-005-----0
  6
CONTINUOUS
  5
8B
 10
356.582998
 20
248.700407
 30
0.0
 11
353.582998
 21
251.700407
 31
0.0
  0
LINE
  8
LC-005-005-----0
  6
CONTINUOUS
  5
8C
 10
356.582998
 20
245.87198
 30
0.0
 11
353.582998
 21
248.87198
 31
0.0
  0
LINE
  8
LC-005-005-----0
  6
CONTINUOUS
  5
8D
 10
356.582998
 20
243.043553
 30
0.0
 11
353.582998
 21
246.043553
 31
0.0
  0
LINE
  8
LC-005-005-----0
  6
CONTINUOUS
  5
8E
 10
356.582998
 20
240.215125
 30
0.0
 11
353.582998
 21
243.215125
 31
0.0
  0
LINE
  8
LC-005-005-----0
  6
CONTINUOUS
  5
8F
 10
356.582998
 20
237.386698
 30
0.0
 11
353.582998
 21
240.386698
 31
0.0
  0
LINE
  8
LC-005-005-----0
  6
CONTINUOUS
  5
90
 10
356.582998
 20
234.558271
 30
0.0
 11
353.582998
 21
237.558271
 31
0.0
  0
LINE
  8
LC-005-005-----0
  6
CONTINUOUS
  5
91
 10
356.582998
 20
231.729844
 30
0.0
 11
353.582998
 21
234.729844
 31
0.0
  0
LINE
  8
LC-005-005-----0
  6
CONTINUOUS
  5
92
 10
356.582998
 20
228.901417
 30
0.0
 11
353.582998
 21
231.901417
 31
0.0
  0
LINE
  8
LC-005-005-----0
  6
CONTINUOUS
  5
93
 10
356.582998
 20
226.07299
 30
0.0
 11
353.582998
 21
229.07299
 31
0.0
  0
LINE
  8
LC-005-005-----0
  6
CONTINUOUS
  5
94
 10
356.582998
 20
223.244563
 30
0.0
 11
353.582998
 21
226.244563
 31
0.0
  0
LINE
  8
LC-005-005-----0
  6
CONTINUOUS
  5
95
 10
356.582998
 20
220.416136
 30
0.0
 11
353.582998
 21
223.416136
 31
0.0
  0
LINE
  8
LC-005-005-----0
  6
CONTINUOUS
  5
96
 10
356.582998
 20
217.587708
 30
0.0
 11
353.786274
 21
220.384432
 31
0.0
  0
ENDBLK
  8
0
  5
97
  0
BLOCK
  8
0
  5
99
  2
*X2
 70
    65
 10
406.582998
 20
216.64307
 30
0.0
  3
*X2
  0
LINE
  8
LC-005-005-----0
  6
CONTINUOUS
  5
9A
 10
496.077441
 20
431.646656
 30
0.0
 11
493.086113
 21
434.637984
 31
0.0
  0
LINE
  8
LC-005-005-----0
  6
CONTINUOUS
  5
9B
 10
493.249013
 20
431.646656
 30
0.0
 11
490.306202
 21
434.589468
 31
0.0
  0
LINE
  8
LC-005-005-----0
  6
CONTINUOUS
  5
9C
 10
490.420586
 20
431.646656
 30
0.0
 11
487.624517
 21
434.442726
 31
0.0
  0
LINE
  8
LC-005-005-----0
  6
CONTINUOUS
  5
9D
 10
487.829785
 20
431.40903
 30
0.0
 11
485.335098
 21
433.903717
 31
0.0
  0
LINE
  8
LC-005-005-----0
  6
CONTINUOUS
  5
9E
 10
485.540367
 20
430.870021
 30
0.0
 11
483.04568
 21
433.364708
 31
0.0
  0
LINE
  8
LC-005-005-----0
  6
CONTINUOUS
  5
9F
 10
483.250948
 20
430.331013
 30
0.0
 11
480.756261
 21
432.8257
 31
0.0
  0
LINE
  8
LC-005-005-----0
  6
CONTINUOUS
  5
A0
 10
480.96153
 20
429.792004
 30
0.0
 11
478.466843
 21
432.286691
 31
0.0
  0
LINE
  8
LC-005-005-----0
  6
CONTINUOUS
  5
A1
 10
478.672111
 20
429.252996
 30
0.0
 11
476.177424
 21
431.747683
 31
0.0
  0
LINE
  8
LC-005-005-----0
  6
CONTINUOUS
  5
A2
 10
476.382693
 20
428.713987
 30
0.0
 11
473.888006
 21
431.208674
 31
0.0
  0
LINE
  8
LC-005-005-----0
  6
CONTINUOUS
  5
A3
 10
474.093274
 20
428.174978
 30
0.0
 11
471.598587
 21
430.669665
 31
0.0
  0
LINE
  8
LC-005-005-----0
  6
CONTINUOUS
  5
A4
 10
471.803856
 20
427.63597
 30
0.0
 11
469.309169
 21
430.130657
 31
0.0
  0
LINE
  8
LC-005-005-----0
  6
CONTINUOUS
  5
A5
 10
469.536336
 20
427.075063
 30
0.0
 11
466.887142
 21
429.724256
 31
0.0
  0
LINE
  8
LC-005-005-----0
  6
CONTINUOUS
  5
A6
 10
468.122122
 20
425.660849
 30
0.0
 11
464.127529
 21
429.655442
 31
0.0
  0
LINE
  8
LC-005-005-----0
  6
CONTINUOUS
  5
A7
 10
466.707909
 20
424.246636
 30
0.0
 11
464.127529
 21
426.827015
 31
0.0
  0
LINE
  8
LC-005-005-----0
  6
CONTINUOUS
  5
A8
 10
464.509861
 20
423.616256
 30
0.0
 11
461.964861
 21
426.161256
 31
0.0
  0
LINE
  8
LC-005-005-----0
  6
CONTINUOUS
  5
A9
 10
461.681434
 20
423.616256
 30
0.0
 11
459.136434
 21
426.161256
 31
0.0
  0
LINE
  8
LC-005-005-----0
  6
CONTINUOUS
  5
AA
 10
457.300998
 20
427.996692
 30
0.0
 11
455.573434
 21
429.724256
 31
0.0
  0
LINE
  8
LC-005-005-----0
  6
CONTINUOUS
  5
AB
 10
458.951529
 20
423.517734
 30
0.0
 11
453.882998
 21
428.586265
 31
0.0
  0
LINE
  8
LC-005-005-----0
  6
CONTINUOUS
  5
AC
 10
458.951529
 20
420.689307
 30
0.0
 11
453.882998
 21
425.757838
 31
0.0
  0
LINE
  8
LC-005-005-----0
  6
CONTINUOUS
  5
AD
 10
458.951529
 20
417.86088
 30
0.0
 11
453.882998
 21
422.929411
 31
0.0
  0
LINE
  8
LC-005-005-----0
  6
CONTINUOUS
  5
AE
 10
448.782998
 20
428.029411
 30
0.0
 11
447.088152
 21
429.724256
 31
0.0
  0
LINE
  8
LC-005-005-----0
  6
CONTINUOUS
  5
AF
 10
458.730912
 20
415.25307
 30
0.0
 11
453.882998
 21
420.100984
 31
0.0
  0
LINE
  8
LC-005-005-----0
  6
CONTINUOUS
  5
B0
 10
448.782998
 20
425.200984
 30
0.0
 11
442.732991
 21
431.25099
 31
0.0
  0
LINE
  8
LC-005-005-----0
  6
CONTINUOUS
  5
B1
 10
455.902485
 20
415.25307
 30
0.0
 11
453.882998
 21
417.272557
 31
0.0
  0
LINE
  8
LC-005-005-----0
  6
CONTINUOUS
  5
B2
 10
448.782998
 20
422.372557
 30
0.0
 11
441.333112
 21
429.822442
 31
0.0
  0
LINE
  8
LC-005-005-----0
  6
CONTINUOUS
  5
B3
 10
453.772056
 20
414.555071
 30
0.0
 11
452.346574
 21
415.980553
 31
0.0
  0
LINE
  8
LC-005-005-----0
  6
CONTINUOUS
  5
B4
 10
448.782998
 20
419.544129
 30
0.0
 11
441.333112
 21
426.994015
 31
0.0
  0
LINE
  8
LC-005-005-----0
  6
CONTINUOUS
  5
B5
 10
451.245255
 20
414.253445
 30
0.0
 11
449.518147
 21
415.980553
 31
0.0
  0
LINE
  8
LC-005-005-----0
  6
CONTINUOUS
  5
B6
 10
448.782998
 20
416.715702
 30
0.0
 11
441.333112
 21
424.165588
 31
0.0
  0
LINE
  8
LC-005-005-----0
  6
CONTINUOUS
  5
B7
 10
447.755318
 20
414.914955
 30
0.0
 11
441.333112
 21
421.337161
 31
0.0
  0
LINE
  8
LC-005-005-----0
  6
CONTINUOUS
  5
B8
 10
444.588064
 20
415.253782
 30
0.0
 11
441.333112
 21
418.508734
 31
0.0
  0
LINE
  8
LC-005-005-----0
  6
CONTINUOUS
  5
B9
 10
441.759634
 20
415.253785
 30
0.0
 11
438.758968
 21
418.254451
 31
0.0
  0
LINE
  8
LC-005-005-----0
  6
CONTINUOUS
  5
BA
 10
438.931205
 20
415.253787
 30
0.0
 11
435.930541
 21
418.254451
 31
0.0
  0
LINE
  8
LC-005-005-----0
  6
CONTINUOUS
  5
BB
 10
436.102775
 20
415.253789
 30
0.0
 11
433.11442
 21
418.242144
 31
0.0
  0
LINE
  8
LC-005-005-----0
  6
CONTINUOUS
  5
BC
 10
433.282223
 20
415.245915
 30
0.0
 11
430.358377
 21
418.16976
 31
0.0
  0
LINE
  8
LC-005-005-----0
  6
CONTINUOUS
  5
BD
 10
430.525978
 20
415.173733
 30
0.0
 11
427.602334
 21
418.097377
 31
0.0
  0
LINE
  8
LC-005-005-----0
  6
CONTINUOUS
  5
BE
 10
427.769732
 20
415.101551
 30
0.0
 11
424.84629
 21
418.024993
 31
0.0
  0
LINE
  8
LC-005-005-----0
  6
CONTINUOUS
  5
BF
 10
425.013487
 20
415.029369
 30
0.0
 11
422.090247
 21
417.952609
 31
0.0
  0
LINE
  8
LC-005-005-----0
  6
CONTINUOUS
  5
C0
 10
422.257242
 20
414.957187
 30
0.0
 11
419.334203
 21
417.880226
 31
0.0
  0
LINE
  8
LC-005-005-----0
  6
CONTINUOUS
  5
C1
 10
419.500997
 20
414.885005
 30
0.0
 11
416.57816
 21
417.807842
 31
0.0
  0
LINE
  8
LC-005-005-----0
  6
CONTINUOUS
  5
C2
 10
416.744751
 20
414.812823
 30
0.0
 11
413.822117
 21
417.735458
 31
0.0
  0
LINE
  8
LC-005-005-----0
  6
CONTINUOUS
  5
C3
 10
413.988506
 20
414.740641
 30
0.0
 11
411.066073
 21
417.663074
 31
0.0
  0
LINE
  8
LC-005-005-----0
  6
CONTINUOUS
  5
C4
 10
411.232261
 20
414.668459
 30
0.0
 11
408.31003
 21
417.590691
 31
0.0
  0
LINE
  8
LC-005-005-----0
  6
CONTINUOUS
  5
C5
 10
409.582998
 20
413.489295
 30
0.0
 11
406.582998
 21
416.489295
 31
0.0
  0
LINE
  8
LC-005-005-----0
  6
CONTINUOUS
  5
C6
 10
409.582998
 20
410.660868
 30
0.0
 11
406.582998
 21
413.660868
 31
0.0
  0
LINE
  8
LC-005-005-----0
  6
CONTINUOUS
  5
C7
 10
409.582998
 20
407.832441
 30
0.0
 11
406.582998
 21
410.832441
 31
0.0
  0
LINE
  8
LC-005-005-----0
  6
CONTINUOUS
  5
C8
 10
409.582998
 20
405.004014
 30
0.0
 11
406.582998
 21
408.004014
 31
0.0
  0
LINE
  8
LC-005-005-----0
  6
CONTINUOUS
  5
C9
 10
409.582998
 20
402.175587
 30
0.0
 11
406.582998
 21
405.175587
 31
0.0
  0
LINE
  8
LC-005-005-----0
  6
CONTINUOUS
  5
CA
 10
409.582998
 20
399.34716
 30
0.0
 11
406.582998
 21
402.34716
 31
0.0
  0
LINE
  8
LC-005-005-----0
  6
CONTINUOUS
  5
CB
 10
409.582998
 20
396.518733
 30
0.0
 11
406.582998
 21
399.518733
 31
0.0
  0
LINE
  8
LC-005-005-----0
  6
CONTINUOUS
  5
CC
 10
409.582998
 20
393.690306
 30
0.0
 11
406.582998
 21
396.690306
 31
0.0
  0
LINE
  8
LC-005-005-----0
  6
CONTINUOUS
  5
CD
 10
409.582998
 20
390.861878
 30
0.0
 11
406.582998
 21
393.861878
 31
0.0
  0
LINE
  8
LC-005-005-----0
  6
CONTINUOUS
  5
CE
 10
409.582998
 20
388.033451
 30
0.0
 11
406.582998
 21
391.033451
 31
0.0
  0
LINE
  8
LC-005-005-----0
  6
CONTINUOUS
  5
CF
 10
409.582998
 20
385.205024
 30
0.0
 11
406.582998
 21
388.205024
 31
0.0
  0
LINE
  8
LC-005-005-----0
  6
CONTINUOUS
  5
D0
 10
409.582998
 20
382.376597
 30
0.0
 11
406.582998
 21
385.376597
 31
0.0
  0
LINE
  8
LC-005-005-----0
  6
CONTINUOUS
  5
D1
 10
409.582998
 20
379.54817
 30
0.0
 11
406.582998
 21
382.54817
 31
0.0
  0
LINE
  8
LC-005-005-----0
  6
CONTINUOUS
  5
D2
 10
409.582998
 20
376.719743
 30
0.0
 11
406.582998
 21
379.719743
 31
0.0
  0
LINE
  8
LC-005-005-----0
  6
CONTINUOUS
  5
D3
 10
409.582998
 20
373.891316
 30
0.0
 11
406.582998
 21
376.891316
 31
0.0
  0
LINE
  8
LC-005-005-----0
  6
CONTINUOUS
  5
D4
 10
409.582998
 20
371.062889
 30
0.0
 11
406.582998
 21
374.062889
 31
0.0
  0
LINE
  8
LC-005-005-----0
  6
CONTINUOUS
  5
D5
 10
409.582998
 20
368.234461
 30
0.0
 11
406.582998
 21
371.234461
 31
0.0
  0
LINE
  8
LC-005-005-----0
  6
CONTINUOUS
  5
D6
 10
409.582998
 20
365.406034
 30
0.0
 11
406.582998
 21
368.406034
 31
0.0
  0
LINE
  8
LC-005-005-----0
  6
CONTINUOUS
  5
D7
 10
409.582998
 20
362.577607
 30
0.0
 11
406.582998
 21
365.577607
 31
0.0
  0
LINE
  8
LC-005-005-----0
  6
CONTINUOUS
  5
D8
 10
409.582998
 20
359.74918
 30
0.0
 11
406.582998
 21
362.74918
 31
0.0
  0
LINE
  8
LC-005-005-----0
  6
CONTINUOUS
  5
D9
 10
409.582998
 20
356.920753
 30
0.0
 11
406.582998
 21
359.920753
 31
0.0
  0
LINE
  8
LC-005-005-----0
  6
CONTINUOUS
  5
DA
 10
409.582998
 20
354.092326
 30
0.0
 11
406.582998
 21
357.092326
 31
0.0
  0
LINE
  8
LC-005-005-----0
  6
CONTINUOUS
  5
DB
 10
409.582998
 20
351.263899
 30
0.0
 11
406.582998
 21
354.263899
 31
0.0
  0
LINE
  8
LC-005-005-----0
  6
CONTINUOUS
  5
DC
 10
409.582998
 20
348.435472
 30
0.0
 11
406.582998
 21
351.435472
 31
0.0
  0
LINE
  8
LC-005-005-----0
  6
CONTINUOUS
  5
DD
 10
409.582998
 20
345.607044
 30
0.0
 11
406.582998
 21
348.607044
 31
0.0
  0
LINE
  8
LC-005-005-----0
  6
CONTINUOUS
  5
DE
 10
409.582998
 20
342.778617
 30
0.0
 11
406.582998
 21
345.778617
 31
0.0
  0
LINE
  8
LC-005-005-----0
  6
CONTINUOUS
  5
DF
 10
409.582998
 20
339.95019
 30
0.0
 11
406.582998
 21
342.95019
 31
0.0
  0
LINE
  8
LC-005-005-----0
  6
CONTINUOUS
  5
E0
 10
409.582998
 20
337.121763
 30
0.0
 11
406.582998
 21
340.121763
 31
0.0
  0
LINE
  8
LC-005-005-----0
  6
CONTINUOUS
  5
E1
 10
409.582998
 20
334.293336
 30
0.0
 11
406.582998
 21
337.293336
 31
0.0
  0
LINE
  8
LC-005-005-----0
  6
CONTINUOUS
  5
E2
 10
409.582998
 20
331.464909
 30
0.0
 11
406.582998
 21
334.464909
 31
0.0
  0
LINE
  8
LC-005-005-----0
  6
CONTINUOUS
  5
E3
 10
409.582998
 20
328.636482
 30
0.0
 11
406.582998
 21
331.636482
 31
0.0
  0
LINE
  8
LC-005-005-----0
  6
CONTINUOUS
  5
E4
 10
409.582998
 20
325.808055
 30
0.0
 11
406.582998
 21
328.808055
 31
0.0
  0
LINE
  8
LC-005-005-----0
  6
CONTINUOUS
  5
E5
 10
409.582998
 20
322.979627
 30
0.0
 11
406.582998
 21
325.979627
 31
0.0
  0
LINE
  8
LC-005-005-----0
  6
CONTINUOUS
  5
E6
 10
409.582998
 20
320.1512
 30
0.0
 11
406.582998
 21
323.1512
 31
0.0
  0
LINE
  8
LC-005-005-----0
  6
CONTINUOUS
  5
E7
 10
409.582998
 20
317.322773
 30
0.0
 11
406.582998
 21
320.322773
 31
0.0
  0
LINE
  8
LC-005-005-----0
  6
CONTINUOUS
  5
E8
 10
409.582998
 20
314.494346
 30
0.0
 11
406.582998
 21
317.494346
 31
0.0
  0
LINE
  8
LC-005-005-----0
  6
CONTINUOUS
  5
E9
 10
409.582998
 20
311.665919
 30
0.0
 11
406.582998
 21
314.665919
 31
0.0
  0
LINE
  8
LC-005-005-----0
  6
CONTINUOUS
  5
EA
 10
409.582998
 20
308.837492
 30
0.0
 11
406.582998
 21
311.837492
 31
0.0
  0
LINE
  8
LC-005-005-----0
  6
CONTINUOUS
  5
EB
 10
409.582998
 20
306.009065
 30
0.0
 11
406.582998
 21
309.009065
 31
0.0
  0
LINE
  8
LC-005-005-----0
  6
CONTINUOUS
  5
EC
 10
409.582998
 20
303.180638
 30
0.0
 11
406.582998
 21
306.180638
 31
0.0
  0
LINE
  8
LC-005-005-----0
  6
CONTINUOUS
  5
ED
 10
409.582998
 20
300.35221
 30
0.0
 11
406.582998
 21
303.35221
 31
0.0
  0
LINE
  8
LC-005-005-----0
  6
CONTINUOUS
  5
EE
 10
409.582998
 20
297.523783
 30
0.0
 11
406.582998
 21
300.523783
 31
0.0
  0
LINE
  8
LC-005-005-----0
  6
CONTINUOUS
  5
EF
 10
409.582998
 20
294.695356
 30
0.0
 11
406.582998
 21
297.695356
 31
0.0
  0
LINE
  8
LC-005-005-----0
  6
CONTINUOUS
  5
F0
 10
409.582998
 20
291.866929
 30
0.0
 11
406.582998
 21
294.866929
 31
0.0
  0
LINE
  8
LC-005-005-----0
  6
CONTINUOUS
  5
F1
 10
409.582998
 20
289.038502
 30
0.0
 11
406.582998
 21
292.038502
 31
0.0
  0
LINE
  8
LC-005-005-----0
  6
CONTINUOUS
  5
F2
 10
409.582998
 20
286.210075
 30
0.0
 11
406.582998
 21
289.210075
 31
0.0
  0
LINE
  8
LC-005-005-----0
  6
CONTINUOUS
  5
F3
 10
409.582998
 20
283.381648
 30
0.0
 11
406.582998
 21
286.381648
 31
0.0
  0
LINE
  8
LC-005-005-----0
  6
CONTINUOUS
  5
F4
 10
409.582998
 20
280.553221
 30
0.0
 11
406.582998
 21
283.553221
 31
0.0
  0
LINE
  8
LC-005-005-----0
  6
CONTINUOUS
  5
F5
 10
409.582998
 20
277.724793
 30
0.0
 11
406.582998
 21
280.724793
 31
0.0
  0
LINE
  8
LC-005-005-----0
  6
CONTINUOUS
  5
F6
 10
409.582998
 20
274.896366
 30
0.0
 11
406.582998
 21
277.896366
 31
0.0
  0
LINE
  8
LC-005-005-----0
  6
CONTINUOUS
  5
F7
 10
409.582998
 20
272.067939
 30
0.0
 11
406.582998
 21
275.067939
 31
0.0
  0
LINE
  8
LC-005-005-----0
  6
CONTINUOUS
  5
F8
 10
409.582998
 20
269.239512
 30
0.0
 11
406.582998
 21
272.239512
 31
0.0
  0
LINE
  8
LC-005-005-----0
  6
CONTINUOUS
  5
F9
 10
409.582998
 20
266.411085
 30
0.0
 11
406.582998
 21
269.411085
 31
0.0
  0
LINE
  8
LC-005-005-----0
  6
CONTINUOUS
  5
FA
 10
409.582998
 20
263.582658
 30
0.0
 11
406.582998
 21
266.582658
 31
0.0
  0
LINE
  8
LC-005-005-----0
  6
CONTINUOUS
  5
FB
 10
409.582998
 20
260.754231
 30
0.0
 11
406.582998
 21
263.754231
 31
0.0
  0
LINE
  8
LC-005-005-----0
  6
CONTINUOUS
  5
FC
 10
409.582998
 20
257.925804
 30
0.0
 11
406.582998
 21
260.925804
 31
0.0
  0
LINE
  8
LC-005-005-----0
  6
CONTINUOUS
  5
FD
 10
409.582998
 20
255.097376
 30
0.0
 11
406.582998
 21
258.097376
 31
0.0
  0
LINE
  8
LC-005-005-----0
  6
CONTINUOUS
  5
FE
 10
409.582998
 20
252.268949
 30
0.0
 11
406.582998
 21
255.268949
 31
0.0
  0
LINE
  8
LC-005-005-----0
  6
CONTINUOUS
  5
FF
 10
409.582998
 20
249.440522
 30
0.0
 11
406.582998
 21
252.440522
 31
0.0
  0
LINE
  8
LC-005-005-----0
  6
CONTINUOUS
  5
100
 10
409.582998
 20
246.612095
 30
0.0
 11
406.582998
 21
249.612095
 31
0.0
  0
LINE
  8
LC-005-005-----0
  6
CONTINUOUS
  5
101
 10
409.582998
 20
243.783668
 30
0.0
 11
406.582998
 21
246.783668
 31
0.0
  0
LINE
  8
LC-005-005-----0
  6
CONTINUOUS
  5
102
 10
409.582998
 20
240.955241
 30
0.0
 11
406.582998
 21
243.955241
 31
0.0
  0
LINE
  8
LC-005-005-----0
  6
CONTINUOUS
  5
103
 10
409.582998
 20
238.126814
 30
0.0
 11
406.582998
 21
241.126814
 31
0.0
  0
LINE
  8
LC-005-005-----0
  6
CONTINUOUS
  5
104
 10
409.582998
 20
235.298387
 30
0.0
 11
406.582998
 21
238.298387
 31
0.0
  0
LINE
  8
LC-005-005-----0
  6
CONTINUOUS
  5
105
 10
409.582998
 20
232.469959
 30
0.0
 11
406.582998
 21
235.469959
 31
0.0
  0
LINE
  8
LC-005-005-----0
  6
CONTINUOUS
  5
106
 10
409.582998
 20
229.641532
 30
0.0
 11
406.582998
 21
232.641532
 31
0.0
  0
LINE
  8
LC-005-005-----0
  6
CONTINUOUS
  5
107
 10
409.582998
 20
226.813105
 30
0.0
 11
406.582998
 21
229.813105
 31
0.0
  0
LINE
  8
LC-005-005-----0
  6
CONTINUOUS
  5
108
 10
409.582998
 20
223.984678
 30
0.0
 11
406.582998
 21
226.984678
 31
0.0
  0
LINE
  8
LC-005-005-----0
  6
CONTINUOUS
  5
109
 10
409.582998
 20
221.156251
 30
0.0
 11
406.582998
 21
224.156251
 31
0.0
  0
LINE
  8
LC-005-005-----0
  6
CONTINUOUS
  5
10A
 10
408.988066
 20
218.922755
 30
0.0
 11
406.582998
 21
221.327824
 31
0.0
  0
LINE
  8
LC-005-005-----0
  6
CONTINUOUS
  5
10B
 10
408.390349
 20
216.692045
 30
0.0
 11
406.582998
 21
218.499397
 31
0.0
  0
ENDBLK
  8
0
  5
10C
  0
BLOCK
  8
0
  5
10E
  2
*X3
 70
    65
 10
344.832998
 20
216.64307
 30
0.0
  3
*X3
  0
LINE
  8
LC-005-005-----0
  6
DASHED
  5
110
 10
414.820982
 20
396.937603
 30
0.0
 11
413.115515
 21
398.64307
 31
0.0
  0
LINE
  8
LC-005-005-----0
  6
DASHED
  5
111
 10
412.488367
 20
396.44179
 30
0.0
 11
410.287088
 21
398.64307
 31
0.0
  0
LINE
  8
LC-005-005-----0
  6
CONTINUOUS
  5
112
 10
417.953822
 20
385.319482
 30
0.0
 11
416.915948
 21
386.357356
 31
0.0
  0
LINE
  8
LC-005-005-----0
  6
CONTINUOUS
  5
113
 10
411.082998
 20
392.190306
 30
0.0
 11
409.582998
 21
393.690306
 31
0.0
  0
LINE
  8
LC-005-005-----0
  6
CONTINUOUS
  5
114
 10
415.622599
 20
384.822278
 30
0.0
 11
414.087521
 21
386.357356
 31
0.0
  0
LINE
  8
LC-005-005-----0
  6
CONTINUOUS
  5
115
 10
411.082998
 20
389.361878
 30
0.0
 11
409.582998
 21
390.861878
 31
0.0
  0
LINE
  8
LC-005-005-----0
  6
DASHED
  5
116
 10
411.128078
 20
383.659944
 30
0.0
 11
409.582998
 21
385.205024
 31
0.0
  0
LINE
  8
LC-005-005-----0
  6
DASHED
  5
117
 10
418.32476
 20
373.634835
 30
0.0
 11
417.896192
 21
374.063403
 31
0.0
  0
LINE
  8
LC-005-005-----0
  6
DASHED
  5
118
 10
411.082998
 20
380.876597
 30
0.0
 11
409.582998
 21
382.376597
 31
0.0
  0
LINE
  8
LC-005-005-----0
  6
CONTINUOUS
  5
119
 10
414.091601
 20
372.21114
 30
0.0
 11
412.231099
 21
374.071641
 31
0.0
  0
LINE
  8
LC-005-005-----0
  6
CONTINUOUS
  5
11A
 10
411.082998
 20
375.219743
 30
0.0
 11
409.582998
 21
376.719743
 31
0.0
  0
LINE
  8
LC-005-005-----0
  6
CONTINUOUS
  5
11B
 10
411.758986
 20
371.715327
 30
0.0
 11
409.582998
 21
373.891316
 31
0.0
  0
LINE
  8
LC-005-005-----0
  6
DASHED
  5
11C
 10
417.225832
 20
360.591627
 30
0.0
 11
416.031532
 21
361.785927
 31
0.0
  0
LINE
  8
LC-005-005-----0
  6
DASHED
  5
11D
 10
411.082998
 20
366.734461
 30
0.0
 11
409.582998
 21
368.234461
 31
0.0
  0
LINE
  8
LC-005-005-----0
  6
DASHED
  5
11E
 10
414.893218
 20
360.095814
 30
0.0
 11
413.203105
 21
361.785927
 31
0.0
  0
LINE
  8
LC-005-005-----0
  6
DASHED
  5
11F
 10
411.082998
 20
363.906034
 30
0.0
 11
409.582998
 21
365.406034
 31
0.0
  0
LINE
  8
LC-005-005-----0
  6
CONTINUOUS
  5
120
 10
411.082998
 20
358.24918
 30
0.0
 11
409.582998
 21
359.74918
 31
0.0
  0
LINE
  8
LC-005-005-----0
  6
CONTINUOUS
  5
121
 10
418.01784
 20
348.485911
 30
0.0
 11
417.003538
 21
349.500213
 31
0.0
  0
LINE
  8
LC-005-005-----0
  6
CONTINUOUS
  5
122
 10
411.082998
 20
355.420753
 30
0.0
 11
409.582998
 21
356.920753
 31
0.0
  0
LINE
  8
LC-005-005-----0
  6
DASHED
  5
123
 10
413.36222
 20
347.484676
 30
0.0
 11
409.582998
 21
351.263899
 31
0.0
  0
LINE
  8
LC-005-005-----0
  6
DASHED
  5
124
 10
411.158672
 20
346.859797
 30
0.0
 11
409.582998
 21
348.435472
 31
0.0
  0
LINE
  8
LC-005-005-----0
  6
CONTINUOUS
  5
125
 10
416.496452
 20
335.865164
 30
0.0
 11
415.147117
 21
337.214498
 31
0.0
  0
LINE
  8
LC-005-005-----0
  6
CONTINUOUS
  5
126
 10
411.082998
 20
341.278617
 30
0.0
 11
409.582998
 21
342.778617
 31
0.0
  0
LINE
  8
LC-005-005-----0
  6
CONTINUOUS
  5
127
 10
414.163837
 20
335.369351
 30
0.0
 11
412.31869
 21
337.214498
 31
0.0
  0
LINE
  8
LC-005-005-----0
  6
CONTINUOUS
  5
128
 10
411.082998
 20
338.45019
 30
0.0
 11
409.582998
 21
339.95019
 31
0.0
  0
LINE
  8
LC-005-005-----0
  6
CONTINUOUS
  5
129
 10
353.582998
 20
395.95019
 30
0.0
 11
350.890118
 21
398.64307
 31
0.0
  0
LINE
  8
LC-005-005-----0
  6
DASHED
  5
12A
 10
411.082998
 20
332.793336
 30
0.0
 11
409.582998
 21
334.293336
 31
0.0
  0
LINE
  8
LC-005-005-----0
  6
DASHED
  5
12B
 10
353.582998
 20
390.293336
 30
0.0
 11
352.082998
 21
391.793336
 31
0.0
  0
LINE
  8
LC-005-005-----0
  6
DASHED
  5
12C
 10
346.559129
 20
397.317204
 30
0.0
 11
345.246256
 21
398.630077
 31
0.0
  0
LINE
  8
LC-005-005-----0
  6
DASHED
  5
12D
 10
417.298068
 20
323.749838
 30
0.0
 11
416.119123
 21
324.928784
 31
0.0
  0
LINE
  8
LC-005-005-----0
  6
DASHED
  5
12E
 10
411.082998
 20
329.964909
 30
0.0
 11
409.582998
 21
331.464909
 31
0.0
  0
LINE
  8
LC-005-005-----0
  6
DASHED
  5
12F
 10
353.582998
 20
387.464909
 30
0.0
 11
352.082998
 21
388.964909
 31
0.0
  0
LINE
  8
LC-005-005-----0
  6
CONTINUOUS
  5
130
 10
412.632839
 20
322.758213
 30
0.0
 11
409.582998
 21
325.808055
 31
0.0
  0
LINE
  8
LC-005-005-----0
  6
CONTINUOUS
  5
131
 10
353.582998
 20
381.808055
 30
0.0
 11
352.082998
 21
383.308055
 31
0.0
  0
LINE
  8
LC-005-005-----0
  6
CONTINUOUS
  5
132
 10
351.385423
 20
384.00563
 30
0.0
 11
349.033697
 21
386.357356
 31
0.0
  0
LINE
  8
LC-005-005-----0
  6
CONTINUOUS
  5
133
 10
411.082998
 20
321.479627
 30
0.0
 11
409.582998
 21
322.979627
 31
0.0
  0
LINE
  8
LC-005-005-----0
  6
CONTINUOUS
  5
134
 10
353.582998
 20
378.979627
 30
0.0
 11
352.082998
 21
380.479627
 31
0.0
  0
LINE
  8
LC-005-005-----0
  6
CONTINUOUS
  5
135
 10
347.793511
 20
384.769114
 30
0.0
 11
346.20527
 21
386.357356
 31
0.0
  0
LINE
  8
LC-005-005-----0
  6
DASHED
  5
136
 10
415.767071
 20
311.1387
 30
0.0
 11
414.262701
 21
312.64307
 31
0.0
  0
LINE
  8
LC-005-005-----0
  6
DASHED
  5
137
 10
411.082998
 20
315.822773
 30
0.0
 11
409.582998
 21
317.322773
 31
0.0
  0
LINE
  8
LC-005-005-----0
  6
DASHED
  5
138
 10
353.582998
 20
373.322773
 30
0.0
 11
352.082998
 21
374.822773
 31
0.0
  0
LINE
  8
LC-005-005-----0
  6
DASHED
  5
139
 10
413.434456
 20
310.642888
 30
0.0
 11
411.399311
 21
312.678033
 31
0.0
  0
LINE
  8
LC-005-005-----0
  6
DASHED
  5
13A
 10
411.117961
 20
312.959383
 30
0.0
 11
409.582998
 21
314.494346
 31
0.0
  0
LINE
  8
LC-005-005-----0
  6
DASHED
  5
13B
 10
353.582998
 20
370.494346
 30
0.0
 11
350.005703
 21
374.071641
 31
0.0
  0
LINE
  8
LC-005-005-----0
  6
CONTINUOUS
  5
13C
 10
411.082998
 20
307.337492
 30
0.0
 11
409.582998
 21
308.837492
 31
0.0
  0
LINE
  8
LC-005-005-----0
  6
CONTINUOUS
  5
13D
 10
353.582998
 20
364.837492
 30
0.0
 11
352.082998
 21
366.337492
 31
0.0
  0
LINE
  8
LC-005-005-----0
  6
CONTINUOUS
  5
13E
 10
345.435981
 20
372.984508
 30
0.0
 11
344.83482
 21
373.58567
 31
0.0
  0
LINE
  8
LC-005-005-----0
  6
CONTINUOUS
  5
13F
 10
416.568688
 20
299.023375
 30
0.0
 11
415.234707
 21
300.357356
 31
0.0
  0
LINE
  8
LC-005-005-----0
  6
CONTINUOUS
  5
140
 10
411.082998
 20
304.509065
 30
0.0
 11
409.582998
 21
306.009065
 31
0.0
  0
LINE
  8
LC-005-005-----0
  6
CONTINUOUS
  5
141
 10
353.582998
 20
362.009065
 30
0.0
 11
352.082998
 21
363.509065
 31
0.0
  0
LINE
  8
LC-005-005-----0
  6
DASHED
  5
142
 10
411.903458
 20
298.03175
 30
0.0
 11
409.582998
 21
300.35221
 31
0.0
  0
LINE
  8
LC-005-005-----0
  6
DASHED
  5
143
 10
353.582998
 20
356.35221
 30
0.0
 11
352.082998
 21
357.85221
 31
0.0
  0
LINE
  8
LC-005-005-----0
  6
DASHED
  5
144
 10
350.262275
 20
359.672934
 30
0.0
 11
348.149281
 21
361.785927
 31
0.0
  0
LINE
  8
LC-005-005-----0
  6
DASHED
  5
145
 10
411.082998
 20
296.023783
 30
0.0
 11
409.582998
 21
297.523783
 31
0.0
  0
LINE
  8
LC-005-005-----0
  6
DASHED
  5
146
 10
353.582998
 20
353.523783
 30
0.0
 11
352.082998
 21
355.023783
 31
0.0
  0
LINE
  8
LC-005-005-----0
  6
DASHED
  5
147
 10
346.670363
 20
360.436418
 30
0.0
 11
345.322402
 21
361.784379
 31
0.0
  0
LINE
  8
LC-005-005-----0
  6
CONTINUOUS
  5
148
 10
415.03769
 20
286.412237
 30
0.0
 11
413.378286
 21
288.071641
 31
0.0
  0
LINE
  8
LC-005-005-----0
  6
CONTINUOUS
  5
149
 10
411.082998
 20
290.366929
 30
0.0
 11
409.582998
 21
291.866929
 31
0.0
  0
LINE
  8
LC-005-005-----0
  6
CONTINUOUS
  5
14A
 10
353.582998
 20
347.866929
 30
0.0
 11
351.863572
 21
349.586355
 31
0.0
  0
LINE
  8
LC-005-005-----0
  6
CONTINUOUS
  5
14B
 10
412.705075
 20
285.916425
 30
0.0
 11
409.582998
 21
289.038502
 31
0.0
  0
LINE
  8
LC-005-005-----0
  6
CONTINUOUS
  5
14C
 10
353.582998
 20
345.038502
 30
0.0
 11
352.082998
 21
346.538502
 31
0.0
  0
LINE
  8
LC-005-005-----0
  6
CONTINUOUS
  5
14D
 10
351.496656
 20
347.124844
 30
0.0
 11
349.121287
 21
349.500213
 31
0.0
  0
LINE
  8
LC-005-005-----0
  6
DASHED
  5
14E
 10
418.127546
 20
274.8371
 30
0.0
 11
417.178719
 21
275.785927
 31
0.0
  0
LINE
  8
LC-005-005-----0
  6
DASHED
  5
14F
 10
411.082998
 20
281.881648
 30
0.0
 11
409.582998
 21
283.381648
 31
0.0
  0
LINE
  8
LC-005-005-----0
  6
DASHED
  5
150
 10
353.582998
 20
339.381648
 30
0.0
 11
352.082998
 21
340.881648
 31
0.0
  0
LINE
  8
LC-005-005-----0
  6
DASHED
  5
151
 10
415.839307
 20
274.296912
 30
0.0
 11
414.350291
 21
275.785927
 31
0.0
  0
LINE
  8
LC-005-005-----0
  6
DASHED
  5
152
 10
411.082998
 20
279.053221
 30
0.0
 11
409.582998
 21
280.553221
 31
0.0
  0
LINE
  8
LC-005-005-----0
  6
DASHED
  5
153
 10
353.582998
 20
336.553221
 30
0.0
 11
352.082998
 21
338.053221
 31
0.0
  0
LINE
  8
LC-005-005-----0
  6
CONTINUOUS
  5
154
 10
411.237193
 20
273.242171
 30
0.0
 11
409.582998
 21
274.896366
 31
0.0
  0
LINE
  8
LC-005-005-----0
  6
CONTINUOUS
  5
155
 10
353.582998
 20
330.896366
 30
0.0
 11
352.082998
 21
332.396366
 31
0.0
  0
LINE
  8
LC-005-005-----0
  6
CONTINUOUS
  5
156
 10
349.139127
 20
335.340238
 30
0.0
 11
347.264866
 21
337.214498
 31
0.0
  0
LINE
  8
LC-005-005-----0
  6
CONTINUOUS
  5
157
 10
411.082998
 20
270.567939
 30
0.0
 11
409.582998
 21
272.067939
 31
0.0
  0
LINE
  8
LC-005-005-----0
  6
CONTINUOUS
  5
158
 10
353.582998
 20
328.067939
 30
0.0
 11
352.082998
 21
329.567939
 31
0.0
  0
LINE
  8
LC-005-005-----0
  6
CONTINUOUS
  5
159
 10
345.547215
 20
336.103722
 30
0.0
 11
344.84668
 21
336.804257
 31
0.0
  0
LINE
  8
LC-005-005-----0
  6
DASHED
  5
15A
 10
414.308309
 20
261.685774
 30
0.0
 11
412.49387
 21
263.500213
 31
0.0
  0
LINE
  8
LC-005-005-----0
  6
DASHED
  5
15B
 10
411.082998
 20
264.911085
 30
0.0
 11
409.582998
 21
266.411085
 31
0.0
  0
LINE
  8
LC-005-005-----0
  6
DASHED
  5
15C
 10
353.582998
 20
322.411085
 30
0.0
 11
351.065299
 21
324.928784
 31
0.0
  0
LINE
  8
LC-005-005-----0
  6
DASHED
  5
15D
 10
411.975694
 20
261.189961
 30
0.0
 11
409.582998
 21
263.582658
 31
0.0
  0
LINE
  8
LC-005-005-----0
  6
DASHED
  5
15E
 10
353.582998
 20
319.582658
 30
0.0
 11
352.082998
 21
321.082658
 31
0.0
  0
LINE
  8
LC-005-005-----0
  6
DASHED
  5
15F
 10
350.373508
 20
322.792147
 30
0.0
 11
348.236872
 21
324.928784
 31
0.0
  0
LINE
  8
LC-005-005-----0
  6
CONTINUOUS
  5
160
 10
417.44254
 20
250.066261
 30
0.0
 11
416.294303
 21
251.214498
 31
0.0
  0
LINE
  8
LC-005-005-----0
  6
CONTINUOUS
  5
161
 10
411.082998
 20
256.425804
 30
0.0
 11
409.582998
 21
257.925804
 31
0.0
  0
LINE
  8
LC-005-005-----0
  6
CONTINUOUS
  5
162
 10
353.582998
 20
313.925804
 30
0.0
 11
352.082998
 21
315.425804
 31
0.0
  0
LINE
  8
LC-005-005-----0
  6
CONTINUOUS
  5
163
 10
415.109926
 20
249.570448
 30
0.0
 11
413.465876
 21
251.214498
 31
0.0
  0
LINE
  8
LC-005-005-----0
  6
CONTINUOUS
  5
164
 10
411.082998
 20
253.597376
 30
0.0
 11
409.582998
 21
255.097376
 31
0.0
  0
LINE
  8
LC-005-005-----0
  6
CONTINUOUS
  5
165
 10
353.582998
 20
311.097376
 30
0.0
 11
351.912966
 21
312.767409
 31
0.0
  0
LINE
  8
LC-005-005-----0
  6
DASHED
  5
166
 10
411.082998
 20
247.940522
 30
0.0
 11
409.582998
 21
249.440522
 31
0.0
  0
LINE
  8
LC-005-005-----0
  6
DASHED
  5
167
 10
353.582998
 20
305.440522
 30
0.0
 11
352.082998
 21
306.940522
 31
0.0
  0
LINE
  8
LC-005-005-----0
  6
DASHED
  5
168
 10
348.015979
 20
311.007542
 30
0.0
 11
346.38045
 21
312.64307
 31
0.0
  0
LINE
  8
LC-005-005-----0
  6
DASHED
  5
169
 10
418.174318
 20
238.020775
 30
0.0
 11
417.266309
 21
238.928784
 31
0.0
  0
LINE
  8
LC-005-005-----0
  6
DASHED
  5
16A
 10
411.082998
 20
245.112095
 30
0.0
 11
409.582998
 21
246.612095
 31
0.0
  0
LINE
  8
LC-005-005-----0
  6
DASHED
  5
16B
 10
353.582998
 20
302.612095
 30
0.0
 11
352.082998
 21
304.112095
 31
0.0
  0
LINE
  8
LC-005-005-----0
  6
CONTINUOUS
  5
16C
 10
413.578928
 20
236.959311
 30
0.0
 11
411.609455
 21
238.928784
 31
0.0
  0
LINE
  8
LC-005-005-----0
  6
CONTINUOUS
  5
16D
 10
411.082998
 20
239.455241
 30
0.0
 11
409.582998
 21
240.955241
 31
0.0
  0
LINE
  8
LC-005-005-----0
  6
CONTINUOUS
  5
16E
 10
353.582998
 20
296.955241
 30
0.0
 11
350.180883
 21
300.357356
 31
0.0
  0
LINE
  8
LC-005-005-----0
  6
CONTINUOUS
  5
16F
 10
411.28467
 20
236.425141
 30
0.0
 11
409.582998
 21
238.126814
 31
0.0
  0
LINE
  8
LC-005-005-----0
  6
CONTINUOUS
  5
170
 10
353.582998
 20
294.126814
 30
0.0
 11
352.082998
 21
295.626814
 31
0.0
  0
LINE
  8
LC-005-005-----0
  6
CONTINUOUS
  5
171
 10
349.25036
 20
298.459451
 30
0.0
 11
347.352456
 21
300.357356
 31
0.0
  0
LINE
  8
LC-005-005-----0
  6
DASHED
  5
172
 10
416.71316
 20
225.339798
 30
0.0
 11
415.409887
 21
226.64307
 31
0.0
  0
LINE
  8
LC-005-005-----0
  6
DASHED
  5
173
 10
411.082998
 20
230.969959
 30
0.0
 11
409.582998
 21
232.469959
 31
0.0
  0
LINE
  8
LC-005-005-----0
  6
DASHED
  5
174
 10
353.582998
 20
288.469959
 30
0.0
 11
352.082998
 21
289.969959
 31
0.0
  0
LINE
  8
LC-005-005-----0
  6
DASHED
  5
175
 10
414.380545
 20
224.843985
 30
0.0
 11
412.58146
 21
226.64307
 31
0.0
  0
LINE
  8
LC-005-005-----0
  6
DASHED
  5
176
 10
411.082998
 20
228.141532
 30
0.0
 11
409.582998
 21
229.641532
 31
0.0
  0
LINE
  8
LC-005-005-----0
  6
DASHED
  5
177
 10
353.582998
 20
285.641532
 30
0.0
 11
351.152889
 21
288.071641
 31
0.0
  0
LINE
  8
LC-005-005-----0
  6
CONTINUOUS
  5
178
 10
411.082998
 20
222.484678
 30
0.0
 11
409.582998
 21
223.984678
 31
0.0
  0
LINE
  8
LC-005-005-----0
  6
CONTINUOUS
  5
179
 10
353.582998
 20
279.984678
 30
0.0
 11
352.082998
 21
281.484678
 31
0.0
  0
LINE
  8
LC-005-005-----0
  6
CONTINUOUS
  5
17A
 10
346.89283
 20
286.674845
 30
0.0
 11
345.496035
 21
288.071641
 31
0.0
  0
LINE
  8
LC-005-005-----0
  6
CONTINUOUS
  5
17B
 10
411.082998
 20
219.656251
 30
0.0
 11
409.582998
 21
221.156251
 31
0.0
  0
LINE
  8
LC-005-005-----0
  6
CONTINUOUS
  5
17C
 10
353.582998
 20
277.156251
 30
0.0
 11
352.082998
 21
278.656251
 31
0.0
  0
LINE
  8
LC-005-005-----0
  6
DASHED
  5
17D
 10
408.439325
 20
216.64307
 30
0.0
 11
408.390349
 21
216.692045
 31
0.0
  0
LINE
  8
LC-005-005-----0
  6
DASHED
  5
17E
 10
353.582998
 20
271.499397
 30
0.0
 11
352.063664
 21
273.01873
 31
0.0
  0
LINE
  8
LC-005-005-----0
  6
DASHED
  5
17F
 10
351.720693
 20
273.361701
 30
0.0
 11
349.296468
 21
275.785927
 31
0.0
  0
LINE
  8
LC-005-005-----0
  6
DASHED
  5
180
 10
353.582998
 20
268.67097
 30
0.0
 11
352.082998
 21
270.17097
 31
0.0
  0
LINE
  8
LC-005-005-----0
  6
DASHED
  5
181
 10
348.127212
 20
274.126755
 30
0.0
 11
346.46804
 21
275.785927
 31
0.0
  0
LINE
  8
LC-005-005-----0
  6
CONTINUOUS
  5
182
 10
353.582998
 20
263.014115
 30
0.0
 11
352.082998
 21
264.514115
 31
0.0
  0
LINE
  8
LC-005-005-----0
  6
CONTINUOUS
  5
183
 10
353.582998
 20
260.185688
 30
0.0
 11
350.268473
 21
263.500213
 31
0.0
  0
LINE
  8
LC-005-005-----0
  6
DASHED
  5
184
 10
353.582998
 20
254.528834
 30
0.0
 11
352.082998
 21
256.028834
 31
0.0
  0
LINE
  8
LC-005-005-----0
  6
DASHED
  5
185
 10
345.769682
 20
262.342149
 30
0.0
 11
344.89423
 21
263.217602
 31
0.0
  0
LINE
  8
LC-005-005-----0
  6
DASHED
  5
186
 10
353.582998
 20
251.700407
 30
0.0
 11
352.082998
 21
253.200407
 31
0.0
  0
LINE
  8
LC-005-005-----0
  6
CONTINUOUS
  5
187
 10
353.582998
 20
246.043553
 30
0.0
 11
352.082998
 21
247.543553
 31
0.0
  0
LINE
  8
LC-005-005-----0
  6
CONTINUOUS
  5
188
 10
350.595976
 20
249.030575
 30
0.0
 11
348.412052
 21
251.214498
 31
0.0
  0
LINE
  8
LC-005-005-----0
  6
CONTINUOUS
  5
189
 10
353.582998
 20
243.215125
 30
0.0
 11
352.082998
 21
244.715125
 31
0.0
  0
LINE
  8
LC-005-005-----0
  6
CONTINUOUS
  5
18A
 10
347.004064
 20
249.794059
 30
0.0
 11
345.583625
 21
251.214498
 31
0.0
  0
LINE
  8
LC-005-005-----0
  6
DASHED
  5
18B
 10
353.582998
 20
237.558271
 30
0.0
 11
351.995316
 21
239.145953
 31
0.0
  0
LINE
  8
LC-005-005-----0
  6
DASHED
  5
18C
 10
353.582998
 20
234.729844
 30
0.0
 11
351.956173
 21
236.356669
 31
0.0
  0
LINE
  8
LC-005-005-----0
  6
DASHED
  5
18D
 10
351.915775
 20
236.397067
 30
0.0
 11
349.384058
 21
238.928784
 31
0.0
  0
LINE
  8
LC-005-005-----0
  6
CONTINUOUS
  5
18E
 10
353.582998
 20
229.07299
 30
0.0
 11
352.082998
 21
230.57299
 31
0.0
  0
LINE
  8
LC-005-005-----0
  6
CONTINUOUS
  5
18F
 10
353.582998
 20
226.244563
 30
0.0
 11
352.082998
 21
227.744563
 31
0.0
  0
LINE
  8
LC-005-005-----0
  6
DASHED
  5
190
 10
353.786274
 20
220.384432
 30
0.0
 11
352.082998
 21
222.087708
 31
0.0
  0
LINE
  8
LC-005-005-----0
  6
DASHED
  5
191
 10
349.472828
 20
224.697879
 30
0.0
 11
347.527636
 21
226.64307
 31
0.0
  0
LINE
  8
LC-005-005-----0
  6
DASHED
  5
192
 10
354.699209
 20
216.64307
 30
0.0
 11
352.082998
 21
219.259281
 31
0.0
  0
LINE
  8
LC-005-005-----0
  6
DASHED
  5
193
 10
345.880916
 20
225.461363
 30
0.0
 11
344.927321
 21
226.414958
 31
0.0
  0
ENDBLK
  8
0
  5
194
  0
BLOCK
  8
0
  5
196
  2
BLK2
 70
    64
 10
0.0
 20
0.0
 30
0.0
  3
BLK2
  0
ENDBLK
  8
0
  5
197
  0
BLOCK
  8
0
  5
199
  2
*D5
 70
    65
 10
0.0
 20
0.0
 30
0.0
  3
*D5
  0
LINE
  8
LC-007-003-MTH-0
  6
CONTINUOUS
  5
19B
 10
344.832998
 20
226.113192
 30
0.0
 11
344.832998
 21
100.8
 31
0.0
  0
LINE
  8
LC-007-003-MTH-0
  6
CONTINUOUS
  5
19C
 10
418.332998
 20
226.113192
 30
0.0
 11
418.332998
 21
100.8
 31
0.0
  0
LINE
  8
LC-006-003-----0
  6
CONTINUOUS
  5
19E
 10
317.072542
 20
113.945267
 30
0.0
 11
344.832998
 21
117.6
 31
0.0
  0
LINE
  8
LC-006-003-----0
  6
CONTINUOUS
  5
19F
 10
344.832998
 20
117.6
 30
0.0
 11
317.072542
 21
121.254733
 31
0.0
  0
LINE
  8
LC-006-003-----0
  6
CONTINUOUS
  5
1A0
 10
317.072542
 20
121.254733
 30
0.0
 11
317.072542
 21
113.945267
 31
0.0
  0
LINE
  8
LC-006-003-----0
  6
CONTINUOUS
  5
1A1
 10
317.01026
 20
114.895497
 30
0.0
 11
337.552998
 21
117.6
 31
0.0
  0
LINE
  8
LC-006-003-----0
  6
CONTINUOUS
  5
1A2
 10
337.552998
 20
117.6
 30
0.0
 11
317.01026
 21
120.304503
 31
0.0
  0
LINE
  8
LC-006-003-----0
  6
CONTINUOUS
  5
1A3
 10
316.947979
 20
115.845728
 30
0.0
 11
330.272998
 21
117.6
 31
0.0
  0
LINE
  8
LC-006-003-----0
  6
CONTINUOUS
  5
1A4
 10
330.272998
 20
117.6
 30
0.0
 11
316.947979
 21
119.354272
 31
0.0
  0
LINE
  8
LC-006-003-----0
  6
CONTINUOUS
  5
1A5
 10
316.885698
 20
116.795959
 30
0.0
 11
322.992998
 21
117.6
 31
0.0
  0
LINE
  8
LC-006-003-----0
  6
CONTINUOUS
  5
1A6
 10
322.992998
 20
117.6
 30
0.0
 11
316.885698
 21
118.404041
 31
0.0
  0
LINE
  8
LC-006-003-----0
  6
CONTINUOUS
  5
1A7
 10
446.093454
 20
121.254733
 30
0.0
 11
418.332998
 21
117.6
 31
0.0
  0
LINE
  8
LC-006-003-----0
  6
CONTINUOUS
  5
1A8
 10
418.332998
 20
117.6
 30
0.0
 11
446.093454
 21
113.945267
 31
0.0
  0
LINE
  8
LC-006-003-----0
  6
CONTINUOUS
  5
1A9
 10
446.093454
 20
113.945267
 30
0.0
 11
446.093454
 21
121.254733
 31
0.0
  0
LINE
  8
LC-006-003-----0
  6
CONTINUOUS
  5
1AA
 10
446.155735
 20
120.304503
 30
0.0
 11
425.612998
 21
117.6
 31
0.0
  0
LINE
  8
LC-006-003-----0
  6
CONTINUOUS
  5
1AB
 10
425.612998
 20
117.6
 30
0.0
 11
446.155735
 21
114.895497
 31
0.0
  0
LINE
  8
LC-006-003-----0
  6
CONTINUOUS
  5
1AC
 10
446.218017
 20
119.354272
 30
0.0
 11
432.892998
 21
117.6
 31
0.0
  0
LINE
  8
LC-006-003-----0
  6
CONTINUOUS
  5
1AD
 10
432.892998
 20
117.6
 30
0.0
 11
446.218017
 21
115.845728
 31
0.0
  0
LINE
  8
LC-006-003-----0
  6
CONTINUOUS
  5
1AE
 10
446.280298
 20
118.404041
 30
0.0
 11
440.172998
 21
117.6
 31
0.0
  0
LINE
  8
LC-006-003-----0
  6
CONTINUOUS
  5
1AF
 10
440.172998
 20
117.6
 30
0.0
 11
446.280298
 21
116.795959
 31
0.0
  0
LINE
  8
LC-008-003-MTG-0
  6
CONTINUOUS
  5
1B1
 10
305.632998
 20
117.6
 30
0.0
 11
540.825531
 21
117.6
 31
0.0
  0
TEXT
  8
LC-006-003-----0
  6
CONTINUOUS
 62
     8
  5
1B2
 10
459.641158
 20
125.427554
 30
0.0
 40
28.0
  1
Ø73,5
 41
0.8
 51
15.0
  7
LC-TXTSTYLE-150-400-0-0-A0
  0
ENDBLK
  8
0
  5
1B3
  0
BLOCK
  8
0
  5
1B5
  2
*D6
 70
    65
 10
0.0
 20
0.0
 30
0.0
  3
*D6
  0
LINE
  8
LC-007-003-MTH-0
  6
CONTINUOUS
  5
1B6
 10
352.082998
 20
216.64307
 30
0.0
 11
352.082998
 21
140.0
 31
0.0
  0
LINE
  8
LC-007-003-MTH-0
  6
CONTINUOUS
  5
1B7
 10
411.082998
 20
216.64307
 30
0.0
 11
411.082998
 21
140.0
 31
0.0
  0
LINE
  8
LC-006-003-----0
  6
CONTINUOUS
  5
1B8
 10
324.322542
 20
153.145267
 30
0.0
 11
352.082998
 21
156.8
 31
0.0
  0
LINE
  8
LC-006-003-----0
  6
CONTINUOUS
  5
1B9
 10
352.082998
 20
156.8
 30
0.0
 11
324.322542
 21
160.454733
 31
0.0
  0
LINE
  8
LC-006-003-----0
  6
CONTINUOUS
  5
1BA
 10
324.322542
 20
160.454733
 30
0.0
 11
324.322542
 21
153.145267
 31
0.0
  0
LINE
  8
LC-006-003-----0
  6
CONTINUOUS
  5
1BB
 10
324.26026
 20
154.095497
 30
0.0
 11
344.802998
 21
156.8
 31
0.0
  0
LINE
  8
LC-006-003-----0
  6
CONTINUOUS
  5
1BC
 10
344.802998
 20
156.8
 30
0.0
 11
324.26026
 21
159.504503
 31
0.0
  0
LINE
  8
LC-006-003-----0
  6
CONTINUOUS
  5
1BD
 10
324.197979
 20
155.045728
 30
0.0
 11
337.522998
 21
156.8
 31
0.0
  0
LINE
  8
LC-006-003-----0
  6
CONTINUOUS
  5
1BE
 10
337.522998
 20
156.8
 30
0.0
 11
324.197979
 21
158.554272
 31
0.0
  0
LINE
  8
LC-006-003-----0
  6
CONTINUOUS
  5
1BF
 10
324.135698
 20
155.995959
 30
0.0
 11
330.242998
 21
156.8
 31
0.0
  0
LINE
  8
LC-006-003-----0
  6
CONTINUOUS
  5
1C0
 10
330.242998
 20
156.8
 30
0.0
 11
324.135698
 21
157.604041
 31
0.0
  0
LINE
  8
LC-006-003-----0
  6
CONTINUOUS
  5
1C1
 10
438.843454
 20
160.454733
 30
0.0
 11
411.082998
 21
156.8
 31
0.0
  0
LINE
  8
LC-006-003-----0
  6
CONTINUOUS
  5
1C2
 10
411.082998
 20
156.8
 30
0.0
 11
438.843454
 21
153.145267
 31
0.0
  0
LINE
  8
LC-006-003-----0
  6
CONTINUOUS
  5
1C3
 10
438.843454
 20
153.145267
 30
0.0
 11
438.843454
 21
160.454733
 31
0.0
  0
LINE
  8
LC-006-003-----0
  6
CONTINUOUS
  5
1C4
 10
438.905735
 20
159.504503
 30
0.0
 11
418.362998
 21
156.8
 31
0.0
  0
LINE
  8
LC-006-003-----0
  6
CONTINUOUS
  5
1C5
 10
418.362998
 20
156.8
 30
0.0
 11
438.905735
 21
154.095497
 31
0.0
  0
LINE
  8
LC-006-003-----0
  6
CONTINUOUS
  5
1C6
 10
438.968017
 20
158.554272
 30
0.0
 11
425.642998
 21
156.8
 31
0.0
  0
LINE
  8
LC-006-003-----0
  6
CONTINUOUS
  5
1C7
 10
425.642998
 20
156.8
 30
0.0
 11
438.968017
 21
155.045728
 31
0.0
  0
LINE
  8
LC-006-003-----0
  6
CONTINUOUS
  5
1C8
 10
439.030298
 20
157.604041
 30
0.0
 11
432.922998
 21
156.8
 31
0.0
  0
LINE
  8
LC-006-003-----0
  6
CONTINUOUS
  5
1C9
 10
432.922998
 20
156.8
 30
0.0
 11
439.030298
 21
155.995959
 31
0.0
  0
LINE
  8
LC-008-003-MTG-0
  6
CONTINUOUS
  5
1CA
 10
312.882998
 20
156.8
 30
0.0
 11
510.105931
 21
156.8
 31
0.0
  0
TEXT
  8
LC-006-003-----0
  6
CONTINUOUS
 62
     8
  5
1CB
 10
452.391158
 20
164.627554
 30
0.0
 40
28.0
  1
Ø59
 41
0.8
 51
15.0
  7
LC-TXTSTYLE-150-400-0-0-A0
  0
ENDBLK
  8
0
  5
1CC
  0
BLOCK
  8
0
  5
1CE
  2
*D7
 70
    65
 10
0.0
 20
0.0
 30
0.0
  3
*D7
  0
LINE
  8
LC-007-003-MTH-0
  6
CONTINUOUS
  5
1CF
 10
406.582998
 20
216.64307
 30
0.0
 11
487.2
 21
216.64307
 31
0.0
  0
LINE
  8
LC-007-003-MTH-0
  6
CONTINUOUS
  5
1D0
 10
417.80312
 20
398.64307
 30
0.0
 11
487.2
 21
398.64307
 31
0.0
  0
LINE
  8
LC-008-003-MTG-0
  6
CONTINUOUS
  5
1D1
 10
470.4
 20
216.64307
 30
0.0
 11
470.4
 21
398.64307
 31
0.0
  0
LINE
  8
LC-006-003-----0
  6
CONTINUOUS
  5
1D2
 10
466.745267
 20
244.403526
 30
0.0
 11
470.4
 21
216.64307
 31
0.0
  0
LINE
  8
LC-006-003-----0
  6
CONTINUOUS
  5
1D3
 10
470.4
 20
216.64307
 30
0.0
 11
474.054733
 21
244.403526
 31
0.0
  0
LINE
  8
LC-006-003-----0
  6
CONTINUOUS
  5
1D4
 10
474.054733
 20
244.403526
 30
0.0
 11
466.745267
 21
244.403526
 31
0.0
  0
LINE
  8
LC-006-003-----0
  6
CONTINUOUS
  5
1D5
 10
467.695497
 20
244.465807
 30
0.0
 11
470.4
 21
223.92307
 31
0.0
  0
LINE
  8
LC-006-003-----0
  6
CONTINUOUS
  5
1D6
 10
470.4
 20
223.92307
 30
0.0
 11
473.104503
 21
244.465807
 31
0.0
  0
LINE
  8
LC-006-003-----0
  6
CONTINUOUS
  5
1D7
 10
468.645728
 20
244.528089
 30
0.0
 11
470.4
 21
231.20307
 31
0.0
  0
LINE
  8
LC-006-003-----0
  6
CONTINUOUS
  5
1D8
 10
470.4
 20
231.20307
 30
0.0
 11
472.154272
 21
244.528089
 31
0.0
  0
LINE
  8
LC-006-003-----0
  6
CONTINUOUS
  5
1D9
 10
469.595959
 20
244.59037
 30
0.0
 11
470.4
 21
238.48307
 31
0.0
  0
LINE
  8
LC-006-003-----0
  6
CONTINUOUS
  5
1DA
 10
470.4
 20
238.48307
 30
0.0
 11
471.204041
 21
244.59037
 31
0.0
  0
LINE
  8
LC-006-003-----0
  6
CONTINUOUS
  5
1DB
 10
474.054733
 20
370.882614
 30
0.0
 11
470.4
 21
398.64307
 31
0.0
  0
LINE
  8
LC-006-003-----0
  6
CONTINUOUS
  5
1DC
 10
470.4
 20
398.64307
 30
0.0
 11
466.745267
 21
370.882614
 31
0.0
  0
LINE
  8
LC-006-003-----0
  6
CONTINUOUS
  5
1DD
 10
466.745267
 20
370.882614
 30
0.0
 11
474.054733
 21
370.882614
 31
0.0
  0
LINE
  8
LC-006-003-----0
  6
CONTINUOUS
  5
1DE
 10
473.104503
 20
370.820332
 30
0.0
 11
470.4
 21
391.36307
 31
0.0
  0
LINE
  8
LC-006-003-----0
  6
CONTINUOUS
  5
1DF
 10
470.4
 20
391.36307
 30
0.0
 11
467.695497
 21
370.820332
 31
0.0
  0
LINE
  8
LC-006-003-----0
  6
CONTINUOUS
  5
1E0
 10
472.154272
 20
370.758051
 30
0.0
 11
470.4
 21
384.08307
 31
0.0
  0
LINE
  8
LC-006-003-----0
  6
CONTINUOUS
  5
1E1
 10
470.4
 20
384.08307
 30
0.0
 11
468.645728
 21
370.758051
 31
0.0
  0
LINE
  8
LC-006-003-----0
  6
CONTINUOUS
  5
1E2
 10
471.204041
 20
370.69577
 30
0.0
 11
470.4
 21
376.80307
 31
0.0
  0
LINE
  8
LC-006-003-----0
  6
CONTINUOUS
  5
1E3
 10
470.4
 20
376.80307
 30
0.0
 11
469.595959
 21
370.69577
 31
0.0
  0
TEXT
  8
LC-006-003-----0
  6
CONTINUOUS
 62
     8
  5
1E4
 10
462.572446
 20
288.52163
 30
0.0
 40
28.0
  1
182
 50
90.0
 41
0.8
 51
15.0
  7
LC-TXTSTYLE-150-400-0-0-A0
 72
     1
 11
462.572446
 21
311.99123
 31
0.0
  0
ENDBLK
  8
0
  5
1E5
  0
BLOCK
  8
0
  5
1E7
  2
BLK3
 70
    64
 10
0.0
 20
0.0
 30
0.0
  3
BLK3
  0
ENDBLK
  8
0
  5
1E8
  0
BLOCK
  8
0
  5
1EA
  2
*X9
 70
    65
 10
181.582998
 20
434.489902
 30
0.0
  3
*X9
  0
LINE
  8
LC-005-005-----0
  6
CONTINUOUS
  5
1EB
 10
183.608416
 20
434.489902
 30
0.0
 11
183.832508
 21
434.713994
 31
0.0
  0
LINE
  8
LC-005-005-----0
  6
CONTINUOUS
  5
1EC
 10
183.325573
 20
434.489902
 30
0.0
 11
183.832508
 21
434.996837
 31
0.0
  0
LINE
  8
LC-005-005-----0
  6
CONTINUOUS
  5
1ED
 10
183.042731
 20
434.489902
 30
0.0
 11
183.832508
 21
435.27968
 31
0.0
  0
LINE
  8
LC-005-005-----0
  6
CONTINUOUS
  5
1EE
 10
182.759888
 20
434.489902
 30
0.0
 11
183.832508
 21
435.562523
 31
0.0
  0
LINE
  8
LC-005-005-----0
  6
CONTINUOUS
  5
1EF
 10
182.477045
 20
434.489902
 30
0.0
 11
183.832508
 21
435.845365
 31
0.0
  0
LINE
  8
LC-005-005-----0
  6
CONTINUOUS
  5
1F0
 10
182.194203
 20
434.489902
 30
0.0
 11
183.832508
 21
436.128208
 31
0.0
  0
LINE
  8
LC-005-005-----0
  6
CONTINUOUS
  5
1F1
 10
181.91136
 20
434.489902
 30
0.0
 11
183.832508
 21
436.411051
 31
0.0
  0
LINE
  8
LC-005-005-----0
  6
CONTINUOUS
  5
1F2
 10
181.628517
 20
434.489902
 30
0.0
 11
183.832508
 21
436.693893
 31
0.0
  0
LINE
  8
LC-005-005-----0
  6
CONTINUOUS
  5
1F3
 10
181.582998
 20
434.727226
 30
0.0
 11
183.832508
 21
436.976736
 31
0.0
  0
LINE
  8
LC-005-005-----0
  6
CONTINUOUS
  5
1F4
 10
181.582998
 20
435.010068
 30
0.0
 11
183.832508
 21
437.259579
 31
0.0
  0
LINE
  8
LC-005-005-----0
  6
CONTINUOUS
  5
1F5
 10
181.582998
 20
435.292911
 30
0.0
 11
183.779989
 21
437.489902
 31
0.0
  0
LINE
  8
LC-005-005-----0
  6
CONTINUOUS
  5
1F6
 10
181.582998
 20
435.575754
 30
0.0
 11
183.497146
 21
437.489902
 31
0.0
  0
LINE
  8
LC-005-005-----0
  6
CONTINUOUS
  5
1F7
 10
181.582998
 20
435.858596
 30
0.0
 11
183.214304
 21
437.489902
 31
0.0
  0
LINE
  8
LC-005-005-----0
  6
CONTINUOUS
  5
1F8
 10
181.582998
 20
436.141439
 30
0.0
 11
182.931461
 21
437.489902
 31
0.0
  0
LINE
  8
LC-005-005-----0
  6
CONTINUOUS
  5
1F9
 10
181.582998
 20
436.424282
 30
0.0
 11
182.648618
 21
437.489902
 31
0.0
  0
LINE
  8
LC-005-005-----0
  6
CONTINUOUS
  5
1FA
 10
181.582998
 20
436.707125
 30
0.0
 11
182.365775
 21
437.489902
 31
0.0
  0
LINE
  8
LC-005-005-----0
  6
CONTINUOUS
  5
1FB
 10
181.582998
 20
436.989967
 30
0.0
 11
182.082933
 21
437.489902
 31
0.0
  0
LINE
  8
LC-005-005-----0
  6
CONTINUOUS
  5
1FC
 10
181.582998
 20
437.27281
 30
0.0
 11
181.80009
 21
437.489902
 31
0.0
  0
ENDBLK
  8
0
  5
1FD
  0
BLOCK
  8
0
  5
1FF
  2
*X10
 70
    65
 10
188.832508
 20
434.489902
 30
0.0
  3
*X10
  0
LINE
  8
LC-005-005-----0
  6
CONTINUOUS
  5
200
 10
193.790754
 20
434.489902
 30
0.0
 11
193.832508
 21
434.531657
 31
0.0
  0
LINE
  8
LC-005-005-----0
  6
CONTINUOUS
  5
201
 10
193.507911
 20
434.489902
 30
0.0
 11
193.832508
 21
434.8145
 31
0.0
  0
LINE
  8
LC-005-005-----0
  6
CONTINUOUS
  5
202
 10
193.225068
 20
434.489902
 30
0.0
 11
193.832508
 21
435.097342
 31
0.0
  0
LINE
  8
LC-005-005-----0
  6
CONTINUOUS
  5
203
 10
192.942226
 20
434.489902
 30
0.0
 11
193.832508
 21
435.380185
 31
0.0
  0
LINE
  8
LC-005-005-----0
  6
CONTINUOUS
  5
204
 10
192.659383
 20
434.489902
 30
0.0
 11
193.832508
 21
435.663028
 31
0.0
  0
LINE
  8
LC-005-005-----0
  6
CONTINUOUS
  5
205
 10
192.37654
 20
434.489902
 30
0.0
 11
193.832508
 21
435.94587
 31
0.0
  0
LINE
  8
LC-005-005-----0
  6
CONTINUOUS
  5
206
 10
192.093698
 20
434.489902
 30
0.0
 11
193.832508
 21
436.228713
 31
0.0
  0
LINE
  8
LC-005-005-----0
  6
CONTINUOUS
  5
207
 10
191.810855
 20
434.489902
 30
0.0
 11
193.832508
 21
436.511556
 31
0.0
  0
LINE
  8
LC-005-005-----0
  6
CONTINUOUS
  5
208
 10
191.528012
 20
434.489902
 30
0.0
 11
193.832508
 21
436.794398
 31
0.0
  0
LINE
  8
LC-005-005-----0
  6
CONTINUOUS
  5
209
 10
191.245169
 20
434.489902
 30
0.0
 11
193.832508
 21
437.077241
 31
0.0
  0
LINE
  8
LC-005-005-----0
  6
CONTINUOUS
  5
20A
 10
190.962327
 20
434.489902
 30
0.0
 11
193.832508
 21
437.360084
 31
0.0
  0
LINE
  8
LC-005-005-----0
  6
CONTINUOUS
  5
20B
 10
190.679484
 20
434.489902
 30
0.0
 11
193.679484
 21
437.489902
 31
0.0
  0
LINE
  8
LC-005-005-----0
  6
CONTINUOUS
  5
20C
 10
190.396641
 20
434.489902
 30
0.0
 11
193.396641
 21
437.489902
 31
0.0
  0
LINE
  8
LC-005-005-----0
  6
CONTINUOUS
  5
20D
 10
190.113799
 20
434.489902
 30
0.0
 11
193.113799
 21
437.489902
 31
0.0
  0
LINE
  8
LC-005-005-----0
  6
CONTINUOUS
  5
20E
 10
189.830956
 20
434.489902
 30
0.0
 11
192.830956
 21
437.489902
 31
0.0
  0
LINE
  8
LC-005-005-----0
  6
CONTINUOUS
  5
20F
 10
189.548113
 20
434.489902
 30
0.0
 11
192.548113
 21
437.489902
 31
0.0
  0
LINE
  8
LC-005-005-----0
  6
CONTINUOUS
  5
210
 10
189.26527
 20
434.489902
 30
0.0
 11
192.26527
 21
437.489902
 31
0.0
  0
LINE
  8
LC-005-005-----0
  6
CONTINUOUS
  5
211
 10
188.982428
 20
434.489902
 30
0.0
 11
191.982428
 21
437.489902
 31
0.0
  0
LINE
  8
LC-005-005-----0
  6
CONTINUOUS
  5
212
 10
188.832508
 20
434.622826
 30
0.0
 11
191.699585
 21
437.489902
 31
0.0
  0
LINE
  8
LC-005-005-----0
  6
CONTINUOUS
  5
213
 10
188.832508
 20
434.905668
 30
0.0
 11
191.416742
 21
437.489902
 31
0.0
  0
LINE
  8
LC-005-005-----0
  6
CONTINUOUS
  5
214
 10
188.832508
 20
435.188511
 30
0.0
 11
191.1339
 21
437.489902
 31
0.0
  0
LINE
  8
LC-005-005-----0
  6
CONTINUOUS
  5
215
 10
188.832508
 20
435.471354
 30
0.0
 11
190.851057
 21
437.489902
 31
0.0
  0
LINE
  8
LC-005-005-----0
  6
CONTINUOUS
  5
216
 10
188.832508
 20
435.754196
 30
0.0
 11
190.568214
 21
437.489902
 31
0.0
  0
LINE
  8
LC-005-005-----0
  6
CONTINUOUS
  5
217
 10
188.832508
 20
436.037039
 30
0.0
 11
190.285371
 21
437.489902
 31
0.0
  0
LINE
  8
LC-005-005-----0
  6
CONTINUOUS
  5
218
 10
188.832508
 20
436.319882
 30
0.0
 11
190.002529
 21
437.489902
 31
0.0
  0
LINE
  8
LC-005-005-----0
  6
CONTINUOUS
  5
219
 10
188.832508
 20
436.602725
 30
0.0
 11
189.719686
 21
437.489902
 31
0.0
  0
LINE
  8
LC-005-005-----0
  6
CONTINUOUS
  5
21A
 10
188.832508
 20
436.885567
 30
0.0
 11
189.436843
 21
437.489902
 31
0.0
  0
LINE
  8
LC-005-005-----0
  6
CONTINUOUS
  5
21B
 10
188.832508
 20
437.16841
 30
0.0
 11
189.154001
 21
437.489902
 31
0.0
  0
LINE
  8
LC-005-005-----0
  6
CONTINUOUS
  5
21C
 10
188.832508
 20
437.451253
 30
0.0
 11
188.871158
 21
437.489902
 31
0.0
  0
ENDBLK
  8
0
  5
21D
  0
BLOCK
  8
0
  5
21F
  2
*X11
 70
    65
 10
198.832508
 20
434.489902
 30
0.0
  3
*X11
  0
LINE
  8
LC-005-005-----0
  6
CONTINUOUS
  5
220
 10
203.690249
 20
434.489902
 30
0.0
 11
203.832508
 21
434.632162
 31
0.0
  0
LINE
  8
LC-005-005-----0
  6
CONTINUOUS
  5
221
 10
203.407406
 20
434.489902
 30
0.0
 11
203.832508
 21
434.915005
 31
0.0
  0
LINE
  8
LC-005-005-----0
  6
CONTINUOUS
  5
222
 10
203.124563
 20
434.489902
 30
0.0
 11
203.832508
 21
435.197847
 31
0.0
  0
LINE
  8
LC-005-005-----0
  6
CONTINUOUS
  5
223
 10
202.841721
 20
434.489902
 30
0.0
 11
203.832508
 21
435.48069
 31
0.0
  0
LINE
  8
LC-005-005-----0
  6
CONTINUOUS
  5
224
 10
202.558878
 20
434.489902
 30
0.0
 11
203.832508
 21
435.763533
 31
0.0
  0
LINE
  8
LC-005-005-----0
  6
CONTINUOUS
  5
225
 10
202.276035
 20
434.489902
 30
0.0
 11
203.832508
 21
436.046375
 31
0.0
  0
LINE
  8
LC-005-005-----0
  6
CONTINUOUS
  5
226
 10
201.993192
 20
434.489902
 30
0.0
 11
203.832508
 21
436.329218
 31
0.0
  0
LINE
  8
LC-005-005-----0
  6
CONTINUOUS
  5
227
 10
201.71035
 20
434.489902
 30
0.0
 11
203.832508
 21
436.612061
 31
0.0
  0
LINE
  8
LC-005-005-----0
  6
CONTINUOUS
  5
228
 10
201.427507
 20
434.489902
 30
0.0
 11
203.832508
 21
436.894904
 31
0.0
  0
LINE
  8
LC-005-005-----0
  6
CONTINUOUS
  5
229
 10
201.144664
 20
434.489902
 30
0.0
 11
203.832508
 21
437.177746
 31
0.0
  0
LINE
  8
LC-005-005-----0
  6
CONTINUOUS
  5
22A
 10
200.861822
 20
434.489902
 30
0.0
 11
203.832508
 21
437.460589
 31
0.0
  0
LINE
  8
LC-005-005-----0
  6
CONTINUOUS
  5
22B
 10
200.578979
 20
434.489902
 30
0.0
 11
203.578979
 21
437.489902
 31
0.0
  0
LINE
  8
LC-005-005-----0
  6
CONTINUOUS
  5
22C
 10
200.296136
 20
434.489902
 30
0.0
 11
203.296136
 21
437.489902
 31
0.0
  0
LINE
  8
LC-005-005-----0
  6
CONTINUOUS
  5
22D
 10
200.013293
 20
434.489902
 30
0.0
 11
203.013293
 21
437.489902
 31
0.0
  0
LINE
  8
LC-005-005-----0
  6
CONTINUOUS
  5
22E
 10
199.730451
 20
434.489902
 30
0.0
 11
202.730451
 21
437.489902
 31
0.0
  0
LINE
  8
LC-005-005-----0
  6
CONTINUOUS
  5
22F
 10
199.447608
 20
434.489902
 30
0.0
 11
202.447608
 21
437.489902
 31
0.0
  0
LINE
  8
LC-005-005-----0
  6
CONTINUOUS
  5
230
 10
199.164765
 20
434.489902
 30
0.0
 11
202.164765
 21
437.489902
 31
0.0
  0
LINE
  8
LC-005-005-----0
  6
CONTINUOUS
  5
231
 10
198.881923
 20
434.489902
 30
0.0
 11
201.881923
 21
437.489902
 31
0.0
  0
LINE
  8
LC-005-005-----0
  6
CONTINUOUS
  5
232
 10
198.832508
 20
434.723331
 30
0.0
 11
201.59908
 21
437.489902
 31
0.0
  0
LINE
  8
LC-005-005-----0
  6
CONTINUOUS
  5
233
 10
198.832508
 20
435.006173
 30
0.0
 11
201.316237
 21
437.489902
 31
0.0
  0
LINE
  8
LC-005-005-----0
  6
CONTINUOUS
  5
234
 10
198.832508
 20
435.289016
 30
0.0
 11
201.033394
 21
437.489902
 31
0.0
  0
LINE
  8
LC-005-005-----0
  6
CONTINUOUS
  5
235
 10
198.832508
 20
435.571859
 30
0.0
 11
200.750552
 21
437.489902
 31
0.0
  0
LINE
  8
LC-005-005-----0
  6
CONTINUOUS
  5
236
 10
198.832508
 20
435.854702
 30
0.0
 11
200.467709
 21
437.489902
 31
0.0
  0
LINE
  8
LC-005-005-----0
  6
CONTINUOUS
  5
237
 10
198.832508
 20
436.137544
 30
0.0
 11
200.184866
 21
437.489902
 31
0.0
  0
LINE
  8
LC-005-005-----0
  6
CONTINUOUS
  5
238
 10
198.832508
 20
436.420387
 30
0.0
 11
199.902024
 21
437.489902
 31
0.0
  0
LINE
  8
LC-005-005-----0
  6
CONTINUOUS
  5
239
 10
198.832508
 20
436.70323
 30
0.0
 11
199.619181
 21
437.489902
 31
0.0
  0
LINE
  8
LC-005-005-----0
  6
CONTINUOUS
  5
23A
 10
198.832508
 20
436.986072
 30
0.0
 11
199.336338
 21
437.489902
 31
0.0
  0
LINE
  8
LC-005-005-----0
  6
CONTINUOUS
  5
23B
 10
198.832508
 20
437.268915
 30
0.0
 11
199.053496
 21
437.489902
 31
0.0
  0
ENDBLK
  8
0
  5
23C
  0
BLOCK
  8
0
  5
23E
  2
*X12
 70
    65
 10
208.832508
 20
434.489902
 30
0.0
  3
*X12
  0
LINE
  8
LC-005-005-----0
  6
CONTINUOUS
  5
23F
 10
213.589744
 20
434.489902
 30
0.0
 11
213.832508
 21
434.732667
 31
0.0
  0
LINE
  8
LC-005-005-----0
  6
CONTINUOUS
  5
240
 10
213.306901
 20
434.489902
 30
0.0
 11
213.832508
 21
435.01551
 31
0.0
  0
LINE
  8
LC-005-005-----0
  6
CONTINUOUS
  5
241
 10
213.024058
 20
434.489902
 30
0.0
 11
213.832508
 21
435.298352
 31
0.0
  0
LINE
  8
LC-005-005-----0
  6
CONTINUOUS
  5
242
 10
212.741216
 20
434.489902
 30
0.0
 11
213.832508
 21
435.581195
 31
0.0
  0
LINE
  8
LC-005-005-----0
  6
CONTINUOUS
  5
243
 10
212.458373
 20
434.489902
 30
0.0
 11
213.832508
 21
435.864038
 31
0.0
  0
LINE
  8
LC-005-005-----0
  6
CONTINUOUS
  5
244
 10
212.17553
 20
434.489902
 30
0.0
 11
213.832508
 21
436.14688
 31
0.0
  0
LINE
  8
LC-005-005-----0
  6
CONTINUOUS
  5
245
 10
211.892687
 20
434.489902
 30
0.0
 11
213.832508
 21
436.429723
 31
0.0
  0
LINE
  8
LC-005-005-----0
  6
CONTINUOUS
  5
246
 10
211.609845
 20
434.489902
 30
0.0
 11
213.832508
 21
436.712566
 31
0.0
  0
LINE
  8
LC-005-005-----0
  6
CONTINUOUS
  5
247
 10
211.327002
 20
434.489902
 30
0.0
 11
213.832508
 21
436.995409
 31
0.0
  0
LINE
  8
LC-005-005-----0
  6
CONTINUOUS
  5
248
 10
211.044159
 20
434.489902
 30
0.0
 11
213.832508
 21
437.278251
 31
0.0
  0
LINE
  8
LC-005-005-----0
  6
CONTINUOUS
  5
249
 10
210.761317
 20
434.489902
 30
0.0
 11
213.761317
 21
437.489902
 31
0.0
  0
LINE
  8
LC-005-005-----0
  6
CONTINUOUS
  5
24A
 10
210.478474
 20
434.489902
 30
0.0
 11
213.478474
 21
437.489902
 31
0.0
  0
LINE
  8
LC-005-005-----0
  6
CONTINUOUS
  5
24B
 10
210.195631
 20
434.489902
 30
0.0
 11
213.195631
 21
437.489902
 31
0.0
  0
LINE
  8
LC-005-005-----0
  6
CONTINUOUS
  5
24C
 10
209.912788
 20
434.489902
 30
0.0
 11
212.912788
 21
437.489902
 31
0.0
  0
LINE
  8
LC-005-005-----0
  6
CONTINUOUS
  5
24D
 10
209.629946
 20
434.489902
 30
0.0
 11
212.629946
 21
437.489902
 31
0.0
  0
LINE
  8
LC-005-005-----0
  6
CONTINUOUS
  5
24E
 10
209.347103
 20
434.489902
 30
0.0
 11
212.347103
 21
437.489902
 31
0.0
  0
LINE
  8
LC-005-005-----0
  6
CONTINUOUS
  5
24F
 10
209.06426
 20
434.489902
 30
0.0
 11
212.06426
 21
437.489902
 31
0.0
  0
LINE
  8
LC-005-005-----0
  6
CONTINUOUS
  5
250
 10
208.832508
 20
434.540993
 30
0.0
 11
211.781418
 21
437.489902
 31
0.0
  0
LINE
  8
LC-005-005-----0
  6
CONTINUOUS
  5
251
 10
208.832508
 20
434.823836
 30
0.0
 11
211.498575
 21
437.489902
 31
0.0
  0
LINE
  8
LC-005-005-----0
  6
CONTINUOUS
  5
252
 10
208.832508
 20
435.106678
 30
0.0
 11
211.215732
 21
437.489902
 31
0.0
  0
LINE
  8
LC-005-005-----0
  6
CONTINUOUS
  5
253
 10
208.832508
 20
435.389521
 30
0.0
 11
210.932889
 21
437.489902
 31
0.0
  0
LINE
  8
LC-005-005-----0
  6
CONTINUOUS
  5
254
 10
208.832508
 20
435.672364
 30
0.0
 11
210.650047
 21
437.489902
 31
0.0
  0
LINE
  8
LC-005-005-----0
  6
CONTINUOUS
  5
255
 10
208.832508
 20
435.955207
 30
0.0
 11
210.367204
 21
437.489902
 31
0.0
  0
LINE
  8
LC-005-005-----0
  6
CONTINUOUS
  5
256
 10
208.832508
 20
436.238049
 30
0.0
 11
210.084361
 21
437.489902
 31
0.0
  0
LINE
  8
LC-005-005-----0
  6
CONTINUOUS
  5
257
 10
208.832508
 20
436.520892
 30
0.0
 11
209.801519
 21
437.489902
 31
0.0
  0
LINE
  8
LC-005-005-----0
  6
CONTINUOUS
  5
258
 10
208.832508
 20
436.803735
 30
0.0
 11
209.518676
 21
437.489902
 31
0.0
  0
LINE
  8
LC-005-005-----0
  6
CONTINUOUS
  5
259
 10
208.832508
 20
437.086577
 30
0.0
 11
209.235833
 21
437.489902
 31
0.0
  0
LINE
  8
LC-005-005-----0
  6
CONTINUOUS
  5
25A
 10
208.832508
 20
437.36942
 30
0.0
 11
208.95299
 21
437.489902
 31
0.0
  0
ENDBLK
  8
0
  5
25B
  0
BLOCK
  8
0
  5
25D
  2
*X13
 70
    65
 10
218.832508
 20
434.489902
 30
0.0
  3
*X13
  0
LINE
  8
LC-005-005-----0
  6
CONTINUOUS
  5
25E
 10
223.772081
 20
434.489902
 30
0.0
 11
223.832508
 21
434.550329
 31
0.0
  0
LINE
  8
LC-005-005-----0
  6
CONTINUOUS
  5
25F
 10
223.489239
 20
434.489902
 30
0.0
 11
223.832508
 21
434.833172
 31
0.0
  0
LINE
  8
LC-005-005-----0
  6
CONTINUOUS
  5
260
 10
223.206396
 20
434.489902
 30
0.0
 11
223.832508
 21
435.116015
 31
0.0
  0
LINE
  8
LC-005-005-----0
  6
CONTINUOUS
  5
261
 10
222.923553
 20
434.489902
 30
0.0
 11
223.832508
 21
435.398857
 31
0.0
  0
LINE
  8
LC-005-005-----0
  6
CONTINUOUS
  5
262
 10
222.64071
 20
434.489902
 30
0.0
 11
223.832508
 21
435.6817
 31
0.0
  0
LINE
  8
LC-005-005-----0
  6
CONTINUOUS
  5
263
 10
222.357868
 20
434.489902
 30
0.0
 11
223.832508
 21
435.964543
 31
0.0
  0
LINE
  8
LC-005-005-----0
  6
CONTINUOUS
  5
264
 10
222.075025
 20
434.489902
 30
0.0
 11
223.832508
 21
436.247386
 31
0.0
  0
LINE
  8
LC-005-005-----0
  6
CONTINUOUS
  5
265
 10
221.792182
 20
434.489902
 30
0.0
 11
223.832508
 21
436.530228
 31
0.0
  0
LINE
  8
LC-005-005-----0
  6
CONTINUOUS
  5
266
 10
221.50934
 20
434.489902
 30
0.0
 11
223.832508
 21
436.813071
 31
0.0
  0
LINE
  8
LC-005-005-----0
  6
CONTINUOUS
  5
267
 10
221.226497
 20
434.489902
 30
0.0
 11
223.832508
 21
437.095914
 31
0.0
  0
LINE
  8
LC-005-005-----0
  6
CONTINUOUS
  5
268
 10
220.943654
 20
434.489902
 30
0.0
 11
223.832508
 21
437.378756
 31
0.0
  0
LINE
  8
LC-005-005-----0
  6
CONTINUOUS
  5
269
 10
220.660811
 20
434.489902
 30
0.0
 11
223.660811
 21
437.489902
 31
0.0
  0
LINE
  8
LC-005-005-----0
  6
CONTINUOUS
  5
26A
 10
220.377969
 20
434.489902
 30
0.0
 11
223.377969
 21
437.489902
 31
0.0
  0
LINE
  8
LC-005-005-----0
  6
CONTINUOUS
  5
26B
 10
220.095126
 20
434.489902
 30
0.0
 11
223.095126
 21
437.489902
 31
0.0
  0
LINE
  8
LC-005-005-----0
  6
CONTINUOUS
  5
26C
 10
219.812283
 20
434.489902
 30
0.0
 11
222.812283
 21
437.489902
 31
0.0
  0
LINE
  8
LC-005-005-----0
  6
CONTINUOUS
  5
26D
 10
219.529441
 20
434.489902
 30
0.0
 11
222.529441
 21
437.489902
 31
0.0
  0
LINE
  8
LC-005-005-----0
  6
CONTINUOUS
  5
26E
 10
219.246598
 20
434.489902
 30
0.0
 11
222.246598
 21
437.489902
 31
0.0
  0
LINE
  8
LC-005-005-----0
  6
CONTINUOUS
  5
26F
 10
218.963755
 20
434.489902
 30
0.0
 11
221.963755
 21
437.489902
 31
0.0
  0
LINE
  8
LC-005-005-----0
  6
CONTINUOUS
  5
270
 10
218.832508
 20
434.641498
 30
0.0
 11
221.680912
 21
437.489902
 31
0.0
  0
LINE
  8
LC-005-005-----0
  6
CONTINUOUS
  5
271
 10
218.832508
 20
434.924341
 30
0.0
 11
221.39807
 21
437.489902
 31
0.0
  0
LINE
  8
LC-005-005-----0
  6
CONTINUOUS
  5
272
 10
218.832508
 20
435.207184
 30
0.0
 11
221.115227
 21
437.489902
 31
0.0
  0
LINE
  8
LC-005-005-----0
  6
CONTINUOUS
  5
273
 10
218.832508
 20
435.490026
 30
0.0
 11
220.832384
 21
437.489902
 31
0.0
  0
LINE
  8
LC-005-005-----0
  6
CONTINUOUS
  5
274
 10
218.832508
 20
435.772869
 30
0.0
 11
220.549542
 21
437.489902
 31
0.0
  0
LINE
  8
LC-005-005-----0
  6
CONTINUOUS
  5
275
 10
218.832508
 20
436.055712
 30
0.0
 11
220.266699
 21
437.489902
 31
0.0
  0
LINE
  8
LC-005-005-----0
  6
CONTINUOUS
  5
276
 10
218.832508
 20
436.338554
 30
0.0
 11
219.983856
 21
437.489902
 31
0.0
  0
LINE
  8
LC-005-005-----0
  6
CONTINUOUS
  5
277
 10
218.832508
 20
436.621397
 30
0.0
 11
219.701014
 21
437.489902
 31
0.0
  0
LINE
  8
LC-005-005-----0
  6
CONTINUOUS
  5
278
 10
218.832508
 20
436.90424
 30
0.0
 11
219.418171
 21
437.489902
 31
0.0
  0
LINE
  8
LC-005-005-----0
  6
CONTINUOUS
  5
279
 10
218.832508
 20
437.187083
 30
0.0
 11
219.135328
 21
437.489902
 31
0.0
  0
LINE
  8
LC-005-005-----0
  6
CONTINUOUS
  5
27A
 10
218.832508
 20
437.469925
 30
0.0
 11
218.852485
 21
437.489902
 31
0.0
  0
ENDBLK
  8
0
  5
27B
  0
BLOCK
  8
0
  5
27D
  2
*X14
 70
    65
 10
228.832508
 20
434.489902
 30
0.0
  3
*X14
  0
LINE
  8
LC-005-005-----0
  6
CONTINUOUS
  5
27E
 10
233.671576
 20
434.489902
 30
0.0
 11
233.832508
 21
434.650834
 31
0.0
  0
LINE
  8
LC-005-005-----0
  6
CONTINUOUS
  5
27F
 10
233.388734
 20
434.489902
 30
0.0
 11
233.832508
 21
434.933677
 31
0.0
  0
LINE
  8
LC-005-005-----0
  6
CONTINUOUS
  5
280
 10
233.105891
 20
434.489902
 30
0.0
 11
233.832508
 21
435.21652
 31
0.0
  0
LINE
  8
LC-005-005-----0
  6
CONTINUOUS
  5
281
 10
232.823048
 20
434.489902
 30
0.0
 11
233.832508
 21
435.499362
 31
0.0
  0
LINE
  8
LC-005-005-----0
  6
CONTINUOUS
  5
282
 10
232.540205
 20
434.489902
 30
0.0
 11
233.832508
 21
435.782205
 31
0.0
  0
LINE
  8
LC-005-005-----0
  6
CONTINUOUS
  5
283
 10
232.257363
 20
434.489902
 30
0.0
 11
233.832508
 21
436.065048
 31
0.0
  0
LINE
  8
LC-005-005-----0
  6
CONTINUOUS
  5
284
 10
231.97452
 20
434.489902
 30
0.0
 11
233.832508
 21
436.347891
 31
0.0
  0
LINE
  8
LC-005-005-----0
  6
CONTINUOUS
  5
285
 10
231.691677
 20
434.489902
 30
0.0
 11
233.832508
 21
436.630733
 31
0.0
  0
LINE
  8
LC-005-005-----0
  6
CONTINUOUS
  5
286
 10
231.408835
 20
434.489902
 30
0.0
 11
233.832508
 21
436.913576
 31
0.0
  0
LINE
  8
LC-005-005-----0
  6
CONTINUOUS
  5
287
 10
231.125992
 20
434.489902
 30
0.0
 11
233.832508
 21
437.196419
 31
0.0
  0
LINE
  8
LC-005-005-----0
  6
CONTINUOUS
  5
288
 10
230.843149
 20
434.489902
 30
0.0
 11
233.832508
 21
437.479261
 31
0.0
  0
LINE
  8
LC-005-005-----0
  6
CONTINUOUS
  5
289
 10
230.560306
 20
434.489902
 30
0.0
 11
233.560306
 21
437.489902
 31
0.0
  0
LINE
  8
LC-005-005-----0
  6
CONTINUOUS
  5
28A
 10
230.277464
 20
434.489902
 30
0.0
 11
233.277464
 21
437.489902
 31
0.0
  0
LINE
  8
LC-005-005-----0
  6
CONTINUOUS
  5
28B
 10
229.994621
 20
434.489902
 30
0.0
 11
232.994621
 21
437.489902
 31
0.0
  0
LINE
  8
LC-005-005-----0
  6
CONTINUOUS
  5
28C
 10
229.711778
 20
434.489902
 30
0.0
 11
232.711778
 21
437.489902
 31
0.0
  0
LINE
  8
LC-005-005-----0
  6
CONTINUOUS
  5
28D
 10
229.428936
 20
434.489902
 30
0.0
 11
232.428936
 21
437.489902
 31
0.0
  0
LINE
  8
LC-005-005-----0
  6
CONTINUOUS
  5
28E
 10
229.146093
 20
434.489902
 30
0.0
 11
232.146093
 21
437.489902
 31
0.0
  0
LINE
  8
LC-005-005-----0
  6
CONTINUOUS
  5
28F
 10
228.86325
 20
434.489902
 30
0.0
 11
231.86325
 21
437.489902
 31
0.0
  0
LINE
  8
LC-005-005-----0
  6
CONTINUOUS
  5
290
 10
228.832508
 20
434.742003
 30
0.0
 11
231.580407
 21
437.489902
 31
0.0
  0
LINE
  8
LC-005-005-----0
  6
CONTINUOUS
  5
291
 10
228.832508
 20
435.024846
 30
0.0
 11
231.297565
 21
437.489902
 31
0.0
  0
LINE
  8
LC-005-005-----0
  6
CONTINUOUS
  5
292
 10
228.832508
 20
435.307689
 30
0.0
 11
231.014722
 21
437.489902
 31
0.0
  0
LINE
  8
LC-005-005-----0
  6
CONTINUOUS
  5
293
 10
228.832508
 20
435.590531
 30
0.0
 11
230.731879
 21
437.489902
 31
0.0
  0
LINE
  8
LC-005-005-----0
  6
CONTINUOUS
  5
294
 10
228.832508
 20
435.873374
 30
0.0
 11
230.449037
 21
437.489902
 31
0.0
  0
LINE
  8
LC-005-005-----0
  6
CONTINUOUS
  5
295
 10
228.832508
 20
436.156217
 30
0.0
 11
230.166194
 21
437.489902
 31
0.0
  0
LINE
  8
LC-005-005-----0
  6
CONTINUOUS
  5
296
 10
228.832508
 20
436.439059
 30
0.0
 11
229.883351
 21
437.489902
 31
0.0
  0
LINE
  8
LC-005-005-----0
  6
CONTINUOUS
  5
297
 10
228.832508
 20
436.721902
 30
0.0
 11
229.600508
 21
437.489902
 31
0.0
  0
LINE
  8
LC-005-005-----0
  6
CONTINUOUS
  5
298
 10
228.832508
 20
437.004745
 30
0.0
 11
229.317666
 21
437.489902
 31
0.0
  0
LINE
  8
LC-005-005-----0
  6
CONTINUOUS
  5
299
 10
228.832508
 20
437.287588
 30
0.0
 11
229.034823
 21
437.489902
 31
0.0
  0
ENDBLK
  8
0
  5
29A
  0
BLOCK
  8
0
  5
29C
  2
*X15
 70
    65
 10
238.832508
 20
434.489902
 30
0.0
  3
*X15
  0
LINE
  8
LC-005-005-----0
  6
CONTINUOUS
  5
29D
 10
243.571071
 20
434.489902
 30
0.0
 11
243.832508
 21
434.751339
 31
0.0
  0
LINE
  8
LC-005-005-----0
  6
CONTINUOUS
  5
29E
 10
243.288228
 20
434.489902
 30
0.0
 11
243.832508
 21
435.034182
 31
0.0
  0
LINE
  8
LC-005-005-----0
  6
CONTINUOUS
  5
29F
 10
243.005386
 20
434.489902
 30
0.0
 11
243.832508
 21
435.317025
 31
0.0
  0
LINE
  8
LC-005-005-----0
  6
CONTINUOUS
  5
2A0
 10
242.722543
 20
434.489902
 30
0.0
 11
243.832508
 21
435.599868
 31
0.0
  0
LINE
  8
LC-005-005-----0
  6
CONTINUOUS
  5
2A1
 10
242.4397
 20
434.489902
 30
0.0
 11
243.832508
 21
435.88271
 31
0.0
  0
LINE
  8
LC-005-005-----0
  6
CONTINUOUS
  5
2A2
 10
242.156858
 20
434.489902
 30
0.0
 11
243.832508
 21
436.165553
 31
0.0
  0
LINE
  8
LC-005-005-----0
  6
CONTINUOUS
  5
2A3
 10
241.874015
 20
434.489902
 30
0.0
 11
243.832508
 21
436.448396
 31
0.0
  0
LINE
  8
LC-005-005-----0
  6
CONTINUOUS
  5
2A4
 10
241.591172
 20
434.489902
 30
0.0
 11
243.832508
 21
436.731238
 31
0.0
  0
LINE
  8
LC-005-005-----0
  6
CONTINUOUS
  5
2A5
 10
241.308329
 20
434.489902
 30
0.0
 11
243.832508
 21
437.014081
 31
0.0
  0
LINE
  8
LC-005-005-----0
  6
CONTINUOUS
  5
2A6
 10
241.025487
 20
434.489902
 30
0.0
 11
243.832508
 21
437.296924
 31
0.0
  0
LINE
  8
LC-005-005-----0
  6
CONTINUOUS
  5
2A7
 10
240.742644
 20
434.489902
 30
0.0
 11
243.742644
 21
437.489902
 31
0.0
  0
LINE
  8
LC-005-005-----0
  6
CONTINUOUS
  5
2A8
 10
240.459801
 20
434.489902
 30
0.0
 11
243.459801
 21
437.489902
 31
0.0
  0
LINE
  8
LC-005-005-----0
  6
CONTINUOUS
  5
2A9
 10
240.176959
 20
434.489902
 30
0.0
 11
243.176959
 21
437.489902
 31
0.0
  0
LINE
  8
LC-005-005-----0
  6
CONTINUOUS
  5
2AA
 10
239.894116
 20
434.489902
 30
0.0
 11
242.894116
 21
437.489902
 31
0.0
  0
LINE
  8
LC-005-005-----0
  6
CONTINUOUS
  5
2AB
 10
239.611273
 20
434.489902
 30
0.0
 11
242.611273
 21
437.489902
 31
0.0
  0
LINE
  8
LC-005-005-----0
  6
CONTINUOUS
  5
2AC
 10
239.328431
 20
434.489902
 30
0.0
 11
242.328431
 21
437.489902
 31
0.0
  0
LINE
  8
LC-005-005-----0
  6
CONTINUOUS
  5
2AD
 10
239.045588
 20
434.489902
 30
0.0
 11
242.045588
 21
437.489902
 31
0.0
  0
LINE
  8
LC-005-005-----0
  6
CONTINUOUS
  5
2AE
 10
238.832508
 20
434.559666
 30
0.0
 11
241.762745
 21
437.489902
 31
0.0
  0
LINE
  8
LC-005-005-----0
  6
CONTINUOUS
  5
2AF
 10
238.832508
 20
434.842508
 30
0.0
 11
241.479902
 21
437.489902
 31
0.0
  0
LINE
  8
LC-005-005-----0
  6
CONTINUOUS
  5
2B0
 10
238.832508
 20
435.125351
 30
0.0
 11
241.19706
 21
437.489902
 31
0.0
  0
LINE
  8
LC-005-005-----0
  6
CONTINUOUS
  5
2B1
 10
238.832508
 20
435.408194
 30
0.0
 11
240.914217
 21
437.489902
 31
0.0
  0
LINE
  8
LC-005-005-----0
  6
CONTINUOUS
  5
2B2
 10
238.832508
 20
435.691036
 30
0.0
 11
240.631374
 21
437.489902
 31
0.0
  0
LINE
  8
LC-005-005-----0
  6
CONTINUOUS
  5
2B3
 10
238.832508
 20
435.973879
 30
0.0
 11
240.348532
 21
437.489902
 31
0.0
  0
LINE
  8
LC-005-005-----0
  6
CONTINUOUS
  5
2B4
 10
238.832508
 20
436.256722
 30
0.0
 11
240.065689
 21
437.489902
 31
0.0
  0
LINE
  8
LC-005-005-----0
  6
CONTINUOUS
  5
2B5
 10
238.832508
 20
436.539564
 30
0.0
 11
239.782846
 21
437.489902
 31
0.0
  0
LINE
  8
LC-005-005-----0
  6
CONTINUOUS
  5
2B6
 10
238.832508
 20
436.822407
 30
0.0
 11
239.500003
 21
437.489902
 31
0.0
  0
LINE
  8
LC-005-005-----0
  6
CONTINUOUS
  5
2B7
 10
238.832508
 20
437.10525
 30
0.0
 11
239.217161
 21
437.489902
 31
0.0
  0
LINE
  8
LC-005-005-----0
  6
CONTINUOUS
  5
2B8
 10
238.832508
 20
437.388093
 30
0.0
 11
238.934318
 21
437.489902
 31
0.0
  0
ENDBLK
  8
0
  5
2B9
  0
BLOCK
  8
0
  5
2BB
  2
*X16
 70
    65
 10
248.832508
 20
434.489902
 30
0.0
  3
*X16
  0
LINE
  8
LC-005-005-----0
  6
CONTINUOUS
  5
2BC
 10
253.753409
 20
434.489902
 30
0.0
 11
253.832508
 21
434.569002
 31
0.0
  0
LINE
  8
LC-005-005-----0
  6
CONTINUOUS
  5
2BD
 10
253.470566
 20
434.489902
 30
0.0
 11
253.832508
 21
434.851844
 31
0.0
  0
LINE
  8
LC-005-005-----0
  6
CONTINUOUS
  5
2BE
 10
253.187723
 20
434.489902
 30
0.0
 11
253.832508
 21
435.134687
 31
0.0
  0
LINE
  8
LC-005-005-----0
  6
CONTINUOUS
  5
2BF
 10
252.904881
 20
434.489902
 30
0.0
 11
253.832508
 21
435.41753
 31
0.0
  0
LINE
  8
LC-005-005-----0
  6
CONTINUOUS
  5
2C0
 10
252.622038
 20
434.489902
 30
0.0
 11
253.832508
 21
435.700373
 31
0.0
  0
LINE
  8
LC-005-005-----0
  6
CONTINUOUS
  5
2C1
 10
252.339195
 20
434.489902
 30
0.0
 11
253.832508
 21
435.983215
 31
0.0
  0
LINE
  8
LC-005-005-----0
  6
CONTINUOUS
  5
2C2
 10
252.056353
 20
434.489902
 30
0.0
 11
253.832508
 21
436.266058
 31
0.0
  0
LINE
  8
LC-005-005-----0
  6
CONTINUOUS
  5
2C3
 10
251.77351
 20
434.489902
 30
0.0
 11
253.832508
 21
436.548901
 31
0.0
  0
LINE
  8
LC-005-005-----0
  6
CONTINUOUS
  5
2C4
 10
251.490667
 20
434.489902
 30
0.0
 11
253.832508
 21
436.831743
 31
0.0
  0
LINE
  8
LC-005-005-----0
  6
CONTINUOUS
  5
2C5
 10
251.207824
 20
434.489902
 30
0.0
 11
253.832508
 21
437.114586
 31
0.0
  0
LINE
  8
LC-005-005-----0
  6
CONTINUOUS
  5
2C6
 10
250.924982
 20
434.489902
 30
0.0
 11
253.832508
 21
437.397429
 31
0.0
  0
LINE
  8
LC-005-005-----0
  6
CONTINUOUS
  5
2C7
 10
250.642139
 20
434.489902
 30
0.0
 11
253.642139
 21
437.489902
 31
0.0
  0
LINE
  8
LC-005-005-----0
  6
CONTINUOUS
  5
2C8
 10
250.359296
 20
434.489902
 30
0.0
 11
253.359296
 21
437.489902
 31
0.0
  0
LINE
  8
LC-005-005-----0
  6
CONTINUOUS
  5
2C9
 10
250.076454
 20
434.489902
 30
0.0
 11
253.076454
 21
437.489902
 31
0.0
  0
LINE
  8
LC-005-005-----0
  6
CONTINUOUS
  5
2CA
 10
249.793611
 20
434.489902
 30
0.0
 11
252.793611
 21
437.489902
 31
0.0
  0
LINE
  8
LC-005-005-----0
  6
CONTINUOUS
  5
2CB
 10
249.510768
 20
434.489902
 30
0.0
 11
252.510768
 21
437.489902
 31
0.0
  0
LINE
  8
LC-005-005-----0
  6
CONTINUOUS
  5
2CC
 10
249.227925
 20
434.489902
 30
0.0
 11
252.227925
 21
437.489902
 31
0.0
  0
LINE
  8
LC-005-005-----0
  6
CONTINUOUS
  5
2CD
 10
248.945083
 20
434.489902
 30
0.0
 11
251.945083
 21
437.489902
 31
0.0
  0
LINE
  8
LC-005-005-----0
  6
CONTINUOUS
  5
2CE
 10
248.832508
 20
434.660171
 30
0.0
 11
251.66224
 21
437.489902
 31
0.0
  0
LINE
  8
LC-005-005-----0
  6
CONTINUOUS
  5
2CF
 10
248.832508
 20
434.943013
 30
0.0
 11
251.379397
 21
437.489902
 31
0.0
  0
LINE
  8
LC-005-005-----0
  6
CONTINUOUS
  5
2D0
 10
248.832508
 20
435.225856
 30
0.0
 11
251.096555
 21
437.489902
 31
0.0
  0
LINE
  8
LC-005-005-----0
  6
CONTINUOUS
  5
2D1
 10
248.832508
 20
435.508699
 30
0.0
 11
250.813712
 21
437.489902
 31
0.0
  0
LINE
  8
LC-005-005-----0
  6
CONTINUOUS
  5
2D2
 10
248.832508
 20
435.791541
 30
0.0
 11
250.530869
 21
437.489902
 31
0.0
  0
LINE
  8
LC-005-005-----0
  6
CONTINUOUS
  5
2D3
 10
248.832508
 20
436.074384
 30
0.0
 11
250.248026
 21
437.489902
 31
0.0
  0
LINE
  8
LC-005-005-----0
  6
CONTINUOUS
  5
2D4
 10
248.832508
 20
436.357227
 30
0.0
 11
249.965184
 21
437.489902
 31
0.0
  0
LINE
  8
LC-005-005-----0
  6
CONTINUOUS
  5
2D5
 10
248.832508
 20
436.64007
 30
0.0
 11
249.682341
 21
437.489902
 31
0.0
  0
LINE
  8
LC-005-005-----0
  6
CONTINUOUS
  5
2D6
 10
248.832508
 20
436.922912
 30
0.0
 11
249.399498
 21
437.489902
 31
0.0
  0
LINE
  8
LC-005-005-----0
  6
CONTINUOUS
  5
2D7
 10
248.832508
 20
437.205755
 30
0.0
 11
249.116656
 21
437.489902
 31
0.0
  0
LINE
  8
LC-005-005-----0
  6
CONTINUOUS
  5
2D8
 10
248.832508
 20
437.488598
 30
0.0
 11
248.833813
 21
437.489902
 31
0.0
  0
ENDBLK
  8
0
  5
2D9
  0
BLOCK
  8
0
  5
2DB
  2
*X17
 70
    65
 10
258.832508
 20
434.489902
 30
0.0
  3
*X17
  0
LINE
  8
LC-005-005-----0
  6
CONTINUOUS
  5
2DC
 10
263.652904
 20
434.489902
 30
0.0
 11
263.832508
 21
434.669507
 31
0.0
  0
LINE
  8
LC-005-005-----0
  6
CONTINUOUS
  5
2DD
 10
263.370061
 20
434.489902
 30
0.0
 11
263.832508
 21
434.95235
 31
0.0
  0
LINE
  8
LC-005-005-----0
  6
CONTINUOUS
  5
2DE
 10
263.087218
 20
434.489902
 30
0.0
 11
263.832508
 21
435.235192
 31
0.0
  0
LINE
  8
LC-005-005-----0
  6
CONTINUOUS
  5
2DF
 10
262.804376
 20
434.489902
 30
0.0
 11
263.832508
 21
435.518035
 31
0.0
  0
LINE
  8
LC-005-005-----0
  6
CONTINUOUS
  5
2E0
 10
262.521533
 20
434.489902
 30
0.0
 11
263.832508
 21
435.800878
 31
0.0
  0
LINE
  8
LC-005-005-----0
  6
CONTINUOUS
  5
2E1
 10
262.23869
 20
434.489902
 30
0.0
 11
263.832508
 21
436.08372
 31
0.0
  0
LINE
  8
LC-005-005-----0
  6
CONTINUOUS
  5
2E2
 10
261.955848
 20
434.489902
 30
0.0
 11
263.832508
 21
436.366563
 31
0.0
  0
LINE
  8
LC-005-005-----0
  6
CONTINUOUS
  5
2E3
 10
261.673005
 20
434.489902
 30
0.0
 11
263.832508
 21
436.649406
 31
0.0
  0
LINE
  8
LC-005-005-----0
  6
CONTINUOUS
  5
2E4
 10
261.390162
 20
434.489902
 30
0.0
 11
263.832508
 21
436.932249
 31
0.0
  0
LINE
  8
LC-005-005-----0
  6
CONTINUOUS
  5
2E5
 10
261.107319
 20
434.489902
 30
0.0
 11
263.832508
 21
437.215091
 31
0.0
  0
LINE
  8
LC-005-005-----0
  6
CONTINUOUS
  5
2E6
 10
260.824477
 20
434.489902
 30
0.0
 11
263.824477
 21
437.489902
 31
0.0
  0
LINE
  8
LC-005-005-----0
  6
CONTINUOUS
  5
2E7
 10
260.541634
 20
434.489902
 30
0.0
 11
263.541634
 21
437.489902
 31
0.0
  0
LINE
  8
LC-005-005-----0
  6
CONTINUOUS
  5
2E8
 10
260.258791
 20
434.489902
 30
0.0
 11
263.258791
 21
437.489902
 31
0.0
  0
LINE
  8
LC-005-005-----0
  6
CONTINUOUS
  5
2E9
 10
259.975949
 20
434.489902
 30
0.0
 11
262.975949
 21
437.489902
 31
0.0
  0
LINE
  8
LC-005-005-----0
  6
CONTINUOUS
  5
2EA
 10
259.693106
 20
434.489902
 30
0.0
 11
262.693106
 21
437.489902
 31
0.0
  0
LINE
  8
LC-005-005-----0
  6
CONTINUOUS
  5
2EB
 10
259.410263
 20
434.489902
 30
0.0
 11
262.410263
 21
437.489902
 31
0.0
  0
LINE
  8
LC-005-005-----0
  6
CONTINUOUS
  5
2EC
 10
259.12742
 20
434.489902
 30
0.0
 11
262.12742
 21
437.489902
 31
0.0
  0
LINE
  8
LC-005-005-----0
  6
CONTINUOUS
  5
2ED
 10
258.844578
 20
434.489902
 30
0.0
 11
261.844578
 21
437.489902
 31
0.0
  0
LINE
  8
LC-005-005-----0
  6
CONTINUOUS
  5
2EE
 10
258.832508
 20
434.760676
 30
0.0
 11
261.561735
 21
437.489902
 31
0.0
  0
LINE
  8
LC-005-005-----0
  6
CONTINUOUS
  5
2EF
 10
258.832508
 20
435.043518
 30
0.0
 11
261.278892
 21
437.489902
 31
0.0
  0
LINE
  8
LC-005-005-----0
  6
CONTINUOUS
  5
2F0
 10
258.832508
 20
435.326361
 30
0.0
 11
260.99605
 21
437.489902
 31
0.0
  0
LINE
  8
LC-005-005-----0
  6
CONTINUOUS
  5
2F1
 10
258.832508
 20
435.609204
 30
0.0
 11
260.713207
 21
437.489902
 31
0.0
  0
LINE
  8
LC-005-005-----0
  6
CONTINUOUS
  5
2F2
 10
258.832508
 20
435.892046
 30
0.0
 11
260.430364
 21
437.489902
 31
0.0
  0
LINE
  8
LC-005-005-----0
  6
CONTINUOUS
  5
2F3
 10
258.832508
 20
436.174889
 30
0.0
 11
260.147521
 21
437.489902
 31
0.0
  0
LINE
  8
LC-005-005-----0
  6
CONTINUOUS
  5
2F4
 10
258.832508
 20
436.457732
 30
0.0
 11
259.864679
 21
437.489902
 31
0.0
  0
LINE
  8
LC-005-005-----0
  6
CONTINUOUS
  5
2F5
 10
258.832508
 20
436.740575
 30
0.0
 11
259.581836
 21
437.489902
 31
0.0
  0
LINE
  8
LC-005-005-----0
  6
CONTINUOUS
  5
2F6
 10
258.832508
 20
437.023417
 30
0.0
 11
259.298993
 21
437.489902
 31
0.0
  0
LINE
  8
LC-005-005-----0
  6
CONTINUOUS
  5
2F7
 10
258.832508
 20
437.30626
 30
0.0
 11
259.016151
 21
437.489902
 31
0.0
  0
ENDBLK
  8
0
  5
2F8
  0
BLOCK
  8
0
  5
2FA
  2
*X18
 70
    65
 10
298.832508
 20
429.750553
 30
0.0
  3
*X18
  0
LINE
  8
LC-005-005-----0
  6
CONTINUOUS
  5
2FB
 10
303.602704
 20
429.750553
 30
0.0
 11
303.832508
 21
429.980358
 31
0.0
  0
LINE
  8
LC-005-005-----0
  6
CONTINUOUS
  5
2FC
 10
303.319861
 20
429.750553
 30
0.0
 11
303.832508
 21
430.263201
 31
0.0
  0
LINE
  8
LC-005-005-----0
  6
CONTINUOUS
  5
2FD
 10
303.037018
 20
429.750553
 30
0.0
 11
303.832508
 21
430.546044
 31
0.0
  0
LINE
  8
LC-005-005-----0
  6
CONTINUOUS
  5
2FE
 10
302.754176
 20
429.750553
 30
0.0
 11
303.832508
 21
430.828886
 31
0.0
  0
LINE
  8
LC-005-005-----0
  6
CONTINUOUS
  5
2FF
 10
302.471333
 20
429.750553
 30
0.0
 11
303.832508
 21
431.111729
 31
0.0
  0
LINE
  8
LC-005-005-----0
  6
CONTINUOUS
  5
300
 10
302.18849
 20
429.750553
 30
0.0
 11
303.832508
 21
431.394572
 31
0.0
  0
LINE
  8
LC-005-005-----0
  6
CONTINUOUS
  5
301
 10
301.905647
 20
429.750553
 30
0.0
 11
303.832508
 21
431.677415
 31
0.0
  0
LINE
  8
LC-005-005-----0
  6
CONTINUOUS
  5
302
 10
301.622805
 20
429.750553
 30
0.0
 11
303.832508
 21
431.960257
 31
0.0
  0
LINE
  8
LC-005-005-----0
  6
CONTINUOUS
  5
303
 10
301.339962
 20
429.750553
 30
0.0
 11
303.832508
 21
432.2431
 31
0.0
  0
LINE
  8
LC-005-005-----0
  6
CONTINUOUS
  5
304
 10
301.057119
 20
429.750553
 30
0.0
 11
303.832508
 21
432.525943
 31
0.0
  0
LINE
  8
LC-005-005-----0
  6
CONTINUOUS
  5
305
 10
300.774277
 20
429.750553
 30
0.0
 11
303.774277
 21
432.750553
 31
0.0
  0
LINE
  8
LC-005-005-----0
  6
CONTINUOUS
  5
306
 10
300.491434
 20
429.750553
 30
0.0
 11
303.491434
 21
432.750553
 31
0.0
  0
LINE
  8
LC-005-005-----0
  6
CONTINUOUS
  5
307
 10
300.208591
 20
429.750553
 30
0.0
 11
303.208591
 21
432.750553
 31
0.0
  0
LINE
  8
LC-005-005-----0
  6
CONTINUOUS
  5
308
 10
299.925748
 20
429.750553
 30
0.0
 11
302.925748
 21
432.750553
 31
0.0
  0
LINE
  8
LC-005-005-----0
  6
CONTINUOUS
  5
309
 10
299.642906
 20
429.750553
 30
0.0
 11
302.642906
 21
432.750553
 31
0.0
  0
LINE
  8
LC-005-005-----0
  6
CONTINUOUS
  5
30A
 10
299.360063
 20
429.750553
 30
0.0
 11
302.360063
 21
432.750553
 31
0.0
  0
LINE
  8
LC-005-005-----0
  6
CONTINUOUS
  5
30B
 10
299.07722
 20
429.750553
 30
0.0
 11
302.07722
 21
432.750553
 31
0.0
  0
LINE
  8
LC-005-005-----0
  6
CONTINUOUS
  5
30C
 10
298.832508
 20
429.788684
 30
0.0
 11
301.794378
 21
432.750553
 31
0.0
  0
LINE
  8
LC-005-005-----0
  6
CONTINUOUS
  5
30D
 10
298.832508
 20
430.071527
 30
0.0
 11
301.511535
 21
432.750553
 31
0.0
  0
LINE
  8
LC-005-005-----0
  6
CONTINUOUS
  5
30E
 10
298.832508
 20
430.35437
 30
0.0
 11
301.228692
 21
432.750553
 31
0.0
  0
LINE
  8
LC-005-005-----0
  6
CONTINUOUS
  5
30F
 10
298.832508
 20
430.637212
 30
0.0
 11
300.945849
 21
432.750553
 31
0.0
  0
LINE
  8
LC-005-005-----0
  6
CONTINUOUS
  5
310
 10
298.832508
 20
430.920055
 30
0.0
 11
300.663007
 21
432.750553
 31
0.0
  0
LINE
  8
LC-005-005-----0
  6
CONTINUOUS
  5
311
 10
298.832508
 20
431.202898
 30
0.0
 11
300.380164
 21
432.750553
 31
0.0
  0
LINE
  8
LC-005-005-----0
  6
CONTINUOUS
  5
312
 10
298.832508
 20
431.485741
 30
0.0
 11
300.097321
 21
432.750553
 31
0.0
  0
LINE
  8
LC-005-005-----0
  6
CONTINUOUS
  5
313
 10
298.832508
 20
431.768583
 30
0.0
 11
299.814479
 21
432.750553
 31
0.0
  0
LINE
  8
LC-005-005-----0
  6
CONTINUOUS
  5
314
 10
298.832508
 20
432.051426
 30
0.0
 11
299.531636
 21
432.750553
 31
0.0
  0
LINE
  8
LC-005-005-----0
  6
CONTINUOUS
  5
315
 10
298.832508
 20
432.334269
 30
0.0
 11
299.248793
 21
432.750553
 31
0.0
  0
LINE
  8
LC-005-005-----0
  6
CONTINUOUS
  5
316
 10
298.832508
 20
432.617111
 30
0.0
 11
298.96595
 21
432.750553
 31
0.0
  0
ENDBLK
  8
0
  5
317
  0
BLOCK
  8
0
  5
319
  2
*X19
 70
    65
 10
314.582508
 20
431.249863
 30
0.0
  3
*X19
  0
LINE
  8
LC-005-005-----0
  6
CONTINUOUS
  5
31A
 10
316.698564
 20
431.249863
 30
0.0
 11
316.832886
 21
431.384184
 31
0.0
  0
LINE
  8
LC-005-005-----0
  6
CONTINUOUS
  5
31B
 10
316.415722
 20
431.249863
 30
0.0
 11
316.832886
 21
431.667027
 31
0.0
  0
LINE
  8
LC-005-005-----0
  6
CONTINUOUS
  5
31C
 10
316.132879
 20
431.249863
 30
0.0
 11
316.832886
 21
431.94987
 31
0.0
  0
LINE
  8
LC-005-005-----0
  6
CONTINUOUS
  5
31D
 10
315.850036
 20
431.249863
 30
0.0
 11
316.832886
 21
432.232712
 31
0.0
  0
LINE
  8
LC-005-005-----0
  6
CONTINUOUS
  5
31E
 10
315.567194
 20
431.249863
 30
0.0
 11
316.832886
 21
432.515555
 31
0.0
  0
LINE
  8
LC-005-005-----0
  6
CONTINUOUS
  5
31F
 10
315.284351
 20
431.249863
 30
0.0
 11
316.832886
 21
432.798398
 31
0.0
  0
LINE
  8
LC-005-005-----0
  6
CONTINUOUS
  5
320
 10
315.001508
 20
431.249863
 30
0.0
 11
316.832886
 21
433.081241
 31
0.0
  0
LINE
  8
LC-005-005-----0
  6
CONTINUOUS
  5
321
 10
314.718665
 20
431.249863
 30
0.0
 11
316.832886
 21
433.364083
 31
0.0
  0
LINE
  8
LC-005-005-----0
  6
CONTINUOUS
  5
322
 10
314.582508
 20
431.396549
 30
0.0
 11
316.832886
 21
433.646926
 31
0.0
  0
LINE
  8
LC-005-005-----0
  6
CONTINUOUS
  5
323
 10
314.582508
 20
431.679391
 30
0.0
 11
316.832886
 21
433.929769
 31
0.0
  0
LINE
  8
LC-005-005-----0
  6
CONTINUOUS
  5
324
 10
314.582508
 20
431.962234
 30
0.0
 11
316.832886
 21
434.212611
 31
0.0
  0
LINE
  8
LC-005-005-----0
  6
CONTINUOUS
  5
325
 10
314.582508
 20
432.245077
 30
0.0
 11
316.587295
 21
434.249863
 31
0.0
  0
LINE
  8
LC-005-005-----0
  6
CONTINUOUS
  5
326
 10
314.582508
 20
432.52792
 30
0.0
 11
316.304452
 21
434.249863
 31
0.0
  0
LINE
  8
LC-005-005-----0
  6
CONTINUOUS
  5
327
 10
314.582508
 20
432.810762
 30
0.0
 11
316.021609
 21
434.249863
 31
0.0
  0
LINE
  8
LC-005-005-----0
  6
CONTINUOUS
  5
328
 10
314.582508
 20
433.093605
 30
0.0
 11
315.738767
 21
434.249863
 31
0.0
  0
LINE
  8
LC-005-005-----0
  6
CONTINUOUS
  5
329
 10
314.582508
 20
433.376448
 30
0.0
 11
315.455924
 21
434.249863
 31
0.0
  0
LINE
  8
LC-005-005-----0
  6
CONTINUOUS
  5
32A
 10
314.582508
 20
433.65929
 30
0.0
 11
315.173081
 21
434.249863
 31
0.0
  0
LINE
  8
LC-005-005-----0
  6
CONTINUOUS
  5
32B
 10
314.582508
 20
433.942133
 30
0.0
 11
314.890238
 21
434.249863
 31
0.0
  0
LINE
  8
LC-005-005-----0
  6
CONTINUOUS
  5
32C
 10
314.582508
 20
434.224976
 30
0.0
 11
314.607396
 21
434.249863
 31
0.0
  0
ENDBLK
  8
0
  5
32D
  0
BLOCK
  8
0
  5
32F
  2
*X20
 70
    65
 10
268.832508
 20
434.277873
 30
0.0
  3
*X20
  0
LINE
  8
LC-005-005-----0
  6
CONTINUOUS
  5
330
 10
273.629834
 20
434.284494
 30
0.0
 11
273.832508
 21
434.487169
 31
0.0
  0
LINE
  8
LC-005-005-----0
  6
CONTINUOUS
  5
331
 10
273.355939
 20
434.293442
 30
0.0
 11
273.832508
 21
434.770012
 31
0.0
  0
LINE
  8
LC-005-005-----0
  6
CONTINUOUS
  5
332
 10
273.082044
 20
434.30239
 30
0.0
 11
273.832508
 21
435.052855
 31
0.0
  0
LINE
  8
LC-005-005-----0
  6
CONTINUOUS
  5
333
 10
272.808149
 20
434.311337
 30
0.0
 11
273.832508
 21
435.335697
 31
0.0
  0
LINE
  8
LC-005-005-----0
  6
CONTINUOUS
  5
334
 10
272.534254
 20
434.320285
 30
0.0
 11
273.832508
 21
435.61854
 31
0.0
  0
LINE
  8
LC-005-005-----0
  6
CONTINUOUS
  5
335
 10
272.260359
 20
434.329233
 30
0.0
 11
273.832508
 21
435.901383
 31
0.0
  0
LINE
  8
LC-005-005-----0
  6
CONTINUOUS
  5
336
 10
271.986464
 20
434.338181
 30
0.0
 11
273.832508
 21
436.184225
 31
0.0
  0
LINE
  8
LC-005-005-----0
  6
CONTINUOUS
  5
337
 10
271.712569
 20
434.347128
 30
0.0
 11
273.832508
 21
436.467068
 31
0.0
  0
LINE
  8
LC-005-005-----0
  6
CONTINUOUS
  5
338
 10
271.438674
 20
434.356076
 30
0.0
 11
273.832508
 21
436.749911
 31
0.0
  0
LINE
  8
LC-005-005-----0
  6
CONTINUOUS
  5
339
 10
271.164779
 20
434.365024
 30
0.0
 11
273.832508
 21
437.032754
 31
0.0
  0
LINE
  8
LC-005-005-----0
  6
CONTINUOUS
  5
33A
 10
270.890884
 20
434.373972
 30
0.0
 11
273.797529
 21
437.280616
 31
0.0
  0
LINE
  8
LC-005-005-----0
  6
CONTINUOUS
  5
33B
 10
270.616989
 20
434.382919
 30
0.0
 11
273.523634
 21
437.289564
 31
0.0
  0
LINE
  8
LC-005-005-----0
  6
CONTINUOUS
  5
33C
 10
270.343094
 20
434.391867
 30
0.0
 11
273.249739
 21
437.298512
 31
0.0
  0
LINE
  8
LC-005-005-----0
  6
CONTINUOUS
  5
33D
 10
270.069199
 20
434.400815
 30
0.0
 11
272.975844
 21
437.30746
 31
0.0
  0
LINE
  8
LC-005-005-----0
  6
CONTINUOUS
  5
33E
 10
269.795304
 20
434.409762
 30
0.0
 11
272.701949
 21
437.316407
 31
0.0
  0
LINE
  8
LC-005-005-----0
  6
CONTINUOUS
  5
33F
 10
269.521409
 20
434.41871
 30
0.0
 11
272.428054
 21
437.325355
 31
0.0
  0
LINE
  8
LC-005-005-----0
  6
CONTINUOUS
  5
340
 10
269.247514
 20
434.427658
 30
0.0
 11
272.154159
 21
437.334303
 31
0.0
  0
LINE
  8
LC-005-005-----0
  6
CONTINUOUS
  5
341
 10
268.973619
 20
434.436606
 30
0.0
 11
271.880264
 21
437.34325
 31
0.0
  0
LINE
  8
LC-005-005-----0
  6
CONTINUOUS
  5
342
 10
268.832508
 20
434.578338
 30
0.0
 11
271.606369
 21
437.352198
 31
0.0
  0
LINE
  8
LC-005-005-----0
  6
CONTINUOUS
  5
343
 10
268.832508
 20
434.861181
 30
0.0
 11
271.332474
 21
437.361146
 31
0.0
  0
LINE
  8
LC-005-005-----0
  6
CONTINUOUS
  5
344
 10
268.832508
 20
435.144023
 30
0.0
 11
271.058579
 21
437.370094
 31
0.0
  0
LINE
  8
LC-005-005-----0
  6
CONTINUOUS
  5
345
 10
268.832508
 20
435.426866
 30
0.0
 11
270.784684
 21
437.379041
 31
0.0
  0
LINE
  8
LC-005-005-----0
  6
CONTINUOUS
  5
346
 10
268.832508
 20
435.709709
 30
0.0
 11
270.510789
 21
437.387989
 31
0.0
  0
LINE
  8
LC-005-005-----0
  6
CONTINUOUS
  5
347
 10
268.832508
 20
435.992552
 30
0.0
 11
270.236894
 21
437.396937
 31
0.0
  0
LINE
  8
LC-005-005-----0
  6
CONTINUOUS
  5
348
 10
268.832508
 20
436.275394
 30
0.0
 11
269.962999
 21
437.405884
 31
0.0
  0
LINE
  8
LC-005-005-----0
  6
CONTINUOUS
  5
349
 10
268.832508
 20
436.558237
 30
0.0
 11
269.689104
 21
437.414832
 31
0.0
  0
LINE
  8
LC-005-005-----0
  6
CONTINUOUS
  5
34A
 10
268.832508
 20
436.84108
 30
0.0
 11
269.415209
 21
437.42378
 31
0.0
  0
LINE
  8
LC-005-005-----0
  6
CONTINUOUS
  5
34B
 10
268.832508
 20
437.123922
 30
0.0
 11
269.141314
 21
437.432728
 31
0.0
  0
LINE
  8
LC-005-005-----0
  6
CONTINUOUS
  5
34C
 10
268.832508
 20
437.406765
 30
0.0
 11
268.867419
 21
437.441675
 31
0.0
  0
ENDBLK
  8
0
  5
34D
  0
BLOCK
  8
0
  5
34F
  2
BLK4
 70
    64
 10
0.0
 20
0.0
 30
0.0
  3
BLK4
  0
ENDBLK
  8
0
  5
350
  0
BLOCK
  8
0
  5
352
  2
*X22
 70
    65
 10
296.397662
 20
432.750542
 30
0.0
  3
*X22
  0
LINE
  8
LC-005-005-----0
  6
CONTINUOUS
  5
353
 10
322.641859
 20
432.950517
 30
0.0
 11
323.341858
 21
433.650515
 31
0.0
  0
LINE
  8
LC-005-005-----0
  6
CONTINUOUS
  5
354
 10
323.822513
 20
434.131171
 30
0.0
 11
324.318926
 21
434.627584
 31
0.0
  0
LINE
  8
LC-005-005-----0
  6
CONTINUOUS
  5
355
 10
322.527639
 20
434.25051
 30
0.0
 11
323.227643
 21
434.950515
 31
0.0
  0
LINE
  8
LC-005-005-----0
  6
CONTINUOUS
  5
356
 10
321.113417
 20
434.250501
 30
0.0
 11
321.813421
 21
434.950506
 31
0.0
  0
LINE
  8
LC-005-005-----0
  6
CONTINUOUS
  5
357
 10
319.699194
 20
434.250493
 30
0.0
 11
320.399198
 21
434.950497
 31
0.0
  0
LINE
  8
LC-005-005-----0
  6
CONTINUOUS
  5
358
 10
318.362437
 20
434.327949
 30
0.0
 11
318.984976
 21
434.950488
 31
0.0
  0
LINE
  8
LC-005-005-----0
  6
CONTINUOUS
  5
359
 10
317.706045
 20
435.085771
 30
0.0
 11
318.206045
 21
435.58577
 31
0.0
  0
LINE
  8
LC-005-005-----0
  6
CONTINUOUS
  5
35A
 10
316.456533
 20
435.250472
 30
0.0
 11
317.156538
 21
435.950477
 31
0.0
  0
LINE
  8
LC-005-005-----0
  6
CONTINUOUS
  5
35B
 10
315.332513
 20
435.540666
 30
0.0
 11
315.742315
 21
435.950468
 31
0.0
  0
LINE
  8
LC-005-005-----0
  6
CONTINUOUS
  5
35C
 10
304.193129
 20
432.886564
 30
0.0
 11
307.256981
 21
435.950415
 31
0.0
  0
LINE
  8
LC-005-005-----0
  6
CONTINUOUS
  5
35D
 10
302.642903
 20
432.750551
 30
0.0
 11
303.342905
 21
433.450553
 31
0.0
  0
LINE
  8
LC-005-005-----0
  6
CONTINUOUS
  5
35E
 10
301.228687
 20
432.750548
 30
0.0
 11
301.928688
 21
433.45055
 31
0.0
  0
LINE
  8
LC-005-005-----0
  6
CONTINUOUS
  5
35F
 10
299.81447
 20
432.750545
 30
0.0
 11
300.514472
 21
433.450546
 31
0.0
  0
LINE
  8
LC-005-005-----0
  6
CONTINUOUS
  5
360
 10
298.528822
 20
432.879111
 30
0.0
 11
299.117485
 21
433.467773
 31
0.0
  0
LINE
  8
LC-005-005-----0
  6
CONTINUOUS
  5
361
 10
297.591029
 20
433.355531
 30
0.0
 11
298.094062
 21
433.858564
 31
0.0
  0
LINE
  8
LC-005-005-----0
  6
CONTINUOUS
  5
362
 10
296.903999
 20
434.082715
 30
0.0
 11
297.416623
 21
434.595339
 31
0.0
  0
ENDBLK
  8
0
  5
363
  0
BLOCK
  8
0
  5
365
  2
BLK5
 70
    64
 10
0.0
 20
0.0
 30
0.0
  3
BLK5
  0
ENDBLK
  8
0
  5
366
  0
BLOCK
  8
0
  5
368
  2
*X24
 70
    65
 10
278.832508
 20
432.490729
 30
0.0
  3
*X24
  0
LINE
  8
LC-005-005-----0
  6
CONTINUOUS
  5
369
 10
283.737768
 20
432.513035
 30
0.0
 11
283.832508
 21
432.607775
 31
0.0
  0
LINE
  8
LC-005-005-----0
  6
CONTINUOUS
  5
36A
 10
283.508826
 20
432.566936
 30
0.0
 11
283.832508
 21
432.890618
 31
0.0
  0
LINE
  8
LC-005-005-----0
  6
CONTINUOUS
  5
36B
 10
283.279884
 20
432.620836
 30
0.0
 11
283.832508
 21
433.173461
 31
0.0
  0
LINE
  8
LC-005-005-----0
  6
CONTINUOUS
  5
36C
 10
283.050942
 20
432.674737
 30
0.0
 11
283.832508
 21
433.456303
 31
0.0
  0
LINE
  8
LC-005-005-----0
  6
CONTINUOUS
  5
36D
 10
282.822
 20
432.728638
 30
0.0
 11
283.832508
 21
433.739146
 31
0.0
  0
LINE
  8
LC-005-005-----0
  6
CONTINUOUS
  5
36E
 10
282.593059
 20
432.782539
 30
0.0
 11
283.832508
 21
434.021989
 31
0.0
  0
LINE
  8
LC-005-005-----0
  6
CONTINUOUS
  5
36F
 10
282.364117
 20
432.83644
 30
0.0
 11
283.832508
 21
434.304832
 31
0.0
  0
LINE
  8
LC-005-005-----0
  6
CONTINUOUS
  5
370
 10
282.135175
 20
432.890341
 30
0.0
 11
283.832508
 21
434.587674
 31
0.0
  0
LINE
  8
LC-005-005-----0
  6
CONTINUOUS
  5
371
 10
281.906233
 20
432.944242
 30
0.0
 11
283.832508
 21
434.870517
 31
0.0
  0
LINE
  8
LC-005-005-----0
  6
CONTINUOUS
  5
372
 10
281.677291
 20
432.998142
 30
0.0
 11
283.832508
 21
435.15336
 31
0.0
  0
LINE
  8
LC-005-005-----0
  6
CONTINUOUS
  5
373
 10
281.448349
 20
433.052043
 30
0.0
 11
283.832508
 21
435.436202
 31
0.0
  0
LINE
  8
LC-005-005-----0
  6
CONTINUOUS
  5
374
 10
281.219408
 20
433.105944
 30
0.0
 11
283.768686
 21
435.655223
 31
0.0
  0
LINE
  8
LC-005-005-----0
  6
CONTINUOUS
  5
375
 10
280.990466
 20
433.159845
 30
0.0
 11
283.53666
 21
435.706039
 31
0.0
  0
LINE
  8
LC-005-005-----0
  6
CONTINUOUS
  5
376
 10
280.761524
 20
433.213746
 30
0.0
 11
283.304634
 21
435.756856
 31
0.0
  0
LINE
  8
LC-005-005-----0
  6
CONTINUOUS
  5
377
 10
280.532582
 20
433.267647
 30
0.0
 11
283.072608
 21
435.807672
 31
0.0
  0
LINE
  8
LC-005-005-----0
  6
CONTINUOUS
  5
378
 10
280.30364
 20
433.321548
 30
0.0
 11
282.840582
 21
435.858489
 31
0.0
  0
LINE
  8
LC-005-005-----0
  6
CONTINUOUS
  5
379
 10
280.074698
 20
433.375448
 30
0.0
 11
282.608555
 21
435.909306
 31
0.0
  0
LINE
  8
LC-005-005-----0
  6
CONTINUOUS
  5
37A
 10
279.845756
 20
433.429349
 30
0.0
 11
282.376529
 21
435.960122
 31
0.0
  0
LINE
  8
LC-005-005-----0
  6
CONTINUOUS
  5
37B
 10
279.616815
 20
433.48325
 30
0.0
 11
282.144503
 21
436.010939
 31
0.0
  0
LINE
  8
LC-005-005-----0
  6
CONTINUOUS
  5
37C
 10
279.387873
 20
433.537151
 30
0.0
 11
281.912477
 21
436.061755
 31
0.0
  0
LINE
  8
LC-005-005-----0
  6
CONTINUOUS
  5
37D
 10
279.158931
 20
433.591052
 30
0.0
 11
281.680451
 21
436.112572
 31
0.0
  0
LINE
  8
LC-005-005-----0
  6
CONTINUOUS
  5
37E
 10
278.929989
 20
433.644953
 30
0.0
 11
281.448425
 21
436.163388
 31
0.0
  0
LINE
  8
LC-005-005-----0
  6
CONTINUOUS
  5
37F
 10
278.832508
 20
433.830315
 30
0.0
 11
281.216398
 21
436.214205
 31
0.0
  0
LINE
  8
LC-005-005-----0
  6
CONTINUOUS
  5
380
 10
278.832508
 20
434.113158
 30
0.0
 11
280.984372
 21
436.265021
 31
0.0
  0
LINE
  8
LC-005-005-----0
  6
CONTINUOUS
  5
381
 10
278.832508
 20
434.396
 30
0.0
 11
280.752346
 21
436.315838
 31
0.0
  0
LINE
  8
LC-005-005-----0
  6
CONTINUOUS
  5
382
 10
278.832508
 20
434.678843
 30
0.0
 11
280.52032
 21
436.366654
 31
0.0
  0
LINE
  8
LC-005-005-----0
  6
CONTINUOUS
  5
383
 10
278.832508
 20
434.961686
 30
0.0
 11
280.288294
 21
436.417471
 31
0.0
  0
LINE
  8
LC-005-005-----0
  6
CONTINUOUS
  5
384
 10
278.832508
 20
435.244528
 30
0.0
 11
280.056267
 21
436.468287
 31
0.0
  0
LINE
  8
LC-005-005-----0
  6
CONTINUOUS
  5
385
 10
278.832508
 20
435.527371
 30
0.0
 11
279.824241
 21
436.519104
 31
0.0
  0
LINE
  8
LC-005-005-----0
  6
CONTINUOUS
  5
386
 10
278.832508
 20
435.810214
 30
0.0
 11
279.592215
 21
436.569921
 31
0.0
  0
LINE
  8
LC-005-005-----0
  6
CONTINUOUS
  5
387
 10
278.832508
 20
436.093057
 30
0.0
 11
279.360189
 21
436.620737
 31
0.0
  0
LINE
  8
LC-005-005-----0
  6
CONTINUOUS
  5
388
 10
278.832508
 20
436.375899
 30
0.0
 11
279.128163
 21
436.671554
 31
0.0
  0
LINE
  8
LC-005-005-----0
  6
CONTINUOUS
  5
389
 10
278.832508
 20
436.658742
 30
0.0
 11
278.896137
 21
436.72237
 31
0.0
  0
ENDBLK
  8
0
  5
38A
  0
BLOCK
  8
0
  5
38C
  2
*X25
 70
    65
 10
288.832508
 20
430.300608
 30
0.0
  3
*X25
  0
LINE
  8
LC-005-005-----0
  6
CONTINUOUS
  5
38D
 10
293.715197
 20
430.328228
 30
0.0
 11
293.832508
 21
430.445539
 31
0.0
  0
LINE
  8
LC-005-005-----0
  6
CONTINUOUS
  5
38E
 10
293.486256
 20
430.382128
 30
0.0
 11
293.832508
 21
430.728381
 31
0.0
  0
LINE
  8
LC-005-005-----0
  6
CONTINUOUS
  5
38F
 10
293.257314
 20
430.436029
 30
0.0
 11
293.832508
 21
431.011224
 31
0.0
  0
LINE
  8
LC-005-005-----0
  6
CONTINUOUS
  5
390
 10
293.028372
 20
430.48993
 30
0.0
 11
293.832508
 21
431.294067
 31
0.0
  0
LINE
  8
LC-005-005-----0
  6
CONTINUOUS
  5
391
 10
292.79943
 20
430.543831
 30
0.0
 11
293.832508
 21
431.576909
 31
0.0
  0
LINE
  8
LC-005-005-----0
  6
CONTINUOUS
  5
392
 10
292.570488
 20
430.597732
 30
0.0
 11
293.832508
 21
431.859752
 31
0.0
  0
LINE
  8
LC-005-005-----0
  6
CONTINUOUS
  5
393
 10
292.341546
 20
430.651633
 30
0.0
 11
293.832508
 21
432.142595
 31
0.0
  0
LINE
  8
LC-005-005-----0
  6
CONTINUOUS
  5
394
 10
292.112604
 20
430.705534
 30
0.0
 11
293.832508
 21
432.425438
 31
0.0
  0
LINE
  8
LC-005-005-----0
  6
CONTINUOUS
  5
395
 10
291.883663
 20
430.759434
 30
0.0
 11
293.832508
 21
432.70828
 31
0.0
  0
LINE
  8
LC-005-005-----0
  6
CONTINUOUS
  5
396
 10
291.654721
 20
430.813335
 30
0.0
 11
293.832508
 21
432.991123
 31
0.0
  0
LINE
  8
LC-005-005-----0
  6
CONTINUOUS
  5
397
 10
291.425779
 20
430.867236
 30
0.0
 11
293.832508
 21
433.273966
 31
0.0
  0
LINE
  8
LC-005-005-----0
  6
CONTINUOUS
  5
398
 10
291.196837
 20
430.921137
 30
0.0
 11
293.745812
 21
433.470112
 31
0.0
  0
LINE
  8
LC-005-005-----0
  6
CONTINUOUS
  5
399
 10
290.967895
 20
430.975038
 30
0.0
 11
293.513785
 21
433.520928
 31
0.0
  0
LINE
  8
LC-005-005-----0
  6
CONTINUOUS
  5
39A
 10
290.738953
 20
431.028939
 30
0.0
 11
293.281759
 21
433.571745
 31
0.0
  0
LINE
  8
LC-005-005-----0
  6
CONTINUOUS
  5
39B
 10
290.510011
 20
431.08284
 30
0.0
 11
293.049733
 21
433.622561
 31
0.0
  0
LINE
  8
LC-005-005-----0
  6
CONTINUOUS
  5
39C
 10
290.28107
 20
431.13674
 30
0.0
 11
292.817707
 21
433.673378
 31
0.0
  0
LINE
  8
LC-005-005-----0
  6
CONTINUOUS
  5
39D
 10
290.052128
 20
431.190641
 30
0.0
 11
292.585681
 21
433.724194
 31
0.0
  0
LINE
  8
LC-005-005-----0
  6
CONTINUOUS
  5
39E
 10
289.823186
 20
431.244542
 30
0.0
 11
292.353655
 21
433.775011
 31
0.0
  0
LINE
  8
LC-005-005-----0
  6
CONTINUOUS
  5
39F
 10
289.594244
 20
431.298443
 30
0.0
 11
292.121628
 21
433.825827
 31
0.0
  0
LINE
  8
LC-005-005-----0
  6
CONTINUOUS
  5
3A0
 10
289.365302
 20
431.352344
 30
0.0
 11
291.889602
 21
433.876644
 31
0.0
  0
LINE
  8
LC-005-005-----0
  6
CONTINUOUS
  5
3A1
 10
289.13636
 20
431.406245
 30
0.0
 11
291.657576
 21
433.92746
 31
0.0
  0
LINE
  8
LC-005-005-----0
  6
CONTINUOUS
  5
3A2
 10
288.907419
 20
431.460146
 30
0.0
 11
291.42555
 21
433.978277
 31
0.0
  0
LINE
  8
LC-005-005-----0
  6
CONTINUOUS
  5
3A3
 10
288.832508
 20
431.668078
 30
0.0
 11
291.193524
 21
434.029094
 31
0.0
  0
LINE
  8
LC-005-005-----0
  6
CONTINUOUS
  5
3A4
 10
288.832508
 20
431.950921
 30
0.0
 11
290.961498
 21
434.07991
 31
0.0
  0
LINE
  8
LC-005-005-----0
  6
CONTINUOUS
  5
3A5
 10
288.832508
 20
432.233764
 30
0.0
 11
290.729471
 21
434.130727
 31
0.0
  0
LINE
  8
LC-005-005-----0
  6
CONTINUOUS
  5
3A6
 10
288.832508
 20
432.516606
 30
0.0
 11
290.497445
 21
434.181543
 31
0.0
  0
LINE
  8
LC-005-005-----0
  6
CONTINUOUS
  5
3A7
 10
288.832508
 20
432.799449
 30
0.0
 11
290.265419
 21
434.23236
 31
0.0
  0
LINE
  8
LC-005-005-----0
  6
CONTINUOUS
  5
3A8
 10
288.832508
 20
433.082292
 30
0.0
 11
290.033393
 21
434.283176
 31
0.0
  0
LINE
  8
LC-005-005-----0
  6
CONTINUOUS
  5
3A9
 10
288.832508
 20
433.365135
 30
0.0
 11
289.801367
 21
434.333993
 31
0.0
  0
LINE
  8
LC-005-005-----0
  6
CONTINUOUS
  5
3AA
 10
288.832508
 20
433.647977
 30
0.0
 11
289.569341
 21
434.384809
 31
0.0
  0
LINE
  8
LC-005-005-----0
  6
CONTINUOUS
  5
3AB
 10
288.832508
 20
433.93082
 30
0.0
 11
289.337314
 21
434.435626
 31
0.0
  0
LINE
  8
LC-005-005-----0
  6
CONTINUOUS
  5
3AC
 10
288.832508
 20
434.213663
 30
0.0
 11
289.105288
 21
434.486442
 31
0.0
  0
LINE
  8
LC-005-005-----0
  6
CONTINUOUS
  5
3AD
 10
288.832508
 20
434.496505
 30
0.0
 11
288.873262
 21
434.537259
 31
0.0
  0
ENDBLK
  8
0
  5
3AE
  0
BLOCK
  8
0
  5
3B0
  2
*X26
 70
    65
 10
579.333487
 20
434.489902
 30
0.0
  3
*X26
  0
LINE
  8
LC-005-005-----0
  6
CONTINUOUS
  5
3B1
 10
581.568113
 20
434.489902
 30
0.0
 11
581.582998
 21
434.504787
 31
0.0
  0
LINE
  8
LC-005-005-----0
  6
CONTINUOUS
  5
3B2
 10
581.28527
 20
434.489902
 30
0.0
 11
581.582998
 21
434.78763
 31
0.0
  0
LINE
  8
LC-005-005-----0
  6
CONTINUOUS
  5
3B3
 10
581.002427
 20
434.489902
 30
0.0
 11
581.582998
 21
435.070473
 31
0.0
  0
LINE
  8
LC-005-005-----0
  6
CONTINUOUS
  5
3B4
 10
580.719584
 20
434.489902
 30
0.0
 11
581.582998
 21
435.353316
 31
0.0
  0
LINE
  8
LC-005-005-----0
  6
CONTINUOUS
  5
3B5
 10
580.436742
 20
434.489902
 30
0.0
 11
581.582998
 21
435.636158
 31
0.0
  0
LINE
  8
LC-005-005-----0
  6
CONTINUOUS
  5
3B6
 10
580.153899
 20
434.489902
 30
0.0
 11
581.582998
 21
435.919001
 31
0.0
  0
LINE
  8
LC-005-005-----0
  6
CONTINUOUS
  5
3B7
 10
579.871056
 20
434.489902
 30
0.0
 11
581.582998
 21
436.201844
 31
0.0
  0
LINE
  8
LC-005-005-----0
  6
CONTINUOUS
  5
3B8
 10
579.588214
 20
434.489902
 30
0.0
 11
581.582998
 21
436.484686
 31
0.0
  0
LINE
  8
LC-005-005-----0
  6
CONTINUOUS
  5
3B9
 10
579.333487
 20
434.518019
 30
0.0
 11
581.582998
 21
436.767529
 31
0.0
  0
LINE
  8
LC-005-005-----0
  6
CONTINUOUS
  5
3BA
 10
579.333487
 20
434.800861
 30
0.0
 11
581.582998
 21
437.050372
 31
0.0
  0
LINE
  8
LC-005-005-----0
  6
CONTINUOUS
  5
3BB
 10
579.333487
 20
435.083704
 30
0.0
 11
581.582998
 21
437.333215
 31
0.0
  0
LINE
  8
LC-005-005-----0
  6
CONTINUOUS
  5
3BC
 10
579.333487
 20
435.366547
 30
0.0
 11
581.456843
 21
437.489902
 31
0.0
  0
LINE
  8
LC-005-005-----0
  6
CONTINUOUS
  5
3BD
 10
579.333487
 20
435.649389
 30
0.0
 11
581.174
 21
437.489902
 31
0.0
  0
LINE
  8
LC-005-005-----0
  6
CONTINUOUS
  5
3BE
 10
579.333487
 20
435.932232
 30
0.0
 11
580.891157
 21
437.489902
 31
0.0
  0
LINE
  8
LC-005-005-----0
  6
CONTINUOUS
  5
3BF
 10
579.333487
 20
436.215075
 30
0.0
 11
580.608315
 21
437.489902
 31
0.0
  0
LINE
  8
LC-005-005-----0
  6
CONTINUOUS
  5
3C0
 10
579.333487
 20
436.497918
 30
0.0
 11
580.325472
 21
437.489902
 31
0.0
  0
LINE
  8
LC-005-005-----0
  6
CONTINUOUS
  5
3C1
 10
579.333487
 20
436.78076
 30
0.0
 11
580.042629
 21
437.489902
 31
0.0
  0
LINE
  8
LC-005-005-----0
  6
CONTINUOUS
  5
3C2
 10
579.333487
 20
437.063603
 30
0.0
 11
579.759786
 21
437.489902
 31
0.0
  0
LINE
  8
LC-005-005-----0
  6
CONTINUOUS
  5
3C3
 10
579.333487
 20
437.346446
 30
0.0
 11
579.476944
 21
437.489902
 31
0.0
  0
ENDBLK
  8
0
  5
3C4
  0
BLOCK
  8
0
  5
3C6
  2
*X27
 70
    65
 10
569.333487
 20
434.489902
 30
0.0
  3
*X27
  0
LINE
  8
LC-005-005-----0
  6
CONTINUOUS
  5
3C7
 10
574.214202
 20
434.489902
 30
0.0
 11
574.333487
 21
434.609187
 31
0.0
  0
LINE
  8
LC-005-005-----0
  6
CONTINUOUS
  5
3C8
 10
573.931359
 20
434.489902
 30
0.0
 11
574.333487
 21
434.89203
 31
0.0
  0
LINE
  8
LC-005-005-----0
  6
CONTINUOUS
  5
3C9
 10
573.648517
 20
434.489902
 30
0.0
 11
574.333487
 21
435.174873
 31
0.0
  0
LINE
  8
LC-005-005-----0
  6
CONTINUOUS
  5
3CA
 10
573.365674
 20
434.489902
 30
0.0
 11
574.333487
 21
435.457716
 31
0.0
  0
LINE
  8
LC-005-005-----0
  6
CONTINUOUS
  5
3CB
 10
573.082831
 20
434.489902
 30
0.0
 11
574.333487
 21
435.740558
 31
0.0
  0
LINE
  8
LC-005-005-----0
  6
CONTINUOUS
  5
3CC
 10
572.799989
 20
434.489902
 30
0.0
 11
574.333487
 21
436.023401
 31
0.0
  0
LINE
  8
LC-005-005-----0
  6
CONTINUOUS
  5
3CD
 10
572.517146
 20
434.489902
 30
0.0
 11
574.333487
 21
436.306244
 31
0.0
  0
LINE
  8
LC-005-005-----0
  6
CONTINUOUS
  5
3CE
 10
572.234303
 20
434.489902
 30
0.0
 11
574.333487
 21
436.589086
 31
0.0
  0
LINE
  8
LC-005-005-----0
  6
CONTINUOUS
  5
3CF
 10
571.95146
 20
434.489902
 30
0.0
 11
574.333487
 21
436.871929
 31
0.0
  0
LINE
  8
LC-005-005-----0
  6
CONTINUOUS
  5
3D0
 10
571.668618
 20
434.489902
 30
0.0
 11
574.333487
 21
437.154772
 31
0.0
  0
LINE
  8
LC-005-005-----0
  6
CONTINUOUS
  5
3D1
 10
571.385775
 20
434.489902
 30
0.0
 11
574.333487
 21
437.437615
 31
0.0
  0
LINE
  8
LC-005-005-----0
  6
CONTINUOUS
  5
3D2
 10
571.102932
 20
434.489902
 30
0.0
 11
574.102932
 21
437.489902
 31
0.0
  0
LINE
  8
LC-005-005-----0
  6
CONTINUOUS
  5
3D3
 10
570.82009
 20
434.489902
 30
0.0
 11
573.82009
 21
437.489902
 31
0.0
  0
LINE
  8
LC-005-005-----0
  6
CONTINUOUS
  5
3D4
 10
570.537247
 20
434.489902
 30
0.0
 11
573.537247
 21
437.489902
 31
0.0
  0
LINE
  8
LC-005-005-----0
  6
CONTINUOUS
  5
3D5
 10
570.254404
 20
434.489902
 30
0.0
 11
573.254404
 21
437.489902
 31
0.0
  0
LINE
  8
LC-005-005-----0
  6
CONTINUOUS
  5
3D6
 10
569.971561
 20
434.489902
 30
0.0
 11
572.971561
 21
437.489902
 31
0.0
  0
LINE
  8
LC-005-005-----0
  6
CONTINUOUS
  5
3D7
 10
569.688719
 20
434.489902
 30
0.0
 11
572.688719
 21
437.489902
 31
0.0
  0
LINE
  8
LC-005-005-----0
  6
CONTINUOUS
  5
3D8
 10
569.405876
 20
434.489902
 30
0.0
 11
572.405876
 21
437.489902
 31
0.0
  0
LINE
  8
LC-005-005-----0
  6
CONTINUOUS
  5
3D9
 10
569.333487
 20
434.700356
 30
0.0
 11
572.123033
 21
437.489902
 31
0.0
  0
LINE
  8
LC-005-005-----0
  6
CONTINUOUS
  5
3DA
 10
569.333487
 20
434.983199
 30
0.0
 11
571.840191
 21
437.489902
 31
0.0
  0
LINE
  8
LC-005-005-----0
  6
CONTINUOUS
  5
3DB
 10
569.333487
 20
435.266042
 30
0.0
 11
571.557348
 21
437.489902
 31
0.0
  0
LINE
  8
LC-005-005-----0
  6
CONTINUOUS
  5
3DC
 10
569.333487
 20
435.548884
 30
0.0
 11
571.274505
 21
437.489902
 31
0.0
  0
LINE
  8
LC-005-005-----0
  6
CONTINUOUS
  5
3DD
 10
569.333487
 20
435.831727
 30
0.0
 11
570.991662
 21
437.489902
 31
0.0
  0
LINE
  8
LC-005-005-----0
  6
CONTINUOUS
  5
3DE
 10
569.333487
 20
436.11457
 30
0.0
 11
570.70882
 21
437.489902
 31
0.0
  0
LINE
  8
LC-005-005-----0
  6
CONTINUOUS
  5
3DF
 10
569.333487
 20
436.397412
 30
0.0
 11
570.425977
 21
437.489902
 31
0.0
  0
LINE
  8
LC-005-005-----0
  6
CONTINUOUS
  5
3E0
 10
569.333487
 20
436.680255
 30
0.0
 11
570.143134
 21
437.489902
 31
0.0
  0
LINE
  8
LC-005-005-----0
  6
CONTINUOUS
  5
3E1
 10
569.333487
 20
436.963098
 30
0.0
 11
569.860292
 21
437.489902
 31
0.0
  0
LINE
  8
LC-005-005-----0
  6
CONTINUOUS
  5
3E2
 10
569.333487
 20
437.245941
 30
0.0
 11
569.577449
 21
437.489902
 31
0.0
  0
ENDBLK
  8
0
  5
3E3
  0
BLOCK
  8
0
  5
3E5
  2
*X28
 70
    65
 10
559.333487
 20
434.489902
 30
0.0
  3
*X28
  0
LINE
  8
LC-005-005-----0
  6
CONTINUOUS
  5
3E6
 10
564.314707
 20
434.489902
 30
0.0
 11
564.333487
 21
434.508682
 31
0.0
  0
LINE
  8
LC-005-005-----0
  6
CONTINUOUS
  5
3E7
 10
564.031864
 20
434.489902
 30
0.0
 11
564.333487
 21
434.791525
 31
0.0
  0
LINE
  8
LC-005-005-----0
  6
CONTINUOUS
  5
3E8
 10
563.749022
 20
434.489902
 30
0.0
 11
564.333487
 21
435.074368
 31
0.0
  0
LINE
  8
LC-005-005-----0
  6
CONTINUOUS
  5
3E9
 10
563.466179
 20
434.489902
 30
0.0
 11
564.333487
 21
435.35721
 31
0.0
  0
LINE
  8
LC-005-005-----0
  6
CONTINUOUS
  5
3EA
 10
563.183336
 20
434.489902
 30
0.0
 11
564.333487
 21
435.640053
 31
0.0
  0
LINE
  8
LC-005-005-----0
  6
CONTINUOUS
  5
3EB
 10
562.900494
 20
434.489902
 30
0.0
 11
564.333487
 21
435.922896
 31
0.0
  0
LINE
  8
LC-005-005-----0
  6
CONTINUOUS
  5
3EC
 10
562.617651
 20
434.489902
 30
0.0
 11
564.333487
 21
436.205739
 31
0.0
  0
LINE
  8
LC-005-005-----0
  6
CONTINUOUS
  5
3ED
 10
562.334808
 20
434.489902
 30
0.0
 11
564.333487
 21
436.488581
 31
0.0
  0
LINE
  8
LC-005-005-----0
  6
CONTINUOUS
  5
3EE
 10
562.051965
 20
434.489902
 30
0.0
 11
564.333487
 21
436.771424
 31
0.0
  0
LINE
  8
LC-005-005-----0
  6
CONTINUOUS
  5
3EF
 10
561.769123
 20
434.489902
 30
0.0
 11
564.333487
 21
437.054267
 31
0.0
  0
LINE
  8
LC-005-005-----0
  6
CONTINUOUS
  5
3F0
 10
561.48628
 20
434.489902
 30
0.0
 11
564.333487
 21
437.337109
 31
0.0
  0
LINE
  8
LC-005-005-----0
  6
CONTINUOUS
  5
3F1
 10
561.203437
 20
434.489902
 30
0.0
 11
564.203437
 21
437.489902
 31
0.0
  0
LINE
  8
LC-005-005-----0
  6
CONTINUOUS
  5
3F2
 10
560.920595
 20
434.489902
 30
0.0
 11
563.920595
 21
437.489902
 31
0.0
  0
LINE
  8
LC-005-005-----0
  6
CONTINUOUS
  5
3F3
 10
560.637752
 20
434.489902
 30
0.0
 11
563.637752
 21
437.489902
 31
0.0
  0
LINE
  8
LC-005-005-----0
  6
CONTINUOUS
  5
3F4
 10
560.354909
 20
434.489902
 30
0.0
 11
563.354909
 21
437.489902
 31
0.0
  0
LINE
  8
LC-005-005-----0
  6
CONTINUOUS
  5
3F5
 10
560.072066
 20
434.489902
 30
0.0
 11
563.072066
 21
437.489902
 31
0.0
  0
LINE
  8
LC-005-005-----0
  6
CONTINUOUS
  5
3F6
 10
559.789224
 20
434.489902
 30
0.0
 11
562.789224
 21
437.489902
 31
0.0
  0
LINE
  8
LC-005-005-----0
  6
CONTINUOUS
  5
3F7
 10
559.506381
 20
434.489902
 30
0.0
 11
562.506381
 21
437.489902
 31
0.0
  0
LINE
  8
LC-005-005-----0
  6
CONTINUOUS
  5
3F8
 10
559.333487
 20
434.599851
 30
0.0
 11
562.223538
 21
437.489902
 31
0.0
  0
LINE
  8
LC-005-005-----0
  6
CONTINUOUS
  5
3F9
 10
559.333487
 20
434.882694
 30
0.0
 11
561.940696
 21
437.489902
 31
0.0
  0
LINE
  8
LC-005-005-----0
  6
CONTINUOUS
  5
3FA
 10
559.333487
 20
435.165537
 30
0.0
 11
561.657853
 21
437.489902
 31
0.0
  0
LINE
  8
LC-005-005-----0
  6
CONTINUOUS
  5
3FB
 10
559.333487
 20
435.448379
 30
0.0
 11
561.37501
 21
437.489902
 31
0.0
  0
LINE
  8
LC-005-005-----0
  6
CONTINUOUS
  5
3FC
 10
559.333487
 20
435.731222
 30
0.0
 11
561.092167
 21
437.489902
 31
0.0
  0
LINE
  8
LC-005-005-----0
  6
CONTINUOUS
  5
3FD
 10
559.333487
 20
436.014065
 30
0.0
 11
560.809325
 21
437.489902
 31
0.0
  0
LINE
  8
LC-005-005-----0
  6
CONTINUOUS
  5
3FE
 10
559.333487
 20
436.296907
 30
0.0
 11
560.526482
 21
437.489902
 31
0.0
  0
LINE
  8
LC-005-005-----0
  6
CONTINUOUS
  5
3FF
 10
559.333487
 20
436.57975
 30
0.0
 11
560.243639
 21
437.489902
 31
0.0
  0
LINE
  8
LC-005-005-----0
  6
CONTINUOUS
  5
400
 10
559.333487
 20
436.862593
 30
0.0
 11
559.960797
 21
437.489902
 31
0.0
  0
LINE
  8
LC-005-005-----0
  6
CONTINUOUS
  5
401
 10
559.333487
 20
437.145436
 30
0.0
 11
559.677954
 21
437.489902
 31
0.0
  0
LINE
  8
LC-005-005-----0
  6
CONTINUOUS
  5
402
 10
559.333487
 20
437.428278
 30
0.0
 11
559.395111
 21
437.489902
 31
0.0
  0
ENDBLK
  8
0
  5
403
  0
BLOCK
  8
0
  5
405
  2
*X29
 70
    65
 10
549.333487
 20
434.489902
 30
0.0
  3
*X29
  0
LINE
  8
LC-005-005-----0
  6
CONTINUOUS
  5
406
 10
554.132369
 20
434.489902
 30
0.0
 11
554.333487
 21
434.69102
 31
0.0
  0
LINE
  8
LC-005-005-----0
  6
CONTINUOUS
  5
407
 10
553.849527
 20
434.489902
 30
0.0
 11
554.333487
 21
434.973863
 31
0.0
  0
LINE
  8
LC-005-005-----0
  6
CONTINUOUS
  5
408
 10
553.566684
 20
434.489902
 30
0.0
 11
554.333487
 21
435.256705
 31
0.0
  0
LINE
  8
LC-005-005-----0
  6
CONTINUOUS
  5
409
 10
553.283841
 20
434.489902
 30
0.0
 11
554.333487
 21
435.539548
 31
0.0
  0
LINE
  8
LC-005-005-----0
  6
CONTINUOUS
  5
40A
 10
553.000999
 20
434.489902
 30
0.0
 11
554.333487
 21
435.822391
 31
0.0
  0
LINE
  8
LC-005-005-----0
  6
CONTINUOUS
  5
40B
 10
552.718156
 20
434.489902
 30
0.0
 11
554.333487
 21
436.105234
 31
0.0
  0
LINE
  8
LC-005-005-----0
  6
CONTINUOUS
  5
40C
 10
552.435313
 20
434.489902
 30
0.0
 11
554.333487
 21
436.388076
 31
0.0
  0
LINE
  8
LC-005-005-----0
  6
CONTINUOUS
  5
40D
 10
552.152471
 20
434.489902
 30
0.0
 11
554.333487
 21
436.670919
 31
0.0
  0
LINE
  8
LC-005-005-----0
  6
CONTINUOUS
  5
40E
 10
551.869628
 20
434.489902
 30
0.0
 11
554.333487
 21
436.953762
 31
0.0
  0
LINE
  8
LC-005-005-----0
  6
CONTINUOUS
  5
40F
 10
551.586785
 20
434.489902
 30
0.0
 11
554.333487
 21
437.236604
 31
0.0
  0
LINE
  8
LC-005-005-----0
  6
CONTINUOUS
  5
410
 10
551.303942
 20
434.489902
 30
0.0
 11
554.303942
 21
437.489902
 31
0.0
  0
LINE
  8
LC-005-005-----0
  6
CONTINUOUS
  5
411
 10
551.0211
 20
434.489902
 30
0.0
 11
554.0211
 21
437.489902
 31
0.0
  0
LINE
  8
LC-005-005-----0
  6
CONTINUOUS
  5
412
 10
550.738257
 20
434.489902
 30
0.0
 11
553.738257
 21
437.489902
 31
0.0
  0
LINE
  8
LC-005-005-----0
  6
CONTINUOUS
  5
413
 10
550.455414
 20
434.489902
 30
0.0
 11
553.455414
 21
437.489902
 31
0.0
  0
LINE
  8
LC-005-005-----0
  6
CONTINUOUS
  5
414
 10
550.172572
 20
434.489902
 30
0.0
 11
553.172572
 21
437.489902
 31
0.0
  0
LINE
  8
LC-005-005-----0
  6
CONTINUOUS
  5
415
 10
549.889729
 20
434.489902
 30
0.0
 11
552.889729
 21
437.489902
 31
0.0
  0
LINE
  8
LC-005-005-----0
  6
CONTINUOUS
  5
416
 10
549.606886
 20
434.489902
 30
0.0
 11
552.606886
 21
437.489902
 31
0.0
  0
LINE
  8
LC-005-005-----0
  6
CONTINUOUS
  5
417
 10
549.333487
 20
434.499346
 30
0.0
 11
552.324043
 21
437.489902
 31
0.0
  0
LINE
  8
LC-005-005-----0
  6
CONTINUOUS
  5
418
 10
549.333487
 20
434.782189
 30
0.0
 11
552.041201
 21
437.489902
 31
0.0
  0
LINE
  8
LC-005-005-----0
  6
CONTINUOUS
  5
419
 10
549.333487
 20
435.065032
 30
0.0
 11
551.758358
 21
437.489902
 31
0.0
  0
LINE
  8
LC-005-005-----0
  6
CONTINUOUS
  5
41A
 10
549.333487
 20
435.347874
 30
0.0
 11
551.475515
 21
437.489902
 31
0.0
  0
LINE
  8
LC-005-005-----0
  6
CONTINUOUS
  5
41B
 10
549.333487
 20
435.630717
 30
0.0
 11
551.192673
 21
437.489902
 31
0.0
  0
LINE
  8
LC-005-005-----0
  6
CONTINUOUS
  5
41C
 10
549.333487
 20
435.91356
 30
0.0
 11
550.90983
 21
437.489902
 31
0.0
  0
LINE
  8
LC-005-005-----0
  6
CONTINUOUS
  5
41D
 10
549.333487
 20
436.196402
 30
0.0
 11
550.626987
 21
437.489902
 31
0.0
  0
LINE
  8
LC-005-005-----0
  6
CONTINUOUS
  5
41E
 10
549.333487
 20
436.479245
 30
0.0
 11
550.344144
 21
437.489902
 31
0.0
  0
LINE
  8
LC-005-005-----0
  6
CONTINUOUS
  5
41F
 10
549.333487
 20
436.762088
 30
0.0
 11
550.061302
 21
437.489902
 31
0.0
  0
LINE
  8
LC-005-005-----0
  6
CONTINUOUS
  5
420
 10
549.333487
 20
437.044931
 30
0.0
 11
549.778459
 21
437.489902
 31
0.0
  0
LINE
  8
LC-005-005-----0
  6
CONTINUOUS
  5
421
 10
549.333487
 20
437.327773
 30
0.0
 11
549.495616
 21
437.489902
 31
0.0
  0
ENDBLK
  8
0
  5
422
  0
BLOCK
  8
0
  5
424
  2
*X30
 70
    65
 10
539.333487
 20
434.489902
 30
0.0
  3
*X30
  0
LINE
  8
LC-005-005-----0
  6
CONTINUOUS
  5
425
 10
544.232875
 20
434.489902
 30
0.0
 11
544.333487
 21
434.590515
 31
0.0
  0
LINE
  8
LC-005-005-----0
  6
CONTINUOUS
  5
426
 10
543.950032
 20
434.489902
 30
0.0
 11
544.333487
 21
434.873358
 31
0.0
  0
LINE
  8
LC-005-005-----0
  6
CONTINUOUS
  5
427
 10
543.667189
 20
434.489902
 30
0.0
 11
544.333487
 21
435.1562
 31
0.0
  0
LINE
  8
LC-005-005-----0
  6
CONTINUOUS
  5
428
 10
543.384346
 20
434.489902
 30
0.0
 11
544.333487
 21
435.439043
 31
0.0
  0
LINE
  8
LC-005-005-----0
  6
CONTINUOUS
  5
429
 10
543.101504
 20
434.489902
 30
0.0
 11
544.333487
 21
435.721886
 31
0.0
  0
LINE
  8
LC-005-005-----0
  6
CONTINUOUS
  5
42A
 10
542.818661
 20
434.489902
 30
0.0
 11
544.333487
 21
436.004728
 31
0.0
  0
LINE
  8
LC-005-005-----0
  6
CONTINUOUS
  5
42B
 10
542.535818
 20
434.489902
 30
0.0
 11
544.333487
 21
436.287571
 31
0.0
  0
LINE
  8
LC-005-005-----0
  6
CONTINUOUS
  5
42C
 10
542.252976
 20
434.489902
 30
0.0
 11
544.333487
 21
436.570414
 31
0.0
  0
LINE
  8
LC-005-005-----0
  6
CONTINUOUS
  5
42D
 10
541.970133
 20
434.489902
 30
0.0
 11
544.333487
 21
436.853257
 31
0.0
  0
LINE
  8
LC-005-005-----0
  6
CONTINUOUS
  5
42E
 10
541.68729
 20
434.489902
 30
0.0
 11
544.333487
 21
437.136099
 31
0.0
  0
LINE
  8
LC-005-005-----0
  6
CONTINUOUS
  5
42F
 10
541.404447
 20
434.489902
 30
0.0
 11
544.333487
 21
437.418942
 31
0.0
  0
LINE
  8
LC-005-005-----0
  6
CONTINUOUS
  5
430
 10
541.121605
 20
434.489902
 30
0.0
 11
544.121605
 21
437.489902
 31
0.0
  0
LINE
  8
LC-005-005-----0
  6
CONTINUOUS
  5
431
 10
540.838762
 20
434.489902
 30
0.0
 11
543.838762
 21
437.489902
 31
0.0
  0
LINE
  8
LC-005-005-----0
  6
CONTINUOUS
  5
432
 10
540.555919
 20
434.489902
 30
0.0
 11
543.555919
 21
437.489902
 31
0.0
  0
LINE
  8
LC-005-005-----0
  6
CONTINUOUS
  5
433
 10
540.273077
 20
434.489902
 30
0.0
 11
543.273077
 21
437.489902
 31
0.0
  0
LINE
  8
LC-005-005-----0
  6
CONTINUOUS
  5
434
 10
539.990234
 20
434.489902
 30
0.0
 11
542.990234
 21
437.489902
 31
0.0
  0
LINE
  8
LC-005-005-----0
  6
CONTINUOUS
  5
435
 10
539.707391
 20
434.489902
 30
0.0
 11
542.707391
 21
437.489902
 31
0.0
  0
LINE
  8
LC-005-005-----0
  6
CONTINUOUS
  5
436
 10
539.424548
 20
434.489902
 30
0.0
 11
542.424548
 21
437.489902
 31
0.0
  0
LINE
  8
LC-005-005-----0
  6
CONTINUOUS
  5
437
 10
539.333487
 20
434.681684
 30
0.0
 11
542.141706
 21
437.489902
 31
0.0
  0
LINE
  8
LC-005-005-----0
  6
CONTINUOUS
  5
438
 10
539.333487
 20
434.964526
 30
0.0
 11
541.858863
 21
437.489902
 31
0.0
  0
LINE
  8
LC-005-005-----0
  6
CONTINUOUS
  5
439
 10
539.333487
 20
435.247369
 30
0.0
 11
541.57602
 21
437.489902
 31
0.0
  0
LINE
  8
LC-005-005-----0
  6
CONTINUOUS
  5
43A
 10
539.333487
 20
435.530212
 30
0.0
 11
541.293178
 21
437.489902
 31
0.0
  0
LINE
  8
LC-005-005-----0
  6
CONTINUOUS
  5
43B
 10
539.333487
 20
435.813055
 30
0.0
 11
541.010335
 21
437.489902
 31
0.0
  0
LINE
  8
LC-005-005-----0
  6
CONTINUOUS
  5
43C
 10
539.333487
 20
436.095897
 30
0.0
 11
540.727492
 21
437.489902
 31
0.0
  0
LINE
  8
LC-005-005-----0
  6
CONTINUOUS
  5
43D
 10
539.333487
 20
436.37874
 30
0.0
 11
540.444649
 21
437.489902
 31
0.0
  0
LINE
  8
LC-005-005-----0
  6
CONTINUOUS
  5
43E
 10
539.333487
 20
436.661583
 30
0.0
 11
540.161807
 21
437.489902
 31
0.0
  0
LINE
  8
LC-005-005-----0
  6
CONTINUOUS
  5
43F
 10
539.333487
 20
436.944425
 30
0.0
 11
539.878964
 21
437.489902
 31
0.0
  0
LINE
  8
LC-005-005-----0
  6
CONTINUOUS
  5
440
 10
539.333487
 20
437.227268
 30
0.0
 11
539.596121
 21
437.489902
 31
0.0
  0
ENDBLK
  8
0
  5
441
  0
BLOCK
  8
0
  5
443
  2
*X31
 70
    65
 10
529.333487
 20
434.489902
 30
0.0
  3
*X31
  0
LINE
  8
LC-005-005-----0
  6
CONTINUOUS
  5
444
 10
534.33338
 20
434.489902
 30
0.0
 11
534.333487
 21
434.49001
 31
0.0
  0
LINE
  8
LC-005-005-----0
  6
CONTINUOUS
  5
445
 10
534.050537
 20
434.489902
 30
0.0
 11
534.333487
 21
434.772853
 31
0.0
  0
LINE
  8
LC-005-005-----0
  6
CONTINUOUS
  5
446
 10
533.767694
 20
434.489902
 30
0.0
 11
534.333487
 21
435.055695
 31
0.0
  0
LINE
  8
LC-005-005-----0
  6
CONTINUOUS
  5
447
 10
533.484851
 20
434.489902
 30
0.0
 11
534.333487
 21
435.338538
 31
0.0
  0
LINE
  8
LC-005-005-----0
  6
CONTINUOUS
  5
448
 10
533.202009
 20
434.489902
 30
0.0
 11
534.333487
 21
435.621381
 31
0.0
  0
LINE
  8
LC-005-005-----0
  6
CONTINUOUS
  5
449
 10
532.919166
 20
434.489902
 30
0.0
 11
534.333487
 21
435.904223
 31
0.0
  0
LINE
  8
LC-005-005-----0
  6
CONTINUOUS
  5
44A
 10
532.636323
 20
434.489902
 30
0.0
 11
534.333487
 21
436.187066
 31
0.0
  0
LINE
  8
LC-005-005-----0
  6
CONTINUOUS
  5
44B
 10
532.353481
 20
434.489902
 30
0.0
 11
534.333487
 21
436.469909
 31
0.0
  0
LINE
  8
LC-005-005-----0
  6
CONTINUOUS
  5
44C
 10
532.070638
 20
434.489902
 30
0.0
 11
534.333487
 21
436.752752
 31
0.0
  0
LINE
  8
LC-005-005-----0
  6
CONTINUOUS
  5
44D
 10
531.787795
 20
434.489902
 30
0.0
 11
534.333487
 21
437.035594
 31
0.0
  0
LINE
  8
LC-005-005-----0
  6
CONTINUOUS
  5
44E
 10
531.504952
 20
434.489902
 30
0.0
 11
534.333487
 21
437.318437
 31
0.0
  0
LINE
  8
LC-005-005-----0
  6
CONTINUOUS
  5
44F
 10
531.22211
 20
434.489902
 30
0.0
 11
534.22211
 21
437.489902
 31
0.0
  0
LINE
  8
LC-005-005-----0
  6
CONTINUOUS
  5
450
 10
530.939267
 20
434.489902
 30
0.0
 11
533.939267
 21
437.489902
 31
0.0
  0
LINE
  8
LC-005-005-----0
  6
CONTINUOUS
  5
451
 10
530.656424
 20
434.489902
 30
0.0
 11
533.656424
 21
437.489902
 31
0.0
  0
LINE
  8
LC-005-005-----0
  6
CONTINUOUS
  5
452
 10
530.373582
 20
434.489902
 30
0.0
 11
533.373582
 21
437.489902
 31
0.0
  0
LINE
  8
LC-005-005-----0
  6
CONTINUOUS
  5
453
 10
530.090739
 20
434.489902
 30
0.0
 11
533.090739
 21
437.489902
 31
0.0
  0
LINE
  8
LC-005-005-----0
  6
CONTINUOUS
  5
454
 10
529.807896
 20
434.489902
 30
0.0
 11
532.807896
 21
437.489902
 31
0.0
  0
LINE
  8
LC-005-005-----0
  6
CONTINUOUS
  5
455
 10
529.525054
 20
434.489902
 30
0.0
 11
532.525054
 21
437.489902
 31
0.0
  0
LINE
  8
LC-005-005-----0
  6
CONTINUOUS
  5
456
 10
529.333487
 20
434.581179
 30
0.0
 11
532.242211
 21
437.489902
 31
0.0
  0
LINE
  8
LC-005-005-----0
  6
CONTINUOUS
  5
457
 10
529.333487
 20
434.864021
 30
0.0
 11
531.959368
 21
437.489902
 31
0.0
  0
LINE
  8
LC-005-005-----0
  6
CONTINUOUS
  5
458
 10
529.333487
 20
435.146864
 30
0.0
 11
531.676525
 21
437.489902
 31
0.0
  0
LINE
  8
LC-005-005-----0
  6
CONTINUOUS
  5
459
 10
529.333487
 20
435.429707
 30
0.0
 11
531.393683
 21
437.489902
 31
0.0
  0
LINE
  8
LC-005-005-----0
  6
CONTINUOUS
  5
45A
 10
529.333487
 20
435.71255
 30
0.0
 11
531.11084
 21
437.489902
 31
0.0
  0
LINE
  8
LC-005-005-----0
  6
CONTINUOUS
  5
45B
 10
529.333487
 20
435.995392
 30
0.0
 11
530.827997
 21
437.489902
 31
0.0
  0
LINE
  8
LC-005-005-----0
  6
CONTINUOUS
  5
45C
 10
529.333487
 20
436.278235
 30
0.0
 11
530.545155
 21
437.489902
 31
0.0
  0
LINE
  8
LC-005-005-----0
  6
CONTINUOUS
  5
45D
 10
529.333487
 20
436.561078
 30
0.0
 11
530.262312
 21
437.489902
 31
0.0
  0
LINE
  8
LC-005-005-----0
  6
CONTINUOUS
  5
45E
 10
529.333487
 20
436.84392
 30
0.0
 11
529.979469
 21
437.489902
 31
0.0
  0
LINE
  8
LC-005-005-----0
  6
CONTINUOUS
  5
45F
 10
529.333487
 20
437.126763
 30
0.0
 11
529.696626
 21
437.489902
 31
0.0
  0
LINE
  8
LC-005-005-----0
  6
CONTINUOUS
  5
460
 10
529.333487
 20
437.409606
 30
0.0
 11
529.413784
 21
437.489902
 31
0.0
  0
ENDBLK
  8
0
  5
461
  0
BLOCK
  8
0
  5
463
  2
*X32
 70
    65
 10
519.333487
 20
434.489902
 30
0.0
  3
*X32
  0
LINE
  8
LC-005-005-----0
  6
CONTINUOUS
  5
464
 10
524.151042
 20
434.489902
 30
0.0
 11
524.333487
 21
434.672347
 31
0.0
  0
LINE
  8
LC-005-005-----0
  6
CONTINUOUS
  5
465
 10
523.868199
 20
434.489902
 30
0.0
 11
524.333487
 21
434.95519
 31
0.0
  0
LINE
  8
LC-005-005-----0
  6
CONTINUOUS
  5
466
 10
523.585357
 20
434.489902
 30
0.0
 11
524.333487
 21
435.238033
 31
0.0
  0
LINE
  8
LC-005-005-----0
  6
CONTINUOUS
  5
467
 10
523.302514
 20
434.489902
 30
0.0
 11
524.333487
 21
435.520876
 31
0.0
  0
LINE
  8
LC-005-005-----0
  6
CONTINUOUS
  5
468
 10
523.019671
 20
434.489902
 30
0.0
 11
524.333487
 21
435.803718
 31
0.0
  0
LINE
  8
LC-005-005-----0
  6
CONTINUOUS
  5
469
 10
522.736828
 20
434.489902
 30
0.0
 11
524.333487
 21
436.086561
 31
0.0
  0
LINE
  8
LC-005-005-----0
  6
CONTINUOUS
  5
46A
 10
522.453986
 20
434.489902
 30
0.0
 11
524.333487
 21
436.369404
 31
0.0
  0
LINE
  8
LC-005-005-----0
  6
CONTINUOUS
  5
46B
 10
522.171143
 20
434.489902
 30
0.0
 11
524.333487
 21
436.652246
 31
0.0
  0
LINE
  8
LC-005-005-----0
  6
CONTINUOUS
  5
46C
 10
521.8883
 20
434.489902
 30
0.0
 11
524.333487
 21
436.935089
 31
0.0
  0
LINE
  8
LC-005-005-----0
  6
CONTINUOUS
  5
46D
 10
521.605458
 20
434.489902
 30
0.0
 11
524.333487
 21
437.217932
 31
0.0
  0
LINE
  8
LC-005-005-----0
  6
CONTINUOUS
  5
46E
 10
521.322615
 20
434.489902
 30
0.0
 11
524.322615
 21
437.489902
 31
0.0
  0
LINE
  8
LC-005-005-----0
  6
CONTINUOUS
  5
46F
 10
521.039772
 20
434.489902
 30
0.0
 11
524.039772
 21
437.489902
 31
0.0
  0
LINE
  8
LC-005-005-----0
  6
CONTINUOUS
  5
470
 10
520.756929
 20
434.489902
 30
0.0
 11
523.756929
 21
437.489902
 31
0.0
  0
LINE
  8
LC-005-005-----0
  6
CONTINUOUS
  5
471
 10
520.474087
 20
434.489902
 30
0.0
 11
523.474087
 21
437.489902
 31
0.0
  0
LINE
  8
LC-005-005-----0
  6
CONTINUOUS
  5
472
 10
520.191244
 20
434.489902
 30
0.0
 11
523.191244
 21
437.489902
 31
0.0
  0
LINE
  8
LC-005-005-----0
  6
CONTINUOUS
  5
473
 10
519.908401
 20
434.489902
 30
0.0
 11
522.908401
 21
437.489902
 31
0.0
  0
LINE
  8
LC-005-005-----0
  6
CONTINUOUS
  5
474
 10
519.625559
 20
434.489902
 30
0.0
 11
522.625559
 21
437.489902
 31
0.0
  0
LINE
  8
LC-005-005-----0
  6
CONTINUOUS
  5
475
 10
519.342716
 20
434.489902
 30
0.0
 11
522.342716
 21
437.489902
 31
0.0
  0
LINE
  8
LC-005-005-----0
  6
CONTINUOUS
  5
476
 10
519.333487
 20
434.763516
 30
0.0
 11
522.059873
 21
437.489902
 31
0.0
  0
LINE
  8
LC-005-005-----0
  6
CONTINUOUS
  5
477
 10
519.333487
 20
435.046359
 30
0.0
 11
521.77703
 21
437.489902
 31
0.0
  0
LINE
  8
LC-005-005-----0
  6
CONTINUOUS
  5
478
 10
519.333487
 20
435.329202
 30
0.0
 11
521.494188
 21
437.489902
 31
0.0
  0
LINE
  8
LC-005-005-----0
  6
CONTINUOUS
  5
479
 10
519.333487
 20
435.612044
 30
0.0
 11
521.211345
 21
437.489902
 31
0.0
  0
LINE
  8
LC-005-005-----0
  6
CONTINUOUS
  5
47A
 10
519.333487
 20
435.894887
 30
0.0
 11
520.928502
 21
437.489902
 31
0.0
  0
LINE
  8
LC-005-005-----0
  6
CONTINUOUS
  5
47B
 10
519.333487
 20
436.17773
 30
0.0
 11
520.64566
 21
437.489902
 31
0.0
  0
LINE
  8
LC-005-005-----0
  6
CONTINUOUS
  5
47C
 10
519.333487
 20
436.460573
 30
0.0
 11
520.362817
 21
437.489902
 31
0.0
  0
LINE
  8
LC-005-005-----0
  6
CONTINUOUS
  5
47D
 10
519.333487
 20
436.743415
 30
0.0
 11
520.079974
 21
437.489902
 31
0.0
  0
LINE
  8
LC-005-005-----0
  6
CONTINUOUS
  5
47E
 10
519.333487
 20
437.026258
 30
0.0
 11
519.797131
 21
437.489902
 31
0.0
  0
LINE
  8
LC-005-005-----0
  6
CONTINUOUS
  5
47F
 10
519.333487
 20
437.309101
 30
0.0
 11
519.514289
 21
437.489902
 31
0.0
  0
ENDBLK
  8
0
  5
480
  0
BLOCK
  8
0
  5
482
  2
*X33
 70
    65
 10
509.333487
 20
434.489902
 30
0.0
  3
*X33
  0
LINE
  8
LC-005-005-----0
  6
CONTINUOUS
  5
483
 10
514.251547
 20
434.489902
 30
0.0
 11
514.333487
 21
434.571842
 31
0.0
  0
LINE
  8
LC-005-005-----0
  6
CONTINUOUS
  5
484
 10
513.968704
 20
434.489902
 30
0.0
 11
514.333487
 21
434.854685
 31
0.0
  0
LINE
  8
LC-005-005-----0
  6
CONTINUOUS
  5
485
 10
513.685862
 20
434.489902
 30
0.0
 11
514.333487
 21
435.137528
 31
0.0
  0
LINE
  8
LC-005-005-----0
  6
CONTINUOUS
  5
486
 10
513.403019
 20
434.489902
 30
0.0
 11
514.333487
 21
435.420371
 31
0.0
  0
LINE
  8
LC-005-005-----0
  6
CONTINUOUS
  5
487
 10
513.120176
 20
434.489902
 30
0.0
 11
514.333487
 21
435.703213
 31
0.0
  0
LINE
  8
LC-005-005-----0
  6
CONTINUOUS
  5
488
 10
512.837333
 20
434.489902
 30
0.0
 11
514.333487
 21
435.986056
 31
0.0
  0
LINE
  8
LC-005-005-----0
  6
CONTINUOUS
  5
489
 10
512.554491
 20
434.489902
 30
0.0
 11
514.333487
 21
436.268899
 31
0.0
  0
LINE
  8
LC-005-005-----0
  6
CONTINUOUS
  5
48A
 10
512.271648
 20
434.489902
 30
0.0
 11
514.333487
 21
436.551741
 31
0.0
  0
LINE
  8
LC-005-005-----0
  6
CONTINUOUS
  5
48B
 10
511.988805
 20
434.489902
 30
0.0
 11
514.333487
 21
436.834584
 31
0.0
  0
LINE
  8
LC-005-005-----0
  6
CONTINUOUS
  5
48C
 10
511.705963
 20
434.489902
 30
0.0
 11
514.333487
 21
437.117427
 31
0.0
  0
LINE
  8
LC-005-005-----0
  6
CONTINUOUS
  5
48D
 10
511.42312
 20
434.489902
 30
0.0
 11
514.333487
 21
437.40027
 31
0.0
  0
LINE
  8
LC-005-005-----0
  6
CONTINUOUS
  5
48E
 10
511.140277
 20
434.489902
 30
0.0
 11
514.140277
 21
437.489902
 31
0.0
  0
LINE
  8
LC-005-005-----0
  6
CONTINUOUS
  5
48F
 10
510.857434
 20
434.489902
 30
0.0
 11
513.857434
 21
437.489902
 31
0.0
  0
LINE
  8
LC-005-005-----0
  6
CONTINUOUS
  5
490
 10
510.574592
 20
434.489902
 30
0.0
 11
513.574592
 21
437.489902
 31
0.0
  0
LINE
  8
LC-005-005-----0
  6
CONTINUOUS
  5
491
 10
510.291749
 20
434.489902
 30
0.0
 11
513.291749
 21
437.489902
 31
0.0
  0
LINE
  8
LC-005-005-----0
  6
CONTINUOUS
  5
492
 10
510.008906
 20
434.489902
 30
0.0
 11
513.008906
 21
437.489902
 31
0.0
  0
LINE
  8
LC-005-005-----0
  6
CONTINUOUS
  5
493
 10
509.726064
 20
434.489902
 30
0.0
 11
512.726064
 21
437.489902
 31
0.0
  0
LINE
  8
LC-005-005-----0
  6
CONTINUOUS
  5
494
 10
509.443221
 20
434.489902
 30
0.0
 11
512.443221
 21
437.489902
 31
0.0
  0
LINE
  8
LC-005-005-----0
  6
CONTINUOUS
  5
495
 10
509.333487
 20
434.663011
 30
0.0
 11
512.160378
 21
437.489902
 31
0.0
  0
LINE
  8
LC-005-005-----0
  6
CONTINUOUS
  5
496
 10
509.333487
 20
434.945854
 30
0.0
 11
511.877535
 21
437.489902
 31
0.0
  0
LINE
  8
LC-005-005-----0
  6
CONTINUOUS
  5
497
 10
509.333487
 20
435.228697
 30
0.0
 11
511.594693
 21
437.489902
 31
0.0
  0
LINE
  8
LC-005-005-----0
  6
CONTINUOUS
  5
498
 10
509.333487
 20
435.511539
 30
0.0
 11
511.31185
 21
437.489902
 31
0.0
  0
LINE
  8
LC-005-005-----0
  6
CONTINUOUS
  5
499
 10
509.333487
 20
435.794382
 30
0.0
 11
511.029007
 21
437.489902
 31
0.0
  0
LINE
  8
LC-005-005-----0
  6
CONTINUOUS
  5
49A
 10
509.333487
 20
436.077225
 30
0.0
 11
510.746165
 21
437.489902
 31
0.0
  0
LINE
  8
LC-005-005-----0
  6
CONTINUOUS
  5
49B
 10
509.333487
 20
436.360068
 30
0.0
 11
510.463322
 21
437.489902
 31
0.0
  0
LINE
  8
LC-005-005-----0
  6
CONTINUOUS
  5
49C
 10
509.333487
 20
436.64291
 30
0.0
 11
510.180479
 21
437.489902
 31
0.0
  0
LINE
  8
LC-005-005-----0
  6
CONTINUOUS
  5
49D
 10
509.333487
 20
436.925753
 30
0.0
 11
509.897637
 21
437.489902
 31
0.0
  0
LINE
  8
LC-005-005-----0
  6
CONTINUOUS
  5
49E
 10
509.333487
 20
437.208596
 30
0.0
 11
509.614794
 21
437.489902
 31
0.0
  0
ENDBLK
  8
0
  5
49F
  0
BLOCK
  8
0
  5
4A1
  2
*X34
 70
    65
 10
499.333487
 20
434.489902
 30
0.0
  3
*X34
  0
LINE
  8
LC-005-005-----0
  6
CONTINUOUS
  5
4A2
 10
504.069209
 20
434.489902
 30
0.0
 11
504.333487
 21
434.75418
 31
0.0
  0
LINE
  8
LC-005-005-----0
  6
CONTINUOUS
  5
4A3
 10
503.786367
 20
434.489902
 30
0.0
 11
504.333487
 21
435.037023
 31
0.0
  0
LINE
  8
LC-005-005-----0
  6
CONTINUOUS
  5
4A4
 10
503.503524
 20
434.489902
 30
0.0
 11
504.333487
 21
435.319866
 31
0.0
  0
LINE
  8
LC-005-005-----0
  6
CONTINUOUS
  5
4A5
 10
503.220681
 20
434.489902
 30
0.0
 11
504.333487
 21
435.602708
 31
0.0
  0
LINE
  8
LC-005-005-----0
  6
CONTINUOUS
  5
4A6
 10
502.937839
 20
434.489902
 30
0.0
 11
504.333487
 21
435.885551
 31
0.0
  0
LINE
  8
LC-005-005-----0
  6
CONTINUOUS
  5
4A7
 10
502.654996
 20
434.489902
 30
0.0
 11
504.333487
 21
436.168394
 31
0.0
  0
LINE
  8
LC-005-005-----0
  6
CONTINUOUS
  5
4A8
 10
502.372153
 20
434.489902
 30
0.0
 11
504.333487
 21
436.451236
 31
0.0
  0
LINE
  8
LC-005-005-----0
  6
CONTINUOUS
  5
4A9
 10
502.08931
 20
434.489902
 30
0.0
 11
504.333487
 21
436.734079
 31
0.0
  0
LINE
  8
LC-005-005-----0
  6
CONTINUOUS
  5
4AA
 10
501.806468
 20
434.489902
 30
0.0
 11
504.333487
 21
437.016922
 31
0.0
  0
LINE
  8
LC-005-005-----0
  6
CONTINUOUS
  5
4AB
 10
501.523625
 20
434.489902
 30
0.0
 11
504.333487
 21
437.299764
 31
0.0
  0
LINE
  8
LC-005-005-----0
  6
CONTINUOUS
  5
4AC
 10
501.240782
 20
434.489902
 30
0.0
 11
504.240782
 21
437.489902
 31
0.0
  0
LINE
  8
LC-005-005-----0
  6
CONTINUOUS
  5
4AD
 10
500.95794
 20
434.489902
 30
0.0
 11
503.95794
 21
437.489902
 31
0.0
  0
LINE
  8
LC-005-005-----0
  6
CONTINUOUS
  5
4AE
 10
500.675097
 20
434.489902
 30
0.0
 11
503.675097
 21
437.489902
 31
0.0
  0
LINE
  8
LC-005-005-----0
  6
CONTINUOUS
  5
4AF
 10
500.392254
 20
434.489902
 30
0.0
 11
503.392254
 21
437.489902
 31
0.0
  0
LINE
  8
LC-005-005-----0
  6
CONTINUOUS
  5
4B0
 10
500.109411
 20
434.489902
 30
0.0
 11
503.109411
 21
437.489902
 31
0.0
  0
LINE
  8
LC-005-005-----0
  6
CONTINUOUS
  5
4B1
 10
499.826569
 20
434.489902
 30
0.0
 11
502.826569
 21
437.489902
 31
0.0
  0
LINE
  8
LC-005-005-----0
  6
CONTINUOUS
  5
4B2
 10
499.543726
 20
434.489902
 30
0.0
 11
502.543726
 21
437.489902
 31
0.0
  0
LINE
  8
LC-005-005-----0
  6
CONTINUOUS
  5
4B3
 10
499.333487
 20
434.562506
 30
0.0
 11
502.260883
 21
437.489902
 31
0.0
  0
LINE
  8
LC-005-005-----0
  6
CONTINUOUS
  5
4B4
 10
499.333487
 20
434.845349
 30
0.0
 11
501.978041
 21
437.489902
 31
0.0
  0
LINE
  8
LC-005-005-----0
  6
CONTINUOUS
  5
4B5
 10
499.333487
 20
435.128192
 30
0.0
 11
501.695198
 21
437.489902
 31
0.0
  0
LINE
  8
LC-005-005-----0
  6
CONTINUOUS
  5
4B6
 10
499.333487
 20
435.411034
 30
0.0
 11
501.412355
 21
437.489902
 31
0.0
  0
LINE
  8
LC-005-005-----0
  6
CONTINUOUS
  5
4B7
 10
499.333487
 20
435.693877
 30
0.0
 11
501.129512
 21
437.489902
 31
0.0
  0
LINE
  8
LC-005-005-----0
  6
CONTINUOUS
  5
4B8
 10
499.333487
 20
435.97672
 30
0.0
 11
500.84667
 21
437.489902
 31
0.0
  0
LINE
  8
LC-005-005-----0
  6
CONTINUOUS
  5
4B9
 10
499.333487
 20
436.259562
 30
0.0
 11
500.563827
 21
437.489902
 31
0.0
  0
LINE
  8
LC-005-005-----0
  6
CONTINUOUS
  5
4BA
 10
499.333487
 20
436.542405
 30
0.0
 11
500.280984
 21
437.489902
 31
0.0
  0
LINE
  8
LC-005-005-----0
  6
CONTINUOUS
  5
4BB
 10
499.333487
 20
436.825248
 30
0.0
 11
499.998142
 21
437.489902
 31
0.0
  0
LINE
  8
LC-005-005-----0
  6
CONTINUOUS
  5
4BC
 10
499.333487
 20
437.108091
 30
0.0
 11
499.715299
 21
437.489902
 31
0.0
  0
LINE
  8
LC-005-005-----0
  6
CONTINUOUS
  5
4BD
 10
499.333487
 20
437.390933
 30
0.0
 11
499.432456
 21
437.489902
 31
0.0
  0
ENDBLK
  8
0
  5
4BE
  0
BLOCK
  8
0
  5
4C0
  2
BLK6
 70
    64
 10
0.0
 20
0.0
 30
0.0
  3
BLK6
  0
ENDBLK
  8
0
  5
4C1
  0
BLOCK
  8
0
  5
4C3
  2
BLK7
 70
    64
 10
0.0
 20
0.0
 30
0.0
  3
BLK7
  0
ENDBLK
  8
0
  5
4C4
  0
BLOCK
  8
0
  5
4C6
  2
*X37
 70
    65
 10
579.333487
 20
434.489902
 30
0.0
  3
*X37
  0
LINE
  8
LC-005-005-----0
  6
CONTINUOUS
  5
4C7
 10
581.568113
 20
434.489902
 30
0.0
 11
581.582998
 21
434.504787
 31
0.0
  0
LINE
  8
LC-005-005-----0
  6
CONTINUOUS
  5
4C8
 10
581.28527
 20
434.489902
 30
0.0
 11
581.582998
 21
434.78763
 31
0.0
  0
LINE
  8
LC-005-005-----0
  6
CONTINUOUS
  5
4C9
 10
581.002427
 20
434.489902
 30
0.0
 11
581.582998
 21
435.070473
 31
0.0
  0
LINE
  8
LC-005-005-----0
  6
CONTINUOUS
  5
4CA
 10
580.719584
 20
434.489902
 30
0.0
 11
581.582998
 21
435.353316
 31
0.0
  0
LINE
  8
LC-005-005-----0
  6
CONTINUOUS
  5
4CB
 10
580.436742
 20
434.489902
 30
0.0
 11
581.582998
 21
435.636158
 31
0.0
  0
LINE
  8
LC-005-005-----0
  6
CONTINUOUS
  5
4CC
 10
580.153899
 20
434.489902
 30
0.0
 11
581.582998
 21
435.919001
 31
0.0
  0
LINE
  8
LC-005-005-----0
  6
CONTINUOUS
  5
4CD
 10
579.871056
 20
434.489902
 30
0.0
 11
581.582998
 21
436.201844
 31
0.0
  0
LINE
  8
LC-005-005-----0
  6
CONTINUOUS
  5
4CE
 10
579.588214
 20
434.489902
 30
0.0
 11
581.582998
 21
436.484686
 31
0.0
  0
LINE
  8
LC-005-005-----0
  6
CONTINUOUS
  5
4CF
 10
579.333487
 20
434.518019
 30
0.0
 11
581.582998
 21
436.767529
 31
0.0
  0
LINE
  8
LC-005-005-----0
  6
CONTINUOUS
  5
4D0
 10
579.333487
 20
434.800861
 30
0.0
 11
581.582998
 21
437.050372
 31
0.0
  0
LINE
  8
LC-005-005-----0
  6
CONTINUOUS
  5
4D1
 10
579.333487
 20
435.083704
 30
0.0
 11
581.582998
 21
437.333215
 31
0.0
  0
LINE
  8
LC-005-005-----0
  6
CONTINUOUS
  5
4D2
 10
579.333487
 20
435.366547
 30
0.0
 11
581.456843
 21
437.489902
 31
0.0
  0
LINE
  8
LC-005-005-----0
  6
CONTINUOUS
  5
4D3
 10
579.333487
 20
435.649389
 30
0.0
 11
581.174
 21
437.489902
 31
0.0
  0
LINE
  8
LC-005-005-----0
  6
CONTINUOUS
  5
4D4
 10
579.333487
 20
435.932232
 30
0.0
 11
580.891157
 21
437.489902
 31
0.0
  0
LINE
  8
LC-005-005-----0
  6
CONTINUOUS
  5
4D5
 10
579.333487
 20
436.215075
 30
0.0
 11
580.608315
 21
437.489902
 31
0.0
  0
LINE
  8
LC-005-005-----0
  6
CONTINUOUS
  5
4D6
 10
579.333487
 20
436.497918
 30
0.0
 11
580.325472
 21
437.489902
 31
0.0
  0
LINE
  8
LC-005-005-----0
  6
CONTINUOUS
  5
4D7
 10
579.333487
 20
436.78076
 30
0.0
 11
580.042629
 21
437.489902
 31
0.0
  0
LINE
  8
LC-005-005-----0
  6
CONTINUOUS
  5
4D8
 10
579.333487
 20
437.063603
 30
0.0
 11
579.759786
 21
437.489902
 31
0.0
  0
LINE
  8
LC-005-005-----0
  6
CONTINUOUS
  5
4D9
 10
579.333487
 20
437.346446
 30
0.0
 11
579.476944
 21
437.489902
 31
0.0
  0
ENDBLK
  8
0
  5
4DA
  0
BLOCK
  8
0
  5
4DC
  2
*X38
 70
    65
 10
569.333487
 20
434.489902
 30
0.0
  3
*X38
  0
LINE
  8
LC-005-005-----0
  6
CONTINUOUS
  5
4DD
 10
574.214202
 20
434.489902
 30
0.0
 11
574.333487
 21
434.609187
 31
0.0
  0
LINE
  8
LC-005-005-----0
  6
CONTINUOUS
  5
4DE
 10
573.931359
 20
434.489902
 30
0.0
 11
574.333487
 21
434.89203
 31
0.0
  0
LINE
  8
LC-005-005-----0
  6
CONTINUOUS
  5
4DF
 10
573.648517
 20
434.489902
 30
0.0
 11
574.333487
 21
435.174873
 31
0.0
  0
LINE
  8
LC-005-005-----0
  6
CONTINUOUS
  5
4E0
 10
573.365674
 20
434.489902
 30
0.0
 11
574.333487
 21
435.457716
 31
0.0
  0
LINE
  8
LC-005-005-----0
  6
CONTINUOUS
  5
4E1
 10
573.082831
 20
434.489902
 30
0.0
 11
574.333487
 21
435.740558
 31
0.0
  0
LINE
  8
LC-005-005-----0
  6
CONTINUOUS
  5
4E2
 10
572.799989
 20
434.489902
 30
0.0
 11
574.333487
 21
436.023401
 31
0.0
  0
LINE
  8
LC-005-005-----0
  6
CONTINUOUS
  5
4E3
 10
572.517146
 20
434.489902
 30
0.0
 11
574.333487
 21
436.306244
 31
0.0
  0
LINE
  8
LC-005-005-----0
  6
CONTINUOUS
  5
4E4
 10
572.234303
 20
434.489902
 30
0.0
 11
574.333487
 21
436.589086
 31
0.0
  0
LINE
  8
LC-005-005-----0
  6
CONTINUOUS
  5
4E5
 10
571.95146
 20
434.489902
 30
0.0
 11
574.333487
 21
436.871929
 31
0.0
  0
LINE
  8
LC-005-005-----0
  6
CONTINUOUS
  5
4E6
 10
571.668618
 20
434.489902
 30
0.0
 11
574.333487
 21
437.154772
 31
0.0
  0
LINE
  8
LC-005-005-----0
  6
CONTINUOUS
  5
4E7
 10
571.385775
 20
434.489902
 30
0.0
 11
574.333487
 21
437.437615
 31
0.0
  0
LINE
  8
LC-005-005-----0
  6
CONTINUOUS
  5
4E8
 10
571.102932
 20
434.489902
 30
0.0
 11
574.102932
 21
437.489902
 31
0.0
  0
LINE
  8
LC-005-005-----0
  6
CONTINUOUS
  5
4E9
 10
570.82009
 20
434.489902
 30
0.0
 11
573.82009
 21
437.489902
 31
0.0
  0
LINE
  8
LC-005-005-----0
  6
CONTINUOUS
  5
4EA
 10
570.537247
 20
434.489902
 30
0.0
 11
573.537247
 21
437.489902
 31
0.0
  0
LINE
  8
LC-005-005-----0
  6
CONTINUOUS
  5
4EB
 10
570.254404
 20
434.489902
 30
0.0
 11
573.254404
 21
437.489902
 31
0.0
  0
LINE
  8
LC-005-005-----0
  6
CONTINUOUS
  5
4EC
 10
569.971561
 20
434.489902
 30
0.0
 11
572.971561
 21
437.489902
 31
0.0
  0
LINE
  8
LC-005-005-----0
  6
CONTINUOUS
  5
4ED
 10
569.688719
 20
434.489902
 30
0.0
 11
572.688719
 21
437.489902
 31
0.0
  0
LINE
  8
LC-005-005-----0
  6
CONTINUOUS
  5
4EE
 10
569.405876
 20
434.489902
 30
0.0
 11
572.405876
 21
437.489902
 31
0.0
  0
LINE
  8
LC-005-005-----0
  6
CONTINUOUS
  5
4EF
 10
569.333487
 20
434.700356
 30
0.0
 11
572.123033
 21
437.489902
 31
0.0
  0
LINE
  8
LC-005-005-----0
  6
CONTINUOUS
  5
4F0
 10
569.333487
 20
434.983199
 30
0.0
 11
571.840191
 21
437.489902
 31
0.0
  0
LINE
  8
LC-005-005-----0
  6
CONTINUOUS
  5
4F1
 10
569.333487
 20
435.266042
 30
0.0
 11
571.557348
 21
437.489902
 31
0.0
  0
LINE
  8
LC-005-005-----0
  6
CONTINUOUS
  5
4F2
 10
569.333487
 20
435.548884
 30
0.0
 11
571.274505
 21
437.489902
 31
0.0
  0
LINE
  8
LC-005-005-----0
  6
CONTINUOUS
  5
4F3
 10
569.333487
 20
435.831727
 30
0.0
 11
570.991662
 21
437.489902
 31
0.0
  0
LINE
  8
LC-005-005-----0
  6
CONTINUOUS
  5
4F4
 10
569.333487
 20
436.11457
 30
0.0
 11
570.70882
 21
437.489902
 31
0.0
  0
LINE
  8
LC-005-005-----0
  6
CONTINUOUS
  5
4F5
 10
569.333487
 20
436.397412
 30
0.0
 11
570.425977
 21
437.489902
 31
0.0
  0
LINE
  8
LC-005-005-----0
  6
CONTINUOUS
  5
4F6
 10
569.333487
 20
436.680255
 30
0.0
 11
570.143134
 21
437.489902
 31
0.0
  0
LINE
  8
LC-005-005-----0
  6
CONTINUOUS
  5
4F7
 10
569.333487
 20
436.963098
 30
0.0
 11
569.860292
 21
437.489902
 31
0.0
  0
LINE
  8
LC-005-005-----0
  6
CONTINUOUS
  5
4F8
 10
569.333487
 20
437.245941
 30
0.0
 11
569.577449
 21
437.489902
 31
0.0
  0
ENDBLK
  8
0
  5
4F9
  0
BLOCK
  8
0
  5
4FB
  2
*X39
 70
    65
 10
559.333487
 20
434.489902
 30
0.0
  3
*X39
  0
LINE
  8
LC-005-005-----0
  6
CONTINUOUS
  5
4FC
 10
564.314707
 20
434.489902
 30
0.0
 11
564.333487
 21
434.508682
 31
0.0
  0
LINE
  8
LC-005-005-----0
  6
CONTINUOUS
  5
4FD
 10
564.031864
 20
434.489902
 30
0.0
 11
564.333487
 21
434.791525
 31
0.0
  0
LINE
  8
LC-005-005-----0
  6
CONTINUOUS
  5
4FE
 10
563.749022
 20
434.489902
 30
0.0
 11
564.333487
 21
435.074368
 31
0.0
  0
LINE
  8
LC-005-005-----0
  6
CONTINUOUS
  5
4FF
 10
563.466179
 20
434.489902
 30
0.0
 11
564.333487
 21
435.35721
 31
0.0
  0
LINE
  8
LC-005-005-----0
  6
CONTINUOUS
  5
500
 10
563.183336
 20
434.489902
 30
0.0
 11
564.333487
 21
435.640053
 31
0.0
  0
LINE
  8
LC-005-005-----0
  6
CONTINUOUS
  5
501
 10
562.900494
 20
434.489902
 30
0.0
 11
564.333487
 21
435.922896
 31
0.0
  0
LINE
  8
LC-005-005-----0
  6
CONTINUOUS
  5
502
 10
562.617651
 20
434.489902
 30
0.0
 11
564.333487
 21
436.205739
 31
0.0
  0
LINE
  8
LC-005-005-----0
  6
CONTINUOUS
  5
503
 10
562.334808
 20
434.489902
 30
0.0
 11
564.333487
 21
436.488581
 31
0.0
  0
LINE
  8
LC-005-005-----0
  6
CONTINUOUS
  5
504
 10
562.051965
 20
434.489902
 30
0.0
 11
564.333487
 21
436.771424
 31
0.0
  0
LINE
  8
LC-005-005-----0
  6
CONTINUOUS
  5
505
 10
561.769123
 20
434.489902
 30
0.0
 11
564.333487
 21
437.054267
 31
0.0
  0
LINE
  8
LC-005-005-----0
  6
CONTINUOUS
  5
506
 10
561.48628
 20
434.489902
 30
0.0
 11
564.333487
 21
437.337109
 31
0.0
  0
LINE
  8
LC-005-005-----0
  6
CONTINUOUS
  5
507
 10
561.203437
 20
434.489902
 30
0.0
 11
564.203437
 21
437.489902
 31
0.0
  0
LINE
  8
LC-005-005-----0
  6
CONTINUOUS
  5
508
 10
560.920595
 20
434.489902
 30
0.0
 11
563.920595
 21
437.489902
 31
0.0
  0
LINE
  8
LC-005-005-----0
  6
CONTINUOUS
  5
509
 10
560.637752
 20
434.489902
 30
0.0
 11
563.637752
 21
437.489902
 31
0.0
  0
LINE
  8
LC-005-005-----0
  6
CONTINUOUS
  5
50A
 10
560.354909
 20
434.489902
 30
0.0
 11
563.354909
 21
437.489902
 31
0.0
  0
LINE
  8
LC-005-005-----0
  6
CONTINUOUS
  5
50B
 10
560.072066
 20
434.489902
 30
0.0
 11
563.072066
 21
437.489902
 31
0.0
  0
LINE
  8
LC-005-005-----0
  6
CONTINUOUS
  5
50C
 10
559.789224
 20
434.489902
 30
0.0
 11
562.789224
 21
437.489902
 31
0.0
  0
LINE
  8
LC-005-005-----0
  6
CONTINUOUS
  5
50D
 10
559.506381
 20
434.489902
 30
0.0
 11
562.506381
 21
437.489902
 31
0.0
  0
LINE
  8
LC-005-005-----0
  6
CONTINUOUS
  5
50E
 10
559.333487
 20
434.599851
 30
0.0
 11
562.223538
 21
437.489902
 31
0.0
  0
LINE
  8
LC-005-005-----0
  6
CONTINUOUS
  5
50F
 10
559.333487
 20
434.882694
 30
0.0
 11
561.940696
 21
437.489902
 31
0.0
  0
LINE
  8
LC-005-005-----0
  6
CONTINUOUS
  5
510
 10
559.333487
 20
435.165537
 30
0.0
 11
561.657853
 21
437.489902
 31
0.0
  0
LINE
  8
LC-005-005-----0
  6
CONTINUOUS
  5
511
 10
559.333487
 20
435.448379
 30
0.0
 11
561.37501
 21
437.489902
 31
0.0
  0
LINE
  8
LC-005-005-----0
  6
CONTINUOUS
  5
512
 10
559.333487
 20
435.731222
 30
0.0
 11
561.092167
 21
437.489902
 31
0.0
  0
LINE
  8
LC-005-005-----0
  6
CONTINUOUS
  5
513
 10
559.333487
 20
436.014065
 30
0.0
 11
560.809325
 21
437.489902
 31
0.0
  0
LINE
  8
LC-005-005-----0
  6
CONTINUOUS
  5
514
 10
559.333487
 20
436.296907
 30
0.0
 11
560.526482
 21
437.489902
 31
0.0
  0
LINE
  8
LC-005-005-----0
  6
CONTINUOUS
  5
515
 10
559.333487
 20
436.57975
 30
0.0
 11
560.243639
 21
437.489902
 31
0.0
  0
LINE
  8
LC-005-005-----0
  6
CONTINUOUS
  5
516
 10
559.333487
 20
436.862593
 30
0.0
 11
559.960797
 21
437.489902
 31
0.0
  0
LINE
  8
LC-005-005-----0
  6
CONTINUOUS
  5
517
 10
559.333487
 20
437.145436
 30
0.0
 11
559.677954
 21
437.489902
 31
0.0
  0
LINE
  8
LC-005-005-----0
  6
CONTINUOUS
  5
518
 10
559.333487
 20
437.428278
 30
0.0
 11
559.395111
 21
437.489902
 31
0.0
  0
ENDBLK
  8
0
  5
519
  0
BLOCK
  8
0
  5
51B
  2
*X40
 70
    65
 10
549.333487
 20
434.489902
 30
0.0
  3
*X40
  0
LINE
  8
LC-005-005-----0
  6
CONTINUOUS
  5
51C
 10
554.132369
 20
434.489902
 30
0.0
 11
554.333487
 21
434.69102
 31
0.0
  0
LINE
  8
LC-005-005-----0
  6
CONTINUOUS
  5
51D
 10
553.849527
 20
434.489902
 30
0.0
 11
554.333487
 21
434.973863
 31
0.0
  0
LINE
  8
LC-005-005-----0
  6
CONTINUOUS
  5
51E
 10
553.566684
 20
434.489902
 30
0.0
 11
554.333487
 21
435.256705
 31
0.0
  0
LINE
  8
LC-005-005-----0
  6
CONTINUOUS
  5
51F
 10
553.283841
 20
434.489902
 30
0.0
 11
554.333487
 21
435.539548
 31
0.0
  0
LINE
  8
LC-005-005-----0
  6
CONTINUOUS
  5
520
 10
553.000999
 20
434.489902
 30
0.0
 11
554.333487
 21
435.822391
 31
0.0
  0
LINE
  8
LC-005-005-----0
  6
CONTINUOUS
  5
521
 10
552.718156
 20
434.489902
 30
0.0
 11
554.333487
 21
436.105234
 31
0.0
  0
LINE
  8
LC-005-005-----0
  6
CONTINUOUS
  5
522
 10
552.435313
 20
434.489902
 30
0.0
 11
554.333487
 21
436.388076
 31
0.0
  0
LINE
  8
LC-005-005-----0
  6
CONTINUOUS
  5
523
 10
552.152471
 20
434.489902
 30
0.0
 11
554.333487
 21
436.670919
 31
0.0
  0
LINE
  8
LC-005-005-----0
  6
CONTINUOUS
  5
524
 10
551.869628
 20
434.489902
 30
0.0
 11
554.333487
 21
436.953762
 31
0.0
  0
LINE
  8
LC-005-005-----0
  6
CONTINUOUS
  5
525
 10
551.586785
 20
434.489902
 30
0.0
 11
554.333487
 21
437.236604
 31
0.0
  0
LINE
  8
LC-005-005-----0
  6
CONTINUOUS
  5
526
 10
551.303942
 20
434.489902
 30
0.0
 11
554.303942
 21
437.489902
 31
0.0
  0
LINE
  8
LC-005-005-----0
  6
CONTINUOUS
  5
527
 10
551.0211
 20
434.489902
 30
0.0
 11
554.0211
 21
437.489902
 31
0.0
  0
LINE
  8
LC-005-005-----0
  6
CONTINUOUS
  5
528
 10
550.738257
 20
434.489902
 30
0.0
 11
553.738257
 21
437.489902
 31
0.0
  0
LINE
  8
LC-005-005-----0
  6
CONTINUOUS
  5
529
 10
550.455414
 20
434.489902
 30
0.0
 11
553.455414
 21
437.489902
 31
0.0
  0
LINE
  8
LC-005-005-----0
  6
CONTINUOUS
  5
52A
 10
550.172572
 20
434.489902
 30
0.0
 11
553.172572
 21
437.489902
 31
0.0
  0
LINE
  8
LC-005-005-----0
  6
CONTINUOUS
  5
52B
 10
549.889729
 20
434.489902
 30
0.0
 11
552.889729
 21
437.489902
 31
0.0
  0
LINE
  8
LC-005-005-----0
  6
CONTINUOUS
  5
52C
 10
549.606886
 20
434.489902
 30
0.0
 11
552.606886
 21
437.489902
 31
0.0
  0
LINE
  8
LC-005-005-----0
  6
CONTINUOUS
  5
52D
 10
549.333487
 20
434.499346
 30
0.0
 11
552.324043
 21
437.489902
 31
0.0
  0
LINE
  8
LC-005-005-----0
  6
CONTINUOUS
  5
52E
 10
549.333487
 20
434.782189
 30
0.0
 11
552.041201
 21
437.489902
 31
0.0
  0
LINE
  8
LC-005-005-----0
  6
CONTINUOUS
  5
52F
 10
549.333487
 20
435.065032
 30
0.0
 11
551.758358
 21
437.489902
 31
0.0
  0
LINE
  8
LC-005-005-----0
  6
CONTINUOUS
  5
530
 10
549.333487
 20
435.347874
 30
0.0
 11
551.475515
 21
437.489902
 31
0.0
  0
LINE
  8
LC-005-005-----0
  6
CONTINUOUS
  5
531
 10
549.333487
 20
435.630717
 30
0.0
 11
551.192673
 21
437.489902
 31
0.0
  0
LINE
  8
LC-005-005-----0
  6
CONTINUOUS
  5
532
 10
549.333487
 20
435.91356
 30
0.0
 11
550.90983
 21
437.489902
 31
0.0
  0
LINE
  8
LC-005-005-----0
  6
CONTINUOUS
  5
533
 10
549.333487
 20
436.196402
 30
0.0
 11
550.626987
 21
437.489902
 31
0.0
  0
LINE
  8
LC-005-005-----0
  6
CONTINUOUS
  5
534
 10
549.333487
 20
436.479245
 30
0.0
 11
550.344144
 21
437.489902
 31
0.0
  0
LINE
  8
LC-005-005-----0
  6
CONTINUOUS
  5
535
 10
549.333487
 20
436.762088
 30
0.0
 11
550.061302
 21
437.489902
 31
0.0
  0
LINE
  8
LC-005-005-----0
  6
CONTINUOUS
  5
536
 10
549.333487
 20
437.044931
 30
0.0
 11
549.778459
 21
437.489902
 31
0.0
  0
LINE
  8
LC-005-005-----0
  6
CONTINUOUS
  5
537
 10
549.333487
 20
437.327773
 30
0.0
 11
549.495616
 21
437.489902
 31
0.0
  0
ENDBLK
  8
0
  5
538
  0
BLOCK
  8
0
  5
53A
  2
*X41
 70
    65
 10
539.333487
 20
434.489902
 30
0.0
  3
*X41
  0
LINE
  8
LC-005-005-----0
  6
CONTINUOUS
  5
53B
 10
544.232875
 20
434.489902
 30
0.0
 11
544.333487
 21
434.590515
 31
0.0
  0
LINE
  8
LC-005-005-----0
  6
CONTINUOUS
  5
53C
 10
543.950032
 20
434.489902
 30
0.0
 11
544.333487
 21
434.873358
 31
0.0
  0
LINE
  8
LC-005-005-----0
  6
CONTINUOUS
  5
53D
 10
543.667189
 20
434.489902
 30
0.0
 11
544.333487
 21
435.1562
 31
0.0
  0
LINE
  8
LC-005-005-----0
  6
CONTINUOUS
  5
53E
 10
543.384346
 20
434.489902
 30
0.0
 11
544.333487
 21
435.439043
 31
0.0
  0
LINE
  8
LC-005-005-----0
  6
CONTINUOUS
  5
53F
 10
543.101504
 20
434.489902
 30
0.0
 11
544.333487
 21
435.721886
 31
0.0
  0
LINE
  8
LC-005-005-----0
  6
CONTINUOUS
  5
540
 10
542.818661
 20
434.489902
 30
0.0
 11
544.333487
 21
436.004728
 31
0.0
  0
LINE
  8
LC-005-005-----0
  6
CONTINUOUS
  5
541
 10
542.535818
 20
434.489902
 30
0.0
 11
544.333487
 21
436.287571
 31
0.0
  0
LINE
  8
LC-005-005-----0
  6
CONTINUOUS
  5
542
 10
542.252976
 20
434.489902
 30
0.0
 11
544.333487
 21
436.570414
 31
0.0
  0
LINE
  8
LC-005-005-----0
  6
CONTINUOUS
  5
543
 10
541.970133
 20
434.489902
 30
0.0
 11
544.333487
 21
436.853257
 31
0.0
  0
LINE
  8
LC-005-005-----0
  6
CONTINUOUS
  5
544
 10
541.68729
 20
434.489902
 30
0.0
 11
544.333487
 21
437.136099
 31
0.0
  0
LINE
  8
LC-005-005-----0
  6
CONTINUOUS
  5
545
 10
541.404447
 20
434.489902
 30
0.0
 11
544.333487
 21
437.418942
 31
0.0
  0
LINE
  8
LC-005-005-----0
  6
CONTINUOUS
  5
546
 10
541.121605
 20
434.489902
 30
0.0
 11
544.121605
 21
437.489902
 31
0.0
  0
LINE
  8
LC-005-005-----0
  6
CONTINUOUS
  5
547
 10
540.838762
 20
434.489902
 30
0.0
 11
543.838762
 21
437.489902
 31
0.0
  0
LINE
  8
LC-005-005-----0
  6
CONTINUOUS
  5
548
 10
540.555919
 20
434.489902
 30
0.0
 11
543.555919
 21
437.489902
 31
0.0
  0
LINE
  8
LC-005-005-----0
  6
CONTINUOUS
  5
549
 10
540.273077
 20
434.489902
 30
0.0
 11
543.273077
 21
437.489902
 31
0.0
  0
LINE
  8
LC-005-005-----0
  6
CONTINUOUS
  5
54A
 10
539.990234
 20
434.489902
 30
0.0
 11
542.990234
 21
437.489902
 31
0.0
  0
LINE
  8
LC-005-005-----0
  6
CONTINUOUS
  5
54B
 10
539.707391
 20
434.489902
 30
0.0
 11
542.707391
 21
437.489902
 31
0.0
  0
LINE
  8
LC-005-005-----0
  6
CONTINUOUS
  5
54C
 10
539.424548
 20
434.489902
 30
0.0
 11
542.424548
 21
437.489902
 31
0.0
  0
LINE
  8
LC-005-005-----0
  6
CONTINUOUS
  5
54D
 10
539.333487
 20
434.681684
 30
0.0
 11
542.141706
 21
437.489902
 31
0.0
  0
LINE
  8
LC-005-005-----0
  6
CONTINUOUS
  5
54E
 10
539.333487
 20
434.964526
 30
0.0
 11
541.858863
 21
437.489902
 31
0.0
  0
LINE
  8
LC-005-005-----0
  6
CONTINUOUS
  5
54F
 10
539.333487
 20
435.247369
 30
0.0
 11
541.57602
 21
437.489902
 31
0.0
  0
LINE
  8
LC-005-005-----0
  6
CONTINUOUS
  5
550
 10
539.333487
 20
435.530212
 30
0.0
 11
541.293178
 21
437.489902
 31
0.0
  0
LINE
  8
LC-005-005-----0
  6
CONTINUOUS
  5
551
 10
539.333487
 20
435.813055
 30
0.0
 11
541.010335
 21
437.489902
 31
0.0
  0
LINE
  8
LC-005-005-----0
  6
CONTINUOUS
  5
552
 10
539.333487
 20
436.095897
 30
0.0
 11
540.727492
 21
437.489902
 31
0.0
  0
LINE
  8
LC-005-005-----0
  6
CONTINUOUS
  5
553
 10
539.333487
 20
436.37874
 30
0.0
 11
540.444649
 21
437.489902
 31
0.0
  0
LINE
  8
LC-005-005-----0
  6
CONTINUOUS
  5
554
 10
539.333487
 20
436.661583
 30
0.0
 11
540.161807
 21
437.489902
 31
0.0
  0
LINE
  8
LC-005-005-----0
  6
CONTINUOUS
  5
555
 10
539.333487
 20
436.944425
 30
0.0
 11
539.878964
 21
437.489902
 31
0.0
  0
LINE
  8
LC-005-005-----0
  6
CONTINUOUS
  5
556
 10
539.333487
 20
437.227268
 30
0.0
 11
539.596121
 21
437.489902
 31
0.0
  0
ENDBLK
  8
0
  5
557
  0
BLOCK
  8
0
  5
559
  2
*X42
 70
    65
 10
529.333487
 20
434.489902
 30
0.0
  3
*X42
  0
LINE
  8
LC-005-005-----0
  6
CONTINUOUS
  5
55A
 10
534.33338
 20
434.489902
 30
0.0
 11
534.333487
 21
434.49001
 31
0.0
  0
LINE
  8
LC-005-005-----0
  6
CONTINUOUS
  5
55B
 10
534.050537
 20
434.489902
 30
0.0
 11
534.333487
 21
434.772853
 31
0.0
  0
LINE
  8
LC-005-005-----0
  6
CONTINUOUS
  5
55C
 10
533.767694
 20
434.489902
 30
0.0
 11
534.333487
 21
435.055695
 31
0.0
  0
LINE
  8
LC-005-005-----0
  6
CONTINUOUS
  5
55D
 10
533.484851
 20
434.489902
 30
0.0
 11
534.333487
 21
435.338538
 31
0.0
  0
LINE
  8
LC-005-005-----0
  6
CONTINUOUS
  5
55E
 10
533.202009
 20
434.489902
 30
0.0
 11
534.333487
 21
435.621381
 31
0.0
  0
LINE
  8
LC-005-005-----0
  6
CONTINUOUS
  5
55F
 10
532.919166
 20
434.489902
 30
0.0
 11
534.333487
 21
435.904223
 31
0.0
  0
LINE
  8
LC-005-005-----0
  6
CONTINUOUS
  5
560
 10
532.636323
 20
434.489902
 30
0.0
 11
534.333487
 21
436.187066
 31
0.0
  0
LINE
  8
LC-005-005-----0
  6
CONTINUOUS
  5
561
 10
532.353481
 20
434.489902
 30
0.0
 11
534.333487
 21
436.469909
 31
0.0
  0
LINE
  8
LC-005-005-----0
  6
CONTINUOUS
  5
562
 10
532.070638
 20
434.489902
 30
0.0
 11
534.333487
 21
436.752752
 31
0.0
  0
LINE
  8
LC-005-005-----0
  6
CONTINUOUS
  5
563
 10
531.787795
 20
434.489902
 30
0.0
 11
534.333487
 21
437.035594
 31
0.0
  0
LINE
  8
LC-005-005-----0
  6
CONTINUOUS
  5
564
 10
531.504952
 20
434.489902
 30
0.0
 11
534.333487
 21
437.318437
 31
0.0
  0
LINE
  8
LC-005-005-----0
  6
CONTINUOUS
  5
565
 10
531.22211
 20
434.489902
 30
0.0
 11
534.22211
 21
437.489902
 31
0.0
  0
LINE
  8
LC-005-005-----0
  6
CONTINUOUS
  5
566
 10
530.939267
 20
434.489902
 30
0.0
 11
533.939267
 21
437.489902
 31
0.0
  0
LINE
  8
LC-005-005-----0
  6
CONTINUOUS
  5
567
 10
530.656424
 20
434.489902
 30
0.0
 11
533.656424
 21
437.489902
 31
0.0
  0
LINE
  8
LC-005-005-----0
  6
CONTINUOUS
  5
568
 10
530.373582
 20
434.489902
 30
0.0
 11
533.373582
 21
437.489902
 31
0.0
  0
LINE
  8
LC-005-005-----0
  6
CONTINUOUS
  5
569
 10
530.090739
 20
434.489902
 30
0.0
 11
533.090739
 21
437.489902
 31
0.0
  0
LINE
  8
LC-005-005-----0
  6
CONTINUOUS
  5
56A
 10
529.807896
 20
434.489902
 30
0.0
 11
532.807896
 21
437.489902
 31
0.0
  0
LINE
  8
LC-005-005-----0
  6
CONTINUOUS
  5
56B
 10
529.525054
 20
434.489902
 30
0.0
 11
532.525054
 21
437.489902
 31
0.0
  0
LINE
  8
LC-005-005-----0
  6
CONTINUOUS
  5
56C
 10
529.333487
 20
434.581179
 30
0.0
 11
532.242211
 21
437.489902
 31
0.0
  0
LINE
  8
LC-005-005-----0
  6
CONTINUOUS
  5
56D
 10
529.333487
 20
434.864021
 30
0.0
 11
531.959368
 21
437.489902
 31
0.0
  0
LINE
  8
LC-005-005-----0
  6
CONTINUOUS
  5
56E
 10
529.333487
 20
435.146864
 30
0.0
 11
531.676525
 21
437.489902
 31
0.0
  0
LINE
  8
LC-005-005-----0
  6
CONTINUOUS
  5
56F
 10
529.333487
 20
435.429707
 30
0.0
 11
531.393683
 21
437.489902
 31
0.0
  0
LINE
  8
LC-005-005-----0
  6
CONTINUOUS
  5
570
 10
529.333487
 20
435.71255
 30
0.0
 11
531.11084
 21
437.489902
 31
0.0
  0
LINE
  8
LC-005-005-----0
  6
CONTINUOUS
  5
571
 10
529.333487
 20
435.995392
 30
0.0
 11
530.827997
 21
437.489902
 31
0.0
  0
LINE
  8
LC-005-005-----0
  6
CONTINUOUS
  5
572
 10
529.333487
 20
436.278235
 30
0.0
 11
530.545155
 21
437.489902
 31
0.0
  0
LINE
  8
LC-005-005-----0
  6
CONTINUOUS
  5
573
 10
529.333487
 20
436.561078
 30
0.0
 11
530.262312
 21
437.489902
 31
0.0
  0
LINE
  8
LC-005-005-----0
  6
CONTINUOUS
  5
574
 10
529.333487
 20
436.84392
 30
0.0
 11
529.979469
 21
437.489902
 31
0.0
  0
LINE
  8
LC-005-005-----0
  6
CONTINUOUS
  5
575
 10
529.333487
 20
437.126763
 30
0.0
 11
529.696626
 21
437.489902
 31
0.0
  0
LINE
  8
LC-005-005-----0
  6
CONTINUOUS
  5
576
 10
529.333487
 20
437.409606
 30
0.0
 11
529.413784
 21
437.489902
 31
0.0
  0
ENDBLK
  8
0
  5
577
  0
BLOCK
  8
0
  5
579
  2
*X43
 70
    65
 10
519.333487
 20
434.489902
 30
0.0
  3
*X43
  0
LINE
  8
LC-005-005-----0
  6
CONTINUOUS
  5
57A
 10
524.151042
 20
434.489902
 30
0.0
 11
524.333487
 21
434.672347
 31
0.0
  0
LINE
  8
LC-005-005-----0
  6
CONTINUOUS
  5
57B
 10
523.868199
 20
434.489902
 30
0.0
 11
524.333487
 21
434.95519
 31
0.0
  0
LINE
  8
LC-005-005-----0
  6
CONTINUOUS
  5
57C
 10
523.585357
 20
434.489902
 30
0.0
 11
524.333487
 21
435.238033
 31
0.0
  0
LINE
  8
LC-005-005-----0
  6
CONTINUOUS
  5
57D
 10
523.302514
 20
434.489902
 30
0.0
 11
524.333487
 21
435.520876
 31
0.0
  0
LINE
  8
LC-005-005-----0
  6
CONTINUOUS
  5
57E
 10
523.019671
 20
434.489902
 30
0.0
 11
524.333487
 21
435.803718
 31
0.0
  0
LINE
  8
LC-005-005-----0
  6
CONTINUOUS
  5
57F
 10
522.736828
 20
434.489902
 30
0.0
 11
524.333487
 21
436.086561
 31
0.0
  0
LINE
  8
LC-005-005-----0
  6
CONTINUOUS
  5
580
 10
522.453986
 20
434.489902
 30
0.0
 11
524.333487
 21
436.369404
 31
0.0
  0
LINE
  8
LC-005-005-----0
  6
CONTINUOUS
  5
581
 10
522.171143
 20
434.489902
 30
0.0
 11
524.333487
 21
436.652246
 31
0.0
  0
LINE
  8
LC-005-005-----0
  6
CONTINUOUS
  5
582
 10
521.8883
 20
434.489902
 30
0.0
 11
524.333487
 21
436.935089
 31
0.0
  0
LINE
  8
LC-005-005-----0
  6
CONTINUOUS
  5
583
 10
521.605458
 20
434.489902
 30
0.0
 11
524.333487
 21
437.217932
 31
0.0
  0
LINE
  8
LC-005-005-----0
  6
CONTINUOUS
  5
584
 10
521.322615
 20
434.489902
 30
0.0
 11
524.322615
 21
437.489902
 31
0.0
  0
LINE
  8
LC-005-005-----0
  6
CONTINUOUS
  5
585
 10
521.039772
 20
434.489902
 30
0.0
 11
524.039772
 21
437.489902
 31
0.0
  0
LINE
  8
LC-005-005-----0
  6
CONTINUOUS
  5
586
 10
520.756929
 20
434.489902
 30
0.0
 11
523.756929
 21
437.489902
 31
0.0
  0
LINE
  8
LC-005-005-----0
  6
CONTINUOUS
  5
587
 10
520.474087
 20
434.489902
 30
0.0
 11
523.474087
 21
437.489902
 31
0.0
  0
LINE
  8
LC-005-005-----0
  6
CONTINUOUS
  5
588
 10
520.191244
 20
434.489902
 30
0.0
 11
523.191244
 21
437.489902
 31
0.0
  0
LINE
  8
LC-005-005-----0
  6
CONTINUOUS
  5
589
 10
519.908401
 20
434.489902
 30
0.0
 11
522.908401
 21
437.489902
 31
0.0
  0
LINE
  8
LC-005-005-----0
  6
CONTINUOUS
  5
58A
 10
519.625559
 20
434.489902
 30
0.0
 11
522.625559
 21
437.489902
 31
0.0
  0
LINE
  8
LC-005-005-----0
  6
CONTINUOUS
  5
58B
 10
519.342716
 20
434.489902
 30
0.0
 11
522.342716
 21
437.489902
 31
0.0
  0
LINE
  8
LC-005-005-----0
  6
CONTINUOUS
  5
58C
 10
519.333487
 20
434.763516
 30
0.0
 11
522.059873
 21
437.489902
 31
0.0
  0
LINE
  8
LC-005-005-----0
  6
CONTINUOUS
  5
58D
 10
519.333487
 20
435.046359
 30
0.0
 11
521.77703
 21
437.489902
 31
0.0
  0
LINE
  8
LC-005-005-----0
  6
CONTINUOUS
  5
58E
 10
519.333487
 20
435.329202
 30
0.0
 11
521.494188
 21
437.489902
 31
0.0
  0
LINE
  8
LC-005-005-----0
  6
CONTINUOUS
  5
58F
 10
519.333487
 20
435.612044
 30
0.0
 11
521.211345
 21
437.489902
 31
0.0
  0
LINE
  8
LC-005-005-----0
  6
CONTINUOUS
  5
590
 10
519.333487
 20
435.894887
 30
0.0
 11
520.928502
 21
437.489902
 31
0.0
  0
LINE
  8
LC-005-005-----0
  6
CONTINUOUS
  5
591
 10
519.333487
 20
436.17773
 30
0.0
 11
520.64566
 21
437.489902
 31
0.0
  0
LINE
  8
LC-005-005-----0
  6
CONTINUOUS
  5
592
 10
519.333487
 20
436.460573
 30
0.0
 11
520.362817
 21
437.489902
 31
0.0
  0
LINE
  8
LC-005-005-----0
  6
CONTINUOUS
  5
593
 10
519.333487
 20
436.743415
 30
0.0
 11
520.079974
 21
437.489902
 31
0.0
  0
LINE
  8
LC-005-005-----0
  6
CONTINUOUS
  5
594
 10
519.333487
 20
437.026258
 30
0.0
 11
519.797131
 21
437.489902
 31
0.0
  0
LINE
  8
LC-005-005-----0
  6
CONTINUOUS
  5
595
 10
519.333487
 20
437.309101
 30
0.0
 11
519.514289
 21
437.489902
 31
0.0
  0
ENDBLK
  8
0
  5
596
  0
BLOCK
  8
0
  5
598
  2
*X44
 70
    65
 10
509.333487
 20
434.489902
 30
0.0
  3
*X44
  0
LINE
  8
LC-005-005-----0
  6
CONTINUOUS
  5
599
 10
514.251547
 20
434.489902
 30
0.0
 11
514.333487
 21
434.571842
 31
0.0
  0
LINE
  8
LC-005-005-----0
  6
CONTINUOUS
  5
59A
 10
513.968704
 20
434.489902
 30
0.0
 11
514.333487
 21
434.854685
 31
0.0
  0
LINE
  8
LC-005-005-----0
  6
CONTINUOUS
  5
59B
 10
513.685862
 20
434.489902
 30
0.0
 11
514.333487
 21
435.137528
 31
0.0
  0
LINE
  8
LC-005-005-----0
  6
CONTINUOUS
  5
59C
 10
513.403019
 20
434.489902
 30
0.0
 11
514.333487
 21
435.420371
 31
0.0
  0
LINE
  8
LC-005-005-----0
  6
CONTINUOUS
  5
59D
 10
513.120176
 20
434.489902
 30
0.0
 11
514.333487
 21
435.703213
 31
0.0
  0
LINE
  8
LC-005-005-----0
  6
CONTINUOUS
  5
59E
 10
512.837333
 20
434.489902
 30
0.0
 11
514.333487
 21
435.986056
 31
0.0
  0
LINE
  8
LC-005-005-----0
  6
CONTINUOUS
  5
59F
 10
512.554491
 20
434.489902
 30
0.0
 11
514.333487
 21
436.268899
 31
0.0
  0
LINE
  8
LC-005-005-----0
  6
CONTINUOUS
  5
5A0
 10
512.271648
 20
434.489902
 30
0.0
 11
514.333487
 21
436.551741
 31
0.0
  0
LINE
  8
LC-005-005-----0
  6
CONTINUOUS
  5
5A1
 10
511.988805
 20
434.489902
 30
0.0
 11
514.333487
 21
436.834584
 31
0.0
  0
LINE
  8
LC-005-005-----0
  6
CONTINUOUS
  5
5A2
 10
511.705963
 20
434.489902
 30
0.0
 11
514.333487
 21
437.117427
 31
0.0
  0
LINE
  8
LC-005-005-----0
  6
CONTINUOUS
  5
5A3
 10
511.42312
 20
434.489902
 30
0.0
 11
514.333487
 21
437.40027
 31
0.0
  0
LINE
  8
LC-005-005-----0
  6
CONTINUOUS
  5
5A4
 10
511.140277
 20
434.489902
 30
0.0
 11
514.140277
 21
437.489902
 31
0.0
  0
LINE
  8
LC-005-005-----0
  6
CONTINUOUS
  5
5A5
 10
510.857434
 20
434.489902
 30
0.0
 11
513.857434
 21
437.489902
 31
0.0
  0
LINE
  8
LC-005-005-----0
  6
CONTINUOUS
  5
5A6
 10
510.574592
 20
434.489902
 30
0.0
 11
513.574592
 21
437.489902
 31
0.0
  0
LINE
  8
LC-005-005-----0
  6
CONTINUOUS
  5
5A7
 10
510.291749
 20
434.489902
 30
0.0
 11
513.291749
 21
437.489902
 31
0.0
  0
LINE
  8
LC-005-005-----0
  6
CONTINUOUS
  5
5A8
 10
510.008906
 20
434.489902
 30
0.0
 11
513.008906
 21
437.489902
 31
0.0
  0
LINE
  8
LC-005-005-----0
  6
CONTINUOUS
  5
5A9
 10
509.726064
 20
434.489902
 30
0.0
 11
512.726064
 21
437.489902
 31
0.0
  0
LINE
  8
LC-005-005-----0
  6
CONTINUOUS
  5
5AA
 10
509.443221
 20
434.489902
 30
0.0
 11
512.443221
 21
437.489902
 31
0.0
  0
LINE
  8
LC-005-005-----0
  6
CONTINUOUS
  5
5AB
 10
509.333487
 20
434.663011
 30
0.0
 11
512.160378
 21
437.489902
 31
0.0
  0
LINE
  8
LC-005-005-----0
  6
CONTINUOUS
  5
5AC
 10
509.333487
 20
434.945854
 30
0.0
 11
511.877535
 21
437.489902
 31
0.0
  0
LINE
  8
LC-005-005-----0
  6
CONTINUOUS
  5
5AD
 10
509.333487
 20
435.228697
 30
0.0
 11
511.594693
 21
437.489902
 31
0.0
  0
LINE
  8
LC-005-005-----0
  6
CONTINUOUS
  5
5AE
 10
509.333487
 20
435.511539
 30
0.0
 11
511.31185
 21
437.489902
 31
0.0
  0
LINE
  8
LC-005-005-----0
  6
CONTINUOUS
  5
5AF
 10
509.333487
 20
435.794382
 30
0.0
 11
511.029007
 21
437.489902
 31
0.0
  0
LINE
  8
LC-005-005-----0
  6
CONTINUOUS
  5
5B0
 10
509.333487
 20
436.077225
 30
0.0
 11
510.746165
 21
437.489902
 31
0.0
  0
LINE
  8
LC-005-005-----0
  6
CONTINUOUS
  5
5B1
 10
509.333487
 20
436.360068
 30
0.0
 11
510.463322
 21
437.489902
 31
0.0
  0
LINE
  8
LC-005-005-----0
  6
CONTINUOUS
  5
5B2
 10
509.333487
 20
436.64291
 30
0.0
 11
510.180479
 21
437.489902
 31
0.0
  0
LINE
  8
LC-005-005-----0
  6
CONTINUOUS
  5
5B3
 10
509.333487
 20
436.925753
 30
0.0
 11
509.897637
 21
437.489902
 31
0.0
  0
LINE
  8
LC-005-005-----0
  6
CONTINUOUS
  5
5B4
 10
509.333487
 20
437.208596
 30
0.0
 11
509.614794
 21
437.489902
 31
0.0
  0
ENDBLK
  8
0
  5
5B5
  0
BLOCK
  8
0
  5
5B7
  2
*X45
 70
    65
 10
499.333487
 20
434.489902
 30
0.0
  3
*X45
  0
LINE
  8
LC-005-005-----0
  6
CONTINUOUS
  5
5B8
 10
504.069209
 20
434.489902
 30
0.0
 11
504.333487
 21
434.75418
 31
0.0
  0
LINE
  8
LC-005-005-----0
  6
CONTINUOUS
  5
5B9
 10
503.786367
 20
434.489902
 30
0.0
 11
504.333487
 21
435.037023
 31
0.0
  0
LINE
  8
LC-005-005-----0
  6
CONTINUOUS
  5
5BA
 10
503.503524
 20
434.489902
 30
0.0
 11
504.333487
 21
435.319866
 31
0.0
  0
LINE
  8
LC-005-005-----0
  6
CONTINUOUS
  5
5BB
 10
503.220681
 20
434.489902
 30
0.0
 11
504.333487
 21
435.602708
 31
0.0
  0
LINE
  8
LC-005-005-----0
  6
CONTINUOUS
  5
5BC
 10
502.937839
 20
434.489902
 30
0.0
 11
504.333487
 21
435.885551
 31
0.0
  0
LINE
  8
LC-005-005-----0
  6
CONTINUOUS
  5
5BD
 10
502.654996
 20
434.489902
 30
0.0
 11
504.333487
 21
436.168394
 31
0.0
  0
LINE
  8
LC-005-005-----0
  6
CONTINUOUS
  5
5BE
 10
502.372153
 20
434.489902
 30
0.0
 11
504.333487
 21
436.451236
 31
0.0
  0
LINE
  8
LC-005-005-----0
  6
CONTINUOUS
  5
5BF
 10
502.08931
 20
434.489902
 30
0.0
 11
504.333487
 21
436.734079
 31
0.0
  0
LINE
  8
LC-005-005-----0
  6
CONTINUOUS
  5
5C0
 10
501.806468
 20
434.489902
 30
0.0
 11
504.333487
 21
437.016922
 31
0.0
  0
LINE
  8
LC-005-005-----0
  6
CONTINUOUS
  5
5C1
 10
501.523625
 20
434.489902
 30
0.0
 11
504.333487
 21
437.299764
 31
0.0
  0
LINE
  8
LC-005-005-----0
  6
CONTINUOUS
  5
5C2
 10
501.240782
 20
434.489902
 30
0.0
 11
504.240782
 21
437.489902
 31
0.0
  0
LINE
  8
LC-005-005-----0
  6
CONTINUOUS
  5
5C3
 10
500.95794
 20
434.489902
 30
0.0
 11
503.95794
 21
437.489902
 31
0.0
  0
LINE
  8
LC-005-005-----0
  6
CONTINUOUS
  5
5C4
 10
500.675097
 20
434.489902
 30
0.0
 11
503.675097
 21
437.489902
 31
0.0
  0
LINE
  8
LC-005-005-----0
  6
CONTINUOUS
  5
5C5
 10
500.392254
 20
434.489902
 30
0.0
 11
503.392254
 21
437.489902
 31
0.0
  0
LINE
  8
LC-005-005-----0
  6
CONTINUOUS
  5
5C6
 10
500.109411
 20
434.489902
 30
0.0
 11
503.109411
 21
437.489902
 31
0.0
  0
LINE
  8
LC-005-005-----0
  6
CONTINUOUS
  5
5C7
 10
499.826569
 20
434.489902
 30
0.0
 11
502.826569
 21
437.489902
 31
0.0
  0
LINE
  8
LC-005-005-----0
  6
CONTINUOUS
  5
5C8
 10
499.543726
 20
434.489902
 30
0.0
 11
502.543726
 21
437.489902
 31
0.0
  0
LINE
  8
LC-005-005-----0
  6
CONTINUOUS
  5
5C9
 10
499.333487
 20
434.562506
 30
0.0
 11
502.260883
 21
437.489902
 31
0.0
  0
LINE
  8
LC-005-005-----0
  6
CONTINUOUS
  5
5CA
 10
499.333487
 20
434.845349
 30
0.0
 11
501.978041
 21
437.489902
 31
0.0
  0
LINE
  8
LC-005-005-----0
  6
CONTINUOUS
  5
5CB
 10
499.333487
 20
435.128192
 30
0.0
 11
501.695198
 21
437.489902
 31
0.0
  0
LINE
  8
LC-005-005-----0
  6
CONTINUOUS
  5
5CC
 10
499.333487
 20
435.411034
 30
0.0
 11
501.412355
 21
437.489902
 31
0.0
  0
LINE
  8
LC-005-005-----0
  6
CONTINUOUS
  5
5CD
 10
499.333487
 20
435.693877
 30
0.0
 11
501.129512
 21
437.489902
 31
0.0
  0
LINE
  8
LC-005-005-----0
  6
CONTINUOUS
  5
5CE
 10
499.333487
 20
435.97672
 30
0.0
 11
500.84667
 21
437.489902
 31
0.0
  0
LINE
  8
LC-005-005-----0
  6
CONTINUOUS
  5
5CF
 10
499.333487
 20
436.259562
 30
0.0
 11
500.563827
 21
437.489902
 31
0.0
  0
LINE
  8
LC-005-005-----0
  6
CONTINUOUS
  5
5D0
 10
499.333487
 20
436.542405
 30
0.0
 11
500.280984
 21
437.489902
 31
0.0
  0
LINE
  8
LC-005-005-----0
  6
CONTINUOUS
  5
5D1
 10
499.333487
 20
436.825248
 30
0.0
 11
499.998142
 21
437.489902
 31
0.0
  0
LINE
  8
LC-005-005-----0
  6
CONTINUOUS
  5
5D2
 10
499.333487
 20
437.108091
 30
0.0
 11
499.715299
 21
437.489902
 31
0.0
  0
LINE
  8
LC-005-005-----0
  6
CONTINUOUS
  5
5D3
 10
499.333487
 20
437.390933
 30
0.0
 11
499.432456
 21
437.489902
 31
0.0
  0
ENDBLK
  8
0
  5
5D4
  0
BLOCK
  8
0
  5
5D6
  2
*X46
 70
    65
 10
459.333487
 20
429.750553
 30
0.0
  3
*X46
  0
LINE
  8
LC-005-005-----0
  6
CONTINUOUS
  5
5D7
 10
464.257364
 20
429.750553
 30
0.0
 11
464.333487
 21
429.826676
 31
0.0
  0
LINE
  8
LC-005-005-----0
  6
CONTINUOUS
  5
5D8
 10
463.974522
 20
429.750553
 30
0.0
 11
464.333487
 21
430.109519
 31
0.0
  0
LINE
  8
LC-005-005-----0
  6
CONTINUOUS
  5
5D9
 10
463.691679
 20
429.750553
 30
0.0
 11
464.333487
 21
430.392362
 31
0.0
  0
LINE
  8
LC-005-005-----0
  6
CONTINUOUS
  5
5DA
 10
463.408836
 20
429.750553
 30
0.0
 11
464.333487
 21
430.675205
 31
0.0
  0
LINE
  8
LC-005-005-----0
  6
CONTINUOUS
  5
5DB
 10
463.125994
 20
429.750553
 30
0.0
 11
464.333487
 21
430.958047
 31
0.0
  0
LINE
  8
LC-005-005-----0
  6
CONTINUOUS
  5
5DC
 10
462.843151
 20
429.750553
 30
0.0
 11
464.333487
 21
431.24089
 31
0.0
  0
LINE
  8
LC-005-005-----0
  6
CONTINUOUS
  5
5DD
 10
462.560308
 20
429.750553
 30
0.0
 11
464.333487
 21
431.523733
 31
0.0
  0
LINE
  8
LC-005-005-----0
  6
CONTINUOUS
  5
5DE
 10
462.277465
 20
429.750553
 30
0.0
 11
464.333487
 21
431.806575
 31
0.0
  0
LINE
  8
LC-005-005-----0
  6
CONTINUOUS
  5
5DF
 10
461.994623
 20
429.750553
 30
0.0
 11
464.333487
 21
432.089418
 31
0.0
  0
LINE
  8
LC-005-005-----0
  6
CONTINUOUS
  5
5E0
 10
461.71178
 20
429.750553
 30
0.0
 11
464.333487
 21
432.372261
 31
0.0
  0
LINE
  8
LC-005-005-----0
  6
CONTINUOUS
  5
5E1
 10
461.428937
 20
429.750553
 30
0.0
 11
464.333487
 21
432.655104
 31
0.0
  0
LINE
  8
LC-005-005-----0
  6
CONTINUOUS
  5
5E2
 10
461.146095
 20
429.750553
 30
0.0
 11
464.146095
 21
432.750553
 31
0.0
  0
LINE
  8
LC-005-005-----0
  6
CONTINUOUS
  5
5E3
 10
460.863252
 20
429.750553
 30
0.0
 11
463.863252
 21
432.750553
 31
0.0
  0
LINE
  8
LC-005-005-----0
  6
CONTINUOUS
  5
5E4
 10
460.580409
 20
429.750553
 30
0.0
 11
463.580409
 21
432.750553
 31
0.0
  0
LINE
  8
LC-005-005-----0
  6
CONTINUOUS
  5
5E5
 10
460.297566
 20
429.750553
 30
0.0
 11
463.297566
 21
432.750553
 31
0.0
  0
LINE
  8
LC-005-005-----0
  6
CONTINUOUS
  5
5E6
 10
460.014724
 20
429.750553
 30
0.0
 11
463.014724
 21
432.750553
 31
0.0
  0
LINE
  8
LC-005-005-----0
  6
CONTINUOUS
  5
5E7
 10
459.731881
 20
429.750553
 30
0.0
 11
462.731881
 21
432.750553
 31
0.0
  0
LINE
  8
LC-005-005-----0
  6
CONTINUOUS
  5
5E8
 10
459.449038
 20
429.750553
 30
0.0
 11
462.449038
 21
432.750553
 31
0.0
  0
LINE
  8
LC-005-005-----0
  6
CONTINUOUS
  5
5E9
 10
459.333487
 20
429.917845
 30
0.0
 11
462.166196
 21
432.750553
 31
0.0
  0
LINE
  8
LC-005-005-----0
  6
CONTINUOUS
  5
5EA
 10
459.333487
 20
430.200688
 30
0.0
 11
461.883353
 21
432.750553
 31
0.0
  0
LINE
  8
LC-005-005-----0
  6
CONTINUOUS
  5
5EB
 10
459.333487
 20
430.483531
 30
0.0
 11
461.60051
 21
432.750553
 31
0.0
  0
LINE
  8
LC-005-005-----0
  6
CONTINUOUS
  5
5EC
 10
459.333487
 20
430.766373
 30
0.0
 11
461.317667
 21
432.750553
 31
0.0
  0
LINE
  8
LC-005-005-----0
  6
CONTINUOUS
  5
5ED
 10
459.333487
 20
431.049216
 30
0.0
 11
461.034825
 21
432.750553
 31
0.0
  0
LINE
  8
LC-005-005-----0
  6
CONTINUOUS
  5
5EE
 10
459.333487
 20
431.332059
 30
0.0
 11
460.751982
 21
432.750553
 31
0.0
  0
LINE
  8
LC-005-005-----0
  6
CONTINUOUS
  5
5EF
 10
459.333487
 20
431.614902
 30
0.0
 11
460.469139
 21
432.750553
 31
0.0
  0
LINE
  8
LC-005-005-----0
  6
CONTINUOUS
  5
5F0
 10
459.333487
 20
431.897744
 30
0.0
 11
460.186297
 21
432.750553
 31
0.0
  0
LINE
  8
LC-005-005-----0
  6
CONTINUOUS
  5
5F1
 10
459.333487
 20
432.180587
 30
0.0
 11
459.903454
 21
432.750553
 31
0.0
  0
LINE
  8
LC-005-005-----0
  6
CONTINUOUS
  5
5F2
 10
459.333487
 20
432.46343
 30
0.0
 11
459.620611
 21
432.750553
 31
0.0
  0
LINE
  8
LC-005-005-----0
  6
CONTINUOUS
  5
5F3
 10
459.333487
 20
432.746272
 30
0.0
 11
459.337768
 21
432.750553
 31
0.0
  0
ENDBLK
  8
0
  5
5F4
  0
BLOCK
  8
0
  5
5F6
  2
*X47
 70
    65
 10
446.33311
 20
431.249863
 30
0.0
  3
*X47
  0
LINE
  8
LC-005-005-----0
  6
CONTINUOUS
  5
5F7
 10
448.503268
 20
431.249863
 30
0.0
 11
448.583487
 21
431.330082
 31
0.0
  0
LINE
  8
LC-005-005-----0
  6
CONTINUOUS
  5
5F8
 10
448.220426
 20
431.249863
 30
0.0
 11
448.583487
 21
431.612925
 31
0.0
  0
LINE
  8
LC-005-005-----0
  6
CONTINUOUS
  5
5F9
 10
447.937583
 20
431.249863
 30
0.0
 11
448.583487
 21
431.895767
 31
0.0
  0
LINE
  8
LC-005-005-----0
  6
CONTINUOUS
  5
5FA
 10
447.65474
 20
431.249863
 30
0.0
 11
448.583487
 21
432.17861
 31
0.0
  0
LINE
  8
LC-005-005-----0
  6
CONTINUOUS
  5
5FB
 10
447.371898
 20
431.249863
 30
0.0
 11
448.583487
 21
432.461453
 31
0.0
  0
LINE
  8
LC-005-005-----0
  6
CONTINUOUS
  5
5FC
 10
447.089055
 20
431.249863
 30
0.0
 11
448.583487
 21
432.744295
 31
0.0
  0
LINE
  8
LC-005-005-----0
  6
CONTINUOUS
  5
5FD
 10
446.806212
 20
431.249863
 30
0.0
 11
448.583487
 21
433.027138
 31
0.0
  0
LINE
  8
LC-005-005-----0
  6
CONTINUOUS
  5
5FE
 10
446.52337
 20
431.249863
 30
0.0
 11
448.583487
 21
433.309981
 31
0.0
  0
LINE
  8
LC-005-005-----0
  6
CONTINUOUS
  5
5FF
 10
446.33311
 20
431.342446
 30
0.0
 11
448.583487
 21
433.592824
 31
0.0
  0
LINE
  8
LC-005-005-----0
  6
CONTINUOUS
  5
600
 10
446.33311
 20
431.625289
 30
0.0
 11
448.583487
 21
433.875666
 31
0.0
  0
LINE
  8
LC-005-005-----0
  6
CONTINUOUS
  5
601
 10
446.33311
 20
431.908132
 30
0.0
 11
448.583487
 21
434.158509
 31
0.0
  0
LINE
  8
LC-005-005-----0
  6
CONTINUOUS
  5
602
 10
446.33311
 20
432.190974
 30
0.0
 11
448.391999
 21
434.249863
 31
0.0
  0
LINE
  8
LC-005-005-----0
  6
CONTINUOUS
  5
603
 10
446.33311
 20
432.473817
 30
0.0
 11
448.109156
 21
434.249863
 31
0.0
  0
LINE
  8
LC-005-005-----0
  6
CONTINUOUS
  5
604
 10
446.33311
 20
432.75666
 30
0.0
 11
447.826313
 21
434.249863
 31
0.0
  0
LINE
  8
LC-005-005-----0
  6
CONTINUOUS
  5
605
 10
446.33311
 20
433.039503
 30
0.0
 11
447.543471
 21
434.249863
 31
0.0
  0
LINE
  8
LC-005-005-----0
  6
CONTINUOUS
  5
606
 10
446.33311
 20
433.322345
 30
0.0
 11
447.260628
 21
434.249863
 31
0.0
  0
LINE
  8
LC-005-005-----0
  6
CONTINUOUS
  5
607
 10
446.33311
 20
433.605188
 30
0.0
 11
446.977785
 21
434.249863
 31
0.0
  0
LINE
  8
LC-005-005-----0
  6
CONTINUOUS
  5
608
 10
446.33311
 20
433.888031
 30
0.0
 11
446.694942
 21
434.249863
 31
0.0
  0
LINE
  8
LC-005-005-----0
  6
CONTINUOUS
  5
609
 10
446.33311
 20
434.170873
 30
0.0
 11
446.4121
 21
434.249863
 31
0.0
  0
ENDBLK
  8
0
  5
60A
  0
BLOCK
  8
0
  5
60C
  2
*X48
 70
    65
 10
489.333487
 20
434.277873
 30
0.0
  3
*X48
  0
LINE
  8
LC-005-005-----0
  6
CONTINUOUS
  5
60D
 10
494.113853
 20
434.43404
 30
0.0
 11
494.333487
 21
434.653675
 31
0.0
  0
LINE
  8
LC-005-005-----0
  6
CONTINUOUS
  5
60E
 10
493.821458
 20
434.424488
 30
0.0
 11
494.333487
 21
434.936518
 31
0.0
  0
LINE
  8
LC-005-005-----0
  6
CONTINUOUS
  5
60F
 10
493.529063
 20
434.414936
 30
0.0
 11
494.333487
 21
435.21936
 31
0.0
  0
LINE
  8
LC-005-005-----0
  6
CONTINUOUS
  5
610
 10
493.236668
 20
434.405384
 30
0.0
 11
494.333487
 21
435.502203
 31
0.0
  0
LINE
  8
LC-005-005-----0
  6
CONTINUOUS
  5
611
 10
492.944273
 20
434.395832
 30
0.0
 11
494.333487
 21
435.785046
 31
0.0
  0
LINE
  8
LC-005-005-----0
  6
CONTINUOUS
  5
612
 10
492.651879
 20
434.38628
 30
0.0
 11
494.333487
 21
436.067889
 31
0.0
  0
LINE
  8
LC-005-005-----0
  6
CONTINUOUS
  5
613
 10
492.359484
 20
434.376728
 30
0.0
 11
494.333487
 21
436.350731
 31
0.0
  0
LINE
  8
LC-005-005-----0
  6
CONTINUOUS
  5
614
 10
492.067089
 20
434.367176
 30
0.0
 11
494.333487
 21
436.633574
 31
0.0
  0
LINE
  8
LC-005-005-----0
  6
CONTINUOUS
  5
615
 10
491.774694
 20
434.357624
 30
0.0
 11
494.333487
 21
436.916417
 31
0.0
  0
LINE
  8
LC-005-005-----0
  6
CONTINUOUS
  5
616
 10
491.482299
 20
434.348072
 30
0.0
 11
494.333487
 21
437.199259
 31
0.0
  0
LINE
  8
LC-005-005-----0
  6
CONTINUOUS
  5
617
 10
491.189905
 20
434.338519
 30
0.0
 11
494.292874
 21
437.441489
 31
0.0
  0
LINE
  8
LC-005-005-----0
  6
CONTINUOUS
  5
618
 10
490.89751
 20
434.328967
 30
0.0
 11
494.000479
 21
437.431937
 31
0.0
  0
LINE
  8
LC-005-005-----0
  6
CONTINUOUS
  5
619
 10
490.605115
 20
434.319415
 30
0.0
 11
493.708085
 21
437.422385
 31
0.0
  0
LINE
  8
LC-005-005-----0
  6
CONTINUOUS
  5
61A
 10
490.31272
 20
434.309863
 30
0.0
 11
493.41569
 21
437.412833
 31
0.0
  0
LINE
  8
LC-005-005-----0
  6
CONTINUOUS
  5
61B
 10
490.020325
 20
434.300311
 30
0.0
 11
493.123295
 21
437.403281
 31
0.0
  0
LINE
  8
LC-005-005-----0
  6
CONTINUOUS
  5
61C
 10
489.727931
 20
434.290759
 30
0.0
 11
492.8309
 21
437.393729
 31
0.0
  0
LINE
  8
LC-005-005-----0
  6
CONTINUOUS
  5
61D
 10
489.435536
 20
434.281207
 30
0.0
 11
492.538506
 21
437.384177
 31
0.0
  0
LINE
  8
LC-005-005-----0
  6
CONTINUOUS
  5
61E
 10
489.333487
 20
434.462001
 30
0.0
 11
492.246111
 21
437.374624
 31
0.0
  0
LINE
  8
LC-005-005-----0
  6
CONTINUOUS
  5
61F
 10
489.333487
 20
434.744844
 30
0.0
 11
491.953716
 21
437.365072
 31
0.0
  0
LINE
  8
LC-005-005-----0
  6
CONTINUOUS
  5
620
 10
489.333487
 20
435.027687
 30
0.0
 11
491.661321
 21
437.35552
 31
0.0
  0
LINE
  8
LC-005-005-----0
  6
CONTINUOUS
  5
621
 10
489.333487
 20
435.310529
 30
0.0
 11
491.368926
 21
437.345968
 31
0.0
  0
LINE
  8
LC-005-005-----0
  6
CONTINUOUS
  5
622
 10
489.333487
 20
435.593372
 30
0.0
 11
491.076532
 21
437.336416
 31
0.0
  0
LINE
  8
LC-005-005-----0
  6
CONTINUOUS
  5
623
 10
489.333487
 20
435.876215
 30
0.0
 11
490.784137
 21
437.326864
 31
0.0
  0
LINE
  8
LC-005-005-----0
  6
CONTINUOUS
  5
624
 10
489.333487
 20
436.159057
 30
0.0
 11
490.491742
 21
437.317312
 31
0.0
  0
LINE
  8
LC-005-005-----0
  6
CONTINUOUS
  5
625
 10
489.333487
 20
436.4419
 30
0.0
 11
490.199347
 21
437.30776
 31
0.0
  0
LINE
  8
LC-005-005-----0
  6
CONTINUOUS
  5
626
 10
489.333487
 20
436.724743
 30
0.0
 11
489.906952
 21
437.298208
 31
0.0
  0
LINE
  8
LC-005-005-----0
  6
CONTINUOUS
  5
627
 10
489.333487
 20
437.007586
 30
0.0
 11
489.614558
 21
437.288656
 31
0.0
  0
ENDBLK
  8
0
  5
628
  0
BLOCK
  8
0
  5
62A
  2
*X49
 70
    65
 10
479.333487
 20
432.490729
 30
0.0
  3
*X49
  0
LINE
  8
LC-005-005-----0
  6
CONTINUOUS
  5
62B
 10
484.285435
 20
433.65659
 30
0.0
 11
484.333487
 21
433.704642
 31
0.0
  0
LINE
  8
LC-005-005-----0
  6
CONTINUOUS
  5
62C
 10
483.915496
 20
433.569493
 30
0.0
 11
484.333487
 21
433.987485
 31
0.0
  0
LINE
  8
LC-005-005-----0
  6
CONTINUOUS
  5
62D
 10
483.545557
 20
433.482397
 30
0.0
 11
484.333487
 21
434.270327
 31
0.0
  0
LINE
  8
LC-005-005-----0
  6
CONTINUOUS
  5
62E
 10
483.175618
 20
433.3953
 30
0.0
 11
484.333487
 21
434.55317
 31
0.0
  0
LINE
  8
LC-005-005-----0
  6
CONTINUOUS
  5
62F
 10
482.805678
 20
433.308204
 30
0.0
 11
484.333487
 21
434.836013
 31
0.0
  0
LINE
  8
LC-005-005-----0
  6
CONTINUOUS
  5
630
 10
482.435739
 20
433.221107
 30
0.0
 11
484.333487
 21
435.118855
 31
0.0
  0
LINE
  8
LC-005-005-----0
  6
CONTINUOUS
  5
631
 10
482.0658
 20
433.134011
 30
0.0
 11
484.333487
 21
435.401698
 31
0.0
  0
LINE
  8
LC-005-005-----0
  6
CONTINUOUS
  5
632
 10
481.695861
 20
433.046914
 30
0.0
 11
484.333487
 21
435.684541
 31
0.0
  0
LINE
  8
LC-005-005-----0
  6
CONTINUOUS
  5
633
 10
481.325921
 20
432.959818
 30
0.0
 11
484.333487
 21
435.967384
 31
0.0
  0
LINE
  8
LC-005-005-----0
  6
CONTINUOUS
  5
634
 10
480.955982
 20
432.872721
 30
0.0
 11
484.333487
 21
436.250226
 31
0.0
  0
LINE
  8
LC-005-005-----0
  6
CONTINUOUS
  5
635
 10
480.586043
 20
432.785625
 30
0.0
 11
484.333487
 21
436.533069
 31
0.0
  0
LINE
  8
LC-005-005-----0
  6
CONTINUOUS
  5
636
 10
480.216104
 20
432.698528
 30
0.0
 11
484.231557
 21
436.713982
 31
0.0
  0
LINE
  8
LC-005-005-----0
  6
CONTINUOUS
  5
637
 10
479.846164
 20
432.611431
 30
0.0
 11
483.869397
 21
436.634664
 31
0.0
  0
LINE
  8
LC-005-005-----0
  6
CONTINUOUS
  5
638
 10
479.476225
 20
432.524335
 30
0.0
 11
483.507237
 21
436.555347
 31
0.0
  0
LINE
  8
LC-005-005-----0
  6
CONTINUOUS
  5
639
 10
479.333487
 20
432.66444
 30
0.0
 11
483.145077
 21
436.476029
 31
0.0
  0
LINE
  8
LC-005-005-----0
  6
CONTINUOUS
  5
63A
 10
479.333487
 20
432.947283
 30
0.0
 11
482.782917
 21
436.396712
 31
0.0
  0
LINE
  8
LC-005-005-----0
  6
CONTINUOUS
  5
63B
 10
479.333487
 20
433.230125
 30
0.0
 11
482.420756
 21
436.317394
 31
0.0
  0
LINE
  8
LC-005-005-----0
  6
CONTINUOUS
  5
63C
 10
479.333487
 20
433.512968
 30
0.0
 11
482.058596
 21
436.238077
 31
0.0
  0
LINE
  8
LC-005-005-----0
  6
CONTINUOUS
  5
63D
 10
479.333487
 20
433.795811
 30
0.0
 11
481.696436
 21
436.158759
 31
0.0
  0
LINE
  8
LC-005-005-----0
  6
CONTINUOUS
  5
63E
 10
479.333487
 20
434.078653
 30
0.0
 11
481.334276
 21
436.079442
 31
0.0
  0
LINE
  8
LC-005-005-----0
  6
CONTINUOUS
  5
63F
 10
479.333487
 20
434.361496
 30
0.0
 11
480.972116
 21
436.000124
 31
0.0
  0
LINE
  8
LC-005-005-----0
  6
CONTINUOUS
  5
640
 10
479.333487
 20
434.644339
 30
0.0
 11
480.609956
 21
435.920807
 31
0.0
  0
LINE
  8
LC-005-005-----0
  6
CONTINUOUS
  5
641
 10
479.333487
 20
434.927181
 30
0.0
 11
480.247795
 21
435.84149
 31
0.0
  0
LINE
  8
LC-005-005-----0
  6
CONTINUOUS
  5
642
 10
479.333487
 20
435.210024
 30
0.0
 11
479.885635
 21
435.762172
 31
0.0
  0
LINE
  8
LC-005-005-----0
  6
CONTINUOUS
  5
643
 10
479.333487
 20
435.492867
 30
0.0
 11
479.523475
 21
435.682855
 31
0.0
  0
ENDBLK
  8
0
  5
644
  0
BLOCK
  8
0
  5
646
  2
*X50
 70
    65
 10
469.333487
 20
430.300608
 30
0.0
  3
*X50
  0
LINE
  8
LC-005-005-----0
  6
CONTINUOUS
  5
647
 10
474.141933
 20
431.432683
 30
0.0
 11
474.333487
 21
431.624238
 31
0.0
  0
LINE
  8
LC-005-005-----0
  6
CONTINUOUS
  5
648
 10
473.771994
 20
431.345587
 30
0.0
 11
474.333487
 21
431.90708
 31
0.0
  0
LINE
  8
LC-005-005-----0
  6
CONTINUOUS
  5
649
 10
473.402055
 20
431.25849
 30
0.0
 11
474.333487
 21
432.189923
 31
0.0
  0
LINE
  8
LC-005-005-----0
  6
CONTINUOUS
  5
64A
 10
473.032115
 20
431.171394
 30
0.0
 11
474.333487
 21
432.472766
 31
0.0
  0
LINE
  8
LC-005-005-----0
  6
CONTINUOUS
  5
64B
 10
472.662176
 20
431.084297
 30
0.0
 11
474.333487
 21
432.755609
 31
0.0
  0
LINE
  8
LC-005-005-----0
  6
CONTINUOUS
  5
64C
 10
472.292237
 20
430.997201
 30
0.0
 11
474.333487
 21
433.038451
 31
0.0
  0
LINE
  8
LC-005-005-----0
  6
CONTINUOUS
  5
64D
 10
471.922298
 20
430.910104
 30
0.0
 11
474.333487
 21
433.321294
 31
0.0
  0
LINE
  8
LC-005-005-----0
  6
CONTINUOUS
  5
64E
 10
471.552358
 20
430.823008
 30
0.0
 11
474.333487
 21
433.604137
 31
0.0
  0
LINE
  8
LC-005-005-----0
  6
CONTINUOUS
  5
64F
 10
471.182419
 20
430.735911
 30
0.0
 11
474.333487
 21
433.886979
 31
0.0
  0
LINE
  8
LC-005-005-----0
  6
CONTINUOUS
  5
650
 10
470.81248
 20
430.648815
 30
0.0
 11
474.333487
 21
434.169822
 31
0.0
  0
LINE
  8
LC-005-005-----0
  6
CONTINUOUS
  5
651
 10
470.44254
 20
430.561718
 30
0.0
 11
474.333487
 21
434.452665
 31
0.0
  0
LINE
  8
LC-005-005-----0
  6
CONTINUOUS
  5
652
 10
470.072601
 20
430.474621
 30
0.0
 11
474.091072
 21
434.493093
 31
0.0
  0
LINE
  8
LC-005-005-----0
  6
CONTINUOUS
  5
653
 10
469.702662
 20
430.387525
 30
0.0
 11
473.728912
 21
434.413775
 31
0.0
  0
LINE
  8
LC-005-005-----0
  6
CONTINUOUS
  5
654
 10
469.333487
 20
430.301193
 30
0.0
 11
473.366752
 21
434.334458
 31
0.0
  0
LINE
  8
LC-005-005-----0
  6
CONTINUOUS
  5
655
 10
469.333487
 20
430.584036
 30
0.0
 11
473.004592
 21
434.25514
 31
0.0
  0
LINE
  8
LC-005-005-----0
  6
CONTINUOUS
  5
656
 10
469.333487
 20
430.866878
 30
0.0
 11
472.642432
 21
434.175823
 31
0.0
  0
LINE
  8
LC-005-005-----0
  6
CONTINUOUS
  5
657
 10
469.333487
 20
431.149721
 30
0.0
 11
472.280272
 21
434.096505
 31
0.0
  0
LINE
  8
LC-005-005-----0
  6
CONTINUOUS
  5
658
 10
469.333487
 20
431.432564
 30
0.0
 11
471.918111
 21
434.017188
 31
0.0
  0
LINE
  8
LC-005-005-----0
  6
CONTINUOUS
  5
659
 10
469.333487
 20
431.715407
 30
0.0
 11
471.555951
 21
433.93787
 31
0.0
  0
LINE
  8
LC-005-005-----0
  6
CONTINUOUS
  5
65A
 10
469.333487
 20
431.998249
 30
0.0
 11
471.193791
 21
433.858553
 31
0.0
  0
LINE
  8
LC-005-005-----0
  6
CONTINUOUS
  5
65B
 10
469.333487
 20
432.281092
 30
0.0
 11
470.831631
 21
433.779236
 31
0.0
  0
LINE
  8
LC-005-005-----0
  6
CONTINUOUS
  5
65C
 10
469.333487
 20
432.563935
 30
0.0
 11
470.469471
 21
433.699918
 31
0.0
  0
LINE
  8
LC-005-005-----0
  6
CONTINUOUS
  5
65D
 10
469.333487
 20
432.846777
 30
0.0
 11
470.107311
 21
433.620601
 31
0.0
  0
LINE
  8
LC-005-005-----0
  6
CONTINUOUS
  5
65E
 10
469.333487
 20
433.12962
 30
0.0
 11
469.74515
 21
433.541283
 31
0.0
  0
LINE
  8
LC-005-005-----0
  6
CONTINUOUS
  5
65F
 10
469.333487
 20
433.412463
 30
0.0
 11
469.38299
 21
433.461966
 31
0.0
  0
ENDBLK
  8
0
  5
660
  0
BLOCK
  8
0
  5
662
  2
BLK8
 70
    64
 10
0.0
 20
0.0
 30
0.0
  3
BLK8
  0
ENDBLK
  8
0
  5
663
  0
BLOCK
  8
0
  5
665
  2
*X52
 70
    65
 10
438.582991
 20
432.750542
 30
0.0
  3
*X52
  0
LINE
  8
LC-005-005-----0
  6
CONTINUOUS
  5
666
 10
463.864792
 20
432.752093
 30
0.0
 11
464.818869
 21
433.70617
 31
0.0
  0
LINE
  8
LC-005-005-----0
  6
CONTINUOUS
  5
667
 10
465.799171
 20
434.686473
 30
0.0
 11
465.86325
 21
434.750551
 31
0.0
  0
LINE
  8
LC-005-005-----0
  6
CONTINUOUS
  5
668
 10
462.449032
 20
432.750547
 30
0.0
 11
463.14903
 21
433.450545
 31
0.0
  0
LINE
  8
LC-005-005-----0
  6
CONTINUOUS
  5
669
 10
461.034821
 20
432.75055
 30
0.0
 11
461.73482
 21
433.450548
 31
0.0
  0
LINE
  8
LC-005-005-----0
  6
CONTINUOUS
  5
66A
 10
459.620611
 20
432.750553
 30
0.0
 11
460.320609
 21
433.450552
 31
0.0
  0
LINE
  8
LC-005-005-----0
  6
CONTINUOUS
  5
66B
 10
458.63428
 20
433.178436
 30
0.0
 11
459.129255
 21
433.67341
 31
0.0
  0
LINE
  8
LC-005-005-----0
  6
CONTINUOUS
  5
66C
 10
457.927173
 20
433.885542
 30
0.0
 11
458.422148
 21
434.380517
 31
0.0
  0
LINE
  8
LC-005-005-----0
  6
CONTINUOUS
  5
66D
 10
457.220066
 20
434.592649
 30
0.0
 11
457.715041
 21
435.087624
 31
0.0
  0
LINE
  8
LC-005-005-----0
  6
CONTINUOUS
  5
66E
 10
456.463615
 20
435.250411
 30
0.0
 11
457.005468
 21
435.792265
 31
0.0
  0
LINE
  8
LC-005-005-----0
  6
CONTINUOUS
  5
66F
 10
455.333483
 20
435.534493
 30
0.0
 11
455.749406
 21
435.950416
 31
0.0
  0
LINE
  8
LC-005-005-----0
  6
CONTINUOUS
  5
670
 10
446.564182
 20
435.250473
 30
0.0
 11
447.264177
 21
435.950469
 31
0.0
  0
LINE
  8
LC-005-005-----0
  6
CONTINUOUS
  5
671
 10
444.149983
 20
434.250488
 30
0.0
 11
445.849973
 21
435.950478
 31
0.0
  0
LINE
  8
LC-005-005-----0
  6
CONTINUOUS
  5
672
 10
442.735779
 20
434.250497
 30
0.0
 11
443.435774
 21
434.950493
 31
0.0
  0
LINE
  8
LC-005-005-----0
  6
CONTINUOUS
  5
673
 10
440.021585
 20
432.950517
 30
0.0
 11
440.721578
 21
433.65051
 31
0.0
  0
LINE
  8
LC-005-005-----0
  6
CONTINUOUS
  5
674
 10
441.321574
 20
434.250506
 30
0.0
 11
442.02157
 21
434.950502
 31
0.0
  0
LINE
  8
LC-005-005-----0
  6
CONTINUOUS
  5
675
 10
438.888179
 20
433.231325
 30
0.0
 11
439.3834
 21
433.726545
 31
0.0
  0
LINE
  8
LC-005-005-----0
  6
CONTINUOUS
  5
676
 10
439.907369
 20
434.250515
 30
0.0
 11
440.607365
 21
434.950511
 31
0.0
  0
LINE
  8
LC-005-005-----0
  6
CONTINUOUS
  5
677
 10
438.757343
 20
434.514702
 30
0.0
 11
439.018806
 21
434.776165
 31
0.0
  0
ENDBLK
  8
0
  5
678
  0
BLOCK
  8
0
  5
67A
  2
*D53
 70
    65
 10
0.0
 20
0.0
 30
0.0
  3
*D53
  0
LINE
  8
LC-007-003-MTH-0
  6
CONTINUOUS
  5
67B
 10
408.377227
 20
216.64307
 30
0.0
 11
526.4
 21
216.64307
 31
0.0
  0
LINE
  8
LC-007-003-MTH-0
  6
CONTINUOUS
  5
67C
 10
458.951529
 20
415.14307
 30
0.0
 11
526.4
 21
415.14307
 31
0.0
  0
LINE
  8
LC-008-003-MTG-0
  6
CONTINUOUS
  5
67D
 10
509.6
 20
216.64307
 30
0.0
 11
509.6
 21
415.14307
 31
0.0
  0
LINE
  8
LC-006-003-----0
  6
CONTINUOUS
  5
67E
 10
505.945267
 20
244.403526
 30
0.0
 11
509.6
 21
216.64307
 31
0.0
  0
LINE
  8
LC-006-003-----0
  6
CONTINUOUS
  5
67F
 10
509.6
 20
216.64307
 30
0.0
 11
513.254733
 21
244.403526
 31
0.0
  0
LINE
  8
LC-006-003-----0
  6
CONTINUOUS
  5
680
 10
513.254733
 20
244.403526
 30
0.0
 11
505.945267
 21
244.403526
 31
0.0
  0
LINE
  8
LC-006-003-----0
  6
CONTINUOUS
  5
681
 10
506.895497
 20
244.465807
 30
0.0
 11
509.6
 21
223.92307
 31
0.0
  0
LINE
  8
LC-006-003-----0
  6
CONTINUOUS
  5
682
 10
509.6
 20
223.92307
 30
0.0
 11
512.304503
 21
244.465807
 31
0.0
  0
LINE
  8
LC-006-003-----0
  6
CONTINUOUS
  5
683
 10
507.845728
 20
244.528089
 30
0.0
 11
509.6
 21
231.20307
 31
0.0
  0
LINE
  8
LC-006-003-----0
  6
CONTINUOUS
  5
684
 10
509.6
 20
231.20307
 30
0.0
 11
511.354272
 21
244.528089
 31
0.0
  0
LINE
  8
LC-006-003-----0
  6
CONTINUOUS
  5
685
 10
508.795959
 20
244.59037
 30
0.0
 11
509.6
 21
238.48307
 31
0.0
  0
LINE
  8
LC-006-003-----0
  6
CONTINUOUS
  5
686
 10
509.6
 20
238.48307
 30
0.0
 11
510.404041
 21
244.59037
 31
0.0
  0
LINE
  8
LC-006-003-----0
  6
CONTINUOUS
  5
687
 10
513.254733
 20
387.382614
 30
0.0
 11
509.6
 21
415.14307
 31
0.0
  0
LINE
  8
LC-006-003-----0
  6
CONTINUOUS
  5
688
 10
509.6
 20
415.14307
 30
0.0
 11
505.945267
 21
387.382614
 31
0.0
  0
LINE
  8
LC-006-003-----0
  6
CONTINUOUS
  5
689
 10
505.945267
 20
387.382614
 30
0.0
 11
513.254733
 21
387.382614
 31
0.0
  0
LINE
  8
LC-006-003-----0
  6
CONTINUOUS
  5
68A
 10
512.304503
 20
387.320332
 30
0.0
 11
509.6
 21
407.86307
 31
0.0
  0
LINE
  8
LC-006-003-----0
  6
CONTINUOUS
  5
68B
 10
509.6
 20
407.86307
 30
0.0
 11
506.895497
 21
387.320332
 31
0.0
  0
LINE
  8
LC-006-003-----0
  6
CONTINUOUS
  5
68C
 10
511.354272
 20
387.258051
 30
0.0
 11
509.6
 21
400.58307
 31
0.0
  0
LINE
  8
LC-006-003-----0
  6
CONTINUOUS
  5
68D
 10
509.6
 20
400.58307
 30
0.0
 11
507.845728
 21
387.258051
 31
0.0
  0
LINE
  8
LC-006-003-----0
  6
CONTINUOUS
  5
68E
 10
510.404041
 20
387.19577
 30
0.0
 11
509.6
 21
393.30307
 31
0.0
  0
LINE
  8
LC-006-003-----0
  6
CONTINUOUS
  5
68F
 10
509.6
 20
393.30307
 30
0.0
 11
508.795959
 21
387.19577
 31
0.0
  0
TEXT
  8
LC-006-003-----0
  6
CONTINUOUS
 62
     8
  5
690
 10
501.772446
 20
293.83793
 30
0.0
 40
28.0
  1
200
 50
90.0
 41
0.9
 51
15.0
  7
LC-TXTSTYLE-150-400-0-0-A0
 72
     1
 11
501.772446
 21
320.24123
 31
0.0
  0
ENDBLK
  8
0
  5
691
  0
BLOCK
  8
0
  5
693
  2
*D54
 70
    65
 10
0.0
 20
0.0
 30
0.0
  3
*D54
  0
LINE
  8
LC-007-003-MTH-0
  6
CONTINUOUS
  5
694
 10
411.082998
 20
216.64307
 30
0.0
 11
565.6
 21
216.64307
 31
0.0
  0
LINE
  8
LC-007-003-MTH-0
  6
CONTINUOUS
  5
695
 10
581.582998
 20
434.489902
 30
0.0
 11
532.0
 21
434.489902
 31
0.0
  0
LINE
  8
LC-008-003-MTG-0
  6
CONTINUOUS
  5
696
 10
548.8
 20
216.64307
 30
0.0
 11
548.8
 21
434.489902
 31
0.0
  0
LINE
  8
LC-006-003-----0
  6
CONTINUOUS
  5
697
 10
545.145267
 20
244.403526
 30
0.0
 11
548.8
 21
216.64307
 31
0.0
  0
LINE
  8
LC-006-003-----0
  6
CONTINUOUS
  5
698
 10
548.8
 20
216.64307
 30
0.0
 11
552.454733
 21
244.403526
 31
0.0
  0
LINE
  8
LC-006-003-----0
  6
CONTINUOUS
  5
699
 10
552.454733
 20
244.403526
 30
0.0
 11
545.145267
 21
244.403526
 31
0.0
  0
LINE
  8
LC-006-003-----0
  6
CONTINUOUS
  5
69A
 10
546.095497
 20
244.465807
 30
0.0
 11
548.8
 21
223.92307
 31
0.0
  0
LINE
  8
LC-006-003-----0
  6
CONTINUOUS
  5
69B
 10
548.8
 20
223.92307
 30
0.0
 11
551.504503
 21
244.465807
 31
0.0
  0
LINE
  8
LC-006-003-----0
  6
CONTINUOUS
  5
69C
 10
547.045728
 20
244.528089
 30
0.0
 11
548.8
 21
231.20307
 31
0.0
  0
LINE
  8
LC-006-003-----0
  6
CONTINUOUS
  5
69D
 10
548.8
 20
231.20307
 30
0.0
 11
550.554272
 21
244.528089
 31
0.0
  0
LINE
  8
LC-006-003-----0
  6
CONTINUOUS
  5
69E
 10
547.995959
 20
244.59037
 30
0.0
 11
548.8
 21
238.48307
 31
0.0
  0
LINE
  8
LC-006-003-----0
  6
CONTINUOUS
  5
69F
 10
548.8
 20
238.48307
 30
0.0
 11
549.604041
 21
244.59037
 31
0.0
  0
LINE
  8
LC-006-003-----0
  6
CONTINUOUS
  5
6A0
 10
552.454733
 20
406.729446
 30
0.0
 11
548.8
 21
434.489902
 31
0.0
  0
LINE
  8
LC-006-003-----0
  6
CONTINUOUS
  5
6A1
 10
548.8
 20
434.489902
 30
0.0
 11
545.145267
 21
406.729446
 31
0.0
  0
LINE
  8
LC-006-003-----0
  6
CONTINUOUS
  5
6A2
 10
545.145267
 20
406.729446
 30
0.0
 11
552.454733
 21
406.729446
 31
0.0
  0
LINE
  8
LC-006-003-----0
  6
CONTINUOUS
  5
6A3
 10
551.504503
 20
406.667165
 30
0.0
 11
548.8
 21
427.209902
 31
0.0
  0
LINE
  8
LC-006-003-----0
  6
CONTINUOUS
  5
6A4
 10
548.8
 20
427.209902
 30
0.0
 11
546.095497
 21
406.667165
 31
0.0
  0
LINE
  8
LC-006-003-----0
  6
CONTINUOUS
  5
6A5
 10
550.554272
 20
406.604883
 30
0.0
 11
548.8
 21
419.929902
 31
0.0
  0
LINE
  8
LC-006-003-----0
  6
CONTINUOUS
  5
6A6
 10
548.8
 20
419.929902
 30
0.0
 11
547.045728
 21
406.604883
 31
0.0
  0
LINE
  8
LC-006-003-----0
  6
CONTINUOUS
  5
6A7
 10
549.604041
 20
406.542602
 30
0.0
 11
548.8
 21
412.649902
 31
0.0
  0
LINE
  8
LC-006-003-----0
  6
CONTINUOUS
  5
6A8
 10
548.8
 20
412.649902
 30
0.0
 11
547.995959
 21
406.542602
 31
0.0
  0
TEXT
  8
LC-006-003-----0
  6
CONTINUOUS
 62
     8
  5
6A9
 10
540.972446
 20
303.511346
 30
0.0
 40
28.0
  1
219
 50
90.0
 41
0.9
 51
15.0
  7
LC-TXTSTYLE-150-400-0-0-A0
 72
     1
 11
540.972446
 21
329.914646
 31
0.0
  0
ENDBLK
  8
0
  5
6AA
  0
BLOCK
  8
0
  5
6AC
  2
*D55
 70
    65
 10
0.0
 20
0.0
 30
0.0
  3
*D55
  0
LINE
  8
LC-007-003-MTH-0
  6
CONTINUOUS
  5
6AD
 10
181.582998
 20
437.489902
 30
0.0
 11
181.582998
 21
565.6
 31
0.0
  0
LINE
  8
LC-007-003-MTH-0
  6
CONTINUOUS
  5
6AE
 10
581.582998
 20
437.489902
 30
0.0
 11
581.582998
 21
565.6
 31
0.0
  0
LINE
  8
LC-008-003-MTG-0
  6
CONTINUOUS
  5
6AF
 10
181.582998
 20
548.8
 30
0.0
 11
581.582998
 21
548.8
 31
0.0
  0
LINE
  8
LC-006-003-----0
  6
CONTINUOUS
  5
6B0
 10
209.343454
 20
552.454733
 30
0.0
 11
181.582998
 21
548.8
 31
0.0
  0
LINE
  8
LC-006-003-----0
  6
CONTINUOUS
  5
6B1
 10
181.582998
 20
548.8
 30
0.0
 11
209.343454
 21
545.145267
 31
0.0
  0
LINE
  8
LC-006-003-----0
  6
CONTINUOUS
  5
6B2
 10
209.343454
 20
545.145267
 30
0.0
 11
209.343454
 21
552.454733
 31
0.0
  0
LINE
  8
LC-006-003-----0
  6
CONTINUOUS
  5
6B3
 10
209.405735
 20
551.504503
 30
0.0
 11
188.862998
 21
548.8
 31
0.0
  0
LINE
  8
LC-006-003-----0
  6
CONTINUOUS
  5
6B4
 10
188.862998
 20
548.8
 30
0.0
 11
209.405735
 21
546.095497
 31
0.0
  0
LINE
  8
LC-006-003-----0
  6
CONTINUOUS
  5
6B5
 10
209.468017
 20
550.554272
 30
0.0
 11
196.142998
 21
548.8
 31
0.0
  0
LINE
  8
LC-006-003-----0
  6
CONTINUOUS
  5
6B6
 10
196.142998
 20
548.8
 30
0.0
 11
209.468017
 21
547.045728
 31
0.0
  0
LINE
  8
LC-006-003-----0
  6
CONTINUOUS
  5
6B7
 10
209.530298
 20
549.604041
 30
0.0
 11
203.422998
 21
548.8
 31
0.0
  0
LINE
  8
LC-006-003-----0
  6
CONTINUOUS
  5
6B8
 10
203.422998
 20
548.8
 30
0.0
 11
209.530298
 21
547.995959
 31
0.0
  0
LINE
  8
LC-006-003-----0
  6
CONTINUOUS
  5
6B9
 10
553.822542
 20
545.145267
 30
0.0
 11
581.582998
 21
548.8
 31
0.0
  0
LINE
  8
LC-006-003-----0
  6
CONTINUOUS
  5
6BA
 10
581.582998
 20
548.8
 30
0.0
 11
553.822542
 21
552.454733
 31
0.0
  0
LINE
  8
LC-006-003-----0
  6
CONTINUOUS
  5
6BB
 10
553.822542
 20
552.454733
 30
0.0
 11
553.822542
 21
545.145267
 31
0.0
  0
LINE
  8
LC-006-003-----0
  6
CONTINUOUS
  5
6BC
 10
553.76026
 20
546.095497
 30
0.0
 11
574.302998
 21
548.8
 31
0.0
  0
LINE
  8
LC-006-003-----0
  6
CONTINUOUS
  5
6BD
 10
574.302998
 20
548.8
 30
0.0
 11
553.76026
 21
551.504503
 31
0.0
  0
LINE
  8
LC-006-003-----0
  6
CONTINUOUS
  5
6BE
 10
553.697979
 20
547.045728
 30
0.0
 11
567.022998
 21
548.8
 31
0.0
  0
LINE
  8
LC-006-003-----0
  6
CONTINUOUS
  5
6BF
 10
567.022998
 20
548.8
 30
0.0
 11
553.697979
 21
550.554272
 31
0.0
  0
LINE
  8
LC-006-003-----0
  6
CONTINUOUS
  5
6C0
 10
553.635698
 20
547.995959
 30
0.0
 11
559.742998
 21
548.8
 31
0.0
  0
LINE
  8
LC-006-003-----0
  6
CONTINUOUS
  5
6C1
 10
559.742998
 20
548.8
 30
0.0
 11
553.635698
 21
549.604041
 31
0.0
  0
TEXT
  8
LC-006-003-----0
  6
CONTINUOUS
 62
     8
  5
6C2
 10
347.659708
 20
556.627554
 30
0.0
 40
28.0
  1
Ø420
 41
0.9
 51
15.0
  7
LC-TXTSTYLE-150-400-0-0-A0
 72
     1
 11
385.931158
 21
556.627554
 31
0.0
  0
ENDBLK
  8
0
  5
6C3
  0
BLOCK
  8
0
  5
6C5
  2
*X56
 70
    65
 10
323.583005
 20
424.950517
 30
0.0
  3
*X56
  0
LINE
  8
LC-005-005-----0
  6
CONTINUOUS
  5
6C6
 10
436.264225
 20
424.950517
 30
0.0
 11
438.082998
 21
426.769289
 31
0.0
  0
LINE
  8
LC-005-005-----0
  6
CONTINUOUS
  5
6C7
 10
436.082998
 20
427.597717
 30
0.0
 11
439.573469
 21
431.088188
 31
0.0
  0
LINE
  8
LC-005-005-----0
  6
CONTINUOUS
  5
6C8
 10
436.082998
 20
430.426144
 30
0.0
 11
438.082998
 21
432.426144
 31
0.0
  0
LINE
  8
LC-005-005-----0
  6
CONTINUOUS
  5
6C9
 10
436.082998
 20
433.254571
 30
0.0
 11
437.778943
 21
434.950516
 31
0.0
  0
LINE
  8
LC-005-005-----0
  6
CONTINUOUS
  5
6CA
 10
421.202453
 20
472.114141
 30
0.0
 11
422.622658
 21
473.534346
 31
0.0
  0
LINE
  8
LC-005-005-----0
  6
CONTINUOUS
  5
6CB
 10
420.690438
 20
474.430553
 30
0.0
 11
422.005015
 21
475.745131
 31
0.0
  0
LINE
  8
LC-005-005-----0
  6
CONTINUOUS
  5
6CC
 10
420.690438
 20
477.25898
 30
0.0
 11
421.387373
 21
477.955915
 31
0.0
  0
LINE
  8
LC-005-005-----0
  6
CONTINUOUS
  5
6CD
 10
420.690438
 20
480.087407
 30
0.0
 11
420.76973
 21
480.166699
 31
0.0
  0
LINE
  8
LC-005-005-----0
  6
CONTINUOUS
  5
6CE
 10
412.612422
 20
505.950517
 30
0.0
 11
413.582998
 21
506.921093
 31
0.0
  0
LINE
  8
LC-005-005-----0
  6
CONTINUOUS
  5
6CF
 10
411.582998
 20
507.74952
 30
0.0
 11
413.582998
 21
509.74952
 31
0.0
  0
LINE
  8
LC-005-005-----0
  6
CONTINUOUS
  5
6D0
 10
325.955568
 20
424.950517
 30
0.0
 11
327.082998
 21
426.077947
 31
0.0
  0
LINE
  8
LC-005-005-----0
  6
CONTINUOUS
  5
6D1
 10
325.082998
 20
426.906374
 30
0.0
 11
327.082998
 21
428.906374
 31
0.0
  0
LINE
  8
LC-005-005-----0
  6
CONTINUOUS
  5
6D2
 10
324.940859
 20
429.592663
 30
0.0
 11
327.082998
 21
431.734802
 31
0.0
  0
LINE
  8
LC-005-005-----0
  6
CONTINUOUS
  5
6D3
 10
323.590223
 20
431.070454
 30
0.0
 11
324.463068
 21
431.943298
 31
0.0
  0
LINE
  8
LC-005-005-----0
  6
CONTINUOUS
  5
6D4
 10
325.082998
 20
432.563229
 30
0.0
 11
327.082998
 21
434.563229
 31
0.0
  0
LINE
  8
LC-005-005-----0
  6
CONTINUOUS
  5
6D5
 10
384.328151
 20
505.950517
 30
0.0
 11
386.582998
 21
508.205364
 31
0.0
  0
LINE
  8
LC-005-005-----0
  6
CONTINUOUS
  5
6D6
 10
381.499723
 20
505.950517
 30
0.0
 11
385.499723
 21
509.950517
 31
0.0
  0
LINE
  8
LC-005-005-----0
  6
CONTINUOUS
  5
6D7
 10
378.671296
 20
505.950517
 30
0.0
 11
382.671296
 21
509.950517
 31
0.0
  0
LINE
  8
LC-005-005-----0
  6
CONTINUOUS
  5
6D8
 10
376.582998
 20
506.690646
 30
0.0
 11
379.842869
 21
509.950517
 31
0.0
  0
LINE
  8
LC-005-005-----0
  6
CONTINUOUS
  5
6D9
 10
340.52204
 20
473.458115
 30
0.0
 11
342.475558
 21
475.411633
 31
0.0
  0
LINE
  8
LC-005-005-----0
  6
CONTINUOUS
  5
6DA
 10
376.582998
 20
509.519073
 30
0.0
 11
377.014442
 21
509.950517
 31
0.0
  0
LINE
  8
LC-005-005-----0
  6
CONTINUOUS
  5
6DB
 10
341.618589
 20
477.383091
 30
0.0
 11
342.475558
 21
478.24006
 31
0.0
  0
LINE
  8
LC-005-005-----0
  6
CONTINUOUS
  5
6DC
 10
350.387025
 20
505.950517
 30
0.0
 11
351.582998
 21
507.14649
 31
0.0
  0
LINE
  8
LC-005-005-----0
  6
CONTINUOUS
  5
6DD
 10
349.582998
 20
507.974917
 30
0.0
 11
351.558598
 21
509.950517
 31
0.0
  0
ENDBLK
  8
0
  5
6DE
  0
BLOCK
  8
0
  5
6E0
  2
BLK9
 70
    64
 10
0.0
 20
0.0
 30
0.0
  3
BLK9
  0
ENDBLK
  8
0
  5
6E1
  0
BLOCK
  8
0
  5
6E3
  2
BLK10
 70
    64
 10
0.0
 20
0.0
 30
0.0
  3
BLK10
  0
ENDBLK
  8
0
  5
6E4
  0
ENDSEC
  0
SECTION
  2
ENTITIES
  0
VIEWPORT
  8
LC-000
  5
951
 67
     1
 68
     1
 10
420.0
 20
297.0
 30
0.0
 40
840.0
 41
594.0
 69
     1
1001
ACAD
1000
MVIEW
1002
{
1070
    16
1010
0.0
1020
0.0
1030
0.0
1010
0.0
1020
0.0
1030
1.0
1040
0.0
1040
594.0
1040
420.0
1040
297.0
1040
50.0
1040
0.0
1040
0.0
1070
     0
1070
   100
1070
     1
1070
     1
1070
     0
1070
     0
1070
     0
1070
     0
1040
0.0
1040
0.0
1040
0.0
1040
1.0
1040
1.0
1040
0.0
1040
0.0
1070
     0
1002
{
1002
}
1002
}
  0
VIEWPORT
  8
0
  5
952
 67
     1
 68
     1
 10
0.0
 20
0.0
 30
0.0
 40
0.0
 41
0.0
 69
     1
1001
ACAD
1000
MVIEW
1002
{
1070
    16
1010
0.0
1020
0.0
1030
0.0
1010
0.0
1020
0.0
1030
1.0
1040
0.0
1040
594.0
1040
0.0
1040
0.0
1040
50.0
1040
0.0
1040
0.0
1070
     0
1070
   100
1070
     0
1070
     1
1070
     0
1070
     0
1070
     0
1070
     0
1040
0.0
1040
0.0
1040
0.0
1040
0.5
1040
0.5
1040
0.5
1040
0.5
1070
     0
1002
{
1002
}
1002
}
  0
INSERT
  8
LC-001-000-----0
  5
6E6
  2
BLK1
 10
0.0
 20
0.0
 30
0.0
  0
INSERT
  8
LC-005-005-----0
  6
CONTINUOUS
  5
6E7
  2
*X1
 10
266.582998
 20
216.64307
 30
0.0
  0
INSERT
  8
LC-005-005-----0
  6
CONTINUOUS
  5
6E8
  2
*X2
 10
406.582998
 20
216.64307
 30
0.0
  0
INSERT
  8
LC-005-005-----0
  6
CONTINUOUS
  5
6E9
  2
*X3
 10
344.832998
 20
216.64307
 30
0.0
  0
INSERT
  8
LC-001-000-----0
  5
6EA
  2
BLK2
 10
0.0
 20
0.0
 30
0.0
  0
DIMENSION
  8
LC-006-003-----0
  6
CONTINUOUS
  5
6EB
  2
*D5
 10
381.582998
 20
117.6
 30
0.0
 11
381.582998
 21
117.6
 31
0.0
  1
%%c<>
 13
344.832998
 23
226.113192
 33
0.0
 14
418.332998
 24
226.113192
 34
0.0
  3
LC-DIM-L-0140-02-02
  0
DIMENSION
  8
LC-006-003-----0
  6
CONTINUOUS
  5
6EC
  2
*D6
 10
381.582998
 20
156.8
 30
0.0
 11
381.582998
 21
156.8
 31
0.0
  1
%%c<>
 13
352.082998
 23
216.64307
 33
0.0
 14
411.082998
 24
216.64307
 34
0.0
  3
LC-DIM-L-0140-02-02
  0
DIMENSION
  8
LC-006-003-----0
  6
CONTINUOUS
  5
6ED
  2
*D7
 10
470.4
 20
307.64307
 30
0.0
 11
470.4
 21
307.64307
 31
0.0
 13
406.582998
 23
216.64307
 33
0.0
 14
417.80312
 24
398.64307
 34
0.0
 50
90.0
  3
LC-DIM-L-0140-02-02
  0
INSERT
  8
LC-001-000-----0
  5
6EE
  2
BLK3
 10
0.0
 20
0.0
 30
0.0
  0
INSERT
  8
LC-005-005-----0
  6
CONTINUOUS
  5
6EF
  2
*X9
 10
181.582998
 20
434.489902
 30
0.0
  0
INSERT
  8
LC-005-005-----0
  6
CONTINUOUS
  5
6F0
  2
*X10
 10
188.832508
 20
434.489902
 30
0.0
  0
INSERT
  8
LC-005-005-----0
  6
CONTINUOUS
  5
6F1
  2
*X11
 10
198.832508
 20
434.489902
 30
0.0
  0
INSERT
  8
LC-005-005-----0
  6
CONTINUOUS
  5
6F2
  2
*X12
 10
208.832508
 20
434.489902
 30
0.0
  0
INSERT
  8
LC-005-005-----0
  6
CONTINUOUS
  5
6F3
  2
*X13
 10
218.832508
 20
434.489902
 30
0.0
  0
INSERT
  8
LC-005-005-----0
  6
CONTINUOUS
  5
6F4
  2
*X14
 10
228.832508
 20
434.489902
 30
0.0
  0
INSERT
  8
LC-005-005-----0
  6
CONTINUOUS
  5
6F5
  2
*X15
 10
238.832508
 20
434.489902
 30
0.0
  0
INSERT
  8
LC-005-005-----0
  6
CONTINUOUS
  5
6F6
  2
*X16
 10
248.832508
 20
434.489902
 30
0.0
  0
INSERT
  8
LC-005-005-----0
  6
CONTINUOUS
  5
6F7
  2
*X17
 10
258.832508
 20
434.489902
 30
0.0
  0
INSERT
  8
LC-005-005-----0
  6
CONTINUOUS
  5
6F8
  2
*X18
 10
298.832508
 20
429.750553
 30
0.0
  0
INSERT
  8
LC-005-005-----0
  6
CONTINUOUS
  5
6F9
  2
*X19
 10
314.582508
 20
431.249863
 30
0.0
  0
INSERT
  8
LC-005-005-----0
  6
CONTINUOUS
  5
6FA
  2
*X20
 10
268.832508
 20
434.277873
 30
0.0
  0
INSERT
  8
LC-001-000-----0
  5
6FB
  2
BLK4
 10
0.0
 20
0.0
 30
0.0
  0
INSERT
  8
LC-005-005-----0
  6
CONTINUOUS
  5
6FC
  2
*X22
 10
296.397662
 20
432.750542
 30
0.0
  0
INSERT
  8
LC-001-000-----0
  5
6FD
  2
BLK5
 10
0.0
 20
0.0
 30
0.0
  0
INSERT
  8
LC-005-005-----0
  6
CONTINUOUS
  5
6FE
  2
*X24
 10
278.832508
 20
432.490729
 30
0.0
  0
INSERT
  8
LC-005-005-----0
  6
CONTINUOUS
  5
6FF
  2
*X25
 10
288.832508
 20
430.300608
 30
0.0
  0
INSERT
  8
LC-005-005-----0
  6
CONTINUOUS
  5
700
  2
*X26
 10
579.333487
 20
434.489902
 30
0.0
  0
INSERT
  8
LC-005-005-----0
  6
CONTINUOUS
  5
701
  2
*X27
 10
569.333487
 20
434.489902
 30
0.0
  0
INSERT
  8
LC-005-005-----0
  6
CONTINUOUS
  5
702
  2
*X28
 10
559.333487
 20
434.489902
 30
0.0
  0
INSERT
  8
LC-005-005-----0
  6
CONTINUOUS
  5
703
  2
*X29
 10
549.333487
 20
434.489902
 30
0.0
  0
INSERT
  8
LC-005-005-----0
  6
CONTINUOUS
  5
704
  2
*X30
 10
539.333487
 20
434.489902
 30
0.0
  0
INSERT
  8
LC-005-005-----0
  6
CONTINUOUS
  5
705
  2
*X31
 10
529.333487
 20
434.489902
 30
0.0
  0
INSERT
  8
LC-005-005-----0
  6
CONTINUOUS
  5
706
  2
*X32
 10
519.333487
 20
434.489902
 30
0.0
  0
INSERT
  8
LC-005-005-----0
  6
CONTINUOUS
  5
707
  2
*X33
 10
509.333487
 20
434.489902
 30
0.0
  0
INSERT
  8
LC-005-005-----0
  6
CONTINUOUS
  5
708
  2
*X34
 10
499.333487
 20
434.489902
 30
0.0
  0
INSERT
  8
LC-001-000-----0
  5
709
  2
BLK6
 10
0.0
 20
0.0
 30
0.0
  0
INSERT
  8
LC-001-000-----0
  5
70A
  2
BLK7
 10
0.0
 20
0.0
 30
0.0
  0
INSERT
  8
LC-005-005-----0
  6
CONTINUOUS
  5
70B
  2
*X37
 10
579.333487
 20
434.489902
 30
0.0
  0
INSERT
  8
LC-005-005-----0
  6
CONTINUOUS
  5
70C
  2
*X38
 10
569.333487
 20
434.489902
 30
0.0
  0
INSERT
  8
LC-005-005-----0
  6
CONTINUOUS
  5
70D
  2
*X39
 10
559.333487
 20
434.489902
 30
0.0
  0
INSERT
  8
LC-005-005-----0
  6
CONTINUOUS
  5
70E
  2
*X40
 10
549.333487
 20
434.489902
 30
0.0
  0
INSERT
  8
LC-005-005-----0
  6
CONTINUOUS
  5
70F
  2
*X41
 10
539.333487
 20
434.489902
 30
0.0
  0
INSERT
  8
LC-005-005-----0
  6
CONTINUOUS
  5
710
  2
*X42
 10
529.333487
 20
434.489902
 30
0.0
  0
INSERT
  8
LC-005-005-----0
  6
CONTINUOUS
  5
711
  2
*X43
 10
519.333487
 20
434.489902
 30
0.0
  0
INSERT
  8
LC-005-005-----0
  6
CONTINUOUS
  5
712
  2
*X44
 10
509.333487
 20
434.489902
 30
0.0
  0
INSERT
  8
LC-005-005-----0
  6
CONTINUOUS
  5
713
  2
*X45
 10
499.333487
 20
434.489902
 30
0.0
  0
INSERT
  8
LC-005-005-----0
  6
CONTINUOUS
  5
714
  2
*X46
 10
459.333487
 20
429.750553
 30
0.0
  0
INSERT
  8
LC-005-005-----0
  6
CONTINUOUS
  5
715
  2
*X47
 10
446.33311
 20
431.249863
 30
0.0
  0
INSERT
  8
LC-005-005-----0
  6
CONTINUOUS
  5
716
  2
*X48
 10
489.333487
 20
434.277873
 30
0.0
  0
INSERT
  8
LC-005-005-----0
  6
CONTINUOUS
  5
717
  2
*X49
 10
479.333487
 20
432.490729
 30
0.0
  0
INSERT
  8
LC-005-005-----0
  6
CONTINUOUS
  5
718
  2
*X50
 10
469.333487
 20
430.300608
 30
0.0
  0
INSERT
  8
LC-001-000-----0
  5
719
  2
BLK8
 10
0.0
 20
0.0
 30
0.0
  0
INSERT
  8
LC-005-005-----0
  6
CONTINUOUS
  5
71A
  2
*X52
 10
438.582991
 20
432.750542
 30
0.0
  0
DIMENSION
  8
LC-006-003-----0
  6
CONTINUOUS
  5
71B
  2
*D53
 10
509.6
 20
315.89307
 30
0.0
 11
509.6
 21
315.89307
 31
0.0
  1
200
 13
408.377227
 23
216.64307
 33
0.0
 14
458.951529
 24
415.14307
 34
0.0
 50
90.0
  3
LC-DIM-L-0140-02-02
  0
DIMENSION
  8
LC-006-003-----0
  6
CONTINUOUS
  5
71C
  2
*D54
 10
548.8
 20
325.566486
 30
0.0
 11
548.8
 21
325.566486
 31
0.0
  1
219
 13
411.082998
 23
216.64307
 33
0.0
 14
581.582998
 24
434.489902
 34
0.0
 50
90.0
  3
LC-DIM-L-0140-02-02
  0
DIMENSION
  8
LC-006-003-----0
  6
CONTINUOUS
  5
71D
  2
*D55
 10
381.582998
 20
548.8
 30
0.0
 11
381.582998
 21
548.8
 31
0.0
  1
%%c420
 13
181.582998
 23
437.489902
 33
0.0
 14
581.582998
 24
437.489902
 34
0.0
  3
LC-DIM-L-0140-02-02
  0
INSERT
  8
LC-005-005-----0
  6
CONTINUOUS
  5
71E
  2
*X56
 10
323.583005
 20
424.950517
 30
0.0
  0
INSERT
  8
LC-001-000-----0
  5
71F
  2
BLK9
 10
0.0
 20
0.0
 30
0.0
  0
INSERT
  8
LC-001-000-----0
  5
720
  2
BLK10
 10
0.0
 20
0.0
 30
0.0
  0
LINE
  8
LC-002-002-----0
  6
CONTINUOUS
  5
722
 10
493.583006
 20
434.646656
 30
0.0
 11
488.082998
 21
434.550668
 31
0.0
  0
LINE
  8
LC-002-002-----0
  6
CONTINUOUS
  5
723
 10
315.957083
 20
415.14307
 30
0.0
 11
333.783728
 21
415.14307
 31
0.0
  0
LINE
  8
LC-002-002-----0
  6
CONTINUOUS
  5
724
 10
354.788769
 20
216.64307
 30
0.0
 11
353.582998
 21
221.14307
 31
0.0
  0
ARC
  8
LC-002-002-----0
  6
CONTINUOUS
  5
725
 10
451.332998
 20
424.25306
 30
0.0
 40
10.0
 50
245.633915
 51
294.356221
  0
LINE
  8
LC-002-002-----0
  6
CONTINUOUS
  5
726
 10
458.951529
 20
423.616256
 30
0.0
 11
458.951529
 21
415.14307
 31
0.0
  0
LINE
  8
LC-002-002-----0
  6
CONTINUOUS
  5
727
 10
406.582998
 20
417.545332
 30
0.0
 11
356.582998
 21
417.544592
 31
0.0
  0
LINE
  8
LC-002-002-----0
  6
CONTINUOUS
  5
728
 10
458.951529
 20
415.14307
 30
0.0
 11
455.457083
 21
415.14307
 31
0.0
  0
LINE
  8
LC-002-002-----0
  6
CONTINUOUS
  5
729
 10
441.333112
 20
418.254451
 30
0.0
 11
433.568905
 21
418.254451
 31
0.0
  0
LINE
  8
LC-002-002-----0
  6
CONTINUOUS
  5
72A
 10
406.582998
 20
216.64307
 30
0.0
 11
356.582998
 21
216.64307
 31
0.0
  0
LINE
  8
LC-002-002-----0
  6
CONTINUOUS
  5
72B
 10
406.582988
 20
414.546659
 30
0.0
 11
406.582988
 21
414.546633
 31
0.0
  0
LINE
  8
LC-002-002-----0
  6
CONTINUOUS
  5
72C
 10
353.582998
 20
414.624608
 30
0.0
 11
353.582998
 21
221.14307
 31
0.0
  0
LINE
  8
LC-002-002-----0
  6
CONTINUOUS
  5
72D
 10
409.582998
 20
414.625268
 30
0.0
 11
409.582998
 21
221.14307
 31
0.0
  0
LINE
  8
LC-002-002-----0
  6
CONTINUOUS
  5
72E
 10
356.582998
 20
417.547078
 30
0.0
 11
356.582998
 21
216.64307
 31
0.0
  0
LINE
  8
LC-002-002-----0
  6
CONTINUOUS
  5
72F
 10
406.582998
 20
417.545332
 30
0.0
 11
406.582998
 21
216.64307
 31
0.0
  0
LINE
  8
LC-002-002-----0
  6
CONTINUOUS
  5
730
 10
408.377227
 20
216.64307
 30
0.0
 11
409.582998
 21
221.14307
 31
0.0
  0
LINE
  8
LC-002-002-----0
  6
CONTINUOUS
  5
731
 10
356.582998
 20
216.64307
 30
0.0
 11
354.788769
 21
216.64307
 31
0.0
  0
LINE
  8
LC-002-002-----0
  6
CONTINUOUS
  5
732
 10
406.582998
 20
216.64307
 30
0.0
 11
408.377227
 21
216.64307
 31
0.0
  0
LINE
  8
LC-002-002-----0
  6
CONTINUOUS
  5
733
 10
447.207345
 20
415.14378
 30
0.0
 11
429.382812
 21
415.143795
 31
0.0
  0
LINE
  8
LC-002-002-----0
  6
CONTINUOUS
  5
734
 10
304.214467
 20
415.14307
 30
0.0
 11
307.708913
 21
415.14307
 31
0.0
  0
LINE
  8
LC-002-002-----0
  6
CONTINUOUS
  5
735
 10
433.582998
 20
418.254451
 30
0.0
 11
406.582998
 21
417.545332
 31
0.0
  0
LINE
  8
LC-002-002-----0
  6
CONTINUOUS
  5
736
 10
429.382812
 20
415.143795
 30
0.0
 11
409.582998
 21
414.625268
 31
0.0
  0
LINE
  8
LC-002-002-----0
  6
CONTINUOUS
  5
737
 10
333.783728
 20
415.14307
 30
0.0
 11
353.582998
 21
414.624608
 31
0.0
  0
ARC
  8
LC-002-002-----0
  6
CONTINUOUS
  5
738
 10
311.832998
 20
424.25306
 30
0.0
 40
10.0
 50
245.643779
 51
294.356221
  0
LINE
  8
LC-002-002-----0
  6
CONTINUOUS
  5
739
 10
356.582998
 20
417.547078
 30
0.0
 11
329.504487
 21
418.256154
 31
0.0
  0
LINE
  8
LC-002-002-----0
  6
CONTINUOUS
  5
73A
 10
329.504487
 20
418.256154
 30
0.0
 11
433.647858
 21
418.256154
 31
0.0
  0
LINE
  8
LC-002-002-----0
  6
CONTINUOUS
  5
73B
 10
329.504487
 20
418.256154
 30
0.0
 11
321.832971
 21
418.254504
 31
0.0
  0
LINE
  8
LC-003-006-MLN-0
  6
DASHDOT
  5
73F
 10
381.582998
 20
444.950517
 30
0.0
 11
381.582998
 21
206.64307
 31
0.0
  0
LINE
  8
LC-002-002-----0
  6
CONTINUOUS
  5
740
 10
464.127529
 20
426.161255
 30
0.0
 11
464.127529
 21
429.724255
 31
0.0
  0
ARC
  8
LC-004-002-RND-0
  6
CONTINUOUS
  5
742
 10
269.582998
 20
431.646656
 30
0.0
 40
3.0
 50
90.000153
 51
180.0
  0
ARC
  8
LC-004-002-RND-0
  6
CONTINUOUS
  5
743
 10
493.582998
 20
431.646656
 30
0.0
 40
3.0
 50
360.0
 51
89.999847
  0
LINE
  8
LC-002-002-----0
  6
CONTINUOUS
  5
744
 10
457.300998
 20
429.724256
 30
0.0
 11
457.300998
 21
426.161256
 31
0.0
  0
LINE
  8
LC-002-002-----0
  6
CONTINUOUS
  5
745
 10
299.138467
 20
426.161256
 30
0.0
 11
299.138467
 21
429.724256
 31
0.0
  0
LINE
  8
LC-002-002-----0
  6
CONTINUOUS
  5
746
 10
307.600998
 20
430.233256
 30
0.0
 11
307.307127
 21
429.724256
 31
0.0
  0
LINE
  8
LC-002-002-----0
  6
CONTINUOUS
  5
747
 10
307.894869
 20
429.724256
 30
0.0
 11
307.600998
 21
430.233256
 31
0.0
  0
LINE
  8
LC-002-002-----0
  6
CONTINUOUS
  5
748
 10
321.800998
 20
434.302964
 30
0.0
 11
318.800998
 21
434.302964
 31
0.0
  0
LINE
  8
LC-002-002-----0
  6
CONTINUOUS
  5
749
 10
295.582998
 20
429.724256
 30
0.0
 11
299.138467
 21
429.724256
 31
0.0
  0
LINE
  8
LC-002-002-----0
  6
CONTINUOUS
  5
74A
 10
464.127529
 20
429.724256
 30
0.0
 11
457.300998
 21
429.724256
 31
0.0
  0
LINE
  8
LC-002-002-----0
  6
CONTINUOUS
  5
74B
 10
317.800998
 20
431.250553
 30
0.0
 11
317.800998
 21
429.723553
 31
0.0
  0
LINE
  8
LC-002-002-----0
  6
CONTINUOUS
  5
74C
 10
318.800998
 20
431.250686
 30
0.0
 11
318.800998
 21
434.305154
 31
0.0
  0
LINE
  8
LC-002-002-----0
  6
CONTINUOUS
  5
74D
 10
299.138467
 20
429.724256
 30
0.0
 11
305.864998
 21
429.724256
 31
0.0
  0
LINE
  8
LC-002-002-----0
  6
CONTINUOUS
  5
74E
 10
321.800998
 20
431.250553
 30
0.0
 11
321.832971
 21
431.250553
 31
0.0
  0
LINE
  8
LC-002-002-----0
  6
CONTINUOUS
  5
74F
 10
305.864998
 20
429.724256
 30
0.0
 11
305.864998
 21
426.161256
 31
0.0
  0
LINE
  8
LC-002-002-----0
  6
CONTINUOUS
  5
750
 10
488.082998
 20
434.550668
 30
0.0
 11
467.582998
 21
429.724256
 31
0.0
  0
LINE
  8
LC-002-002-----0
  6
CONTINUOUS
  5
751
 10
269.58299
 20
434.646656
 30
0.0
 11
275.082998
 21
434.550668
 31
0.0
  0
LINE
  8
LC-002-002-----0
  6
CONTINUOUS
  5
752
 10
496.582998
 20
431.646656
 30
0.0
 11
488.839094
 21
431.646656
 31
0.0
  0
LINE
  8
LC-002-002-----0
  6
CONTINUOUS
  5
753
 10
321.800998
 20
431.250553
 30
0.0
 11
321.800998
 21
434.304553
 31
0.0
  0
LINE
  8
LC-002-002-----0
  6
CONTINUOUS
  5
754
 10
317.800998
 20
429.723559
 30
0.0
 11
314.581273
 21
429.724631
 31
0.0
  0
LINE
  8
LC-002-002-----0
  6
CONTINUOUS
  5
755
 10
457.300998
 20
426.161256
 30
0.0
 11
464.127529
 21
426.161256
 31
0.0
  0
LINE
  8
LC-002-002-----0
  6
CONTINUOUS
  5
756
 10
305.864998
 20
426.161256
 30
0.0
 11
299.138467
 21
426.161256
 31
0.0
  0
LINE
  8
LC-002-002-----0
  6
CONTINUOUS
  5
757
 10
458.951529
 20
423.616256
 30
0.0
 11
466.077529
 21
423.616256
 31
0.0
  0
LINE
  8
LC-002-002-----0
  6
CONTINUOUS
  5
758
 10
466.077529
 20
423.616256
 30
0.0
 11
469.57172
 21
427.110448
 31
0.0
  0
LINE
  8
LC-002-002-----0
  6
CONTINUOUS
  5
759
 10
446.771127
 20
429.724256
 30
0.0
 11
447.064998
 21
430.233256
 31
0.0
  0
LINE
  8
LC-002-002-----0
  6
CONTINUOUS
  5
75A
 10
447.064998
 20
430.233256
 30
0.0
 11
447.358869
 21
429.724256
 31
0.0
  0
LINE
  8
LC-002-002-----0
  6
CONTINUOUS
  5
75B
 10
445.364998
 20
429.724256
 30
0.0
 11
448.584723
 21
429.724256
 31
0.0
  0
LINE
  8
LC-002-002-----0
  6
CONTINUOUS
  5
75C
 10
304.214467
 20
423.616256
 30
0.0
 11
297.088467
 21
423.616256
 31
0.0
  0
LINE
  8
LC-002-002-----0
  6
CONTINUOUS
  5
75D
 10
297.088467
 20
423.616256
 30
0.0
 11
293.594275
 21
427.110448
 31
0.0
  0
LINE
  8
LC-002-002-----0
  6
CONTINUOUS
  5
75E
 10
448.782998
 20
423.949531
 30
0.0
 11
448.782998
 21
415.980553
 31
0.0
  0
LINE
  8
LC-002-002-----0
  6
CONTINUOUS
  5
75F
 10
317.800998
 20
431.250553
 30
0.0
 11
317.800998
 21
429.723553
 31
0.0
  0
LINE
  8
LC-002-002-----0
  6
CONTINUOUS
  5
760
 10
266.582998
 20
431.646656
 30
0.0
 11
274.326902
 21
431.646656
 31
0.0
  0
LINE
  8
LC-002-002-----0
  6
CONTINUOUS
  5
761
 10
453.882998
 20
423.950448
 30
0.0
 11
453.882998
 21
415.980553
 31
0.0
  0
LINE
  8
LC-002-002-----0
  6
CONTINUOUS
  5
762
 10
453.882998
 20
415.980553
 30
0.0
 11
448.782998
 21
415.980553
 31
0.0
  0
LINE
  8
LC-002-002-----0
  6
CONTINUOUS
  5
763
 10
275.082998
 20
434.550668
 30
0.0
 11
295.582998
 21
429.724256
 31
0.0
  0
LINE
  8
LC-002-002-----0
  6
CONTINUOUS
  5
764
 10
309.282998
 20
415.980553
 30
0.0
 11
314.382998
 21
415.980553
 31
0.0
  0
LINE
  8
LC-002-002-----0
  6
CONTINUOUS
  5
765
 10
314.581274
 20
431.250553
 30
0.0
 11
318.800998
 21
431.250553
 31
0.0
  0
LINE
  8
LC-002-002-----0
  6
CONTINUOUS
  5
766
 10
321.832971
 20
431.250553
 30
0.0
 11
321.832971
 21
418.254504
 31
0.0
  0
LINE
  8
LC-002-002-----0
  6
CONTINUOUS
  5
767
 10
448.584722
 20
431.249855
 30
0.0
 11
441.333112
 21
431.251262
 31
0.0
  0
LINE
  8
LC-002-002-----0
  6
CONTINUOUS
  5
768
 10
464.127529
 20
429.724256
 30
0.0
 11
467.582998
 21
429.724256
 31
0.0
  0
LINE
  8
LC-002-002-----0
  6
CONTINUOUS
  5
769
 10
441.333112
 20
434.249863
 30
0.0
 11
441.333112
 21
418.254451
 31
0.0
  0
LINE
  8
LC-002-002-----0
  6
CONTINUOUS
  5
76A
 10
304.214467
 20
423.616256
 30
0.0
 11
304.214467
 21
415.25307
 31
0.0
  0
LINE
  8
LC-002-002-----0
  6
CONTINUOUS
  5
76B
 10
316.100998
 20
430.233256
 30
0.0
 11
315.807107
 21
429.724223
 31
0.0
  0
LINE
  8
LC-002-002-----0
  6
CONTINUOUS
  5
76C
 10
488.082998
 20
434.646656
 30
0.0
 11
493.582998
 21
434.646656
 31
0.0
  0
LINE
  8
LC-002-002-----0
  6
CONTINUOUS
  5
76D
 10
316.395001
 20
429.724027
 30
0.0
 11
316.100998
 21
430.233256
 31
0.0
  0
LINE
  8
LC-002-002-----0
  6
CONTINUOUS
  5
76E
 10
317.800998
 20
431.250553
 30
0.0
 11
317.800998
 21
429.723553
 31
0.0
  0
LINE
  8
LC-002-002-----0
  6
CONTINUOUS
  5
76F
 10
314.382998
 20
423.949531
 30
0.0
 11
314.382998
 21
415.980553
 31
0.0
  0
LINE
  8
LC-002-002-----0
  6
CONTINUOUS
  5
770
 10
309.282998
 20
423.950448
 30
0.0
 11
309.282998
 21
415.980553
 31
0.0
  0
LINE
  8
LC-002-002-----0
  6
CONTINUOUS
  5
771
 10
445.364998
 20
431.250553
 30
0.0
 11
445.364998
 21
429.724256
 31
0.0
  0
LINE
  8
LC-002-002-----0
  6
CONTINUOUS
  5
772
 10
307.600998
 20
430.233256
 30
0.0
 11
308.582522
 21
430.233256
 31
0.0
  0
LINE
  8
LC-002-002-----0
  6
CONTINUOUS
  5
773
 10
455.564998
 20
430.233256
 30
0.0
 11
454.583474
 21
430.233256
 31
0.0
  0
LINE
  8
LC-002-002-----0
  6
CONTINUOUS
  5
774
 10
455.271127
 20
429.724256
 30
0.0
 11
455.564998
 21
430.233256
 31
0.0
  0
LINE
  8
LC-002-002-----0
  6
CONTINUOUS
  5
775
 10
455.564998
 20
430.233256
 30
0.0
 11
455.858869
 21
429.724256
 31
0.0
  0
LINE
  8
LC-002-002-----0
  6
CONTINUOUS
  5
776
 10
274.326902
 20
431.646656
 30
0.0
 11
293.594275
 21
427.110448
 31
0.0
  0
LINE
  8
LC-002-002-----0
  6
CONTINUOUS
  5
777
 10
488.839094
 20
431.646656
 30
0.0
 11
469.57172
 21
427.110448
 31
0.0
  0
LINE
  8
LC-002-002-----0
  6
CONTINUOUS
  5
778
 10
351.582998
 20
226.64307
 30
0.0
 11
345.362876
 21
226.64307
 31
0.0
  0
LINE
  8
LC-002-002-----0
  6
CONTINUOUS
  5
779
 10
351.686954
 20
224.227252
 30
0.0
 11
345.252708
 21
225.594893
 31
0.0
  0
LINE
  8
LC-002-002-----0
  6
CONTINUOUS
  5
77A
 10
352.082998
 20
395.738178
 30
0.0
 11
352.082998
 21
386.857356
 31
0.0
  0
ARC
  8
LC-002-002-----0
  6
CONTINUOUS
  5
77B
 10
345.362876
 20
226.113192
 30
0.0
 40
0.529878
 50
90.0
 51
258.0
  0
LINE
  8
LC-002-002-----0
  6
CONTINUOUS
  5
77C
 10
352.082998
 20
223.738178
 30
0.0
 11
352.082998
 21
216.64307
 31
0.0
  0
LINE
  8
LC-002-002-----0
  6
CONTINUOUS
  5
77D
 10
354.788769
 20
216.64307
 30
0.0
 11
352.082998
 21
216.64307
 31
0.0
  0
LINE
  8
LC-002-002-----0
  6
CONTINUOUS
  5
77E
 10
351.582998
 20
238.928784
 30
0.0
 11
345.362876
 21
238.928784
 31
0.0
  0
LINE
  8
LC-002-002-----0
  6
CONTINUOUS
  5
77F
 10
351.582998
 20
251.214498
 30
0.0
 11
345.362876
 21
251.214498
 31
0.0
  0
LINE
  8
LC-002-002-----0
  6
CONTINUOUS
  5
780
 10
351.582998
 20
263.500213
 30
0.0
 11
345.362876
 21
263.500213
 31
0.0
  0
LINE
  8
LC-002-002-----0
  6
CONTINUOUS
  5
781
 10
351.582998
 20
275.785927
 30
0.0
 11
345.362876
 21
275.785927
 31
0.0
  0
LINE
  8
LC-002-002-----0
  6
CONTINUOUS
  5
782
 10
351.582998
 20
288.071641
 30
0.0
 11
345.362876
 21
288.071641
 31
0.0
  0
LINE
  8
LC-002-002-----0
  6
CONTINUOUS
  5
783
 10
351.582998
 20
300.357356
 30
0.0
 11
345.362876
 21
300.357356
 31
0.0
  0
LINE
  8
LC-002-002-----0
  6
CONTINUOUS
  5
784
 10
351.582998
 20
312.64307
 30
0.0
 11
345.362876
 21
312.64307
 31
0.0
  0
LINE
  8
LC-002-002-----0
  6
CONTINUOUS
  5
785
 10
351.582998
 20
324.928784
 30
0.0
 11
345.362876
 21
324.928784
 31
0.0
  0
LINE
  8
LC-002-002-----0
  6
CONTINUOUS
  5
786
 10
351.582998
 20
337.214498
 30
0.0
 11
345.362876
 21
337.214498
 31
0.0
  0
LINE
  8
LC-002-002-----0
  6
CONTINUOUS
  5
787
 10
351.582998
 20
349.500213
 30
0.0
 11
345.362876
 21
349.500213
 31
0.0
  0
LINE
  8
LC-002-002-----0
  6
CONTINUOUS
  5
788
 10
351.582998
 20
361.785927
 30
0.0
 11
345.362876
 21
361.785927
 31
0.0
  0
LINE
  8
LC-002-002-----0
  6
CONTINUOUS
  5
789
 10
351.582998
 20
374.071641
 30
0.0
 11
345.362876
 21
374.071641
 31
0.0
  0
LINE
  8
LC-002-002-----0
  6
CONTINUOUS
  5
78A
 10
351.582998
 20
386.357356
 30
0.0
 11
345.362876
 21
386.357356
 31
0.0
  0
LINE
  8
LC-002-002-----0
  6
CONTINUOUS
  5
78B
 10
353.582998
 20
398.64307
 30
0.0
 11
345.362876
 21
398.64307
 31
0.0
  0
LINE
  8
LC-002-002-----0
  6
CONTINUOUS
  5
78C
 10
351.686954
 20
236.512966
 30
0.0
 11
345.252708
 21
237.880607
 31
0.0
  0
LINE
  8
LC-002-002-----0
  6
CONTINUOUS
  5
78D
 10
351.686954
 20
248.79868
 30
0.0
 11
345.252708
 21
250.166321
 31
0.0
  0
LINE
  8
LC-002-002-----0
  6
CONTINUOUS
  5
78E
 10
351.686954
 20
261.084395
 30
0.0
 11
345.252708
 21
262.452036
 31
0.0
  0
LINE
  8
LC-002-002-----0
  6
CONTINUOUS
  5
78F
 10
351.686954
 20
273.370109
 30
0.0
 11
345.252708
 21
274.73775
 31
0.0
  0
LINE
  8
LC-002-002-----0
  6
CONTINUOUS
  5
790
 10
351.686954
 20
285.655823
 30
0.0
 11
345.252708
 21
287.023464
 31
0.0
  0
LINE
  8
LC-002-002-----0
  6
CONTINUOUS
  5
791
 10
351.686954
 20
297.941537
 30
0.0
 11
345.252708
 21
299.309179
 31
0.0
  0
LINE
  8
LC-002-002-----0
  6
CONTINUOUS
  5
792
 10
351.686954
 20
310.227252
 30
0.0
 11
345.252708
 21
311.594893
 31
0.0
  0
LINE
  8
LC-002-002-----0
  6
CONTINUOUS
  5
793
 10
351.686954
 20
322.512966
 30
0.0
 11
345.252708
 21
323.880607
 31
0.0
  0
LINE
  8
LC-002-002-----0
  6
CONTINUOUS
  5
794
 10
351.686954
 20
334.79868
 30
0.0
 11
345.252708
 21
336.166321
 31
0.0
  0
LINE
  8
LC-002-002-----0
  6
CONTINUOUS
  5
795
 10
351.686954
 20
347.084395
 30
0.0
 11
345.252708
 21
348.452036
 31
0.0
  0
LINE
  8
LC-002-002-----0
  6
CONTINUOUS
  5
796
 10
351.686954
 20
359.370109
 30
0.0
 11
345.252708
 21
360.73775
 31
0.0
  0
LINE
  8
LC-002-002-----0
  6
CONTINUOUS
  5
797
 10
351.686954
 20
371.655823
 30
0.0
 11
345.252708
 21
373.023464
 31
0.0
  0
LINE
  8
LC-002-002-----0
  6
CONTINUOUS
  5
798
 10
351.686954
 20
383.941537
 30
0.0
 11
345.252708
 21
385.309179
 31
0.0
  0
LINE
  8
LC-002-002-----0
  6
CONTINUOUS
  5
799
 10
351.686954
 20
396.227252
 30
0.0
 11
345.252708
 21
397.594893
 31
0.0
  0
ARC
  8
LC-002-002-----0
  6
CONTINUOUS
  5
79A
 10
345.362876
 20
238.398906
 30
0.0
 40
0.529878
 50
90.0
 51
258.0
  0
ARC
  8
LC-002-002-----0
  6
CONTINUOUS
  5
79B
 10
345.362876
 20
250.68462
 30
0.0
 40
0.529878
 50
90.0
 51
258.0
  0
ARC
  8
LC-002-002-----0
  6
CONTINUOUS
  5
79C
 10
345.362876
 20
262.970335
 30
0.0
 40
0.529878
 50
90.0
 51
258.0
  0
ARC
  8
LC-002-002-----0
  6
CONTINUOUS
  5
79D
 10
345.362876
 20
275.256049
 30
0.0
 40
0.529878
 50
90.0
 51
258.0
  0
ARC
  8
LC-002-002-----0
  6
CONTINUOUS
  5
79E
 10
345.362876
 20
287.541763
 30
0.0
 40
0.529878
 50
90.0
 51
258.0
  0
ARC
  8
LC-002-002-----0
  6
CONTINUOUS
  5
79F
 10
345.362876
 20
299.827478
 30
0.0
 40
0.529878
 50
90.0
 51
258.0
  0
ARC
  8
LC-002-002-----0
  6
CONTINUOUS
  5
7A0
 10
345.362876
 20
312.113192
 30
0.0
 40
0.529878
 50
90.0
 51
258.0
  0
ARC
  8
LC-002-002-----0
  6
CONTINUOUS
  5
7A1
 10
345.362876
 20
324.398906
 30
0.0
 40
0.529878
 50
90.0
 51
258.0
  0
ARC
  8
LC-002-002-----0
  6
CONTINUOUS
  5
7A2
 10
345.362876
 20
336.68462
 30
0.0
 40
0.529878
 50
90.0
 51
258.0
  0
ARC
  8
LC-002-002-----0
  6
CONTINUOUS
  5
7A3
 10
345.362876
 20
348.970335
 30
0.0
 40
0.529878
 50
90.0
 51
258.0
  0
ARC
  8
LC-002-002-----0
  6
CONTINUOUS
  5
7A4
 10
345.362876
 20
361.256049
 30
0.0
 40
0.529878
 50
90.0
 51
258.0
  0
ARC
  8
LC-002-002-----0
  6
CONTINUOUS
  5
7A5
 10
345.362876
 20
373.541763
 30
0.0
 40
0.529878
 50
90.0
 51
258.0
  0
ARC
  8
LC-002-002-----0
  6
CONTINUOUS
  5
7A6
 10
345.362876
 20
385.827478
 30
0.0
 40
0.529878
 50
90.0
 51
258.0
  0
ARC
  8
LC-002-002-----0
  6
CONTINUOUS
  5
7A7
 10
345.362876
 20
398.113192
 30
0.0
 40
0.529878
 50
90.0
 51
258.0
  0
LINE
  8
LC-002-002-----0
  6
CONTINUOUS
  5
7A8
 10
352.082998
 20
383.452464
 30
0.0
 11
352.082998
 21
374.571641
 31
0.0
  0
LINE
  8
LC-002-002-----0
  6
CONTINUOUS
  5
7A9
 10
352.082998
 20
371.166749
 30
0.0
 11
352.082998
 21
362.285927
 31
0.0
  0
LINE
  8
LC-002-002-----0
  6
CONTINUOUS
  5
7AA
 10
352.082998
 20
358.881035
 30
0.0
 11
352.082998
 21
350.000213
 31
0.0
  0
LINE
  8
LC-002-002-----0
  6
CONTINUOUS
  5
7AB
 10
352.082998
 20
346.595321
 30
0.0
 11
352.082998
 21
337.714498
 31
0.0
  0
LINE
  8
LC-002-002-----0
  6
CONTINUOUS
  5
7AC
 10
352.082998
 20
334.309606
 30
0.0
 11
352.082998
 21
325.428784
 31
0.0
  0
LINE
  8
LC-002-002-----0
  6
CONTINUOUS
  5
7AD
 10
352.082998
 20
322.023892
 30
0.0
 11
352.082998
 21
313.14307
 31
0.0
  0
LINE
  8
LC-002-002-----0
  6
CONTINUOUS
  5
7AE
 10
352.082998
 20
309.738178
 30
0.0
 11
352.082998
 21
300.857356
 31
0.0
  0
LINE
  8
LC-002-002-----0
  6
CONTINUOUS
  5
7AF
 10
352.082998
 20
297.452464
 30
0.0
 11
352.082998
 21
288.571641
 31
0.0
  0
LINE
  8
LC-002-002-----0
  6
CONTINUOUS
  5
7B0
 10
352.082998
 20
285.166749
 30
0.0
 11
352.082998
 21
276.285927
 31
0.0
  0
LINE
  8
LC-002-002-----0
  6
CONTINUOUS
  5
7B1
 10
352.082998
 20
272.881035
 30
0.0
 11
352.082998
 21
264.000213
 31
0.0
  0
LINE
  8
LC-002-002-----0
  6
CONTINUOUS
  5
7B2
 10
352.082998
 20
260.595321
 30
0.0
 11
352.082998
 21
251.714498
 31
0.0
  0
LINE
  8
LC-002-002-----0
  6
CONTINUOUS
  5
7B3
 10
352.082998
 20
248.309606
 30
0.0
 11
352.082998
 21
239.428784
 31
0.0
  0
LINE
  8
LC-002-002-----0
  6
CONTINUOUS
  5
7B4
 10
352.082998
 20
236.023892
 30
0.0
 11
352.082998
 21
227.14307
 31
0.0
  0
ARC
  8
LC-004-002-RND-0
  6
CONTINUOUS
  5
7B5
 10
351.582998
 20
395.738178
 30
0.0
 40
0.5
 50
360.0
 51
78.0
  0
ARC
  8
LC-004-002-RND-0
  6
CONTINUOUS
  5
7B6
 10
351.582998
 20
386.857356
 30
0.0
 40
0.5
 50
270.0
 51
360.0
  0
ARC
  8
LC-004-002-RND-0
  6
CONTINUOUS
  5
7B7
 10
351.582998
 20
383.452464
 30
0.0
 40
0.5
 50
360.0
 51
78.0
  0
ARC
  8
LC-004-002-RND-0
  6
CONTINUOUS
  5
7B8
 10
351.582998
 20
374.571641
 30
0.0
 40
0.5
 50
270.0
 51
360.0
  0
ARC
  8
LC-004-002-RND-0
  6
CONTINUOUS
  5
7B9
 10
351.582998
 20
371.166749
 30
0.0
 40
0.5
 50
360.0
 51
78.0
  0
ARC
  8
LC-004-002-RND-0
  6
CONTINUOUS
  5
7BA
 10
351.582998
 20
362.285927
 30
0.0
 40
0.5
 50
270.0
 51
360.0
  0
ARC
  8
LC-004-002-RND-0
  6
CONTINUOUS
  5
7BB
 10
351.582998
 20
358.881035
 30
0.0
 40
0.5
 50
360.0
 51
78.0
  0
ARC
  8
LC-004-002-RND-0
  6
CONTINUOUS
  5
7BC
 10
351.582998
 20
350.000213
 30
0.0
 40
0.5
 50
270.0
 51
360.0
  0
ARC
  8
LC-004-002-RND-0
  6
CONTINUOUS
  5
7BD
 10
351.582998
 20
346.595321
 30
0.0
 40
0.5
 50
360.0
 51
78.0
  0
ARC
  8
LC-004-002-RND-0
  6
CONTINUOUS
  5
7BE
 10
351.582998
 20
337.714498
 30
0.0
 40
0.5
 50
270.0
 51
360.0
  0
ARC
  8
LC-004-002-RND-0
  6
CONTINUOUS
  5
7BF
 10
351.582998
 20
334.309606
 30
0.0
 40
0.5
 50
360.0
 51
78.0
  0
ARC
  8
LC-004-002-RND-0
  6
CONTINUOUS
  5
7C0
 10
351.582998
 20
325.428784
 30
0.0
 40
0.5
 50
270.0
 51
360.0
  0
ARC
  8
LC-004-002-RND-0
  6
CONTINUOUS
  5
7C1
 10
351.582998
 20
322.023892
 30
0.0
 40
0.5
 50
360.0
 51
78.0
  0
ARC
  8
LC-004-002-RND-0
  6
CONTINUOUS
  5
7C2
 10
351.582998
 20
313.14307
 30
0.0
 40
0.5
 50
270.0
 51
360.0
  0
ARC
  8
LC-004-002-RND-0
  6
CONTINUOUS
  5
7C3
 10
351.582998
 20
309.738178
 30
0.0
 40
0.5
 50
360.0
 51
78.0
  0
ARC
  8
LC-004-002-RND-0
  6
CONTINUOUS
  5
7C4
 10
351.582998
 20
300.857356
 30
0.0
 40
0.5
 50
270.0
 51
360.0
  0
ARC
  8
LC-004-002-RND-0
  6
CONTINUOUS
  5
7C5
 10
351.582998
 20
297.452464
 30
0.0
 40
0.5
 50
360.0
 51
78.0
  0
ARC
  8
LC-004-002-RND-0
  6
CONTINUOUS
  5
7C6
 10
351.582998
 20
288.571641
 30
0.0
 40
0.5
 50
270.0
 51
360.0
  0
ARC
  8
LC-004-002-RND-0
  6
CONTINUOUS
  5
7C7
 10
351.582998
 20
285.166749
 30
0.0
 40
0.5
 50
360.0
 51
78.0
  0
ARC
  8
LC-004-002-RND-0
  6
CONTINUOUS
  5
7C8
 10
351.582998
 20
276.285927
 30
0.0
 40
0.5
 50
270.0
 51
360.0
  0
ARC
  8
LC-004-002-RND-0
  6
CONTINUOUS
  5
7C9
 10
351.582998
 20
272.881035
 30
0.0
 40
0.5
 50
360.0
 51
78.0
  0
ARC
  8
LC-004-002-RND-0
  6
CONTINUOUS
  5
7CA
 10
351.582998
 20
264.000213
 30
0.0
 40
0.5
 50
270.0
 51
360.0
  0
ARC
  8
LC-004-002-RND-0
  6
CONTINUOUS
  5
7CB
 10
351.582998
 20
260.595321
 30
0.0
 40
0.5
 50
360.0
 51
78.0
  0
ARC
  8
LC-004-002-RND-0
  6
CONTINUOUS
  5
7CC
 10
351.582998
 20
251.714498
 30
0.0
 40
0.5
 50
270.0
 51
360.0
  0
ARC
  8
LC-004-002-RND-0
  6
CONTINUOUS
  5
7CD
 10
351.582998
 20
248.309606
 30
0.0
 40
0.5
 50
360.0
 51
78.0
  0
ARC
  8
LC-004-002-RND-0
  6
CONTINUOUS
  5
7CE
 10
351.582998
 20
239.428784
 30
0.0
 40
0.5
 50
270.0
 51
360.0
  0
ARC
  8
LC-004-002-RND-0
  6
CONTINUOUS
  5
7CF
 10
351.582998
 20
236.023892
 30
0.0
 40
0.5
 50
360.0
 51
78.0
  0
ARC
  8
LC-004-002-RND-0
  6
CONTINUOUS
  5
7D0
 10
351.582998
 20
227.14307
 30
0.0
 40
0.5
 50
270.0
 51
360.0
  0
ARC
  8
LC-004-002-RND-0
  6
CONTINUOUS
  5
7D1
 10
351.582998
 20
223.738178
 30
0.0
 40
0.5
 50
360.0
 51
78.0
  0
LINE
  8
LC-002-002-----0
  6
CONTINUOUS
  5
7D2
 10
353.582998
 20
398.64307
 30
0.0
 11
353.582998
 21
221.14307
 31
0.0
  0
LINE
  8
LC-002-002-----0
  6
CONTINUOUS
  5
7D3
 10
354.788769
 20
216.64307
 30
0.0
 11
353.582998
 21
221.14307
 31
0.0
  0
LINE
  8
LC-002-002-----0
  6
CONTINUOUS
  5
7D4
 10
411.582998
 20
226.64307
 30
0.0
 11
417.80312
 21
226.64307
 31
0.0
  0
LINE
  8
LC-002-002-----0
  6
CONTINUOUS
  5
7D5
 10
411.479042
 20
224.227252
 30
0.0
 11
417.913288
 21
225.594893
 31
0.0
  0
LINE
  8
LC-002-002-----0
  6
CONTINUOUS
  5
7D6
 10
411.082998
 20
395.738178
 30
0.0
 11
411.082998
 21
386.857356
 31
0.0
  0
ARC
  8
LC-002-002-----0
  6
CONTINUOUS
  5
7D7
 10
417.80312
 20
226.113192
 30
0.0
 40
0.529878
 50
282.0
 51
90.0
  0
LINE
  8
LC-002-002-----0
  6
CONTINUOUS
  5
7D8
 10
411.082998
 20
223.738178
 30
0.0
 11
411.082998
 21
216.64307
 31
0.0
  0
LINE
  8
LC-002-002-----0
  6
CONTINUOUS
  5
7D9
 10
408.377227
 20
216.64307
 30
0.0
 11
411.082998
 21
216.64307
 31
0.0
  0
LINE
  8
LC-002-002-----0
  6
CONTINUOUS
  5
7DA
 10
411.582998
 20
238.928784
 30
0.0
 11
417.80312
 21
238.928784
 31
0.0
  0
LINE
  8
LC-002-002-----0
  6
CONTINUOUS
  5
7DB
 10
411.582998
 20
251.214498
 30
0.0
 11
417.80312
 21
251.214498
 31
0.0
  0
LINE
  8
LC-002-002-----0
  6
CONTINUOUS
  5
7DC
 10
411.582998
 20
263.500213
 30
0.0
 11
417.80312
 21
263.500213
 31
0.0
  0
LINE
  8
LC-002-002-----0
  6
CONTINUOUS
  5
7DD
 10
411.582998
 20
275.785927
 30
0.0
 11
417.80312
 21
275.785927
 31
0.0
  0
LINE
  8
LC-002-002-----0
  6
CONTINUOUS
  5
7DE
 10
411.582998
 20
288.071641
 30
0.0
 11
417.80312
 21
288.071641
 31
0.0
  0
LINE
  8
LC-002-002-----0
  6
CONTINUOUS
  5
7DF
 10
411.582998
 20
300.357356
 30
0.0
 11
417.80312
 21
300.357356
 31
0.0
  0
LINE
  8
LC-002-002-----0
  6
CONTINUOUS
  5
7E0
 10
411.582998
 20
312.64307
 30
0.0
 11
417.80312
 21
312.64307
 31
0.0
  0
LINE
  8
LC-002-002-----0
  6
CONTINUOUS
  5
7E1
 10
411.582998
 20
324.928784
 30
0.0
 11
417.80312
 21
324.928784
 31
0.0
  0
LINE
  8
LC-002-002-----0
  6
CONTINUOUS
  5
7E2
 10
411.582998
 20
337.214498
 30
0.0
 11
417.80312
 21
337.214498
 31
0.0
  0
LINE
  8
LC-002-002-----0
  6
CONTINUOUS
  5
7E3
 10
411.582998
 20
349.500213
 30
0.0
 11
417.80312
 21
349.500213
 31
0.0
  0
LINE
  8
LC-002-002-----0
  6
CONTINUOUS
  5
7E4
 10
411.582998
 20
361.785927
 30
0.0
 11
417.80312
 21
361.785927
 31
0.0
  0
LINE
  8
LC-002-002-----0
  6
CONTINUOUS
  5
7E5
 10
411.582998
 20
374.071641
 30
0.0
 11
417.80312
 21
374.071641
 31
0.0
  0
LINE
  8
LC-002-002-----0
  6
CONTINUOUS
  5
7E6
 10
411.582998
 20
386.357356
 30
0.0
 11
417.80312
 21
386.357356
 31
0.0
  0
LINE
  8
LC-002-002-----0
  6
CONTINUOUS
  5
7E7
 10
409.582998
 20
398.64307
 30
0.0
 11
417.80312
 21
398.64307
 31
0.0
  0
LINE
  8
LC-002-002-----0
  6
CONTINUOUS
  5
7E8
 10
411.479042
 20
236.512966
 30
0.0
 11
417.913288
 21
237.880607
 31
0.0
  0
LINE
  8
LC-002-002-----0
  6
CONTINUOUS
  5
7E9
 10
411.479042
 20
248.79868
 30
0.0
 11
417.913288
 21
250.166321
 31
0.0
  0
LINE
  8
LC-002-002-----0
  6
CONTINUOUS
  5
7EA
 10
411.479042
 20
261.084395
 30
0.0
 11
417.913288
 21
262.452036
 31
0.0
  0
LINE
  8
LC-002-002-----0
  6
CONTINUOUS
  5
7EB
 10
411.479042
 20
273.370109
 30
0.0
 11
417.913288
 21
274.73775
 31
0.0
  0
LINE
  8
LC-002-002-----0
  6
CONTINUOUS
  5
7EC
 10
411.479042
 20
285.655823
 30
0.0
 11
417.913288
 21
287.023464
 31
0.0
  0
LINE
  8
LC-002-002-----0
  6
CONTINUOUS
  5
7ED
 10
411.479042
 20
297.941537
 30
0.0
 11
417.913288
 21
299.309179
 31
0.0
  0
LINE
  8
LC-002-002-----0
  6
CONTINUOUS
  5
7EE
 10
411.479042
 20
310.227252
 30
0.0
 11
417.913288
 21
311.594893
 31
0.0
  0
LINE
  8
LC-002-002-----0
  6
CONTINUOUS
  5
7EF
 10
411.479042
 20
322.512966
 30
0.0
 11
417.913288
 21
323.880607
 31
0.0
  0
LINE
  8
LC-002-002-----0
  6
CONTINUOUS
  5
7F0
 10
411.479042
 20
334.79868
 30
0.0
 11
417.913288
 21
336.166321
 31
0.0
  0
LINE
  8
LC-002-002-----0
  6
CONTINUOUS
  5
7F1
 10
411.479042
 20
347.084395
 30
0.0
 11
417.913288
 21
348.452036
 31
0.0
  0
LINE
  8
LC-002-002-----0
  6
CONTINUOUS
  5
7F2
 10
411.479042
 20
359.370109
 30
0.0
 11
417.913288
 21
360.73775
 31
0.0
  0
LINE
  8
LC-002-002-----0
  6
CONTINUOUS
  5
7F3
 10
411.479042
 20
371.655823
 30
0.0
 11
417.913288
 21
373.023464
 31
0.0
  0
LINE
  8
LC-002-002-----0
  6
CONTINUOUS
  5
7F4
 10
411.479042
 20
383.941537
 30
0.0
 11
417.913288
 21
385.309179
 31
0.0
  0
LINE
  8
LC-002-002-----0
  6
CONTINUOUS
  5
7F5
 10
411.479042
 20
396.227252
 30
0.0
 11
417.913288
 21
397.594893
 31
0.0
  0
ARC
  8
LC-002-002-----0
  6
CONTINUOUS
  5
7F6
 10
417.80312
 20
238.398906
 30
0.0
 40
0.529878
 50
282.0
 51
90.0
  0
ARC
  8
LC-002-002-----0
  6
CONTINUOUS
  5
7F7
 10
417.80312
 20
250.68462
 30
0.0
 40
0.529878
 50
282.0
 51
90.0
  0
ARC
  8
LC-002-002-----0
  6
CONTINUOUS
  5
7F8
 10
417.80312
 20
262.970335
 30
0.0
 40
0.529878
 50
282.0
 51
90.0
  0
ARC
  8
LC-002-002-----0
  6
CONTINUOUS
  5
7F9
 10
417.80312
 20
275.256049
 30
0.0
 40
0.529878
 50
282.0
 51
90.0
  0
ARC
  8
LC-002-002-----0
  6
CONTINUOUS
  5
7FA
 10
417.80312
 20
287.541763
 30
0.0
 40
0.529878
 50
282.0
 51
90.0
  0
ARC
  8
LC-002-002-----0
  6
CONTINUOUS
  5
7FB
 10
417.80312
 20
299.827478
 30
0.0
 40
0.529878
 50
282.0
 51
90.0
  0
ARC
  8
LC-002-002-----0
  6
CONTINUOUS
  5
7FC
 10
417.80312
 20
312.113192
 30
0.0
 40
0.529878
 50
282.0
 51
90.0
  0
ARC
  8
LC-002-002-----0
  6
CONTINUOUS
  5
7FD
 10
417.80312
 20
324.398906
 30
0.0
 40
0.529878
 50
282.0
 51
90.0
  0
ARC
  8
LC-002-002-----0
  6
CONTINUOUS
  5
7FE
 10
417.80312
 20
336.68462
 30
0.0
 40
0.529878
 50
282.0
 51
90.0
  0
ARC
  8
LC-002-002-----0
  6
CONTINUOUS
  5
7FF
 10
417.80312
 20
348.970335
 30
0.0
 40
0.529878
 50
282.0
 51
90.0
  0
ARC
  8
LC-002-002-----0
  6
CONTINUOUS
  5
800
 10
417.80312
 20
361.256049
 30
0.0
 40
0.529878
 50
282.0
 51
90.0
  0
ARC
  8
LC-002-002-----0
  6
CONTINUOUS
  5
801
 10
417.80312
 20
373.541763
 30
0.0
 40
0.529878
 50
282.0
 51
90.0
  0
ARC
  8
LC-002-002-----0
  6
CONTINUOUS
  5
802
 10
417.80312
 20
385.827478
 30
0.0
 40
0.529878
 50
282.0
 51
90.0
  0
ARC
  8
LC-002-002-----0
  6
CONTINUOUS
  5
803
 10
417.80312
 20
398.113192
 30
0.0
 40
0.529878
 50
282.0
 51
90.0
  0
LINE
  8
LC-002-002-----0
  6
CONTINUOUS
  5
804
 10
411.082998
 20
383.452464
 30
0.0
 11
411.082998
 21
374.571641
 31
0.0
  0
LINE
  8
LC-002-002-----0
  6
CONTINUOUS
  5
805
 10
411.082998
 20
371.166749
 30
0.0
 11
411.082998
 21
362.285927
 31
0.0
  0
LINE
  8
LC-002-002-----0
  6
CONTINUOUS
  5
806
 10
411.082998
 20
358.881035
 30
0.0
 11
411.082998
 21
350.000213
 31
0.0
  0
LINE
  8
LC-002-002-----0
  6
CONTINUOUS
  5
807
 10
411.082998
 20
346.595321
 30
0.0
 11
411.082998
 21
337.714498
 31
0.0
  0
LINE
  8
LC-002-002-----0
  6
CONTINUOUS
  5
808
 10
411.082998
 20
334.309606
 30
0.0
 11
411.082998
 21
325.428784
 31
0.0
  0
LINE
  8
LC-002-002-----0
  6
CONTINUOUS
  5
809
 10
411.082998
 20
322.023892
 30
0.0
 11
411.082998
 21
313.14307
 31
0.0
  0
LINE
  8
LC-002-002-----0
  6
CONTINUOUS
  5
80A
 10
411.082998
 20
309.738178
 30
0.0
 11
411.082998
 21
300.857356
 31
0.0
  0
LINE
  8
LC-002-002-----0
  6
CONTINUOUS
  5
80B
 10
411.082998
 20
297.452464
 30
0.0
 11
411.082998
 21
288.571641
 31
0.0
  0
LINE
  8
LC-002-002-----0
  6
CONTINUOUS
  5
80C
 10
411.082998
 20
285.166749
 30
0.0
 11
411.082998
 21
276.285927
 31
0.0
  0
LINE
  8
LC-002-002-----0
  6
CONTINUOUS
  5
80D
 10
411.082998
 20
272.881035
 30
0.0
 11
411.082998
 21
264.000213
 31
0.0
  0
LINE
  8
LC-002-002-----0
  6
CONTINUOUS
  5
80E
 10
411.082998
 20
260.595321
 30
0.0
 11
411.082998
 21
251.714498
 31
0.0
  0
LINE
  8
LC-002-002-----0
  6
CONTINUOUS
  5
80F
 10
411.082998
 20
248.309606
 30
0.0
 11
411.082998
 21
239.428784
 31
0.0
  0
LINE
  8
LC-002-002-----0
  6
CONTINUOUS
  5
810
 10
411.082998
 20
236.023892
 30
0.0
 11
411.082998
 21
227.14307
 31
0.0
  0
ARC
  8
LC-004-002-RND-0
  6
CONTINUOUS
  5
811
 10
411.582998
 20
395.738178
 30
0.0
 40
0.5
 50
102.0
 51
180.0
  0
ARC
  8
LC-004-002-RND-0
  6
CONTINUOUS
  5
812
 10
411.582998
 20
386.857356
 30
0.0
 40
0.5
 50
180.0
 51
270.0
  0
ARC
  8
LC-004-002-RND-0
  6
CONTINUOUS
  5
813
 10
411.582998
 20
383.452464
 30
0.0
 40
0.5
 50
102.0
 51
180.0
  0
ARC
  8
LC-004-002-RND-0
  6
CONTINUOUS
  5
814
 10
411.582998
 20
374.571641
 30
0.0
 40
0.5
 50
180.0
 51
270.0
  0
ARC
  8
LC-004-002-RND-0
  6
CONTINUOUS
  5
815
 10
411.582998
 20
371.166749
 30
0.0
 40
0.5
 50
102.0
 51
180.0
  0
ARC
  8
LC-004-002-RND-0
  6
CONTINUOUS
  5
816
 10
411.582998
 20
362.285927
 30
0.0
 40
0.5
 50
180.0
 51
270.0
  0
ARC
  8
LC-004-002-RND-0
  6
CONTINUOUS
  5
817
 10
411.582998
 20
358.881035
 30
0.0
 40
0.5
 50
102.0
 51
180.0
  0
ARC
  8
LC-004-002-RND-0
  6
CONTINUOUS
  5
818
 10
411.582998
 20
350.000213
 30
0.0
 40
0.5
 50
180.0
 51
270.0
  0
ARC
  8
LC-004-002-RND-0
  6
CONTINUOUS
  5
819
 10
411.582998
 20
346.595321
 30
0.0
 40
0.5
 50
102.0
 51
180.0
  0
ARC
  8
LC-004-002-RND-0
  6
CONTINUOUS
  5
81A
 10
411.582998
 20
337.714498
 30
0.0
 40
0.5
 50
180.0
 51
270.0
  0
ARC
  8
LC-004-002-RND-0
  6
CONTINUOUS
  5
81B
 10
411.582998
 20
334.309606
 30
0.0
 40
0.5
 50
102.0
 51
180.0
  0
ARC
  8
LC-004-002-RND-0
  6
CONTINUOUS
  5
81C
 10
411.582998
 20
325.428784
 30
0.0
 40
0.5
 50
180.0
 51
270.0
  0
ARC
  8
LC-004-002-RND-0
  6
CONTINUOUS
  5
81D
 10
411.582998
 20
322.023892
 30
0.0
 40
0.5
 50
102.0
 51
180.0
  0
ARC
  8
LC-004-002-RND-0
  6
CONTINUOUS
  5
81E
 10
411.582998
 20
313.14307
 30
0.0
 40
0.5
 50
180.0
 51
270.0
  0
ARC
  8
LC-004-002-RND-0
  6
CONTINUOUS
  5
81F
 10
411.582998
 20
309.738178
 30
0.0
 40
0.5
 50
102.0
 51
180.0
  0
ARC
  8
LC-004-002-RND-0
  6
CONTINUOUS
  5
820
 10
411.582998
 20
300.857356
 30
0.0
 40
0.5
 50
180.0
 51
270.0
  0
ARC
  8
LC-004-002-RND-0
  6
CONTINUOUS
  5
821
 10
411.582998
 20
297.452464
 30
0.0
 40
0.5
 50
102.0
 51
180.0
  0
ARC
  8
LC-004-002-RND-0
  6
CONTINUOUS
  5
822
 10
411.582998
 20
288.571641
 30
0.0
 40
0.5
 50
180.0
 51
270.0
  0
ARC
  8
LC-004-002-RND-0
  6
CONTINUOUS
  5
823
 10
411.582998
 20
285.166749
 30
0.0
 40
0.5
 50
102.0
 51
180.0
  0
ARC
  8
LC-004-002-RND-0
  6
CONTINUOUS
  5
824
 10
411.582998
 20
276.285927
 30
0.0
 40
0.5
 50
180.0
 51
270.0
  0
ARC
  8
LC-004-002-RND-0
  6
CONTINUOUS
  5
825
 10
411.582998
 20
272.881035
 30
0.0
 40
0.5
 50
102.0
 51
180.0
  0
ARC
  8
LC-004-002-RND-0
  6
CONTINUOUS
  5
826
 10
411.582998
 20
264.000213
 30
0.0
 40
0.5
 50
180.0
 51
270.0
  0
ARC
  8
LC-004-002-RND-0
  6
CONTINUOUS
  5
827
 10
411.582998
 20
260.595321
 30
0.0
 40
0.5
 50
102.0
 51
180.0
  0
ARC
  8
LC-004-002-RND-0
  6
CONTINUOUS
  5
828
 10
411.582998
 20
251.714498
 30
0.0
 40
0.5
 50
180.0
 51
270.0
  0
ARC
  8
LC-004-002-RND-0
  6
CONTINUOUS
  5
829
 10
411.582998
 20
248.309606
 30
0.0
 40
0.5
 50
102.0
 51
180.0
  0
ARC
  8
LC-004-002-RND-0
  6
CONTINUOUS
  5
82A
 10
411.582998
 20
239.428784
 30
0.0
 40
0.5
 50
180.0
 51
270.0
  0
ARC
  8
LC-004-002-RND-0
  6
CONTINUOUS
  5
82B
 10
411.582998
 20
236.023892
 30
0.0
 40
0.5
 50
102.0
 51
180.0
  0
ARC
  8
LC-004-002-RND-0
  6
CONTINUOUS
  5
82C
 10
411.582998
 20
227.14307
 30
0.0
 40
0.5
 50
180.0
 51
270.0
  0
ARC
  8
LC-004-002-RND-0
  6
CONTINUOUS
  5
82D
 10
411.582998
 20
223.738178
 30
0.0
 40
0.5
 50
102.0
 51
180.0
  0
LINE
  8
LC-002-002-----0
  6
CONTINUOUS
  5
82E
 10
409.582998
 20
398.64307
 30
0.0
 11
409.582998
 21
221.14307
 31
0.0
  0
LINE
  8
LC-002-002-----0
  6
CONTINUOUS
  5
82F
 10
408.377227
 20
216.64307
 30
0.0
 11
409.582998
 21
221.14307
 31
0.0
  0
LINE
  8
LC-002-002-----0
  6
CONTINUOUS
  5
830
 10
267.342181
 20
437.489902
 30
0.0
 11
181.582998
 21
437.489902
 31
0.0
  0
LINE
  8
LC-002-002-----0
  6
CONTINUOUS
  5
831
 10
276.7942
 20
437.18272
 30
0.0
 11
267.440134
 21
437.488303
 31
0.0
  0
LINE
  8
LC-002-002-----0
  6
CONTINUOUS
  5
832
 10
316.832886
 20
434.249863
 30
0.0
 11
316.832886
 21
431.249863
 31
0.0
  0
LINE
  8
LC-002-002-----0
  6
CONTINUOUS
  5
833
 10
303.832508
 20
432.750553
 30
0.0
 11
303.832508
 21
429.750553
 31
0.0
  0
LINE
  8
LC-002-002-----0
  6
CONTINUOUS
  5
834
 10
298.832508
 20
432.750553
 30
0.0
 11
298.832508
 21
429.750553
 31
0.0
  0
LINE
  8
LC-002-002-----0
  6
CONTINUOUS
  5
835
 10
293.832508
 20
433.451124
 30
0.0
 11
293.832508
 21
430.136382
 31
0.0
  0
LINE
  8
LC-002-002-----0
  6
CONTINUOUS
  5
836
 10
288.832508
 20
434.546184
 30
0.0
 11
288.832508
 21
431.313556
 31
0.0
  0
LINE
  8
LC-002-002-----0
  6
CONTINUOUS
  5
837
 10
283.832508
 20
435.641245
 30
0.0
 11
283.832508
 21
432.490729
 31
0.0
  0
LINE
  8
LC-002-002-----0
  6
CONTINUOUS
  5
838
 10
275.341099
 20
434.489902
 30
0.0
 11
181.582998
 21
434.489902
 31
0.0
  0
LINE
  8
LC-002-002-----0
  6
CONTINUOUS
  5
839
 10
278.832508
 20
436.736306
 30
0.0
 11
278.832508
 21
433.667903
 31
0.0
  0
LINE
  8
LC-002-002-----0
  6
CONTINUOUS
  5
83A
 10
181.582998
 20
437.489902
 30
0.0
 11
181.582998
 21
434.489902
 31
0.0
  0
LINE
  8
LC-002-002-----0
  6
CONTINUOUS
  5
83B
 10
305.95763
 20
434.249863
 30
0.0
 11
304.458321
 21
432.750553
 31
0.0
  0
LINE
  8
LC-002-002-----0
  6
CONTINUOUS
  5
83C
 10
308.582508
 20
434.249863
 30
0.0
 11
305.95763
 21
434.249863
 31
0.0
  0
LINE
  8
LC-002-002-----0
  6
CONTINUOUS
  5
83D
 10
321.582886
 20
434.249863
 30
0.0
 11
314.582508
 21
434.249863
 31
0.0
  0
LINE
  8
LC-002-002-----0
  6
CONTINUOUS
  5
83E
 10
268.832508
 20
437.442816
 30
0.0
 11
268.832508
 21
434.441215
 31
0.0
  0
LINE
  8
LC-002-002-----0
  6
CONTINUOUS
  5
83F
 10
273.832508
 20
437.279474
 30
0.0
 11
273.832508
 21
434.277873
 31
0.0
  0
LINE
  8
LC-002-002-----0
  6
CONTINUOUS
  5
840
 10
263.832508
 20
437.489902
 30
0.0
 11
263.832508
 21
434.489902
 31
0.0
  0
LINE
  8
LC-002-002-----0
  6
CONTINUOUS
  5
841
 10
258.832508
 20
437.489902
 30
0.0
 11
258.832508
 21
434.489902
 31
0.0
  0
LINE
  8
LC-002-002-----0
  6
CONTINUOUS
  5
842
 10
253.832508
 20
437.489902
 30
0.0
 11
253.832508
 21
434.489902
 31
0.0
  0
LINE
  8
LC-002-002-----0
  6
CONTINUOUS
  5
843
 10
248.832508
 20
437.489902
 30
0.0
 11
248.832508
 21
434.489902
 31
0.0
  0
LINE
  8
LC-002-002-----0
  6
CONTINUOUS
  5
844
 10
243.832508
 20
437.489902
 30
0.0
 11
243.832508
 21
434.489902
 31
0.0
  0
LINE
  8
LC-002-002-----0
  6
CONTINUOUS
  5
845
 10
238.832508
 20
437.489902
 30
0.0
 11
238.832508
 21
434.489902
 31
0.0
  0
LINE
  8
LC-002-002-----0
  6
CONTINUOUS
  5
846
 10
233.832508
 20
437.489902
 30
0.0
 11
233.832508
 21
434.489902
 31
0.0
  0
LINE
  8
LC-002-002-----0
  6
CONTINUOUS
  5
847
 10
228.832508
 20
437.489902
 30
0.0
 11
228.832508
 21
434.489902
 31
0.0
  0
LINE
  8
LC-002-002-----0
  6
CONTINUOUS
  5
848
 10
223.832508
 20
437.489902
 30
0.0
 11
223.832508
 21
434.489902
 31
0.0
  0
LINE
  8
LC-002-002-----0
  6
CONTINUOUS
  5
849
 10
218.832508
 20
437.489902
 30
0.0
 11
218.832508
 21
434.489902
 31
0.0
  0
LINE
  8
LC-002-002-----0
  6
CONTINUOUS
  5
84A
 10
208.832508
 20
437.489902
 30
0.0
 11
208.832508
 21
434.489902
 31
0.0
  0
LINE
  8
LC-002-002-----0
  6
CONTINUOUS
  5
84B
 10
203.832508
 20
437.489902
 30
0.0
 11
203.832508
 21
434.489902
 31
0.0
  0
LINE
  8
LC-002-002-----0
  6
CONTINUOUS
  5
84C
 10
198.832508
 20
437.489902
 30
0.0
 11
198.832508
 21
434.489902
 31
0.0
  0
LINE
  8
LC-002-002-----0
  6
CONTINUOUS
  5
84D
 10
193.832508
 20
437.489902
 30
0.0
 11
193.832508
 21
434.489902
 31
0.0
  0
LINE
  8
LC-002-002-----0
  6
CONTINUOUS
  5
84E
 10
188.832508
 20
437.489902
 30
0.0
 11
188.832508
 21
434.489902
 31
0.0
  0
LINE
  8
LC-002-002-----0
  6
CONTINUOUS
  5
84F
 10
183.832508
 20
437.489902
 30
0.0
 11
183.832508
 21
434.489902
 31
0.0
  0
LINE
  8
LC-009-004-----0
  6
CONTINUOUS
  5
851
 10
305.582538
 20
435.950458
 30
0.0
 11
311.582537
 21
435.950442
 31
0.0
  0
LINE
  8
LC-009-004-----0
  6
CONTINUOUS
  5
852
 10
308.582537
 20
435.884457
 30
0.0
 11
308.582505
 21
423.95045
 31
0.0
  0
LINE
  8
LC-009-004-----0
  6
CONTINUOUS
  5
853
 10
308.582505
 20
423.95045
 30
0.0
 11
311.58081
 21
418.953244
 31
0.0
  0
LINE
  8
LC-009-004-----0
  6
CONTINUOUS
 62
     2
  5
854
 10
309.582533
 20
434.450447
 30
0.0
 11
309.582501
 21
422.450447
 31
0.0
  0
LINE
  8
LC-009-004-----0
  6
CONTINUOUS
  5
855
 10
310.782547
 20
439.450444
 30
0.0
 11
310.782543
 21
437.950444
 31
0.0
  0
LINE
  8
LC-009-004-----0
  6
CONTINUOUS
  5
856
 10
310.782543
 20
437.950444
 30
0.0
 11
311.582543
 21
437.950442
 31
0.0
  0
LINE
  8
LC-009-004-----0
  6
CONTINUOUS
  5
857
 10
308.582505
 20
423.95045
 30
0.0
 11
311.582505
 21
423.950442
 31
0.0
  0
LINE
  8
LC-009-004-----0
  6
CONTINUOUS
  5
858
 10
317.581277
 20
435.949529
 30
0.0
 11
311.581277
 21
435.949533
 31
0.0
  0
LINE
  8
LC-009-004-----0
  6
CONTINUOUS
  5
859
 10
314.581277
 20
435.950466
 30
0.0
 11
314.581269
 21
423.949531
 31
0.0
  0
LINE
  8
LC-009-004-----0
  6
CONTINUOUS
  5
85A
 10
314.581269
 20
423.949531
 30
0.0
 11
311.58081
 21
418.948773
 31
0.0
  0
LINE
  8
LC-009-004-----0
  6
CONTINUOUS
 62
     2
  5
85B
 10
314.581276
 20
434.449531
 30
0.0
 11
308.582533
 21
434.449535
 31
0.0
  0
LINE
  8
LC-009-004-----0
  6
CONTINUOUS
 62
     2
  5
85C
 10
313.581276
 20
434.449532
 30
0.0
 11
313.581268
 21
422.449532
 31
0.0
  0
LINE
  8
LC-009-004-----0
  6
CONTINUOUS
  5
85D
 10
312.381279
 20
439.449532
 30
0.0
 11
312.381278
 21
437.949532
 31
0.0
  0
LINE
  8
LC-009-004-----0
  6
CONTINUOUS
  5
85E
 10
312.381278
 20
437.949532
 30
0.0
 11
311.581278
 21
437.949533
 31
0.0
  0
LINE
  8
LC-009-004-----0
  6
CONTINUOUS
  5
85F
 10
314.581269
 20
423.949531
 30
0.0
 11
311.581269
 21
423.949533
 31
0.0
  0
LINE
  8
LC-009-004-----0
  6
CONTINUOUS
  5
860
 10
305.582544
 20
438.450458
 30
0.0
 11
305.582538
 21
435.950458
 31
0.0
  0
ARC
  8
LC-009-004-----0
  6
CONTINUOUS
  5
861
 10
306.582544
 20
438.450455
 30
0.0
 40
1.0
 50
89.99996
 51
179.999846
  0
LINE
  8
LC-009-004-----0
  6
CONTINUOUS
  5
862
 10
310.782547
 20
439.450444
 30
0.0
 11
306.582547
 21
439.450455
 31
0.0
  0
LINE
  8
LC-002-002-----0
  6
CONTINUOUS
  5
863
 10
297.031351
 20
432.750539
 30
0.0
 11
304.458322
 21
432.750555
 31
0.0
  0
LINE
  8
LC-009-004-----0
  6
CONTINUOUS
  5
864
 10
317.581278
 20
438.449529
 30
0.0
 11
317.581277
 21
435.949529
 31
0.0
  0
ARC
  8
LC-009-004-----0
  6
CONTINUOUS
  5
865
 10
316.581279
 20
438.44953
 30
0.0
 40
1.0
 50
359.999963
 51
90.000002
  0
LINE
  8
LC-009-004-----0
  6
CONTINUOUS
  5
866
 10
312.381279
 20
439.449532
 30
0.0
 11
316.581279
 21
439.44953
 31
0.0
  0
ARC
  8
LC-004-002-RND-0
  6
CONTINUOUS
  5
867
 10
306.603691
 20
435.250411
 30
0.0
 40
0.7
 50
90.000358
 51
135.0
  0
ARC
  8
LC-004-002-RND-0
  6
CONTINUOUS
  5
868
 10
317.582513
 20
435.250479
 30
0.0
 40
0.7
 50
36.870027
 51
90.000358
  0
ARC
  8
LC-004-002-RND-0
  6
CONTINUOUS
  5
869
 10
318.68251
 20
434.950486
 30
0.0
 40
0.7
 50
216.870027
 51
270.000358
  0
LINE
  8
LC-002-002-----0
  6
CONTINUOUS
  5
86A
 10
318.68251
 20
434.950486
 30
0.0
 11
318.142512
 21
435.670481
 31
0.0
  0
LINE
  8
LC-002-002-----0
  6
CONTINUOUS
  5
86B
 10
318.682515
 20
434.250486
 30
0.0
 11
323.583003
 21
434.250517
 31
0.0
  0
LINE
  8
LC-002-002-----0
  6
CONTINUOUS
  5
86C
 10
299.394543
 20
432.750544
 30
0.0
 11
303.68963
 21
432.750553
 31
0.0
  0
ARC
  8
LC-004-002-RND-0
  6
CONTINUOUS
  5
86D
 10
303.68962
 20
433.750553
 30
0.0
 40
1.0
 50
270.000575
 51
315.0
  0
LINE
  8
LC-002-002-----0
  6
CONTINUOUS
  5
86E
 10
306.603691
 20
435.250411
 30
0.0
 11
304.396727
 21
433.043447
 31
0.0
  0
ARC
  8
LC-002-002-----0
  6
CONTINUOUS
  5
86F
 10
323.583005
 20
433.950517
 30
0.0
 40
1.0
 50
270.0
 51
90.001713
  0
ARC
  8
LC-002-002-----0
  6
CONTINUOUS
  5
870
 10
299.397662
 20
435.750542
 30
0.0
 40
3.0
 50
199.47104
 51
270.059811
  0
LINE
  8
LC-002-002-----0
  6
CONTINUOUS
  5
871
 10
318.122511
 20
434.530485
 30
0.0
 11
317.582513
 21
435.250479
 31
0.0
  0
LINE
  8
LC-002-002-----0
  6
CONTINUOUS
  5
872
 10
323.583007
 20
433.650517
 30
0.0
 11
322.083005
 21
433.650508
 31
0.0
  0
LINE
  8
LC-002-002-----0
  6
CONTINUOUS
  5
873
 10
322.083005
 20
433.650508
 30
0.0
 11
322.083005
 21
432.950508
 31
0.0
  0
ARC
  8
LC-002-002-----0
  6
CONTINUOUS
  5
874
 10
323.583005
 20
433.950517
 30
0.0
 40
0.3
 50
269.991704
 51
90.009012
  0
LINE
  8
LC-002-002-----0
  6
CONTINUOUS
  5
875
 10
317.582513
 20
435.250479
 30
0.0
 11
315.332513
 21
435.250465
 31
0.0
  0
LINE
  8
LC-002-002-----0
  6
CONTINUOUS
  5
876
 10
315.332513
 20
435.250465
 30
0.0
 11
315.332513
 21
435.950465
 31
0.0
  0
LINE
  8
LC-002-002-----0
  6
CONTINUOUS
  5
877
 10
315.332513
 20
435.950465
 30
0.0
 11
317.582508
 21
435.950479
 31
0.0
  0
LINE
  8
LC-002-002-----0
  6
CONTINUOUS
  5
878
 10
306.603691
 20
435.250411
 30
0.0
 11
307.832513
 21
435.250418
 31
0.0
  0
LINE
  8
LC-002-002-----0
  6
CONTINUOUS
  5
879
 10
307.832513
 20
435.250418
 30
0.0
 11
307.832513
 21
435.950418
 31
0.0
  0
LINE
  8
LC-002-002-----0
  6
CONTINUOUS
  5
87A
 10
307.832513
 20
435.950418
 30
0.0
 11
306.603687
 21
435.950411
 31
0.0
  0
ARC
  8
LC-002-002-----0
  6
CONTINUOUS
  5
87B
 10
299.397662
 20
435.737007
 30
0.0
 40
2.286465
 50
205.55853
 51
270.0
  0
LINE
  8
LC-002-002-----0
  6
CONTINUOUS
  5
87C
 10
306.108716
 20
435.745386
 30
0.0
 11
303.901752
 21
433.538421
 31
0.0
  0
ARC
  8
LC-002-002-----0
  6
CONTINUOUS
  5
87D
 10
303.68962
 20
433.750553
 30
0.0
 40
0.3
 50
270.000126
 51
315.0
  0
LINE
  8
LC-002-002-----0
  6
CONTINUOUS
  5
87E
 10
303.689621
 20
433.450553
 30
0.0
 11
299.395078
 21
433.450544
 31
0.0
  0
LINE
  8
LC-002-002-----0
  6
CONTINUOUS
  5
87F
 10
323.582999
 20
434.950517
 30
0.0
 11
318.68251
 21
434.950486
 31
0.0
  0
LINE
  8
LC-002-002-----0
  6
CONTINUOUS
  5
880
 10
296.569231
 20
434.750551
 30
0.0
 11
297.334939
 21
434.750551
 31
0.0
  0
LINE
  8
LC-002-002-----0
  6
CONTINUOUS
  5
881
 10
323.583005
 20
432.950517
 30
0.0
 11
322.083005
 21
432.950517
 31
0.0
  0
LINE
  8
LC-002-002-----0
  6
CONTINUOUS
  5
882
 10
305.700961
 20
429.750553
 30
0.0
 11
296.582998
 21
429.750553
 31
0.0
  0
LINE
  8
LC-002-002-----0
  6
CONTINUOUS
  5
883
 10
213.832508
 20
437.489902
 30
0.0
 11
213.832508
 21
434.489902
 31
0.0
  0
LINE
  8
LC-002-002-----0
  6
CONTINUOUS
  5
884
 10
297.031351
 20
432.750539
 30
0.0
 11
276.7942
 21
437.18272
 31
0.0
  0
LINE
  8
LC-002-002-----0
  6
CONTINUOUS
  5
885
 10
314.581273
 20
430.233256
 30
0.0
 11
317.800998
 21
430.233256
 31
0.0
  0
LINE
  8
LC-002-002-----0
  6
CONTINUOUS
  5
886
 10
495.823815
 20
437.489902
 30
0.0
 11
581.582998
 21
437.489902
 31
0.0
  0
LINE
  8
LC-002-002-----0
  6
CONTINUOUS
  5
887
 10
487.824897
 20
434.489902
 30
0.0
 11
581.582998
 21
434.489902
 31
0.0
  0
LINE
  8
LC-002-002-----0
  6
CONTINUOUS
  5
888
 10
581.582998
 20
437.489902
 30
0.0
 11
581.582998
 21
434.489902
 31
0.0
  0
LINE
  8
LC-002-002-----0
  6
CONTINUOUS
  5
889
 10
504.333487
 20
437.489902
 30
0.0
 11
504.333487
 21
434.489902
 31
0.0
  0
LINE
  8
LC-002-002-----0
  6
CONTINUOUS
  5
88A
 10
509.333487
 20
437.489902
 30
0.0
 11
509.333487
 21
434.489902
 31
0.0
  0
LINE
  8
LC-002-002-----0
  6
CONTINUOUS
  5
88B
 10
514.333487
 20
437.489902
 30
0.0
 11
514.333487
 21
434.489902
 31
0.0
  0
LINE
  8
LC-002-002-----0
  6
CONTINUOUS
  5
88C
 10
519.333487
 20
437.489902
 30
0.0
 11
519.333487
 21
434.489902
 31
0.0
  0
LINE
  8
LC-002-002-----0
  6
CONTINUOUS
  5
88D
 10
524.333487
 20
437.489902
 30
0.0
 11
524.333487
 21
434.489902
 31
0.0
  0
LINE
  8
LC-002-002-----0
  6
CONTINUOUS
  5
88E
 10
529.333487
 20
437.489902
 30
0.0
 11
529.333487
 21
434.489902
 31
0.0
  0
LINE
  8
LC-002-002-----0
  6
CONTINUOUS
  5
88F
 10
534.333487
 20
437.489902
 30
0.0
 11
534.333487
 21
434.489902
 31
0.0
  0
LINE
  8
LC-002-002-----0
  6
CONTINUOUS
  5
890
 10
539.333487
 20
437.489902
 30
0.0
 11
539.333487
 21
434.489902
 31
0.0
  0
LINE
  8
LC-002-002-----0
  6
CONTINUOUS
  5
891
 10
544.333487
 20
437.489902
 30
0.0
 11
544.333487
 21
434.489902
 31
0.0
  0
LINE
  8
LC-002-002-----0
  6
CONTINUOUS
  5
892
 10
554.333487
 20
437.489902
 30
0.0
 11
554.333487
 21
434.489902
 31
0.0
  0
LINE
  8
LC-002-002-----0
  6
CONTINUOUS
  5
893
 10
559.333487
 20
437.489902
 30
0.0
 11
559.333487
 21
434.489902
 31
0.0
  0
LINE
  8
LC-002-002-----0
  6
CONTINUOUS
  5
894
 10
564.333487
 20
437.489902
 30
0.0
 11
564.333487
 21
434.489902
 31
0.0
  0
LINE
  8
LC-002-002-----0
  6
CONTINUOUS
  5
895
 10
569.333487
 20
437.489902
 30
0.0
 11
569.333487
 21
434.489902
 31
0.0
  0
LINE
  8
LC-002-002-----0
  6
CONTINUOUS
  5
896
 10
574.333487
 20
437.489902
 30
0.0
 11
574.333487
 21
434.489902
 31
0.0
  0
LINE
  8
LC-002-002-----0
  6
CONTINUOUS
  5
897
 10
579.333487
 20
437.489902
 30
0.0
 11
579.333487
 21
434.489902
 31
0.0
  0
LINE
  8
LC-002-002-----0
  6
CONTINUOUS
  5
898
 10
549.333487
 20
437.489902
 30
0.0
 11
549.333487
 21
434.489902
 31
0.0
  0
LINE
  8
LC-002-002-----0
  6
CONTINUOUS
  5
899
 10
495.823815
 20
437.489902
 30
0.0
 11
581.582998
 21
437.489902
 31
0.0
  0
LINE
  8
LC-002-002-----0
  6
CONTINUOUS
  5
89A
 10
486.371796
 20
437.18272
 30
0.0
 11
495.725862
 21
437.488303
 31
0.0
  0
LINE
  8
LC-002-002-----0
  6
CONTINUOUS
  5
89B
 10
446.33311
 20
434.249863
 30
0.0
 11
446.33311
 21
431.249863
 31
0.0
  0
LINE
  8
LC-002-002-----0
  6
CONTINUOUS
  5
89C
 10
459.333487
 20
432.750553
 30
0.0
 11
459.333487
 21
429.750553
 31
0.0
  0
LINE
  8
LC-002-002-----0
  6
CONTINUOUS
  5
89D
 10
464.333487
 20
432.750553
 30
0.0
 11
464.333487
 21
429.750553
 31
0.0
  0
LINE
  8
LC-002-002-----0
  6
CONTINUOUS
  5
89E
 10
469.333487
 20
433.451124
 30
0.0
 11
469.333487
 21
430.136382
 31
0.0
  0
LINE
  8
LC-002-002-----0
  6
CONTINUOUS
  5
89F
 10
474.333487
 20
434.546184
 30
0.0
 11
474.333487
 21
431.313556
 31
0.0
  0
LINE
  8
LC-002-002-----0
  6
CONTINUOUS
  5
8A0
 10
479.333487
 20
435.641245
 30
0.0
 11
479.333487
 21
432.490729
 31
0.0
  0
LINE
  8
LC-002-002-----0
  6
CONTINUOUS
  5
8A1
 10
487.824897
 20
434.489902
 30
0.0
 11
581.582998
 21
434.489902
 31
0.0
  0
LINE
  8
LC-002-002-----0
  6
CONTINUOUS
  5
8A2
 10
484.333487
 20
436.736306
 30
0.0
 11
484.333487
 21
433.667903
 31
0.0
  0
LINE
  8
LC-002-002-----0
  6
CONTINUOUS
  5
8A3
 10
581.582998
 20
437.489902
 30
0.0
 11
581.582998
 21
434.489902
 31
0.0
  0
LINE
  8
LC-002-002-----0
  6
CONTINUOUS
  5
8A4
 10
457.208366
 20
434.249863
 30
0.0
 11
458.707675
 21
432.750553
 31
0.0
  0
LINE
  8
LC-002-002-----0
  6
CONTINUOUS
  5
8A5
 10
454.583487
 20
434.249863
 30
0.0
 11
457.208366
 21
434.249863
 31
0.0
  0
LINE
  8
LC-002-002-----0
  6
CONTINUOUS
  5
8A6
 10
441.58311
 20
434.249863
 30
0.0
 11
448.583487
 21
434.249863
 31
0.0
  0
LINE
  8
LC-002-002-----0
  6
CONTINUOUS
  5
8A7
 10
494.333487
 20
437.442816
 30
0.0
 11
494.333487
 21
434.441215
 31
0.0
  0
LINE
  8
LC-002-002-----0
  6
CONTINUOUS
  5
8A8
 10
489.333487
 20
437.279474
 30
0.0
 11
489.333487
 21
434.277873
 31
0.0
  0
LINE
  8
LC-002-002-----0
  6
CONTINUOUS
  5
8A9
 10
499.333487
 20
437.489902
 30
0.0
 11
499.333487
 21
434.489902
 31
0.0
  0
LINE
  8
LC-002-002-----0
  6
CONTINUOUS
  5
8AA
 10
504.333487
 20
437.489902
 30
0.0
 11
504.333487
 21
434.489902
 31
0.0
  0
LINE
  8
LC-002-002-----0
  6
CONTINUOUS
  5
8AB
 10
509.333487
 20
437.489902
 30
0.0
 11
509.333487
 21
434.489902
 31
0.0
  0
LINE
  8
LC-002-002-----0
  6
CONTINUOUS
  5
8AC
 10
514.333487
 20
437.489902
 30
0.0
 11
514.333487
 21
434.489902
 31
0.0
  0
LINE
  8
LC-002-002-----0
  6
CONTINUOUS
  5
8AD
 10
519.333487
 20
437.489902
 30
0.0
 11
519.333487
 21
434.489902
 31
0.0
  0
LINE
  8
LC-002-002-----0
  6
CONTINUOUS
  5
8AE
 10
524.333487
 20
437.489902
 30
0.0
 11
524.333487
 21
434.489902
 31
0.0
  0
LINE
  8
LC-002-002-----0
  6
CONTINUOUS
  5
8AF
 10
529.333487
 20
437.489902
 30
0.0
 11
529.333487
 21
434.489902
 31
0.0
  0
LINE
  8
LC-002-002-----0
  6
CONTINUOUS
  5
8B0
 10
534.333487
 20
437.489902
 30
0.0
 11
534.333487
 21
434.489902
 31
0.0
  0
LINE
  8
LC-002-002-----0
  6
CONTINUOUS
  5
8B1
 10
539.333487
 20
437.489902
 30
0.0
 11
539.333487
 21
434.489902
 31
0.0
  0
LINE
  8
LC-002-002-----0
  6
CONTINUOUS
  5
8B2
 10
544.333487
 20
437.489902
 30
0.0
 11
544.333487
 21
434.489902
 31
0.0
  0
LINE
  8
LC-002-002-----0
  6
CONTINUOUS
  5
8B3
 10
554.333487
 20
437.489902
 30
0.0
 11
554.333487
 21
434.489902
 31
0.0
  0
LINE
  8
LC-002-002-----0
  6
CONTINUOUS
  5
8B4
 10
559.333487
 20
437.489902
 30
0.0
 11
559.333487
 21
434.489902
 31
0.0
  0
LINE
  8
LC-002-002-----0
  6
CONTINUOUS
  5
8B5
 10
564.333487
 20
437.489902
 30
0.0
 11
564.333487
 21
434.489902
 31
0.0
  0
LINE
  8
LC-002-002-----0
  6
CONTINUOUS
  5
8B6
 10
569.333487
 20
437.489902
 30
0.0
 11
569.333487
 21
434.489902
 31
0.0
  0
LINE
  8
LC-002-002-----0
  6
CONTINUOUS
  5
8B7
 10
574.333487
 20
437.489902
 30
0.0
 11
574.333487
 21
434.489902
 31
0.0
  0
LINE
  8
LC-002-002-----0
  6
CONTINUOUS
  5
8B8
 10
579.333487
 20
437.489902
 30
0.0
 11
579.333487
 21
434.489902
 31
0.0
  0
LINE
  8
LC-009-004-----0
  6
CONTINUOUS
  5
8B9
 10
457.583458
 20
435.950458
 30
0.0
 11
451.583458
 21
435.950442
 31
0.0
  0
LINE
  8
LC-009-004-----0
  6
CONTINUOUS
  5
8BA
 10
454.583458
 20
435.884457
 30
0.0
 11
454.583491
 21
423.95045
 31
0.0
  0
LINE
  8
LC-009-004-----0
  6
CONTINUOUS
  5
8BB
 10
454.583491
 20
423.95045
 30
0.0
 11
451.585185
 21
418.953244
 31
0.0
  0
LINE
  8
LC-009-004-----0
  6
CONTINUOUS
 62
     2
  5
8BC
 10
453.583462
 20
434.450447
 30
0.0
 11
453.583495
 21
422.450447
 31
0.0
  0
LINE
  8
LC-009-004-----0
  6
CONTINUOUS
  5
8BD
 10
452.383449
 20
439.450444
 30
0.0
 11
452.383453
 21
437.950444
 31
0.0
  0
LINE
  8
LC-009-004-----0
  6
CONTINUOUS
  5
8BE
 10
452.383453
 20
437.950444
 30
0.0
 11
451.583453
 21
437.950442
 31
0.0
  0
LINE
  8
LC-009-004-----0
  6
CONTINUOUS
  5
8BF
 10
454.583491
 20
423.95045
 30
0.0
 11
451.583491
 21
423.950442
 31
0.0
  0
LINE
  8
LC-009-004-----0
  6
CONTINUOUS
  5
8C0
 10
445.584719
 20
435.949529
 30
0.0
 11
451.584719
 21
435.949533
 31
0.0
  0
LINE
  8
LC-009-004-----0
  6
CONTINUOUS
  5
8C1
 10
448.584719
 20
435.950466
 30
0.0
 11
448.584727
 21
423.949531
 31
0.0
  0
LINE
  8
LC-009-004-----0
  6
CONTINUOUS
  5
8C2
 10
448.584727
 20
423.949531
 30
0.0
 11
451.585186
 21
418.948773
 31
0.0
  0
LINE
  8
LC-009-004-----0
  6
CONTINUOUS
 62
     2
  5
8C3
 10
448.58472
 20
434.449531
 30
0.0
 11
454.583462
 21
434.449535
 31
0.0
  0
LINE
  8
LC-009-004-----0
  6
CONTINUOUS
 62
     2
  5
8C4
 10
449.58472
 20
434.449532
 30
0.0
 11
449.584728
 21
422.449532
 31
0.0
  0
LINE
  8
LC-009-004-----0
  6
CONTINUOUS
  5
8C5
 10
450.784717
 20
439.449532
 30
0.0
 11
450.784718
 21
437.949532
 31
0.0
  0
LINE
  8
LC-009-004-----0
  6
CONTINUOUS
  5
8C6
 10
450.784718
 20
437.949532
 30
0.0
 11
451.584718
 21
437.949533
 31
0.0
  0
LINE
  8
LC-009-004-----0
  6
CONTINUOUS
  5
8C7
 10
448.584727
 20
423.949531
 30
0.0
 11
451.584727
 21
423.949533
 31
0.0
  0
LINE
  8
LC-009-004-----0
  6
CONTINUOUS
  5
8C8
 10
457.583452
 20
438.450458
 30
0.0
 11
457.583458
 21
435.950458
 31
0.0
  0
ARC
  8
LC-009-004-----0
  6
CONTINUOUS
  5
8C9
 10
456.583452
 20
438.450455
 30
0.0
 40
1.0
 50
0.000154
 51
90.00004
  0
LINE
  8
LC-009-004-----0
  6
CONTINUOUS
  5
8CA
 10
452.383449
 20
439.450444
 30
0.0
 11
456.583449
 21
439.450455
 31
0.0
  0
LINE
  8
LC-002-002-----0
  6
CONTINUOUS
  5
8CB
 10
466.134645
 20
432.750539
 30
0.0
 11
458.707673
 21
432.750555
 31
0.0
  0
LINE
  8
LC-009-004-----0
  6
CONTINUOUS
  5
8CC
 10
445.584717
 20
438.449529
 30
0.0
 11
445.584719
 21
435.949529
 31
0.0
  0
ARC
  8
LC-009-004-----0
  6
CONTINUOUS
  5
8CD
 10
446.584717
 20
438.44953
 30
0.0
 40
1.0
 50
89.999998
 51
180.000037
  0
LINE
  8
LC-009-004-----0
  6
CONTINUOUS
  5
8CE
 10
450.784717
 20
439.449532
 30
0.0
 11
446.584717
 21
439.44953
 31
0.0
  0
LINE
  8
LC-002-002-----0
  6
CONTINUOUS
  5
8CF
 10
466.134645
 20
432.750539
 30
0.0
 11
486.371796
 21
437.18272
 31
0.0
  0
LINE
  8
LC-002-002-----0
  6
CONTINUOUS
  5
8D0
 10
466.134645
 20
432.750539
 30
0.0
 11
486.371796
 21
437.18272
 31
0.0
  0
LINE
  8
LC-002-002-----0
  6
CONTINUOUS
  5
8D1
 10
448.584723
 20
430.233256
 30
0.0
 11
445.364998
 21
430.233256
 31
0.0
  0
LINE
  8
LC-002-002-----0
  6
CONTINUOUS
  5
8D2
 10
454.583475
 20
429.724256
 30
0.0
 11
457.300998
 21
429.724256
 31
0.0
  0
LINE
  8
LC-002-002-----0
  6
CONTINUOUS
  5
8D3
 10
308.582521
 20
429.724256
 30
0.0
 11
305.864998
 21
429.724256
 31
0.0
  0
ARC
  8
LC-004-002-RND-0
  6
CONTINUOUS
  5
8D4
 10
456.562305
 20
435.250411
 30
0.0
 40
0.7
 50
45.0
 51
89.999642
  0
ARC
  8
LC-004-002-RND-0
  6
CONTINUOUS
  5
8D5
 10
445.583483
 20
435.250479
 30
0.0
 40
0.7
 50
89.999642
 51
143.129973
  0
ARC
  8
LC-004-002-RND-0
  6
CONTINUOUS
  5
8D6
 10
444.483486
 20
434.950486
 30
0.0
 40
0.7
 50
269.999642
 51
323.129973
  0
LINE
  8
LC-002-002-----0
  6
CONTINUOUS
  5
8D7
 10
444.483486
 20
434.950486
 30
0.0
 11
445.023484
 21
435.670481
 31
0.0
  0
LINE
  8
LC-002-002-----0
  6
CONTINUOUS
  5
8D8
 10
444.483481
 20
434.250486
 30
0.0
 11
439.582993
 21
434.250517
 31
0.0
  0
LINE
  8
LC-002-002-----0
  6
CONTINUOUS
  5
8D9
 10
463.771453
 20
432.750544
 30
0.0
 11
459.476366
 21
432.750553
 31
0.0
  0
ARC
  8
LC-004-002-RND-0
  6
CONTINUOUS
  5
8DA
 10
459.476376
 20
433.750553
 30
0.0
 40
1.0
 50
225.0
 51
269.999425
  0
LINE
  8
LC-002-002-----0
  6
CONTINUOUS
  5
8DB
 10
456.562305
 20
435.250411
 30
0.0
 11
458.769269
 21
433.043447
 31
0.0
  0
ARC
  8
LC-002-002-----0
  6
CONTINUOUS
  5
8DC
 10
439.582991
 20
433.950517
 30
0.0
 40
1.0
 50
89.998287
 51
270.0
  0
ARC
  8
LC-002-002-----0
  6
CONTINUOUS
  5
8DD
 10
463.768334
 20
435.750542
 30
0.0
 40
3.0
 50
269.940189
 51
340.52896
  0
LINE
  8
LC-002-002-----0
  6
CONTINUOUS
  5
8DE
 10
445.043485
 20
434.530485
 30
0.0
 11
445.583483
 21
435.250479
 31
0.0
  0
LINE
  8
LC-002-002-----0
  6
CONTINUOUS
  5
8DF
 10
439.582989
 20
433.650517
 30
0.0
 11
441.082991
 21
433.650508
 31
0.0
  0
LINE
  8
LC-002-002-----0
  6
CONTINUOUS
  5
8E0
 10
441.082991
 20
433.650508
 30
0.0
 11
441.082991
 21
432.950508
 31
0.0
  0
ARC
  8
LC-002-002-----0
  6
CONTINUOUS
  5
8E1
 10
439.582991
 20
433.950517
 30
0.0
 40
0.3
 50
89.990988
 51
270.008296
  0
LINE
  8
LC-002-002-----0
  6
CONTINUOUS
  5
8E2
 10
445.583483
 20
435.250479
 30
0.0
 11
447.833483
 21
435.250465
 31
0.0
  0
LINE
  8
LC-002-002-----0
  6
CONTINUOUS
  5
8E3
 10
447.833483
 20
435.250465
 30
0.0
 11
447.833483
 21
435.950465
 31
0.0
  0
LINE
  8
LC-002-002-----0
  6
CONTINUOUS
  5
8E4
 10
447.833483
 20
435.950465
 30
0.0
 11
445.583487
 21
435.950479
 31
0.0
  0
LINE
  8
LC-002-002-----0
  6
CONTINUOUS
  5
8E5
 10
456.562305
 20
435.250411
 30
0.0
 11
455.333483
 21
435.250418
 31
0.0
  0
LINE
  8
LC-002-002-----0
  6
CONTINUOUS
  5
8E6
 10
455.333483
 20
435.250418
 30
0.0
 11
455.333483
 21
435.950418
 31
0.0
  0
LINE
  8
LC-002-002-----0
  6
CONTINUOUS
  5
8E7
 10
455.333483
 20
435.950418
 30
0.0
 11
456.562309
 21
435.950411
 31
0.0
  0
ARC
  8
LC-002-002-----0
  6
CONTINUOUS
  5
8E8
 10
463.768334
 20
435.737007
 30
0.0
 40
2.286465
 50
270.0
 51
334.44147
  0
LINE
  8
LC-002-002-----0
  6
CONTINUOUS
  5
8E9
 10
457.057279
 20
435.745386
 30
0.0
 11
459.264244
 21
433.538421
 31
0.0
  0
ARC
  8
LC-002-002-----0
  6
CONTINUOUS
  5
8EA
 10
459.476376
 20
433.750553
 30
0.0
 40
0.3
 50
225.0
 51
269.999874
  0
LINE
  8
LC-002-002-----0
  6
CONTINUOUS
  5
8EB
 10
459.476375
 20
433.450553
 30
0.0
 11
463.770918
 21
433.450544
 31
0.0
  0
LINE
  8
LC-002-002-----0
  6
CONTINUOUS
  5
8EC
 10
439.583021
 20
434.950517
 30
0.0
 11
444.483486
 21
434.950486
 31
0.0
  0
LINE
  8
LC-002-002-----0
  6
CONTINUOUS
  5
8ED
 10
466.596764
 20
434.750551
 30
0.0
 11
465.831057
 21
434.750551
 31
0.0
  0
LINE
  8
LC-002-002-----0
  6
CONTINUOUS
  5
8EE
 10
439.582991
 20
432.950517
 30
0.0
 11
441.082991
 21
432.950517
 31
0.0
  0
LINE
  8
LC-002-002-----0
  6
DASHDOT
 62
     2
  5
8EF
 10
311.58081
 20
418.953244
 30
0.0
 11
311.58081
 21
439.450444
 31
0.0
  0
LINE
  8
LC-002-002-----0
  6
DASHDOT
 62
     2
  5
8F0
 10
451.585186
 20
418.948773
 30
0.0
 11
451.585186
 21
439.450444
 31
0.0
  0
LINE
  8
LC-002-002-----0
  6
CONTINUOUS
  5
8F1
 10
339.961163
 20
471.450517
 30
0.0
 11
423.204833
 21
471.450517
 31
0.0
  0
LINE
  8
LC-002-002-----0
  6
CONTINUOUS
  5
8F2
 10
327.082998
 20
434.950517
 30
0.0
 11
381.582998
 21
434.950517
 31
0.0
  0
LINE
  8
LC-002-002-----0
  6
CONTINUOUS
  5
8F3
 10
329.763894
 20
434.950517
 30
0.0
 11
349.599678
 21
505.950517
 31
0.0
  0
LINE
  8
LC-002-002-----0
  6
CONTINUOUS
  5
8F4
 10
420.690438
 20
480.450517
 30
0.0
 11
342.475558
 21
480.450517
 31
0.0
  0
LINE
  8
LC-002-002-----0
  6
CONTINUOUS
  5
8F5
 10
387.827767
 20
480.450517
 30
0.0
 11
386.749241
 21
505.950517
 31
0.0
  0
ARC
  8
LC-002-002-----0
  6
CONTINUOUS
  5
8F6
 10
324.583005
 20
430.950517
 30
0.0
 40
1.0
 50
90.0
 51
180.0
  0
LINE
  8
LC-002-002-----0
  6
CONTINUOUS
  5
8F7
 10
349.582998
 20
509.950517
 30
0.0
 11
349.441245
 21
509.950517
 31
0.0
  0
LINE
  8
LC-002-002-----0
  6
CONTINUOUS
  5
8F8
 10
351.582998
 20
509.950517
 30
0.0
 11
381.582998
 21
509.950517
 31
0.0
  0
LINE
  8
LC-002-002-----0
  6
CONTINUOUS
  5
8F9
 10
386.225534
 20
471.450517
 30
0.0
 11
387.769307
 21
434.950517
 31
0.0
  0
LINE
  8
LC-002-002-----0
  6
CONTINUOUS
  5
8FA
 10
375.338229
 20
480.450517
 30
0.0
 11
376.416755
 21
505.950517
 31
0.0
  0
LINE
  8
LC-002-002-----0
  6
CONTINUOUS
  5
8FB
 10
376.940462
 20
471.450517
 30
0.0
 11
375.396689
 21
434.950517
 31
0.0
  0
LINE
  8
LC-002-002-----0
  6
CONTINUOUS
  5
8FC
 10
365.988882
 20
471.450517
 30
0.0
 11
361.462768
 21
434.950517
 31
0.0
  0
LINE
  8
LC-002-002-----0
  6
CONTINUOUS
  5
8FD
 10
351.582998
 20
505.950517
 30
0.0
 11
381.582998
 21
505.950517
 31
0.0
  0
ARC
  8
LC-004-002-RND-0
  6
CONTINUOUS
  5
8FE
 10
349.154434
 20
496.950517
 30
0.0
 40
13.0
 50
88.110819
 51
165.0
  0
LINE
  8
LC-002-002-----0
  6
CONTINUOUS
  5
8FF
 10
364.141123
 20
471.450517
 30
0.0
 11
359.615009
 21
434.950517
 31
0.0
  0
LINE
  8
LC-002-002-----0
  6
CONTINUOUS
  5
900
 10
356.100014
 20
471.450517
 30
0.0
 11
348.900008
 21
434.950517
 31
0.0
  0
LINE
  8
LC-002-002-----0
  6
CONTINUOUS
  5
901
 10
354.587323
 20
471.450517
 30
0.0
 11
347.313302
 21
434.950517
 31
0.0
  0
LINE
  8
LC-002-002-----0
  6
CONTINUOUS
  5
902
 10
323.583005
 20
430.950517
 30
0.0
 11
325.083005
 21
429.450517
 31
0.0
  0
LINE
  8
LC-002-002-----0
  6
CONTINUOUS
  5
903
 10
327.082998
 20
424.950517
 30
0.0
 11
436.082998
 21
424.950517
 31
0.0
  0
LINE
  8
LC-002-002-----0
  6
CONTINUOUS
  5
904
 10
346.730248
 20
471.450517
 30
0.0
 11
337.347017
 21
434.950517
 31
0.0
  0
LINE
  8
LC-002-002-----0
  6
CONTINUOUS
  5
905
 10
438.082998
 20
431.950517
 30
0.0
 11
438.082998
 21
434.950516
 31
0.0
  0
LINE
  8
LC-002-002-----0
  6
CONTINUOUS
  5
906
 10
325.082998
 20
434.950516
 30
0.0
 11
319.082998
 21
434.950533
 31
0.0
  0
LINE
  8
LC-002-002-----0
  6
CONTINUOUS
  5
907
 10
347.94777
 20
471.450517
 30
0.0
 11
338.56454
 21
434.950517
 31
0.0
  0
LINE
  8
LC-002-002-----0
  6
CONTINUOUS
  5
908
 10
342.087712
 20
471.450517
 30
0.0
 11
331.160708
 21
434.950517
 31
0.0
  0
LINE
  8
LC-002-002-----0
  6
CONTINUOUS
  5
909
 10
421.078284
 20
471.450517
 30
0.0
 11
432.005288
 21
434.950517
 31
0.0
  0
LINE
  8
LC-002-002-----0
  6
CONTINUOUS
  5
90A
 10
386.582998
 20
509.950517
 30
0.0
 11
386.582998
 21
505.950517
 31
0.0
  0
LINE
  8
LC-002-002-----0
  6
CONTINUOUS
  5
90B
 10
336.597398
 20
500.315165
 30
0.0
 11
319.082998
 21
434.950533
 31
0.0
  0
LINE
  8
LC-002-002-----0
  6
CONTINUOUS
  5
90C
 10
413.582998
 20
509.950517
 30
0.0
 11
413.724751
 21
509.950517
 31
0.0
  0
LINE
  8
LC-002-002-----0
  6
CONTINUOUS
  5
90D
 10
411.582998
 20
509.950517
 30
0.0
 11
411.582998
 21
505.950517
 31
0.0
  0
LINE
  8
LC-002-002-----0
  6
CONTINUOUS
  5
90E
 10
413.582998
 20
509.950517
 30
0.0
 11
411.582998
 21
509.950517
 31
0.0
  0
LINE
  8
LC-002-002-----0
  6
CONTINUOUS
  5
90F
 10
413.582998
 20
505.890813
 30
0.0
 11
413.582998
 21
509.950517
 31
0.0
  0
LINE
  8
LC-002-002-----0
  6
CONTINUOUS
  5
910
 10
349.582998
 20
505.950517
 30
0.0
 11
349.582998
 21
509.950517
 31
0.0
  0
LINE
  8
LC-002-002-----0
  6
CONTINUOUS
  5
911
 10
349.582998
 20
509.950517
 30
0.0
 11
351.582998
 21
509.950517
 31
0.0
  0
LINE
  8
LC-002-002-----0
  6
CONTINUOUS
  5
912
 10
351.582998
 20
509.950517
 30
0.0
 11
351.582998
 21
505.950517
 31
0.0
  0
LINE
  8
LC-002-002-----0
  6
CONTINUOUS
  5
913
 10
376.582998
 20
509.950517
 30
0.0
 11
376.582998
 21
505.950517
 31
0.0
  0
LINE
  8
LC-002-002-----0
  6
CONTINUOUS
  5
914
 10
370.266989
 20
505.950517
 30
0.0
 11
367.104909
 21
480.450517
 31
0.0
  0
LINE
  8
LC-002-002-----0
  6
CONTINUOUS
  5
915
 10
368.419229
 20
505.950517
 30
0.0
 11
365.25715
 21
480.450517
 31
0.0
  0
LINE
  8
LC-002-002-----0
  6
CONTINUOUS
  5
916
 10
373.413799
 20
434.950517
 30
0.0
 11
374.957572
 21
471.450517
 31
0.0
  0
LINE
  8
LC-002-002-----0
  6
CONTINUOUS
  5
917
 10
378.399645
 20
505.950517
 30
0.0
 11
377.321118
 21
480.450517
 31
0.0
  0
LINE
  8
LC-002-002-----0
  6
CONTINUOUS
  5
918
 10
362.9055
 20
505.950517
 30
0.0
 11
357.875358
 21
480.450517
 31
0.0
  0
LINE
  8
LC-002-002-----0
  6
CONTINUOUS
  5
919
 10
361.462768
 20
505.950517
 30
0.0
 11
356.380918
 21
480.450517
 31
0.0
  0
LINE
  8
LC-002-002-----0
  6
CONTINUOUS
  5
91A
 10
356.816852
 20
505.950517
 30
0.0
 11
350.261444
 21
480.450517
 31
0.0
  0
LINE
  8
LC-002-002-----0
  6
CONTINUOUS
  5
91B
 10
355.599329
 20
505.950517
 30
0.0
 11
349.043921
 21
480.450517
 31
0.0
  0
LINE
  8
LC-002-002-----0
  6
CONTINUOUS
  5
91C
 10
352.415975
 20
505.950517
 30
0.0
 11
344.782041
 21
480.450517
 31
0.0
  0
LINE
  8
LC-002-002-----0
  6
CONTINUOUS
  5
91D
 10
330.395341
 20
434.950517
 30
0.0
 11
341.322345
 21
471.450517
 31
0.0
  0
LINE
  8
LC-002-002-----0
  6
CONTINUOUS
  5
91E
 10
416.435748
 20
471.450517
 30
0.0
 11
425.818979
 21
434.950517
 31
0.0
  0
LINE
  8
LC-002-002-----0
  6
CONTINUOUS
  5
91F
 10
436.082998
 20
434.950517
 30
0.0
 11
381.582998
 21
434.950517
 31
0.0
  0
LINE
  8
LC-002-002-----0
  6
CONTINUOUS
  5
920
 10
433.402102
 20
434.950517
 30
0.0
 11
423.204833
 21
471.450517
 31
0.0
  0
LINE
  8
LC-002-002-----0
  6
CONTINUOUS
  5
921
 10
415.218225
 20
471.450517
 30
0.0
 11
424.601456
 21
434.950517
 31
0.0
  0
LINE
  8
LC-002-002-----0
  6
CONTINUOUS
  5
922
 10
408.578673
 20
471.450517
 30
0.0
 11
415.852694
 21
434.950517
 31
0.0
  0
LINE
  8
LC-002-002-----0
  6
CONTINUOUS
  5
923
 10
407.065981
 20
471.450517
 30
0.0
 11
414.265988
 21
434.950517
 31
0.0
  0
LINE
  8
LC-002-002-----0
  6
CONTINUOUS
  5
924
 10
327.082998
 20
429.450517
 30
0.0
 11
327.082998
 21
424.950517
 31
0.0
  0
LINE
  8
LC-002-002-----0
  6
CONTINUOUS
  5
925
 10
414.011562
 20
509.950517
 30
0.0
 11
381.582998
 21
509.950517
 31
0.0
  0
LINE
  8
LC-002-002-----0
  6
CONTINUOUS
  5
926
 10
399.024873
 20
471.450517
 30
0.0
 11
403.550986
 21
434.950517
 31
0.0
  0
LINE
  8
LC-002-002-----0
  6
CONTINUOUS
  5
927
 10
397.177114
 20
471.450517
 30
0.0
 11
401.703227
 21
434.950517
 31
0.0
  0
LINE
  8
LC-002-002-----0
  6
CONTINUOUS
  5
928
 10
436.082998
 20
429.450517
 30
0.0
 11
436.082998
 21
434.950517
 31
0.0
  0
LINE
  8
LC-002-002-----0
  6
CONTINUOUS
  5
929
 10
413.566318
 20
505.950517
 30
0.0
 11
381.582998
 21
505.950517
 31
0.0
  0
ARC
  8
LC-004-002-RND-0
  6
CONTINUOUS
  5
92A
 10
414.011562
 20
496.950517
 30
0.0
 40
13.0
 50
15.0
 51
90.0
  0
LINE
  8
LC-002-002-----0
  6
CONTINUOUS
  5
92B
 10
439.582991
 20
430.950517
 30
0.0
 11
438.082991
 21
429.450517
 31
0.0
  0
LINE
  8
LC-002-002-----0
  6
CONTINUOUS
  5
92C
 10
438.582991
 20
431.950517
 30
0.0
 11
438.082998
 21
431.950517
 31
0.0
  0
LINE
  8
LC-002-002-----0
  6
CONTINUOUS
  5
92D
 10
325.082998
 20
424.950517
 30
0.0
 11
327.082998
 21
424.950517
 31
0.0
  0
LINE
  8
LC-002-002-----0
  6
CONTINUOUS
  5
92E
 10
438.082998
 20
434.950516
 30
0.0
 11
436.082998
 21
434.950517
 31
0.0
  0
LINE
  8
LC-002-002-----0
  6
CONTINUOUS
  5
92F
 10
438.082998
 20
434.950516
 30
0.0
 11
444.082998
 21
434.950533
 31
0.0
  0
LINE
  8
LC-002-002-----0
  6
CONTINUOUS
  5
930
 10
432.770655
 20
434.950517
 30
0.0
 11
421.843651
 21
471.450517
 31
0.0
  0
LINE
  8
LC-002-002-----0
  6
CONTINUOUS
  5
931
 10
410.75002
 20
505.950517
 30
0.0
 11
418.383954
 21
480.450517
 31
0.0
  0
LINE
  8
LC-002-002-----0
  6
CONTINUOUS
  5
932
 10
407.566667
 20
505.950517
 30
0.0
 11
414.122075
 21
480.450517
 31
0.0
  0
LINE
  8
LC-002-002-----0
  6
CONTINUOUS
  5
933
 10
406.349144
 20
505.950517
 30
0.0
 11
412.904552
 21
480.450517
 31
0.0
  0
LINE
  8
LC-002-002-----0
  6
CONTINUOUS
  5
934
 10
401.703227
 20
505.950517
 30
0.0
 11
406.785078
 21
480.450517
 31
0.0
  0
LINE
  8
LC-002-002-----0
  6
CONTINUOUS
  5
935
 10
400.260496
 20
505.950517
 30
0.0
 11
405.290637
 21
480.450517
 31
0.0
  0
LINE
  8
LC-002-002-----0
  6
CONTINUOUS
  5
936
 10
384.766351
 20
505.950517
 30
0.0
 11
385.844878
 21
480.450517
 31
0.0
  0
LINE
  8
LC-002-002-----0
  6
CONTINUOUS
  5
937
 10
389.752196
 20
434.950517
 30
0.0
 11
388.208424
 21
471.450517
 31
0.0
  0
LINE
  8
LC-002-002-----0
  6
CONTINUOUS
  5
938
 10
394.746766
 20
505.950517
 30
0.0
 11
397.908845
 21
480.450517
 31
0.0
  0
LINE
  8
LC-002-002-----0
  6
CONTINUOUS
  5
939
 10
392.899007
 20
505.950517
 30
0.0
 11
396.061086
 21
480.450517
 31
0.0
  0
LINE
  8
LC-002-002-----0
  6
CONTINUOUS
  5
93A
 10
420.690438
 20
480.450517
 30
0.0
 11
420.690438
 21
473.450517
 31
0.0
  0
LINE
  8
LC-002-002-----0
  6
CONTINUOUS
  5
93B
 10
422.690438
 20
471.450517
 30
0.0
 11
423.204833
 21
471.450517
 31
0.0
  0
LINE
  8
LC-002-002-----0
  6
CONTINUOUS
  5
93C
 10
426.568598
 20
500.315165
 30
0.0
 11
444.082998
 21
434.950533
 31
0.0
  0
LINE
  8
LC-002-002-----0
  6
CONTINUOUS
  5
93D
 10
419.149321
 20
480.450517
 30
0.0
 11
411.515387
 21
505.950517
 31
0.0
  0
ARC
  8
LC-004-002-RND-0
  6
CONTINUOUS
  5
93E
 10
422.690438
 20
473.450517
 30
0.0
 40
2.0
 50
180.0
 51
270.0
  0
LINE
  8
LC-002-002-----0
  6
CONTINUOUS
  5
93F
 10
325.082998
 20
431.950517
 30
0.0
 11
325.082998
 21
434.950516
 31
0.0
  0
LINE
  8
LC-002-002-----0
  6
CONTINUOUS
  5
940
 10
436.082998
 20
429.450517
 30
0.0
 11
436.082998
 21
424.950517
 31
0.0
  0
LINE
  8
LC-002-002-----0
  6
CONTINUOUS
  5
941
 10
438.082998
 20
429.450517
 30
0.0
 11
438.082998
 21
424.950517
 31
0.0
  0
LINE
  8
LC-002-002-----0
  6
CONTINUOUS
  5
942
 10
438.082998
 20
424.950517
 30
0.0
 11
436.082998
 21
424.950517
 31
0.0
  0
LINE
  8
LC-002-002-----0
  6
CONTINUOUS
  5
943
 10
327.082998
 20
429.450517
 30
0.0
 11
327.082998
 21
434.950517
 31
0.0
  0
LINE
  8
LC-002-002-----0
  6
CONTINUOUS
  5
944
 10
325.082998
 20
429.450517
 30
0.0
 11
325.082998
 21
424.950517
 31
0.0
  0
ARC
  8
LC-002-002-----0
  6
CONTINUOUS
  5
945
 10
438.582991
 20
430.950517
 30
0.0
 40
1.0
 50
0.0
 51
90.0
  0
LINE
  8
LC-002-002-----0
  6
CONTINUOUS
  5
946
 10
324.583005
 20
431.950517
 30
0.0
 11
325.082998
 21
431.950517
 31
0.0
  0
LINE
  8
LC-002-002-----0
  6
CONTINUOUS
  5
947
 10
325.082998
 20
434.950516
 30
0.0
 11
327.082998
 21
434.950517
 31
0.0
  0
LINE
  8
LC-002-002-----0
  6
CONTINUOUS
  5
948
 10
351.582998
 20
505.950517
 30
0.0
 11
349.599678
 21
505.950517
 31
0.0
  0
LINE
  8
LC-002-002-----0
  6
CONTINUOUS
  5
949
 10
420.690438
 20
480.450517
 30
0.0
 11
413.582998
 21
505.890813
 31
0.0
  0
LINE
  8
LC-002-002-----0
  6
CONTINUOUS
  5
94A
 10
420.690438
 20
480.450517
 30
0.0
 11
423.204833
 21
471.450517
 31
0.0
  0
LINE
  8
LC-002-002-----0
  6
CONTINUOUS
  5
94B
 10
342.475558
 20
480.450517
 30
0.0
 11
342.475558
 21
473.450517
 31
0.0
  0
LINE
  8
LC-002-002-----0
  6
CONTINUOUS
  5
94C
 10
340.475558
 20
471.450517
 30
0.0
 11
339.961163
 21
471.450517
 31
0.0
  0
ARC
  8
LC-004-002-RND-0
  6
CONTINUOUS
  5
94D
 10
340.475558
 20
473.450517
 30
0.0
 40
2.0
 50
270.0
 51
0.0
  0
LINE
  8
LC-002-002-----0
  6
CONTINUOUS
  5
94E
 10
342.475558
 20
480.450517
 30
0.0
 11
339.961163
 21
471.450517
 31
0.0
  0
LINE
  8
LC-002-002-----0
  6
CONTINUOUS
  5
94F
 10
344.016675
 20
480.450517
 30
0.0
 11
351.650609
 21
505.950517
 31
0.0
  0
ENDSEC
  0
EOF
