  0
SECTION
  2
HEADER
  9
$ACADVER
  1
AC1015
  9
$ACADMAINTVER
 70
     6
  9
$DWGCODEPAGE
  3
DOS850
  9
$INSBASE
 10
0.0
 20
0.0
 30
0.0
  9
$EXTMIN
 10
0.0
 20
0.0
 30
0.0
  9
$EXTMAX
 10
840.0
 20
594.0
 30
0.0
  9
$LIMMIN
 10
0.0
 20
0.0
  9
$LIMMAX
 10
840.0
 20
594.0
  9
$ORTHOMODE
 70
     0
  9
$REGENMODE
 70
     1
  9
$FILLMODE
 70
     1
  9
$QTEXTMODE
 70
     0
  9
$MIRRTEXT
 70
     1
  9
$LTSCALE
 40
2.0
  9
$ATTMODE
 70
     1
  9
$TEXTSIZE
 40
0.2
  9
$TRACEWID
 40
0.05
  9
$TEXTSTYLE
  7
Standard
  9
$CLAYER
  8
0
  9
$CELTYPE
  6
ByBlock
  9
$CECOLOR
 62
     7
  9
$CELTSCALE
 40
1.0
  9
$DISPSILH
 70
     0
  9
$DIMSCALE
 40
2.0
  9
$DIMASZ
 40
3.5
  9
$DIMEXO
 40
0.0625
  9
$DIMDLI
 40
0.38
  9
$DIMRND
 40
0.0
  9
$DIMDLE
 40
0.0
  9
$DIMEXE
 40
0.18
  9
$DIMTP
 40
0.0
  9
$DIMTM
 40
0.0
  9
$DIMTXT
 40
3.5
  9
$DIMCEN
 40
0.09
  9
$DIMTSZ
 40
0.0
  9
$DIMTOL
 70
     0
  9
$DIMLIM
 70
     0
  9
$DIMTIH
 70
     1
  9
$DIMTOH
 70
     1
  9
$DIMSE1
 70
     0
  9
$DIMSE2
 70
     0
  9
$DIMTAD
 70
     1
  9
$DIMZIN
 70
     0
  9
$DIMBLK
  1

  9
$DIMASO
 70
     1
  9
$DIMSHO
 70
     1
  9
$DIMPOST
  1

  9
$DIMAPOST
  1

  9
$DIMALT
 70
     0
  9
$DIMALTD
 70
     2
  9
$DIMALTF
 40
25.4
  9
$DIMLFAC
 40
1.0
  9
$DIMTOFL
 70
     0
  9
$DIMTVP
 40
0.0
  9
$DIMTIX
 70
     0
  9
$DIMSOXD
 70
     0
  9
$DIMSAH
 70
     0
  9
$DIMBLK1
  1

  9
$DIMBLK2
  1

  9
$DIMSTYLE
  2
Standard
  9
$DIMCLRD
 70
     0
  9
$DIMCLRE
 70
     0
  9
$DIMCLRT
 70
     0
  9
$DIMTFAC
 40
1.0
  9
$DIMGAP
 40
0.09
  9
$DIMJUST
 70
     0
  9
$DIMSD1
 70
     0
  9
$DIMSD2
 70
     0
  9
$DIMTOLJ
 70
     1
  9
$DIMTZIN
 70
     0
  9
$DIMALTZ
 70
     0
  9
$DIMALTTZ
 70
     0
  9
$DIMUPT
 70
     0
  9
$DIMDEC
 70
     4
  9
$DIMTDEC
 70
     4
  9
$DIMALTU
 70
     2
  9
$DIMALTTD
 70
     2
  9
$DIMTXSTY
  7
Standard
  9
$DIMAUNIT
 70
     0
  9
$DIMADEC
 70
     0
  9
$DIMALTRND
 40
0.0
  9
$DIMAZIN
 70
     0
  9
$DIMDSEP
 70
     0
  9
$DIMATFIT
 70
     3
  9
$DIMFRAC
 70
     0
  9
$DIMLDRBLK
  1

  9
$DIMLUNIT
 70
     2
  9
$DIMLWD
 70
     0
  9
$DIMLWE
 70
     0
  9
$DIMTMOVE
 70
     0
  9
$LUNITS
 70
     2
  9
$LUPREC
 70
     6
  9
$SKETCHINC
 40
0.1
  9
$FILLETRAD
 40
0.0
  9
$AUNITS
 70
     0
  9
$AUPREC
 70
     0
  9
$MENU
  1
acad
  9
$ELEVATION
 40
0.0
  9
$PELEVATION
 40
0.0
  9
$THICKNESS
 40
0.0
  9
$LIMCHECK
 70
     0
  9
$CHAMFERA
 40
0.0
  9
$CHAMFERB
 40
0.0
  9
$CHAMFERC
 40
0.0
  9
$CHAMFERD
 40
0.0
  9
$SKPOLY
 70
     0
  9
$TDCREATE
 40
0.000000000
  9
$TDUCREATE
 40
0.000000000
  9
$TDUPDATE
 40
0.000000000
  9
$TDUUPDATE
 40
0.000000000
  9
$TDINDWG
 40
0.0000000000
  9
$TDUSRTIMER
 40
0.0000000000
  9
$USRTIMER
 70
     1
  9
$ANGBASE
 50
0.0
  9
$ANGDIR
 70
     0
  9
$PDMODE
 70
     0
  9
$PDSIZE
 40
0.0
  9
$PLINEWID
 40
0.0
  9
$SPLFRAME
 70
     0
  9
$SPLINETYPE
 70
     6
  9
$SPLINESEGS
 70
     8
  9
$HANDSEED
  5
210
  9
$SURFTAB1
 70
     6
  9
$SURFTAB2
 70
     6
  9
$SURFTYPE
 70
     6
  9
$SURFU
 70
     6
  9
$SURFV
 70
     6
  9
$UCSBASE
  2

  9
$UCSNAME
  2

  9
$UCSORG
 10
0.0
 20
0.0
 30
0.0
  9
$UCSXDIR
 10
1.0
 20
0.0
 30
0.0
  9
$UCSYDIR
 10
0.0
 20
1.0
 30
0.0
  9
$UCSORTHOREF
  2

  9
$UCSORTHOVIEW
 70
     0
  9
$UCSORGTOP
 10
0.0
 20
0.0
 30
0.0
  9
$UCSORGBOTTOM
 10
0.0
 20
0.0
 30
0.0
  9
$UCSORGLEFT
 10
0.0
 20
0.0
 30
0.0
  9
$UCSORGRIGHT
 10
0.0
 20
0.0
 30
0.0
  9
$UCSORGFRONT
 10
0.0
 20
0.0
 30
0.0
  9
$UCSORGBACK
 10
0.0
 20
0.0
 30
0.0
  9
$PUCSBASE
  2

  9
$PUCSNAME
  2

  9
$PUCSORG
 10
0.0
 20
0.0
 30
0.0
  9
$PUCSXDIR
 10
1.0
 20
0.0
 30
0.0
  9
$PUCSYDIR
 10
0.0
 20
1.0
 30
0.0
  9
$PUCSORTHOREF
  2

  9
$PUCSORTHOVIEW
 70
     0
  9
$PUCSORGTOP
 10
0.0
 20
0.0
 30
0.0
  9
$PUCSORGBOTTOM
 10
0.0
 20
0.0
 30
0.0
  9
$PUCSORGLEFT
 10
0.0
 20
0.0
 30
0.0
  9
$PUCSORGRIGHT
 10
0.0
 20
0.0
 30
0.0
  9
$PUCSORGFRONT
 10
0.0
 20
0.0
 30
0.0
  9
$PUCSORGBACK
 10
0.0
 20
0.0
 30
0.0
  9
$USERI1
 70
     0
  9
$USERI2
 70
     0
  9
$USERI3
 70
     0
  9
$USERI4
 70
     0
  9
$USERI5
 70
     0
  9
$USERR1
 40
0.0
  9
$USERR2
 40
0.0
  9
$USERR3
 40
0.0
  9
$USERR4
 40
0.0
  9
$USERR5
 40
0.0
  9
$WORLDVIEW
 70
     1
  9
$SHADEDGE
 70
     3
  9
$SHADEDIF
 70
    70
  9
$TILEMODE
 70
     1
  9
$MAXACTVP
 70
    16
  9
$PINSBASE
 10
0.0
 20
0.0
 30
0.0
  9
$PLIMCHECK
 70
     0
  9
$PEXTMIN
 10
0.0
 20
0.0
 30
0.0
  9
$PEXTMAX
 10
840.0
 20
594.0
 30
0.0
  9
$PLIMMIN
 10
0.0
 20
0.0
  9
$PLIMMAX
 10
840.0
 20
594.0
  9
$UNITMODE
 70
     0
  9
$VISRETAIN
 70
     0
  9
$PLINEGEN
 70
     1
  9
$PSLTSCALE
 70
     0
  9
$TREEDEPTH
 70
  3020
  9
$CMLSTYLE
  2
Standard
  9
$CMLJUST
 70
     0
  9
$CMLSCALE
 40
1.0
  9
$PROXYGRAPHICS
 70
     0
  9
$MEASUREMENT
 70
     0
  9
$CELWEIGHT
370
     0
  9
$ENDCAPS
280
     0
  9
$JOINSTYLE
280
     0
  9
$LWDISPLAY
290
     0
  9
$INSUNITS
 70
     0
  9
$HYPERLINKBASE
  1

  9
$STYLESHEET
  1

  9
$XEDIT
290
     1
  9
$CEPSNTYPE
380
     0
  9
$PSTYLEMODE
290
     1
  9
$FINGERPRINTGUID
  2

  9
$VERSIONGUID
  2

  9
$EXTNAMES
290
     1
  9
$PSVPSCALE
 40
0.0
  0
ENDSEC
  0
SECTION
  2
CLASSES
  0
CLASS
  1
LWPOLYLINE
  2
AcDbPolyline
  3
AutoCAD 2000
 90
        0
280
     0
281
     1
  0
CLASS
  1
IMAGE
  2
AcDbRasterImage
  3
ISM
 90
      127
280
     0
281
     1
  0
CLASS
  1
OLE2FRAME
  2
AcDbOle2Frame
  3
AutoCAD 2000
 90
        0
280
     0
281
     1
  0
CLASS
  1
HATCH
  2
AcDbHatch
  3
AutoCAD 2000
 90
        0
280
     0
281
     1
  0
CLASS
  1
DICTIONARYVAR
  2
AcDbDictionaryVar
  3
AutoCAD 2000
 90
        0
280
     0
281
     0
  0
CLASS
  1
RASTERVARIABLES
  2
AcDbRasterVariables
  3
ISM
 90
        0
280
     0
281
     0
  0
CLASS
  1
IMAGEDEF
  2
AcDbRasterImageDef
  3
ISM
 90
        0
280
     0
281
     0
  0
CLASS
  1
IMAGEDEF_REACTOR
  2
AcDbRasterImageDefReactor
  3
ISM
 90
        1
280
     0
281
     0
  0
CLASS
  1
IDBUFFER
  2
AcDbIdBuffer
  3
AutoCAD 2000
 90
        0
280
     0
281
     0
  0
CLASS
  1
SPATIAL_FILTER
  2
AcDbSpatialFilter
  3
AutoCAD 2000
 90
        0
280
     0
281
     0
  0
CLASS
  1
XRECORD
  2
AcDbXrecord
  3
AutoCAD 2000
 90
        0
280
     0
281
     0
  0
CLASS
  1
SORTENTSTABLE
  2
AcDbSortentsTable
  3
AutoCAD 2000
 90
        0
280
     0
281
     0
  0
CLASS
  1
LAYER_INDEX
  2
AcDbLayerIndex
  3
AutoCAD 2000
 90
        0
280
     0
281
     0
  0
CLASS
  1
SPATIAL_INDEX
  2
AcDbSpatialIndex
  3
AutoCAD 2000
 90
        0
280
     0
281
     0
  0
CLASS
  1
OBJECT_PTR
  2
CAseDLPNTableRecord
  3
"ASE-LPNTableRecord"
 90
        1
280
     0
281
     0
  0
CLASS
  1
LAYOUT
  2
AcDbLayout
  3
AutoCAD 2000
 90
        0
280
     0
281
     0
  0
CLASS
  1
PLOTSETTINGS
  2
AcDbPlotSettings
  3
AutoCAD 2000
 90
        0
280
     0
281
     0
  0
CLASS
  1
ACDBDICTIONARYWDFLT
  2
AcDbDictionaryWithDefault
  3
AutoCAD 2000
 90
        0
280
     0
281
     0
  0
CLASS
  1
ACDBPLACEHOLDER
  2
AcDbPlaceHolder
  3
AutoCAD 2000
 90
        0
280
     0
281
     0
  0
ENDSEC
  0
SECTION
  2
TABLES
  0
TABLE
  2
VPORT
  5
7
100
AcDbSymbolTable
 70
     1
  0
VPORT
  5
15
100
AcDbSymbolTableRecord
100
AcDbViewportTableRecord
  2
*ACTIVE
 70
     0
 10
0.0
 20
0.0
 11
1.0
 21
1.0
 12
420.0
 22
297.0
 13
0.0
 23
0.0
 14
1.0
 24
1.0
 15
0.0
 25
0.0
 16
0.0
 26
0.0
 36
1.0
 17
0.0
 27
0.0
 37
0.0
 40
594.0
 41
1.604229
 42
50.0
 43
0.0
 44
0.0
 50
0.0
 51
0.0
 71
     0
 72
   100
 73
     1
 74
     1
 75
     0
 76
     0
 77
     0
 78
     0
281
     0
 65
     0
110
0.0
120
0.0
130
0.0
111
1.0
121
0.0
131
0.0
112
0.0
122
1.0
132
0.0
345
0
346
0
 79
     0
146
0.0
  0
ENDTAB
  0
TABLE
  2
LTYPE
  5
4
100
AcDbSymbolTable
 70
     5
  0
LTYPE
  5
11
100
AcDbSymbolTableRecord
100
AcDbLinetypeTableRecord
  2
ByBlock
 70
    64
  3

 72
    65
 73
     0
 40
0.0
  0
LTYPE
  5
12
100
AcDbSymbolTableRecord
100
AcDbLinetypeTableRecord
  2
ByLayer
 70
    64
  3

 72
    65
 73
     0
 40
0.0
  0
LTYPE
  5
13
100
AcDbSymbolTableRecord
100
AcDbLinetypeTableRecord
  2
Continuous
 70
    64
  3
Solid line
 72
    65
 73
     0
 40
0.0
  0
LTYPE
  5
23
100
AcDbSymbolTableRecord
100
AcDbLinetypeTableRecord
  2
DASHED
 70
    64
  3
__ __ __ __ __
 72
    65
 73
     2
 40
6.25
 49
5.0
 74
     0
 49
-1.25
 74
     0
  0
LTYPE
  5
2A
100
AcDbSymbolTableRecord
100
AcDbLinetypeTableRecord
  2
DASHDOT
 70
    64
  3
__ . __ . __ . __ . __
 72
    65
 73
     4
 40
7.5
 49
5.0
 74
     0
 49
-1.25
 74
     0
 49
0.0
 74
     0
 49
-1.25
 74
     0
  0
ENDTAB
  0
TABLE
  2
LAYER
  5
2
100
AcDbSymbolTable
 70
    11
  0
LAYER
  5
14
100
AcDbSymbolTableRecord
100
AcDbLayerTableRecord
  2
0
 70
     0
 62
     7
  6
Continuous
290
     1
370
    -3
390
1D
  0
LAYER
  5
24
100
AcDbSymbolTableRecord
100
AcDbLayerTableRecord
  2
LC-INFO-1-2-mm-A3-0
 70
     1
 62
   255
  6
ByBlock
290
     1
370
    -3
390
1D
  0
LAYER
  5
25
100
AcDbSymbolTableRecord
100
AcDbLayerTableRecord
  2
LC-3D-HIDDEN
 70
     0
 62
     9
  6
DASHED
290
     1
370
    -3
390
1D
  0
LAYER
  5
26
100
AcDbSymbolTableRecord
100
AcDbLayerTableRecord
  2
LC-CUT-HIDDEN
 70
     0
 62
     9
  6
DASHED
290
     1
370
    -3
390
1D
  0
LAYER
  5
27
100
AcDbSymbolTableRecord
100
AcDbLayerTableRecord
  2
LC-VIEWPORT
 70
     0
 62
     7
  6
ByBlock
290
     1
370
    -3
390
1D
  0
LAYER
  5
2B
100
AcDbSymbolTableRecord
100
AcDbLayerTableRecord
  2
LC-001-002-----0
 70
     0
 62
     2
  6
DASHDOT
290
     1
370
    -3
390
1D
  0
LAYER
  5
34
100
AcDbSymbolTableRecord
100
AcDbLayerTableRecord
  2
LC-002-003-MTH-0
 70
     0
 62
     2
  6
ByBlock
290
     1
370
    -3
390
1D
  0
LAYER
  5
37
100
AcDbSymbolTableRecord
100
AcDbLayerTableRecord
  2
LC-003-003-MTG-0
 70
     0
 62
     2
  6
ByBlock
290
     1
370
    -3
390
1D
  0
LAYER
  5
39
100
AcDbSymbolTableRecord
100
AcDbLayerTableRecord
  2
LC-004-003-----0
 70
     0
 62
     2
  6
ByBlock
290
     1
370
    -3
390
1D
  0
LAYER
  5
D0
100
AcDbSymbolTableRecord
100
AcDbLayerTableRecord
  2
LC-005-002-RND-0
 70
     0
 62
     1
  6
ByBlock
290
     1
370
    -3
390
1D
  0
LAYER
  5
D5
100
AcDbSymbolTableRecord
100
AcDbLayerTableRecord
  2
LC-006-005-----0
 70
     0
 62
     2
  6
ByBlock
290
     1
370
    -3
390
1D
  0
ENDTAB
  0
TABLE
  2
STYLE
  5
3
100
AcDbSymbolTable
 70
     3
  0
STYLE
  5
17
100
AcDbSymbolTableRecord
100
AcDbTextStyleTableRecord
  2
Standard
 70
     0
 40
0.0
 41
1.0
 50
0.0
 71
     0
 42
0.0
  3
txt
  4

  0
STYLE
  5
29
100
AcDbSymbolTableRecord
100
AcDbTextStyleTableRecord
  2
LCTX15-400-0-0-ARIAL
 70
    64
 40
3.5
 41
1.0
 50
0.0
 71
     0
 42
0.0
  3
Arial
  4

1001
ACAD
1000
Arial
1071
 16777216
  0
STYLE
  5
31
100
AcDbSymbolTableRecord
100
AcDbTextStyleTableRecord
  2
LCTX15-400-0-0-DIN-SCHRIFTP
 70
    64
 40
0.0
 41
1.0
 50
1.5
 71
     0
 42
3.5
  3
STANDARD
  4

  0
ENDTAB
  0
TABLE
  2
VIEW
  5
5
100
AcDbSymbolTable
 70
     0
  0
ENDTAB
  0
TABLE
  2
UCS
  5
6
100
AcDbSymbolTable
 70
     0
  0
ENDTAB
  0
TABLE
  2
APPID
  5
8
100
AcDbSymbolTable
 70
     1
  0
APPID
  5
16
100
AcDbSymbolTableRecord
100
AcDbRegAppTableRecord
  2
ACAD
 70
     0
  0
ENDTAB
  0
TABLE
  2
DIMSTYLE
  5
9
100
AcDbSymbolTable
 70
     3
100
AcDbDimStyleTable
 71
     0
  0
DIMSTYLE
105
18
100
AcDbSymbolTableRecord
100
AcDbDimStyleTableRecord
  2
Standard
 70
     0
  3

  4

 40
1.0
 41
0.18
 42
0.0625
 43
0.38
 44
0.18
 45
0.0
 46
0.0
 47
0.0
 48
0.0
 71
     0
 72
     0
 73
     1
 74
     1
 75
     0
 76
     0
 77
     0
 78
     0
 79
     0
140
0.18
141
0.09
142
0.0
143
25.4
144
1.0
145
0.0
146
1.0
147
0.09
148
0.0
170
     0
171
     2
172
     0
173
     0
174
     0
175
     0
176
     0
177
     0
178
     0
179
     0
271
     4
272
     4
273
     2
274
     2
275
     0
276
     0
277
     2
278
    46
279
     0
280
     0
281
     0
282
     0
283
     1
284
     0
285
     0
286
     0
288
     0
289
     0
340
17
341
0
342
0
343
0
344
0
371
    -2
372
    -2
  0
DIMSTYLE
105
30
100
AcDbSymbolTableRecord
100
AcDbDimStyleTableRecord
  2
LC-DIM-L-0140-01-02
 70
     0
  3

  4

 40
2.0
 41
3.5
 42
0.0
 43
7.5
 44
1.8
 45
0.0
 46
0.0
 47
0.0
 48
0.0
 71
     0
 72
     0
 73
     0
 74
     0
 75
     0
 76
     0
 77
     1
 78
     8
 79
     0
140
14.0
141
0.0
142
0.0
143
25.4
144
1.0
145
0.0
146
0.71
147
1.5
148
0.0
170
     0
171
     2
172
     0
173
     0
174
     0
175
     0
176
     2
177
     2
178
     2
179
     1
271
     1
272
     4
273
     2
274
     2
275
     0
276
     0
277
     2
278
    44
279
     0
280
     0
281
     0
282
     0
283
     1
284
     0
285
     0
286
     0
288
     0
289
     0
340
31
341
0
342
0
343
0
344
0
371
    -3
372
     0
  0
DIMSTYLE
105
1D7
100
AcDbSymbolTableRecord
100
AcDbDimStyleTableRecord
  2
LC-DIM-L-0140-02-02
 70
     0
  3

  4

 40
2.0
 41
3.5
 42
0.0
 43
7.5
 44
1.8
 45
0.0
 46
0.0
 47
0.0
 48
0.0
 71
     0
 72
     0
 73
     0
 74
     0
 75
     0
 76
     0
 77
     1
 78
     8
 79
     0
140
14.0
141
0.0
142
0.0
143
25.4
144
1.0
145
0.0
146
0.71
147
1.5
148
0.0
170
     0
171
     2
172
     0
173
     0
174
     0
175
     0
176
     2
177
     2
178
     2
179
     2
271
     2
272
     4
273
     2
274
     2
275
     0
276
     0
277
     2
278
    44
279
     0
280
     0
281
     0
282
     0
283
     1
284
     0
285
     0
286
     0
288
     0
289
     0
340
31
341
0
342
0
343
0
344
0
371
    -3
372
     0
  0
ENDTAB
  0
TABLE
  2
BLOCK_RECORD
  5
1
100
AcDbSymbolTable
 70
     6
  0
BLOCK_RECORD
  5
A
100
AcDbSymbolTableRecord
100
AcDbBlockTableRecord
  2
*MODEL_SPACE
340
20
  0
BLOCK_RECORD
  5
B
100
AcDbSymbolTableRecord
100
AcDbBlockTableRecord
  2
*PAPER_SPACE
340
21
  0
BLOCK_RECORD
  5
32
100
AcDbSymbolTableRecord
100
AcDbBlockTableRecord
  2
*D0
340
0
  0
BLOCK_RECORD
  5
4F
100
AcDbSymbolTableRecord
100
AcDbBlockTableRecord
  2
*D1
340
0
  0
BLOCK_RECORD
  5
D3
100
AcDbSymbolTableRecord
100
AcDbBlockTableRecord
  2
*X2
340
0
102
{BLKREFS
331
150
102
}
  0
BLOCK_RECORD
  5
152
100
AcDbSymbolTableRecord
100
AcDbBlockTableRecord
  2
*X3
340
0
102
{BLKREFS
331
1D6
102
}
  0
BLOCK_RECORD
  5
1D8
100
AcDbSymbolTableRecord
100
AcDbBlockTableRecord
  2
*D4
340
0
  0
BLOCK_RECORD
  5
1F3
100
AcDbSymbolTableRecord
100
AcDbBlockTableRecord
  2
*D5
340
0
  0
ENDTAB
  0
ENDSEC
  0
SECTION
  2
BLOCKS
  0
BLOCK
  5
D
100
AcDbEntity
  8
0
390
0
100
AcDbBlockBegin
  2
*MODEL_SPACE
 70
     0
 10
0.0
 20
0.0
 30
0.0
  3
*MODEL_SPACE
  1

  0
ENDBLK
  5
E
100
AcDbEntity
  8
0
390
0
100
AcDbBlockEnd
  0
BLOCK
  5
F
100
AcDbEntity
 67
     1
  8
0
390
0
100
AcDbBlockBegin
  2
*PAPER_SPACE
 70
     0
 10
0.0
 20
0.0
 30
0.0
  3
*PAPER_SPACE
  1

  0
ENDBLK
  5
10
100
AcDbEntity
 67
     1
  8
0
390
0
100
AcDbBlockEnd
  0
BLOCK
  5
33
100
AcDbEntity
  8
0
390
0
100
AcDbBlockBegin
  2
*D0
 70
    65
 10
0.0
 20
0.0
 30
0.0
  3
*D0
  1

  0
LINE
  5
35
100
AcDbEntity
  8
LC-002-003-MTH-0
370
    25
390
0
 62
     2
100
AcDbLine
 10
265.350952
 20
170.989222
 30
0.0
 11
352.8
 21
170.989222
 31
0.0
  0
LINE
  5
36
100
AcDbEntity
  8
LC-002-003-MTH-0
370
    25
390
0
 62
     2
100
AcDbLine
 10
306.425254
 20
370.989222
 30
0.0
 11
352.8
 21
370.989222
 31
0.0
  0
LINE
  5
38
100
AcDbEntity
  8
LC-003-003-MTG-0
370
    25
390
0
 62
     2
100
AcDbLine
 10
336.0
 20
170.989222
 30
0.0
 11
336.0
 21
370.989222
 31
0.0
  0
LINE
  5
3A
100
AcDbEntity
  8
LC-004-003-----0
370
    25
390
0
 62
     2
100
AcDbLine
 10
332.345267
 20
198.749678
 30
0.0
 11
336.0
 21
170.989222
 31
0.0
  0
LINE
  5
3B
100
AcDbEntity
  8
LC-004-003-----0
370
    25
390
0
 62
     2
100
AcDbLine
 10
336.0
 20
170.989222
 30
0.0
 11
339.654733
 21
198.749678
 31
0.0
  0
LINE
  5
3C
100
AcDbEntity
  8
LC-004-003-----0
370
    25
390
0
 62
     2
100
AcDbLine
 10
339.654733
 20
198.749678
 30
0.0
 11
332.345267
 21
198.749678
 31
0.0
  0
LINE
  5
3D
100
AcDbEntity
  8
LC-004-003-----0
370
    25
390
0
 62
     2
100
AcDbLine
 10
333.295497
 20
198.811959
 30
0.0
 11
336.0
 21
178.269222
 31
0.0
  0
LINE
  5
3E
100
AcDbEntity
  8
LC-004-003-----0
370
    25
390
0
 62
     2
100
AcDbLine
 10
336.0
 20
178.269222
 30
0.0
 11
338.704503
 21
198.811959
 31
0.0
  0
LINE
  5
3F
100
AcDbEntity
  8
LC-004-003-----0
370
    25
390
0
 62
     2
100
AcDbLine
 10
334.245728
 20
198.874241
 30
0.0
 11
336.0
 21
185.549222
 31
0.0
  0
LINE
  5
40
100
AcDbEntity
  8
LC-004-003-----0
370
    25
390
0
 62
     2
100
AcDbLine
 10
336.0
 20
185.549222
 30
0.0
 11
337.754272
 21
198.874241
 31
0.0
  0
LINE
  5
41
100
AcDbEntity
  8
LC-004-003-----0
370
    25
390
0
 62
     2
100
AcDbLine
 10
335.195959
 20
198.936522
 30
0.0
 11
336.0
 21
192.829222
 31
0.0
  0
LINE
  5
42
100
AcDbEntity
  8
LC-004-003-----0
370
    25
390
0
 62
     2
100
AcDbLine
 10
336.0
 20
192.829222
 30
0.0
 11
336.804041
 21
198.936522
 31
0.0
  0
LINE
  5
43
100
AcDbEntity
  8
LC-004-003-----0
370
    25
390
0
 62
     2
100
AcDbLine
 10
339.654733
 20
343.228766
 30
0.0
 11
336.0
 21
370.989222
 31
0.0
  0
LINE
  5
44
100
AcDbEntity
  8
LC-004-003-----0
370
    25
390
0
 62
     2
100
AcDbLine
 10
336.0
 20
370.989222
 30
0.0
 11
332.345267
 21
343.228766
 31
0.0
  0
LINE
  5
45
100
AcDbEntity
  8
LC-004-003-----0
370
    25
390
0
 62
     2
100
AcDbLine
 10
332.345267
 20
343.228766
 30
0.0
 11
339.654733
 21
343.228766
 31
0.0
  0
LINE
  5
46
100
AcDbEntity
  8
LC-004-003-----0
370
    25
390
0
 62
     2
100
AcDbLine
 10
338.704503
 20
343.166484
 30
0.0
 11
336.0
 21
363.709222
 31
0.0
  0
LINE
  5
47
100
AcDbEntity
  8
LC-004-003-----0
370
    25
390
0
 62
     2
100
AcDbLine
 10
336.0
 20
363.709222
 30
0.0
 11
333.295497
 21
343.166484
 31
0.0
  0
LINE
  5
48
100
AcDbEntity
  8
LC-004-003-----0
370
    25
390
0
 62
     2
100
AcDbLine
 10
337.754272
 20
343.104203
 30
0.0
 11
336.0
 21
356.429222
 31
0.0
  0
LINE
  5
49
100
AcDbEntity
  8
LC-004-003-----0
370
    25
390
0
 62
     2
100
AcDbLine
 10
336.0
 20
356.429222
 30
0.0
 11
334.245728
 21
343.104203
 31
0.0
  0
LINE
  5
4A
100
AcDbEntity
  8
LC-004-003-----0
370
    25
390
0
 62
     2
100
AcDbLine
 10
336.804041
 20
343.041921
 30
0.0
 11
336.0
 21
349.149222
 31
0.0
  0
LINE
  5
4B
100
AcDbEntity
  8
LC-004-003-----0
370
    25
390
0
 62
     2
100
AcDbLine
 10
336.0
 20
349.149222
 30
0.0
 11
335.195959
 21
343.041921
 31
0.0
  0
TEXT
  5
4C
100
AcDbEntity
  8
LC-004-003-----0
370
    -2
390
0
 62
     7
100
AcDbText
 10
328.172446
 20
248.709382
 30
0.0
 40
28.0
  1
200
 50
90.0
 41
0.9
 51
15.0
  7
LCTX15-400-0-0-ARIAL
 72
     1
 11
328.172446
 21
275.337382
 31
0.0
100
AcDbText
  0
ENDBLK
  5
4D
100
AcDbEntity
  8
0
390
0
100
AcDbBlockEnd
  0
BLOCK
  5
50
100
AcDbEntity
  8
0
390
0
100
AcDbBlockBegin
  2
*D1
 70
    65
 10
0.0
 20
0.0
 30
0.0
  3
*D1
  1

  0
LINE
  5
51
100
AcDbEntity
  8
LC-002-003-MTH-0
370
    25
390
0
 62
     2
100
AcDbLine
 10
191.556723
 20
175.489222
 30
0.0
 11
191.556723
 21
95.2
 31
0.0
  0
LINE
  5
52
100
AcDbEntity
  8
LC-002-003-MTH-0
370
    25
390
0
 62
     2
100
AcDbLine
 10
266.556723
 20
175.489222
 30
0.0
 11
266.556723
 21
95.2
 31
0.0
  0
LINE
  5
53
100
AcDbEntity
  8
LC-004-003-----0
370
    25
390
0
 62
     2
100
AcDbLine
 10
163.796267
 20
108.345267
 30
0.0
 11
191.556723
 21
112.0
 31
0.0
  0
LINE
  5
54
100
AcDbEntity
  8
LC-004-003-----0
370
    25
390
0
 62
     2
100
AcDbLine
 10
191.556723
 20
112.0
 30
0.0
 11
163.796267
 21
115.654733
 31
0.0
  0
LINE
  5
55
100
AcDbEntity
  8
LC-004-003-----0
370
    25
390
0
 62
     2
100
AcDbLine
 10
163.796267
 20
115.654733
 30
0.0
 11
163.796267
 21
108.345267
 31
0.0
  0
LINE
  5
56
100
AcDbEntity
  8
LC-004-003-----0
370
    25
390
0
 62
     2
100
AcDbLine
 10
163.733986
 20
109.295497
 30
0.0
 11
184.276723
 21
112.0
 31
0.0
  0
LINE
  5
57
100
AcDbEntity
  8
LC-004-003-----0
370
    25
390
0
 62
     2
100
AcDbLine
 10
184.276723
 20
112.0
 30
0.0
 11
163.733986
 21
114.704503
 31
0.0
  0
LINE
  5
58
100
AcDbEntity
  8
LC-004-003-----0
370
    25
390
0
 62
     2
100
AcDbLine
 10
163.671704
 20
110.245728
 30
0.0
 11
176.996723
 21
112.0
 31
0.0
  0
LINE
  5
59
100
AcDbEntity
  8
LC-004-003-----0
370
    25
390
0
 62
     2
100
AcDbLine
 10
176.996723
 20
112.0
 30
0.0
 11
163.671704
 21
113.754272
 31
0.0
  0
LINE
  5
5A
100
AcDbEntity
  8
LC-004-003-----0
370
    25
390
0
 62
     2
100
AcDbLine
 10
163.609423
 20
111.195959
 30
0.0
 11
169.716723
 21
112.0
 31
0.0
  0
LINE
  5
5B
100
AcDbEntity
  8
LC-004-003-----0
370
    25
390
0
 62
     2
100
AcDbLine
 10
169.716723
 20
112.0
 30
0.0
 11
163.609423
 21
112.804041
 31
0.0
  0
LINE
  5
5C
100
AcDbEntity
  8
LC-004-003-----0
370
    25
390
0
 62
     2
100
AcDbLine
 10
294.317179
 20
115.654733
 30
0.0
 11
266.556723
 21
112.0
 31
0.0
  0
LINE
  5
5D
100
AcDbEntity
  8
LC-004-003-----0
370
    25
390
0
 62
     2
100
AcDbLine
 10
266.556723
 20
112.0
 30
0.0
 11
294.317179
 21
108.345267
 31
0.0
  0
LINE
  5
5E
100
AcDbEntity
  8
LC-004-003-----0
370
    25
390
0
 62
     2
100
AcDbLine
 10
294.317179
 20
108.345267
 30
0.0
 11
294.317179
 21
115.654733
 31
0.0
  0
LINE
  5
5F
100
AcDbEntity
  8
LC-004-003-----0
370
    25
390
0
 62
     2
100
AcDbLine
 10
294.379461
 20
114.704503
 30
0.0
 11
273.836723
 21
112.0
 31
0.0
  0
LINE
  5
60
100
AcDbEntity
  8
LC-004-003-----0
370
    25
390
0
 62
     2
100
AcDbLine
 10
273.836723
 20
112.0
 30
0.0
 11
294.379461
 21
109.295497
 31
0.0
  0
LINE
  5
61
100
AcDbEntity
  8
LC-004-003-----0
370
    25
390
0
 62
     2
100
AcDbLine
 10
294.441742
 20
113.754272
 30
0.0
 11
281.116723
 21
112.0
 31
0.0
  0
LINE
  5
62
100
AcDbEntity
  8
LC-004-003-----0
370
    25
390
0
 62
     2
100
AcDbLine
 10
281.116723
 20
112.0
 30
0.0
 11
294.441742
 21
110.245728
 31
0.0
  0
LINE
  5
63
100
AcDbEntity
  8
LC-004-003-----0
370
    25
390
0
 62
     2
100
AcDbLine
 10
294.504024
 20
112.804041
 30
0.0
 11
288.396723
 21
112.0
 31
0.0
  0
LINE
  5
64
100
AcDbEntity
  8
LC-004-003-----0
370
    25
390
0
 62
     2
100
AcDbLine
 10
288.396723
 20
112.0
 30
0.0
 11
294.504024
 21
111.195959
 31
0.0
  0
LINE
  5
65
100
AcDbEntity
  8
LC-003-003-MTG-0
370
    25
390
0
 62
     2
100
AcDbLine
 10
152.356723
 20
112.0
 30
0.0
 11
377.324723
 21
112.0
 31
0.0
  0
TEXT
  5
66
100
AcDbEntity
  8
LC-004-003-----0
370
    -2
390
0
 62
     7
100
AcDbText
 10
310.104883
 20
119.827554
 30
0.0
 40
28.0
  1
%%c75
 41
0.9
 51
15.0
  7
LCTX15-400-0-0-ARIAL
100
AcDbText
  0
ENDBLK
  5
67
100
AcDbEntity
  8
0
390
0
100
AcDbBlockEnd
  0
BLOCK
  5
D4
100
AcDbEntity
  8
0
390
0
100
AcDbBlockBegin
  2
*X2
 70
    65
 10
0.0
 20
0.0
 30
0.0
  3
*X2
  1

  0
LINE
  5
D6
100
AcDbEntity
  8
LC-006-005-----0
370
    25
390
0
 62
     2
100
AcDbLine
 10
264.327317
 20
170.989222
 30
0.0
 11
265.725628
 21
172.387533
 31
0.0
  0
LINE
  5
D7
100
AcDbEntity
  8
LC-006-005-----0
370
    25
390
0
 62
     2
100
AcDbLine
 10
263.556723
 20
173.047055
 30
0.0
 11
266.556723
 21
176.047055
 31
0.0
  0
LINE
  5
D8
100
AcDbEntity
  8
LC-006-005-----0
370
    25
390
0
 62
     2
100
AcDbLine
 10
263.556723
 20
175.875482
 30
0.0
 11
266.556723
 21
178.875482
 31
0.0
  0
LINE
  5
D9
100
AcDbEntity
  8
LC-006-005-----0
370
    25
390
0
 62
     2
100
AcDbLine
 10
263.556723
 20
178.70391
 30
0.0
 11
266.556723
 21
181.70391
 31
0.0
  0
LINE
  5
DA
100
AcDbEntity
  8
LC-006-005-----0
370
    25
390
0
 62
     2
100
AcDbLine
 10
263.556723
 20
181.532337
 30
0.0
 11
266.556723
 21
184.532337
 31
0.0
  0
LINE
  5
DB
100
AcDbEntity
  8
LC-006-005-----0
370
    25
390
0
 62
     2
100
AcDbLine
 10
263.556723
 20
184.360764
 30
0.0
 11
266.556723
 21
187.360764
 31
0.0
  0
LINE
  5
DC
100
AcDbEntity
  8
LC-006-005-----0
370
    25
390
0
 62
     2
100
AcDbLine
 10
263.556723
 20
187.189191
 30
0.0
 11
266.556723
 21
190.189191
 31
0.0
  0
LINE
  5
DD
100
AcDbEntity
  8
LC-006-005-----0
370
    25
390
0
 62
     2
100
AcDbLine
 10
263.556723
 20
190.017618
 30
0.0
 11
266.556723
 21
193.017618
 31
0.0
  0
LINE
  5
DE
100
AcDbEntity
  8
LC-006-005-----0
370
    25
390
0
 62
     2
100
AcDbLine
 10
263.556723
 20
192.846045
 30
0.0
 11
266.556723
 21
195.846045
 31
0.0
  0
LINE
  5
DF
100
AcDbEntity
  8
LC-006-005-----0
370
    25
390
0
 62
     2
100
AcDbLine
 10
263.556723
 20
195.674472
 30
0.0
 11
266.556723
 21
198.674472
 31
0.0
  0
LINE
  5
E0
100
AcDbEntity
  8
LC-006-005-----0
370
    25
390
0
 62
     2
100
AcDbLine
 10
263.556723
 20
198.502899
 30
0.0
 11
266.556723
 21
201.502899
 31
0.0
  0
LINE
  5
E1
100
AcDbEntity
  8
LC-006-005-----0
370
    25
390
0
 62
     2
100
AcDbLine
 10
263.556723
 20
201.331327
 30
0.0
 11
266.556723
 21
204.331327
 31
0.0
  0
LINE
  5
E2
100
AcDbEntity
  8
LC-006-005-----0
370
    25
390
0
 62
     2
100
AcDbLine
 10
263.556723
 20
204.159754
 30
0.0
 11
266.556723
 21
207.159754
 31
0.0
  0
LINE
  5
E3
100
AcDbEntity
  8
LC-006-005-----0
370
    25
390
0
 62
     2
100
AcDbLine
 10
263.556723
 20
206.988181
 30
0.0
 11
266.556723
 21
209.988181
 31
0.0
  0
LINE
  5
E4
100
AcDbEntity
  8
LC-006-005-----0
370
    25
390
0
 62
     2
100
AcDbLine
 10
263.556723
 20
209.816608
 30
0.0
 11
266.556723
 21
212.816608
 31
0.0
  0
LINE
  5
E5
100
AcDbEntity
  8
LC-006-005-----0
370
    25
390
0
 62
     2
100
AcDbLine
 10
263.556723
 20
212.645035
 30
0.0
 11
266.556723
 21
215.645035
 31
0.0
  0
LINE
  5
E6
100
AcDbEntity
  8
LC-006-005-----0
370
    25
390
0
 62
     2
100
AcDbLine
 10
263.556723
 20
215.473462
 30
0.0
 11
266.556723
 21
218.473462
 31
0.0
  0
LINE
  5
E7
100
AcDbEntity
  8
LC-006-005-----0
370
    25
390
0
 62
     2
100
AcDbLine
 10
263.556723
 20
218.301889
 30
0.0
 11
266.556723
 21
221.301889
 31
0.0
  0
LINE
  5
E8
100
AcDbEntity
  8
LC-006-005-----0
370
    25
390
0
 62
     2
100
AcDbLine
 10
263.556723
 20
221.130316
 30
0.0
 11
266.556723
 21
224.130316
 31
0.0
  0
LINE
  5
E9
100
AcDbEntity
  8
LC-006-005-----0
370
    25
390
0
 62
     2
100
AcDbLine
 10
263.556723
 20
223.958744
 30
0.0
 11
266.556723
 21
226.958744
 31
0.0
  0
LINE
  5
EA
100
AcDbEntity
  8
LC-006-005-----0
370
    25
390
0
 62
     2
100
AcDbLine
 10
263.556723
 20
226.787171
 30
0.0
 11
266.556723
 21
229.787171
 31
0.0
  0
LINE
  5
EB
100
AcDbEntity
  8
LC-006-005-----0
370
    25
390
0
 62
     2
100
AcDbLine
 10
263.556723
 20
229.615598
 30
0.0
 11
266.556723
 21
232.615598
 31
0.0
  0
LINE
  5
EC
100
AcDbEntity
  8
LC-006-005-----0
370
    25
390
0
 62
     2
100
AcDbLine
 10
263.556723
 20
232.444025
 30
0.0
 11
266.556723
 21
235.444025
 31
0.0
  0
LINE
  5
ED
100
AcDbEntity
  8
LC-006-005-----0
370
    25
390
0
 62
     2
100
AcDbLine
 10
263.556723
 20
235.272452
 30
0.0
 11
266.556723
 21
238.272452
 31
0.0
  0
LINE
  5
EE
100
AcDbEntity
  8
LC-006-005-----0
370
    25
390
0
 62
     2
100
AcDbLine
 10
263.556723
 20
238.100879
 30
0.0
 11
266.556723
 21
241.100879
 31
0.0
  0
LINE
  5
EF
100
AcDbEntity
  8
LC-006-005-----0
370
    25
390
0
 62
     2
100
AcDbLine
 10
263.556723
 20
240.929306
 30
0.0
 11
266.556723
 21
243.929306
 31
0.0
  0
LINE
  5
F0
100
AcDbEntity
  8
LC-006-005-----0
370
    25
390
0
 62
     2
100
AcDbLine
 10
263.556723
 20
243.757733
 30
0.0
 11
266.556723
 21
246.757733
 31
0.0
  0
LINE
  5
F1
100
AcDbEntity
  8
LC-006-005-----0
370
    25
390
0
 62
     2
100
AcDbLine
 10
263.556723
 20
246.586161
 30
0.0
 11
266.556723
 21
249.586161
 31
0.0
  0
LINE
  5
F2
100
AcDbEntity
  8
LC-006-005-----0
370
    25
390
0
 62
     2
100
AcDbLine
 10
263.556723
 20
249.414588
 30
0.0
 11
266.556723
 21
252.414588
 31
0.0
  0
LINE
  5
F3
100
AcDbEntity
  8
LC-006-005-----0
370
    25
390
0
 62
     2
100
AcDbLine
 10
263.556723
 20
252.243015
 30
0.0
 11
266.556723
 21
255.243015
 31
0.0
  0
LINE
  5
F4
100
AcDbEntity
  8
LC-006-005-----0
370
    25
390
0
 62
     2
100
AcDbLine
 10
263.556723
 20
255.071442
 30
0.0
 11
266.556723
 21
258.071442
 31
0.0
  0
LINE
  5
F5
100
AcDbEntity
  8
LC-006-005-----0
370
    25
390
0
 62
     2
100
AcDbLine
 10
263.556723
 20
257.899869
 30
0.0
 11
266.556723
 21
260.899869
 31
0.0
  0
LINE
  5
F6
100
AcDbEntity
  8
LC-006-005-----0
370
    25
390
0
 62
     2
100
AcDbLine
 10
263.556723
 20
260.728296
 30
0.0
 11
266.556723
 21
263.728296
 31
0.0
  0
LINE
  5
F7
100
AcDbEntity
  8
LC-006-005-----0
370
    25
390
0
 62
     2
100
AcDbLine
 10
263.556723
 20
263.556723
 30
0.0
 11
266.556723
 21
266.556723
 31
0.0
  0
LINE
  5
F8
100
AcDbEntity
  8
LC-006-005-----0
370
    25
390
0
 62
     2
100
AcDbLine
 10
263.556723
 20
266.38515
 30
0.0
 11
266.556723
 21
269.38515
 31
0.0
  0
LINE
  5
F9
100
AcDbEntity
  8
LC-006-005-----0
370
    25
390
0
 62
     2
100
AcDbLine
 10
263.556723
 20
269.213578
 30
0.0
 11
266.556723
 21
272.213578
 31
0.0
  0
LINE
  5
FA
100
AcDbEntity
  8
LC-006-005-----0
370
    25
390
0
 62
     2
100
AcDbLine
 10
381.725954
 20
387.382808
 30
0.0
 11
383.033012
 21
388.689866
 31
0.0
  0
LINE
  5
FB
100
AcDbEntity
  8
LC-006-005-----0
370
    25
390
0
 62
     2
100
AcDbLine
 10
263.556723
 20
272.042005
 30
0.0
 11
266.556723
 21
275.042005
 31
0.0
  0
LINE
  5
FC
100
AcDbEntity
  8
LC-006-005-----0
370
    25
390
0
 62
     2
100
AcDbLine
 10
378.897527
 20
387.382808
 30
0.0
 11
381.767112
 21
390.252393
 31
0.0
  0
LINE
  5
FD
100
AcDbEntity
  8
LC-006-005-----0
370
    25
390
0
 62
     2
100
AcDbLine
 10
263.556723
 20
274.870432
 30
0.0
 11
266.556723
 21
277.870432
 31
0.0
  0
LINE
  5
FE
100
AcDbEntity
  8
LC-006-005-----0
370
    25
390
0
 62
     2
100
AcDbLine
 10
376.0691
 20
387.382808
 30
0.0
 11
379.0691
 21
390.382808
 31
0.0
  0
LINE
  5
FF
100
AcDbEntity
  8
LC-006-005-----0
370
    25
390
0
 62
     2
100
AcDbLine
 10
263.556723
 20
277.698859
 30
0.0
 11
266.556723
 21
280.698859
 31
0.0
  0
LINE
  5
100
100
AcDbEntity
  8
LC-006-005-----0
370
    25
390
0
 62
     2
100
AcDbLine
 10
373.240672
 20
387.382808
 30
0.0
 11
376.240672
 21
390.382808
 31
0.0
  0
LINE
  5
101
100
AcDbEntity
  8
LC-006-005-----0
370
    25
390
0
 62
     2
100
AcDbLine
 10
263.556723
 20
280.527286
 30
0.0
 11
266.556723
 21
283.527286
 31
0.0
  0
LINE
  5
102
100
AcDbEntity
  8
LC-006-005-----0
370
    25
390
0
 62
     2
100
AcDbLine
 10
370.412245
 20
387.382808
 30
0.0
 11
373.412245
 21
390.382808
 31
0.0
  0
LINE
  5
103
100
AcDbEntity
  8
LC-006-005-----0
370
    25
390
0
 62
     2
100
AcDbLine
 10
263.556723
 20
283.355713
 30
0.0
 11
266.556723
 21
286.355713
 31
0.0
  0
LINE
  5
104
100
AcDbEntity
  8
LC-006-005-----0
370
    25
390
0
 62
     2
100
AcDbLine
 10
367.583818
 20
387.382808
 30
0.0
 11
370.583818
 21
390.382808
 31
0.0
  0
LINE
  5
105
100
AcDbEntity
  8
LC-006-005-----0
370
    25
390
0
 62
     2
100
AcDbLine
 10
263.556723
 20
286.18414
 30
0.0
 11
266.556723
 21
289.18414
 31
0.0
  0
LINE
  5
106
100
AcDbEntity
  8
LC-006-005-----0
370
    25
390
0
 62
     2
100
AcDbLine
 10
364.755391
 20
387.382808
 30
0.0
 11
367.755391
 21
390.382808
 31
0.0
  0
LINE
  5
107
100
AcDbEntity
  8
LC-006-005-----0
370
    25
390
0
 62
     2
100
AcDbLine
 10
263.556723
 20
289.012567
 30
0.0
 11
266.556723
 21
292.012567
 31
0.0
  0
LINE
  5
108
100
AcDbEntity
  8
LC-006-005-----0
370
    25
390
0
 62
     2
100
AcDbLine
 10
361.926964
 20
387.382808
 30
0.0
 11
364.926964
 21
390.382808
 31
0.0
  0
LINE
  5
109
100
AcDbEntity
  8
LC-006-005-----0
370
    25
390
0
 62
     2
100
AcDbLine
 10
263.556723
 20
291.840995
 30
0.0
 11
266.556723
 21
294.840995
 31
0.0
  0
LINE
  5
10A
100
AcDbEntity
  8
LC-006-005-----0
370
    25
390
0
 62
     2
100
AcDbLine
 10
359.098537
 20
387.382808
 30
0.0
 11
362.098537
 21
390.382808
 31
0.0
  0
LINE
  5
10B
100
AcDbEntity
  8
LC-006-005-----0
370
    25
390
0
 62
     2
100
AcDbLine
 10
263.556723
 20
294.669422
 30
0.0
 11
266.556723
 21
297.669422
 31
0.0
  0
LINE
  5
10C
100
AcDbEntity
  8
LC-006-005-----0
370
    25
390
0
 62
     2
100
AcDbLine
 10
356.27011
 20
387.382808
 30
0.0
 11
359.27011
 21
390.382808
 31
0.0
  0
LINE
  5
10D
100
AcDbEntity
  8
LC-006-005-----0
370
    25
390
0
 62
     2
100
AcDbLine
 10
263.556723
 20
297.497849
 30
0.0
 11
266.556723
 21
300.497849
 31
0.0
  0
LINE
  5
10E
100
AcDbEntity
  8
LC-006-005-----0
370
    25
390
0
 62
     2
100
AcDbLine
 10
353.441683
 20
387.382808
 30
0.0
 11
356.441683
 21
390.382808
 31
0.0
  0
LINE
  5
10F
100
AcDbEntity
  8
LC-006-005-----0
370
    25
390
0
 62
     2
100
AcDbLine
 10
263.556723
 20
300.326276
 30
0.0
 11
266.556723
 21
303.326276
 31
0.0
  0
LINE
  5
110
100
AcDbEntity
  8
LC-006-005-----0
370
    25
390
0
 62
     2
100
AcDbLine
 10
350.613255
 20
387.382808
 30
0.0
 11
353.613255
 21
390.382808
 31
0.0
  0
LINE
  5
111
100
AcDbEntity
  8
LC-006-005-----0
370
    25
390
0
 62
     2
100
AcDbLine
 10
263.556723
 20
303.154703
 30
0.0
 11
266.556723
 21
306.154703
 31
0.0
  0
LINE
  5
112
100
AcDbEntity
  8
LC-006-005-----0
370
    25
390
0
 62
     2
100
AcDbLine
 10
347.784828
 20
387.382808
 30
0.0
 11
350.784828
 21
390.382808
 31
0.0
  0
LINE
  5
113
100
AcDbEntity
  8
LC-006-005-----0
370
    25
390
0
 62
     2
100
AcDbLine
 10
263.556723
 20
305.98313
 30
0.0
 11
266.556723
 21
308.98313
 31
0.0
  0
LINE
  5
114
100
AcDbEntity
  8
LC-006-005-----0
370
    25
390
0
 62
     2
100
AcDbLine
 10
344.956401
 20
387.382808
 30
0.0
 11
347.956401
 21
390.382808
 31
0.0
  0
LINE
  5
115
100
AcDbEntity
  8
LC-006-005-----0
370
    25
390
0
 62
     2
100
AcDbLine
 10
263.556723
 20
308.811557
 30
0.0
 11
266.556723
 21
311.811557
 31
0.0
  0
LINE
  5
116
100
AcDbEntity
  8
LC-006-005-----0
370
    25
390
0
 62
     2
100
AcDbLine
 10
342.127974
 20
387.382808
 30
0.0
 11
345.127974
 21
390.382808
 31
0.0
  0
LINE
  5
117
100
AcDbEntity
  8
LC-006-005-----0
370
    25
390
0
 62
     2
100
AcDbLine
 10
263.556723
 20
311.639984
 30
0.0
 11
266.556723
 21
314.639984
 31
0.0
  0
LINE
  5
118
100
AcDbEntity
  8
LC-006-005-----0
370
    25
390
0
 62
     2
100
AcDbLine
 10
339.299547
 20
387.382808
 30
0.0
 11
342.299547
 21
390.382808
 31
0.0
  0
LINE
  5
119
100
AcDbEntity
  8
LC-006-005-----0
370
    25
390
0
 62
     2
100
AcDbLine
 10
263.556723
 20
314.468412
 30
0.0
 11
266.556723
 21
317.468412
 31
0.0
  0
LINE
  5
11A
100
AcDbEntity
  8
LC-006-005-----0
370
    25
390
0
 62
     2
100
AcDbLine
 10
336.47112
 20
387.382808
 30
0.0
 11
339.442956
 21
390.354644
 31
0.0
  0
LINE
  5
11B
100
AcDbEntity
  8
LC-006-005-----0
370
    25
390
0
 62
     2
100
AcDbLine
 10
263.556723
 20
317.296839
 30
0.0
 11
266.556723
 21
320.296839
 31
0.0
  0
LINE
  5
11C
100
AcDbEntity
  8
LC-006-005-----0
370
    25
390
0
 62
     2
100
AcDbLine
 10
332.820473
 20
386.560588
 30
0.0
 11
336.564289
 21
390.304404
 31
0.0
  0
LINE
  5
11D
100
AcDbEntity
  8
LC-006-005-----0
370
    25
390
0
 62
     2
100
AcDbLine
 10
263.556723
 20
320.125266
 30
0.0
 11
266.556723
 21
323.125266
 31
0.0
  0
LINE
  5
11E
100
AcDbEntity
  8
LC-006-005-----0
370
    25
390
0
 62
     2
100
AcDbLine
 10
329.121081
 20
385.689623
 30
0.0
 11
333.152159
 21
389.720702
 31
0.0
  0
LINE
  5
11F
100
AcDbEntity
  8
LC-006-005-----0
370
    25
390
0
 62
     2
100
AcDbLine
 10
263.556723
 20
322.953693
 30
0.0
 11
266.556723
 21
325.953693
 31
0.0
  0
LINE
  5
120
100
AcDbEntity
  8
LC-006-005-----0
370
    25
390
0
 62
     2
100
AcDbLine
 10
325.421688
 20
384.818658
 30
0.0
 11
329.452767
 21
388.849736
 31
0.0
  0
LINE
  5
121
100
AcDbEntity
  8
LC-006-005-----0
370
    25
390
0
 62
     2
100
AcDbLine
 10
263.556723
 20
325.78212
 30
0.0
 11
266.556723
 21
328.78212
 31
0.0
  0
LINE
  5
122
100
AcDbEntity
  8
LC-006-005-----0
370
    25
390
0
 62
     2
100
AcDbLine
 10
321.722295
 20
383.947692
 30
0.0
 11
325.753374
 21
387.978771
 31
0.0
  0
LINE
  5
123
100
AcDbEntity
  8
LC-006-005-----0
370
    25
390
0
 62
     2
100
AcDbLine
 10
263.556723
 20
328.610547
 30
0.0
 11
266.556723
 21
331.610547
 31
0.0
  0
LINE
  5
124
100
AcDbEntity
  8
LC-006-005-----0
370
    25
390
0
 62
     2
100
AcDbLine
 10
305.935398
 20
370.989222
 30
0.0
 11
306.425254
 21
371.479078
 31
0.0
  0
LINE
  5
125
100
AcDbEntity
  8
LC-006-005-----0
370
    25
390
0
 62
     2
100
AcDbLine
 10
318.022903
 20
383.076727
 30
0.0
 11
322.053982
 21
387.107806
 31
0.0
  0
LINE
  5
126
100
AcDbEntity
  8
LC-006-005-----0
370
    25
390
0
 62
     2
100
AcDbLine
 10
263.556723
 20
331.438974
 30
0.0
 11
266.556723
 21
334.438974
 31
0.0
  0
LINE
  5
127
100
AcDbEntity
  8
LC-006-005-----0
370
    25
390
0
 62
     2
100
AcDbLine
 10
303.053528
 20
370.935779
 30
0.0
 11
306.425254
 21
374.307505
 31
0.0
  0
LINE
  5
128
100
AcDbEntity
  8
LC-006-005-----0
370
    25
390
0
 62
     2
100
AcDbLine
 10
311.470157
 20
379.352408
 30
0.0
 11
318.354589
 21
386.23684
 31
0.0
  0
LINE
  5
129
100
AcDbEntity
  8
LC-006-005-----0
370
    25
390
0
 62
     2
100
AcDbLine
 10
263.556723
 20
334.267401
 30
0.0
 11
266.556723
 21
337.267401
 31
0.0
  0
LINE
  5
12A
100
AcDbEntity
  8
LC-006-005-----0
370
    25
390
0
 62
     2
100
AcDbLine
 10
299.29023
 20
370.000908
 30
0.0
 11
301.006027
 21
371.716705
 31
0.0
  0
LINE
  5
12B
100
AcDbEntity
  8
LC-006-005-----0
370
    25
390
0
 62
     2
100
AcDbLine
 10
301.356723
 20
372.067401
 30
0.0
 11
306.425254
 21
377.135933
 31
0.0
  0
LINE
  5
12C
100
AcDbEntity
  8
LC-006-005-----0
370
    25
390
0
 62
     2
100
AcDbLine
 10
308.64173
 20
379.352408
 30
0.0
 11
311.18673
 21
381.897408
 31
0.0
  0
LINE
  5
12D
100
AcDbEntity
  8
LC-006-005-----0
370
    25
390
0
 62
     2
100
AcDbLine
 10
311.601254
 20
382.311933
 30
0.0
 11
314.74973
 21
385.460408
 31
0.0
  0
LINE
  5
12E
100
AcDbEntity
  8
LC-006-005-----0
370
    25
390
0
 62
     2
100
AcDbLine
 10
263.556723
 20
337.095829
 30
0.0
 11
266.556723
 21
340.095829
 31
0.0
  0
LINE
  5
12F
100
AcDbEntity
  8
LC-006-005-----0
370
    25
390
0
 62
     2
100
AcDbLine
 10
296.679073
 20
370.218178
 30
0.0
 11
298.1776
 21
371.716705
 31
0.0
  0
LINE
  5
130
100
AcDbEntity
  8
LC-006-005-----0
370
    25
390
0
 62
     2
100
AcDbLine
 10
301.356723
 20
374.895829
 30
0.0
 11
308.358303
 21
381.897408
 31
0.0
  0
LINE
  5
131
100
AcDbEntity
  8
LC-006-005-----0
370
    25
390
0
 62
     2
100
AcDbLine
 10
311.601254
 20
385.14036
 30
0.0
 11
311.921303
 21
385.460408
 31
0.0
  0
LINE
  5
132
100
AcDbEntity
  8
LC-006-005-----0
370
    25
390
0
 62
     2
100
AcDbLine
 10
263.556723
 20
339.924256
 30
0.0
 11
266.556723
 21
342.924256
 31
0.0
  0
LINE
  5
133
100
AcDbEntity
  8
LC-006-005-----0
370
    25
390
0
 62
     2
100
AcDbLine
 10
294.565589
 20
370.933121
 30
0.0
 11
296.256723
 21
372.624256
 31
0.0
  0
LINE
  5
134
100
AcDbEntity
  8
LC-006-005-----0
370
    25
390
0
 62
     2
100
AcDbLine
 10
301.356723
 20
377.724256
 30
0.0
 11
305.529876
 21
381.897408
 31
0.0
  0
LINE
  5
135
100
AcDbEntity
  8
LC-006-005-----0
370
    25
390
0
 62
     2
100
AcDbLine
 10
263.556723
 20
342.752683
 30
0.0
 11
266.556723
 21
345.752683
 31
0.0
  0
LINE
  5
136
100
AcDbEntity
  8
LC-006-005-----0
370
    25
390
0
 62
     2
100
AcDbLine
 10
291.796346
 20
370.992306
 30
0.0
 11
296.256723
 21
375.452683
 31
0.0
  0
LINE
  5
137
100
AcDbEntity
  8
LC-006-005-----0
370
    25
390
0
 62
     2
100
AcDbLine
 10
301.356723
 20
380.552683
 30
0.0
 11
304.774723
 21
383.970683
 31
0.0
  0
LINE
  5
138
100
AcDbEntity
  8
LC-006-005-----0
370
    25
390
0
 62
     2
100
AcDbLine
 10
263.556723
 20
345.58111
 30
0.0
 11
266.556723
 21
348.58111
 31
0.0
  0
LINE
  5
139
100
AcDbEntity
  8
LC-006-005-----0
370
    25
390
0
 62
     2
100
AcDbLine
 10
288.967919
 20
370.992306
 30
0.0
 11
296.256723
 21
378.28111
 31
0.0
  0
LINE
  5
13A
100
AcDbEntity
  8
LC-006-005-----0
370
    25
390
0
 62
     2
100
AcDbLine
 10
301.356723
 20
383.38111
 30
0.0
 11
303.436021
 21
385.460408
 31
0.0
  0
LINE
  5
13B
100
AcDbEntity
  8
LC-006-005-----0
370
    25
390
0
 62
     2
100
AcDbLine
 10
263.556723
 20
348.409537
 30
0.0
 11
266.556723
 21
351.409537
 31
0.0
  0
LINE
  5
13C
100
AcDbEntity
  8
LC-006-005-----0
370
    25
390
0
 62
     2
100
AcDbLine
 10
286.139492
 20
370.992306
 30
0.0
 11
296.256723
 21
381.109537
 31
0.0
  0
LINE
  5
13D
100
AcDbEntity
  8
LC-006-005-----0
370
    25
390
0
 62
     2
100
AcDbLine
 10
263.556723
 20
351.237964
 30
0.0
 11
266.556723
 21
354.237964
 31
0.0
  0
LINE
  5
13E
100
AcDbEntity
  8
LC-006-005-----0
370
    25
390
0
 62
     2
100
AcDbLine
 10
283.311065
 20
370.992306
 30
0.0
 11
286.311065
 21
373.992306
 31
0.0
  0
LINE
  5
13F
100
AcDbEntity
  8
LC-006-005-----0
370
    25
390
0
 62
     2
100
AcDbLine
 10
288.806837
 20
376.488078
 30
0.0
 11
296.256723
 21
383.937964
 31
0.0
  0
LINE
  5
140
100
AcDbEntity
  8
LC-006-005-----0
370
    25
390
0
 62
     2
100
AcDbLine
 10
263.556723
 20
354.066391
 30
0.0
 11
266.556723
 21
357.066391
 31
0.0
  0
LINE
  5
141
100
AcDbEntity
  8
LC-006-005-----0
370
    25
390
0
 62
     2
100
AcDbLine
 10
280.472864
 20
370.982532
 30
0.0
 11
283.482638
 21
373.992306
 31
0.0
  0
LINE
  5
142
100
AcDbEntity
  8
LC-006-005-----0
370
    25
390
0
 62
     2
100
AcDbLine
 10
288.806837
 20
379.316505
 30
0.0
 11
294.95074
 21
385.460408
 31
0.0
  0
LINE
  5
143
100
AcDbEntity
  8
LC-006-005-----0
370
    25
390
0
 62
     2
100
AcDbLine
 10
263.556723
 20
356.894818
 30
0.0
 11
266.556723
 21
359.894818
 31
0.0
  0
LINE
  5
144
100
AcDbEntity
  8
LC-006-005-----0
370
    25
390
0
 62
     2
100
AcDbLine
 10
277.56838
 20
370.906476
 30
0.0
 11
280.650107
 21
373.988202
 31
0.0
  0
LINE
  5
145
100
AcDbEntity
  8
LC-006-005-----0
370
    25
390
0
 62
     2
100
AcDbLine
 10
288.806837
 20
382.144933
 30
0.0
 11
292.838723
 21
386.176818
 31
0.0
  0
LINE
  5
146
100
AcDbEntity
  8
LC-006-005-----0
370
    25
390
0
 62
     2
100
AcDbLine
 10
263.556723
 20
359.723246
 30
0.0
 11
266.556723
 21
362.723246
 31
0.0
  0
LINE
  5
147
100
AcDbEntity
  8
LC-006-005-----0
370
    25
390
0
 62
     2
100
AcDbLine
 10
274.663897
 20
370.830419
 30
0.0
 11
277.745623
 21
373.912145
 31
0.0
  0
LINE
  5
148
100
AcDbEntity
  8
LC-006-005-----0
370
    25
390
0
 62
     2
100
AcDbLine
 10
288.806837
 20
384.97336
 30
0.0
 11
290.820501
 21
386.987023
 31
0.0
  0
LINE
  5
149
100
AcDbEntity
  8
LC-006-005-----0
370
    25
390
0
 62
     2
100
AcDbLine
 10
263.556723
 20
362.551673
 30
0.0
 11
266.556723
 21
365.551673
 31
0.0
  0
LINE
  5
14A
100
AcDbEntity
  8
LC-006-005-----0
370
    25
390
0
 62
     2
100
AcDbLine
 10
271.759413
 20
370.754362
 30
0.0
 11
274.841139
 21
373.836089
 31
0.0
  0
LINE
  5
14B
100
AcDbEntity
  8
LC-006-005-----0
370
    25
390
0
 62
     2
100
AcDbLine
 10
263.556723
 20
365.3801
 30
0.0
 11
266.556723
 21
368.3801
 31
0.0
  0
LINE
  5
14C
100
AcDbEntity
  8
LC-006-005-----0
370
    25
390
0
 62
     2
100
AcDbLine
 10
268.854929
 20
370.678306
 30
0.0
 11
271.936656
 21
373.760032
 31
0.0
  0
LINE
  5
14D
100
AcDbEntity
  8
LC-006-005-----0
370
    25
390
0
 62
     2
100
AcDbLine
 10
263.556723
 20
368.208527
 30
0.0
 11
269.032172
 21
373.683975
 31
0.0
  0
LINE
  5
14E
100
AcDbEntity
  8
LC-006-005-----0
370
    25
390
0
 62
     2
100
AcDbLine
 10
263.556723
 20
371.036954
 30
0.0
 11
266.127688
 21
373.607919
 31
0.0
  0
ENDBLK
  5
14F
100
AcDbEntity
  8
0
390
0
100
AcDbBlockEnd
  0
BLOCK
  5
153
100
AcDbEntity
  8
0
390
0
100
AcDbBlockBegin
  2
*X3
 70
    65
 10
0.0
 20
0.0
 30
0.0
  3
*X3
  1

  0
LINE
  5
154
100
AcDbEntity
  8
LC-006-005-----0
370
    25
390
0
 62
     2
100
AcDbLine
 10
193.616639
 20
170.989222
 30
0.0
 11
194.556723
 21
171.929306
 31
0.0
  0
LINE
  5
155
100
AcDbEntity
  8
LC-006-005-----0
370
    25
390
0
 62
     2
100
AcDbLine
 10
192.34528
 20
172.54629
 30
0.0
 11
194.556723
 21
174.757733
 31
0.0
  0
LINE
  5
156
100
AcDbEntity
  8
LC-006-005-----0
370
    25
390
0
 62
     2
100
AcDbLine
 10
191.747563
 20
174.777
 30
0.0
 11
194.556723
 21
177.586161
 31
0.0
  0
LINE
  5
157
100
AcDbEntity
  8
LC-006-005-----0
370
    25
390
0
 62
     2
100
AcDbLine
 10
191.556723
 20
177.414588
 30
0.0
 11
194.556723
 21
180.414588
 31
0.0
  0
LINE
  5
158
100
AcDbEntity
  8
LC-006-005-----0
370
    25
390
0
 62
     2
100
AcDbLine
 10
191.556723
 20
180.243015
 30
0.0
 11
194.556723
 21
183.243015
 31
0.0
  0
LINE
  5
159
100
AcDbEntity
  8
LC-006-005-----0
370
    25
390
0
 62
     2
100
AcDbLine
 10
191.556723
 20
183.071442
 30
0.0
 11
194.556723
 21
186.071442
 31
0.0
  0
LINE
  5
15A
100
AcDbEntity
  8
LC-006-005-----0
370
    25
390
0
 62
     2
100
AcDbLine
 10
191.556723
 20
185.899869
 30
0.0
 11
194.556723
 21
188.899869
 31
0.0
  0
LINE
  5
15B
100
AcDbEntity
  8
LC-006-005-----0
370
    25
390
0
 62
     2
100
AcDbLine
 10
191.556723
 20
188.728296
 30
0.0
 11
194.556723
 21
191.728296
 31
0.0
  0
LINE
  5
15C
100
AcDbEntity
  8
LC-006-005-----0
370
    25
390
0
 62
     2
100
AcDbLine
 10
191.556723
 20
191.556723
 30
0.0
 11
194.556723
 21
194.556723
 31
0.0
  0
LINE
  5
15D
100
AcDbEntity
  8
LC-006-005-----0
370
    25
390
0
 62
     2
100
AcDbLine
 10
191.556723
 20
194.38515
 30
0.0
 11
194.556723
 21
197.38515
 31
0.0
  0
LINE
  5
15E
100
AcDbEntity
  8
LC-006-005-----0
370
    25
390
0
 62
     2
100
AcDbLine
 10
191.556723
 20
197.213578
 30
0.0
 11
194.556723
 21
200.213578
 31
0.0
  0
LINE
  5
15F
100
AcDbEntity
  8
LC-006-005-----0
370
    25
390
0
 62
     2
100
AcDbLine
 10
191.556723
 20
200.042005
 30
0.0
 11
194.556723
 21
203.042005
 31
0.0
  0
LINE
  5
160
100
AcDbEntity
  8
LC-006-005-----0
370
    25
390
0
 62
     2
100
AcDbLine
 10
191.556723
 20
202.870432
 30
0.0
 11
194.556723
 21
205.870432
 31
0.0
  0
LINE
  5
161
100
AcDbEntity
  8
LC-006-005-----0
370
    25
390
0
 62
     2
100
AcDbLine
 10
191.556723
 20
205.698859
 30
0.0
 11
194.556723
 21
208.698859
 31
0.0
  0
LINE
  5
162
100
AcDbEntity
  8
LC-006-005-----0
370
    25
390
0
 62
     2
100
AcDbLine
 10
191.556723
 20
208.527286
 30
0.0
 11
194.556723
 21
211.527286
 31
0.0
  0
LINE
  5
163
100
AcDbEntity
  8
LC-006-005-----0
370
    25
390
0
 62
     2
100
AcDbLine
 10
191.556723
 20
211.355713
 30
0.0
 11
194.556723
 21
214.355713
 31
0.0
  0
LINE
  5
164
100
AcDbEntity
  8
LC-006-005-----0
370
    25
390
0
 62
     2
100
AcDbLine
 10
191.556723
 20
214.18414
 30
0.0
 11
194.556723
 21
217.18414
 31
0.0
  0
LINE
  5
165
100
AcDbEntity
  8
LC-006-005-----0
370
    25
390
0
 62
     2
100
AcDbLine
 10
191.556723
 20
217.012567
 30
0.0
 11
194.556723
 21
220.012567
 31
0.0
  0
LINE
  5
166
100
AcDbEntity
  8
LC-006-005-----0
370
    25
390
0
 62
     2
100
AcDbLine
 10
191.556723
 20
219.840995
 30
0.0
 11
194.556723
 21
222.840995
 31
0.0
  0
LINE
  5
167
100
AcDbEntity
  8
LC-006-005-----0
370
    25
390
0
 62
     2
100
AcDbLine
 10
191.556723
 20
222.669422
 30
0.0
 11
194.556723
 21
225.669422
 31
0.0
  0
LINE
  5
168
100
AcDbEntity
  8
LC-006-005-----0
370
    25
390
0
 62
     2
100
AcDbLine
 10
191.556723
 20
225.497849
 30
0.0
 11
194.556723
 21
228.497849
 31
0.0
  0
LINE
  5
169
100
AcDbEntity
  8
LC-006-005-----0
370
    25
390
0
 62
     2
100
AcDbLine
 10
191.556723
 20
228.326276
 30
0.0
 11
194.556723
 21
231.326276
 31
0.0
  0
LINE
  5
16A
100
AcDbEntity
  8
LC-006-005-----0
370
    25
390
0
 62
     2
100
AcDbLine
 10
191.556723
 20
231.154703
 30
0.0
 11
194.556723
 21
234.154703
 31
0.0
  0
LINE
  5
16B
100
AcDbEntity
  8
LC-006-005-----0
370
    25
390
0
 62
     2
100
AcDbLine
 10
191.556723
 20
233.98313
 30
0.0
 11
194.556723
 21
236.98313
 31
0.0
  0
LINE
  5
16C
100
AcDbEntity
  8
LC-006-005-----0
370
    25
390
0
 62
     2
100
AcDbLine
 10
191.556723
 20
236.811557
 30
0.0
 11
194.556723
 21
239.811557
 31
0.0
  0
LINE
  5
16D
100
AcDbEntity
  8
LC-006-005-----0
370
    25
390
0
 62
     2
100
AcDbLine
 10
191.556723
 20
239.639984
 30
0.0
 11
194.556723
 21
242.639984
 31
0.0
  0
LINE
  5
16E
100
AcDbEntity
  8
LC-006-005-----0
370
    25
390
0
 62
     2
100
AcDbLine
 10
191.556723
 20
242.468412
 30
0.0
 11
194.556723
 21
245.468412
 31
0.0
  0
LINE
  5
16F
100
AcDbEntity
  8
LC-006-005-----0
370
    25
390
0
 62
     2
100
AcDbLine
 10
191.556723
 20
245.296839
 30
0.0
 11
194.556723
 21
248.296839
 31
0.0
  0
LINE
  5
170
100
AcDbEntity
  8
LC-006-005-----0
370
    25
390
0
 62
     2
100
AcDbLine
 10
191.556723
 20
248.125266
 30
0.0
 11
194.556723
 21
251.125266
 31
0.0
  0
LINE
  5
171
100
AcDbEntity
  8
LC-006-005-----0
370
    25
390
0
 62
     2
100
AcDbLine
 10
191.556723
 20
250.953693
 30
0.0
 11
194.556723
 21
253.953693
 31
0.0
  0
LINE
  5
172
100
AcDbEntity
  8
LC-006-005-----0
370
    25
390
0
 62
     2
100
AcDbLine
 10
191.556723
 20
253.78212
 30
0.0
 11
194.556723
 21
256.78212
 31
0.0
  0
LINE
  5
173
100
AcDbEntity
  8
LC-006-005-----0
370
    25
390
0
 62
     2
100
AcDbLine
 10
191.556723
 20
256.610547
 30
0.0
 11
194.556723
 21
259.610547
 31
0.0
  0
LINE
  5
174
100
AcDbEntity
  8
LC-006-005-----0
370
    25
390
0
 62
     2
100
AcDbLine
 10
191.556723
 20
259.438974
 30
0.0
 11
194.556723
 21
262.438974
 31
0.0
  0
LINE
  5
175
100
AcDbEntity
  8
LC-006-005-----0
370
    25
390
0
 62
     2
100
AcDbLine
 10
191.556723
 20
262.267401
 30
0.0
 11
194.556723
 21
265.267401
 31
0.0
  0
LINE
  5
176
100
AcDbEntity
  8
LC-006-005-----0
370
    25
390
0
 62
     2
100
AcDbLine
 10
191.556723
 20
265.095829
 30
0.0
 11
194.556723
 21
268.095829
 31
0.0
  0
LINE
  5
177
100
AcDbEntity
  8
LC-006-005-----0
370
    25
390
0
 62
     2
100
AcDbLine
 10
191.556723
 20
267.924256
 30
0.0
 11
194.556723
 21
270.924256
 31
0.0
  0
LINE
  5
178
100
AcDbEntity
  8
LC-006-005-----0
370
    25
390
0
 62
     2
100
AcDbLine
 10
191.556723
 20
270.752683
 30
0.0
 11
194.556723
 21
273.752683
 31
0.0
  0
LINE
  5
179
100
AcDbEntity
  8
LC-006-005-----0
370
    25
390
0
 62
     2
100
AcDbLine
 10
191.556723
 20
273.58111
 30
0.0
 11
194.556723
 21
276.58111
 31
0.0
  0
LINE
  5
17A
100
AcDbEntity
  8
LC-006-005-----0
370
    25
390
0
 62
     2
100
AcDbLine
 10
191.556723
 20
276.409537
 30
0.0
 11
194.556723
 21
279.409537
 31
0.0
  0
LINE
  5
17B
100
AcDbEntity
  8
LC-006-005-----0
370
    25
390
0
 62
     2
100
AcDbLine
 10
191.556723
 20
279.237964
 30
0.0
 11
194.556723
 21
282.237964
 31
0.0
  0
LINE
  5
17C
100
AcDbEntity
  8
LC-006-005-----0
370
    25
390
0
 62
     2
100
AcDbLine
 10
191.556723
 20
282.066391
 30
0.0
 11
194.556723
 21
285.066391
 31
0.0
  0
LINE
  5
17D
100
AcDbEntity
  8
LC-006-005-----0
370
    25
390
0
 62
     2
100
AcDbLine
 10
191.556723
 20
284.894818
 30
0.0
 11
194.556723
 21
287.894818
 31
0.0
  0
LINE
  5
17E
100
AcDbEntity
  8
LC-006-005-----0
370
    25
390
0
 62
     2
100
AcDbLine
 10
191.556723
 20
287.723246
 30
0.0
 11
194.556723
 21
290.723246
 31
0.0
  0
LINE
  5
17F
100
AcDbEntity
  8
LC-006-005-----0
370
    25
390
0
 62
     2
100
AcDbLine
 10
191.556723
 20
290.551673
 30
0.0
 11
194.556723
 21
293.551673
 31
0.0
  0
LINE
  5
180
100
AcDbEntity
  8
LC-006-005-----0
370
    25
390
0
 62
     2
100
AcDbLine
 10
191.556723
 20
293.3801
 30
0.0
 11
194.556723
 21
296.3801
 31
0.0
  0
LINE
  5
181
100
AcDbEntity
  8
LC-006-005-----0
370
    25
390
0
 62
     2
100
AcDbLine
 10
191.556723
 20
296.208527
 30
0.0
 11
194.556723
 21
299.208527
 31
0.0
  0
LINE
  5
182
100
AcDbEntity
  8
LC-006-005-----0
370
    25
390
0
 62
     2
100
AcDbLine
 10
191.556723
 20
299.036954
 30
0.0
 11
194.556723
 21
302.036954
 31
0.0
  0
LINE
  5
183
100
AcDbEntity
  8
LC-006-005-----0
370
    25
390
0
 62
     2
100
AcDbLine
 10
191.556723
 20
301.865381
 30
0.0
 11
194.556723
 21
304.865381
 31
0.0
  0
LINE
  5
184
100
AcDbEntity
  8
LC-006-005-----0
370
    25
390
0
 62
     2
100
AcDbLine
 10
191.556723
 20
304.693808
 30
0.0
 11
194.556723
 21
307.693808
 31
0.0
  0
LINE
  5
185
100
AcDbEntity
  8
LC-006-005-----0
370
    25
390
0
 62
     2
100
AcDbLine
 10
191.556723
 20
307.522235
 30
0.0
 11
194.556723
 21
310.522235
 31
0.0
  0
LINE
  5
186
100
AcDbEntity
  8
LC-006-005-----0
370
    25
390
0
 62
     2
100
AcDbLine
 10
191.556723
 20
310.350663
 30
0.0
 11
194.556723
 21
313.350663
 31
0.0
  0
LINE
  5
187
100
AcDbEntity
  8
LC-006-005-----0
370
    25
390
0
 62
     2
100
AcDbLine
 10
191.556723
 20
313.17909
 30
0.0
 11
194.556723
 21
316.17909
 31
0.0
  0
LINE
  5
188
100
AcDbEntity
  8
LC-006-005-----0
370
    25
390
0
 62
     2
100
AcDbLine
 10
191.556723
 20
316.007517
 30
0.0
 11
194.556723
 21
319.007517
 31
0.0
  0
LINE
  5
189
100
AcDbEntity
  8
LC-006-005-----0
370
    25
390
0
 62
     2
100
AcDbLine
 10
191.556723
 20
318.835944
 30
0.0
 11
194.556723
 21
321.835944
 31
0.0
  0
LINE
  5
18A
100
AcDbEntity
  8
LC-006-005-----0
370
    25
390
0
 62
     2
100
AcDbLine
 10
191.556723
 20
321.664371
 30
0.0
 11
194.556723
 21
324.664371
 31
0.0
  0
LINE
  5
18B
100
AcDbEntity
  8
LC-006-005-----0
370
    25
390
0
 62
     2
100
AcDbLine
 10
191.556723
 20
324.492798
 30
0.0
 11
194.556723
 21
327.492798
 31
0.0
  0
LINE
  5
18C
100
AcDbEntity
  8
LC-006-005-----0
370
    25
390
0
 62
     2
100
AcDbLine
 10
191.556723
 20
327.321225
 30
0.0
 11
194.556723
 21
330.321225
 31
0.0
  0
LINE
  5
18D
100
AcDbEntity
  8
LC-006-005-----0
370
    25
390
0
 62
     2
100
AcDbLine
 10
191.556723
 20
330.149652
 30
0.0
 11
194.556723
 21
333.149652
 31
0.0
  0
LINE
  5
18E
100
AcDbEntity
  8
LC-006-005-----0
370
    25
390
0
 62
     2
100
AcDbLine
 10
191.556723
 20
332.97808
 30
0.0
 11
194.556723
 21
335.97808
 31
0.0
  0
LINE
  5
18F
100
AcDbEntity
  8
LC-006-005-----0
370
    25
390
0
 62
     2
100
AcDbLine
 10
191.556723
 20
335.806507
 30
0.0
 11
194.556723
 21
338.806507
 31
0.0
  0
LINE
  5
190
100
AcDbEntity
  8
LC-006-005-----0
370
    25
390
0
 62
     2
100
AcDbLine
 10
191.556723
 20
338.634934
 30
0.0
 11
194.556723
 21
341.634934
 31
0.0
  0
LINE
  5
191
100
AcDbEntity
  8
LC-006-005-----0
370
    25
390
0
 62
     2
100
AcDbLine
 10
191.556723
 20
341.463361
 30
0.0
 11
194.556723
 21
344.463361
 31
0.0
  0
LINE
  5
192
100
AcDbEntity
  8
LC-006-005-----0
370
    25
390
0
 62
     2
100
AcDbLine
 10
191.556723
 20
344.291788
 30
0.0
 11
194.556723
 21
347.291788
 31
0.0
  0
LINE
  5
193
100
AcDbEntity
  8
LC-006-005-----0
370
    25
390
0
 62
     2
100
AcDbLine
 10
191.556723
 20
347.120215
 30
0.0
 11
194.556723
 21
350.120215
 31
0.0
  0
LINE
  5
194
100
AcDbEntity
  8
LC-006-005-----0
370
    25
390
0
 62
     2
100
AcDbLine
 10
191.556723
 20
349.948642
 30
0.0
 11
194.556723
 21
352.948642
 31
0.0
  0
LINE
  5
195
100
AcDbEntity
  8
LC-006-005-----0
370
    25
390
0
 62
     2
100
AcDbLine
 10
191.556723
 20
352.777069
 30
0.0
 11
194.556723
 21
355.777069
 31
0.0
  0
LINE
  5
196
100
AcDbEntity
  8
LC-006-005-----0
370
    25
390
0
 62
     2
100
AcDbLine
 10
191.556723
 20
355.605497
 30
0.0
 11
194.556723
 21
358.605497
 31
0.0
  0
LINE
  5
197
100
AcDbEntity
  8
LC-006-005-----0
370
    25
390
0
 62
     2
100
AcDbLine
 10
191.556723
 20
358.433924
 30
0.0
 11
194.556723
 21
361.433924
 31
0.0
  0
LINE
  5
198
100
AcDbEntity
  8
LC-006-005-----0
370
    25
390
0
 62
     2
100
AcDbLine
 10
191.556723
 20
361.262351
 30
0.0
 11
194.556723
 21
364.262351
 31
0.0
  0
LINE
  5
199
100
AcDbEntity
  8
LC-006-005-----0
370
    25
390
0
 62
     2
100
AcDbLine
 10
191.556723
 20
364.090778
 30
0.0
 11
194.556723
 21
367.090778
 31
0.0
  0
LINE
  5
19A
100
AcDbEntity
  8
LC-006-005-----0
370
    25
390
0
 62
     2
100
AcDbLine
 10
191.556723
 20
366.919205
 30
0.0
 11
194.556723
 21
369.919205
 31
0.0
  0
LINE
  5
19B
100
AcDbEntity
  8
LC-006-005-----0
370
    25
390
0
 62
     2
100
AcDbLine
 10
191.556723
 20
369.747632
 30
0.0
 11
194.556723
 21
372.747632
 31
0.0
  0
LINE
  5
19C
100
AcDbEntity
  8
LC-006-005-----0
370
    25
390
0
 62
     2
100
AcDbLine
 10
189.648751
 20
370.668087
 30
0.0
 11
192.5732
 21
373.592536
 31
0.0
  0
LINE
  5
19D
100
AcDbEntity
  8
LC-006-005-----0
370
    25
390
0
 62
     2
100
AcDbLine
 10
186.892499
 20
370.740262
 30
0.0
 11
189.816948
 21
373.664711
 31
0.0
  0
LINE
  5
19E
100
AcDbEntity
  8
LC-006-005-----0
370
    25
390
0
 62
     2
100
AcDbLine
 10
184.136247
 20
370.812437
 30
0.0
 11
187.060696
 21
373.736886
 31
0.0
  0
LINE
  5
19F
100
AcDbEntity
  8
LC-006-005-----0
370
    25
390
0
 62
     2
100
AcDbLine
 10
181.379995
 20
370.884612
 30
0.0
 11
184.304444
 21
373.809061
 31
0.0
  0
LINE
  5
1A0
100
AcDbEntity
  8
LC-006-005-----0
370
    25
390
0
 62
     2
100
AcDbLine
 10
178.623743
 20
370.956787
 30
0.0
 11
181.548192
 21
373.881236
 31
0.0
  0
LINE
  5
1A1
100
AcDbEntity
  8
LC-006-005-----0
370
    25
390
0
 62
     2
100
AcDbLine
 10
175.830834
 20
370.992306
 30
0.0
 11
178.79194
 21
373.953411
 31
0.0
  0
LINE
  5
1A2
100
AcDbEntity
  8
LC-006-005-----0
370
    25
390
0
 62
     2
100
AcDbLine
 10
173.002407
 20
370.992306
 30
0.0
 11
176.002407
 21
373.992306
 31
0.0
  0
LINE
  5
1A3
100
AcDbEntity
  8
LC-006-005-----0
370
    25
390
0
 62
     2
100
AcDbLine
 10
170.17398
 20
370.992306
 30
0.0
 11
173.17398
 21
373.992306
 31
0.0
  0
LINE
  5
1A4
100
AcDbEntity
  8
LC-006-005-----0
370
    25
390
0
 62
     2
100
AcDbLine
 10
167.345553
 20
370.992306
 30
0.0
 11
170.345553
 21
373.992306
 31
0.0
  0
LINE
  5
1A5
100
AcDbEntity
  8
LC-006-005-----0
370
    25
390
0
 62
     2
100
AcDbLine
 10
164.517126
 20
370.992306
 30
0.0
 11
169.306697
 21
375.781877
 31
0.0
  0
LINE
  5
1A6
100
AcDbEntity
  8
LC-006-005-----0
370
    25
390
0
 62
     2
100
AcDbLine
 10
160.797323
 20
370.100931
 30
0.0
 11
169.306697
 21
378.610304
 31
0.0
  0
LINE
  5
1A7
100
AcDbEntity
  8
LC-006-005-----0
370
    25
390
0
 62
     2
100
AcDbLine
 10
157.949683
 20
370.081718
 30
0.0
 11
159.584671
 21
371.716705
 31
0.0
  0
LINE
  5
1A8
100
AcDbEntity
  8
LC-006-005-----0
370
    25
390
0
 62
     2
100
AcDbLine
 10
161.856723
 20
373.988758
 30
0.0
 11
169.306697
 21
381.438731
 31
0.0
  0
LINE
  5
1A9
100
AcDbEntity
  8
LC-006-005-----0
370
    25
390
0
 62
     2
100
AcDbLine
 10
155.701316
 20
370.661777
 30
0.0
 11
156.756723
 21
371.717185
 31
0.0
  0
LINE
  5
1AA
100
AcDbEntity
  8
LC-006-005-----0
370
    25
390
0
 62
     2
100
AcDbLine
 10
161.856723
 20
376.817185
 30
0.0
 11
169.306697
 21
384.267158
 31
0.0
  0
LINE
  5
1AB
100
AcDbEntity
  8
LC-006-005-----0
370
    25
390
0
 62
     2
100
AcDbLine
 10
153.200333
 20
370.989222
 30
0.0
 11
156.756723
 21
374.545612
 31
0.0
  0
LINE
  5
1AC
100
AcDbEntity
  8
LC-006-005-----0
370
    25
390
0
 62
     2
100
AcDbLine
 10
161.856723
 20
379.645612
 30
0.0
 11
169.306697
 21
387.095585
 31
0.0
  0
LINE
  5
1AD
100
AcDbEntity
  8
LC-006-005-----0
370
    25
390
0
 62
     2
100
AcDbLine
 10
151.688192
 20
372.305508
 30
0.0
 11
156.756723
 21
377.374039
 31
0.0
  0
LINE
  5
1AE
100
AcDbEntity
  8
LC-006-005-----0
370
    25
390
0
 62
     2
100
AcDbLine
 10
161.856723
 20
382.474039
 30
0.0
 11
164.842539
 21
385.459855
 31
0.0
  0
LINE
  5
1AF
100
AcDbEntity
  8
LC-006-005-----0
370
    25
390
0
 62
     2
100
AcDbLine
 10
165.274723
 20
385.892039
 30
0.0
 11
169.306697
 21
389.924012
 31
0.0
  0
LINE
  5
1B0
100
AcDbEntity
  8
LC-006-005-----0
370
    25
390
0
 62
     2
100
AcDbLine
 10
151.688192
 20
375.133935
 30
0.0
 11
156.756723
 21
380.202466
 31
0.0
  0
LINE
  5
1B1
100
AcDbEntity
  8
LC-006-005-----0
370
    25
390
0
 62
     2
100
AcDbLine
 10
161.856723
 20
385.302466
 30
0.0
 11
162.015053
 21
385.460796
 31
0.0
  0
LINE
  5
1B2
100
AcDbEntity
  8
LC-006-005-----0
370
    25
390
0
 62
     2
100
AcDbLine
 10
166.274723
 20
389.720466
 30
0.0
 11
166.593373
 21
390.039116
 31
0.0
  0
LINE
  5
1B3
100
AcDbEntity
  8
LC-006-005-----0
370
    25
390
0
 62
     2
100
AcDbLine
 10
151.688192
 20
377.962362
 30
0.0
 11
156.756723
 21
383.030893
 31
0.0
  0
LINE
  5
1B4
100
AcDbEntity
  8
LC-006-005-----0
370
    25
390
0
 62
     2
100
AcDbLine
 10
150.249811
 20
379.352408
 30
0.0
 11
152.794811
 21
381.897408
 31
0.0
  0
LINE
  5
1B5
100
AcDbEntity
  8
LC-006-005-----0
370
    25
390
0
 62
     2
100
AcDbLine
 10
153.338723
 20
382.44132
 30
0.0
 11
156.357811
 21
385.460408
 31
0.0
  0
LINE
  5
1B6
100
AcDbEntity
  8
LC-006-005-----0
370
    25
390
0
 62
     2
100
AcDbLine
 10
147.421384
 20
379.352408
 30
0.0
 11
149.966384
 21
381.897408
 31
0.0
  0
LINE
  5
1B7
100
AcDbEntity
  8
LC-006-005-----0
370
    25
390
0
 62
     2
100
AcDbLine
 10
153.338723
 20
385.269748
 30
0.0
 11
153.529384
 21
385.460408
 31
0.0
  0
LINE
  5
1B8
100
AcDbEntity
  8
LC-006-005-----0
370
    25
390
0
 62
     2
100
AcDbLine
 10
144.592957
 20
379.352408
 30
0.0
 11
147.137957
 21
381.897408
 31
0.0
  0
LINE
  5
1B9
100
AcDbEntity
  8
LC-006-005-----0
370
    25
390
0
 62
     2
100
AcDbLine
 10
143.163361
 20
380.751239
 30
0.0
 11
146.612192
 21
384.200071
 31
0.0
  0
LINE
  5
1BA
100
AcDbEntity
  8
LC-006-005-----0
370
    25
390
0
 62
     2
100
AcDbLine
 10
141.749147
 20
382.165453
 30
0.0
 11
145.044102
 21
385.460408
 31
0.0
  0
LINE
  5
1BB
100
AcDbEntity
  8
LC-006-005-----0
370
    25
390
0
 62
     2
100
AcDbLine
 10
139.881265
 20
383.125998
 30
0.0
 11
142.375952
 21
385.620685
 31
0.0
  0
LINE
  5
1BC
100
AcDbEntity
  8
LC-006-005-----0
370
    25
390
0
 62
     2
100
AcDbLine
 10
137.591847
 20
383.665007
 30
0.0
 11
140.086534
 21
386.159694
 31
0.0
  0
LINE
  5
1BD
100
AcDbEntity
  8
LC-006-005-----0
370
    25
390
0
 62
     2
100
AcDbLine
 10
135.302428
 20
384.204015
 30
0.0
 11
137.797115
 21
386.698702
 31
0.0
  0
LINE
  5
1BE
100
AcDbEntity
  8
LC-006-005-----0
370
    25
390
0
 62
     2
100
AcDbLine
 10
133.01301
 20
384.743024
 30
0.0
 11
135.507697
 21
387.237711
 31
0.0
  0
LINE
  5
1BF
100
AcDbEntity
  8
LC-006-005-----0
370
    25
390
0
 62
     2
100
AcDbLine
 10
130.723591
 20
385.282033
 30
0.0
 11
133.218278
 21
387.77672
 31
0.0
  0
LINE
  5
1C0
100
AcDbEntity
  8
LC-006-005-----0
370
    25
390
0
 62
     2
100
AcDbLine
 10
128.434173
 20
385.821041
 30
0.0
 11
130.92886
 21
388.315728
 31
0.0
  0
LINE
  5
1C1
100
AcDbEntity
  8
LC-006-005-----0
370
    25
390
0
 62
     2
100
AcDbLine
 10
126.144754
 20
386.36005
 30
0.0
 11
128.639441
 21
388.854737
 31
0.0
  0
LINE
  5
1C2
100
AcDbEntity
  8
LC-006-005-----0
370
    25
390
0
 62
     2
100
AcDbLine
 10
123.855336
 20
386.899058
 30
0.0
 11
126.350023
 21
389.393745
 31
0.0
  0
LINE
  5
1C3
100
AcDbEntity
  8
LC-006-005-----0
370
    25
390
0
 62
     2
100
AcDbLine
 10
121.510658
 20
387.382808
 30
0.0
 11
124.060604
 21
389.932754
 31
0.0
  0
LINE
  5
1C4
100
AcDbEntity
  8
LC-006-005-----0
370
    25
390
0
 62
     2
100
AcDbLine
 10
118.682231
 20
387.382808
 30
0.0
 11
121.60289
 21
390.303466
 31
0.0
  0
LINE
  5
1C5
100
AcDbEntity
  8
LC-006-005-----0
370
    25
390
0
 62
     2
100
AcDbLine
 10
115.853804
 20
387.382808
 30
0.0
 11
118.822979
 21
390.351983
 31
0.0
  0
LINE
  5
1C6
100
AcDbEntity
  8
LC-006-005-----0
370
    25
390
0
 62
     2
100
AcDbLine
 10
113.025377
 20
387.382808
 30
0.0
 11
116.025377
 21
390.382808
 31
0.0
  0
LINE
  5
1C7
100
AcDbEntity
  8
LC-006-005-----0
370
    25
390
0
 62
     2
100
AcDbLine
 10
110.19695
 20
387.382808
 30
0.0
 11
113.19695
 21
390.382808
 31
0.0
  0
LINE
  5
1C8
100
AcDbEntity
  8
LC-006-005-----0
370
    25
390
0
 62
     2
100
AcDbLine
 10
107.368523
 20
387.382808
 30
0.0
 11
110.368523
 21
390.382808
 31
0.0
  0
LINE
  5
1C9
100
AcDbEntity
  8
LC-006-005-----0
370
    25
390
0
 62
     2
100
AcDbLine
 10
104.540096
 20
387.382808
 30
0.0
 11
107.540096
 21
390.382808
 31
0.0
  0
LINE
  5
1CA
100
AcDbEntity
  8
LC-006-005-----0
370
    25
390
0
 62
     2
100
AcDbLine
 10
101.711668
 20
387.382808
 30
0.0
 11
104.711668
 21
390.382808
 31
0.0
  0
LINE
  5
1CB
100
AcDbEntity
  8
LC-006-005-----0
370
    25
390
0
 62
     2
100
AcDbLine
 10
98.883241
 20
387.382808
 30
0.0
 11
101.883241
 21
390.382808
 31
0.0
  0
LINE
  5
1CC
100
AcDbEntity
  8
LC-006-005-----0
370
    25
390
0
 62
     2
100
AcDbLine
 10
96.054814
 20
387.382808
 30
0.0
 11
99.054814
 21
390.382808
 31
0.0
  0
LINE
  5
1CD
100
AcDbEntity
  8
LC-006-005-----0
370
    25
390
0
 62
     2
100
AcDbLine
 10
93.226387
 20
387.382808
 30
0.0
 11
96.226387
 21
390.382808
 31
0.0
  0
LINE
  5
1CE
100
AcDbEntity
  8
LC-006-005-----0
370
    25
390
0
 62
     2
100
AcDbLine
 10
90.39796
 20
387.382808
 30
0.0
 11
93.39796
 21
390.382808
 31
0.0
  0
LINE
  5
1CF
100
AcDbEntity
  8
LC-006-005-----0
370
    25
390
0
 62
     2
100
AcDbLine
 10
87.569533
 20
387.382808
 30
0.0
 11
90.569533
 21
390.382808
 31
0.0
  0
LINE
  5
1D0
100
AcDbEntity
  8
LC-006-005-----0
370
    25
390
0
 62
     2
100
AcDbLine
 10
84.741106
 20
387.382808
 30
0.0
 11
87.741106
 21
390.382808
 31
0.0
  0
LINE
  5
1D1
100
AcDbEntity
  8
LC-006-005-----0
370
    25
390
0
 62
     2
100
AcDbLine
 10
81.912679
 20
387.382808
 30
0.0
 11
84.912679
 21
390.382808
 31
0.0
  0
LINE
  5
1D2
100
AcDbEntity
  8
LC-006-005-----0
370
    25
390
0
 62
     2
100
AcDbLine
 10
79.084251
 20
387.382808
 30
0.0
 11
82.084251
 21
390.382808
 31
0.0
  0
LINE
  5
1D3
100
AcDbEntity
  8
LC-006-005-----0
370
    25
390
0
 62
     2
100
AcDbLine
 10
76.255824
 20
387.382808
 30
0.0
 11
79.255824
 21
390.382808
 31
0.0
  0
LINE
  5
1D4
100
AcDbEntity
  8
LC-006-005-----0
370
    25
390
0
 62
     2
100
AcDbLine
 10
75.220849
 20
389.17626
 30
0.0
 11
76.263271
 21
390.218682
 31
0.0
  0
ENDBLK
  5
1D5
100
AcDbEntity
  8
0
390
0
100
AcDbBlockEnd
  0
BLOCK
  5
1D9
100
AcDbEntity
  8
0
390
0
100
AcDbBlockBegin
  2
*D4
 70
    65
 10
0.0
 20
0.0
 30
0.0
  3
*D4
  1

  0
LINE
  5
1DA
100
AcDbEntity
  8
LC-002-003-MTH-0
370
    25
390
0
 62
     2
100
AcDbLine
 10
75.056723
 20
387.382808
 30
0.0
 11
75.056723
 21
464.8
 31
0.0
  0
LINE
  5
1DB
100
AcDbEntity
  8
LC-002-003-MTH-0
370
    25
390
0
 62
     2
100
AcDbLine
 10
383.056723
 20
387.382808
 30
0.0
 11
383.056723
 21
464.8
 31
0.0
  0
LINE
  5
1DC
100
AcDbEntity
  8
LC-003-003-MTG-0
370
    25
390
0
 62
     2
100
AcDbLine
 10
75.056723
 20
448.0
 30
0.0
 11
182.42019
 21
448.0
 31
0.0
  0
LINE
  5
1DD
100
AcDbEntity
  8
LC-003-003-MTG-0
370
    25
390
0
 62
     2
100
AcDbLine
 10
290.187123
 20
448.0
 30
0.0
 11
383.056723
 21
448.0
 31
0.0
  0
LINE
  5
1DE
100
AcDbEntity
  8
LC-004-003-----0
370
    25
390
0
 62
     2
100
AcDbLine
 10
102.817179
 20
451.654733
 30
0.0
 11
75.056723
 21
448.0
 31
0.0
  0
LINE
  5
1DF
100
AcDbEntity
  8
LC-004-003-----0
370
    25
390
0
 62
     2
100
AcDbLine
 10
75.056723
 20
448.0
 30
0.0
 11
102.817179
 21
444.345267
 31
0.0
  0
LINE
  5
1E0
100
AcDbEntity
  8
LC-004-003-----0
370
    25
390
0
 62
     2
100
AcDbLine
 10
102.817179
 20
444.345267
 30
0.0
 11
102.817179
 21
451.654733
 31
0.0
  0
LINE
  5
1E1
100
AcDbEntity
  8
LC-004-003-----0
370
    25
390
0
 62
     2
100
AcDbLine
 10
102.879461
 20
450.704503
 30
0.0
 11
82.336723
 21
448.0
 31
0.0
  0
LINE
  5
1E2
100
AcDbEntity
  8
LC-004-003-----0
370
    25
390
0
 62
     2
100
AcDbLine
 10
82.336723
 20
448.0
 30
0.0
 11
102.879461
 21
445.295497
 31
0.0
  0
LINE
  5
1E3
100
AcDbEntity
  8
LC-004-003-----0
370
    25
390
0
 62
     2
100
AcDbLine
 10
102.941742
 20
449.754272
 30
0.0
 11
89.616723
 21
448.0
 31
0.0
  0
LINE
  5
1E4
100
AcDbEntity
  8
LC-004-003-----0
370
    25
390
0
 62
     2
100
AcDbLine
 10
89.616723
 20
448.0
 30
0.0
 11
102.941742
 21
446.245728
 31
0.0
  0
LINE
  5
1E5
100
AcDbEntity
  8
LC-004-003-----0
370
    25
390
0
 62
     2
100
AcDbLine
 10
103.004024
 20
448.804041
 30
0.0
 11
96.896723
 21
448.0
 31
0.0
  0
LINE
  5
1E6
100
AcDbEntity
  8
LC-004-003-----0
370
    25
390
0
 62
     2
100
AcDbLine
 10
96.896723
 20
448.0
 30
0.0
 11
103.004024
 21
447.195959
 31
0.0
  0
LINE
  5
1E7
100
AcDbEntity
  8
LC-004-003-----0
370
    25
390
0
 62
     2
100
AcDbLine
 10
355.296267
 20
444.345267
 30
0.0
 11
383.056723
 21
448.0
 31
0.0
  0
LINE
  5
1E8
100
AcDbEntity
  8
LC-004-003-----0
370
    25
390
0
 62
     2
100
AcDbLine
 10
383.056723
 20
448.0
 30
0.0
 11
355.296267
 21
451.654733
 31
0.0
  0
LINE
  5
1E9
100
AcDbEntity
  8
LC-004-003-----0
370
    25
390
0
 62
     2
100
AcDbLine
 10
355.296267
 20
451.654733
 30
0.0
 11
355.296267
 21
444.345267
 31
0.0
  0
LINE
  5
1EA
100
AcDbEntity
  8
LC-004-003-----0
370
    25
390
0
 62
     2
100
AcDbLine
 10
355.233986
 20
445.295497
 30
0.0
 11
375.776723
 21
448.0
 31
0.0
  0
LINE
  5
1EB
100
AcDbEntity
  8
LC-004-003-----0
370
    25
390
0
 62
     2
100
AcDbLine
 10
375.776723
 20
448.0
 30
0.0
 11
355.233986
 21
450.704503
 31
0.0
  0
LINE
  5
1EC
100
AcDbEntity
  8
LC-004-003-----0
370
    25
390
0
 62
     2
100
AcDbLine
 10
355.171704
 20
446.245728
 30
0.0
 11
368.496723
 21
448.0
 31
0.0
  0
LINE
  5
1ED
100
AcDbEntity
  8
LC-004-003-----0
370
    25
390
0
 62
     2
100
AcDbLine
 10
368.496723
 20
448.0
 30
0.0
 11
355.171704
 21
449.754272
 31
0.0
  0
LINE
  5
1EE
100
AcDbEntity
  8
LC-004-003-----0
370
    25
390
0
 62
     2
100
AcDbLine
 10
355.109423
 20
447.195959
 30
0.0
 11
361.216723
 21
448.0
 31
0.0
  0
LINE
  5
1EF
100
AcDbEntity
  8
LC-004-003-----0
370
    25
390
0
 62
     2
100
AcDbLine
 10
361.216723
 20
448.0
 30
0.0
 11
355.109423
 21
448.804041
 31
0.0
  0
TEXT
  5
1F0
100
AcDbEntity
  8
LC-004-003-----0
370
    -2
390
0
 62
     7
100
AcDbText
 10
170.404883
 20
455.827554
 30
0.0
 40
28.0
  1
%%c308
 41
0.9
 51
15.0
  7
LCTX15-400-0-0-ARIAL
 72
     1
 11
233.404883
 21
455.827554
 31
0.0
100
AcDbText
  0
ENDBLK
  5
1F1
100
AcDbEntity
  8
0
390
0
100
AcDbBlockEnd
  0
BLOCK
  5
1F4
100
AcDbEntity
  8
0
390
0
100
AcDbBlockBegin
  2
*D5
 70
    65
 10
0.0
 20
0.0
 30
0.0
  3
*D5
  1

  0
LINE
  5
1F5
100
AcDbEntity
  8
LC-002-003-MTH-0
370
    25
390
0
 62
     2
100
AcDbLine
 10
263.556723
 20
170.989222
 30
0.0
 11
408.8
 21
170.989222
 31
0.0
  0
LINE
  5
1F6
100
AcDbEntity
  8
LC-002-003-MTH-0
370
    25
390
0
 62
     2
100
AcDbLine
 10
383.056723
 20
387.382808
 30
0.0
 11
408.8
 21
387.382808
 31
0.0
  0
LINE
  5
1F7
100
AcDbEntity
  8
LC-003-003-MTG-0
370
    25
390
0
 62
     2
100
AcDbLine
 10
392.0
 20
170.989222
 30
0.0
 11
392.0
 21
244.981481
 31
0.0
  0
LINE
  5
1F8
100
AcDbEntity
  8
LC-003-003-MTG-0
370
    25
390
0
 62
     2
100
AcDbLine
 10
392.0
 20
327.884415
 30
0.0
 11
392.0
 21
387.382808
 31
0.0
  0
LINE
  5
1F9
100
AcDbEntity
  8
LC-004-003-----0
370
    25
390
0
 62
     2
100
AcDbLine
 10
388.345267
 20
198.749678
 30
0.0
 11
392.0
 21
170.989222
 31
0.0
  0
LINE
  5
1FA
100
AcDbEntity
  8
LC-004-003-----0
370
    25
390
0
 62
     2
100
AcDbLine
 10
392.0
 20
170.989222
 30
0.0
 11
395.654733
 21
198.749678
 31
0.0
  0
LINE
  5
1FB
100
AcDbEntity
  8
LC-004-003-----0
370
    25
390
0
 62
     2
100
AcDbLine
 10
395.654733
 20
198.749678
 30
0.0
 11
388.345267
 21
198.749678
 31
0.0
  0
LINE
  5
1FC
100
AcDbEntity
  8
LC-004-003-----0
370
    25
390
0
 62
     2
100
AcDbLine
 10
389.295497
 20
198.811959
 30
0.0
 11
392.0
 21
178.269222
 31
0.0
  0
LINE
  5
1FD
100
AcDbEntity
  8
LC-004-003-----0
370
    25
390
0
 62
     2
100
AcDbLine
 10
392.0
 20
178.269222
 30
0.0
 11
394.704503
 21
198.811959
 31
0.0
  0
LINE
  5
1FE
100
AcDbEntity
  8
LC-004-003-----0
370
    25
390
0
 62
     2
100
AcDbLine
 10
390.245728
 20
198.874241
 30
0.0
 11
392.0
 21
185.549222
 31
0.0
  0
LINE
  5
1FF
100
AcDbEntity
  8
LC-004-003-----0
370
    25
390
0
 62
     2
100
AcDbLine
 10
392.0
 20
185.549222
 30
0.0
 11
393.754272
 21
198.874241
 31
0.0
  0
LINE
  5
200
100
AcDbEntity
  8
LC-004-003-----0
370
    25
390
0
 62
     2
100
AcDbLine
 10
391.195959
 20
198.936522
 30
0.0
 11
392.0
 21
192.829222
 31
0.0
  0
LINE
  5
201
100
AcDbEntity
  8
LC-004-003-----0
370
    25
390
0
 62
     2
100
AcDbLine
 10
392.0
 20
192.829222
 30
0.0
 11
392.804041
 21
198.936522
 31
0.0
  0
LINE
  5
202
100
AcDbEntity
  8
LC-004-003-----0
370
    25
390
0
 62
     2
100
AcDbLine
 10
395.654733
 20
359.622352
 30
0.0
 11
392.0
 21
387.382808
 31
0.0
  0
LINE
  5
203
100
AcDbEntity
  8
LC-004-003-----0
370
    25
390
0
 62
     2
100
AcDbLine
 10
392.0
 20
387.382808
 30
0.0
 11
388.345267
 21
359.622352
 31
0.0
  0
LINE
  5
204
100
AcDbEntity
  8
LC-004-003-----0
370
    25
390
0
 62
     2
100
AcDbLine
 10
388.345267
 20
359.622352
 30
0.0
 11
395.654733
 21
359.622352
 31
0.0
  0
LINE
  5
205
100
AcDbEntity
  8
LC-004-003-----0
370
    25
390
0
 62
     2
100
AcDbLine
 10
394.704503
 20
359.560071
 30
0.0
 11
392.0
 21
380.102808
 31
0.0
  0
LINE
  5
206
100
AcDbEntity
  8
LC-004-003-----0
370
    25
390
0
 62
     2
100
AcDbLine
 10
392.0
 20
380.102808
 30
0.0
 11
389.295497
 21
359.560071
 31
0.0
  0
LINE
  5
207
100
AcDbEntity
  8
LC-004-003-----0
370
    25
390
0
 62
     2
100
AcDbLine
 10
393.754272
 20
359.497789
 30
0.0
 11
392.0
 21
372.822808
 31
0.0
  0
LINE
  5
208
100
AcDbEntity
  8
LC-004-003-----0
370
    25
390
0
 62
     2
100
AcDbLine
 10
392.0
 20
372.822808
 30
0.0
 11
390.245728
 21
359.497789
 31
0.0
  0
LINE
  5
209
100
AcDbEntity
  8
LC-004-003-----0
370
    25
390
0
 62
     2
100
AcDbLine
 10
392.804041
 20
359.435508
 30
0.0
 11
392.0
 21
365.542808
 31
0.0
  0
LINE
  5
20A
100
AcDbEntity
  8
LC-004-003-----0
370
    25
390
0
 62
     2
100
AcDbLine
 10
392.0
 20
365.542808
 30
0.0
 11
391.195959
 21
359.435508
 31
0.0
  0
TEXT
  5
20B
100
AcDbEntity
  8
LC-004-003-----0
370
    -2
390
0
 62
     7
100
AcDbText
 10
384.172446
 20
256.906175
 30
0.0
 40
28.0
  1
216
 50
90.0
 41
0.9
 51
15.0
  7
LCTX15-400-0-0-ARIAL
 72
     1
 11
384.172446
 21
283.534175
 31
0.0
100
AcDbText
  0
ENDBLK
  5
20C
100
AcDbEntity
  8
0
390
0
100
AcDbBlockEnd
  0
ENDSEC
  0
SECTION
  2
ENTITIES
  0
VIEWPORT
  5
20E
100
AcDbEntity
 67
     1
  8
LC-VIEWPORT
390
0
100
AcDbViewport
 10
420.0
 20
297.0
 30
0.0
 40
840.0
 41
594.0
 68
     1
 69
     1
 12
420.0
 22
297.0
 13
0.0
 23
0.0
 14
1.0
 24
1.0
 15
0.0
 25
0.0
 16
0.0
 26
0.0
 36
1.0
 17
0.0
 27
0.0
 37
0.0
 42
50.0
 43
0.0
 44
0.0
 45
594.0
 50
0.0
 51
0.0
 72
   100
 90
    32928
340
0
  1

281
     0
 71
     0
 74
     1
110
0.0
120
0.0
130
0.0
111
1.0
121
0.0
131
0.0
112
0.0
122
1.0
132
0.0
345
0
346
0
 79
     0
146
0.0
  0
LINE
  5
2C
100
AcDbEntity
  8
LC-001-002-----0
370
    25
390
0
 62
     2
100
AcDbLine
 10
159.310259
 20
369.989213
 30
0.0
 11
159.310259
 21
385.969408
 31
0.0
  0
LINE
  5
2D
100
AcDbEntity
  8
LC-001-002-----0
370
    25
390
0
 62
     2
100
AcDbLine
 10
298.806723
 20
369.989212
 30
0.0
 11
298.806723
 21
385.969408
 31
0.0
  0
LINE
  5
2E
100
AcDbEntity
  8
LC-001-002-----0
370
    25
390
0
 62
     2
100
AcDbLine
 10
229.056723
 20
390.382808
 30
0.0
 11
229.056723
 21
170.989222
 31
0.0
  0
LINE
  5
2F
102
{ACAD_REACTORS
330
20F
102
}
100
AcDbEntity
  8
LC-001-002-----0
370
    50
390
0
  6
ByBlock
 62
     7
100
AcDbLine
 10
341.056731
 20
390.382808
 30
0.0
 11
335.556723
 21
390.28682
 31
0.0
  0
DIMENSION
  5
4E
100
AcDbEntity
  8
LC-004-003-----0
370
    25
390
0
 62
     2
100
AcDbDimension
  2
*D0
 10
336.0
 20
270.989222
 30
0.0
 11
336.0
 21
270.989222
 31
0.0
 71
     5
 72
     1
 41
1.0
 42
0.0
  3
LC-DIM-L-0140-01-02
100
AcDbAlignedDimension
 13
306.425254
 23
370.989222
 33
0.0
 14
265.350952
 24
170.989222
 34
0.0
 50
90.0
100
AcDbRotatedDimension
  0
DIMENSION
  5
68
100
AcDbEntity
  8
LC-004-003-----0
370
    25
390
0
 62
     2
100
AcDbDimension
  2
*D1
 10
229.056723
 20
112.0
 30
0.0
 11
229.056723
 21
112.0
 31
0.0
 71
     5
 72
     1
 41
1.0
 42
0.0
  1
%%c<>
  3
LC-DIM-L-0140-01-02
100
AcDbAlignedDimension
 13
191.556723
 23
175.489222
 33
0.0
 14
266.556723
 24
175.489222
 34
0.0
100
AcDbRotatedDimension
  0
LINE
  5
69
102
{ACAD_REACTORS
330
20F
102
}
100
AcDbEntity
  8
LC-001-002-----0
370
    50
390
0
  6
ByBlock
 62
     7
100
AcDbLine
 10
192.762495
 20
170.989222
 30
0.0
 11
191.556723
 21
175.489222
 31
0.0
  0
ARC
  5
6A
102
{ACAD_REACTORS
330
20F
102
}
100
AcDbEntity
  8
LC-001-002-----0
370
    50
390
0
  6
ByBlock
 62
     7
100
AcDbCircle
 10
298.806723
 20
379.989212
 30
0.0
 40
10.0
100
AcDbArc
 50
244.11743
 51
295.841807
  0
LINE
  5
6B
102
{ACAD_REACTORS
330
20F
102
}
100
AcDbEntity
  8
LC-001-002-----0
370
    50
390
0
  6
ByBlock
 62
     7
100
AcDbLine
 10
306.425254
 20
379.352408
 30
0.0
 11
306.425254
 21
370.989222
 31
0.0
  0
LINE
  5
6C
102
{ACAD_REACTORS
330
20F
102
}
100
AcDbEntity
  8
LC-001-002-----0
370
    50
390
0
  6
ByBlock
 62
     7
100
AcDbLine
 10
266.556723
 20
370.618125
 30
0.0
 11
280.885368
 21
370.993334
 31
0.0
  0
LINE
  5
6D
102
{ACAD_REACTORS
330
20F
102
}
100
AcDbEntity
  8
LC-001-002-----0
370
    50
390
0
  6
ByBlock
 62
     7
100
AcDbLine
 10
306.425254
 20
370.989222
 30
0.0
 11
303.165642
 21
370.989222
 31
0.0
  0
LINE
  5
6E
102
{ACAD_REACTORS
330
20F
102
}
100
AcDbEntity
  8
LC-001-002-----0
370
    50
390
0
  6
ByBlock
 62
     7
100
AcDbLine
 10
263.556723
 20
373.540596
 30
0.0
 11
280.806837
 21
373.992306
 31
0.0
  0
LINE
  5
6F
102
{ACAD_REACTORS
330
20F
102
}
100
AcDbEntity
  8
LC-001-002-----0
370
    50
390
0
  6
ByBlock
 62
     7
100
AcDbLine
 10
263.556723
 20
170.989222
 30
0.0
 11
194.556723
 21
170.989222
 31
0.0
  0
LINE
  5
70
102
{ACAD_REACTORS
330
20F
102
}
100
AcDbEntity
  8
LC-001-002-----0
370
    50
390
0
  6
ByBlock
 62
     7
100
AcDbLine
 10
266.556714
 20
370.282811
 30
0.0
 11
266.556714
 21
370.282785
 31
0.0
  0
LINE
  5
71
102
{ACAD_REACTORS
330
20F
102
}
100
AcDbEntity
  8
LC-001-002-----0
370
    50
390
0
  6
ByBlock
 62
     7
100
AcDbLine
 10
191.556723
 20
370.618125
 30
0.0
 11
191.556723
 21
175.489222
 31
0.0
  0
LINE
  5
72
102
{ACAD_REACTORS
330
20F
102
}
100
AcDbEntity
  8
LC-001-002-----0
370
    50
390
0
  6
ByBlock
 62
     7
100
AcDbLine
 10
266.556723
 20
370.618125
 30
0.0
 11
266.556723
 21
175.489222
 31
0.0
  0
LINE
  5
73
102
{ACAD_REACTORS
330
20F
102
}
100
AcDbEntity
  8
LC-001-002-----0
370
    50
390
0
  6
ByBlock
 62
     7
100
AcDbLine
 10
194.556723
 20
373.540596
 30
0.0
 11
194.556723
 21
170.989222
 31
0.0
  0
LINE
  5
74
102
{ACAD_REACTORS
330
20F
102
}
100
AcDbEntity
  8
LC-001-002-----0
370
    50
390
0
  6
ByBlock
 62
     7
100
AcDbLine
 10
263.556723
 20
373.540596
 30
0.0
 11
263.556723
 21
170.989222
 31
0.0
  0
LINE
  5
75
102
{ACAD_REACTORS
330
20F
102
}
100
AcDbEntity
  8
LC-001-002-----0
370
    50
390
0
  6
ByBlock
 62
     7
100
AcDbLine
 10
265.350952
 20
170.989222
 30
0.0
 11
266.556723
 21
175.489222
 31
0.0
  0
LINE
  5
76
102
{ACAD_REACTORS
330
20F
102
}
100
AcDbEntity
  8
LC-001-002-----0
370
    50
390
0
  6
ByBlock
 62
     7
100
AcDbLine
 10
194.556723
 20
170.989222
 30
0.0
 11
192.762495
 21
170.989222
 31
0.0
  0
LINE
  5
77
102
{ACAD_REACTORS
330
20F
102
}
100
AcDbEntity
  8
LC-001-002-----0
370
    50
390
0
  6
ByBlock
 62
     7
100
AcDbLine
 10
263.556723
 20
170.989222
 30
0.0
 11
265.350952
 21
170.989222
 31
0.0
  0
LINE
  5
78
102
{ACAD_REACTORS
330
20F
102
}
100
AcDbEntity
  8
LC-001-002-----0
370
    50
390
0
  6
ByBlock
 62
     7
100
AcDbLine
 10
151.688192
 20
370.989222
 30
0.0
 11
154.947805
 21
370.989222
 31
0.0
  0
LINE
  5
79
102
{ACAD_REACTORS
330
20F
102
}
100
AcDbEntity
  8
LC-001-002-----0
370
    50
390
0
  6
ByBlock
 62
     7
100
AcDbLine
 10
263.556723
 20
373.540596
 30
0.0
 11
229.056723
 21
373.54027
 31
0.0
  0
LINE
  5
7A
102
{ACAD_REACTORS
330
20F
102
}
100
AcDbEntity
  8
LC-001-002-----0
370
    50
390
0
  6
ByBlock
 62
     7
100
AcDbLine
 10
280.806837
 20
373.992306
 30
0.0
 11
288.806837
 21
373.992306
 31
0.0
  0
ARC
  5
7B
102
{ACAD_REACTORS
330
20F
102
}
100
AcDbEntity
  8
LC-001-002-----0
370
    50
390
0
  6
ByBlock
 62
     7
100
AcDbCircle
 10
159.306723
 20
379.989212
 30
0.0
 40
10.0
100
AcDbArc
 50
244.157941
 51
295.88257
  0
LINE
  5
7C
102
{ACAD_REACTORS
330
20F
102
}
100
AcDbEntity
  8
LC-001-002-----0
370
    50
390
0
  6
ByBlock
 62
     7
100
AcDbLine
 10
194.556723
 20
373.540596
 30
0.0
 11
229.056723
 21
373.54027
 31
0.0
  0
LINE
  5
7D
102
{ACAD_REACTORS
330
20F
102
}
100
AcDbEntity
  8
LC-001-002-----0
370
    50
390
0
  6
ByBlock
 62
     7
100
AcDbLine
 10
177.306609
 20
373.992306
 30
0.0
 11
169.306609
 21
373.992306
 31
0.0
  0
LINE
  5
7E
102
{ACAD_REACTORS
330
20F
102
}
100
AcDbEntity
  8
LC-001-002-----0
370
    50
390
0
  6
ByBlock
 62
     7
100
AcDbLine
 10
194.556723
 20
373.540596
 30
0.0
 11
177.306609
 21
373.992306
 31
0.0
  0
LINE
  5
7F
102
{ACAD_REACTORS
330
20F
102
}
100
AcDbEntity
  8
LC-001-002-----0
370
    50
390
0
  6
ByBlock
 62
     7
100
AcDbLine
 10
311.601254
 20
381.897407
 30
0.0
 11
311.601254
 21
385.460407
 31
0.0
  0
LINE
  5
80
102
{ACAD_REACTORS
330
20F
102
}
100
AcDbEntity
  8
LC-001-002-----0
370
    50
390
0
  6
ByBlock
 62
     7
100
AcDbLine
 10
77.056723
 20
390.382808
 30
0.0
 11
229.056723
 21
390.382808
 31
0.0
  0
LINE
  5
81
102
{ACAD_REACTORS
330
20F
102
}
100
AcDbEntity
  8
LC-001-002-----0
370
    50
390
0
  6
ByBlock
 62
     7
100
AcDbLine
 10
304.774723
 20
385.460408
 30
0.0
 11
304.774723
 21
381.897408
 31
0.0
  0
LINE
  5
82
102
{ACAD_REACTORS
330
20F
102
}
100
AcDbEntity
  8
LC-001-002-----0
370
    50
390
0
  6
ByBlock
 62
     7
100
AcDbLine
 10
256.349647
 20
386.986705
 30
0.0
 11
256.349647
 21
390.040705
 31
0.0
  0
LINE
  5
83
102
{ACAD_REACTORS
330
20F
102
}
100
AcDbEntity
  8
LC-001-002-----0
370
    50
390
0
  6
ByBlock
 62
     7
100
AcDbLine
 10
256.349647
 20
390.040705
 30
0.0
 11
261.947723
 21
390.040705
 31
0.0
  0
LINE
  5
84
102
{ACAD_REACTORS
330
20F
102
}
100
AcDbEntity
  8
LC-001-002-----0
370
    50
390
0
  6
ByBlock
 62
     7
100
AcDbLine
 10
261.947723
 20
390.040705
 30
0.0
 11
261.947723
 21
386.986705
 31
0.0
  0
LINE
  5
85
102
{ACAD_REACTORS
330
20F
102
}
100
AcDbEntity
  8
LC-001-002-----0
370
    50
390
0
  6
ByBlock
 62
     7
100
AcDbLine
 10
146.612192
 20
381.897408
 30
0.0
 11
146.612192
 21
385.460408
 31
0.0
  0
LINE
  5
86
102
{ACAD_REACTORS
330
20F
102
}
100
AcDbEntity
  8
LC-001-002-----0
370
    50
390
0
  6
ByBlock
 62
     7
100
AcDbLine
 10
155.074723
 20
385.969408
 30
0.0
 11
154.780852
 21
385.460408
 31
0.0
  0
LINE
  5
87
102
{ACAD_REACTORS
330
20F
102
}
100
AcDbEntity
  8
LC-001-002-----0
370
    50
390
0
  6
ByBlock
 62
     7
100
AcDbLine
 10
155.368595
 20
385.460408
 30
0.0
 11
155.074723
 21
385.969408
 31
0.0
  0
LINE
  5
88
102
{ACAD_REACTORS
330
20F
102
}
100
AcDbEntity
  8
LC-001-002-----0
370
    50
390
0
  6
ByBlock
 62
     7
100
AcDbLine
 10
156.774723
 20
385.969408
 30
0.0
 11
156.480852
 21
385.460408
 31
0.0
  0
LINE
  5
89
102
{ACAD_REACTORS
330
20F
102
}
100
AcDbEntity
  8
LC-001-002-----0
370
    50
390
0
  6
ByBlock
 62
     7
100
AcDbLine
 10
295.944852
 20
385.460408
 30
0.0
 11
296.238723
 21
385.969408
 31
0.0
  0
LINE
  5
8A
102
{ACAD_REACTORS
330
20F
102
}
100
AcDbEntity
  8
LC-001-002-----0
370
    50
390
0
  6
ByBlock
 62
     7
100
AcDbLine
 10
169.306697
 20
390.039116
 30
0.0
 11
166.274723
 21
390.039116
 31
0.0
  0
LINE
  5
8B
102
{ACAD_REACTORS
330
20F
102
}
100
AcDbEntity
  8
LC-001-002-----0
370
    50
390
0
  6
ByBlock
 62
     7
100
AcDbLine
 10
143.056723
 20
385.460408
 30
0.0
 11
146.612192
 21
385.460408
 31
0.0
  0
LINE
  5
8C
102
{ACAD_REACTORS
330
20F
102
}
100
AcDbEntity
  8
LC-001-002-----0
370
    50
390
0
  6
ByBlock
 62
     7
100
AcDbLine
 10
311.601254
 20
385.460408
 30
0.0
 11
304.774723
 21
385.460408
 31
0.0
  0
LINE
  5
8D
102
{ACAD_REACTORS
330
20F
102
}
100
AcDbEntity
  8
LC-001-002-----0
370
    50
390
0
  6
ByBlock
 62
     7
100
AcDbLine
 10
165.274723
 20
386.986705
 30
0.0
 11
165.274723
 21
385.459705
 31
0.0
  0
LINE
  5
8E
102
{ACAD_REACTORS
330
20F
102
}
100
AcDbEntity
  8
LC-001-002-----0
370
    50
390
0
  6
ByBlock
 62
     7
100
AcDbLine
 10
166.274723
 20
386.986838
 30
0.0
 11
166.274723
 21
390.041306
 31
0.0
  0
LINE
  5
8F
102
{ACAD_REACTORS
330
20F
102
}
100
AcDbEntity
  8
LC-001-002-----0
370
    50
390
0
  6
ByBlock
 62
     7
100
AcDbLine
 10
122.556723
 20
390.28682
 30
0.0
 11
335.556723
 21
390.28682
 31
0.0
  0
LINE
  5
90
102
{ACAD_REACTORS
330
20F
102
}
100
AcDbEntity
  8
LC-001-002-----0
370
    50
390
0
  6
ByBlock
 62
     7
100
AcDbLine
 10
146.612192
 20
385.460408
 30
0.0
 11
153.338723
 21
385.460408
 31
0.0
  0
LINE
  5
91
102
{ACAD_REACTORS
330
20F
102
}
100
AcDbEntity
  8
LC-001-002-----0
370
    50
390
0
  6
ByBlock
 62
     7
100
AcDbLine
 10
169.306697
 20
386.986705
 30
0.0
 11
229.056723
 21
386.986705
 31
0.0
  0
LINE
  5
92
102
{ACAD_REACTORS
330
20F
102
}
100
AcDbEntity
  8
LC-001-002-----0
370
    50
390
0
  6
ByBlock
 62
     7
100
AcDbLine
 10
153.338723
 20
385.460408
 30
0.0
 11
153.338723
 21
381.897408
 31
0.0
  0
LINE
  5
93
102
{ACAD_REACTORS
330
20F
102
}
100
AcDbEntity
  8
LC-001-002-----0
370
    50
390
0
  6
ByBlock
 62
     7
100
AcDbLine
 10
335.556723
 20
390.28682
 30
0.0
 11
315.056723
 21
385.460408
 31
0.0
  0
LINE
  5
94
102
{ACAD_REACTORS
330
20F
102
}
100
AcDbEntity
  8
LC-001-002-----0
370
    50
390
0
  6
ByBlock
 62
     7
100
AcDbLine
 10
117.056715
 20
390.382808
 30
0.0
 11
122.556723
 21
390.28682
 31
0.0
  0
LINE
  5
95
102
{ACAD_REACTORS
330
20F
102
}
100
AcDbEntity
  8
LC-001-002-----0
370
    50
390
0
  6
ByBlock
 62
     7
100
AcDbLine
 10
383.056723
 20
387.382808
 30
0.0
 11
336.312819
 21
387.382808
 31
0.0
  0
LINE
  5
96
102
{ACAD_REACTORS
330
20F
102
}
100
AcDbEntity
  8
LC-001-002-----0
370
    50
390
0
  6
ByBlock
 62
     7
100
AcDbLine
 10
298.806723
 20
385.460408
 30
0.0
 11
304.774723
 21
385.460408
 31
0.0
  0
LINE
  5
97
102
{ACAD_REACTORS
330
20F
102
}
100
AcDbEntity
  8
LC-001-002-----0
370
    50
390
0
  6
ByBlock
 62
     7
100
AcDbLine
 10
169.306697
 20
373.992306
 30
0.0
 11
169.306697
 21
390.040705
 31
0.0
  0
LINE
  5
98
102
{ACAD_REACTORS
330
20F
102
}
100
AcDbEntity
  8
LC-001-002-----0
370
    50
390
0
  6
ByBlock
 62
     7
100
AcDbLine
 10
165.274723
 20
385.459711
 30
0.0
 11
159.306723
 21
385.461697
 31
0.0
  0
LINE
  5
99
102
{ACAD_REACTORS
330
20F
102
}
100
AcDbEntity
  8
LC-001-002-----0
370
    50
390
0
  6
ByBlock
 62
     7
100
AcDbLine
 10
304.774723
 20
381.897408
 30
0.0
 11
311.601254
 21
381.897408
 31
0.0
  0
LINE
  5
9A
102
{ACAD_REACTORS
330
20F
102
}
100
AcDbEntity
  8
LC-001-002-----0
370
    50
390
0
  6
ByBlock
 62
     7
100
AcDbLine
 10
153.338723
 20
381.897408
 30
0.0
 11
146.612192
 21
381.897408
 31
0.0
  0
LINE
  5
9B
102
{ACAD_REACTORS
330
20F
102
}
100
AcDbEntity
  8
LC-001-002-----0
370
    50
390
0
  6
ByBlock
 62
     7
100
AcDbLine
 10
306.425254
 20
379.352408
 30
0.0
 11
313.551254
 21
379.352408
 31
0.0
  0
LINE
  5
9C
102
{ACAD_REACTORS
330
20F
102
}
100
AcDbEntity
  8
LC-001-002-----0
370
    50
390
0
  6
ByBlock
 62
     7
100
AcDbLine
 10
313.551254
 20
379.352408
 30
0.0
 11
317.045446
 21
382.846599
 31
0.0
  0
LINE
  5
9D
102
{ACAD_REACTORS
330
20F
102
}
100
AcDbEntity
  8
LC-001-002-----0
370
    50
390
0
  6
ByBlock
 62
     7
100
AcDbLine
 10
294.244852
 20
385.460408
 30
0.0
 11
294.538723
 21
385.969408
 31
0.0
  0
LINE
  5
9E
102
{ACAD_REACTORS
330
20F
102
}
100
AcDbEntity
  8
LC-001-002-----0
370
    50
390
0
  6
ByBlock
 62
     7
100
AcDbLine
 10
294.538723
 20
385.969408
 30
0.0
 11
294.832595
 21
385.460408
 31
0.0
  0
LINE
  5
9F
102
{ACAD_REACTORS
330
20F
102
}
100
AcDbEntity
  8
LC-001-002-----0
370
    50
390
0
  6
ByBlock
 62
     7
100
AcDbLine
 10
292.838723
 20
385.460408
 30
0.0
 11
298.806723
 21
385.460408
 31
0.0
  0
LINE
  5
A0
102
{ACAD_REACTORS
330
20F
102
}
100
AcDbEntity
  8
LC-001-002-----0
370
    50
390
0
  6
ByBlock
 62
     7
100
AcDbLine
 10
157.068595
 20
385.460408
 30
0.0
 11
156.774723
 21
385.969408
 31
0.0
  0
LINE
  5
A1
102
{ACAD_REACTORS
330
20F
102
}
100
AcDbEntity
  8
LC-001-002-----0
370
    50
390
0
  6
ByBlock
 62
     7
100
AcDbLine
 10
151.688192
 20
379.352408
 30
0.0
 11
144.562192
 21
379.352408
 31
0.0
  0
LINE
  5
A2
102
{ACAD_REACTORS
330
20F
102
}
100
AcDbEntity
  8
LC-001-002-----0
370
    50
390
0
  6
ByBlock
 62
     7
100
AcDbLine
 10
144.562192
 20
379.352408
 30
0.0
 11
141.068001
 21
382.846599
 31
0.0
  0
LINE
  5
A3
102
{ACAD_REACTORS
330
20F
102
}
100
AcDbEntity
  8
LC-001-002-----0
370
    50
390
0
  6
ByBlock
 62
     7
100
AcDbLine
 10
158.474723
 20
385.969408
 30
0.0
 11
158.180852
 21
385.460408
 31
0.0
  0
LINE
  5
A4
102
{ACAD_REACTORS
330
20F
102
}
100
AcDbEntity
  8
LC-001-002-----0
370
    50
390
0
  6
ByBlock
 62
     7
100
AcDbLine
 10
158.768595
 20
385.460408
 30
0.0
 11
158.474723
 21
385.969408
 31
0.0
  0
LINE
  5
A5
102
{ACAD_REACTORS
330
20F
102
}
100
AcDbEntity
  8
LC-001-002-----0
370
    50
390
0
  6
ByBlock
 62
     7
100
AcDbLine
 10
160.174723
 20
385.969408
 30
0.0
 11
159.880852
 21
385.460408
 31
0.0
  0
LINE
  5
A6
102
{ACAD_REACTORS
330
20F
102
}
100
AcDbEntity
  8
LC-001-002-----0
370
    50
390
0
  6
ByBlock
 62
     7
100
AcDbLine
 10
160.468595
 20
385.460408
 30
0.0
 11
160.174723
 21
385.969408
 31
0.0
  0
LINE
  5
A7
102
{ACAD_REACTORS
330
20F
102
}
100
AcDbEntity
  8
LC-001-002-----0
370
    50
390
0
  6
ByBlock
 62
     7
100
AcDbLine
 10
296.256723
 20
385.460408
 30
0.0
 11
296.256723
 21
371.716705
 31
0.0
  0
LINE
  5
A8
102
{ACAD_REACTORS
330
20F
102
}
100
AcDbEntity
  8
LC-001-002-----0
370
    50
390
0
  6
ByBlock
 62
     7
100
AcDbLine
 10
159.306723
 20
385.460408
 30
0.0
 11
153.338723
 21
385.460408
 31
0.0
  0
LINE
  5
A9
102
{ACAD_REACTORS
330
20F
102
}
100
AcDbEntity
  8
LC-001-002-----0
370
    50
390
0
  6
ByBlock
 62
     7
100
AcDbLine
 10
165.274723
 20
386.986705
 30
0.0
 11
165.274723
 21
385.459705
 31
0.0
  0
LINE
  5
AA
102
{ACAD_REACTORS
330
20F
102
}
100
AcDbEntity
  8
LC-001-002-----0
370
    50
390
0
  6
ByBlock
 62
     7
100
AcDbLine
 10
114.056723
 20
387.382808
 30
0.0
 11
121.800627
 21
387.382808
 31
0.0
  0
LINE
  5
AB
102
{ACAD_REACTORS
330
20F
102
}
100
AcDbEntity
  8
LC-001-002-----0
370
    50
390
0
  6
ByBlock
 62
     7
100
AcDbLine
 10
301.356723
 20
385.460408
 30
0.0
 11
301.356723
 21
371.716705
 31
0.0
  0
LINE
  5
AC
102
{ACAD_REACTORS
330
20F
102
}
100
AcDbEntity
  8
LC-001-002-----0
370
    50
390
0
  6
ByBlock
 62
     7
100
AcDbLine
 10
301.356723
 20
371.716705
 30
0.0
 11
296.256723
 21
371.716705
 31
0.0
  0
LINE
  5
AD
102
{ACAD_REACTORS
330
20F
102
}
100
AcDbEntity
  8
LC-001-002-----0
370
    50
390
0
  6
ByBlock
 62
     7
100
AcDbLine
 10
122.556723
 20
390.28682
 30
0.0
 11
143.056723
 21
385.460408
 31
0.0
  0
LINE
  5
AE
102
{ACAD_REACTORS
330
20F
102
}
100
AcDbEntity
  8
LC-001-002-----0
370
    50
390
0
  6
ByBlock
 62
     7
100
AcDbLine
 10
161.874723
 20
385.969408
 30
0.0
 11
161.580852
 21
385.460408
 31
0.0
  0
LINE
  5
AF
102
{ACAD_REACTORS
330
20F
102
}
100
AcDbEntity
  8
LC-001-002-----0
370
    50
390
0
  6
ByBlock
 62
     7
100
AcDbLine
 10
156.756723
 20
371.716705
 30
0.0
 11
161.856723
 21
371.716705
 31
0.0
  0
LINE
  5
B0
102
{ACAD_REACTORS
330
20F
102
}
100
AcDbEntity
  8
LC-001-002-----0
370
    50
390
0
  6
ByBlock
 62
     7
100
AcDbLine
 10
165.274723
 20
386.986705
 30
0.0
 11
166.274723
 21
386.986705
 31
0.0
  0
LINE
  5
B1
102
{ACAD_REACTORS
330
20F
102
}
100
AcDbEntity
  8
LC-001-002-----0
370
    50
390
0
  6
ByBlock
 62
     7
100
AcDbLine
 10
162.1684
 20
385.460745
 30
0.0
 11
161.874723
 21
385.969408
 31
0.0
  0
LINE
  5
B2
102
{ACAD_REACTORS
330
20F
102
}
100
AcDbEntity
  8
LC-001-002-----0
370
    50
390
0
  6
ByBlock
 62
     7
100
AcDbLine
 10
292.838723
 20
386.986631
 30
0.0
 11
288.836837
 21
386.987408
 31
0.0
  0
LINE
  5
B3
102
{ACAD_REACTORS
330
20F
102
}
100
AcDbEntity
  8
LC-001-002-----0
370
    50
390
0
  6
ByBlock
 62
     7
100
AcDbLine
 10
311.601254
 20
385.460408
 30
0.0
 11
315.056723
 21
385.460408
 31
0.0
  0
LINE
  5
B4
102
{ACAD_REACTORS
330
20F
102
}
100
AcDbEntity
  8
LC-001-002-----0
370
    50
390
0
  6
ByBlock
 62
     7
100
AcDbLine
 10
288.806837
 20
386.986705
 30
0.0
 11
288.806837
 21
373.990602
 31
0.0
  0
LINE
  5
B5
102
{ACAD_REACTORS
330
20F
102
}
100
AcDbEntity
  8
LC-001-002-----0
370
    50
390
0
  6
ByBlock
 62
     7
100
AcDbLine
 10
229.056723
 20
386.986705
 30
0.0
 11
288.806837
 21
386.986705
 31
0.0
  0
LINE
  5
B6
102
{ACAD_REACTORS
330
20F
102
}
100
AcDbEntity
  8
LC-001-002-----0
370
    50
390
0
  6
ByBlock
 62
     7
100
AcDbLine
 10
151.688192
 20
379.352408
 30
0.0
 11
151.688192
 21
370.989222
 31
0.0
  0
LINE
  5
B7
102
{ACAD_REACTORS
330
20F
102
}
100
AcDbEntity
  8
LC-001-002-----0
370
    50
390
0
  6
ByBlock
 62
     7
100
AcDbLine
 10
163.574723
 20
385.969408
 30
0.0
 11
163.280833
 21
385.460375
 31
0.0
  0
LINE
  5
B8
102
{ACAD_REACTORS
330
20F
102
}
100
AcDbEntity
  8
LC-001-002-----0
370
    50
390
0
  6
ByBlock
 62
     7
100
AcDbLine
 10
163.868727
 20
385.460179
 30
0.0
 11
163.574723
 21
385.969408
 31
0.0
  0
LINE
  5
B9
102
{ACAD_REACTORS
330
20F
102
}
100
AcDbEntity
  8
LC-001-002-----0
370
    50
390
0
  6
ByBlock
 62
     7
100
AcDbLine
 10
297.644852
 20
385.460408
 30
0.0
 11
297.938723
 21
385.969408
 31
0.0
  0
LINE
  5
BA
102
{ACAD_REACTORS
330
20F
102
}
100
AcDbEntity
  8
LC-001-002-----0
370
    50
390
0
  6
ByBlock
 62
     7
100
AcDbLine
 10
165.274723
 20
386.986705
 30
0.0
 11
165.274723
 21
385.459705
 31
0.0
  0
LINE
  5
BB
102
{ACAD_REACTORS
330
20F
102
}
100
AcDbEntity
  8
LC-001-002-----0
370
    50
390
0
  6
ByBlock
 62
     7
100
AcDbLine
 10
161.856723
 20
385.460408
 30
0.0
 11
161.856723
 21
371.716705
 31
0.0
  0
LINE
  5
BC
102
{ACAD_REACTORS
330
20F
102
}
100
AcDbEntity
  8
LC-001-002-----0
370
    50
390
0
  6
ByBlock
 62
     7
100
AcDbLine
 10
156.756723
 20
385.460408
 30
0.0
 11
156.756723
 21
371.716705
 31
0.0
  0
LINE
  5
BD
102
{ACAD_REACTORS
330
20F
102
}
100
AcDbEntity
  8
LC-001-002-----0
370
    50
390
0
  6
ByBlock
 62
     7
100
AcDbLine
 10
292.838723
 20
386.986705
 30
0.0
 11
292.838723
 21
385.460408
 31
0.0
  0
LINE
  5
BE
102
{ACAD_REACTORS
330
20F
102
}
100
AcDbEntity
  8
LC-001-002-----0
370
    50
390
0
  6
ByBlock
 62
     7
100
AcDbLine
 10
155.074723
 20
385.969408
 30
0.0
 11
163.574723
 21
385.969408
 31
0.0
  0
LINE
  5
BF
102
{ACAD_REACTORS
330
20F
102
}
100
AcDbEntity
  8
LC-001-002-----0
370
    50
390
0
  6
ByBlock
 62
     7
100
AcDbLine
 10
303.038723
 20
385.969408
 30
0.0
 11
292.838723
 21
385.969408
 31
0.0
  0
LINE
  5
C0
102
{ACAD_REACTORS
330
20F
102
}
100
AcDbEntity
  8
LC-001-002-----0
370
    50
390
0
  6
ByBlock
 62
     7
100
AcDbLine
 10
299.344852
 20
385.460408
 30
0.0
 11
299.638723
 21
385.969408
 31
0.0
  0
LINE
  5
C1
102
{ACAD_REACTORS
330
20F
102
}
100
AcDbEntity
  8
LC-001-002-----0
370
    50
390
0
  6
ByBlock
 62
     7
100
AcDbLine
 10
301.044852
 20
385.460408
 30
0.0
 11
301.338723
 21
385.969408
 31
0.0
  0
LINE
  5
C2
102
{ACAD_REACTORS
330
20F
102
}
100
AcDbEntity
  8
LC-001-002-----0
370
    50
390
0
  6
ByBlock
 62
     7
100
AcDbLine
 10
302.744852
 20
385.460408
 30
0.0
 11
303.038723
 21
385.969408
 31
0.0
  0
LINE
  5
C3
102
{ACAD_REACTORS
330
20F
102
}
100
AcDbEntity
  8
LC-001-002-----0
370
    50
390
0
  6
ByBlock
 62
     7
100
AcDbLine
 10
303.038723
 20
385.969408
 30
0.0
 11
303.332595
 21
385.460408
 31
0.0
  0
LINE
  5
C4
102
{ACAD_REACTORS
330
20F
102
}
100
AcDbEntity
  8
LC-001-002-----0
370
    50
390
0
  6
ByBlock
 62
     7
100
AcDbLine
 10
301.338723
 20
385.969408
 30
0.0
 11
301.632595
 21
385.460408
 31
0.0
  0
LINE
  5
C5
102
{ACAD_REACTORS
330
20F
102
}
100
AcDbEntity
  8
LC-001-002-----0
370
    50
390
0
  6
ByBlock
 62
     7
100
AcDbLine
 10
299.638723
 20
385.969408
 30
0.0
 11
299.932595
 21
385.460408
 31
0.0
  0
LINE
  5
C6
102
{ACAD_REACTORS
330
20F
102
}
100
AcDbEntity
  8
LC-001-002-----0
370
    50
390
0
  6
ByBlock
 62
     7
100
AcDbLine
 10
297.938723
 20
385.969408
 30
0.0
 11
298.232595
 21
385.460408
 31
0.0
  0
LINE
  5
C7
102
{ACAD_REACTORS
330
20F
102
}
100
AcDbEntity
  8
LC-001-002-----0
370
    50
390
0
  6
ByBlock
 62
     7
100
AcDbLine
 10
296.238723
 20
385.969408
 30
0.0
 11
296.532595
 21
385.460408
 31
0.0
  0
LINE
  5
C8
102
{ACAD_REACTORS
330
20F
102
}
100
AcDbEntity
  8
LC-001-002-----0
370
    50
390
0
  6
ByBlock
 62
     7
100
AcDbLine
 10
280.84611
 20
370.992306
 30
0.0
 11
294.441442
 21
370.992306
 31
0.0
  0
LINE
  5
C9
102
{ACAD_REACTORS
330
20F
102
}
100
AcDbEntity
  8
LC-001-002-----0
370
    50
390
0
  6
ByBlock
 62
     7
100
AcDbLine
 10
191.556723
 20
370.618125
 30
0.0
 11
177.267338
 21
370.992306
 31
0.0
  0
LINE
  5
CA
102
{ACAD_REACTORS
330
20F
102
}
100
AcDbEntity
  8
LC-001-002-----0
370
    50
390
0
  6
ByBlock
 62
     7
100
AcDbLine
 10
177.267338
 20
370.992306
 30
0.0
 11
163.672004
 21
370.992306
 31
0.0
  0
LINE
  5
CB
100
AcDbEntity
  8
LC-001-002-----0
370
    50
390
0
  6
ByBlock
 62
     7
100
AcDbLine
 10
383.056723
 20
388.382808
 30
0.0
 11
383.056723
 21
387.382808
 31
0.0
  0
LINE
  5
CC
100
AcDbEntity
  8
LC-001-002-----0
370
    50
390
0
  6
ByBlock
 62
     7
100
AcDbLine
 10
336.312819
 20
387.382808
 30
0.0
 11
317.045446
 21
382.846599
 31
0.0
  0
LINE
  5
CD
102
{ACAD_REACTORS
330
20F
102
}
100
AcDbEntity
  8
LC-001-002-----0
370
    50
390
0
  6
ByBlock
 62
     7
100
AcDbLine
 10
75.056723
 20
387.382808
 30
0.0
 11
121.800627
 21
387.382808
 31
0.0
  0
LINE
  5
CE
102
{ACAD_REACTORS
330
20F
102
}
100
AcDbEntity
  8
LC-001-002-----0
370
    50
390
0
  6
ByBlock
 62
     7
100
AcDbLine
 10
75.056723
 20
388.382808
 30
0.0
 11
75.056723
 21
387.382808
 31
0.0
  0
LINE
  5
CF
102
{ACAD_REACTORS
330
20F
102
}
100
AcDbEntity
  8
LC-001-002-----0
370
    50
390
0
  6
ByBlock
 62
     7
100
AcDbLine
 10
121.800627
 20
387.382808
 30
0.0
 11
141.068001
 21
382.846599
 31
0.0
  0
ARC
  5
D1
100
AcDbEntity
  8
LC-005-002-RND-0
370
    50
390
0
 62
     1
100
AcDbCircle
 10
381.056723
 20
388.382808
 30
0.0
 40
2.0
100
AcDbArc
 50
360.0
 51
90.0
  0
LINE
  5
D2
102
{ACAD_REACTORS
330
20F
102
}
100
AcDbEntity
  8
LC-001-002-----0
370
    50
390
0
  6
ByBlock
 62
     1
100
AcDbLine
 10
229.056723
 20
390.382808
 30
0.0
 11
381.056723
 21
390.382808
 31
0.0
  0
INSERT
  5
150
100
AcDbEntity
  8
LC-006-005-----0
370
    25
390
0
 62
     2
100
AcDbBlockReference
  2
*X2
 10
0.0
 20
0.0
 30
0.0
  0
ARC
  5
151
102
{ACAD_REACTORS
330
20F
102
}
100
AcDbEntity
  8
LC-005-002-RND-0
370
    50
390
0
 62
     1
100
AcDbCircle
 10
77.056723
 20
388.382808
 30
0.0
 40
2.0
100
AcDbArc
 50
90.0
 51
180.0
  0
INSERT
  5
1D6
100
AcDbEntity
  8
LC-006-005-----0
370
    25
390
0
 62
     2
100
AcDbBlockReference
  2
*X3
 10
0.0
 20
0.0
 30
0.0
  0
DIMENSION
  5
1F2
100
AcDbEntity
  8
LC-004-003-----0
370
    25
390
0
 62
     2
100
AcDbDimension
  2
*D4
 10
229.056723
 20
448.0
 30
0.0
 11
229.056723
 21
448.0
 31
0.0
 71
     5
 72
     1
 41
1.0
 42
0.0
  1
%%c<>
  3
LC-DIM-L-0140-02-02
100
AcDbAlignedDimension
 13
75.056723
 23
387.382808
 33
0.0
 14
383.056723
 24
387.382808
 34
0.0
100
AcDbRotatedDimension
  0
DIMENSION
  5
20D
100
AcDbEntity
  8
LC-004-003-----0
370
    25
390
0
 62
     2
100
AcDbDimension
  2
*D5
 10
392.0
 20
279.186015
 30
0.0
 11
392.0
 21
279.186015
 31
0.0
 71
     5
 72
     1
 41
1.0
 42
0.0
  1
216
  3
LC-DIM-L-0140-02-02
100
AcDbAlignedDimension
 13
263.556723
 23
170.989222
 33
0.0
 14
383.056723
 24
387.382808
 34
0.0
 50
90.0
100
AcDbRotatedDimension
  0
ENDSEC
  0
SECTION
  2
OBJECTS
  0
DICTIONARY
  5
19
100
AcDbDictionary
280
     0
281
     1
  3
ACAD_GROUP
350
1A
  3
ACAD_MLINESTYLE
350
1B
  3
ACAD_LAYOUT
350
1E
  3
ACAD_PLOTSETTINGS
350
22
  3
ACAD_PLOTSTYLENAME
350
1F
  0
DICTIONARY
  5
1A
102
{ACAD_REACTORS
330
19
102
}
100
AcDbDictionary
280
     0
281
     1
  3
ablaufschn
350
20F
  0
DICTIONARY
  5
1B
102
{ACAD_REACTORS
330
19
102
}
100
AcDbDictionary
280
     0
281
     1
  3
Standard
350
1C
  0
MLINESTYLE
  5
1C
102
{ACAD_REACTORS
330
1B
102
}
100
AcDbMlineStyle
  2
Standard
 70
     0
  3

 62
     0
 51
90.0
 52
90.0
 71
     2
 49
0.5
 62
   256
  6
ByLayer
 49
-0.5
 62
   256
  6
ByLayer
  0
ACDBDICTIONARYWDFLT
  5
1F
102
{ACAD_REACTORS
330
19
102
}
100
AcDbDictionary
281
     1
  3
Normal
350
1D
100
AcDbDictionaryWithDefault
340
1D
  0
ACDBPLACEHOLDER
  5
1D
102
{ACAD_REACTORS
330
1F
102
}
  0
LAYOUT
  5
20
102
{ACAD_REACTORS
330
1E
102
}
100
AcDbPlotSettings
  1

  2

  4

  6

 40
0.0
 41
0.0
 42
0.0
 43
0.0
 44
0.0
 45
0.0
 46
0.0
 47
0.0
 48
0.0
 49
0.0
140
0.0
141
0.0
142
1.0
143
1.0
 70
  1152
 72
     0
 73
     0
 74
     0
  7

 75
     0
147
1.0
148
0.0
149
0.0
100
AcDbLayout
  1
Model
 70
     0
 71
     0
 10
0.0
 20
0.0
 11
0.0
 21
0.0
 12
0.0
 22
0.0
 32
0.0
 14
0.0
 24
0.0
 34
0.0
 15
0.0
 25
0.0
 35
0.0
146
0.0
 13
0.0
 23
0.0
 33
0.0
 16
0.0
 26
0.0
 36
0.0
 17
0.0
 27
0.0
 37
0.0
 76
     0
330
A
331
0
345
0
346
0
  0
LAYOUT
  5
21
102
{ACAD_REACTORS
330
1E
102
}
100
AcDbPlotSettings
  1

  2

  4

  6

 40
0.0
 41
0.0
 42
0.0
 43
0.0
 44
0.0
 45
0.0
 46
0.0
 47
0.0
 48
0.0
 49
0.0
140
0.0
141
0.0
142
1.0
143
1.0
 70
   128
 72
     0
 73
     0
 74
     0
  7

 75
     0
147
1.0
148
0.0
149
0.0
100
AcDbLayout
  1
Layout1
 70
     0
 71
     0
 10
0.0
 20
0.0
 11
0.0
 21
0.0
 12
0.0
 22
0.0
 32
0.0
 14
0.0
 24
0.0
 34
0.0
 15
0.0
 25
0.0
 35
0.0
146
0.0
 13
0.0
 23
0.0
 33
0.0
 16
0.0
 26
0.0
 36
0.0
 17
0.0
 27
0.0
 37
0.0
 76
     0
330
B
331
0
345
0
346
0
  0
DICTIONARY
  5
1E
102
{ACAD_REACTORS
330
19
102
}
100
AcDbDictionary
280
     0
281
     1
  3
Layout1
350
21
  3
Model
350
20
  0
DICTIONARY
  5
22
102
{ACAD_REACTORS
330
19
102
}
100
AcDbDictionary
280
     0
281
     1
  0
GROUP
  5
20F
102
{ACAD_REACTORS
330
1A
102
}
100
AcDbGroup
300
ablaufschn
 70
     0
 71
     1
340
2F
340
69
340
6A
340
6B
340
6C
340
6D
340
6E
340
6F
340
70
340
71
340
72
340
73
340
74
340
75
340
76
340
77
340
78
340
79
340
7A
340
7B
340
7C
340
7D
340
7E
340
7F
340
80
340
81
340
82
340
83
340
84
340
85
340
86
340
87
340
88
340
89
340
8A
340
8B
340
8C
340
8D
340
8E
340
8F
340
90
340
91
340
92
340
93
340
94
340
95
340
96
340
97
340
98
340
99
340
9A
340
9B
340
9C
340
9D
340
9E
340
9F
340
A0
340
A1
340
A2
340
A3
340
A4
340
A5
340
A6
340
A7
340
A8
340
A9
340
AA
340
AB
340
AC
340
AD
340
AE
340
AF
340
B0
340
B1
340
B2
340
B3
340
B4
340
B5
340
B6
340
B7
340
B8
340
B9
340
BA
340
BB
340
BC
340
BD
340
BE
340
BF
340
C0
340
C1
340
C2
340
C3
340
C4
340
C5
340
C6
340
C7
340
C8
340
C9
340
CA
340
CD
340
CE
340
CF
340
D2
340
151
  0
ENDSEC
  0
EOF
